  0
SECTION
  2
HEADER
  9
$ACADVER
  1
AC1018
  9
$ACADMAINTVER
 70
     2
  9
$DWGCODEPAGE
  3
ANSI_1252
  9
$INSBASE
 10
0.0
 20
0.0
 30
0.0
  9
$EXTMIN
 10
-0.025627235270008
 20
-0.0362442327398185
 30
-0.000000000000013
  9
$EXTMAX
 10
420.0256404375887
 20
594.0362629045889
 30
0.0000000000000023
  9
$LIMMIN
 10
0.0
 20
0.0
  9
$LIMMAX
 10
419.9999999999999
 20
594.0
  9
$ORTHOMODE
 70
     1
  9
$REGENMODE
 70
     1
  9
$FILLMODE
 70
     1
  9
$QTEXTMODE
 70
     0
  9
$MIRRTEXT
 70
     1
  9
$LTSCALE
 40
20.0
  9
$ATTMODE
 70
     1
  9
$TEXTSIZE
 40
3.5
  9
$TRACEWID
 40
0.5
  9
$TEXTSTYLE
  7
STANDARD
  9
$CLAYER
  8
VOLL
  9
$CELTYPE
  6
ByLayer
  9
$CECOLOR
 62
   256
  9
$CELTSCALE
 40
1.0
  9
$DISPSILH
 70
     0
  9
$DIMSCALE
 40
2.0
  9
$DIMASZ
 40
3.5
  9
$DIMEXO
 40
1.0
  9
$DIMDLI
 40
7.0
  9
$DIMRND
 40
0.0
  9
$DIMDLE
 40
0.0
  9
$DIMEXE
 40
1.0
  9
$DIMTP
 40
0.0
  9
$DIMTM
 40
0.0
  9
$DIMTXT
 40
3.5
  9
$DIMCEN
 40
1.5
  9
$DIMTSZ
 40
0.0
  9
$DIMTOL
 70
     0
  9
$DIMLIM
 70
     0
  9
$DIMTIH
 70
     0
  9
$DIMTOH
 70
     0
  9
$DIMSE1
 70
     0
  9
$DIMSE2
 70
     0
  9
$DIMTAD
 70
     1
  9
$DIMZIN
 70
     8
  9
$DIMBLK
  1

  9
$DIMASO
 70
     1
  9
$DIMSHO
 70
     0
  9
$DIMPOST
  1

  9
$DIMAPOST
  1

  9
$DIMALT
 70
     0
  9
$DIMALTD
 70
     2
  9
$DIMALTF
 40
25.4
  9
$DIMLFAC
 40
1.0
  9
$DIMTOFL
 70
     1
  9
$DIMTVP
 40
0.0
  9
$DIMTIX
 70
     0
  9
$DIMSOXD
 70
     0
  9
$DIMSAH
 70
     0
  9
$DIMBLK1
  1

  9
$DIMBLK2
  1

  9
$DIMSTYLE
  2
Standard
  9
$DIMCLRD
 70
     0
  9
$DIMCLRE
 70
     0
  9
$DIMCLRT
 70
     1
  9
$DIMTFAC
 40
0.5142857142857144
  9
$DIMGAP
 40
1.5
  9
$DIMJUST
 70
     0
  9
$DIMSD1
 70
     0
  9
$DIMSD2
 70
     0
  9
$DIMTOLJ
 70
     1
  9
$DIMTZIN
 70
     8
  9
$DIMALTZ
 70
     8
  9
$DIMALTTZ
 70
     8
  9
$DIMUPT
 70
     0
  9
$DIMDEC
 70
     2
  9
$DIMTDEC
 70
     2
  9
$DIMALTU
 70
     2
  9
$DIMALTTD
 70
     2
  9
$DIMTXSTY
  7
STANDARD
  9
$DIMAUNIT
 70
     0
  9
$DIMADEC
 70
     2
  9
$DIMALTRND
 40
0.0
  9
$DIMAZIN
 70
     2
  9
$DIMDSEP
 70
    46
  9
$DIMATFIT
 70
     3
  9
$DIMFRAC
 70
     0
  9
$DIMLDRBLK
  1

  9
$DIMLUNIT
 70
     2
  9
$DIMLWD
 70
    -2
  9
$DIMLWE
 70
    -2
  9
$DIMTMOVE
 70
     0
  9
$LUNITS
 70
     2
  9
$LUPREC
 70
     2
  9
$SKETCHINC
 40
1.0
  9
$FILLETRAD
 40
6.0
  9
$AUNITS
 70
     0
  9
$AUPREC
 70
     0
  9
$MENU
  1
ACAD
  9
$ELEVATION
 40
0.0
  9
$PELEVATION
 40
0.0
  9
$THICKNESS
 40
0.0
  9
$LIMCHECK
 70
     0
  9
$CHAMFERA
 40
0.0
  9
$CHAMFERB
 40
0.0
  9
$CHAMFERC
 40
0.0
  9
$CHAMFERD
 40
0.0
  9
$SKPOLY
 70
     0
  9
$TDCREATE
 40
2455397.823042361
  9
$TDUCREATE
 40
2455397.781375695
  9
$TDUPDATE
 40
2455537.578086841
  9
$TDUUPDATE
 40
2455537.536420174
  9
$TDINDWG
 40
0.1033041319
  9
$TDUSRTIMER
 40
0.1033041319
  9
$USRTIMER
 70
     1
  9
$ANGBASE
 50
0.0
  9
$ANGDIR
 70
     0
  9
$PDMODE
 70
     0
  9
$PDSIZE
 40
0.0
  9
$PLINEWID
 40
0.0
  9
$SPLFRAME
 70
     0
  9
$SPLINETYPE
 70
     6
  9
$SPLINESEGS
 70
     8
  9
$HANDSEED
  5
19C7
  9
$SURFTAB1
 70
     6
  9
$SURFTAB2
 70
     6
  9
$SURFTYPE
 70
     6
  9
$SURFU
 70
     6
  9
$SURFV
 70
     6
  9
$UCSBASE
  2

  9
$UCSNAME
  2

  9
$UCSORG
 10
0.0
 20
0.0
 30
0.0
  9
$UCSXDIR
 10
1.0
 20
0.0
 30
0.0
  9
$UCSYDIR
 10
0.0
 20
1.0
 30
0.0
  9
$UCSORTHOREF
  2

  9
$UCSORTHOVIEW
 70
     0
  9
$UCSORGTOP
 10
0.0
 20
0.0
 30
0.0
  9
$UCSORGBOTTOM
 10
0.0
 20
0.0
 30
0.0
  9
$UCSORGLEFT
 10
0.0
 20
0.0
 30
0.0
  9
$UCSORGRIGHT
 10
0.0
 20
0.0
 30
0.0
  9
$UCSORGFRONT
 10
0.0
 20
0.0
 30
0.0
  9
$UCSORGBACK
 10
0.0
 20
0.0
 30
0.0
  9
$PUCSBASE
  2

  9
$PUCSNAME
  2

  9
$PUCSORG
 10
0.0
 20
0.0
 30
0.0
  9
$PUCSXDIR
 10
1.0
 20
0.0
 30
0.0
  9
$PUCSYDIR
 10
0.0
 20
1.0
 30
0.0
  9
$PUCSORTHOREF
  2

  9
$PUCSORTHOVIEW
 70
     0
  9
$PUCSORGTOP
 10
0.0
 20
0.0
 30
0.0
  9
$PUCSORGBOTTOM
 10
0.0
 20
0.0
 30
0.0
  9
$PUCSORGLEFT
 10
0.0
 20
0.0
 30
0.0
  9
$PUCSORGRIGHT
 10
0.0
 20
0.0
 30
0.0
  9
$PUCSORGFRONT
 10
0.0
 20
0.0
 30
0.0
  9
$PUCSORGBACK
 10
0.0
 20
0.0
 30
0.0
  9
$USERI1
 70
     0
  9
$USERI2
 70
     0
  9
$USERI3
 70
     0
  9
$USERI4
 70
     0
  9
$USERI5
 70
     0
  9
$USERR1
 40
0.0
  9
$USERR2
 40
0.0
  9
$USERR3
 40
0.0
  9
$USERR4
 40
0.0
  9
$USERR5
 40
0.0
  9
$WORLDVIEW
 70
     1
  9
$SHADEDGE
 70
     3
  9
$SHADEDIF
 70
    70
  9
$TILEMODE
 70
     1
  9
$MAXACTVP
 70
    16
  9
$PINSBASE
 10
0.0
 20
0.0
 30
0.0
  9
$PLIMCHECK
 70
     0
  9
$PEXTMIN
 10
1.000000000000000E+20
 20
1.000000000000000E+20
 30
1.000000000000000E+20
  9
$PEXTMAX
 10
-1.000000000000000E+20
 20
-1.000000000000000E+20
 30
-1.000000000000000E+20
  9
$PLIMMIN
 10
0.0
 20
0.0
  9
$PLIMMAX
 10
12.0
 20
9.0
  9
$UNITMODE
 70
     0
  9
$VISRETAIN
 70
     0
  9
$PLINEGEN
 70
     0
  9
$PSLTSCALE
 70
     0
  9
$TREEDEPTH
 70
  3020
  9
$CMLSTYLE
  2
Standard
  9
$CMLJUST
 70
     0
  9
$CMLSCALE
 40
1.0
  9
$PROXYGRAPHICS
 70
     1
  9
$MEASUREMENT
 70
     0
  9
$CELWEIGHT
370
    -1
  9
$ENDCAPS
280
     0
  9
$JOINSTYLE
280
     0
  9
$LWDISPLAY
290
     0
  9
$INSUNITS
 70
     0
  9
$HYPERLINKBASE
  1

  9
$STYLESHEET
  1
monochrome 1.ctb
  9
$XEDIT
290
     1
  9
$CEPSNTYPE
380
     0
  9
$PSTYLEMODE
290
     1
  9
$FINGERPRINTGUID
  2
{D68B0D02-A558-11D7-B632-000102183313}
  9
$VERSIONGUID
  2
{604C2731-D8D5-43E2-B096-BFA927085FDC}
  9
$EXTNAMES
290
     1
  9
$PSVPSCALE
 40
0.0
  9
$OLESTARTUP
290
     0
  9
$SORTENTS
280
   127
  9
$INDEXCTL
280
     0
  9
$HIDETEXT
280
     0
  9
$XCLIPFRAME
290
     0
  9
$HALOGAP
280
     0
  9
$OBSCOLOR
 70
   257
  9
$OBSLTYPE
280
     0
  9
$INTERSECTIONDISPLAY
280
     0
  9
$INTERSECTIONCOLOR
 70
   257
  9
$DIMASSOC
280
     1
  9
$PROJECTNAME
  1

  0
ENDSEC
  0
SECTION
  2
CLASSES
  0
CLASS
  1
ACDBDICTIONARYWDFLT
  2
AcDbDictionaryWithDefault
  3
ObjectDBX Classes
 90
        0
 91
        1
280
     0
281
     0
  0
CLASS
  1
DICTIONARYVAR
  2
AcDbDictionaryVar
  3
ObjectDBX Classes
 90
        0
 91
        2
280
     0
281
     0
  0
ENDSEC
  0
SECTION
  2
TABLES
  0
TABLE
  2
VPORT
  5
8
330
0
100
AcDbSymbolTable
 70
     4
  0
VPORT
  5
19C6
330
8
100
AcDbSymbolTableRecord
100
AcDbViewportTableRecord
  2
*Active
 70
     0
 10
0.0
 20
0.0
 11
1.0
 21
1.0
 12
210.0
 22
297.0
 13
0.0
 23
0.0
 14
1.0
 24
1.0
 15
10.0
 25
10.0
 16
0.0
 26
0.0
 36
1.0
 17
0.0
 27
0.0
 37
0.0
 40
594.18004911509
 41
1.336927223719676
 42
50.0
 43
0.0
 44
0.0
 50
0.0
 51
0.0
 71
     0
 72
  1500
 73
     1
 74
     0
 75
     0
 76
     0
 77
     0
 78
     0
281
     0
 65
     1
110
0.0
120
0.0
130
0.0
111
1.0
121
0.0
131
0.0
112
0.0
122
1.0
132
0.0
 79
     0
146
0.0
  0
ENDTAB
  0
TABLE
  2
LTYPE
  5
5
330
0
100
AcDbSymbolTable
 70
     2
  0
LTYPE
  5
13
330
5
100
AcDbSymbolTableRecord
100
AcDbLinetypeTableRecord
  2
ByBlock
 70
     0
  3

 72
    65
 73
     0
 40
0.0
  0
LTYPE
  5
14
330
5
100
AcDbSymbolTableRecord
100
AcDbLinetypeTableRecord
  2
ByLayer
 70
     0
  3

 72
    65
 73
     0
 40
0.0
  0
LTYPE
  5
15
330
5
100
AcDbSymbolTableRecord
100
AcDbLinetypeTableRecord
  2
Continuous
 70
     0
  3
Solid line
 72
    65
 73
     0
 40
0.0
  0
LTYPE
  5
25
330
5
100
AcDbSymbolTableRecord
100
AcDbLinetypeTableRecord
  2
STRICHPUNKT
 70
     0
  3
__ . __ . __ . __ . __ . __ . __ . __ . __ . __
 72
    65
 73
     4
 40
1.0
 49
0.5
 74
     0
 49
-0.25
 74
     0
 49
0.0
 74
     0
 49
-0.25
 74
     0
  0
ENDTAB
  0
TABLE
  2
LAYER
  5
2
330
0
100
AcDbSymbolTable
 70
     9
  0
LAYER
  5
10
330
2
100
AcDbSymbolTableRecord
100
AcDbLayerTableRecord
  2
0
 70
     0
 62
     7
  6
Continuous
370
    -3
390
F
  0
LAYER
  5
2A
330
2
100
AcDbSymbolTableRecord
100
AcDbLayerTableRecord
  2
VOLL
 70
     0
 62
     1
  6
Continuous
370
    -3
390
F
  0
LAYER
  5
2B
330
2
100
AcDbSymbolTableRecord
100
AcDbLayerTableRecord
  2
HILF
 70
     0
 62
     2
  6
Continuous
370
    -3
390
F
  0
LAYER
  5
2C
330
2
100
AcDbSymbolTableRecord
100
AcDbLayerTableRecord
  2
MITTEL
 70
     0
 62
     2
  6
STRICHPUNKT
370
    -3
390
F
  0
LAYER
  5
2F
330
2
100
AcDbSymbolTableRecord
100
AcDbLayerTableRecord
  2
BEM
 70
     0
 62
     7
  6
Continuous
370
    -3
390
F
  0
LAYER
  5
30
330
2
100
AcDbSymbolTableRecord
100
AcDbLayerTableRecord
  2
STEMPEL
 70
     0
 62
     3
  6
Continuous
370
    -3
390
F
  0
LAYER
  5
31
330
2
100
AcDbSymbolTableRecord
100
AcDbLayerTableRecord
  2
TEXT
 70
     0
 62
     7
  6
Continuous
370
    -3
390
F
  0
LAYER
  5
21A
330
2
100
AcDbSymbolTableRecord
100
AcDbLayerTableRecord
  2
SCHRAFF
 70
     0
 62
     7
  6
Continuous
370
    -3
390
F
  0
LAYER
  5
21B
330
2
100
AcDbSymbolTableRecord
100
AcDbLayerTableRecord
  2
DEFPOINTS
 70
     0
 62
     7
  6
Continuous
290
     0
370
    -3
390
F
  0
ENDTAB
  0
TABLE
  2
STYLE
  5
3
330
0
100
AcDbSymbolTable
 70
     2
  0
STYLE
  5
11
330
3
100
AcDbSymbolTableRecord
100
AcDbTextStyleTableRecord
  2
STANDARD
 70
     0
 40
0.0
 41
0.8
 50
0.0
 71
     0
 42
3.5
  3
simplex.shx
  4

  0
STYLE
  5
24
330
3
100
AcDbSymbolTableRecord
100
AcDbTextStyleTableRecord
  2
GREEKS
 70
     0
 40
0.0
 41
0.8
 50
0.0
 71
     0
 42
2.5
  3
SIMPLEX.shx
  4

  0
ENDTAB
  0
TABLE
  2
VIEW
  5
6
330
0
100
AcDbSymbolTable
 70
     0
  0
ENDTAB
  0
TABLE
  2
UCS
  5
7
330
0
100
AcDbSymbolTable
 70
     0
  0
ENDTAB
  0
TABLE
  2
APPID
  5
9
330
0
100
AcDbSymbolTable
 70
     1
  0
APPID
  5
12
330
9
100
AcDbSymbolTableRecord
100
AcDbRegAppTableRecord
  2
ACAD
 70
     0
  0
ENDTAB
  0
TABLE
  2
DIMSTYLE
  5
A
330
0
100
AcDbSymbolTable
 70
     1
100
AcDbDimStyleTable
 71
     1
340
9D
  0
DIMSTYLE
105
9D
102
{ACAD_REACTORS
330
165B
330
1629
330
1619
330
165C
330
18FD
330
19A9
102
}
330
A
100
AcDbSymbolTableRecord
100
AcDbDimStyleTableRecord
  2
Standard
 70
     0
340
11
  0
ENDTAB
  0
TABLE
  2
BLOCK_RECORD
  5
1
330
0
100
AcDbSymbolTable
 70
    11
  0
BLOCK_RECORD
  5
1E
102
{ACAD_XDICTIONARY
360
A0
102
}
330
1
100
AcDbSymbolTableRecord
100
AcDbBlockTableRecord
  2
*Model_Space
340
21
  0
BLOCK_RECORD
  5
1A
102
{ACAD_XDICTIONARY
360
A2
102
}
330
1
100
AcDbSymbolTableRecord
100
AcDbBlockTableRecord
  2
*Paper_Space
340
1D
  0
BLOCK_RECORD
  5
22
330
1
100
AcDbSymbolTableRecord
100
AcDbBlockTableRecord
  2
LOGO
340
0
102
{BLKREFS
331
9B
102
}
  0
BLOCK_RECORD
  5
1469
330
1
100
AcDbSymbolTableRecord
100
AcDbBlockTableRecord
  2
*X1
340
0
102
{BLKREFS
331
1612
331
1645
102
}
  0
BLOCK_RECORD
  5
1687
330
1
100
AcDbSymbolTableRecord
100
AcDbBlockTableRecord
  2
*D5
340
0
  0
BLOCK_RECORD
  5
16A1
330
1
100
AcDbSymbolTableRecord
100
AcDbBlockTableRecord
  2
*D6
340
0
  0
BLOCK_RECORD
  5
16BB
330
1
100
AcDbSymbolTableRecord
100
AcDbBlockTableRecord
  2
*D7
340
0
  0
BLOCK_RECORD
  5
16C8
330
1
100
AcDbSymbolTableRecord
100
AcDbBlockTableRecord
  2
*D8
340
0
  0
BLOCK_RECORD
  5
18FE
330
1
100
AcDbSymbolTableRecord
100
AcDbBlockTableRecord
  2
*D9
340
0
  0
BLOCK_RECORD
  5
19AA
330
1
100
AcDbSymbolTableRecord
100
AcDbBlockTableRecord
  2
*D10
340
0
  0
ENDTAB
  0
ENDSEC
  0
SECTION
  2
BLOCKS
  0
BLOCK
  5
35
330
1E
100
AcDbEntity
  8
0
100
AcDbBlockBegin
  2
*Model_Space
 70
     0
 10
0.0
 20
0.0
 30
0.0
  3
*Model_Space
  1

  0
ENDBLK
  5
36
330
1E
100
AcDbEntity
  8
0
100
AcDbBlockEnd
  0
BLOCK
  5
33
330
1A
100
AcDbEntity
 67
     1
  8
0
100
AcDbBlockBegin
  2
*Paper_Space
 70
     0
 10
0.0
 20
0.0
 30
0.0
  3
*Paper_Space
  1

  0
ENDBLK
  5
34
330
1A
100
AcDbEntity
 67
     1
  8
0
100
AcDbBlockEnd
  0
BLOCK
  5
37
330
22
100
AcDbEntity
  8
0
100
AcDbBlockBegin
  2
LOGO
 70
     0
 10
0.0
 20
0.0
 30
0.0
  3
LOGO
  1

  0
ARC
  5
38
330
22
100
AcDbEntity
  8
0
100
AcDbCircle
 10
11.59973089678112
 20
-9.271599258481501
 30
0.0
 40
4.5
100
AcDbArc
 50
270.0
 51
231.0575587310159
  0
LINE
  5
39
330
22
100
AcDbEntity
  8
0
100
AcDbLine
 10
3.599730896781125
 20
-4.771599258481529
 30
0.0
 11
3.599730896781153
 21
-11.77159925848133
 31
0.0
  0
LINE
  5
3A
330
22
100
AcDbEntity
  8
0
100
AcDbLine
 10
2.599730896781125
 20
-4.771599258481529
 30
0.0
 11
2.599730896781153
 21
-11.77159925848133
 31
0.0
  0
CIRCLE
  5
3B
330
22
100
AcDbEntity
  8
0
100
AcDbCircle
 10
11.59973089678112
 20
-9.271599258481501
 30
0.0
 40
3.5
  0
ARC
  5
3C
330
22
100
AcDbEntity
  8
0
100
AcDbCircle
 10
31.59973089678115
 20
-9.271599258481472
 30
0.0
 40
4.5
100
AcDbArc
 50
270.0
 51
231.0575587310182
  0
LINE
  5
3D
330
22
100
AcDbEntity
  8
0
100
AcDbLine
 10
17.59973089678112
 20
-4.771599258481472
 30
0.0
 11
17.59973089678115
 21
-13.77159925848147
 31
0.0
  0
ARC
  5
3E
330
22
100
AcDbEntity
  8
0
100
AcDbCircle
 10
22.59973089678116
 20
-7.271599258481472
 30
0.0
 40
2.5
100
AcDbArc
 50
293.1161887722295
 51
90.0
  0
CIRCLE
  5
3F
330
22
100
AcDbEntity
  8
0
100
AcDbCircle
 10
31.59973089678115
 20
-9.271599258481472
 30
0.0
 40
3.5
  0
ARC
  5
40
330
22
100
AcDbEntity
  8
0
100
AcDbCircle
 10
4.599730896781153
 20
-11.77159925848133
 30
0.0
 40
1.0
100
AcDbArc
 50
180.0
 51
270.0
  0
ARC
  5
41
330
22
100
AcDbEntity
  8
0
100
AcDbCircle
 10
4.599730896781153
 20
-11.77159925848133
 30
0.0
 40
2.0
100
AcDbArc
 50
179.9999999999992
 51
270.0
  0
LINE
  5
42
330
22
100
AcDbEntity
  8
0
100
AcDbLine
 10
11.59973089678115
 20
-13.77159925848144
 30
0.0
 11
4.599730896781153
 21
-13.77159925848147
 31
0.0
  0
LINE
  5
43
330
22
100
AcDbEntity
  8
0
100
AcDbLine
 10
8.771303772034769
 20
-12.77159925848136
 30
0.0
 11
4.599730896781153
 21
-12.77159925848133
 31
0.0
  0
LINE
  5
44
330
22
100
AcDbEntity
  8
0
100
AcDbLine
 10
31.59973089678115
 20
-13.77159925848147
 30
0.0
 11
23.6715276665056
 21
-13.77159925848144
 31
0.0
  0
LINE
  5
45
330
22
100
AcDbEntity
  8
0
100
AcDbLine
 10
23.56565672307022
 20
-9.51278021337896
 30
0.0
 11
24.4388546544846
 21
-12.77159925848144
 31
0.0
  0
LINE
  5
46
330
22
100
AcDbEntity
  8
0
100
AcDbLine
 10
22.59973089678116
 20
-9.771599258481472
 30
0.0
 11
18.59973089678112
 21
-9.771599258481472
 31
0.0
  0
LINE
  5
47
330
22
100
AcDbEntity
  8
0
100
AcDbLine
 10
18.59973089678115
 20
-13.77159925848144
 30
0.0
 11
17.59973089678115
 21
-13.77159925848144
 31
0.0
  0
LINE
  5
48
330
22
100
AcDbEntity
  8
0
100
AcDbLine
 10
18.59973089678115
 20
-9.771599258481472
 30
0.0
 11
18.59973089678115
 21
-13.77159925848144
 31
0.0
  0
LINE
  5
49
330
22
100
AcDbEntity
  8
0
100
AcDbLine
 10
22.59973089678116
 20
-9.771599258481472
 30
0.0
 11
23.67152766650562
 21
-13.77159925848147
 31
0.0
  0
ARC
  5
4A
330
22
100
AcDbEntity
  8
0
100
AcDbCircle
 10
22.59973089678116
 20
-7.271599258481472
 30
0.0
 40
2.5
100
AcDbArc
 50
270.0
 51
270.0000000000007
  0
LINE
  5
4B
330
22
100
AcDbEntity
  8
0
100
AcDbLine
 10
28.77130377203494
 20
-12.77159925848147
 30
0.0
 11
24.43885465448463
 21
-12.77159925848144
 31
0.0
  0
LINE
  5
4C
330
22
100
AcDbEntity
  8
0
100
AcDbLine
 10
3.599730896781125
 20
-4.771599258481472
 30
0.0
 11
2.599730896781125
 21
-4.771599258481472
 31
0.0
  0
LINE
  5
4D
330
22
100
AcDbEntity
  8
0
100
AcDbLine
 10
22.59973089678116
 20
-8.771599258481472
 30
0.0
 11
18.59973089678115
 21
-8.771599258481472
 31
0.0
  0
LINE
  5
4E
330
22
100
AcDbEntity
  8
0
100
AcDbLine
 10
22.59973089678116
 20
-5.771599258481472
 30
0.0
 11
18.59973089678115
 21
-5.771599258481472
 31
0.0
  0
LINE
  5
4F
330
22
100
AcDbEntity
  8
0
100
AcDbLine
 10
22.59973089678116
 20
-4.771599258481472
 30
0.0
 11
17.59973089678115
 21
-4.771599258481472
 31
0.0
  0
LINE
  5
50
330
22
100
AcDbEntity
  8
0
100
AcDbLine
 10
18.59973089678115
 20
-5.771599258481472
 30
0.0
 11
18.59973089678115
 21
-8.771599258481472
 31
0.0
  0
ARC
  5
51
330
22
100
AcDbEntity
  8
0
100
AcDbCircle
 10
22.59973089678116
 20
-7.271599258481472
 30
0.0
 40
1.5
100
AcDbArc
 50
270.0
 51
90.0
  0
ENDBLK
  5
52
330
22
100
AcDbEntity
  8
0
100
AcDbBlockEnd
  0
BLOCK
  5
146A
330
1469
100
AcDbEntity
  8
0
100
AcDbBlockBegin
  2
*X1
 70
     1
 10
0.0
 20
0.0
 30
0.0
  3
*X1
  1

  0
LINE
  5
146B
330
1469
100
AcDbEntity
  8
0
 62
     0
100
AcDbLine
 10
170.5886043481224
 20
410.2999999999999
 30
0.0
 11
173.1140213296177
 21
410.2999999999999
 31
0.0
  0
LINE
  5
146C
330
1469
100
AcDbEntity
  8
0
 62
     0
100
AcDbLine
 10
170.5967312074847
 20
410.4
 30
0.0
 11
175.0103700574195
 21
410.4
 31
0.0
  0
LINE
  5
146D
330
1469
100
AcDbEntity
  8
0
 62
     0
100
AcDbLine
 10
170.6067204644807
 20
410.5
 30
0.0
 11
175.0434950574195
 21
410.5
 31
0.0
  0
LINE
  5
146E
330
1469
100
AcDbEntity
  8
0
 62
     0
100
AcDbLine
 10
170.6185824697961
 20
410.5999999999999
 30
0.0
 11
175.0766200574195
 21
410.5999999999999
 31
0.0
  0
LINE
  5
146F
330
1469
100
AcDbEntity
  8
0
 62
     0
100
AcDbLine
 10
170.6323296145243
 20
410.7
 30
0.0
 11
175.1097450574195
 21
410.7
 31
0.0
  0
LINE
  5
1470
330
1469
100
AcDbEntity
  8
0
 62
     0
100
AcDbLine
 10
170.6479763961705
 20
410.8
 30
0.0
 11
175.1428700574195
 21
410.8
 31
0.0
  0
LINE
  5
1471
330
1469
100
AcDbEntity
  8
0
 62
     0
100
AcDbLine
 10
170.6655394970955
 20
410.8999999999999
 30
0.0
 11
175.1759950574195
 21
410.8999999999999
 31
0.0
  0
LINE
  5
1472
330
1469
100
AcDbEntity
  8
0
 62
     0
100
AcDbLine
 10
170.6850378764115
 20
411.0
 30
0.0
 11
175.2091200574195
 21
411.0
 31
0.0
  0
LINE
  5
1473
330
1469
100
AcDbEntity
  8
0
 62
     0
100
AcDbLine
 10
170.7064928765523
 20
411.1
 30
0.0
 11
175.2422450574195
 21
411.1
 31
0.0
  0
LINE
  5
1474
330
1469
100
AcDbEntity
  8
0
 62
     0
100
AcDbLine
 10
170.729928345968
 20
411.2
 30
0.0
 11
175.2753700574195
 21
411.2
 31
0.0
  0
LINE
  5
1475
330
1469
100
AcDbEntity
  8
0
 62
     0
100
AcDbLine
 10
170.7553707796685
 20
411.3
 30
0.0
 11
175.3084950574195
 21
411.3
 31
0.0
  0
LINE
  5
1476
330
1469
100
AcDbEntity
  8
0
 62
     0
100
AcDbLine
 10
170.7828494796546
 20
411.4
 30
0.0
 11
175.3416200574195
 21
411.4
 31
0.0
  0
LINE
  5
1477
330
1469
100
AcDbEntity
  8
0
 62
     0
100
AcDbLine
 10
170.812396737645
 20
411.5
 30
0.0
 11
175.3747450574195
 21
411.5
 31
0.0
  0
LINE
  5
1478
330
1469
100
AcDbEntity
  8
0
 62
     0
100
AcDbLine
 10
170.8440480429509
 20
411.6
 30
0.0
 11
175.4078700574195
 21
411.6
 31
0.0
  0
LINE
  5
1479
330
1469
100
AcDbEntity
  8
0
 62
     0
100
AcDbLine
 10
170.8778423188722
 20
411.7
 30
0.0
 11
175.4409950574195
 21
411.7
 31
0.0
  0
LINE
  5
147A
330
1469
100
AcDbEntity
  8
0
 62
     0
100
AcDbLine
 10
170.9138221916203
 20
411.8
 30
0.0
 11
175.4741200574195
 21
411.8
 31
0.0
  0
LINE
  5
147B
330
1469
100
AcDbEntity
  8
0
 62
     0
100
AcDbLine
 10
170.9520342965322
 20
411.9
 30
0.0
 11
175.5072450574195
 21
411.9
 31
0.0
  0
LINE
  5
147C
330
1469
100
AcDbEntity
  8
0
 62
     0
100
AcDbLine
 10
170.9925296272648
 20
412.0
 30
0.0
 11
175.5403700574195
 21
412.0
 31
0.0
  0
LINE
  5
147D
330
1469
100
AcDbEntity
  8
0
 62
     0
100
AcDbLine
 10
171.035363934788
 20
412.1
 30
0.0
 11
175.5734950574195
 21
412.1
 31
0.0
  0
LINE
  5
147E
330
1469
100
AcDbEntity
  8
0
 62
     0
100
AcDbLine
 10
171.0805981843818
 20
412.2
 30
0.0
 11
175.6066200574195
 21
412.2
 31
0.0
  0
LINE
  5
147F
330
1469
100
AcDbEntity
  8
0
 62
     0
100
AcDbLine
 10
171.1282990805637
 20
412.3
 30
0.0
 11
175.6397450574195
 21
412.3
 31
0.0
  0
LINE
  5
1480
330
1469
100
AcDbEntity
  8
0
 62
     0
100
AcDbLine
 10
171.1785396720151
 20
412.4
 30
0.0
 11
175.6728700574195
 21
412.4
 31
0.0
  0
LINE
  5
1481
330
1469
100
AcDbEntity
  8
0
 62
     0
100
AcDbLine
 10
171.2314000512598
 20
412.5
 30
0.0
 11
175.7059950574195
 21
412.5
 31
0.0
  0
LINE
  5
1482
330
1469
100
AcDbEntity
  8
0
 62
     0
100
AcDbLine
 10
171.2869681672547
 20
412.6
 30
0.0
 11
175.7391200574195
 21
412.6
 31
0.0
  0
LINE
  5
1483
330
1469
100
AcDbEntity
  8
0
 62
     0
100
AcDbLine
 10
171.345340773376
 20
412.7
 30
0.0
 11
175.7722450574195
 21
412.7
 31
0.0
  0
LINE
  5
1484
330
1469
100
AcDbEntity
  8
0
 62
     0
100
AcDbLine
 10
171.4066245388576
 20
412.8
 30
0.0
 11
175.8053700574195
 21
412.8
 31
0.0
  0
LINE
  5
1485
330
1469
100
AcDbEntity
  8
0
 62
     0
100
AcDbLine
 10
171.4709373589504
 20
412.9
 30
0.0
 11
175.8384950574195
 21
412.9
 31
0.0
  0
LINE
  5
1486
330
1469
100
AcDbEntity
  8
0
 62
     0
100
AcDbLine
 10
171.5384099085188
 20
413.0
 30
0.0
 11
175.8716200574195
 21
413.0
 31
0.0
  0
LINE
  5
1487
330
1469
100
AcDbEntity
  8
0
 62
     0
100
AcDbLine
 10
171.6091874962787
 20
413.1
 30
0.0
 11
175.9047450574195
 21
413.1
 31
0.0
  0
LINE
  5
1488
330
1469
100
AcDbEntity
  8
0
 62
     0
100
AcDbLine
 10
171.6834322935798
 20
413.2
 30
0.0
 11
175.9378700574195
 21
413.2
 31
0.0
  0
LINE
  5
1489
330
1469
100
AcDbEntity
  8
0
 62
     0
100
AcDbLine
 10
171.7613260342258
 20
413.3
 30
0.0
 11
175.9709950574195
 21
413.3
 31
0.0
  0
LINE
  5
148A
330
1469
100
AcDbEntity
  8
0
 62
     0
100
AcDbLine
 10
171.8430733127857
 20
413.4
 30
0.0
 11
176.0041200574195
 21
413.4
 31
0.0
  0
LINE
  5
148B
330
1469
100
AcDbEntity
  8
0
 62
     0
100
AcDbLine
 10
171.9289056518908
 20
413.4999999999999
 30
0.0
 11
176.0372450574195
 21
413.4999999999999
 31
0.0
  0
LINE
  5
148C
330
1469
100
AcDbEntity
  8
0
 62
     0
100
AcDbLine
 10
172.0190865697578
 20
413.6
 30
0.0
 11
176.0703700574195
 21
413.6
 31
0.0
  0
LINE
  5
148D
330
1469
100
AcDbEntity
  8
0
 62
     0
100
AcDbLine
 10
172.1139179663975
 20
413.7
 30
0.0
 11
176.1034950574195
 21
413.7
 31
0.0
  0
LINE
  5
148E
330
1469
100
AcDbEntity
  8
0
 62
     0
100
AcDbLine
 10
172.2137482745529
 20
413.7999999999999
 30
0.0
 11
176.1366200574195
 21
413.7999999999999
 31
0.0
  0
LINE
  5
148F
330
1469
100
AcDbEntity
  8
0
 62
     0
100
AcDbLine
 10
172.3189830119473
 20
413.9
 30
0.0
 11
176.1697450574195
 21
413.9
 31
0.0
  0
LINE
  5
1490
330
1469
100
AcDbEntity
  8
0
 62
     0
100
AcDbLine
 10
172.4300986626824
 20
414.0
 30
0.0
 11
176.2028700574195
 21
414.0
 31
0.0
  0
LINE
  5
1491
330
1469
100
AcDbEntity
  8
0
 62
     0
100
AcDbLine
 10
172.5476612725954
 20
414.1
 30
0.0
 11
176.2359950574195
 21
414.1
 31
0.0
  0
LINE
  5
1492
330
1469
100
AcDbEntity
  8
0
 62
     0
100
AcDbLine
 10
172.6723518819143
 20
414.2
 30
0.0
 11
176.2691200574195
 21
414.2
 31
0.0
  0
LINE
  5
1493
330
1469
100
AcDbEntity
  8
0
 62
     0
100
AcDbLine
 10
172.8050021532302
 20
414.2999999999999
 30
0.0
 11
176.3022450574195
 21
414.2999999999999
 31
0.0
  0
LINE
  5
1494
330
1469
100
AcDbEntity
  8
0
 62
     0
100
AcDbLine
 10
172.9466456994078
 20
414.4
 30
0.0
 11
176.3353700574195
 21
414.4
 31
0.0
  0
LINE
  5
1495
330
1469
100
AcDbEntity
  8
0
 62
     0
100
AcDbLine
 10
173.09859452325
 20
414.5
 30
0.0
 11
176.3684950574195
 21
414.5
 31
0.0
  0
LINE
  5
1496
330
1469
100
AcDbEntity
  8
0
 62
     0
100
AcDbLine
 10
173.2625574908616
 20
414.5999999999999
 30
0.0
 11
176.4016200574195
 21
414.5999999999999
 31
0.0
  0
LINE
  5
1497
330
1469
100
AcDbEntity
  8
0
 62
     0
100
AcDbLine
 10
173.4408331806654
 20
414.7
 30
0.0
 11
176.4347450574195
 21
414.7
 31
0.0
  0
LINE
  5
1498
330
1469
100
AcDbEntity
  8
0
 62
     0
100
AcDbLine
 10
173.6366438084952
 20
414.8
 30
0.0
 11
176.4678700574195
 21
414.8
 31
0.0
  0
LINE
  5
1499
330
1469
100
AcDbEntity
  8
0
 62
     0
100
AcDbLine
 10
173.8547619204266
 20
414.9
 30
0.0
 11
176.5009950574195
 21
414.9
 31
0.0
  0
LINE
  5
149A
330
1469
100
AcDbEntity
  8
0
 62
     0
100
AcDbLine
 10
174.1028232507466
 20
415.0
 30
0.0
 11
176.5341200574195
 21
415.0
 31
0.0
  0
LINE
  5
149B
330
1469
100
AcDbEntity
  8
0
 62
     0
100
AcDbLine
 10
174.3945576276067
 20
415.1
 30
0.0
 11
176.5672450574195
 21
415.1
 31
0.0
  0
LINE
  5
149C
330
1469
100
AcDbEntity
  8
0
 62
     0
100
AcDbLine
 10
174.7601661510896
 20
415.2
 30
0.0
 11
176.6003700574195
 21
415.2
 31
0.0
  0
LINE
  5
149D
330
1469
100
AcDbEntity
  8
0
 62
     0
100
AcDbLine
 10
175.3066087442808
 20
415.3
 30
0.0
 11
176.6334950574195
 21
415.3
 31
0.0
  0
LINE
  5
149E
330
1469
100
AcDbEntity
  8
0
 62
     0
100
AcDbLine
 10
170.5823315217117
 20
410.2
 30
0.0
 11
173.1140213296177
 21
410.2
 31
0.0
  0
LINE
  5
149F
330
1469
100
AcDbEntity
  8
0
 62
     0
100
AcDbLine
 10
170.5779063060937
 20
410.0999999999999
 30
0.0
 11
173.1140213296177
 21
410.0999999999999
 31
0.0
  0
LINE
  5
14A0
330
1469
100
AcDbEntity
  8
0
 62
     0
100
AcDbLine
 10
170.5753241885441
 20
410.0
 30
0.0
 11
173.1140213296177
 21
410.0
 31
0.0
  0
LINE
  5
14A1
330
1469
100
AcDbEntity
  8
0
 62
     0
100
AcDbLine
 10
170.5745825426741
 20
409.9
 30
0.0
 11
173.1140213296177
 21
409.9
 31
0.0
  0
LINE
  5
14A2
330
1469
100
AcDbEntity
  8
0
 62
     0
100
AcDbLine
 10
170.5756806150451
 20
409.7999999999999
 30
0.0
 11
173.1140213296177
 21
409.7999999999999
 31
0.0
  0
LINE
  5
14A3
330
1469
100
AcDbEntity
  8
0
 62
     0
100
AcDbLine
 10
170.5786195213362
 20
409.7
 30
0.0
 11
173.1140213296177
 21
409.7
 31
0.0
  0
LINE
  5
14A4
330
1469
100
AcDbEntity
  8
0
 62
     0
100
AcDbLine
 10
170.5834022520202
 20
409.6
 30
0.0
 11
173.1140213296177
 21
409.6
 31
0.0
  0
LINE
  5
14A5
330
1469
100
AcDbEntity
  8
0
 62
     0
100
AcDbLine
 10
170.5900336876148
 20
409.4999999999999
 30
0.0
 11
173.1140213296177
 21
409.4999999999999
 31
0.0
  0
LINE
  5
14A6
330
1469
100
AcDbEntity
  8
0
 62
     0
100
AcDbLine
 10
170.5985206236915
 20
409.4
 30
0.0
 11
173.1140213296177
 21
409.4
 31
0.0
  0
LINE
  5
14A7
330
1469
100
AcDbEntity
  8
0
 62
     0
100
AcDbLine
 10
170.6088718059422
 20
409.2999999999999
 30
0.0
 11
173.1140213296177
 21
409.2999999999999
 31
0.0
  0
LINE
  5
14A8
330
1469
100
AcDbEntity
  8
0
 62
     0
100
AcDbLine
 10
170.6210979757294
 20
409.2
 30
0.0
 11
173.1140213296177
 21
409.2
 31
0.0
  0
LINE
  5
14A9
330
1469
100
AcDbEntity
  8
0
 62
     0
100
AcDbLine
 10
170.6352119266803
 20
409.1
 30
0.0
 11
173.1140213296177
 21
409.1
 31
0.0
  0
LINE
  5
14AA
330
1469
100
AcDbEntity
  8
0
 62
     0
100
AcDbLine
 10
170.6512285730303
 20
409.0
 30
0.0
 11
173.1140213296177
 21
409.0
 31
0.0
  0
LINE
  5
14AB
330
1469
100
AcDbEntity
  8
0
 62
     0
100
AcDbLine
 10
170.6691650305867
 20
408.9
 30
0.0
 11
173.1140213296177
 21
408.9
 31
0.0
  0
LINE
  5
14AC
330
1469
100
AcDbEntity
  8
0
 62
     0
100
AcDbLine
 10
170.6890407113666
 20
408.8
 30
0.0
 11
173.1140213296177
 21
408.8
 31
0.0
  0
LINE
  5
14AD
330
1469
100
AcDbEntity
  8
0
 62
     0
100
AcDbLine
 10
170.7108774331679
 20
408.7
 30
0.0
 11
173.1140213296177
 21
408.7
 31
0.0
  0
LINE
  5
14AE
330
1469
100
AcDbEntity
  8
0
 62
     0
100
AcDbLine
 10
170.7346995455796
 20
408.6
 30
0.0
 11
173.1140213296177
 21
408.6
 31
0.0
  0
LINE
  5
14AF
330
1469
100
AcDbEntity
  8
0
 62
     0
100
AcDbLine
 10
170.7605340742072
 20
408.4999999999999
 30
0.0
 11
173.1140213296177
 21
408.4999999999999
 31
0.0
  0
LINE
  5
14B0
330
1469
100
AcDbEntity
  8
0
 62
     0
100
AcDbLine
 10
170.7884108852221
 20
408.4
 30
0.0
 11
173.1140213296177
 21
408.4
 31
0.0
  0
LINE
  5
14B1
330
1469
100
AcDbEntity
  8
0
 62
     0
100
AcDbLine
 10
170.8183628727235
 20
408.3
 30
0.0
 11
173.1140213296177
 21
408.3
 31
0.0
  0
LINE
  5
14B2
330
1469
100
AcDbEntity
  8
0
 62
     0
100
AcDbLine
 10
170.8504261718562
 20
408.2
 30
0.0
 11
173.1140213296177
 21
408.2
 31
0.0
  0
LINE
  5
14B3
330
1469
100
AcDbEntity
  8
0
 62
     0
100
AcDbLine
 10
170.8846404011736
 20
408.1
 30
0.0
 11
173.1140213296177
 21
408.1
 31
0.0
  0
LINE
  5
14B4
330
1469
100
AcDbEntity
  8
0
 62
     0
100
AcDbLine
 10
170.9210489383868
 20
408.0
 30
0.0
 11
173.1140213296177
 21
408.0
 31
0.0
  0
LINE
  5
14B5
330
1469
100
AcDbEntity
  8
0
 62
     0
100
AcDbLine
 10
170.9596992344281
 20
407.9
 30
0.0
 11
173.1140213296177
 21
407.9
 31
0.0
  0
LINE
  5
14B6
330
1469
100
AcDbEntity
  8
0
 62
     0
100
AcDbLine
 10
171.0006431717221
 20
407.8
 30
0.0
 11
173.1140213296177
 21
407.8
 31
0.0
  0
LINE
  5
14B7
330
1469
100
AcDbEntity
  8
0
 62
     0
100
AcDbLine
 10
171.0439374737248
 20
407.7
 30
0.0
 11
173.1140213296177
 21
407.7
 31
0.0
  0
LINE
  5
14B8
330
1469
100
AcDbEntity
  8
0
 62
     0
100
AcDbLine
 10
171.0896441742469
 20
407.6
 30
0.0
 11
173.1140213296177
 21
407.6
 31
0.0
  0
LINE
  5
14B9
330
1469
100
AcDbEntity
  8
0
 62
     0
100
AcDbLine
 10
171.1378311568602
 20
407.5
 30
0.0
 11
173.1140213296177
 21
407.5
 31
0.0
  0
LINE
  5
14BA
330
1469
100
AcDbEntity
  8
0
 62
     0
100
AcDbLine
 10
171.1885727769333
 20
407.4
 30
0.0
 11
173.1140213296177
 21
407.4
 31
0.0
  0
LINE
  5
14BB
330
1469
100
AcDbEntity
  8
0
 62
     0
100
AcDbLine
 10
171.2419505816466
 20
407.3
 30
0.0
 11
173.1140213296177
 21
407.3
 31
0.0
  0
LINE
  5
14BC
330
1469
100
AcDbEntity
  8
0
 62
     0
100
AcDbLine
 10
171.2980541469015
 20
407.2
 30
0.0
 11
173.1140213296177
 21
407.2
 31
0.0
  0
LINE
  5
14BD
330
1469
100
AcDbEntity
  8
0
 62
     0
100
AcDbLine
 10
171.3569820545833
 20
407.1
 30
0.0
 11
173.1140213296177
 21
407.1
 31
0.0
  0
LINE
  5
14BE
330
1469
100
AcDbEntity
  8
0
 62
     0
100
AcDbLine
 10
171.4188430394835
 20
407.0
 30
0.0
 11
173.1140213296177
 21
407.0
 31
0.0
  0
LINE
  5
14BF
330
1469
100
AcDbEntity
  8
0
 62
     0
100
AcDbLine
 10
171.4837573427869
 20
406.9
 30
0.0
 11
173.1140213296177
 21
406.9
 31
0.0
  0
LINE
  5
14C0
330
1469
100
AcDbEntity
  8
0
 62
     0
100
AcDbLine
 10
171.5518583189915
 20
406.8
 30
0.0
 11
173.1140213296177
 21
406.8
 31
0.0
  0
LINE
  5
14C1
330
1469
100
AcDbEntity
  8
0
 62
     0
100
AcDbLine
 10
171.6232943563255
 20
406.7
 30
0.0
 11
173.1140213296177
 21
406.7
 31
0.0
  0
LINE
  5
14C2
330
1469
100
AcDbEntity
  8
0
 62
     0
100
AcDbLine
 10
171.6982311884198
 20
406.6
 30
0.0
 11
173.1140213296177
 21
406.6
 31
0.0
  0
LINE
  5
14C3
330
1469
100
AcDbEntity
  8
0
 62
     0
100
AcDbLine
 10
171.7768546989754
 20
406.5
 30
0.0
 11
173.1140213296177
 21
406.5
 31
0.0
  0
LINE
  5
14C4
330
1469
100
AcDbEntity
  8
0
 62
     0
100
AcDbLine
 10
171.8593743541348
 20
406.4
 30
0.0
 11
173.1140213296177
 21
406.4
 31
0.0
  0
LINE
  5
14C5
330
1469
100
AcDbEntity
  8
0
 62
     0
100
AcDbLine
 10
171.946027443216
 20
406.3
 30
0.0
 11
173.1140213296177
 21
406.3
 31
0.0
  0
LINE
  5
14C6
330
1469
100
AcDbEntity
  8
0
 62
     0
100
AcDbLine
 10
172.0370843735344
 20
406.2
 30
0.0
 11
173.1140213296177
 21
406.2
 31
0.0
  0
LINE
  5
14C7
330
1469
100
AcDbEntity
  8
0
 62
     0
100
AcDbLine
 10
172.1328553587882
 20
406.0999999999999
 30
0.0
 11
173.1140213296177
 21
406.0999999999999
 31
0.0
  0
LINE
  5
14C8
330
1469
100
AcDbEntity
  8
0
 62
     0
100
AcDbLine
 10
172.2336989781335
 20
406.0
 30
0.0
 11
173.1140213296177
 21
406.0
 31
0.0
  0
LINE
  5
14C9
330
1469
100
AcDbEntity
  8
0
 62
     0
100
AcDbLine
 10
172.3400332895571
 20
405.9
 30
0.0
 11
173.1140213296177
 21
405.9
 31
0.0
  0
LINE
  5
14CA
330
1469
100
AcDbEntity
  8
0
 62
     0
100
AcDbLine
 10
172.4523504982804
 20
405.7999999999999
 30
0.0
 11
173.1140213296177
 21
405.7999999999999
 31
0.0
  0
LINE
  5
14CB
330
1469
100
AcDbEntity
  8
0
 62
     0
100
AcDbLine
 10
172.5712366812206
 20
405.7
 30
0.0
 11
173.1140213296177
 21
405.7
 31
0.0
  0
LINE
  5
14CC
330
1469
100
AcDbEntity
  8
0
 62
     0
100
AcDbLine
 10
172.6973988820968
 20
405.6
 30
0.0
 11
173.1140213296177
 21
405.6
 31
0.0
  0
LINE
  5
14CD
330
1469
100
AcDbEntity
  8
0
 62
     0
100
AcDbLine
 10
172.8317032616298
 20
405.4999999999999
 30
0.0
 11
173.1140213296177
 21
405.4999999999999
 31
0.0
  0
LINE
  5
14CE
330
1469
100
AcDbEntity
  8
0
 62
     0
100
AcDbLine
 10
172.9752303887928
 20
405.4
 30
0.0
 11
173.1140213296177
 21
405.4
 31
0.0
  0
ENDBLK
  5
14CF
330
1469
100
AcDbEntity
  8
0
100
AcDbBlockEnd
  0
BLOCK
  5
1692
330
1687
100
AcDbEntity
  8
0
100
AcDbBlockBegin
  2
*D5
 70
     1
 10
0.0
 20
0.0
 30
0.0
  3
*D5
  1

  0
LINE
  5
18A1
330
1687
100
AcDbEntity
  8
BEM
 62
     0
370
    -2
100
AcDbLine
 10
309.9870537764327
 20
412.7827841660277
 30
0.0
 11
309.9870537764327
 21
429.5904991943777
 31
0.0
  0
LINE
  5
18A2
330
1687
100
AcDbEntity
  8
BEM
 62
     0
370
    -2
100
AcDbLine
 10
331.9870537764327
 20
412.7827841660277
 30
0.0
 11
331.9870537764327
 21
429.5904991943777
 31
0.0
  0
LINE
  5
18A3
330
1687
100
AcDbEntity
  8
BEM
 62
     0
370
    -2
100
AcDbLine
 10
316.9870537764327
 20
427.5904991943778
 30
0.0
 11
324.9870537764327
 21
427.5904991943778
 31
0.0
  0
SOLID
  5
18A4
330
1687
100
AcDbEntity
  8
BEM
 62
     0
100
AcDbTrace
 10
316.9870537764327
 20
428.7571658610445
 30
0.0
 11
316.9870537764327
 21
426.423832527711
 31
0.0
 12
309.9870537764327
 22
427.5904991943778
 32
0.0
 13
309.9870537764327
 23
427.5904991943778
 33
0.0
  0
SOLID
  5
18A5
330
1687
100
AcDbEntity
  8
BEM
 62
     0
100
AcDbTrace
 10
324.9870537764327
 20
428.7571658610445
 30
0.0
 11
324.9870537764327
 21
426.423832527711
 31
0.0
 12
331.9870537764327
 22
427.5904991943778
 32
0.0
 13
331.9870537764327
 23
427.5904991943778
 33
0.0
  0
MTEXT
  5
18A6
330
1687
100
AcDbEntity
  8
BEM
 62
     1
100
AcDbMText
 10
320.9870537764327
 20
434.0904991943777
 30
0.0
 40
7.0
 41
0.0
 71
     5
 72
     1
  1
\A1;%%c22
 73
     1
 44
1.0
  0
POINT
  5
18A7
330
1687
100
AcDbEntity
  8
DEFPOINTS
 62
     0
100
AcDbPoint
 10
309.9870537764327
 20
410.7827841660277
 30
0.0
  0
POINT
  5
18A8
330
1687
100
AcDbEntity
  8
DEFPOINTS
 62
     0
100
AcDbPoint
 10
331.9870537764327
 20
410.7827841660277
 30
0.0
  0
POINT
  5
18A9
330
1687
100
AcDbEntity
  8
DEFPOINTS
 62
     0
100
AcDbPoint
 10
331.9870537764327
 20
427.5904991943778
 30
0.0
  0
ENDBLK
  5
1693
330
1687
100
AcDbEntity
  8
0
100
AcDbBlockEnd
  0
BLOCK
  5
16AC
330
16A1
100
AcDbEntity
  8
0
100
AcDbBlockBegin
  2
*D6
 70
     1
 10
0.0
 20
0.0
 30
0.0
  3
*D6
  1

  0
LINE
  5
18F4
330
16A1
100
AcDbEntity
  8
BEM
 62
     0
370
    -2
100
AcDbLine
 10
308.9870537764325
 20
388.7827841660278
 30
0.0
 11
371.102610257799
 21
388.7827841660278
 31
0.0
  0
LINE
  5
18F5
330
16A1
100
AcDbEntity
  8
BEM
 62
     0
370
    -2
100
AcDbLine
 10
289.7454985738392
 20
553.7827841660276
 30
0.0
 11
371.102610257799
 21
553.7827841660276
 31
0.0
  0
LINE
  5
18F6
330
16A1
100
AcDbEntity
  8
BEM
 62
     0
370
    -2
100
AcDbLine
 10
369.102610257799
 20
395.7827841660277
 30
0.0
 11
369.102610257799
 21
546.7827841660277
 31
0.0
  0
SOLID
  5
18F7
330
16A1
100
AcDbEntity
  8
BEM
 62
     0
100
AcDbTrace
 10
367.9359435911323
 20
395.7827841660277
 30
0.0
 11
370.2692769244657
 21
395.7827841660277
 31
0.0
 12
369.102610257799
 22
388.7827841660278
 32
0.0
 13
369.102610257799
 23
388.7827841660278
 33
0.0
  0
SOLID
  5
18F8
330
16A1
100
AcDbEntity
  8
BEM
 62
     0
100
AcDbTrace
 10
367.9359435911323
 20
546.7827841660277
 30
0.0
 11
370.2692769244657
 21
546.7827841660277
 31
0.0
 12
369.102610257799
 22
553.7827841660276
 32
0.0
 13
369.102610257799
 23
553.7827841660276
 33
0.0
  0
MTEXT
  5
18F9
330
16A1
100
AcDbEntity
  8
BEM
 62
     1
100
AcDbMText
 10
362.602610257799
 20
471.2827841660278
 30
0.0
 40
7.0
 41
0.0
 71
     5
 72
     1
  1
\A1;165
 11
0.0000000000000001
 21
1.0
 31
0.0
 73
     1
 44
1.0
  0
POINT
  5
18FA
330
16A1
100
AcDbEntity
  8
DEFPOINTS
 62
     0
100
AcDbPoint
 10
306.9870537764325
 20
388.7827841660278
 30
0.0
  0
POINT
  5
18FB
330
16A1
100
AcDbEntity
  8
DEFPOINTS
 62
     0
100
AcDbPoint
 10
287.7454985738392
 20
553.7827841660276
 30
0.0
  0
POINT
  5
18FC
330
16A1
100
AcDbEntity
  8
DEFPOINTS
 62
     0
100
AcDbPoint
 10
369.102610257799
 20
553.7827841660276
 30
0.0
  0
ENDBLK
  5
16AD
330
16A1
100
AcDbEntity
  8
0
100
AcDbBlockEnd
  0
BLOCK
  5
16C6
330
16BB
100
AcDbEntity
  8
0
100
AcDbBlockBegin
  2
*D7
 70
     1
 10
0.0
 20
0.0
 30
0.0
  3
*D7
  1

  0
LINE
  5
18B3
330
16BB
100
AcDbEntity
  8
BEM
 62
     0
370
    -2
100
AcDbLine
 10
121.487053776433
 20
468.2550362514233
 30
0.0
 11
121.487053776433
 21
568.0929255474997
 31
0.0
  0
LINE
  5
18B4
330
16BB
100
AcDbEntity
  8
BEM
 62
     0
370
    -2
100
AcDbLine
 10
280.4870537764328
 20
468.2550362514233
 30
0.0
 11
280.4870537764328
 21
568.0929255474997
 31
0.0
  0
LINE
  5
18B5
330
16BB
100
AcDbEntity
  8
BEM
 62
     0
370
    -2
100
AcDbLine
 10
128.4870537764331
 20
566.0929255474997
 30
0.0
 11
273.4870537764328
 21
566.0929255474997
 31
0.0
  0
SOLID
  5
18B6
330
16BB
100
AcDbEntity
  8
BEM
 62
     0
100
AcDbTrace
 10
128.4870537764331
 20
567.2595922141663
 30
0.0
 11
128.4870537764331
 21
564.9262588808331
 31
0.0
 12
121.487053776433
 22
566.0929255474997
 32
0.0
 13
121.487053776433
 23
566.0929255474997
 33
0.0
  0
SOLID
  5
18B7
330
16BB
100
AcDbEntity
  8
BEM
 62
     0
100
AcDbTrace
 10
273.4870537764328
 20
567.2595922141663
 30
0.0
 11
273.4870537764328
 21
564.9262588808331
 31
0.0
 12
280.4870537764328
 22
566.0929255474997
 32
0.0
 13
280.4870537764328
 23
566.0929255474997
 33
0.0
  0
MTEXT
  5
18B8
330
16BB
100
AcDbEntity
  8
BEM
 62
     1
100
AcDbMText
 10
200.987053776433
 20
572.5929255474997
 30
0.0
 40
7.0
 41
0.0
 71
     5
 72
     1
  1
\A1;%%c159
 73
     1
 44
1.0
  0
POINT
  5
18B9
330
16BB
100
AcDbEntity
  8
DEFPOINTS
 62
     0
100
AcDbPoint
 10
121.487053776433
 20
466.2550362514234
 30
0.0
  0
POINT
  5
18BA
330
16BB
100
AcDbEntity
  8
DEFPOINTS
 62
     0
100
AcDbPoint
 10
280.4870537764328
 20
466.2550362514234
 30
0.0
  0
POINT
  5
18BB
330
16BB
100
AcDbEntity
  8
DEFPOINTS
 62
     0
100
AcDbPoint
 10
280.4870537764328
 20
566.0929255474997
 30
0.0
  0
ENDBLK
  5
16C7
330
16BB
100
AcDbEntity
  8
0
100
AcDbBlockEnd
  0
BLOCK
  5
16D3
330
16C8
100
AcDbEntity
  8
0
100
AcDbBlockBegin
  2
*D8
 70
     1
 10
0.0
 20
0.0
 30
0.0
  3
*D8
  1

  0
LINE
  5
191C
330
16C8
100
AcDbEntity
  8
BEM
 62
     0
370
    -2
100
AcDbLine
 10
58.48705377643262
 20
389.7827841660279
 30
0.0
 11
58.48705377643262
 21
351.0298575759037
 31
0.0
  0
LINE
  5
191D
330
16C8
100
AcDbEntity
  8
BEM
 62
     0
370
    -2
100
AcDbLine
 10
343.4870537764325
 20
389.7827841660277
 30
0.0
 11
343.4870537764325
 21
351.0298575759037
 31
0.0
  0
LINE
  5
191E
330
16C8
100
AcDbEntity
  8
BEM
 62
     0
370
    -2
100
AcDbLine
 10
65.48705377643262
 20
353.0298575759037
 30
0.0
 11
336.4870537764325
 21
353.0298575759037
 31
0.0
  0
SOLID
  5
191F
330
16C8
100
AcDbEntity
  8
BEM
 62
     0
100
AcDbTrace
 10
65.48705377643262
 20
354.1965242425704
 30
0.0
 11
65.48705377643262
 21
351.8631909092371
 31
0.0
 12
58.48705377643262
 22
353.0298575759037
 32
0.0
 13
58.48705377643262
 23
353.0298575759037
 33
0.0
  0
SOLID
  5
1920
330
16C8
100
AcDbEntity
  8
BEM
 62
     0
100
AcDbTrace
 10
336.4870537764325
 20
354.1965242425704
 30
0.0
 11
336.4870537764325
 21
351.8631909092371
 31
0.0
 12
343.4870537764325
 22
353.0298575759037
 32
0.0
 13
343.4870537764325
 23
353.0298575759037
 33
0.0
  0
MTEXT
  5
1921
330
16C8
100
AcDbEntity
  8
BEM
 62
     1
100
AcDbMText
 10
200.9870537764326
 20
359.5298575759037
 30
0.0
 40
7.0
 41
0.0
 71
     5
 72
     1
  1
\A1;%%C285
 73
     1
 44
1.0
  0
POINT
  5
1922
330
16C8
100
AcDbEntity
  8
DEFPOINTS
 62
     0
100
AcDbPoint
 10
58.48705377643262
 20
391.7827841660279
 30
0.0
  0
POINT
  5
1923
330
16C8
100
AcDbEntity
  8
DEFPOINTS
 62
     0
100
AcDbPoint
 10
343.4870537764325
 20
391.7827841660277
 30
0.0
  0
POINT
  5
1924
330
16C8
100
AcDbEntity
  8
DEFPOINTS
 62
     0
100
AcDbPoint
 10
343.4870537764325
 20
353.0298575759037
 30
0.0
  0
ENDBLK
  5
16D4
330
16C8
100
AcDbEntity
  8
0
100
AcDbBlockEnd
  0
BLOCK
  5
1908
330
18FE
100
AcDbEntity
  8
0
100
AcDbBlockBegin
  2
*D9
 70
     1
 10
0.0
 20
0.0
 30
0.0
  3
*D9
  1

  0
LINE
  5
1925
330
18FE
100
AcDbEntity
  8
BEM
 62
     0
370
    -2
100
AcDbLine
 10
80.98705377643261
 20
384.7827841660278
 30
0.0
 11
80.98705377643261
 21
366.5564783428172
 31
0.0
  0
LINE
  5
1926
330
18FE
100
AcDbEntity
  8
BEM
 62
     0
370
    -2
100
AcDbLine
 10
320.9870537764327
 20
384.7827841660278
 30
0.0
 11
320.9870537764327
 21
366.5564783428172
 31
0.0
  0
LINE
  5
1927
330
18FE
100
AcDbEntity
  8
BEM
 62
     0
370
    -2
100
AcDbLine
 10
87.98705377643262
 20
368.5564783428172
 30
0.0
 11
313.9870537764327
 21
368.5564783428172
 31
0.0
  0
SOLID
  5
1928
330
18FE
100
AcDbEntity
  8
BEM
 62
     0
100
AcDbTrace
 10
87.98705377643262
 20
369.7231450094839
 30
0.0
 11
87.98705377643262
 21
367.3898116761505
 31
0.0
 12
80.98705377643261
 22
368.5564783428172
 32
0.0
 13
80.98705377643261
 23
368.5564783428172
 33
0.0
  0
SOLID
  5
1929
330
18FE
100
AcDbEntity
  8
BEM
 62
     0
100
AcDbTrace
 10
313.9870537764327
 20
369.7231450094839
 30
0.0
 11
313.9870537764327
 21
367.3898116761505
 31
0.0
 12
320.9870537764327
 22
368.5564783428172
 32
0.0
 13
320.9870537764327
 23
368.5564783428172
 33
0.0
  0
MTEXT
  5
192A
330
18FE
100
AcDbEntity
  8
BEM
 62
     1
100
AcDbMText
 10
200.9870537764327
 20
375.0564783428172
 30
0.0
 40
7.0
 41
0.0
 71
     5
 72
     1
  1
\A1;%%c240
 73
     1
 44
1.0
  0
POINT
  5
192B
330
18FE
100
AcDbEntity
  8
DEFPOINTS
 62
     0
100
AcDbPoint
 10
80.98705377643261
 20
386.7827841660279
 30
0.0
  0
POINT
  5
192C
330
18FE
100
AcDbEntity
  8
DEFPOINTS
 62
     0
100
AcDbPoint
 10
320.9870537764327
 20
386.7827841660277
 30
0.0
  0
POINT
  5
192D
330
18FE
100
AcDbEntity
  8
DEFPOINTS
 62
     0
100
AcDbPoint
 10
320.9870537764327
 20
368.5564783428172
 30
0.0
  0
ENDBLK
  5
1909
330
18FE
100
AcDbEntity
  8
0
100
AcDbBlockEnd
  0
BLOCK
  5
19B4
330
19AA
100
AcDbEntity
  8
0
100
AcDbBlockBegin
  2
*D10
 70
     1
 10
0.0
 20
0.0
 30
0.0
  3
*D10
  1

  0
LINE
  5
19B6
330
19AA
100
AcDbEntity
  8
BEM
 62
     0
370
    -2
100
AcDbLine
 10
308.9870537764325
 20
388.7827841660278
 30
0.0
 11
359.007446526477
 21
388.7827841660278
 31
0.0
  0
LINE
  5
19B7
330
19AA
100
AcDbEntity
  8
BEM
 62
     0
370
    -2
100
AcDbLine
 10
345.4870537764326
 20
410.7827841660277
 30
0.0
 11
359.007446526477
 21
410.7827841660277
 31
0.0
  0
LINE
  5
19B8
330
19AA
100
AcDbEntity
  8
BEM
 62
     0
370
    -2
100
AcDbLine
 10
357.007446526477
 20
395.7827841660277
 30
0.0
 11
357.007446526477
 21
403.7827841660277
 31
0.0
  0
SOLID
  5
19B9
330
19AA
100
AcDbEntity
  8
BEM
 62
     0
100
AcDbTrace
 10
355.8407798598103
 20
395.7827841660277
 30
0.0
 11
358.1741131931437
 21
395.7827841660277
 31
0.0
 12
357.007446526477
 22
388.7827841660278
 32
0.0
 13
357.007446526477
 23
388.7827841660278
 33
0.0
  0
SOLID
  5
19BA
330
19AA
100
AcDbEntity
  8
BEM
 62
     0
100
AcDbTrace
 10
355.8407798598103
 20
403.7827841660277
 30
0.0
 11
358.1741131931437
 21
403.7827841660277
 31
0.0
 12
357.007446526477
 22
410.7827841660277
 32
0.0
 13
357.007446526477
 23
410.7827841660277
 33
0.0
  0
MTEXT
  5
19BB
330
19AA
100
AcDbEntity
  8
BEM
 62
     1
100
AcDbMText
 10
350.5074465264769
 20
399.7827841660278
 30
0.0
 40
7.0
 41
0.0
 71
     5
 72
     1
  1
\A1;22
 11
0.0000000000000001
 21
1.0
 31
0.0
 73
     1
 44
1.0
  0
POINT
  5
19BC
330
19AA
100
AcDbEntity
  8
DEFPOINTS
 62
     0
100
AcDbPoint
 10
306.9870537764325
 20
388.7827841660278
 30
0.0
  0
POINT
  5
19BD
330
19AA
100
AcDbEntity
  8
DEFPOINTS
 62
     0
100
AcDbPoint
 10
343.4870537764326
 20
410.7827841660277
 30
0.0
  0
POINT
  5
19BE
330
19AA
100
AcDbEntity
  8
DEFPOINTS
 62
     0
100
AcDbPoint
 10
357.007446526477
 20
410.7827841660277
 30
0.0
  0
ENDBLK
  5
19B5
330
19AA
100
AcDbEntity
  8
0
100
AcDbBlockEnd
  0
ENDSEC
  0
SECTION
  2
ENTITIES
  0
LINE
  5
57
330
1E
100
AcDbEntity
  8
STEMPEL
100
AcDbLine
 10
410.0
 20
110.0
 30
0.0
 11
39.99999999999997
 21
110.0
 31
0.0
  0
LINE
  5
58
330
1E
100
AcDbEntity
  8
STEMPEL
100
AcDbLine
 10
136.0000000000001
 20
109.9999999999999
 30
0.0
 11
136.0
 21
9.999999999999971
 31
0.0
  0
LINE
  5
59
330
1E
100
AcDbEntity
  8
STEMPEL
100
AcDbLine
 10
220.0
 20
110.0
 30
0.0
 11
220.0
 21
9.999999999999971
 31
0.0
  0
LINE
  5
5A
330
1E
100
AcDbEntity
  8
STEMPEL
100
AcDbLine
 10
332.0
 20
109.9999999999997
 30
0.0
 11
332.0
 21
40.0
 31
0.0
  0
LINE
  5
5B
330
1E
100
AcDbEntity
  8
STEMPEL
100
AcDbLine
 10
135.9999999999999
 20
29.99999999999997
 30
0.0
 11
39.99999999999997
 21
29.99999999999997
 31
0.0
  0
LINE
  5
5C
330
1E
100
AcDbEntity
  8
STEMPEL
100
AcDbLine
 10
410.0
 20
40.0
 30
0.0
 11
136.0000000000001
 21
39.99999999999997
 31
0.0
  0
LINE
  5
5D
330
1E
100
AcDbEntity
  8
STEMPEL
100
AcDbLine
 10
410.0
 20
80.0
 30
0.0
 11
136.0000000000001
 21
79.99999999999994
 31
0.0
  0
LINE
  5
5E
330
1E
100
AcDbEntity
  8
VOLL
100
AcDbLine
 10
54.00000000000009
 20
110.0
 30
0.0
 11
53.99999999999997
 21
9.999999999999971
 31
0.0
  0
LINE
  5
5F
330
1E
100
AcDbEntity
  8
VOLL
100
AcDbLine
 10
94.00000000000011
 20
109.9999999999999
 30
0.0
 11
94.0
 21
9.999999999999971
 31
0.0
  0
LINE
  5
60
330
1E
100
AcDbEntity
  8
VOLL
100
AcDbLine
 10
114.0000000000001
 20
109.9999999999999
 30
0.0
 11
114.0
 21
9.999999999999971
 31
0.0
  0
LINE
  5
61
330
1E
100
AcDbEntity
  8
VOLL
100
AcDbLine
 10
154.0000000000001
 20
79.99999999999994
 30
0.0
 11
154.0000000000001
 21
39.99999999999997
 31
0.0
  0
LINE
  5
62
330
1E
100
AcDbEntity
  8
VOLL
100
AcDbLine
 10
180.0000000000001
 20
109.9999999999998
 30
0.0
 11
180.0
 21
39.99999999999997
 31
0.0
  0
LINE
  5
63
330
1E
100
AcDbEntity
  8
HILF
100
AcDbLine
 10
40.00000000000008
 20
100.0
 30
0.0
 11
136.0000000000001
 21
100.0
 31
0.0
  0
LINE
  5
64
330
1E
100
AcDbEntity
  8
HILF
100
AcDbLine
 10
40.00000000000008
 20
90.00000000000005
 30
0.0
 11
136.0000000000001
 21
90.00000000000005
 31
0.0
  0
LINE
  5
65
330
1E
100
AcDbEntity
  8
HILF
100
AcDbLine
 10
40.00000000000008
 20
79.99999999999994
 30
0.0
 11
136.0000000000001
 21
79.99999999999994
 31
0.0
  0
LINE
  5
66
330
1E
100
AcDbEntity
  8
HILF
100
AcDbLine
 10
40.00000000000008
 20
69.99999999999994
 30
0.0
 11
136.0000000000001
 21
69.99999999999994
 31
0.0
  0
LINE
  5
67
330
1E
100
AcDbEntity
  8
HILF
100
AcDbLine
 10
40.00000000000008
 20
59.99999999999997
 30
0.0
 11
136.0000000000001
 21
59.99999999999997
 31
0.0
  0
LINE
  5
68
330
1E
100
AcDbEntity
  8
HILF
100
AcDbLine
 10
40.00000000000008
 20
49.99999999999997
 30
0.0
 11
136.0000000000001
 21
49.99999999999997
 31
0.0
  0
LINE
  5
69
330
1E
100
AcDbEntity
  8
HILF
100
AcDbLine
 10
40.00000000000008
 20
39.99999999999997
 30
0.0
 11
136.0000000000001
 21
39.99999999999997
 31
0.0
  0
LINE
  5
6A
330
1E
100
AcDbEntity
  8
HILF
100
AcDbLine
 10
136.0000000000001
 20
69.99999999999994
 30
0.0
 11
220.0
 21
69.99999999999994
 31
0.0
  0
LINE
  5
6B
330
1E
100
AcDbEntity
  8
HILF
100
AcDbLine
 10
136.0000000000001
 20
59.99999999999997
 30
0.0
 11
220.0
 21
59.99999999999997
 31
0.0
  0
LINE
  5
6C
330
1E
100
AcDbEntity
  8
HILF
100
AcDbLine
 10
136.0000000000001
 20
49.99999999999997
 30
0.0
 11
220.0
 21
49.99999999999997
 31
0.0
  0
LINE
  5
6D
330
1E
100
AcDbEntity
  8
HILF
100
AcDbLine
 10
224.7736801096948
 20
84.03758247564139
 30
0.0
 11
324.8353916556311
 21
84.03758247564139
 31
0.0
  0
LINE
  5
6E
330
1E
100
AcDbEntity
  8
HILF
100
AcDbLine
 10
224.7736801096948
 20
69.99999999999994
 30
0.0
 11
324.835391655631
 21
69.99999999999994
 31
0.0
  0
LINE
  5
6F
330
1E
100
AcDbEntity
  8
HILF
100
AcDbLine
 10
224.7736801096948
 20
59.99999999999997
 30
0.0
 11
324.835391655631
 21
59.99999999999997
 31
0.0
  0
LINE
  5
70
330
1E
100
AcDbEntity
  8
HILF
100
AcDbLine
 10
224.7736801096948
 20
49.99999999999997
 30
0.0
 11
324.835391655631
 21
49.99999999999997
 31
0.0
  0
LINE
  5
71
330
1E
100
AcDbEntity
  8
VOLL
100
AcDbLine
 10
332.0
 20
60.0
 30
0.0
 11
410.0
 21
60.0
 31
0.0
  0
LINE
  5
72
330
1E
100
AcDbEntity
  8
HILF
100
AcDbLine
 10
336.7238616296993
 20
83.77983636955827
 30
0.0
 11
404.8588839326728
 21
83.77983636955827
 31
0.0
  0
LINE
  5
73
330
1E
100
AcDbEntity
  8
HILF
100
AcDbLine
 10
223.4909699289885
 20
14.89398258028314
 30
0.0
 11
404.8588839326728
 21
14.89398258028314
 31
0.0
  0
TEXT
  5
74
330
1E
100
AcDbEntity
  8
TEXT
100
AcDbText
 10
63.16862601769703
 20
18.67381894984132
 30
0.0
 40
4.0
  1
Änderung
 41
0.8
  7
GREEKS
 72
     1
 11
73.91148316055418
 21
18.67381894984132
 31
0.0
100
AcDbText
  0
TEXT
  5
75
330
1E
100
AcDbEntity
  8
TEXT
100
AcDbText
 10
143.5163572150377
 20
102.4620895087088
 30
0.0
 40
5.0
  1
Maßstab
 41
0.8
  7
GREEKS
100
AcDbText
  0
TEXT
  5
76
330
1E
100
AcDbEntity
  8
TEXT
100
AcDbText
 10
184.2858954734051
 20
102.4184168434819
 30
0.0
 40
5.0
  1
Zul. Abw.
 41
0.8
  7
GREEKS
100
AcDbText
  0
TEXT
  5
77
330
1E
100
AcDbEntity
  8
TEXT
100
AcDbText
 10
224.877940380901
 20
102.5489328011779
 30
0.0
 40
5.0
  1
Benennung
 41
0.8
  7
GREEKS
100
AcDbText
  0
TEXT
  5
78
330
1E
100
AcDbEntity
  8
TEXT
100
AcDbText
 10
336.178754957634
 20
102.3132034537136
 30
0.0
 40
5.0
  1
Zeichnungs Nr.
 41
0.8
  7
GREEKS
100
AcDbText
  0
TEXT
  5
79
330
1E
100
AcDbEntity
  8
TEXT
100
AcDbText
 10
224.742238391136
 20
30.84560570193057
 30
0.0
 40
5.0
  1
Bauvorhaben
 41
0.8
  7
GREEKS
100
AcDbText
  0
TEXT
  5
7A
330
1E
100
AcDbEntity
  8
TEXT
100
AcDbText
 10
336.7238616296993
 20
73.1811823709997
 30
0.0
 40
5.0
  1
Ersatz für:
 41
0.8
  7
GREEKS
100
AcDbText
  0
TEXT
  5
7B
330
1E
100
AcDbEntity
  8
TEXT
100
AcDbText
 10
48.26641107045756
 20
13.65465846027192
 30
0.0
 40
4.0
  1
Index
 50
90.0
 41
0.8
  7
GREEKS
100
AcDbText
  0
TEXT
  5
7C
330
1E
100
AcDbEntity
  8
TEXT
100
AcDbText
 10
100.6986119235389
 20
18.6715626933981
 30
0.0
 40
4.0
  1
Tag
 41
0.8
  7
GREEKS
 72
     1
 11
104.4319452568723
 21
18.6715626933981
 31
0.0
100
AcDbText
  0
TEXT
  5
7D
330
1E
100
AcDbEntity
  8
TEXT
100
AcDbText
 10
119.0122744386592
 20
18.59324216966408
 30
0.0
 40
4.0
  1
Name
 41
0.8
  7
GREEKS
 72
     1
 11
125.3360839624688
 21
18.59324216966408
 31
0.0
100
AcDbText
  0
TEXT
  5
7E
330
1E
100
AcDbEntity
  8
TEXT
100
AcDbText
 10
162.3311673153651
 20
73.31880501229926
 30
0.0
 40
4.0
  1
Tag
 41
0.8
  7
GREEKS
100
AcDbText
  0
TEXT
  5
7F
330
1E
100
AcDbEntity
  8
TEXT
100
AcDbText
 10
192.4626584226295
 20
73.30961091915225
 30
0.0
 40
4.0
  1
Name
 41
0.8
  7
GREEKS
100
AcDbText
  0
TEXT
  5
80
330
1E
100
AcDbEntity
  8
TEXT
100
AcDbText
 10
137.5836127167615
 20
63.62990369617964
 30
0.0
 40
4.0
  1
Gez.
 41
0.8
  7
GREEKS
100
AcDbText
  0
TEXT
  5
81
330
1E
100
AcDbEntity
  8
TEXT
100
AcDbText
 10
137.5515086571672
 20
53.68926291428377
 30
0.0
 40
4.0
  1
Gepr.
 41
0.8
  7
GREEKS
100
AcDbText
  0
TEXT
  5
82
330
1E
100
AcDbEntity
  8
TEXT
100
AcDbText
 10
137.6006777387304
 20
43.52946389649807
 30
0.0
 40
4.0
  1
Norm.
 41
0.8
  7
GREEKS
100
AcDbText
  0
LINE
  5
83
330
1E
100
AcDbEntity
  8
STEMPEL
100
AcDbLine
 10
49.99999999999989
 20
10.0
 30
0.0
 11
410.0
 21
10.0
 31
0.0
  0
TEXT
  5
84
330
1E
100
AcDbEntity
  8
TEXT
100
AcDbText
 10
337.2400861497006
 20
52.07416177878602
 30
0.0
 40
5.0
  1
ersetzt durch:
 41
0.8
  7
GREEKS
100
AcDbText
  0
LINE
  5
85
330
1E
100
AcDbEntity
  8
STEMPEL
100
AcDbLine
 10
410.0
 20
10.0
 30
0.0
 11
39.99999999999989
 21
10.0
 31
0.0
  0
LINE
  5
86
330
1E
100
AcDbEntity
  8
STEMPEL
100
AcDbLine
 10
410.0
 20
10.0
 30
0.0
 11
410.0
 21
584.0
 31
0.0
  0
LINE
  5
87
330
1E
100
AcDbEntity
  8
STEMPEL
100
AcDbLine
 10
40.0
 20
10.0
 30
0.0
 11
39.99999999999989
 21
584.0
 31
0.0
  0
LINE
  5
88
330
1E
100
AcDbEntity
  8
STEMPEL
100
AcDbLine
 10
410.0
 20
584.0
 30
0.0
 11
39.99999999999989
 21
584.0
 31
0.0
  0
LINE
  5
89
330
1E
100
AcDbEntity
  8
HILF
100
AcDbLine
 10
0.0
 20
0.0
 30
0.0
 11
-0.0000000000001137
 21
594.0
 31
0.0
  0
LINE
  5
8A
330
1E
100
AcDbEntity
  8
HILF
100
AcDbLine
 10
419.9999999999999
 20
594.0000000000002
 30
0.0
 11
0.0
 21
594.0
 31
0.0
  0
LINE
  5
8B
330
1E
100
AcDbEntity
  8
HILF
100
AcDbLine
 10
420.0
 20
0.0
 30
0.0
 11
0.0
 21
0.0
 31
0.0
  0
LINE
  5
8C
330
1E
100
AcDbEntity
  8
HILF
100
AcDbLine
 10
31.08767135713856
 20
297.0
 30
0.0
 11
0.0000000000001137
 21
297.0
 31
0.0
  0
TEXT
  5
8D
330
1E
100
AcDbEntity
  8
TEXT
100
AcDbText
 10
138.622109822104
 20
73.14025471151666
 30
0.0
 40
4.0
  1
2007
 41
0.8
  7
GREEKS
100
AcDbText
  0
LINE
  5
8E
330
1E
100
AcDbEntity
  8
HILF
100
AcDbLine
 10
420.0
 20
-0.0000000000001137
 30
0.0
 11
419.9999999999999
 21
594.0
 31
0.0
  0
TEXT
  5
8F
330
1E
100
AcDbEntity
  8
VOLL
100
AcDbText
 10
78.07675471698113
 20
31.02594776470585
 30
0.0
 40
1.8
  1

  7
GREEKS
100
AcDbText
  0
TEXT
  5
90
330
1E
100
AcDbEntity
  8
TEXT
100
AcDbText
 10
41.85509950977674
 20
111.6719999999999
 30
0.0
 40
5.0
  1
Erstellt mit AUTOCAD 2004
 41
0.8
  7
GREEKS
100
AcDbText
  0
TEXT
  5
91
330
1E
100
AcDbEntity
  8
TEXT
100
AcDbText
 10
194.4216048581257
 20
63.0896391972351
 30
0.0
 40
4.0
  1
Koeh
 41
0.8
  7
GREEKS
 72
     1
 11
199.6787477152685
 21
63.0896391972351
 31
0.0
100
AcDbText
  0
TEXT
  5
92
330
1E
100
AcDbEntity
  8
TEXT
 62
     1
100
AcDbText
 10
348.3175749424538
 20
88.14901428913959
 30
0.0
 40
7.0
  1
82511150W
 41
0.8
  7
GREEKS
 72
     1
 11
370.7175749424538
 21
88.14901428913959
 31
0.0
100
AcDbText
  0
TEXT
  5
93
330
1E
100
AcDbEntity
  8
TEXT
 62
     1
100
AcDbText
 10
150.5006306481887
 20
88.14901428913959
 30
0.0
 40
7.0
  1
1:2
 41
0.8
  7
GREEKS
100
AcDbText
  0
TEXT
  5
94
330
1E
100
AcDbEntity
  8
TEXT
100
AcDbText
 10
160.7037590129979
 20
63.10765040825732
 30
0.0
 40
4.0
  1
31.08.
 41
0.8
  7
GREEKS
 72
     1
 11
167.4085209177598
 21
63.10765040825732
 31
0.0
100
AcDbText
  0
TEXT
  5
95
330
1E
100
AcDbEntity
  8
TEXT
 62
     1
100
AcDbText
 10
226.8935731057402
 20
87.41748789253779
 30
0.0
 40
7.0
  1
Übergangsstück DN150
 41
0.8
  7
GREEKS
100
AcDbText
  0
TEXT
  5
96
330
1E
100
AcDbEntity
  8
TEXT
100
AcDbText
 10
225.1296391125315
 20
71.50334417585288
 30
0.0
 40
5.0
  1
mit LX-Muffe und Flansch
 41
0.8
  7
GREEKS
100
AcDbText
  0
TEXT
  5
98
330
1E
100
AcDbEntity
  8
TEXT
100
AcDbText
 10
225.1296391125315
 20
51.64011943042158
 30
0.0
 40
5.0
  1
EDV-Art.Nr. 82511.150X
 41
0.8
  7
GREEKS
100
AcDbText
  0
TEXT
  5
99
330
1E
100
AcDbEntity
  8
TEXT
100
AcDbText
 10
224.9837501577827
 20
42.62974153022632
 30
0.0
 40
4.0
  1
82511150W.DWG
 41
0.8
  7
GREEKS
100
AcDbText
  0
TEXT
  5
9A
330
1E
100
AcDbEntity
  8
TEXT
100
AcDbText
 10
182.626132208084
 20
90.76363841023022
 30
0.0
 40
4.0
  1
DIN EN1123-2
 41
0.8
  7
GREEKS
 72
     1
 11
199.6166083985602
 21
90.76363841023022
 31
0.0
100
AcDbText
  0
INSERT
  5
9B
330
1E
100
AcDbEntity
  8
STEMPEL
100
AcDbBlockReference
  2
LOGO
 10
140.9955485457794
 20
45.02105276448322
 30
0.0
 41
2.0
 42
2.0
 43
2.0
  0
TEXT
  5
118
330
1E
100
AcDbEntity
  8
BEM
100
AcDbText
 10
417.3022923857165
 20
10.16790107998849
 30
0.0
 40
4.0
  1
Diese Zeichnung ist urheberrechtlich geschützt und bleibt unser Eigentum. Sie darf weder ganz noch teilweise verfielfältigt und nicht an Dritte weitergegeben werden.
 50
90.0
 41
0.8
  7
GREEKS
100
AcDbText
  0
TEXT
  5
497
330
1E
100
AcDbEntity
  8
TEXT
 62
     1
100
AcDbText
 10
214.6899378518472
 20
120.1419613406103
 30
0.0
 40
7.0
  1
feuerverzinkt und innen beschichtet
 41
0.8
  7
GREEKS
100
AcDbText
  0
TEXT
  5
498
330
1E
100
AcDbEntity
  8
TEXT
 62
     1
100
AcDbText
 10
130.393834264456
 20
130.8640731556138
 30
0.0
 40
7.0
  1
Vorschweißflansch: DN150 DIN2633 PN16
 41
0.8
  7
GREEKS
100
AcDbText
  0
TEXT
  5
499
330
1E
100
AcDbEntity
  8
TEXT
 62
     1
100
AcDbText
 10
148.8159755133217
 20
142.8046314634853
 30
0.0
 40
7.0
  1
Rohrwerkstoff: E195 EN10305
 41
0.8
  7
GREEKS
100
AcDbText
  0
TEXT
  5
4A3
330
1E
100
AcDbEntity
  8
TEXT
 62
     1
100
AcDbText
 10
193.7736855074458
 20
514.3256891337473
 30
0.0
 40
7.0
  1
DN150
 50
90.0
 41
0.8
  7
GREEKS
100
AcDbText
  0
LINE
  5
15FB
102
{ACAD_REACTORS
330
19A8
102
}
330
1E
100
AcDbEntity
  8
STEMPEL
100
AcDbLine
 10
287.7454985738392
 20
553.7827841660276
 30
0.0
 11
288.2078263227157
 21
552.7913191090182
 31
0.0
  0
LINE
  5
15FC
102
{ACAD_REACTORS
330
19A8
102
}
330
1E
100
AcDbEntity
  8
STEMPEL
100
AcDbLine
 10
284.8973269403052
 20
553.7827841660276
 30
0.0
 11
287.7454985738392
 21
553.7827841660276
 31
0.0
  0
LINE
  5
15FD
102
{ACAD_REACTORS
330
19A8
102
}
330
1E
100
AcDbEntity
  8
STEMPEL
100
AcDbLine
 10
288.9870537764328
 20
537.9996799480941
 30
0.0
 11
288.9870537764328
 21
521.7201786368741
 31
0.0
  0
LINE
  5
15FE
102
{ACAD_REACTORS
330
19A8
102
}
330
1E
100
AcDbEntity
  8
STEMPEL
100
AcDbLine
 10
291.4870537764329
 20
537.9996799480941
 30
0.0
 11
291.4870537764329
 21
521.7201786368741
 31
0.0
  0
ARC
  5
15FF
102
{ACAD_REACTORS
330
19A8
102
}
330
1E
100
AcDbEntity
  8
STEMPEL
100
AcDbCircle
 10
303.4870537764328
 20
497.2827841660277
 30
0.0
 40
20.5
100
AcDbArc
 50
152.4728163794451
 51
180.0
  0
ARC
  5
1600
102
{ACAD_REACTORS
330
19A8
102
}
330
1E
100
AcDbEntity
  8
STEMPEL
100
AcDbCircle
 10
303.4870537764328
 20
497.2827841660277
 30
0.0
 40
18.0
100
AcDbArc
 50
152.4728163794451
 51
180.0
  0
ARC
  5
1601
102
{ACAD_REACTORS
330
19A8
102
}
330
1E
100
AcDbEntity
  8
STEMPEL
100
AcDbCircle
 10
256.4870537764329
 20
521.7777841660277
 30
0.0
 40
32.50004740563918
100
AcDbArc
 50
332.4728163794451
 51
0.0943014490820491
  0
ARC
  5
1602
102
{ACAD_REACTORS
330
19A8
102
}
330
1E
100
AcDbEntity
  8
STEMPEL
100
AcDbCircle
 10
256.4870537764329
 20
521.7777841660277
 30
0.0
 40
35.00004740563918
100
AcDbArc
 50
332.4728163794451
 51
0.0943014490820491
  0
ARC
  5
1603
102
{ACAD_REACTORS
330
19A8
102
}
330
1E
100
AcDbEntity
  8
STEMPEL
100
AcDbCircle
 10
256.4870537764329
 20
537.9996799480941
 30
0.0
 40
32.5
100
AcDbArc
 50
0.0
 51
29.05401713819517
  0
ARC
  5
1604
102
{ACAD_REACTORS
330
19A8
102
}
330
1E
100
AcDbEntity
  8
STEMPEL
100
AcDbCircle
 10
256.4870537764329
 20
537.9996799480941
 30
0.0
 40
35.0
100
AcDbArc
 50
0.0
 51
24.99999999999207
  0
ARC
  5
1606
102
{ACAD_REACTORS
330
19A8
102
}
330
1E
100
AcDbEntity
  8
STEMPEL
100
AcDbCircle
 10
290.4870537764328
 20
466.2550362514234
 30
0.0
 40
10.0
100
AcDbArc
 50
145.2280559680509
 51
180.0
  0
ARC
  5
1607
102
{ACAD_REACTORS
330
19A8
102
}
330
1E
100
AcDbEntity
  8
STEMPEL
100
AcDbCircle
 10
290.4870537764328
 20
453.7992218866998
 30
0.0
 40
10.0
100
AcDbArc
 50
180.0
 51
198.3274521769827
  0
LINE
  5
1608
102
{ACAD_REACTORS
330
19A8
102
}
330
1E
100
AcDbEntity
  8
STEMPEL
100
AcDbLine
 10
277.9870537764328
 20
466.2550362514234
 30
0.0
 11
277.9870537764328
 21
453.7992218866998
 31
0.0
  0
LINE
  5
1609
102
{ACAD_REACTORS
330
19A8
102
}
330
1E
100
AcDbEntity
  8
STEMPEL
100
AcDbLine
 10
280.4870537764328
 20
466.2550362514234
 30
0.0
 11
280.4870537764328
 21
453.7992218866998
 31
0.0
  0
ARC
  5
160A
102
{ACAD_REACTORS
330
19A8
102
}
330
1E
100
AcDbEntity
  8
STEMPEL
100
AcDbCircle
 10
290.4870537764328
 20
466.2550362514234
 30
0.0
 40
12.5
100
AcDbArc
 50
145.2280559680509
 51
180.0
  0
ARC
  5
160B
102
{ACAD_REACTORS
330
19A8
102
}
330
1E
100
AcDbEntity
  8
STEMPEL
100
AcDbCircle
 10
267.4870537764328
 20
482.2237556740947
 30
0.0
 40
15.5
100
AcDbArc
 50
325.228055968051
 51
0.0
  0
ARC
  5
160C
102
{ACAD_REACTORS
330
19A8
102
}
330
1E
100
AcDbEntity
  8
STEMPEL
100
AcDbCircle
 10
267.4870537764328
 20
482.2237556740947
 30
0.0
 40
18.0
100
AcDbArc
 50
325.228055968051
 51
0.0
  0
LINE
  5
160E
102
{ACAD_REACTORS
330
1965
102
}
330
1E
100
AcDbEntity
  8
STEMPEL
100
AcDbLine
 10
299.9247889982628
 20
410.7827841660277
 30
0.0
 11
343.4870537764326
 21
410.7827841660277
 31
0.0
  0
LINE
  5
160F
102
{ACAD_REACTORS
330
19A8
102
}
330
1E
100
AcDbEntity
  8
STEMPEL
100
AcDbLine
 10
278.621117211566
 20
449.8686303995878
 30
0.0
 11
280.6370537764327
 21
443.7827841660277
 31
0.0
  0
LINE
  5
1610
102
{ACAD_REACTORS
330
1965
330
19A8
102
}
330
1E
100
AcDbEntity
  8
STEMPEL
100
AcDbLine
 10
280.6370537764327
 20
443.7827841660277
 30
0.0
 11
283.2706427754272
 21
443.7827841660277
 31
0.0
  0
LINE
  5
1611
102
{ACAD_REACTORS
330
1965
102
}
330
1E
100
AcDbEntity
  8
STEMPEL
100
AcDbLine
 10
283.2706427754272
 20
443.7827841660277
 30
0.0
 11
285.1370537764326
 21
443.7827841660277
 31
0.0
  0
INSERT
  5
1612
330
1E
100
AcDbEntity
  8
SCHRAFF
100
AcDbBlockReference
  2
*X1
 10
458.2510751060503
 20
33.47316220918697
 30
0.0
 41
-1.0
1001
ACAD
1000
HATCH
1002
{
1070
    16
1000
_U,I
1040
0.1
1040
0.0
1070
     0
1002
}
  0
LINE
  5
1613
102
{ACAD_REACTORS
330
1965
102
}
330
1E
100
AcDbEntity
  8
STEMPEL
100
AcDbLine
 10
285.1370537764326
 20
443.7827841660276
 30
0.0
 11
285.1370537764326
 21
431.7827841660277
 31
0.0
  0
LINE
  5
1614
102
{ACAD_REACTORS
330
1965
102
}
330
1E
100
AcDbEntity
  8
STEMPEL
100
AcDbLine
 10
285.1370537764326
 20
431.7827841660277
 30
0.0
 11
290.5578362000353
 21
417.2813280009759
 31
0.0
  0
ARC
  5
1615
102
{ACAD_REACTORS
330
1965
102
}
330
1E
100
AcDbEntity
  8
STEMPEL
100
AcDbCircle
 10
299.9247889982628
 20
420.7827841660277
 30
0.0
 40
10.0
100
AcDbArc
 50
200.4962219267708
 51
270.0
  0
LINE
  5
1616
102
{ACAD_REACTORS
330
19A8
102
}
330
1E
100
AcDbEntity
  8
STEMPEL
100
AcDbLine
 10
280.9943045245394
 20
450.6547486970102
 30
0.0
 11
283.2706427754272
 21
443.7827841660277
 31
0.0
  0
ARC
  5
1617
330
1E
100
AcDbEntity
  8
SCHRAFF
100
AcDbCircle
 10
282.2404004063616
 20
443.38284840641
 30
0.0
 40
5.436100786592056
100
AcDbArc
 50
302.1985579806456
 51
96.6127079449162
  0
ARC
  5
1618
102
{ACAD_REACTORS
330
19A8
102
}
330
1E
100
AcDbEntity
  8
STEMPEL
100
AcDbCircle
 10
290.4870537764328
 20
453.7992218866998
 30
0.0
 40
12.5
100
AcDbArc
 50
180.0
 51
198.3274521769827
  0
DIMENSION
  5
1619
330
1E
100
AcDbEntity
  8
BEM
100
AcDbDimension
  2
*D5
 10
331.9870537764327
 20
427.5904991943778
 30
0.0
 11
320.9870537764327
 21
434.0904991943777
 31
0.0
 70
    32
  1
%%c<>
 71
     5
 42
22.0
  3
Standard
100
AcDbAlignedDimension
 13
309.9870537764327
 23
410.7827841660277
 33
0.0
 14
331.9870537764327
 24
410.7827841660277
 34
0.0
100
AcDbRotatedDimension
1001
ACAD
1000
DSTYLE
1002
{
1070
    40
1040
2.0
1070
    41
1040
3.5
1070
    42
1040
1.0
1070
    43
1040
7.0
1070
    44
1040
1.0
1070
    73
1070
     0
1070
    74
1070
     0
1070
    77
1070
     1
1070
    78
1070
     8
1070
    79
1070
     2
1070
   140
1040
3.5
1070
   141
1040
1.5
1070
   146
1040
0.5142857142857144
1070
   147
1040
1.5
1070
   172
1070
     1
1070
   178
1070
     1
1070
   179
1070
     2
1070
   271
1070
     2
1070
   272
1070
     2
1070
   284
1070
     8
1070
   285
1070
     8
1070
   286
1070
     8
1002
}
  0
LINE
  5
161A
102
{ACAD_REACTORS
330
1965
102
}
330
1E
100
AcDbEntity
  8
STEMPEL
100
AcDbLine
 10
306.9870537764325
 20
388.7827841660278
 30
0.0
 11
309.9870537764325
 21
391.7827841660277
 31
0.0
  0
LINE
  5
161B
102
{ACAD_REACTORS
330
1965
102
}
330
1E
100
AcDbEntity
  8
STEMPEL
100
AcDbLine
 10
309.9870537764325
 20
391.7827841660277
 30
0.0
 11
343.4870537764325
 21
391.7827841660277
 31
0.0
  0
POINT
  5
161C
330
1E
100
AcDbEntity
  8
STEMPEL
100
AcDbPoint
 10
280.6370537764326
 20
388.7827841660278
 30
0.0
  0
LINE
  5
1623
330
1E
100
AcDbEntity
  8
MITTEL
100
AcDbLine
 10
320.9870537764327
 20
415.7827841660277
 30
0.0
 11
320.9870537764327
 21
386.7827841660277
 31
0.0
  0
LINE
  5
1624
102
{ACAD_REACTORS
330
1965
102
}
330
1E
100
AcDbEntity
  8
STEMPEL
100
AcDbLine
 10
331.9870537764327
 20
410.7827841660277
 30
0.0
 11
331.9870537764327
 21
391.7827841660277
 31
0.0
  0
LINE
  5
1625
102
{ACAD_REACTORS
330
1965
102
}
330
1E
100
AcDbEntity
  8
STEMPEL
100
AcDbLine
 10
343.4870537764326
 20
410.7827841660277
 30
0.0
 11
343.4870537764325
 21
391.7827841660277
 31
0.0
  0
LINE
  5
1626
102
{ACAD_REACTORS
330
1965
102
}
330
1E
100
AcDbEntity
  8
STEMPEL
100
AcDbLine
 10
280.6370537764327
 20
443.7827841660277
 30
0.0
 11
280.6370537764326
 21
388.7827841660278
 31
0.0
  0
LINE
  5
1627
102
{ACAD_REACTORS
330
1965
102
}
330
1E
100
AcDbEntity
  8
STEMPEL
100
AcDbLine
 10
309.9870537764327
 20
410.7827841660277
 30
0.0
 11
309.9870537764327
 21
391.7827841660279
 31
0.0
  0
DIMENSION
  5
1629
330
1E
100
AcDbEntity
  8
BEM
100
AcDbDimension
  2
*D6
 10
369.102610257799
 20
553.7827841660276
 30
0.0
 11
362.602610257799
 21
471.2827841660278
 31
0.0
 70
    32
 71
     5
 42
165.0
  3
Standard
100
AcDbAlignedDimension
 13
306.9870537764325
 23
388.7827841660278
 33
0.0
 14
287.7454985738392
 24
553.7827841660276
 34
0.0
 50
90.0
100
AcDbRotatedDimension
1001
ACAD
1000
DSTYLE
1002
{
1070
    40
1040
2.0
1070
    41
1040
3.5
1070
    42
1040
1.0
1070
    43
1040
7.0
1070
    44
1040
1.0
1070
    73
1070
     0
1070
    74
1070
     0
1070
    77
1070
     1
1070
    78
1070
     8
1070
    79
1070
     2
1070
   140
1040
3.5
1070
   141
1040
1.5
1070
   146
1040
0.5142857142857144
1070
   147
1040
1.5
1070
   172
1070
     1
1070
   178
1070
     1
1070
   179
1070
     2
1070
   271
1070
     2
1070
   272
1070
     2
1070
   284
1070
     8
1070
   285
1070
     8
1070
   286
1070
     8
1002
}
  0
LINE
  5
162B
102
{ACAD_REACTORS
330
19A8
102
}
330
1E
100
AcDbEntity
  8
STEMPEL
100
AcDbLine
 10
282.9870537764328
 20
497.2827841660277
 30
0.0
 11
282.9870537764328
 21
482.2237556740947
 31
0.0
  0
LINE
  5
162C
102
{ACAD_REACTORS
330
19A8
102
}
330
1E
100
AcDbEntity
  8
STEMPEL
100
AcDbLine
 10
285.4870537764329
 20
497.2827841660277
 30
0.0
 11
285.4870537764329
 21
482.2237556740947
 31
0.0
  0
LINE
  5
162E
330
1E
100
AcDbEntity
  8
STEMPEL
100
AcDbLine
 10
114.2286089790267
 20
553.7827841660276
 30
0.0
 11
113.7662812301502
 21
552.7913191090182
 31
0.0
  0
LINE
  5
162F
330
1E
100
AcDbEntity
  8
STEMPEL
100
AcDbLine
 10
110.487053776433
 20
537.9996799480941
 30
0.0
 11
110.487053776433
 21
521.7201786368741
 31
0.0
  0
ARC
  5
1630
330
1E
100
AcDbEntity
  8
STEMPEL
100
AcDbCircle
 10
98.48705377643307
 20
497.2827841660277
 30
0.0
 40
18.0
100
AcDbArc
 50
0.0
 51
27.52718362055486
  0
ARC
  5
1631
330
1E
100
AcDbEntity
  8
STEMPEL
100
AcDbCircle
 10
145.4870537764328
 20
521.7777841660277
 30
0.0
 40
35.00004740563918
100
AcDbArc
 50
179.9056985509179
 51
207.5271836205549
  0
ARC
  5
1632
330
1E
100
AcDbEntity
  8
STEMPEL
100
AcDbCircle
 10
145.4870537764328
 20
537.9996799480941
 30
0.0
 40
35.0
100
AcDbArc
 50
155.0000000000006
 51
180.0
  0
ARC
  5
1633
330
1E
100
AcDbEntity
  8
SCHRAFF
100
AcDbCircle
 10
182.6568284546819
 20
443.7613717018838
 30
0.0
 40
6.154265250901039
100
AcDbArc
 50
306.0050307959405
 51
54.67882349668521
  0
ARC
  5
1635
330
1E
100
AcDbEntity
  8
SCHRAFF
100
AcDbCircle
 10
172.1342527202684
 20
443.7613717018838
 30
0.0
 40
6.154265250901039
100
AcDbArc
 50
306.0050307959405
 51
54.67882349668521
  0
ARC
  5
1637
330
1E
100
AcDbEntity
  8
SCHRAFF
100
AcDbCircle
 10
161.6116750300772
 20
443.7613717018838
 30
0.0
 40
6.154265250901039
100
AcDbArc
 50
306.0050307959405
 51
54.67882349668521
  0
ARC
  5
163A
330
1E
100
AcDbEntity
  8
SCHRAFF
100
AcDbCircle
 10
150.6843823620068
 20
443.7613717018838
 30
0.0
 40
6.154265250901039
100
AcDbArc
 50
306.0050307959405
 51
54.67882349668521
  0
ARC
  5
163C
330
1E
100
AcDbEntity
  8
SCHRAFF
100
AcDbCircle
 10
193.1794061448731
 20
443.7613717018838
 30
0.0
 40
6.154265250901039
100
AcDbArc
 50
306.0050307959405
 51
54.67882349668521
  0
ARC
  5
163D
330
1E
100
AcDbEntity
  8
STEMPEL
100
AcDbCircle
 10
111.487053776433
 20
466.2550362514234
 30
0.0
 40
10.0
100
AcDbArc
 50
0.0
 51
34.77194403194904
  0
ARC
  5
163E
330
1E
100
AcDbEntity
  8
STEMPEL
100
AcDbCircle
 10
111.4870537764332
 20
453.7992218867018
 30
0.0
 40
10.0
100
AcDbArc
 50
341.6725478230172
 51
0.0
  0
LINE
  5
163F
330
1E
100
AcDbEntity
  8
STEMPEL
100
AcDbLine
 10
121.487053776433
 20
466.2550362514234
 30
0.0
 11
121.4870537764332
 21
453.7992218867019
 31
0.0
  0
ARC
  5
1640
330
1E
100
AcDbEntity
  8
STEMPEL
100
AcDbCircle
 10
134.4870537764331
 20
482.2237556740947
 30
0.0
 40
18.0
100
AcDbArc
 50
180.0
 51
214.7719440319491
  0
ARC
  5
1641
330
1E
100
AcDbEntity
  8
SCHRAFF
100
AcDbCircle
 10
140.1618046718155
 20
443.7613717018838
 30
0.0
 40
6.154265250901039
100
AcDbArc
 50
306.0050307959405
 51
54.67882349668521
  0
ARC
  5
1643
330
1E
100
AcDbEntity
  8
SCHRAFF
100
AcDbCircle
 10
129.6392289374021
 20
443.7613717018838
 30
0.0
 40
6.154265250901039
100
AcDbArc
 50
306.0050307959405
 51
54.67882349668521
  0
INSERT
  5
1645
330
1E
100
AcDbEntity
  8
SCHRAFF
100
AcDbBlockReference
  2
*X1
 10
-56.27696755318504
 20
33.47316220918697
 30
0.0
1001
ACAD
1000
HATCH
1002
{
1070
    16
1000
_U,I
1040
0.1
1040
0.0
1070
     0
1002
}
  0
LINE
  5
1647
330
1E
100
AcDbEntity
  8
STEMPEL
100
AcDbLine
 10
116.8370537764326
 20
443.7827841660277
 30
0.0
 11
116.8370537764326
 21
431.7827841660277
 31
0.0
  0
ARC
  5
1648
330
1E
100
AcDbEntity
  8
SCHRAFF
100
AcDbCircle
 10
119.1166512472108
 20
443.7613717018838
 30
0.0
 40
6.154265250901039
100
AcDbArc
 50
306.0050307959405
 51
54.67882349668521
  0
ARC
  5
1649
330
1E
100
AcDbEntity
  8
STEMPEL
100
AcDbCircle
 10
102.0493185546027
 20
420.782784166028
 30
0.0
 40
10.0
100
AcDbArc
 50
270.0
 51
339.5037780732292
  0
LINE
  5
164A
330
1E
100
AcDbEntity
  8
STEMPEL
100
AcDbLine
 10
116.8370537764327
 20
431.7827841660279
 30
0.0
 11
111.4162713528301
 21
417.2813280009761
 31
0.0
  0
LINE
  5
164B
330
1E
100
AcDbEntity
  8
STEMPEL
100
AcDbLine
 10
120.9798030283266
 20
450.6547486970121
 30
0.0
 11
118.703464777438
 21
443.7827841660281
 31
0.0
  0
ARC
  5
164C
330
1E
100
AcDbEntity
  8
SCHRAFF
100
AcDbCircle
 10
119.7337071465037
 20
443.38284840641
 30
0.0
 40
5.436100786592056
100
AcDbArc
 50
83.3872920550838
 51
237.8014420193544
  0
LINE
  5
164D
330
1E
100
AcDbEntity
  8
STEMPEL
100
AcDbLine
 10
116.8370537764326
 20
431.7827841660277
 30
0.0
 11
200.9870537764328
 21
431.7827841660277
 31
0.0
  0
LINE
  5
164E
330
1E
100
AcDbEntity
  8
STEMPEL
100
AcDbLine
 10
58.48705377643262
 20
410.7827841660277
 30
0.0
 11
200.9870537764326
 21
410.7827841660277
 31
0.0
  0
POINT
  5
1652
330
1E
100
AcDbEntity
  8
STEMPEL
100
AcDbPoint
 10
121.3370537764326
 20
388.7827841660278
 30
0.0
  0
LINE
  5
1653
330
1E
100
AcDbEntity
  8
STEMPEL
100
AcDbLine
 10
94.98705377643261
 20
388.7827841660278
 30
0.0
 11
91.98705377643262
 21
391.7827841660279
 31
0.0
  0
LINE
  5
1655
330
1E
100
AcDbEntity
  8
STEMPEL
100
AcDbLine
 10
58.48705377643262
 20
391.7827841660279
 30
0.0
 11
200.9870537764326
 21
391.7827841660277
 31
0.0
  0
LINE
  5
1656
330
1E
100
AcDbEntity
  8
MITTEL
100
AcDbLine
 10
80.98705377643261
 20
415.7827841660277
 30
0.0
 11
80.98705377643261
 21
386.7827841660279
 31
0.0
  0
LINE
  5
1657
330
1E
100
AcDbEntity
  8
STEMPEL
100
AcDbLine
 10
58.48705377643262
 20
410.7827841660277
 30
0.0
 11
58.48705377643262
 21
391.7827841660279
 31
0.0
  0
LINE
  5
1658
330
1E
100
AcDbEntity
  8
STEMPEL
100
AcDbLine
 10
116.487053776433
 20
497.2827841660277
 30
0.0
 11
116.487053776433
 21
482.2237556740947
 31
0.0
  0
LINE
  5
1659
330
1E
100
AcDbEntity
  8
MITTEL
100
AcDbLine
 10
200.9870537764328
 20
558.7827841660277
 30
0.0
 11
200.9870537764326
 21
383.7827841660277
 31
0.0
  0
DIMENSION
  5
165B
330
1E
100
AcDbEntity
  8
BEM
100
AcDbDimension
  2
*D7
 10
280.4870537764328
 20
566.0929255474997
 30
0.0
 11
200.987053776433
 21
572.5929255474997
 31
0.0
 70
    32
  1
%%c<>
 71
     5
 42
158.9999999999998
  3
Standard
100
AcDbAlignedDimension
 13
121.487053776433
 23
466.2550362514234
 33
0.0
 14
280.4870537764328
 24
466.2550362514234
 34
0.0
100
AcDbRotatedDimension
1001
ACAD
1000
DSTYLE
1002
{
1070
    40
1040
2.0
1070
    41
1040
3.5
1070
    42
1040
1.0
1070
    43
1040
7.0
1070
    44
1040
1.0
1070
    73
1070
     0
1070
    74
1070
     0
1070
    77
1070
     1
1070
    78
1070
     8
1070
    79
1070
     2
1070
   140
1040
3.5
1070
   141
1040
1.5
1070
   146
1040
0.5142857142857144
1070
   147
1040
1.5
1070
   172
1070
     1
1070
   178
1070
     1
1070
   179
1070
     2
1070
   271
1070
     2
1070
   272
1070
     2
1070
   284
1070
     8
1070
   285
1070
     8
1070
   286
1070
     8
1002
}
  0
DIMENSION
  5
165C
330
1E
100
AcDbEntity
  8
BEM
100
AcDbDimension
  2
*D8
 10
343.4870537764325
 20
353.0298575759037
 30
0.0
 11
200.9870537764326
 21
359.5298575759037
 31
0.0
 70
    32
  1
%%C<>
 71
     5
 42
284.9999999999999
  3
Standard
100
AcDbAlignedDimension
 13
58.48705377643262
 23
391.7827841660279
 33
0.0
 14
343.4870537764325
 24
391.7827841660277
 34
0.0
100
AcDbRotatedDimension
1001
ACAD
1000
DSTYLE
1002
{
1070
    40
1040
2.0
1070
    41
1040
3.5
1070
    42
1040
1.0
1070
    43
1040
7.0
1070
    44
1040
1.0
1070
    73
1070
     0
1070
    74
1070
     0
1070
    77
1070
     1
1070
    78
1070
     8
1070
    79
1070
     2
1070
   140
1040
3.5
1070
   141
1040
1.5
1070
   146
1040
0.5142857142857144
1070
   147
1040
1.5
1070
   172
1070
     1
1070
   178
1070
     1
1070
   179
1070
     2
1070
   271
1070
     2
1070
   272
1070
     2
1070
   284
1070
     8
1070
   285
1070
     8
1070
   286
1070
     8
1002
}
  0
LINE
  5
165F
330
1E
100
AcDbEntity
  8
STEMPEL
100
AcDbLine
 10
116.8370537764326
 20
443.7827841660277
 30
0.0
 11
280.6370537764327
 21
443.7827841660277
 31
0.0
  0
LINE
  5
1660
330
1E
100
AcDbEntity
  8
STEMPEL
100
AcDbLine
 10
114.2286089790267
 20
553.7827841660276
 30
0.0
 11
284.8973269403052
 21
553.7827841660276
 31
0.0
  0
LINE
  5
1661
102
{ACAD_REACTORS
330
1965
102
}
330
1E
100
AcDbEntity
  8
STEMPEL
100
AcDbLine
 10
94.98705377643261
 20
388.7827841660278
 30
0.0
 11
306.9870537764325
 21
388.7827841660278
 31
0.0
  0
POINT
  5
1666
330
1E
100
AcDbEntity
  8
DEFPOINTS
  6
ByBlock
 62
     0
100
AcDbPoint
 10
325.2627259113546
 20
328.9469243917636
 30
0.0
  0
ARC
  5
1667
330
1E
100
AcDbEntity
  8
STEMPEL
100
AcDbCircle
 10
325.2627259113546
 20
328.9469243917636
 30
0.0
 40
11.0
100
AcDbArc
 50
180.0
 51
0.0
  0
CIRCLE
  5
1668
330
1E
100
AcDbEntity
  8
STEMPEL
100
AcDbCircle
 10
290.1155396537403
 20
244.0941106493779
 30
0.0
 40
11.0
  0
LINE
  5
1669
330
1E
100
AcDbEntity
  8
MITTEL
100
AcDbLine
 10
280.9231514983152
 20
253.286498804803
 30
0.0
 11
299.3079278091654
 21
234.9017224939528
 31
0.0
  0
POINT
  5
166A
330
1E
100
AcDbEntity
  8
DEFPOINTS
  6
ByBlock
 62
     0
100
AcDbPoint
 10
85.26272591135455
 20
328.9469243917636
 30
0.0
  0
ARC
  5
166B
330
1E
100
AcDbEntity
  8
STEMPEL
100
AcDbCircle
 10
85.26272591135455
 20
328.9469243917636
 30
0.0
 40
11.0
100
AcDbArc
 50
180.0
 51
0.0
  0
CIRCLE
  5
166C
330
1E
100
AcDbEntity
  8
STEMPEL
100
AcDbCircle
 10
205.2627259113545
 20
208.9469243917636
 30
0.0
 40
11.0
  0
CIRCLE
  5
166D
330
1E
100
AcDbEntity
  8
STEMPEL
100
AcDbCircle
 10
120.4099121689688
 20
244.094110649378
 30
0.0
 40
11.0
  0
LINE
  5
166E
330
1E
100
AcDbEntity
  8
MITTEL
100
AcDbLine
 10
129.6023003243939
 20
253.286498804803
 30
0.0
 11
111.2175240135436
 21
234.9017224939528
 31
0.0
  0
LINE
  5
166F
330
1E
100
AcDbEntity
  8
MITTEL
100
AcDbLine
 10
205.2627259113545
 20
328.9469243917636
 30
0.0
 11
205.2627259113545
 21
181.4469243917636
 31
0.0
  0
ARC
  5
1670
330
1E
100
AcDbEntity
  8
STEMPEL
100
AcDbCircle
 10
205.2627259113545
 20
328.9469243917636
 30
0.0
 40
142.5
100
AcDbArc
 50
180.0
 51
0.0
  0
ARC
  5
1671
330
1E
100
AcDbEntity
  8
MITTEL
100
AcDbCircle
 10
205.2627259113545
 20
328.9469243917636
 30
0.0
 40
120.0
100
AcDbArc
 50
180.0
 51
0.0
  0
ARC
  5
1672
330
1E
100
AcDbEntity
  8
HILF
100
AcDbCircle
 10
205.2627259113545
 20
328.9469243917636
 30
0.0
 40
92.0
100
AcDbArc
 50
180.0
 51
0.0
  0
ARC
  5
1673
330
1E
100
AcDbEntity
  8
STEMPEL
100
AcDbCircle
 10
205.2627259113545
 20
328.9469243917636
 30
0.0
 40
90.5
100
AcDbArc
 50
180.0
 51
0.0
  0
ARC
  5
1674
330
1E
100
AcDbEntity
  8
STEMPEL
100
AcDbCircle
 10
205.2627259113545
 20
328.9469243917636
 30
0.0
 40
86.5
100
AcDbArc
 50
180.0
 51
0.0
  0
ARC
  5
1675
330
1E
100
AcDbEntity
  8
STEMPEL
100
AcDbCircle
 10
205.2627259113545
 20
328.9469243917636
 30
0.0
 40
84.0
100
AcDbArc
 50
180.0
 51
0.0
  0
ARC
  5
1676
330
1E
100
AcDbEntity
  8
STEMPEL
100
AcDbCircle
 10
205.2627259113545
 20
328.9469243917636
 30
0.0
 40
77.0
100
AcDbArc
 50
180.0
 51
0.0
  0
LINE
  5
1677
330
1E
100
AcDbEntity
  8
MITTEL
100
AcDbLine
 10
57.76272591135455
 20
328.9469243917636
 30
0.0
 11
352.7627259113546
 21
328.9469243917636
 31
0.0
  0
LINE
  5
18C6
330
1E
100
AcDbEntity
  8
HILF
100
AcDbLine
 10
118.5347531173088
 20
501.5652777314463
 30
0.0
 11
280.889260767775
 21
501.5652777314463
 31
0.0
  0
LINE
  5
18C7
330
1E
100
AcDbEntity
  8
HILF
100
AcDbLine
 10
119.9501549128024
 20
476.8452269320897
 30
0.0
 11
279.3222313657818
 21
476.8452269320898
 31
0.0
  0
LINE
  5
18C8
330
1E
100
AcDbEntity
  8
HILF
100
AcDbLine
 10
123.6246576821233
 20
469.2431077747595
 30
0.0
 11
275.7876854712495
 21
469.2431077747595
 31
0.0
  0
LINE
  5
18C9
330
1E
100
AcDbEntity
  8
HILF
100
AcDbLine
 10
123.8851885659677
 20
452.2066598814621
 30
0.0
 11
275.5718351639058
 21
452.2066598814622
 31
0.0
  0
DIMENSION
  5
18FD
330
1E
100
AcDbEntity
  8
BEM
100
AcDbDimension
  2
*D9
 10
320.9870537764327
 20
368.5564783428172
 30
0.0
 11
200.9870537764327
 21
375.0564783428172
 31
0.0
 70
    32
  1
%%c<>
 71
     5
 42
240.0000000000001
  3
Standard
100
AcDbAlignedDimension
 13
80.98705377643261
 23
386.7827841660279
 33
0.0
 14
320.9870537764327
 24
386.7827841660277
 34
0.0
100
AcDbRotatedDimension
1001
ACAD
1000
DSTYLE
1002
{
1070
    40
1040
2.0
1070
    41
1040
3.5
1070
    42
1040
1.0
1070
    43
1040
7.0
1070
    44
1040
1.0
1070
    73
1070
     0
1070
    74
1070
     0
1070
    77
1070
     1
1070
    78
1070
     8
1070
    79
1070
     2
1070
   140
1040
3.5
1070
   141
1040
1.5
1070
   146
1040
0.5142857142857144
1070
   147
1040
1.5
1070
   172
1070
     1
1070
   178
1070
     1
1070
   179
1070
     2
1070
   271
1070
     2
1070
   272
1070
     2
1070
   284
1070
     8
1070
   285
1070
     8
1070
   286
1070
     8
1002
}
  0
HATCH
  5
1965
330
1E
100
AcDbEntity
  8
SCHRAFF
100
AcDbHatch
 10
0.0
 20
0.0
 30
0.0
210
0.0
220
0.0
230
1.0
  2
_USER
 70
     0
 71
     1
 91
        2
 92
        7
 72
     1
 73
     1
 93
       10
 10
306.9870537764325
 20
388.7827841660277
 42
0.0
 10
309.9870537764328
 20
391.782784166028
 42
0.0
 10
309.9870537764327
 20
410.7827841660277
 42
0.0
 10
299.9247889982628
 20
410.7827841660277
 42
-0.3129199850981741
 10
290.5578362000353
 20
417.2813280009759
 42
0.0
 10
285.1370537764326
 20
431.7827841660276
 42
0.0
 10
285.1370537764326
 20
443.7827841660276
 42
0.0
 10
283.2706427754272
 20
443.7827841660277
 42
0.0
 10
280.6370537764327
 20
443.7827841660277
 42
0.0
 10
280.6370537764325
 20
388.7827841660277
 42
0.0
 97
       10
330
160E
330
1615
330
1614
330
1613
330
1611
330
1610
330
1626
330
1661
330
161A
330
1627
 92
        7
 72
     0
 73
     1
 93
        4
 10
331.9870537764327
 20
391.7827841660277
 10
343.4870537764325
 20
391.7827841660277
 10
343.4870537764326
 20
410.7827841660276
 10
331.9870537764327
 20
410.7827841660276
 97
        4
330
160E
330
1624
330
161B
330
1625
 75
     0
 76
     0
 52
45.0
 41
5.0
 77
     0
 78
     1
 53
45.0
 43
0.0
 44
0.0
 45
-3.535533905932737
 46
3.535533905932737
 79
     0
 47
0.8059667733868158
 98
        2
 10
288.2053093058362
 20
396.1339212114481
 10
336.5797234565953
 20
398.5518215614361
  0
HATCH
  5
19A8
330
1E
100
AcDbEntity
  8
SCHRAFF
100
AcDbHatch
 10
0.0
 20
0.0
 30
0.0
210
0.0
220
0.0
230
1.0
  2
_USER
 70
     0
 71
     1
 91
        1
 92
        7
 72
     1
 73
     1
 93
       23
 10
291.4870537764329
 20
537.9996799480941
 42
0.1095178116832383
 10
288.2078263227157
 20
552.7913191090182
 42
0.0
 10
287.7454985738393
 20
553.7827841660276
 42
0.0
 10
284.8973269403052
 20
553.7827841660276
 42
-0.1274555838740773
 10
288.9870537764328
 20
537.9996799480941
 42
0.0
 10
288.9870537764328
 20
521.8332942443526
 42
-0.1211241773289435
 10
285.3078247537523
 20
506.7572568236973
 42
0.1206909349745487
 10
282.9870537764328
 20
497.2827841660277
 42
0.0
 10
282.9870537764328
 20
482.2237556740947
 42
-0.1528962216020417
 10
280.2191966335756
 20
473.3839288508301
 42
0.1528962216020375
 10
277.9870537764328
 20
466.2550362514233
 42
0.0
 10
277.9870537764328
 20
453.7992218866998
 42
0.0801394989388953
 10
278.621117211566
 20
449.8686303995878
 42
0.0
 10
280.6370537764328
 20
443.7827841660276
 42
0.0
 10
283.2706427754272
 20
443.7827841660277
 42
0.0
 10
280.9943045245394
 20
450.6547486970102
 42
-0.0801394989388931
 10
280.4870537764328
 20
453.7992218866998
 42
0.0
 10
280.4870537764328
 20
466.2550362514234
 42
-0.1528962216020417
 10
282.2727680621472
 20
471.9581503309489
 42
0.152896221602038
 10
285.4870537764329
 20
482.2237556740947
 42
0.0
 10
285.4870537764329
 20
497.2827841660277
 42
-0.1206909349745813
 10
287.5248039028607
 20
505.6018333288617
 42
0.1202734944246499
 10
291.4870537764329
 20
521.720178636849
 42
0.0
 97
       23
330
1604
330
15FB
330
15FC
330
1603
330
15FD
330
1601
330
15FF
330
162B
330
160B
330
160A
330
1608
330
1618
330
160F
330
1610
330
1616
330
1607
330
1609
330
1606
330
160C
330
162C
330
1600
330
1602
330
15FE
 75
     0
 76
     0
 52
135.0
 41
2.0
 77
     0
 78
     1
 53
135.0
 43
0.0
 44
0.0
 45
-1.414213562373095
 46
-1.414213562373094
 79
     0
 47
0.1915300972178883
 98
        1
 10
291.0149091994749
 20
527.9483159640997
  0
DIMENSION
  5
19A9
330
1E
100
AcDbEntity
  8
BEM
100
AcDbDimension
  2
*D10
 10
357.007446526477
 20
410.7827841660277
 30
0.0
 11
350.5074465264769
 21
399.7827841660278
 31
0.0
 70
    32
 71
     5
 42
22.0
  3
Standard
100
AcDbAlignedDimension
 13
306.9870537764325
 23
388.7827841660278
 33
0.0
 14
343.4870537764326
 24
410.7827841660277
 34
0.0
 50
90.0
100
AcDbRotatedDimension
1001
ACAD
1000
DSTYLE
1002
{
1070
    40
1040
2.0
1070
    41
1040
3.5
1070
    42
1040
1.0
1070
    43
1040
7.0
1070
    44
1040
1.0
1070
    73
1070
     0
1070
    74
1070
     0
1070
    77
1070
     1
1070
    78
1070
     8
1070
    79
1070
     2
1070
   140
1040
3.5
1070
   141
1040
1.5
1070
   146
1040
0.5142857142857144
1070
   147
1040
1.5
1070
   172
1070
     1
1070
   178
1070
     1
1070
   179
1070
     2
1070
   271
1070
     2
1070
   272
1070
     2
1070
   284
1070
     8
1070
   285
1070
     8
1070
   286
1070
     8
1002
}
  0
ENDSEC
  0
SECTION
  2
OBJECTS
  0
DICTIONARY
  5
C
330
0
100
AcDbDictionary
281
     1
  3
ACAD_COLOR
350
DF
  3
ACAD_GROUP
350
D
  3
ACAD_LAYOUT
350
19
  3
ACAD_MATERIAL
350
DE
  3
ACAD_MLINESTYLE
350
16
  3
ACAD_PLOTSETTINGS
350
18
  3
ACAD_PLOTSTYLENAME
350
E
  3
AcDbVariableDictionary
350
EA
  0
DICTIONARY
  5
A0
330
1E
100
AcDbDictionary
280
     1
281
     1
  3
ACAD_LAYOUTSELFREF
360
D4
  0
DICTIONARY
  5
A2
330
1A
100
AcDbDictionary
280
     1
281
     1
  3
ACAD_LAYOUTSELFREF
360
D3
  0
DICTIONARY
  5
DF
102
{ACAD_REACTORS
330
C
102
}
330
C
100
AcDbDictionary
281
     1
  0
DICTIONARY
  5
D
102
{ACAD_REACTORS
330
C
102
}
330
C
100
AcDbDictionary
281
     1
  0
DICTIONARY
  5
19
102
{ACAD_REACTORS
330
C
102
}
330
C
100
AcDbDictionary
281
     1
  3
Layout1
350
1D
  3
Model
350
21
  0
DICTIONARY
  5
DE
102
{ACAD_REACTORS
330
C
102
}
330
C
100
AcDbDictionary
281
     1
  0
DICTIONARY
  5
16
102
{ACAD_REACTORS
330
C
102
}
330
C
100
AcDbDictionary
281
     1
  3
Standard
350
17
  0
DICTIONARY
  5
18
102
{ACAD_REACTORS
330
C
102
}
330
C
100
AcDbDictionary
281
     1
  0
ACDBDICTIONARYWDFLT
  5
E
102
{ACAD_REACTORS
330
C
102
}
330
C
100
AcDbDictionary
281
     1
  3
Normal
350
F
100
AcDbDictionaryWithDefault
340
F
  0
DICTIONARY
  5
EA
102
{ACAD_REACTORS
330
C
102
}
330
C
100
AcDbDictionary
281
     1
  3
DIMASSOC
350
EB
  3
PROJECTNAME
350
EC
  0
XRECORD
  5
D4
102
{ACAD_REACTORS
330
A0
102
}
330
A0
100
AcDbXrecord
280
     1
340
1E
  0
XRECORD
  5
D3
102
{ACAD_REACTORS
330
A2
102
}
330
A2
100
AcDbXrecord
280
     1
340
1A
  0
LAYOUT
  5
1D
102
{ACAD_REACTORS
330
19
102
}
330
19
100
AcDbPlotSettings
  1

  2
\\NT_WORK01\HP LaserJet 5000 PCL 6
  4

  6

 40
0.0
 41
0.0
 42
0.0
 43
0.0
 44
0.0
 45
0.0
 46
0.0
 47
0.0
 48
0.0
 49
0.0
140
0.0
141
0.0
142
1.0
143
1.0
 70
   688
 72
     0
 73
     0
 74
     5
  7

 75
    16
147
1.0
 76
     0
 77
     2
 78
   300
148
0.0
149
0.0
100
AcDbLayout
  1
Layout1
 70
     0
 71
     1
 10
0.0
 20
0.0
 11
12.0
 21
9.0
 12
0.0
 22
0.0
 32
0.0
 14
1.000000000000000E+20
 24
1.000000000000000E+20
 34
1.000000000000000E+20
 15
-1.000000000000000E+20
 25
-1.000000000000000E+20
 35
-1.000000000000000E+20
146
0.0
 13
0.0
 23
0.0
 33
0.0
 16
1.0
 26
0.0
 36
0.0
 17
0.0
 27
1.0
 37
0.0
 76
     0
330
1A
  0
LAYOUT
  5
21
102
{ACAD_REACTORS
330
19
102
}
330
19
100
AcDbPlotSettings
  1

  2
none_device
  4
Letter_(8.50_x_11.00_Inches)
  6

 40
6.349999904632568
 41
6.349999904632568
 42
6.350006103515625
 43
6.350006103515625
 44
215.8999938964844
 45
279.3999938964844
 46
0.0
 47
0.0
 48
0.0
 49
0.0
140
0.0
141
0.0
142
1.0
143
1.0
 70
 11952
 72
     0
 73
     1
 74
     0
  7

 75
     0
147
1.0
 76
     0
 77
     2
 78
   300
148
2303.722239131047
149
93.92220825860901
100
AcDbLayout
  1
Model
 70
     1
 71
     0
 10
0.0
 20
0.0
 11
12.0
 21
9.0
 12
0.0
 22
0.0
 32
0.0
 14
0.0
 24
0.0
 34
0.0
 15
0.0
 25
0.0
 35
0.0
146
0.0
 13
0.0
 23
0.0
 33
0.0
 16
1.0
 26
0.0
 36
0.0
 17
0.0
 27
1.0
 37
0.0
 76
     0
330
1E
  0
MLINESTYLE
  5
17
102
{ACAD_REACTORS
330
16
102
}
330
16
100
AcDbMlineStyle
  2
STANDARD
 70
     0
  3

 62
   256
 51
90.0
 52
90.0
 71
     2
 49
0.5
 62
   256
  6
BYLAYER
 49
-0.5
 62
   256
  6
BYLAYER
  0
ACDBPLACEHOLDER
  5
F
102
{ACAD_REACTORS
330
E
102
}
330
E
  0
DICTIONARYVAR
  5
EB
102
{ACAD_REACTORS
330
EA
102
}
330
EA
100
DictionaryVariables
280
     0
  1
1
  0
DICTIONARYVAR
  5
EC
102
{ACAD_REACTORS
330
EA
102
}
330
EA
100
DictionaryVariables
280
     0
  1

  0
ENDSEC
  0
EOF
