  0
SECTION
  2
HEADER
  9
$ACADVER
  1
AC1018
  9
$ACADMAINTVER
 70
     2
  9
$DWGCODEPAGE
  3
ANSI_1252
  9
$INSBASE
 10
0.0
 20
0.0
 30
0.0
  9
$EXTMIN
 10
-0.0197349735720991
 20
-0.0453012447965193
 30
-0.0000000000000129
  9
$EXTMAX
 10
420.0036597528344
 20
594.0362620742282
 30
0.0000000000000023
  9
$LIMMIN
 10
0.0
 20
0.0
  9
$LIMMAX
 10
419.9999999999999
 20
594.0000000000002
  9
$ORTHOMODE
 70
     1
  9
$REGENMODE
 70
     1
  9
$FILLMODE
 70
     1
  9
$QTEXTMODE
 70
     0
  9
$MIRRTEXT
 70
     1
  9
$LTSCALE
 40
20.0
  9
$ATTMODE
 70
     1
  9
$TEXTSIZE
 40
3.5
  9
$TRACEWID
 40
0.5
  9
$TEXTSTYLE
  7
STANDARD
  9
$CLAYER
  8
VOLL
  9
$CELTYPE
  6
ByLayer
  9
$CECOLOR
 62
   256
  9
$CELTSCALE
 40
1.0
  9
$DISPSILH
 70
     0
  9
$DIMSCALE
 40
2.0
  9
$DIMASZ
 40
3.5
  9
$DIMEXO
 40
1.0
  9
$DIMDLI
 40
7.0
  9
$DIMRND
 40
0.0
  9
$DIMDLE
 40
0.0
  9
$DIMEXE
 40
1.0
  9
$DIMTP
 40
0.15
  9
$DIMTM
 40
0.15
  9
$DIMTXT
 40
3.5
  9
$DIMCEN
 40
1.5
  9
$DIMTSZ
 40
0.0
  9
$DIMTOL
 70
     0
  9
$DIMLIM
 70
     0
  9
$DIMTIH
 70
     0
  9
$DIMTOH
 70
     0
  9
$DIMSE1
 70
     0
  9
$DIMSE2
 70
     0
  9
$DIMTAD
 70
     1
  9
$DIMZIN
 70
     8
  9
$DIMBLK
  1

  9
$DIMASO
 70
     1
  9
$DIMSHO
 70
     0
  9
$DIMPOST
  1

  9
$DIMAPOST
  1

  9
$DIMALT
 70
     0
  9
$DIMALTD
 70
     2
  9
$DIMALTF
 40
25.4
  9
$DIMLFAC
 40
1.0
  9
$DIMTOFL
 70
     1
  9
$DIMTVP
 40
0.0
  9
$DIMTIX
 70
     0
  9
$DIMSOXD
 70
     0
  9
$DIMSAH
 70
     0
  9
$DIMBLK1
  1

  9
$DIMBLK2
  1

  9
$DIMSTYLE
  2
Standard
  9
$DIMCLRD
 70
     0
  9
$DIMCLRE
 70
     0
  9
$DIMCLRT
 70
     1
  9
$DIMTFAC
 40
0.5142857142857144
  9
$DIMGAP
 40
1.5
  9
$DIMJUST
 70
     0
  9
$DIMSD1
 70
     0
  9
$DIMSD2
 70
     0
  9
$DIMTOLJ
 70
     1
  9
$DIMTZIN
 70
     8
  9
$DIMALTZ
 70
     8
  9
$DIMALTTZ
 70
     8
  9
$DIMUPT
 70
     0
  9
$DIMDEC
 70
     2
  9
$DIMTDEC
 70
     2
  9
$DIMALTU
 70
     2
  9
$DIMALTTD
 70
     2
  9
$DIMTXSTY
  7
STANDARD
  9
$DIMAUNIT
 70
     0
  9
$DIMADEC
 70
     2
  9
$DIMALTRND
 40
0.0
  9
$DIMAZIN
 70
     2
  9
$DIMDSEP
 70
    46
  9
$DIMATFIT
 70
     3
  9
$DIMFRAC
 70
     0
  9
$DIMLDRBLK
  1

  9
$DIMLUNIT
 70
     2
  9
$DIMLWD
 70
    -2
  9
$DIMLWE
 70
    -2
  9
$DIMTMOVE
 70
     0
  9
$LUNITS
 70
     2
  9
$LUPREC
 70
     2
  9
$SKETCHINC
 40
1.0
  9
$FILLETRAD
 40
0.0
  9
$AUNITS
 70
     0
  9
$AUPREC
 70
     0
  9
$MENU
  1
ACAD
  9
$ELEVATION
 40
0.0
  9
$PELEVATION
 40
0.0
  9
$THICKNESS
 40
0.0
  9
$LIMCHECK
 70
     0
  9
$CHAMFERA
 40
0.0
  9
$CHAMFERB
 40
0.0
  9
$CHAMFERC
 40
0.0
  9
$CHAMFERD
 40
0.0
  9
$SKPOLY
 70
     0
  9
$TDCREATE
 40
2455573.065619792
  9
$TDUCREATE
 40
2455573.023953125
  9
$TDUPDATE
 40
2455532.597000926
  9
$TDUUPDATE
 40
2455532.555334260
  9
$TDINDWG
 40
0.1583160417
  9
$TDUSRTIMER
 40
0.1583160417
  9
$USRTIMER
 70
     1
  9
$ANGBASE
 50
0.0
  9
$ANGDIR
 70
     0
  9
$PDMODE
 70
     0
  9
$PDSIZE
 40
0.0
  9
$PLINEWID
 40
0.0
  9
$SPLFRAME
 70
     0
  9
$SPLINETYPE
 70
     6
  9
$SPLINESEGS
 70
     8
  9
$HANDSEED
  5
FC6
  9
$SURFTAB1
 70
     6
  9
$SURFTAB2
 70
     6
  9
$SURFTYPE
 70
     6
  9
$SURFU
 70
     6
  9
$SURFV
 70
     6
  9
$UCSBASE
  2

  9
$UCSNAME
  2

  9
$UCSORG
 10
0.0
 20
0.0
 30
0.0
  9
$UCSXDIR
 10
1.0
 20
0.0
 30
0.0
  9
$UCSYDIR
 10
0.0
 20
1.0
 30
0.0
  9
$UCSORTHOREF
  2

  9
$UCSORTHOVIEW
 70
     0
  9
$UCSORGTOP
 10
0.0
 20
0.0
 30
0.0
  9
$UCSORGBOTTOM
 10
0.0
 20
0.0
 30
0.0
  9
$UCSORGLEFT
 10
0.0
 20
0.0
 30
0.0
  9
$UCSORGRIGHT
 10
0.0
 20
0.0
 30
0.0
  9
$UCSORGFRONT
 10
0.0
 20
0.0
 30
0.0
  9
$UCSORGBACK
 10
0.0
 20
0.0
 30
0.0
  9
$PUCSBASE
  2

  9
$PUCSNAME
  2

  9
$PUCSORG
 10
0.0
 20
0.0
 30
0.0
  9
$PUCSXDIR
 10
1.0
 20
0.0
 30
0.0
  9
$PUCSYDIR
 10
0.0
 20
1.0
 30
0.0
  9
$PUCSORTHOREF
  2

  9
$PUCSORTHOVIEW
 70
     0
  9
$PUCSORGTOP
 10
0.0
 20
0.0
 30
0.0
  9
$PUCSORGBOTTOM
 10
0.0
 20
0.0
 30
0.0
  9
$PUCSORGLEFT
 10
0.0
 20
0.0
 30
0.0
  9
$PUCSORGRIGHT
 10
0.0
 20
0.0
 30
0.0
  9
$PUCSORGFRONT
 10
0.0
 20
0.0
 30
0.0
  9
$PUCSORGBACK
 10
0.0
 20
0.0
 30
0.0
  9
$USERI1
 70
     0
  9
$USERI2
 70
     0
  9
$USERI3
 70
     0
  9
$USERI4
 70
     0
  9
$USERI5
 70
     0
  9
$USERR1
 40
0.0
  9
$USERR2
 40
0.0
  9
$USERR3
 40
0.0
  9
$USERR4
 40
0.0
  9
$USERR5
 40
0.0
  9
$WORLDVIEW
 70
     1
  9
$SHADEDGE
 70
     3
  9
$SHADEDIF
 70
    70
  9
$TILEMODE
 70
     1
  9
$MAXACTVP
 70
    16
  9
$PINSBASE
 10
0.0
 20
0.0
 30
0.0
  9
$PLIMCHECK
 70
     0
  9
$PEXTMIN
 10
1.000000000000000E+20
 20
1.000000000000000E+20
 30
1.000000000000000E+20
  9
$PEXTMAX
 10
-1.000000000000000E+20
 20
-1.000000000000000E+20
 30
-1.000000000000000E+20
  9
$PLIMMIN
 10
0.0
 20
0.0
  9
$PLIMMAX
 10
12.0
 20
9.0
  9
$UNITMODE
 70
     0
  9
$VISRETAIN
 70
     0
  9
$PLINEGEN
 70
     0
  9
$PSLTSCALE
 70
     0
  9
$TREEDEPTH
 70
  3020
  9
$CMLSTYLE
  2
Standard
  9
$CMLJUST
 70
     0
  9
$CMLSCALE
 40
1.0
  9
$PROXYGRAPHICS
 70
     1
  9
$MEASUREMENT
 70
     0
  9
$CELWEIGHT
370
    -1
  9
$ENDCAPS
280
     0
  9
$JOINSTYLE
280
     0
  9
$LWDISPLAY
290
     0
  9
$INSUNITS
 70
     0
  9
$HYPERLINKBASE
  1

  9
$STYLESHEET
  1
monochrome 1.ctb
  9
$XEDIT
290
     1
  9
$CEPSNTYPE
380
     0
  9
$PSTYLEMODE
290
     1
  9
$FINGERPRINTGUID
  2
{CF47490D-A8B5-11D8-B772-000102183313}
  9
$VERSIONGUID
  2
{98662B52-E466-4A4E-8D19-D1997D09C0EE}
  9
$EXTNAMES
290
     1
  9
$PSVPSCALE
 40
0.0
  9
$OLESTARTUP
290
     0
  9
$SORTENTS
280
    96
  9
$INDEXCTL
280
     0
  9
$HIDETEXT
280
     0
  9
$XCLIPFRAME
290
     0
  9
$HALOGAP
280
     0
  9
$OBSCOLOR
 70
   257
  9
$OBSLTYPE
280
     0
  9
$INTERSECTIONDISPLAY
280
     0
  9
$INTERSECTIONCOLOR
 70
   257
  9
$DIMASSOC
280
     1
  9
$PROJECTNAME
  1

  0
ENDSEC
  0
SECTION
  2
CLASSES
  0
CLASS
  1
ACDBDICTIONARYWDFLT
  2
AcDbDictionaryWithDefault
  3
ObjectDBX Classes
 90
        0
 91
        1
280
     0
281
     0
  0
CLASS
  1
DICTIONARYVAR
  2
AcDbDictionaryVar
  3
ObjectDBX Classes
 90
        0
 91
        3
280
     0
281
     0
  0
ENDSEC
  0
SECTION
  2
TABLES
  0
TABLE
  2
VPORT
  5
8
330
0
100
AcDbSymbolTable
 70
     2
  0
VPORT
  5
FC5
330
8
100
AcDbSymbolTableRecord
100
AcDbViewportTableRecord
  2
*Active
 70
     0
 10
0.0
 20
0.0
 11
1.0
 21
1.0
 12
209.9919623896312
 22
296.9954804147159
 13
0.0
 23
0.0
 14
1.0
 24
1.0
 15
10.0
 25
10.0
 16
0.0
 26
0.0
 36
1.0
 17
0.0
 27
0.0
 37
0.0
 40
598.8789918249658
 41
1.336927223719676
 42
50.0
 43
0.0
 44
0.0
 50
0.0
 51
0.0
 71
     0
 72
  1500
 73
     1
 74
     0
 75
     0
 76
     0
 77
     0
 78
     0
281
     0
 65
     1
110
0.0
120
0.0
130
0.0
111
1.0
121
0.0
131
0.0
112
0.0
122
1.0
132
0.0
 79
     0
146
0.0
  0
ENDTAB
  0
TABLE
  2
LTYPE
  5
5
330
0
100
AcDbSymbolTable
 70
     2
  0
LTYPE
  5
13
330
5
100
AcDbSymbolTableRecord
100
AcDbLinetypeTableRecord
  2
ByBlock
 70
     0
  3

 72
    65
 73
     0
 40
0.0
  0
LTYPE
  5
14
330
5
100
AcDbSymbolTableRecord
100
AcDbLinetypeTableRecord
  2
ByLayer
 70
     0
  3

 72
    65
 73
     0
 40
0.0
  0
LTYPE
  5
15
330
5
100
AcDbSymbolTableRecord
100
AcDbLinetypeTableRecord
  2
Continuous
 70
     0
  3
Solid line
 72
    65
 73
     0
 40
0.0
  0
LTYPE
  5
32
330
5
100
AcDbSymbolTableRecord
100
AcDbLinetypeTableRecord
  2
STRICHPUNKT
 70
     0
  3
__ . __ . __ . __ . __ . __ . __ . __ . __ . __
 72
    65
 73
     4
 40
1.0
 49
0.5
 74
     0
 49
-0.25
 74
     0
 49
0.0
 74
     0
 49
-0.25
 74
     0
  0
ENDTAB
  0
TABLE
  2
LAYER
  5
2
330
0
100
AcDbSymbolTable
 70
     9
  0
LAYER
  5
10
330
2
100
AcDbSymbolTableRecord
100
AcDbLayerTableRecord
  2
0
 70
     0
 62
     7
  6
Continuous
370
    -3
390
F
  0
LAYER
  5
35
330
2
100
AcDbSymbolTableRecord
100
AcDbLayerTableRecord
  2
VOLL
 70
     0
 62
     1
  6
Continuous
370
    -3
390
F
  0
LAYER
  5
36
330
2
100
AcDbSymbolTableRecord
100
AcDbLayerTableRecord
  2
HILF
 70
     0
 62
     2
  6
Continuous
370
    -3
390
F
  0
LAYER
  5
37
330
2
100
AcDbSymbolTableRecord
100
AcDbLayerTableRecord
  2
MITTEL
 70
     0
 62
     2
  6
STRICHPUNKT
370
    -3
390
F
  0
LAYER
  5
38
330
2
100
AcDbSymbolTableRecord
100
AcDbLayerTableRecord
  2
BEM
 70
     0
 62
     7
  6
Continuous
370
    -3
390
F
  0
LAYER
  5
39
330
2
100
AcDbSymbolTableRecord
100
AcDbLayerTableRecord
  2
DEFPOINTS
 70
     0
 62
     7
  6
Continuous
290
     0
370
    -3
390
F
  0
LAYER
  5
3A
330
2
100
AcDbSymbolTableRecord
100
AcDbLayerTableRecord
  2
STEMPEL
 70
     0
 62
     3
  6
Continuous
370
    -3
390
F
  0
LAYER
  5
3B
330
2
100
AcDbSymbolTableRecord
100
AcDbLayerTableRecord
  2
TEXT
 70
     0
 62
     7
  6
Continuous
370
    -3
390
F
  0
LAYER
  5
3C
330
2
100
AcDbSymbolTableRecord
100
AcDbLayerTableRecord
  2
SCHRAFF
 70
     0
 62
     7
  6
Continuous
370
    -3
390
F
  0
ENDTAB
  0
TABLE
  2
STYLE
  5
3
330
0
100
AcDbSymbolTable
 70
     2
  0
STYLE
  5
11
330
3
100
AcDbSymbolTableRecord
100
AcDbTextStyleTableRecord
  2
STANDARD
 70
     0
 40
0.0
 41
0.8
 50
0.0
 71
     0
 42
3.5
  3
simplex.shx
  4

  0
STYLE
  5
31
330
3
100
AcDbSymbolTableRecord
100
AcDbTextStyleTableRecord
  2
GREEKS
 70
     0
 40
0.0
 41
0.8
 50
0.0
 71
     0
 42
2.5
  3
SIMPLEX.shx
  4

  0
ENDTAB
  0
TABLE
  2
VIEW
  5
6
330
0
100
AcDbSymbolTable
 70
     0
  0
ENDTAB
  0
TABLE
  2
UCS
  5
7
330
0
100
AcDbSymbolTable
 70
     0
  0
ENDTAB
  0
TABLE
  2
APPID
  5
9
330
0
100
AcDbSymbolTable
 70
     1
  0
APPID
  5
12
330
9
100
AcDbSymbolTableRecord
100
AcDbRegAppTableRecord
  2
ACAD
 70
     0
  0
ENDTAB
  0
TABLE
  2
DIMSTYLE
  5
A
330
0
100
AcDbSymbolTable
 70
     1
100
AcDbDimStyleTable
 71
     1
340
26B
  0
DIMSTYLE
105
26B
102
{ACAD_REACTORS
330
CA9
330
CAA
330
CAB
330
CBC
330
F5D
102
}
330
A
100
AcDbSymbolTableRecord
100
AcDbDimStyleTableRecord
  2
Standard
 70
     0
340
11
  0
ENDTAB
  0
TABLE
  2
BLOCK_RECORD
  5
1
330
0
100
AcDbSymbolTable
 70
     8
  0
BLOCK_RECORD
  5
1E
330
1
100
AcDbSymbolTableRecord
100
AcDbBlockTableRecord
  2
*Model_Space
340
21
  0
BLOCK_RECORD
  5
1A
330
1
100
AcDbSymbolTableRecord
100
AcDbBlockTableRecord
  2
*Paper_Space
340
1D
  0
BLOCK_RECORD
  5
22
330
1
100
AcDbSymbolTableRecord
100
AcDbBlockTableRecord
  2
LOGO
340
0
102
{BLKREFS
331
1E2
102
}
  0
BLOCK_RECORD
  5
B12
330
1
100
AcDbSymbolTableRecord
100
AcDbBlockTableRecord
  2
*X1
340
0
102
{BLKREFS
331
CE8
102
}
  0
BLOCK_RECORD
  5
B50
330
1
100
AcDbSymbolTableRecord
100
AcDbBlockTableRecord
  2
*X2
340
0
102
{BLKREFS
331
CB1
102
}
  0
BLOCK_RECORD
  5
D46
330
1
100
AcDbSymbolTableRecord
100
AcDbBlockTableRecord
  2
*D3
340
0
  0
BLOCK_RECORD
  5
D52
330
1
100
AcDbSymbolTableRecord
100
AcDbBlockTableRecord
  2
*D4
340
0
  0
BLOCK_RECORD
  5
D5E
330
1
100
AcDbSymbolTableRecord
100
AcDbBlockTableRecord
  2
*D5
340
0
  0
BLOCK_RECORD
  5
D6A
330
1
100
AcDbSymbolTableRecord
100
AcDbBlockTableRecord
  2
*D6
340
0
  0
BLOCK_RECORD
  5
F5E
330
1
100
AcDbSymbolTableRecord
100
AcDbBlockTableRecord
  2
*D7
340
0
  0
ENDTAB
  0
ENDSEC
  0
SECTION
  2
BLOCKS
  0
BLOCK
  5
40
330
1E
100
AcDbEntity
  8
0
100
AcDbBlockBegin
  2
*Model_Space
 70
     0
 10
0.0
 20
0.0
 30
0.0
  3
*Model_Space
  1

  0
ENDBLK
  5
41
330
1E
100
AcDbEntity
  8
0
100
AcDbBlockEnd
  0
BLOCK
  5
3E
330
1A
100
AcDbEntity
 67
     1
  8
0
100
AcDbBlockBegin
  2
*Paper_Space
 70
     0
 10
0.0
 20
0.0
 30
0.0
  3
*Paper_Space
  1

  0
ENDBLK
  5
3F
330
1A
100
AcDbEntity
 67
     1
  8
0
100
AcDbBlockEnd
  0
BLOCK
  5
42
330
22
100
AcDbEntity
  8
0
100
AcDbBlockBegin
  2
LOGO
 70
     0
 10
0.0
 20
0.0
 30
0.0
  3
LOGO
  1

  0
ARC
  5
43
330
22
100
AcDbEntity
  8
0
100
AcDbCircle
 10
11.59973089678112
 20
-9.271599258481501
 30
0.0
 40
4.5
100
AcDbArc
 50
270.0
 51
231.0575587310159
  0
LINE
  5
44
330
22
100
AcDbEntity
  8
0
100
AcDbLine
 10
3.599730896781125
 20
-4.771599258481529
 30
0.0
 11
3.599730896781153
 21
-11.77159925848133
 31
0.0
  0
LINE
  5
45
330
22
100
AcDbEntity
  8
0
100
AcDbLine
 10
2.599730896781125
 20
-4.771599258481529
 30
0.0
 11
2.599730896781153
 21
-11.77159925848133
 31
0.0
  0
CIRCLE
  5
46
330
22
100
AcDbEntity
  8
0
100
AcDbCircle
 10
11.59973089678112
 20
-9.271599258481501
 30
0.0
 40
3.5
  0
ARC
  5
47
330
22
100
AcDbEntity
  8
0
100
AcDbCircle
 10
31.59973089678115
 20
-9.271599258481472
 30
0.0
 40
4.5
100
AcDbArc
 50
270.0
 51
231.0575587310182
  0
LINE
  5
48
330
22
100
AcDbEntity
  8
0
100
AcDbLine
 10
17.59973089678112
 20
-4.771599258481472
 30
0.0
 11
17.59973089678115
 21
-13.77159925848147
 31
0.0
  0
ARC
  5
49
330
22
100
AcDbEntity
  8
0
100
AcDbCircle
 10
22.59973089678116
 20
-7.271599258481472
 30
0.0
 40
2.5
100
AcDbArc
 50
293.1161887722295
 51
90.0
  0
CIRCLE
  5
4A
330
22
100
AcDbEntity
  8
0
100
AcDbCircle
 10
31.59973089678115
 20
-9.271599258481472
 30
0.0
 40
3.5
  0
ARC
  5
4B
330
22
100
AcDbEntity
  8
0
100
AcDbCircle
 10
4.599730896781153
 20
-11.77159925848133
 30
0.0
 40
1.0
100
AcDbArc
 50
180.0
 51
270.0
  0
ARC
  5
4C
330
22
100
AcDbEntity
  8
0
100
AcDbCircle
 10
4.599730896781153
 20
-11.77159925848133
 30
0.0
 40
2.0
100
AcDbArc
 50
179.9999999999992
 51
270.0
  0
LINE
  5
4D
330
22
100
AcDbEntity
  8
0
100
AcDbLine
 10
11.59973089678115
 20
-13.77159925848144
 30
0.0
 11
4.599730896781153
 21
-13.77159925848147
 31
0.0
  0
LINE
  5
4E
330
22
100
AcDbEntity
  8
0
100
AcDbLine
 10
8.771303772034769
 20
-12.77159925848136
 30
0.0
 11
4.599730896781153
 21
-12.77159925848133
 31
0.0
  0
LINE
  5
4F
330
22
100
AcDbEntity
  8
0
100
AcDbLine
 10
31.59973089678115
 20
-13.77159925848147
 30
0.0
 11
23.6715276665056
 21
-13.77159925848144
 31
0.0
  0
LINE
  5
50
330
22
100
AcDbEntity
  8
0
100
AcDbLine
 10
23.56565672307022
 20
-9.51278021337896
 30
0.0
 11
24.4388546544846
 21
-12.77159925848144
 31
0.0
  0
LINE
  5
51
330
22
100
AcDbEntity
  8
0
100
AcDbLine
 10
22.59973089678116
 20
-9.771599258481472
 30
0.0
 11
18.59973089678112
 21
-9.771599258481472
 31
0.0
  0
LINE
  5
52
330
22
100
AcDbEntity
  8
0
100
AcDbLine
 10
18.59973089678115
 20
-13.77159925848144
 30
0.0
 11
17.59973089678115
 21
-13.77159925848144
 31
0.0
  0
LINE
  5
53
330
22
100
AcDbEntity
  8
0
100
AcDbLine
 10
18.59973089678115
 20
-9.771599258481472
 30
0.0
 11
18.59973089678115
 21
-13.77159925848144
 31
0.0
  0
LINE
  5
54
330
22
100
AcDbEntity
  8
0
100
AcDbLine
 10
22.59973089678116
 20
-9.771599258481472
 30
0.0
 11
23.67152766650562
 21
-13.77159925848147
 31
0.0
  0
ARC
  5
55
330
22
100
AcDbEntity
  8
0
100
AcDbCircle
 10
22.59973089678116
 20
-7.271599258481472
 30
0.0
 40
2.5
100
AcDbArc
 50
270.0
 51
270.0000000000007
  0
LINE
  5
56
330
22
100
AcDbEntity
  8
0
100
AcDbLine
 10
28.77130377203494
 20
-12.77159925848147
 30
0.0
 11
24.43885465448463
 21
-12.77159925848144
 31
0.0
  0
LINE
  5
57
330
22
100
AcDbEntity
  8
0
100
AcDbLine
 10
3.599730896781125
 20
-4.771599258481472
 30
0.0
 11
2.599730896781125
 21
-4.771599258481472
 31
0.0
  0
LINE
  5
58
330
22
100
AcDbEntity
  8
0
100
AcDbLine
 10
22.59973089678116
 20
-8.771599258481472
 30
0.0
 11
18.59973089678115
 21
-8.771599258481472
 31
0.0
  0
LINE
  5
59
330
22
100
AcDbEntity
  8
0
100
AcDbLine
 10
22.59973089678116
 20
-5.771599258481472
 30
0.0
 11
18.59973089678115
 21
-5.771599258481472
 31
0.0
  0
LINE
  5
5A
330
22
100
AcDbEntity
  8
0
100
AcDbLine
 10
22.59973089678116
 20
-4.771599258481472
 30
0.0
 11
17.59973089678115
 21
-4.771599258481472
 31
0.0
  0
LINE
  5
5B
330
22
100
AcDbEntity
  8
0
100
AcDbLine
 10
18.59973089678115
 20
-5.771599258481472
 30
0.0
 11
18.59973089678115
 21
-8.771599258481472
 31
0.0
  0
ARC
  5
5C
330
22
100
AcDbEntity
  8
0
100
AcDbCircle
 10
22.59973089678116
 20
-7.271599258481472
 30
0.0
 40
1.5
100
AcDbArc
 50
270.0
 51
90.0
  0
ENDBLK
  5
5D
330
22
100
AcDbEntity
  8
0
100
AcDbBlockEnd
  0
BLOCK
  5
B13
330
B12
100
AcDbEntity
  8
0
100
AcDbBlockBegin
  2
*X1
 70
     1
 10
0.0
 20
0.0
 30
0.0
  3
*X1
  1

  0
LINE
  5
B14
330
B12
100
AcDbEntity
  8
0
 62
     0
100
AcDbLine
 10
172.0111041807042
 20
404.9880292675184
 30
0.0
 11
170.4111041807043
 21
406.5880292675184
 31
0.0
  0
LINE
  5
B15
330
B12
100
AcDbEntity
  8
0
 62
     0
100
AcDbLine
 10
172.0111041807042
 20
402.1596021427723
 30
0.0
 11
170.4111041807043
 21
403.7596021427722
 31
0.0
  0
LINE
  5
B16
330
B12
100
AcDbEntity
  8
0
 62
     0
100
AcDbLine
 10
172.0111041807042
 20
399.3311750180261
 30
0.0
 11
170.4111041807043
 21
400.931175018026
 31
0.0
  0
LINE
  5
B17
330
B12
100
AcDbEntity
  8
0
 62
     0
100
AcDbLine
 10
172.0111041807042
 20
396.5027478932799
 30
0.0
 11
170.4111041807043
 21
398.1027478932799
 31
0.0
  0
LINE
  5
B18
330
B12
100
AcDbEntity
  8
0
 62
     0
100
AcDbLine
 10
172.0111041807042
 20
393.6743207685337
 30
0.0
 11
170.4111041807043
 21
395.2743207685337
 31
0.0
  0
LINE
  5
B19
330
B12
100
AcDbEntity
  8
0
 62
     0
100
AcDbLine
 10
172.0111041807042
 20
390.8458936437875
 30
0.0
 11
170.4111041807043
 21
392.4458936437875
 31
0.0
  0
LINE
  5
B1A
330
B12
100
AcDbEntity
  8
0
 62
     0
100
AcDbLine
 10
172.0149016507116
 20
388.0136690490339
 30
0.0
 11
170.4111041807043
 21
389.6174665190413
 31
0.0
  0
LINE
  5
B1B
330
B12
100
AcDbEntity
  8
0
 62
     0
100
AcDbLine
 10
172.7463466678535
 20
384.4537969071459
 30
0.0
 11
170.5202491085193
 21
386.6798944664801
 31
0.0
  0
LINE
  5
B1C
330
B12
100
AcDbEntity
  8
0
 62
     0
100
AcDbLine
 10
174.933307444648
 20
379.4384090056052
 30
0.0
 11
171.9420066085159
 21
382.4297098417373
 31
0.0
  0
LINE
  5
B1D
330
B12
100
AcDbEntity
  8
0
 62
     0
100
AcDbLine
 10
175.1111041807043
 20
376.4321851448027
 30
0.0
 11
173.4987058105077
 21
378.0445835149993
 31
0.0
  0
LINE
  5
B1E
330
B12
100
AcDbEntity
  8
0
 62
     0
100
AcDbLine
 10
175.4013869212011
 20
373.3134752795597
 30
0.0
 11
173.5320269246447
 21
375.1828352761161
 31
0.0
  0
LINE
  5
B1F
330
B12
100
AcDbEntity
  8
0
 62
     0
100
AcDbLine
 10
178.4258924778432
 20
367.4605425981714
 30
0.0
 11
174.1886605433542
 21
371.6977745326605
 31
0.0
  0
LINE
  5
B20
330
B12
100
AcDbEntity
  8
0
 62
     0
100
AcDbLine
 10
179.1520440475269
 20
363.9059639037416
 30
0.0
 11
178.6504043268743
 21
364.4076036243942
 31
0.0
  0
LINE
  5
B21
330
B12
100
AcDbEntity
  8
0
 62
     0
100
AcDbLine
 10
172.0087511026114
 20
407.8188094703575
 30
0.0
 11
170.2394816059967
 21
409.5880789669721
 31
0.0
  0
LINE
  5
B22
330
B12
100
AcDbEntity
  8
0
 62
     0
100
AcDbLine
 10
171.5393986751462
 20
411.116589022569
 30
0.0
 11
168.7208359276603
 21
413.9351517700547
 31
0.0
  0
LINE
  5
B23
330
B12
100
AcDbEntity
  8
0
 62
     0
100
AcDbLine
 10
169.7635941505855
 20
415.7208206718758
 30
0.0
 11
167.4707114791054
 21
418.0137033433558
 31
0.0
  0
LINE
  5
B24
330
B12
100
AcDbEntity
  8
0
 62
     0
100
AcDbLine
 10
168.8182577386614
 20
419.494584208546
 30
0.0
 11
166.9870446386214
 21
421.325797308586
 31
0.0
  0
LINE
  5
B25
330
B12
100
AcDbEntity
  8
0
 62
     0
100
AcDbLine
 10
168.520122940206
 20
422.6211461317477
 30
0.0
 11
166.9111041807043
 21
424.2301648912493
 31
0.0
  0
LINE
  5
B26
330
B12
100
AcDbEntity
  8
0
 62
     0
100
AcDbLine
 10
168.5111041807043
 20
425.4585920159955
 30
0.0
 11
166.9111041807043
 21
427.0585920159955
 31
0.0
  0
LINE
  5
B27
330
B12
100
AcDbEntity
  8
0
 62
     0
100
AcDbLine
 10
168.5111041807043
 20
428.2870191407417
 30
0.0
 11
166.9111041807043
 21
429.8870191407417
 31
0.0
  0
LINE
  5
B28
330
B12
100
AcDbEntity
  8
0
 62
     0
100
AcDbLine
 10
168.5250320840441
 20
431.1015183621481
 30
0.0
 11
167.019417235821
 21
432.6071332103713
 31
0.0
  0
LINE
  5
B29
330
B12
100
AcDbEntity
  8
0
 62
     0
100
AcDbLine
 10
168.7624937136411
 20
433.6924838572973
 30
0.0
 11
167.3789452420607
 21
435.0760323288777
 31
0.0
  0
LINE
  5
B2A
330
B12
100
AcDbEntity
  8
0
 62
     0
100
AcDbLine
 10
169.2395511723943
 20
436.0438535232903
 30
0.0
 11
167.9404805838067
 21
437.3429241118778
 31
0.0
  0
LINE
  5
B2B
330
B12
100
AcDbEntity
  8
0
 62
     0
100
AcDbLine
 10
169.9104658852493
 20
438.2013659351815
 30
0.0
 11
168.6716723367569
 21
439.4401594836739
 31
0.0
  0
LINE
  5
B2C
330
B12
100
AcDbEntity
  8
0
 62
     0
100
AcDbLine
 10
170.7464196880957
 20
440.1938392570812
 30
0.0
 11
169.5424399772066
 21
441.3978189679705
 31
0.0
  0
LINE
  5
B2D
330
B12
100
AcDbEntity
  8
0
 62
     0
100
AcDbLine
 10
171.6459016088694
 20
442.1227844610537
 30
0.0
 11
170.8627221661816
 21
442.9059639037417
 31
0.0
  0
ENDBLK
  5
B2E
330
B12
100
AcDbEntity
  8
0
100
AcDbBlockEnd
  0
BLOCK
  5
B51
330
B50
100
AcDbEntity
  8
0
100
AcDbBlockBegin
  2
*X2
 70
     1
 10
0.0
 20
0.0
 30
0.0
  3
*X2
  1

  0
LINE
  5
B52
330
B50
100
AcDbEntity
  8
0
 62
     0
100
AcDbLine
 10
177.5646080151604
 20
365.9176640048199
 30
0.0
 11
177.1912941698603
 21
366.29097785012
 31
0.0
  0
LINE
  5
B53
330
B50
100
AcDbEntity
  8
0
 62
     0
100
AcDbLine
 10
177.926540119065
 20
365.4143105446781
 30
0.0
 11
177.1122841965485
 21
366.2285664671946
 31
0.0
  0
LINE
  5
B54
330
B50
100
AcDbEntity
  8
0
 62
     0
100
AcDbLine
 10
178.2884722229697
 20
364.910957084536
 30
0.0
 11
177.035667671704
 21
366.1637616358018
 31
0.0
  0
LINE
  5
B55
330
B50
100
AcDbEntity
  8
0
 62
     0
100
AcDbLine
 10
178.6504043268744
 20
364.407603624394
 30
0.0
 11
176.9614245938037
 21
366.0965833574647
 31
0.0
  0
LINE
  5
B56
330
B50
100
AcDbEntity
  8
0
 62
     0
100
AcDbLine
 10
179.012336430779
 20
363.9042501642522
 30
0.0
 11
176.8895431060997
 21
366.0270434889316
 31
0.0
  0
LINE
  5
B57
330
B50
100
AcDbEntity
  8
0
 62
     0
100
AcDbLine
 10
179.2839942684967
 20
363.4911709702971
 30
0.0
 11
176.8200192961376
 21
365.9551459426563
 31
0.0
  0
LINE
  5
B58
330
B50
100
AcDbEntity
  8
0
 62
     0
100
AcDbLine
 10
179.5559584151068
 20
363.0777854674497
 30
0.0
 11
176.7528571300944
 21
365.8808867524622
 31
0.0
  0
LINE
  5
B59
330
B50
100
AcDbEntity
  8
0
 62
     0
100
AcDbLine
 10
179.8279225617171
 20
362.6643999646021
 30
0.0
 11
176.688068519344
 21
365.8042540069753
 31
0.0
  0
LINE
  5
B5A
330
B50
100
AcDbEntity
  8
0
 62
     0
100
AcDbLine
 10
180.0998867083274
 20
362.2510144617545
 30
0.0
 11
176.6256735218776
 21
365.7252276482043
 31
0.0
  0
LINE
  5
B5B
330
B50
100
AcDbEntity
  8
0
 62
     0
100
AcDbLine
 10
180.3718508549376
 20
361.8376289589071
 30
0.0
 11
176.5657006866035
 21
365.6437791272411
 31
0.0
  0
LINE
  5
B5C
330
B50
100
AcDbEntity
  8
0
 62
     0
100
AcDbLine
 10
180.6438150015478
 20
361.4242434560595
 30
0.0
 11
176.5081875545354
 21
365.5598709030719
 31
0.0
  0
LINE
  5
B5D
330
B50
100
AcDbEntity
  8
0
 62
     0
100
AcDbLine
 10
180.578596040425
 20
361.348041060945
 30
0.0
 11
176.4531813379083
 21
365.4734557634617
 31
0.0
  0
LINE
  5
B5E
330
B50
100
AcDbEntity
  8
0
 62
     0
100
AcDbLine
 10
180.4896162151745
 20
361.2955995299582
 30
0.0
 11
176.4007398069214
 21
365.3844759382113
 31
0.0
  0
LINE
  5
B5F
330
B50
100
AcDbEntity
  8
0
 62
     0
100
AcDbLine
 10
180.3980022409675
 20
361.2457921479279
 30
0.0
 11
176.3509324248911
 21
365.2928619640042
 31
0.0
  0
LINE
  5
B60
330
B50
100
AcDbEntity
  8
0
 62
     0
100
AcDbLine
 10
180.3036715224003
 20
361.1987015102578
 30
0.0
 11
176.303841787221
 21
365.1985312454371
 31
0.0
  0
LINE
  5
B61
330
B50
100
AcDbEntity
  8
0
 62
     0
100
AcDbLine
 10
180.2065265140075
 20
361.1544251624133
 30
0.0
 11
176.2595654393765
 21
365.1013862370442
 31
0.0
  0
LINE
  5
B62
330
B50
100
AcDbEntity
  8
0
 62
     0
100
AcDbLine
 10
180.1064524207447
 20
361.1130778994387
 30
0.0
 11
176.218218176402
 21
365.0013121437815
 31
0.0
  0
LINE
  5
B63
330
B50
100
AcDbEntity
  8
0
 62
     0
100
AcDbLine
 10
180.0033142757797
 20
361.0747946881665
 30
0.0
 11
176.1799349651297
 21
364.8981739988165
 31
0.0
  0
LINE
  5
B64
330
B50
100
AcDbEntity
  8
0
 62
     0
100
AcDbLine
 10
179.8969531988106
 20
361.0397344088982
 30
0.0
 11
176.1448746858615
 21
364.7918129218473
 31
0.0
  0
LINE
  5
B65
330
B50
100
AcDbEntity
  8
0
 62
     0
100
AcDbLine
 10
179.7871815562477
 20
361.0080846952238
 30
0.0
 11
176.1132249721871
 21
364.6820412792845
 31
0.0
  0
LINE
  5
B66
330
B50
100
AcDbEntity
  8
0
 62
     0
100
AcDbLine
 10
179.6737766212914
 20
360.9800682739427
 30
0.0
 11
176.085208550906
 21
364.5686363443282
 31
0.0
  0
LINE
  5
B67
330
B50
100
AcDbEntity
  8
0
 62
     0
100
AcDbLine
 10
179.5564721415468
 20
360.9559513974501
 30
0.0
 11
176.0610916744134
 21
364.4513318645835
 31
0.0
  0
LINE
  5
B68
330
B50
100
AcDbEntity
  8
0
 62
     0
100
AcDbLine
 10
179.4349469194926
 20
360.9360552632669
 30
0.0
 11
176.0411955402302
 21
364.3298066425294
 31
0.0
  0
LINE
  5
B69
330
B50
100
AcDbEntity
  8
0
 62
     0
100
AcDbLine
 10
179.3088090156362
 20
360.920771810886
 30
0.0
 11
176.0259120878493
 21
364.2036687386729
 31
0.0
  0
LINE
  5
B6A
330
B50
100
AcDbEntity
  8
0
 62
     0
100
AcDbLine
 10
179.1775733420992
 20
360.9105861281858
 30
0.0
 11
176.0157264051491
 21
364.0724330651359
 31
0.0
  0
LINE
  5
B6B
330
B50
100
AcDbEntity
  8
0
 62
     0
100
AcDbLine
 10
179.0406289217306
 20
360.906109192317
 30
0.0
 11
176.0112494692803
 21
363.9354886447673
 31
0.0
  0
LINE
  5
B6C
330
B50
100
AcDbEntity
  8
0
 62
     0
100
AcDbLine
 10
178.8971893075226
 20
360.9081274502877
 30
0.0
 11
176.013267727251
 21
363.7920490305594
 31
0.0
  0
LINE
  5
B6D
330
B50
100
AcDbEntity
  8
0
 62
     0
100
AcDbLine
 10
178.7462141614509
 20
360.9176812401222
 30
0.0
 11
176.0228215170855
 21
363.6410738844876
 31
0.0
  0
LINE
  5
B6E
330
B50
100
AcDbEntity
  8
0
 62
     0
100
AcDbLine
 10
178.5862783110789
 20
360.9361957342568
 30
0.0
 11
176.04133601122
 21
363.4811380341157
 31
0.0
  0
LINE
  5
B6F
330
B50
100
AcDbEntity
  8
0
 62
     0
100
AcDbLine
 10
178.4153374057766
 20
360.9657152833218
 30
0.0
 11
176.0708555602851
 21
363.3101971288133
 31
0.0
  0
LINE
  5
B70
330
B50
100
AcDbEntity
  8
0
 62
     0
100
AcDbLine
 10
178.2302679980304
 20
361.0093633348307
 30
0.0
 11
176.1145036117939
 21
363.1251277210671
 31
0.0
  0
LINE
  5
B71
330
B50
100
AcDbEntity
  8
0
 62
     0
100
AcDbLine
 10
178.0258399865852
 20
361.0723699900387
 30
0.0
 11
176.1775102670019
 21
362.9206997096219
 31
0.0
  0
LINE
  5
B72
330
B50
100
AcDbEntity
  8
0
 62
     0
100
AcDbLine
 10
177.7919155914104
 20
361.1648730289761
 30
0.0
 11
176.2700133059393
 21
362.6867753144472
 31
0.0
  0
LINE
  5
B73
330
B50
100
AcDbEntity
  8
0
 62
     0
100
AcDbLine
 10
177.502483053413
 20
361.3128842107362
 30
0.0
 11
176.4180244876994
 21
362.3973427764497
 31
0.0
  0
LINE
  5
B74
330
B50
100
AcDbEntity
  8
0
 62
     0
100
AcDbLine
 10
255.6447990537008
 20
361.2351568534432
 30
0.0
 11
255.409075538918
 21
361.470880368226
 31
0.0
  0
LINE
  5
B75
330
B50
100
AcDbEntity
  8
0
 62
     0
100
AcDbLine
 10
255.9034362851462
 20
361.1179409782351
 30
0.0
 11
255.4651951247264
 21
361.5561821386549
 31
0.0
  0
LINE
  5
B76
330
B50
100
AcDbEntity
  8
0
 62
     0
100
AcDbLine
 10
256.1220813834308
 20
361.0407172361878
 30
0.0
 11
255.5213147105349
 21
361.6414839090838
 31
0.0
  0
LINE
  5
B77
330
B50
100
AcDbEntity
  8
0
 62
     0
100
AcDbLine
 10
256.3168096764459
 20
360.9874102994101
 30
0.0
 11
255.5774342963433
 21
361.7267856795127
 31
0.0
  0
LINE
  5
B78
330
B50
100
AcDbEntity
  8
0
 62
     0
100
AcDbLine
 10
256.4949395226047
 20
360.9507018094886
 30
0.0
 11
255.6335538821518
 21
361.8120874499415
 31
0.0
  0
LINE
  5
B79
330
B50
100
AcDbEntity
  8
0
 62
     0
100
AcDbLine
 10
256.6605466186111
 20
360.9265160697195
 30
0.0
 11
255.6896734679602
 21
361.8973892203704
 31
0.0
  0
LINE
  5
B7A
330
B50
100
AcDbEntity
  8
0
 62
     0
100
AcDbLine
 10
256.8161809310181
 20
360.9123031135498
 30
0.0
 11
255.7457930537687
 21
361.9826909907992
 31
0.0
  0
LINE
  5
B7B
330
B50
100
AcDbEntity
  8
0
 62
     0
100
AcDbLine
 10
256.9635648080898
 20
360.9063405927155
 30
0.0
 11
255.8019126395771
 21
362.0679927612281
 31
0.0
  0
LINE
  5
B7C
330
B50
100
AcDbEntity
  8
0
 62
     0
100
AcDbLine
 10
257.1039265119259
 20
360.9074002451166
 30
0.0
 11
255.8580322253856
 21
362.1532945316569
 31
0.0
  0
LINE
  5
B7D
330
B50
100
AcDbEntity
  8
0
 62
     0
100
AcDbLine
 10
257.2381781042386
 20
360.9145700090413
 30
0.0
 11
255.9141518111941
 21
362.2385963020858
 31
0.0
  0
LINE
  5
B7E
330
B50
100
AcDbEntity
  8
0
 62
     0
100
AcDbLine
 10
257.3670182751266
 20
360.9271511943906
 30
0.0
 11
255.9702713970025
 21
362.3238980725146
 31
0.0
  0
LINE
  5
B7F
330
B50
100
AcDbEntity
  8
0
 62
     0
100
AcDbLine
 10
257.4909955678494
 20
360.9445952579051
 30
0.0
 11
256.026390982811
 21
362.4091998429435
 31
0.0
  0
LINE
  5
B80
330
B50
100
AcDbEntity
  8
0
 62
     0
100
AcDbLine
 10
257.6105491999821
 20
360.9664629820097
 30
0.0
 11
256.0825105686195
 21
362.4945016133723
 31
0.0
  0
LINE
  5
B81
330
B50
100
AcDbEntity
  8
0
 62
     0
100
AcDbLine
 10
257.7260364860842
 20
360.9923970521448
 30
0.0
 11
256.1386301544279
 21
362.5798033838012
 31
0.0
  0
LINE
  5
B82
330
B50
100
AcDbEntity
  8
0
 62
     0
100
AcDbLine
 10
257.837751873607
 20
361.0221030208594
 30
0.0
 11
256.1947497402364
 21
362.66510515423
 31
0.0
  0
LINE
  5
B83
330
B50
100
AcDbEntity
  8
0
 62
     0
100
AcDbLine
 10
257.9459405249946
 20
361.055335725709
 30
0.0
 11
256.2508693260448
 21
362.7504069246589
 31
0.0
  0
LINE
  5
B84
330
B50
100
AcDbEntity
  8
0
 62
     0
100
AcDbLine
 10
258.0508082361614
 20
361.0918893707796
 30
0.0
 11
256.3069889118533
 21
362.8357086950878
 31
0.0
  0
LINE
  5
B85
330
B50
100
AcDbEntity
  8
0
 62
     0
100
AcDbLine
 10
258.1525288237676
 20
361.1315901394108
 30
0.0
 11
256.3631084976618
 21
362.9210104655166
 31
0.0
  0
LINE
  5
B86
330
B50
100
AcDbEntity
  8
0
 62
     0
100
AcDbLine
 10
258.2512497199744
 20
361.1742905994411
 30
0.0
 11
256.4192280834701
 21
363.0063122359455
 31
0.0
  0
LINE
  5
B87
330
B50
100
AcDbEntity
  8
0
 62
     0
100
AcDbLine
 10
258.3470962694909
 20
361.2198654061621
 30
0.0
 11
256.4753476692786
 21
363.0916140063743
 31
0.0
  0
LINE
  5
B88
330
B50
100
AcDbEntity
  8
0
 62
     0
100
AcDbLine
 10
258.440175068106
 20
361.2682079637842
 30
0.0
 11
256.5314672550871
 21
363.1769157768031
 31
0.0
  0
LINE
  5
B89
330
B50
100
AcDbEntity
  8
0
 62
     0
100
AcDbLine
 10
258.53057657993
 20
361.3192278081975
 30
0.0
 11
256.5875868408955
 21
363.262217547232
 31
0.0
  0
LINE
  5
B8A
330
B50
100
AcDbEntity
  8
0
 62
     0
100
AcDbLine
 10
258.6183772021174
 20
361.3728485422476
 30
0.0
 11
256.643706426704
 21
363.3475193176609
 31
0.0
  0
LINE
  5
B8B
330
B50
100
AcDbEntity
  8
0
 62
     0
100
AcDbLine
 10
258.7036408988839
 20
361.4290062017182
 30
0.0
 11
256.6998260125124
 21
363.4328210880897
 31
0.0
  0
LINE
  5
B8C
330
B50
100
AcDbEntity
  8
0
 62
     0
100
AcDbLine
 10
258.7864204937286
 20
361.4876479631108
 30
0.0
 11
256.7559455983209
 21
363.5181228585186
 31
0.0
  0
LINE
  5
B8D
330
B50
100
AcDbEntity
  8
0
 62
     0
100
AcDbLine
 10
258.8667586852395
 20
361.5487311278373
 30
0.0
 11
256.8120651841294
 21
363.6034246289475
 31
0.0
  0
LINE
  5
B8E
330
B50
100
AcDbEntity
  8
0
 62
     0
100
AcDbLine
 10
258.9446888346868
 20
361.6122223346274
 30
0.0
 11
256.8681847699378
 21
363.6887263993763
 31
0.0
  0
LINE
  5
B8F
330
B50
100
AcDbEntity
  8
0
 62
     0
100
AcDbLine
 10
259.0202355607608
 20
361.6780969647905
 30
0.0
 11
256.9243043557463
 21
363.7740281698051
 31
0.0
  0
LINE
  5
B90
330
B50
100
AcDbEntity
  8
0
 62
     0
100
AcDbLine
 10
259.0934151669519
 20
361.7463387148368
 30
0.0
 11
256.9804239415547
 21
363.859329940234
 31
0.0
  0
LINE
  5
B91
330
B50
100
AcDbEntity
  8
0
 62
     0
100
AcDbLine
 10
259.1642359192353
 20
361.8169393187907
 30
0.0
 11
257.0379189548491
 21
363.9432562831769
 31
0.0
  0
LINE
  5
B92
330
B50
100
AcDbEntity
  8
0
 62
     0
100
AcDbLine
 10
259.2326981852419
 20
361.8898984090214
 30
0.0
 11
257.0970727546197
 21
364.0255238396435
 31
0.0
  0
LINE
  5
B93
330
B50
100
AcDbEntity
  8
0
 62
     0
100
AcDbLine
 10
259.2987944404216
 20
361.9652235100791
 30
0.0
 11
257.1562265543903
 21
364.1077913961102
 31
0.0
  0
LINE
  5
B94
330
B50
100
AcDbEntity
  8
0
 62
     0
100
AcDbLine
 10
259.3625091414456
 20
362.0429301652924
 30
0.0
 11
257.215380354161
 21
364.190058952577
 31
0.0
  0
LINE
  5
B95
330
B50
100
AcDbEntity
  8
0
 62
     0
100
AcDbLine
 10
259.4238184618374
 20
362.1230422011379
 30
0.0
 11
257.2745341539316
 21
364.2723265090436
 31
0.0
  0
LINE
  5
B96
330
B50
100
AcDbEntity
  8
0
 62
     0
100
AcDbLine
 10
259.4826898792124
 20
362.2055921400002
 30
0.0
 11
257.3336879537022
 21
364.3545940655104
 31
0.0
  0
LINE
  5
B97
330
B50
100
AcDbEntity
  8
0
 62
     0
100
AcDbLine
 10
259.5390815971153
 20
362.2906217783345
 30
0.0
 11
257.3928417534728
 21
364.436861621977
 31
0.0
  0
LINE
  5
B98
330
B50
100
AcDbEntity
  8
0
 62
     0
100
AcDbLine
 10
259.5929417767639
 20
362.3781829549233
 30
0.0
 11
257.4519955532434
 21
364.5191291784438
 31
0.0
  0
LINE
  5
B99
330
B50
100
AcDbEntity
  8
0
 62
     0
100
AcDbLine
 10
259.6442075443698
 20
362.4683385435548
 30
0.0
 11
257.511149353014
 21
364.6013967349105
 31
0.0
  0
LINE
  5
B9A
330
B50
100
AcDbEntity
  8
0
 62
     0
100
AcDbLine
 10
259.692803727195
 20
362.5611637169667
 30
0.0
 11
257.5703031527847
 21
364.6836642913771
 31
0.0
  0
LINE
  5
B9B
330
B50
100
AcDbEntity
  8
0
 62
     0
100
AcDbLine
 10
259.7386412547976
 20
362.6567475456015
 30
0.0
 11
257.6294569525553
 21
364.7659318478438
 31
0.0
  0
LINE
  5
B9C
330
B50
100
AcDbEntity
  8
0
 62
     0
100
AcDbLine
 10
259.7816151390936
 20
362.7551950175428
 30
0.0
 11
257.6886107523259
 21
364.8481994043105
 31
0.0
  0
LINE
  5
B9D
330
B50
100
AcDbEntity
  8
0
 62
     0
100
AcDbLine
 10
259.821601915006
 20
362.8566295978678
 30
0.0
 11
257.7477645520966
 21
364.9304669607772
 31
0.0
  0
LINE
  5
B9E
330
B50
100
AcDbEntity
  8
0
 62
     0
100
AcDbLine
 10
259.8584563780771
 20
362.9611964910339
 30
0.0
 11
257.8069183518672
 21
365.0127345172439
 31
0.0
  0
LINE
  5
B9F
330
B50
100
AcDbEntity
  8
0
 62
     0
100
AcDbLine
 10
259.8920073894059
 20
363.0690668359424
 30
0.0
 11
257.8660721516377
 21
365.0950020737105
 31
0.0
  0
LINE
  5
BA0
330
B50
100
AcDbEntity
  8
0
 62
     0
100
AcDbLine
 10
259.9220524201156
 20
363.1804431614701
 30
0.0
 11
257.9252259514084
 21
365.1772696301772
 31
0.0
  0
LINE
  5
BA1
330
B50
100
AcDbEntity
  8
0
 62
     0
100
AcDbLine
 10
259.9483503581286
 20
363.2955665796943
 30
0.0
 11
257.984379751179
 21
365.2595371866439
 31
0.0
  0
LINE
  5
BA2
330
B50
100
AcDbEntity
  8
0
 62
     0
100
AcDbLine
 10
259.9706118664578
 20
363.4147264276024
 30
0.0
 11
258.0435335509496
 21
365.3418047431106
 31
0.0
  0
LINE
  5
BA3
330
B50
100
AcDbEntity
  8
0
 62
     0
100
AcDbLine
 10
259.9884862062209
 20
363.5382734440768
 30
0.0
 11
258.1026873507203
 21
365.4240722995774
 31
0.0
  0
LINE
  5
BA4
330
B50
100
AcDbEntity
  8
0
 62
     0
100
AcDbLine
 10
260.001542811592
 20
363.6666381949428
 30
0.0
 11
258.1618411504909
 21
365.506339856044
 31
0.0
  0
LINE
  5
BA5
330
B50
100
AcDbEntity
  8
0
 62
     0
100
AcDbLine
 10
260.0092448205677
 20
363.8003575422045
 30
0.0
 11
258.2209949502614
 21
365.5886074125107
 31
0.0
  0
LINE
  5
BA6
330
B50
100
AcDbEntity
  8
0
 62
     0
100
AcDbLine
 10
260.0109098038603
 20
363.9401139151492
 30
0.0
 11
258.2801487500321
 21
365.6708749689774
 31
0.0
  0
LINE
  5
BA7
330
B50
100
AcDbEntity
  8
0
 62
     0
100
AcDbLine
 10
260.0056491867595
 20
364.0867958884873
 30
0.0
 11
258.3393025498027
 21
365.7531425254441
 31
0.0
  0
LINE
  5
BA8
330
B50
100
AcDbEntity
  8
0
 62
     0
100
AcDbLine
 10
259.9922702200277
 20
364.2415962114565
 30
0.0
 11
258.3984563495733
 21
365.8354100819108
 31
0.0
  0
LINE
  5
BA9
330
B50
100
AcDbEntity
  8
0
 62
     0
100
AcDbLine
 10
259.9691074862134
 20
364.406180301508
 30
0.0
 11
258.4576101493439
 21
365.9176776383775
 31
0.0
  0
LINE
  5
BAA
330
B50
100
AcDbEntity
  8
0
 62
     0
100
AcDbLine
 10
259.9337096679062
 20
364.5829994760526
 30
0.0
 11
258.5167639491146
 21
365.9999451948442
 31
0.0
  0
LINE
  5
BAB
330
B50
100
AcDbEntity
  8
0
 62
     0
100
AcDbLine
 10
259.8821917340012
 20
364.7759387661948
 30
0.0
 11
258.5759177488851
 21
366.0822127513108
 31
0.0
  0
LINE
  5
BAC
330
B50
100
AcDbEntity
  8
0
 62
     0
100
AcDbLine
 10
259.8076705314843
 20
364.9918813249491
 30
0.0
 11
258.6350715486558
 21
366.1644803077776
 31
0.0
  0
LINE
  5
BAD
330
B50
100
AcDbEntity
  8
0
 62
     0
100
AcDbLine
 10
259.6954010611903
 20
365.2455721514804
 30
0.0
 11
258.6942253484264
 21
366.2467478642443
 31
0.0
  0
LINE
  5
BAE
330
B50
100
AcDbEntity
  8
0
 62
     0
100
AcDbLine
 10
259.4968974509138
 20
365.5854971179941
 30
0.0
 11
258.753379148197
 21
366.329015420711
 31
0.0
  0
ENDBLK
  5
BAF
330
B50
100
AcDbEntity
  8
0
100
AcDbBlockEnd
  0
BLOCK
  5
D50
330
D46
100
AcDbEntity
  8
0
100
AcDbBlockBegin
  2
*D3
 70
     1
 10
0.0
 20
0.0
 30
0.0
  3
*D3
  1

  0
LINE
  5
F97
330
D46
100
AcDbEntity
  8
BEM
 62
     0
370
    -2
100
AcDbLine
 10
181.9494480224008
 20
302.7933855478618
 30
0.0
 11
181.9494480224008
 21
236.639430920315
 31
0.0
  0
LINE
  5
F98
330
D46
100
AcDbEntity
  8
BEM
 62
     0
370
    -2
100
AcDbLine
 10
270.9494480224008
 20
302.7933855478618
 30
0.0
 11
270.9494480224008
 21
236.639430920315
 31
0.0
  0
LINE
  5
F99
330
D46
100
AcDbEntity
  8
BEM
 62
     0
370
    -2
100
AcDbLine
 10
188.9494480224008
 20
238.639430920315
 30
0.0
 11
263.9494480224008
 21
238.639430920315
 31
0.0
  0
SOLID
  5
F9A
330
D46
100
AcDbEntity
  8
BEM
 62
     0
100
AcDbTrace
 10
188.9494480224008
 20
239.8060975869817
 30
0.0
 11
188.9494480224008
 21
237.4727642536484
 31
0.0
 12
181.9494480224008
 22
238.639430920315
 32
0.0
 13
181.9494480224008
 23
238.639430920315
 33
0.0
  0
SOLID
  5
F9B
330
D46
100
AcDbEntity
  8
BEM
 62
     0
100
AcDbTrace
 10
263.9494480224008
 20
239.8060975869817
 30
0.0
 11
263.9494480224008
 21
237.4727642536484
 31
0.0
 12
270.9494480224008
 22
238.639430920315
 32
0.0
 13
270.9494480224008
 23
238.639430920315
 33
0.0
  0
MTEXT
  5
F9C
330
D46
100
AcDbEntity
  8
BEM
 62
     1
100
AcDbMText
 10
226.4494480224008
 20
245.139430920315
 30
0.0
 40
7.0
 41
0.0
 71
     5
 72
     1
  1
\A1;89
 73
     1
 44
1.0
  0
POINT
  5
F9D
330
D46
100
AcDbEntity
  8
DEFPOINTS
 62
     0
100
AcDbPoint
 10
181.9494480224008
 20
304.7933855478618
 30
0.0
  0
POINT
  5
F9E
330
D46
100
AcDbEntity
  8
DEFPOINTS
 62
     0
100
AcDbPoint
 10
270.9494480224008
 20
304.7933855478618
 30
0.0
  0
POINT
  5
F9F
330
D46
100
AcDbEntity
  8
DEFPOINTS
 62
     0
100
AcDbPoint
 10
270.9494480224008
 20
238.639430920315
 30
0.0
  0
ENDBLK
  5
D51
330
D46
100
AcDbEntity
  8
0
100
AcDbBlockEnd
  0
BLOCK
  5
D5C
330
D52
100
AcDbEntity
  8
0
100
AcDbBlockBegin
  2
*D4
 70
     1
 10
0.0
 20
0.0
 30
0.0
  3
*D4
  1

  0
LINE
  5
F8E
330
D52
100
AcDbEntity
  8
BEM
 62
     0
370
    -2
100
AcDbLine
 10
199.9494480224008
 20
284.7278941334995
 30
0.0
 11
199.9494480224008
 21
255.4311182615428
 31
0.0
  0
LINE
  5
F8F
330
D52
100
AcDbEntity
  8
BEM
 62
     0
370
    -2
100
AcDbLine
 10
252.9494480224008
 20
284.7278941334991
 30
0.0
 11
252.9494480224008
 21
255.4311182615428
 31
0.0
  0
LINE
  5
F90
330
D52
100
AcDbEntity
  8
BEM
 62
     0
370
    -2
100
AcDbLine
 10
206.9494480224008
 20
257.4311182615428
 30
0.0
 11
245.9494480224008
 21
257.4311182615428
 31
0.0
  0
SOLID
  5
F91
330
D52
100
AcDbEntity
  8
BEM
 62
     0
100
AcDbTrace
 10
206.9494480224008
 20
258.5977849282095
 30
0.0
 11
206.9494480224008
 21
256.2644515948761
 31
0.0
 12
199.9494480224008
 22
257.4311182615428
 32
0.0
 13
199.9494480224008
 23
257.4311182615428
 33
0.0
  0
SOLID
  5
F92
330
D52
100
AcDbEntity
  8
BEM
 62
     0
100
AcDbTrace
 10
245.9494480224008
 20
258.5977849282095
 30
0.0
 11
245.9494480224008
 21
256.2644515948761
 31
0.0
 12
252.9494480224008
 22
257.4311182615428
 32
0.0
 13
252.9494480224008
 23
257.4311182615428
 33
0.0
  0
MTEXT
  5
F93
330
D52
100
AcDbEntity
  8
BEM
 62
     1
100
AcDbMText
 10
226.4494480224008
 20
263.9311182615428
 30
0.0
 40
7.0
 41
0.0
 71
     5
 72
     1
  1
\A1;53
 73
     1
 44
1.0
  0
POINT
  5
F94
330
D52
100
AcDbEntity
  8
DEFPOINTS
 62
     0
100
AcDbPoint
 10
199.9494480224008
 20
286.7278941334994
 30
0.0
  0
POINT
  5
F95
330
D52
100
AcDbEntity
  8
DEFPOINTS
 62
     0
100
AcDbPoint
 10
252.9494480224008
 20
286.7278941334991
 30
0.0
  0
POINT
  5
F96
330
D52
100
AcDbEntity
  8
DEFPOINTS
 62
     0
100
AcDbPoint
 10
252.9494480224008
 20
257.4311182615428
 30
0.0
  0
ENDBLK
  5
D5D
330
D52
100
AcDbEntity
  8
0
100
AcDbBlockEnd
  0
BLOCK
  5
D68
330
D5E
100
AcDbEntity
  8
0
100
AcDbBlockBegin
  2
*D5
 70
     1
 10
0.0
 20
0.0
 30
0.0
  3
*D5
  1

  0
LINE
  5
FB2
330
D5E
100
AcDbEntity
  8
BEM
 62
     0
370
    -2
100
AcDbLine
 10
159.9494480224009
 20
456.7933855478621
 30
0.0
 11
159.9494480224009
 21
472.587318636455
 31
0.0
  0
LINE
  5
FB3
330
D5E
100
AcDbEntity
  8
BEM
 62
     0
370
    -2
100
AcDbLine
 10
292.9494480224009
 20
456.7933855478616
 30
0.0
 11
292.9494480224009
 21
472.587318636455
 31
0.0
  0
LINE
  5
FB4
330
D5E
100
AcDbEntity
  8
BEM
 62
     0
370
    -2
100
AcDbLine
 10
166.9494480224009
 20
470.587318636455
 30
0.0
 11
285.9494480224009
 21
470.587318636455
 31
0.0
  0
SOLID
  5
FB5
330
D5E
100
AcDbEntity
  8
BEM
 62
     0
100
AcDbTrace
 10
166.9494480224009
 20
471.7539853031217
 30
0.0
 11
166.9494480224009
 21
469.4206519697884
 31
0.0
 12
159.9494480224009
 22
470.587318636455
 32
0.0
 13
159.9494480224009
 23
470.587318636455
 33
0.0
  0
SOLID
  5
FB6
330
D5E
100
AcDbEntity
  8
BEM
 62
     0
100
AcDbTrace
 10
285.9494480224009
 20
471.7539853031217
 30
0.0
 11
285.9494480224009
 21
469.4206519697884
 31
0.0
 12
292.9494480224009
 22
470.587318636455
 32
0.0
 13
292.9494480224009
 23
470.587318636455
 33
0.0
  0
MTEXT
  5
FB7
330
D5E
100
AcDbEntity
  8
BEM
 62
     1
100
AcDbMText
 10
226.4494480224009
 20
477.087318636455
 30
0.0
 40
7.0
 41
0.0
 71
     5
 72
     1
  1
\A1;%%c133
 73
     1
 44
1.0
  0
POINT
  5
FB8
330
D5E
100
AcDbEntity
  8
DEFPOINTS
 62
     0
100
AcDbPoint
 10
159.9494480224009
 20
454.793385547862
 30
0.0
  0
POINT
  5
FB9
330
D5E
100
AcDbEntity
  8
DEFPOINTS
 62
     0
100
AcDbPoint
 10
292.9494480224009
 20
454.7933855478616
 30
0.0
  0
POINT
  5
FBA
330
D5E
100
AcDbEntity
  8
DEFPOINTS
 62
     0
100
AcDbPoint
 10
292.9494480224009
 20
470.587318636455
 30
0.0
  0
ENDBLK
  5
D69
330
D5E
100
AcDbEntity
  8
0
100
AcDbBlockEnd
  0
BLOCK
  5
D74
330
D6A
100
AcDbEntity
  8
0
100
AcDbBlockBegin
  2
*D6
 70
     1
 10
0.0
 20
0.0
 30
0.0
  3
*D6
  1

  0
LINE
  5
FA9
330
D6A
100
AcDbEntity
  8
BEM
 62
     0
370
    -2
100
AcDbLine
 10
157.9494480224009
 20
454.793385547862
 30
0.0
 11
143.0816500949897
 21
454.793385547862
 31
0.0
  0
LINE
  5
FAA
330
D6A
100
AcDbEntity
  8
BEM
 62
     0
370
    -2
100
AcDbLine
 10
198.8186049013451
 20
276.793385547862
 30
0.0
 11
143.0816500949896
 21
276.793385547862
 31
0.0
  0
LINE
  5
FAB
330
D6A
100
AcDbEntity
  8
BEM
 62
     0
370
    -2
100
AcDbLine
 10
145.0816500949897
 20
447.7933855478621
 30
0.0
 11
145.0816500949896
 21
283.793385547862
 31
0.0
  0
SOLID
  5
FAC
330
D6A
100
AcDbEntity
  8
BEM
 62
     0
100
AcDbTrace
 10
143.914983428323
 20
447.7933855478621
 30
0.0
 11
146.2483167616563
 21
447.7933855478621
 31
0.0
 12
145.0816500949897
 22
454.793385547862
 32
0.0
 13
145.0816500949897
 23
454.793385547862
 33
0.0
  0
SOLID
  5
FAD
330
D6A
100
AcDbEntity
  8
BEM
 62
     0
100
AcDbTrace
 10
143.914983428323
 20
283.793385547862
 30
0.0
 11
146.2483167616563
 21
283.793385547862
 31
0.0
 12
145.0816500949896
 22
276.793385547862
 32
0.0
 13
145.0816500949896
 23
276.793385547862
 33
0.0
  0
MTEXT
  5
FAE
330
D6A
100
AcDbEntity
  8
BEM
 62
     1
100
AcDbMText
 10
138.5816500949896
 20
365.7933855478621
 30
0.0
 40
7.0
 41
0.0
 71
     5
 72
     1
  1
\A1;178
 11
0.0000000000000001
 21
1.0
 31
0.0
 73
     1
 44
1.0
  0
POINT
  5
FAF
330
D6A
100
AcDbEntity
  8
DEFPOINTS
 62
     0
100
AcDbPoint
 10
159.9494480224009
 20
454.793385547862
 30
0.0
  0
POINT
  5
FB0
330
D6A
100
AcDbEntity
  8
DEFPOINTS
 62
     0
100
AcDbPoint
 10
200.8186049013451
 20
276.793385547862
 30
0.0
  0
POINT
  5
FB1
330
D6A
100
AcDbEntity
  8
DEFPOINTS
 62
     0
100
AcDbPoint
 10
145.0816500949896
 20
276.793385547862
 30
0.0
  0
ENDBLK
  5
D75
330
D6A
100
AcDbEntity
  8
0
100
AcDbBlockEnd
  0
BLOCK
  5
F68
330
F5E
100
AcDbEntity
  8
0
100
AcDbBlockBegin
  2
*D7
 70
     1
 10
0.0
 20
0.0
 30
0.0
  3
*D7
  1

  0
LINE
  5
FA0
330
F5E
100
AcDbEntity
  8
BEM
 62
     0
370
    -2
100
AcDbLine
 10
198.8186049013451
 20
276.793385547862
 30
0.0
 11
157.8546618650302
 21
276.793385547862
 31
0.0
  0
LINE
  5
FA1
330
F5E
100
AcDbEntity
  8
BEM
 62
     0
370
    -2
100
AcDbLine
 10
179.9494480224008
 20
306.7933855478619
 30
0.0
 11
157.8546618650302
 21
306.7933855478619
 31
0.0
  0
LINE
  5
FA2
330
F5E
100
AcDbEntity
  8
BEM
 62
     0
370
    -2
100
AcDbLine
 10
159.8546618650303
 20
283.793385547862
 30
0.0
 11
159.8546618650303
 21
299.7933855478619
 31
0.0
  0
SOLID
  5
FA3
330
F5E
100
AcDbEntity
  8
BEM
 62
     0
100
AcDbTrace
 10
158.6879951983636
 20
283.793385547862
 30
0.0
 11
161.0213285316969
 21
283.793385547862
 31
0.0
 12
159.8546618650303
 22
276.793385547862
 32
0.0
 13
159.8546618650303
 23
276.793385547862
 33
0.0
  0
SOLID
  5
FA4
330
F5E
100
AcDbEntity
  8
BEM
 62
     0
100
AcDbTrace
 10
158.6879951983636
 20
299.7933855478619
 30
0.0
 11
161.0213285316969
 21
299.7933855478619
 31
0.0
 12
159.8546618650303
 22
306.7933855478619
 32
0.0
 13
159.8546618650303
 23
306.7933855478619
 33
0.0
  0
MTEXT
  5
FA5
330
F5E
100
AcDbEntity
  8
BEM
 62
     1
100
AcDbMText
 10
153.3546618650302
 20
291.793385547862
 30
0.0
 40
7.0
 41
0.0
 71
     5
 72
     1
  1
\A1;30
 11
0.0000000000000001
 21
1.0
 31
0.0
 73
     1
 44
1.0
  0
POINT
  5
FA6
330
F5E
100
AcDbEntity
  8
DEFPOINTS
 62
     0
100
AcDbPoint
 10
200.8186049013451
 20
276.793385547862
 30
0.0
  0
POINT
  5
FA7
330
F5E
100
AcDbEntity
  8
DEFPOINTS
 62
     0
100
AcDbPoint
 10
181.9494480224008
 20
306.7933855478619
 30
0.0
  0
POINT
  5
FA8
330
F5E
100
AcDbEntity
  8
DEFPOINTS
 62
     0
100
AcDbPoint
 10
159.8546618650303
 20
306.7933855478619
 30
0.0
  0
ENDBLK
  5
F69
330
F5E
100
AcDbEntity
  8
0
100
AcDbBlockEnd
  0
ENDSEC
  0
SECTION
  2
ENTITIES
  0
LINE
  5
19F
330
1E
100
AcDbEntity
  8
STEMPEL
100
AcDbLine
 10
409.9999999999999
 20
110.0
 30
0.0
 11
39.99999999999995
 21
110.0
 31
0.0
  0
LINE
  5
1A0
330
1E
100
AcDbEntity
  8
STEMPEL
100
AcDbLine
 10
136.0000000000001
 20
109.9999999999999
 30
0.0
 11
136.0
 21
9.999999999999971
 31
0.0
  0
LINE
  5
1A1
330
1E
100
AcDbEntity
  8
STEMPEL
100
AcDbLine
 10
220.0
 20
110.0
 30
0.0
 11
220.0
 21
9.999999999999971
 31
0.0
  0
LINE
  5
1A2
330
1E
100
AcDbEntity
  8
STEMPEL
100
AcDbLine
 10
331.9999999999999
 20
109.9999999999997
 30
0.0
 11
331.9999999999999
 21
40.0
 31
0.0
  0
LINE
  5
1A3
330
1E
100
AcDbEntity
  8
STEMPEL
100
AcDbLine
 10
135.9999999999999
 20
29.99999999999997
 30
0.0
 11
39.99999999999995
 21
29.99999999999997
 31
0.0
  0
LINE
  5
1A4
330
1E
100
AcDbEntity
  8
STEMPEL
100
AcDbLine
 10
409.9999999999999
 20
40.0
 30
0.0
 11
136.0000000000001
 21
39.99999999999997
 31
0.0
  0
LINE
  5
1A5
330
1E
100
AcDbEntity
  8
STEMPEL
100
AcDbLine
 10
409.9999999999999
 20
80.0
 30
0.0
 11
136.0000000000001
 21
79.99999999999994
 31
0.0
  0
LINE
  5
1A6
330
1E
100
AcDbEntity
  8
VOLL
100
AcDbLine
 10
54.00000000000005
 20
110.0
 30
0.0
 11
53.99999999999995
 21
9.999999999999971
 31
0.0
  0
LINE
  5
1A7
330
1E
100
AcDbEntity
  8
VOLL
100
AcDbLine
 10
94.00000000000011
 20
109.9999999999999
 30
0.0
 11
94.0
 21
9.999999999999971
 31
0.0
  0
LINE
  5
1A8
330
1E
100
AcDbEntity
  8
VOLL
100
AcDbLine
 10
114.0000000000001
 20
109.9999999999999
 30
0.0
 11
114.0
 21
9.999999999999971
 31
0.0
  0
LINE
  5
1A9
330
1E
100
AcDbEntity
  8
VOLL
100
AcDbLine
 10
154.0000000000001
 20
79.99999999999994
 30
0.0
 11
154.0000000000001
 21
39.99999999999997
 31
0.0
  0
LINE
  5
1AA
330
1E
100
AcDbEntity
  8
VOLL
100
AcDbLine
 10
180.0000000000001
 20
109.9999999999998
 30
0.0
 11
180.0
 21
39.99999999999997
 31
0.0
  0
LINE
  5
1AB
330
1E
100
AcDbEntity
  8
HILF
100
AcDbLine
 10
40.00000000000006
 20
100.0
 30
0.0
 11
136.0000000000001
 21
100.0
 31
0.0
  0
LINE
  5
1AC
330
1E
100
AcDbEntity
  8
HILF
100
AcDbLine
 10
40.00000000000006
 20
90.00000000000005
 30
0.0
 11
136.0000000000001
 21
90.00000000000005
 31
0.0
  0
LINE
  5
1AD
330
1E
100
AcDbEntity
  8
HILF
100
AcDbLine
 10
40.00000000000006
 20
79.99999999999994
 30
0.0
 11
136.0000000000001
 21
79.99999999999994
 31
0.0
  0
LINE
  5
1AE
330
1E
100
AcDbEntity
  8
HILF
100
AcDbLine
 10
40.00000000000006
 20
69.99999999999994
 30
0.0
 11
136.0000000000001
 21
69.99999999999994
 31
0.0
  0
LINE
  5
1AF
330
1E
100
AcDbEntity
  8
HILF
100
AcDbLine
 10
40.00000000000006
 20
59.99999999999997
 30
0.0
 11
136.0000000000001
 21
59.99999999999997
 31
0.0
  0
LINE
  5
1B0
330
1E
100
AcDbEntity
  8
HILF
100
AcDbLine
 10
40.00000000000006
 20
49.99999999999997
 30
0.0
 11
136.0000000000001
 21
49.99999999999997
 31
0.0
  0
LINE
  5
1B1
330
1E
100
AcDbEntity
  8
HILF
100
AcDbLine
 10
40.00000000000006
 20
39.99999999999997
 30
0.0
 11
136.0000000000001
 21
39.99999999999997
 31
0.0
  0
LINE
  5
1B2
330
1E
100
AcDbEntity
  8
HILF
100
AcDbLine
 10
136.0000000000001
 20
69.99999999999994
 30
0.0
 11
220.0
 21
69.99999999999994
 31
0.0
  0
LINE
  5
1B3
330
1E
100
AcDbEntity
  8
HILF
100
AcDbLine
 10
136.0000000000001
 20
59.99999999999997
 30
0.0
 11
220.0
 21
59.99999999999997
 31
0.0
  0
LINE
  5
1B4
330
1E
100
AcDbEntity
  8
HILF
100
AcDbLine
 10
136.0000000000001
 20
49.99999999999997
 30
0.0
 11
220.0
 21
49.99999999999997
 31
0.0
  0
LINE
  5
1B5
330
1E
100
AcDbEntity
  8
HILF
100
AcDbLine
 10
224.7736801096948
 20
84.03758247564139
 30
0.0
 11
324.8353916556311
 21
84.03758247564139
 31
0.0
  0
LINE
  5
1B6
330
1E
100
AcDbEntity
  8
HILF
100
AcDbLine
 10
224.7736801096948
 20
69.99999999999994
 30
0.0
 11
324.835391655631
 21
69.99999999999994
 31
0.0
  0
LINE
  5
1B7
330
1E
100
AcDbEntity
  8
HILF
100
AcDbLine
 10
224.7736801096948
 20
59.99999999999997
 30
0.0
 11
324.835391655631
 21
59.99999999999997
 31
0.0
  0
LINE
  5
1B8
330
1E
100
AcDbEntity
  8
HILF
100
AcDbLine
 10
224.7736801096948
 20
49.99999999999997
 30
0.0
 11
324.835391655631
 21
49.99999999999997
 31
0.0
  0
LINE
  5
1B9
330
1E
100
AcDbEntity
  8
VOLL
100
AcDbLine
 10
331.9999999999999
 20
60.0
 30
0.0
 11
409.9999999999999
 21
60.0
 31
0.0
  0
LINE
  5
1BA
330
1E
100
AcDbEntity
  8
HILF
100
AcDbLine
 10
336.7238616296992
 20
83.77983636955827
 30
0.0
 11
404.8588839326727
 21
83.77983636955827
 31
0.0
  0
LINE
  5
1BB
330
1E
100
AcDbEntity
  8
HILF
100
AcDbLine
 10
223.4909699289885
 20
14.89398258028314
 30
0.0
 11
404.8588839326727
 21
14.89398258028314
 31
0.0
  0
TEXT
  5
1BC
330
1E
100
AcDbEntity
  8
TEXT
100
AcDbText
 10
63.30818695982741
 20
18.59145467910836
 30
0.0
 40
4.0
  1
Änderung
 41
0.8
  7
GREEKS
 72
     4
 11
74.05104410268456
 21
20.30574039339407
 31
0.0
100
AcDbText
  0
TEXT
  5
1BD
330
1E
100
AcDbEntity
  8
TEXT
100
AcDbText
 10
143.5163572150377
 20
102.4620895087088
 30
0.0
 40
5.0
  1
Maßstab
 41
0.8
  7
GREEKS
100
AcDbText
  0
TEXT
  5
1BE
330
1E
100
AcDbEntity
  8
TEXT
100
AcDbText
 10
184.2858954734051
 20
102.4184168434819
 30
0.0
 40
5.0
  1
Zul. Abw.
 41
0.8
  7
GREEKS
100
AcDbText
  0
TEXT
  5
1BF
330
1E
100
AcDbEntity
  8
TEXT
100
AcDbText
 10
224.877940380901
 20
102.5489328011779
 30
0.0
 40
5.0
  1
Benennung
 41
0.8
  7
GREEKS
100
AcDbText
  0
TEXT
  5
1C0
330
1E
100
AcDbEntity
  8
TEXT
100
AcDbText
 10
336.178754957634
 20
102.3132034537136
 30
0.0
 40
5.0
  1
Zeichnungs Nr.
 41
0.8
  7
GREEKS
100
AcDbText
  0
TEXT
  5
1C1
330
1E
100
AcDbEntity
  8
TEXT
100
AcDbText
 10
224.742238391136
 20
30.84560570193057
 30
0.0
 40
5.0
  1
Bauvorhaben
 41
0.8
  7
GREEKS
100
AcDbText
  0
TEXT
  5
1C2
330
1E
100
AcDbEntity
  8
TEXT
100
AcDbText
 10
336.7238616296992
 20
73.1811823709997
 30
0.0
 40
5.0
  1
Ersatz für:
 41
0.8
  7
GREEKS
100
AcDbText
  0
TEXT
  5
1C3
330
1E
100
AcDbEntity
  8
TEXT
100
AcDbText
 10
48.26641107045753
 20
13.65465846027192
 30
0.0
 40
3.6
  1
Index
 50
90.0
 41
0.8
  7
GREEKS
100
AcDbText
  0
TEXT
  5
1C6
330
1E
100
AcDbEntity
  8
TEXT
100
AcDbText
 10
162.3311673153651
 20
73.31880501229926
 30
0.0
 40
3.6
  1
Tag
 41
0.8
  7
GREEKS
100
AcDbText
  0
TEXT
  5
1C7
330
1E
100
AcDbEntity
  8
TEXT
100
AcDbText
 10
192.4626584226295
 20
73.30961091915225
 30
0.0
 40
3.6
  1
Name
 41
0.8
  7
GREEKS
100
AcDbText
  0
TEXT
  5
1C8
330
1E
100
AcDbEntity
  8
TEXT
100
AcDbText
 10
137.5836127167615
 20
63.62990369617964
 30
0.0
 40
3.6
  1
Gez.
 41
0.8
  7
GREEKS
100
AcDbText
  0
TEXT
  5
1C9
330
1E
100
AcDbEntity
  8
TEXT
100
AcDbText
 10
137.5515086571672
 20
53.68926291428377
 30
0.0
 40
3.6
  1
Gepr.
 41
0.8
  7
GREEKS
100
AcDbText
  0
TEXT
  5
1CA
330
1E
100
AcDbEntity
  8
TEXT
100
AcDbText
 10
137.6006777387304
 20
43.52946389649807
 30
0.0
 40
3.6
  1
Norm.
 41
0.8
  7
GREEKS
100
AcDbText
  0
LINE
  5
1CB
330
1E
100
AcDbEntity
  8
STEMPEL
100
AcDbLine
 10
49.99999999999989
 20
10.0
 30
0.0
 11
409.9999999999999
 21
10.0
 31
0.0
  0
LINE
  5
1CC
330
1E
100
AcDbEntity
  8
STEMPEL
100
AcDbLine
 10
409.9999999999999
 20
110.0
 30
0.0
 11
409.9999999999999
 21
10.0
 31
0.0
  0
TEXT
  5
1CD
330
1E
100
AcDbEntity
  8
TEXT
100
AcDbText
 10
337.2400861497005
 20
52.07416177878602
 30
0.0
 40
5.0
  1
ersetzt durch:
 41
0.8
  7
GREEKS
100
AcDbText
  0
LINE
  5
1CE
330
1E
100
AcDbEntity
  8
STEMPEL
100
AcDbLine
 10
409.9999999999999
 20
10.0
 30
0.0
 11
39.99999999999989
 21
10.0
 31
0.0
  0
LINE
  5
1CF
330
1E
100
AcDbEntity
  8
STEMPEL
100
AcDbLine
 10
409.9999999999999
 20
110.0
 30
0.0
 11
409.9999999999999
 21
584.0
 31
0.0
  0
LINE
  5
1D0
330
1E
100
AcDbEntity
  8
STEMPEL
100
AcDbLine
 10
40.0
 20
10.0
 30
0.0
 11
39.99999999999989
 21
584.0
 31
0.0
  0
LINE
  5
1D1
330
1E
100
AcDbEntity
  8
STEMPEL
100
AcDbLine
 10
409.9999999999999
 20
584.0
 30
0.0
 11
39.99999999999989
 21
584.0
 31
0.0
  0
LINE
  5
1D2
330
1E
100
AcDbEntity
  8
HILF
100
AcDbLine
 10
0.0
 20
0.0
 30
0.0
 11
-0.0000000000001137
 21
594.0
 31
0.0
  0
LINE
  5
1D3
330
1E
100
AcDbEntity
  8
HILF
100
AcDbLine
 10
419.9999999999999
 20
594.0000000000002
 30
0.0
 11
0.0
 21
594.0
 31
0.0
  0
LINE
  5
1D4
330
1E
100
AcDbEntity
  8
HILF
100
AcDbLine
 10
419.9999999999999
 20
0.0
 30
0.0
 11
0.0
 21
0.0
 31
0.0
  0
LINE
  5
1D5
330
1E
100
AcDbEntity
  8
HILF
100
AcDbLine
 10
31.08767135713856
 20
297.0
 30
0.0
 11
0.0000000000001137
 21
297.0
 31
0.0
  0
TEXT
  5
1D6
330
1E
100
AcDbEntity
  8
TEXT
100
AcDbText
 10
139.8886662448949
 20
73.33699103545173
 30
0.0
 40
3.6
  1
2007
 41
0.8
  7
GREEKS
100
AcDbText
  0
LINE
  5
1D7
330
1E
100
AcDbEntity
  8
HILF
100
AcDbLine
 10
419.9999999999999
 20
-0.0000000000001137
 30
0.0
 11
419.9999999999999
 21
594.0
 31
0.0
  0
TEXT
  5
1D8
330
1E
100
AcDbEntity
  8
VOLL
100
AcDbText
 10
78.07675471698113
 20
31.02594776470585
 30
0.0
 40
1.8
  1

  7
GREEKS
100
AcDbText
  0
TEXT
  5
1D9
330
1E
100
AcDbEntity
  8
TEXT
100
AcDbText
 10
42.25669815425914
 20
111.6719999999999
 30
0.0
 40
5.0
  1
Erstellt mit AUTOCAD 2004
 41
0.8
  7
GREEKS
100
AcDbText
  0
TEXT
  5
1DA
330
1E
100
AcDbEntity
  8
TEXT
100
AcDbText
 10
194.4216048581257
 20
63.0896391972351
 30
0.0
 40
4.0
  1
Koeh
 41
0.8
  7
GREEKS
 72
     1
 11
199.6787477152685
 21
63.0896391972351
 31
0.0
100
AcDbText
  0
TEXT
  5
1DB
330
1E
100
AcDbEntity
  8
TEXT
 62
     1
100
AcDbText
 10
346.572909698401
 20
88.14901428913959
 30
0.0
 40
7.0
  1
58602MB0W
 41
0.8
  7
GREEKS
 72
     1
 11
371.2395763650676
 21
88.14901428913959
 31
0.0
100
AcDbText
  0
TEXT
  5
1DC
330
1E
100
AcDbEntity
  8
TEXT
 62
     1
100
AcDbText
 10
150.5006306481887
 20
88.14901428913959
 30
0.0
 40
7.0
  1
1:2
  7
GREEKS
100
AcDbText
  0
TEXT
  5
1DD
330
1E
100
AcDbEntity
  8
TEXT
100
AcDbText
 10
160.398997108236
 20
63.10765040825732
 30
0.0
 40
4.0
  1
25.09.
 41
0.8
  7
GREEKS
 72
     1
 11
167.4085209177598
 21
63.10765040825732
 31
0.0
100
AcDbText
  0
TEXT
  5
1DE
330
1E
100
AcDbEntity
  8
TEXT
 62
     1
100
AcDbText
 10
225.3291095064849
 20
87.41748789253779
 30
0.0
 40
7.0
  1
Verbundrohr
 41
0.8
  7
GREEKS
100
AcDbText
  0
TEXT
  5
1DF
330
1E
100
AcDbEntity
  8
TEXT
100
AcDbText
 10
225.1296391125315
 20
72.50168891988375
 30
0.0
 40
5.0
  1
Abgleichstück DN80/50
 41
0.8
  7
GREEKS
100
AcDbText
  0
TEXT
  5
1E0
330
1E
100
AcDbEntity
  8
TEXT
100
AcDbText
 10
225.1296391125315
 20
51.64011943042158
 30
0.0
 40
5.0
  1
EDV-Art.Nr. 58602.MB0X
 41
0.8
  7
GREEKS
100
AcDbText
  0
TEXT
  5
1E1
330
1E
100
AcDbEntity
  8
TEXT
100
AcDbText
 10
224.9837501577827
 20
42.62974153022634
 30
0.0
 40
3.6
  1
58602MB0W.DWG
 41
0.8
  7
GREEKS
100
AcDbText
  0
INSERT
  5
1E2
330
1E
100
AcDbEntity
  8
STEMPEL
100
AcDbBlockReference
  2
LOGO
 10
140.9955485457794
 20
45.02105276448321
 30
0.0
 41
2.0
 42
2.0
 43
2.0
  0
TEXT
  5
1E4
330
1E
100
AcDbEntity
  8
VOLL
100
AcDbText
 10
339.7958237333797
 20
71.91957633833147
 30
0.0
 40
1.8
  1

  7
GREEKS
100
AcDbText
  0
TEXT
  5
1E5
330
1E
100
AcDbEntity
  8
TEXT
100
AcDbText
 10
671.6280919369726
 20
77.47781187155701
 30
0.0
 40
2.5
  1
  
  7
GREEKS
 72
     1
 11
673.8899966988774
 21
77.47781187155701
 31
0.0
100
AcDbText
  0
TEXT
  5
1E6
330
1E
100
AcDbEntity
  8
BEM
100
AcDbText
 10
915.7478092494546
 20
213.0366939019592
 30
0.0
 40
2.5
  1
 
 72
     4
 11
916.878761630407
 21
213.0366939019592
 31
0.0
100
AcDbText
  0
TEXT
  5
1E8
330
1E
100
AcDbEntity
  8
BEM
100
AcDbText
 10
454.2848421115471
 20
134.8585024391051
 30
0.0
 40
2.5
  1

  7
GREEKS
100
AcDbText
  0
TEXT
  5
1E9
330
1E
100
AcDbEntity
  8
VOLL
100
AcDbText
 10
440.2186490918256
 20
114.67524178207
 30
0.0
 40
1.8
  1

  7
GREEKS
100
AcDbText
  0
TEXT
  5
1EA
330
1E
100
AcDbEntity
  8
BEM
100
AcDbText
 10
474.7067139311102
 20
119.4009661052905
 30
0.0
 40
2.5
  1

 41
0.8
  7
GREEKS
100
AcDbText
  0
TEXT
  5
1EB
330
1E
100
AcDbEntity
  8
BEM
100
AcDbText
 10
474.7067139311102
 20
114.7071975512384
 30
0.0
 40
2.5
  1

 41
0.8
  7
GREEKS
100
AcDbText
  0
TEXT
  5
1EC
330
1E
100
AcDbEntity
  8
BEM
100
AcDbText
 10
474.7067139311102
 20
109.4693537325749
 30
0.0
 40
2.5
  1

 41
0.8
  7
GREEKS
100
AcDbText
  0
TEXT
  5
1ED
330
1E
100
AcDbEntity
  8
BEM
100
AcDbText
 10
474.6337694537358
 20
104.9641647824773
 30
0.0
 40
1.8
  1

 41
0.8
  7
GREEKS
100
AcDbText
  0
TEXT
  5
1EE
330
1E
100
AcDbEntity
  8
BEM
100
AcDbText
 10
461.9501985741246
 20
130.5557538787025
 30
0.0
 40
2.0
  1

 41
0.8
  7
GREEKS
 72
     1
 11
461.9501985741246
 21
130.5557538787025
 31
0.0
100
AcDbText
  0
TEXT
  5
1EF
330
1E
100
AcDbEntity
  8
TEXT
100
AcDbText
 10
772.0509172954185
 20
120.2334773152955
 30
0.0
 40
2.5
  1
  
  7
GREEKS
 72
     1
 11
774.3128220573233
 21
120.2334773152955
 31
0.0
100
AcDbText
  0
TEXT
  5
1F0
330
1E
100
AcDbEntity
  8
BEM
100
AcDbText
 10
1016.1706346079
 20
255.7923593456977
 30
0.0
 40
2.5
  1
 
 72
     4
 11
1017.301586988853
 21
255.7923593456977
 31
0.0
100
AcDbText
  0
TEXT
  5
1F1
330
1E
100
AcDbEntity
  8
VOLL
100
AcDbText
 10
228.6383494536079
 20
31.18631511162239
 30
0.0
 40
1.8
  1

  7
GREEKS
100
AcDbText
  0
TEXT
  5
1F2
330
1E
100
AcDbEntity
  8
TEXT
100
AcDbText
 10
560.4706176572007
 20
36.74455064484793
 30
0.0
 40
2.5
  1
  
  7
GREEKS
 72
     1
 11
562.7325224191056
 21
36.74455064484793
 31
0.0
100
AcDbText
  0
TEXT
  5
1F3
330
1E
100
AcDbEntity
  8
BEM
100
AcDbText
 10
804.5903349696828
 20
172.3034326752502
 30
0.0
 40
2.5
  1
 
 72
     4
 11
805.7212873506353
 21
172.3034326752502
 31
0.0
100
AcDbText
  0
TEXT
  5
1F4
330
1E
100
AcDbEntity
  8
BEM
100
AcDbText
 10
393.9839625332579
 20
71.33954581020805
 30
0.0
 40
2.5
  1

  7
GREEKS
100
AcDbText
  0
TEXT
  5
1F5
330
1E
100
AcDbEntity
  8
VOLL
100
AcDbText
 10
379.9177695135364
 20
51.15628515317294
 30
0.0
 40
1.8
  1

  7
GREEKS
100
AcDbText
  0
TEXT
  5
1F6
330
1E
100
AcDbEntity
  8
BEM
100
AcDbText
 10
414.4058343528211
 20
55.88200947639354
 30
0.0
 40
2.5
  1

 41
0.8
  7
GREEKS
100
AcDbText
  0
TEXT
  5
1F7
330
1E
100
AcDbEntity
  8
BEM
100
AcDbText
 10
414.4058343528211
 20
51.18824092234138
 30
0.0
 40
2.5
  1

 41
0.8
  7
GREEKS
100
AcDbText
  0
TEXT
  5
1F8
330
1E
100
AcDbEntity
  8
BEM
100
AcDbText
 10
414.4058343528211
 20
45.95039710367788
 30
0.0
 40
2.5
  1

 41
0.8
  7
GREEKS
100
AcDbText
  0
TEXT
  5
1F9
330
1E
100
AcDbEntity
  8
BEM
100
AcDbText
 10
414.3328898754466
 20
41.44520815358026
 30
0.0
 40
1.8
  1

 41
0.8
  7
GREEKS
100
AcDbText
  0
TEXT
  5
1FA
330
1E
100
AcDbEntity
  8
BEM
100
AcDbText
 10
401.6493189958354
 20
67.03679724980554
 30
0.0
 40
2.0
  1

 41
0.8
  7
GREEKS
 72
     1
 11
401.6493189958354
 21
67.03679724980554
 31
0.0
100
AcDbText
  0
TEXT
  5
1FB
330
1E
100
AcDbEntity
  8
TEXT
100
AcDbText
 10
711.7500377171293
 20
56.71452068639848
 30
0.0
 40
2.5
  1
  
  7
GREEKS
 72
     1
 11
714.0119424790341
 21
56.71452068639848
 31
0.0
100
AcDbText
  0
TEXT
  5
1FC
330
1E
100
AcDbEntity
  8
BEM
100
AcDbText
 10
955.8697550296114
 20
192.2734027168007
 30
0.0
 40
2.5
  1
 
 72
     4
 11
957.0007074105637
 21
192.2734027168007
 31
0.0
100
AcDbText
  0
TEXT
  5
24B
330
1E
100
AcDbEntity
  8
TEXT
 62
     1
100
AcDbText
 10
79.72085016327972
 20
219.3150212575995
 30
0.0
 40
7.0
  1
Rohrende leicht eingezogen
 41
0.8
  7
GREEKS
100
AcDbText
  0
TEXT
  5
26A
330
1E
100
AcDbEntity
  8
TEXT
100
AcDbText
 10
184.2858954734051
 20
90.23051188311759
 30
0.0
 40
4.0
  1
DIN EN1123-2
 41
0.8
  7
GREEKS
100
AcDbText
  0
TEXT
  5
2ED
330
1E
100
AcDbEntity
  8
TEXT
100
AcDbText
 10
99.98381106419387
 20
18.97240706006074
 30
0.0
 40
4.0
  1
Tag
 41
0.8
  7
GREEKS
 72
     4
 11
103.7171443975272
 21
20.30574039339407
 31
0.0
100
AcDbText
  0
TEXT
  5
2EE
330
1E
100
AcDbEntity
  8
TEXT
100
AcDbText
 10
118.0779538781902
 20
18.30574039339407
 30
0.0
 40
4.0
  1
Name
 41
0.8
  7
GREEKS
 72
     4
 11
124.4017634019997
 21
20.30574039339407
 31
0.0
100
AcDbText
  0
TEXT
  5
54A
330
1E
100
AcDbEntity
  8
VOLL
100
AcDbText
 10
305.2666505177693
 20
60.9917365573275
 30
0.0
 40
1.8
  1

  7
GREEKS
100
AcDbText
  0
TEXT
  5
558
330
1E
100
AcDbEntity
  8
BEM
100
AcDbText
 10
779.8708637178527
 20
75.83979991258411
 30
0.0
 40
2.5
  1

 41
0.8
  7
GREEKS
 72
     4
 11
779.8708637178527
 21
75.83979991258411
 31
0.0
100
AcDbText
  0
TEXT
  5
6F0
330
1E
100
AcDbEntity
  8
TEXT
100
AcDbText
 10
416.5811541437436
 20
12.14804815338303
 30
0.0
 40
4.0
  1
Diese Zeichnung ist urheberrechtlich geschützt und bleibt unser Eigentum. Sie darf weder ganz noch teilweise vervielfältigt und nicht an Dritte weitergegeben werden.
 50
90.0
 41
0.8
  7
GREEKS
100
AcDbText
  0
TEXT
  5
6FA
330
1E
100
AcDbEntity
  8
TEXT
 62
     1
100
AcDbText
 10
245.030129115258
 20
129.7422179729062
 30
0.0
 40
7.0
  1
und innenbeschichtet
 41
0.8
  7
GREEKS
100
AcDbText
  0
TEXT
  5
6FB
330
1E
100
AcDbEntity
  8
TEXT
 62
     1
100
AcDbText
 10
189.8811895945471
 20
117.1473825875242
 30
0.0
 40
7.0
  1
Dämmung: 2 K-PU-Schaum
 41
0.8
  7
GREEKS
100
AcDbText
  0
TEXT
  5
6FC
330
1E
100
AcDbEntity
  8
TEXT
 62
     1
100
AcDbText
 10
197.3756002392442
 20
141.011271812132
 30
0.0
 40
7.0
  1
Innenrohr: E195 EN10305 feuerverzinkt
 41
0.8
  7
GREEKS
100
AcDbText
  0
TEXT
  5
6FD
330
1E
100
AcDbEntity
  8
TEXT
 62
     1
100
AcDbText
 10
193.6033828683802
 20
152.364339848487
 30
0.0
 40
7.0
  1
Außenrohr: E195 EN10305 feuerverzinkt
 41
0.8
  7
GREEKS
100
AcDbText
  0
DIMENSION
  5
CA9
330
1E
100
AcDbEntity
  8
BEM
100
AcDbDimension
  2
*D3
 10
270.9494480224008
 20
238.639430920315
 30
0.0
 11
226.4494480224008
 21
245.139430920315
 31
0.0
 70
    32
 71
     5
 42
89.0
  3
Standard
100
AcDbAlignedDimension
 13
181.9494480224008
 23
304.7933855478618
 33
0.0
 14
270.9494480224008
 24
304.7933855478618
 34
0.0
100
AcDbRotatedDimension
1001
ACAD
1000
DSTYLE
1002
{
1070
    40
1040
2.0
1070
    41
1040
3.5
1070
    42
1040
1.0
1070
    43
1040
7.0
1070
    44
1040
1.0
1070
    47
1040
0.15
1070
    48
1040
0.15
1070
    73
1070
     0
1070
    74
1070
     0
1070
    77
1070
     1
1070
    78
1070
     8
1070
    79
1070
     2
1070
   140
1040
3.5
1070
   141
1040
1.5
1070
   146
1040
0.5142857142857144
1070
   147
1040
1.5
1070
   172
1070
     1
1070
   178
1070
     1
1070
   179
1070
     2
1070
   271
1070
     2
1070
   272
1070
     2
1070
   284
1070
     8
1070
   285
1070
     8
1070
   286
1070
     8
1002
}
  0
DIMENSION
  5
CAA
330
1E
100
AcDbEntity
  8
BEM
100
AcDbDimension
  2
*D4
 10
252.9494480224008
 20
257.4311182615428
 30
0.0
 11
226.4494480224008
 21
263.9311182615428
 31
0.0
 70
    32
 71
     5
 42
53.0
  3
Standard
100
AcDbAlignedDimension
 13
199.9494480224008
 23
286.7278941334994
 33
0.0
 14
252.9494480224008
 24
286.7278941334991
 34
0.0
100
AcDbRotatedDimension
1001
ACAD
1000
DSTYLE
1002
{
1070
    40
1040
2.0
1070
    41
1040
3.5
1070
    42
1040
1.0
1070
    43
1040
7.0
1070
    44
1040
1.0
1070
    47
1040
0.15
1070
    48
1040
0.15
1070
    73
1070
     0
1070
    74
1070
     0
1070
    77
1070
     1
1070
    78
1070
     8
1070
    79
1070
     2
1070
   140
1040
3.5
1070
   141
1040
1.5
1070
   146
1040
0.5142857142857144
1070
   147
1040
1.5
1070
   172
1070
     1
1070
   178
1070
     1
1070
   179
1070
     2
1070
   271
1070
     2
1070
   272
1070
     2
1070
   284
1070
     8
1070
   285
1070
     8
1070
   286
1070
     8
1002
}
  0
DIMENSION
  5
CAB
330
1E
100
AcDbEntity
  8
BEM
100
AcDbDimension
  2
*D5
 10
292.9494480224009
 20
470.587318636455
 30
0.0
 11
226.4494480224009
 21
477.087318636455
 31
0.0
 70
    32
  1
%%c<>
 71
     5
 42
132.9999999999999
  3
Standard
100
AcDbAlignedDimension
 13
159.9494480224009
 23
454.793385547862
 33
0.0
 14
292.9494480224009
 24
454.7933855478616
 34
0.0
100
AcDbRotatedDimension
1001
ACAD
1000
DSTYLE
1002
{
1070
    40
1040
2.0
1070
    41
1040
3.5
1070
    42
1040
1.0
1070
    43
1040
7.0
1070
    44
1040
1.0
1070
    47
1040
0.15
1070
    48
1040
0.15
1070
    73
1070
     0
1070
    74
1070
     0
1070
    77
1070
     1
1070
    78
1070
     8
1070
    79
1070
     2
1070
   140
1040
3.5
1070
   141
1040
1.5
1070
   146
1040
0.5142857142857144
1070
   147
1040
1.5
1070
   172
1070
     1
1070
   178
1070
     1
1070
   179
1070
     2
1070
   271
1070
     2
1070
   272
1070
     2
1070
   284
1070
     8
1070
   285
1070
     8
1070
   286
1070
     8
1002
}
  0
HATCH
  5
CAC
330
1E
100
AcDbEntity
  8
SCHRAFF
100
AcDbHatch
 10
0.0
 20
0.0
 30
0.0
210
0.0
220
0.0
230
1.0
  2
HONEY
 70
     0
 71
     0
 91
        2
 92
        7
 72
     1
 73
     1
 93
       23
 10
290.4494480224009
 20
391.0353122054384
 42
0.0
 10
290.4494480224009
 20
440.7933855478615
 42
0.0
 10
277.549448022401
 20
440.7933855478616
 42
0.0
 10
277.549448022401
 20
435.2298106053632
 42
-0.1111415761516322
 10
275.1681316144623
 20
424.5125956466125
 42
0.1092369723633936
 10
274.0494480224009
 20
419.4532524846669
 42
0.0
 10
274.0494480224009
 20
400.1821119652789
 42
-0.1420008527982254
 10
272.1894480224011
 20
393.7649163160878
 42
0.1420008527982433
 10
270.9494480224008
 20
389.4867858832932
 42
0.0
 10
270.9494480224008
 20
387.8243529843923
 42
-0.1571220570869217
 10
268.3913306539956
 20
379.884779447351
 42
0.0
 10
267.2008245379246
 20
378.22909495189
 42
-0.9794689580453292
 10
263.8005985179721
 20
373.2871343011299
 42
0.0
 10
254.9244430354737
 20
359.7953779677323
 42
0.1465112972333422
 10
252.9494480224009
 20
353.1999799500169
 42
0.0
 10
252.9494480224009
 20
322.7933855478618
 42
0.0
 10
268.7907157105329
 20
322.7933855478618
 42
0.0
 10
269.3494480224009
 20
306.7933855478642
 42
0.0
 10
269.3494480224009
 20
349.4672285189048
 42
-0.1773905467675676
 10
274.460304258428
 20
363.4195809345741
 42
0.0
 10
279.8535235465946
 20
369.793385547862
 42
0.0
 10
278.6745660289537
 20
369.7933855478619
 42
0.0
 10
285.7171737297833
 20
378.1164673761151
 42
0.1773905467675657
 97
        0
 92
        7
 72
     1
 73
     1
 93
       23
 10
178.8494480224009
 20
419.4532524846668
 42
0.1092369723636953
 10
177.7307644303334
 20
424.5125956466253
 42
-0.1111415761514891
 10
175.3494480224009
 20
435.2298106053632
 42
0.0
 10
175.3494480224009
 20
440.793385547862
 42
0.0
 10
162.4494480224009
 20
440.7933855478621
 42
0.0
 10
162.4494480224008
 20
391.0353122054385
 42
0.1773905467675683
 10
167.1817223150185
 20
378.1164673761151
 42
0.0
 10
174.2243300158481
 20
369.793385547862
 42
0.0
 10
173.0453724982071
 20
369.793385547862
 42
0.0
 10
178.4385917863737
 20
363.4195809345741
 42
-0.1773905467675702
 10
183.5494480224008
 20
349.4672285189047
 42
0.0
 10
183.5494480224008
 20
306.7933855478596
 42
0.0
 10
184.1081803342689
 20
322.7933855478616
 42
0.0
 10
199.9494480224008
 20
322.7933855478618
 42
0.0
 10
199.9494480224008
 20
353.1999799500173
 42
0.1465112972333424
 10
197.9744530093281
 20
359.7953779677327
 42
0.0
 10
189.0982975268298
 20
373.2871343011299
 42
-0.9794689580457255
 10
185.698071506877
 20
378.2290949518899
 42
0.0
 10
184.507565390806
 20
379.884779447351
 42
-0.1571220570869208
 10
181.9494480224008
 20
387.8243529843922
 42
0.0
 10
181.9494480224008
 20
389.4867858832934
 42
0.142000852798228
 10
180.7094480224009
 20
393.7649163160876
 42
-0.1420008527982294
 10
178.8494480224009
 20
400.1821119652789
 42
0.0
 97
        0
 75
     0
 76
     1
 52
0.0
 41
20.0
 77
     0
 78
     3
 53
0.0
 43
15.57573760703019
 44
-37.438234847231
 45
3.75
 46
2.1650635
 79
     2
 49
2.5
 49
-5.0
 53
120.0
 43
15.57573760703019
 44
-37.438234847231
 45
-3.749999991806449
 46
2.165063514191645
 79
     2
 49
2.499999999999997
 49
-4.999999999999994
 53
60.0
 43
15.57573760703019
 44
-37.438234847231
 45
0.0000000081935508
 46
4.330127014191645
 79
     2
 49
-5.0
 49
2.5
 47
0.4202467223983011
 98
        2
 10
277.1248078292971
 20
389.2144971873557
 10
170.7233703462749
 20
401.8218988537731
  0
HATCH
  5
CAD
330
1E
100
AcDbEntity
  8
SCHRAFF
100
AcDbHatch
 10
0.0
 20
0.0
 30
0.0
210
0.0
220
0.0
230
1.0
  2
_USER
 70
     0
 71
     1
 91
        2
 92
        7
 72
     1
 73
     1
 93
        8
 10
292.9494480224009
 20
454.7933855478616
 42
0.0
 10
290.4494480224009
 20
454.7933855478617
 42
0.0
 10
290.4494480224009
 20
391.0353122054384
 42
-0.1773905467675695
 10
285.7171737297832
 20
378.1164673761149
 42
0.0
 10
278.6745660289536
 20
369.7933855478619
 42
0.0
 10
281.9494480224009
 20
369.7933855478619
 42
0.0
 10
287.625639443206
 20
376.5016117724496
 42
0.1773905467675672
 10
292.9494480224009
 20
391.0353122054384
 42
0.0
 97
        8
330
CBB
330
D37
330
D3A
330
D0A
330
D24
330
D0B
330
D3B
330
D38
 92
        7
 72
     1
 73
     1
 93
        8
 10
159.9494480224009
 20
391.0353122054385
 42
0.1773905467675708
 10
165.2732566015959
 20
376.5016117724495
 42
0.0
 10
170.9494480224009
 20
369.7933855478619
 42
0.0
 10
174.224330015848
 20
369.7933855478619
 42
0.0
 10
167.1817223150185
 20
378.1164673761152
 42
-0.1773905467675671
 10
162.4494480224008
 20
391.0353122054385
 42
0.0
 10
162.4494480224009
 20
454.793385547862
 42
0.0
 10
159.9494480224009
 20
454.793385547862
 42
0.0
 97
        8
330
CBB
330
CCB
330
CCD
330
CC7
330
CC6
330
CC4
330
CCC
330
CCA
 75
     0
 76
     0
 52
45.0
 41
2.0
 77
     0
 78
     1
 53
45.0
 43
15.57573760703019
 44
-37.438234847231
 45
-1.414213562373094
 46
1.414213562373095
 79
     0
 47
0.4202467223983011
 98
        2
 10
291.8443763214305
 20
418.6317682088223
 10
161.0505119015034
 20
419.472260906862
  0
HATCH
  5
CAE
330
1E
100
AcDbEntity
  8
SCHRAFF
100
AcDbHatch
 10
0.0
 20
0.0
 30
0.0
210
0.0
220
0.0
230
1.0
  2
_USER
 70
     0
 71
     1
 91
        2
 92
        7
 72
     1
 73
     1
 93
        8
 10
183.5494480224008
 20
349.4672285189049
 42
0.1773905467675674
 10
178.4385917863737
 20
363.4195809345741
 42
0.0
 10
173.0453724982071
 20
369.793385547862
 42
0.0
 10
170.9494480224008
 20
369.793385547862
 42
0.0
 10
177.2171737297831
 20
362.3860733482284
 42
-0.1773905467675705
 10
181.9494480224009
 20
349.4672285189048
 42
0.0
 10
181.9494480224008
 20
306.7933855478619
 42
0.0
 10
183.5494480224008
 20
306.7933855478619
 42
0.0
 97
        8
330
CE3
330
CC3
330
CC6
330
CC5
330
CE4
330
CD1
330
CD6
330
CD2
 92
        7
 72
     1
 73
     1
 93
        8
 10
269.3494480224008
 20
306.7933855478619
 42
0.0
 10
270.9494480224008
 20
306.7933855478619
 42
0.0
 10
270.9494480224008
 20
349.4672285189048
 42
-0.1773905467675699
 10
275.6817223150186
 20
362.3860733482284
 42
0.0
 10
281.9494480224009
 20
369.7933855478619
 42
0.0
 10
279.8535235465946
 20
369.7933855478619
 42
0.0
 10
274.460304258428
 20
363.4195809345741
 42
0.1773905467675701
 10
269.3494480224009
 20
349.4672285189046
 42
0.0
 97
        8
330
D0F
330
D25
330
D24
330
D26
330
D10
330
D12
330
D17
330
D11
 75
     0
 76
     0
 52
135.0
 41
2.0
 77
     0
 78
     1
 53
135.0
 43
15.57573760703019
 44
-37.438234847231
 45
-1.414213562373095
 46
-1.414213562373094
 79
     0
 47
0.4202467223983011
 98
        2
 10
182.9195824623613
 20
339.6253832197254
 10
269.9753057605727
 20
332.9014360374969
  0
HATCH
  5
CB0
330
1E
100
AcDbEntity
  8
SCHRAFF
100
AcDbHatch
 10
0.0
 20
0.0
 30
0.0
210
0.0
220
0.0
230
1.0
  2
NET
 70
     0
 71
     0
 91
        2
 92
        7
 72
     1
 73
     1
 93
        6
 10
277.549448022401
 20
442.188634085291
 42
0.0
 10
277.549448022401
 20
440.7933855478616
 42
0.0
 10
290.4494480224009
 20
440.7933855478616
 42
0.0
 10
290.4494480224009
 20
454.7933855478617
 42
0.0
 10
274.2148526927408
 20
454.7933855478617
 42
0.0
 10
275.2446195835022
 20
452.5850433241126
 42
-0.1095178116832467
 97
        0
 92
        7
 72
     1
 73
     1
 93
        6
 10
177.6542764612994
 20
452.5850433241126
 42
0.0
 10
178.6840433520609
 20
454.7933855478619
 42
0.0
 10
162.4494480224009
 20
454.793385547862
 42
0.0
 10
162.4494480224009
 20
440.7933855478621
 42
0.0
 10
175.3494480224009
 20
440.793385547862
 42
0.0
 10
175.3494480224009
 20
442.188634085291
 42
-0.109517811683247
 97
        0
 75
     0
 76
     1
 52
45.0
 41
15.0
 77
     0
 78
     2
 53
45.0
 43
15.57573760703019
 44
-37.438234847231
 45
-1.325825214724776
 46
1.325825214724776
 79
     0
 53
135.0
 43
15.57573760703019
 44
-37.438234847231
 45
-1.325825214724776
 46
-1.325825214724776
 79
     0
 47
0.4319590953638249
 98
        2
 10
282.1142206210976
 20
449.3486722829837
 10
170.5859491016728
 20
447.6208340322085
  0
INSERT
  5
CB1
330
1E
100
AcDbEntity
  8
SCHRAFF
100
AcDbBlockReference
  2
*X2
 10
8.438343841696564
 20
11.88742164412042
 30
0.0
1001
ACAD
1000
HATCH
1002
{
1070
    16
1000
_U,I
1040
0.1
1040
2.356194490192344
1070
     0
1002
}
  0
LINE
  5
CB6
330
1E
100
AcDbEntity
  8
HILF
100
AcDbLine
 10
250.3862259816098
 20
356.7933855478618
 30
0.0
 11
202.5126700631919
 21
356.793385547862
 31
0.0
  0
LINE
  5
CB7
330
1E
100
AcDbEntity
  8
HILF
100
AcDbLine
 10
249.9494480224008
 20
286.7933855478618
 30
0.0
 11
202.9494480224008
 21
286.7933855478619
 31
0.0
  0
LINE
  5
CB9
102
{ACAD_REACTORS
330
E3F
102
}
330
1E
100
AcDbEntity
  8
STEMPEL
100
AcDbLine
 10
252.0802911434565
 20
276.7933855478618
 30
0.0
 11
200.8186049013451
 21
276.793385547862
 31
0.0
  0
LINE
  5
CBA
102
{ACAD_REACTORS
330
E3F
330
E77
102
}
330
1E
100
AcDbEntity
  8
STEMPEL
100
AcDbLine
 10
265.4494480224008
 20
375.7933855478617
 30
0.0
 11
187.4494480224008
 21
375.793385547862
 31
0.0
  0
LINE
  5
CBB
102
{ACAD_REACTORS
330
CAD
330
E77
102
}
330
1E
100
AcDbEntity
  8
STEMPEL
100
AcDbLine
 10
292.9494480224009
 20
454.7933855478616
 30
0.0
 11
159.9494480224009
 21
454.793385547862
 31
0.0
  0
DIMENSION
  5
CBC
330
1E
100
AcDbEntity
  8
BEM
100
AcDbDimension
  2
*D6
 10
145.0816500949896
 20
276.793385547862
 30
0.0
 11
138.5816500949896
 21
365.7933855478621
 31
0.0
 70
    32
 71
     5
 42
178.0000000000001
  3
Standard
100
AcDbAlignedDimension
 13
159.9494480224009
 23
454.793385547862
 33
0.0
 14
200.8186049013451
 24
276.793385547862
 34
0.0
 50
90.0
100
AcDbRotatedDimension
1001
ACAD
1000
DSTYLE
1002
{
1070
    40
1040
2.0
1070
    41
1040
3.5
1070
    42
1040
1.0
1070
    43
1040
7.0
1070
    44
1040
1.0
1070
    47
1040
0.15
1070
    48
1040
0.15
1070
    73
1070
     0
1070
    74
1070
     0
1070
    77
1070
     1
1070
    78
1070
     8
1070
    79
1070
     2
1070
   140
1040
3.5
1070
   141
1040
1.5
1070
   146
1040
0.5142857142857144
1070
   147
1040
1.5
1070
   172
1070
     1
1070
   178
1070
     1
1070
   179
1070
     2
1070
   271
1070
     2
1070
   272
1070
     2
1070
   284
1070
     8
1070
   285
1070
     8
1070
   286
1070
     8
1002
}
  0
LINE
  5
CBD
102
{ACAD_REACTORS
330
E3F
102
}
330
1E
100
AcDbEntity
  8
STEMPEL
100
AcDbLine
 10
199.9494480224008
 20
286.7278941334994
 30
0.0
 11
200.8186049013451
 21
276.793385547862
 31
0.0
  0
LINE
  5
CBE
102
{ACAD_REACTORS
330
E3F
102
}
330
1E
100
AcDbEntity
  8
STEMPEL
100
AcDbLine
 10
201.4494480224008
 20
286.7933855478622
 30
0.0
 11
202.3243346576601
 21
276.793385547862
 31
0.0
  0
LINE
  5
CBF
330
1E
100
AcDbEntity
  8
MITTEL
100
AcDbLine
 10
226.4494480224009
 20
459.7933855478619
 30
0.0
 11
226.4494480224008
 21
271.7933855478619
 31
0.0
  0
LINE
  5
CC2
330
1E
100
AcDbEntity
  8
STEMPEL
100
AcDbLine
 10
175.3494480224009
 20
440.793385547862
 30
0.0
 11
162.4494480224009
 21
440.7933855478621
 31
0.0
  0
LINE
  5
CC3
102
{ACAD_REACTORS
330
CAE
102
}
330
1E
100
AcDbEntity
  8
STEMPEL
100
AcDbLine
 10
173.0453724982071
 20
369.7933855478619
 30
0.0
 11
178.4385917863737
 21
363.4195809345741
 31
0.0
  0
LINE
  5
CC4
102
{ACAD_REACTORS
330
CAD
102
}
330
1E
100
AcDbEntity
  8
STEMPEL
100
AcDbLine
 10
167.1817223150185
 20
378.1164673761152
 30
0.0
 11
174.2243300158482
 21
369.7933855478619
 31
0.0
  0
LINE
  5
CC5
102
{ACAD_REACTORS
330
CAE
330
CC8
102
}
330
1E
100
AcDbEntity
  8
STEMPEL
100
AcDbLine
 10
170.9494480224009
 20
369.7933855478619
 30
0.0
 11
177.2171737297831
 21
362.3860733482284
 31
0.0
  0
LINE
  5
CC6
102
{ACAD_REACTORS
330
CAE
330
CAD
102
}
330
1E
100
AcDbEntity
  8
STEMPEL
100
AcDbLine
 10
174.224330015848
 20
369.793385547862
 30
0.0
 11
170.9494480224008
 21
369.7933855478619
 31
0.0
  0
LINE
  5
CC7
102
{ACAD_REACTORS
330
CAD
330
CC8
102
}
330
1E
100
AcDbEntity
  8
STEMPEL
100
AcDbLine
 10
165.2732566015958
 20
376.5016117724497
 30
0.0
 11
170.9494480224009
 21
369.7933855478619
 31
0.0
  0
HATCH
  5
CC8
330
1E
100
AcDbEntity
  8
SCHRAFF
100
AcDbHatch
 10
0.0
 20
0.0
 30
0.0
210
0.0
220
0.0
230
1.0
  2
_USER
 70
     0
 71
     1
 91
        1
 92
        7
 72
     1
 73
     1
 93
        3
 10
168.4109864839393
 20
372.7933855478618
 42
0.4609726903787209
 10
173.4879095608624
 20
366.7933855478619
 42
0.0
 10
170.9494480224009
 20
369.7933855478619
 42
0.0
 97
        3
330
CC9
330
CC5
330
CC7
 75
     0
 76
     0
 52
0.0
 41
0.1
 77
     0
 78
     1
 53
0.0
 43
29.84185219033463
 44
-37.438234847231
 45
0.0
 46
0.1
 79
     0
 47
0.0283863964850914
 98
        1
 10
169.9281896423159
 20
369.8752510862468
  0
ARC
  5
CC9
102
{ACAD_REACTORS
330
CC8
102
}
330
1E
100
AcDbEntity
  8
SCHRAFF
100
AcDbCircle
 10
173.5119778484454
 20
371.9616800160535
 30
0.0
 40
5.168350509824833
100
AcDbArc
 50
170.7395360380772
 51
269.7331805804727
  0
LINE
  5
CCA
102
{ACAD_REACTORS
330
CAD
102
}
330
1E
100
AcDbEntity
  8
STEMPEL
100
AcDbLine
 10
162.4494480224009
 20
454.793385547862
 30
0.0
 11
162.4494480224008
 21
391.0353122054385
 31
0.0
  0
LINE
  5
CCB
102
{ACAD_REACTORS
330
CAD
102
}
330
1E
100
AcDbEntity
  8
STEMPEL
100
AcDbLine
 10
159.9494480224009
 20
454.793385547862
 30
0.0
 11
159.9494480224009
 21
391.0353122054385
 31
0.0
  0
ARC
  5
CCC
102
{ACAD_REACTORS
330
CAD
102
}
330
1E
100
AcDbEntity
  8
STEMPEL
100
AcDbCircle
 10
182.4494480224009
 20
391.0353122054385
 30
0.0
 40
20.0
100
AcDbArc
 50
180.0
 51
220.2363583092739
  0
ARC
  5
CCD
102
{ACAD_REACTORS
330
CAD
102
}
330
1E
100
AcDbEntity
  8
STEMPEL
100
AcDbCircle
 10
182.4494480224009
 20
391.0353122054385
 30
0.0
 40
22.5
100
AcDbArc
 50
180.0
 51
220.2363583092739
  0
ARC
  5
CCE
330
1E
100
AcDbEntity
  8
SCHRAFF
100
AcDbCircle
 10
187.4494480224009
 20
375.7933855478617
 30
0.0
 40
3.0
100
AcDbArc
 50
125.7177082445918
 51
303.340707346478
  0
LINE
  5
CCF
102
{ACAD_REACTORS
330
E3F
102
}
330
1E
100
AcDbEntity
  8
STEMPEL
100
AcDbLine
 10
199.2275786326939
 20
360.6198027199471
 30
0.0
 11
189.244958351171
 21
375.7933855478619
 31
0.0
  0
LINE
  5
CD0
102
{ACAD_REACTORS
330
E3F
102
}
330
1E
100
AcDbEntity
  8
STEMPEL
100
AcDbLine
 10
197.9744530093281
 20
359.7953779677327
 30
0.0
 11
187.4494480224008
 21
375.793385547862
 31
0.0
  0
LINE
  5
CD1
102
{ACAD_REACTORS
330
CAE
102
}
330
1E
100
AcDbEntity
  8
STEMPEL
100
AcDbLine
 10
181.9494480224009
 20
349.4672285189049
 30
0.0
 11
181.9494480224008
 21
304.7933855478619
 31
0.0
  0
LINE
  5
CD2
102
{ACAD_REACTORS
330
CAE
102
}
330
1E
100
AcDbEntity
  8
STEMPEL
100
AcDbLine
 10
183.5494480224008
 20
349.4672285189049
 30
0.0
 11
183.5494480224008
 21
306.7933855478618
 31
0.0
  0
LINE
  5
CD3
102
{ACAD_REACTORS
330
E3F
102
}
330
1E
100
AcDbEntity
  8
STEMPEL
100
AcDbLine
 10
201.4494480224008
 20
353.1999799500173
 30
0.0
 11
201.4494480224008
 21
286.7933855478622
 31
0.0
  0
LINE
  5
CD4
102
{ACAD_REACTORS
330
E3F
102
}
330
1E
100
AcDbEntity
  8
STEMPEL
100
AcDbLine
 10
199.9494480224008
 20
353.1999799500173
 30
0.0
 11
199.9494480224008
 21
286.7278941334994
 31
0.0
  0
LINE
  5
CD5
330
1E
100
AcDbEntity
  8
STEMPEL
100
AcDbLine
 10
199.9494480224008
 20
322.7933855478618
 30
0.0
 11
184.1081803342689
 21
322.7933855478617
 31
0.0
  0
LINE
  5
CD6
102
{ACAD_REACTORS
330
CAE
102
}
330
1E
100
AcDbEntity
  8
STEMPEL
100
AcDbLine
 10
183.5494480224008
 20
306.7933855478619
 30
0.0
 11
181.9494480224008
 21
306.7933855478619
 31
0.0
  0
LINE
  5
CD8
330
1E
100
AcDbEntity
  8
STEMPEL
100
AcDbLine
 10
183.5494480224009
 20
306.7933855478618
 30
0.0
 11
184.1081803342689
 21
322.7933855478618
 31
0.0
  0
POINT
  5
CD9
330
1E
100
AcDbEntity
  8
STEMPEL
100
AcDbPoint
 10
184.1081803342689
 20
322.7933855478618
 30
0.0
  0
POINT
  5
CDA
330
1E
100
AcDbEntity
  8
STEMPEL
100
AcDbPoint
 10
188.9494480224009
 20
322.7933855478618
 30
0.0
  0
LINE
  5
CDC
330
1E
100
AcDbEntity
  8
STEMPEL
100
AcDbLine
 10
199.9494480224008
 20
312.7933855478618
 30
0.0
 11
195.9494480224009
 21
312.7933855478618
 31
0.0
  0
POINT
  5
CDF
330
1E
100
AcDbEntity
  8
STEMPEL
100
AcDbPoint
 10
195.9494480224009
 20
312.7933855478618
 30
0.0
  0
POINT
  5
CE0
330
1E
100
AcDbEntity
  8
STEMPEL
100
AcDbPoint
 10
195.9494480224009
 20
312.7933855478618
 30
0.0
  0
POINT
  5
CE1
330
1E
100
AcDbEntity
  8
STEMPEL
100
AcDbPoint
 10
194.9494480224009
 20
322.7933855478618
 30
0.0
  0
ARC
  5
CE3
102
{ACAD_REACTORS
330
CAE
102
}
330
1E
100
AcDbEntity
  8
STEMPEL
100
AcDbCircle
 10
161.9494480224009
 20
349.4672285189049
 30
0.0
 40
21.6
100
AcDbArc
 50
0.0
 51
40.23635830927417
  0
ARC
  5
CE4
102
{ACAD_REACTORS
330
CAE
102
}
330
1E
100
AcDbEntity
  8
STEMPEL
100
AcDbCircle
 10
161.9494480224009
 20
349.4672285189049
 30
0.0
 40
20.0
100
AcDbArc
 50
0.0
 51
40.23635830927417
  0
ARC
  5
CE5
102
{ACAD_REACTORS
330
E3F
102
}
330
1E
100
AcDbEntity
  8
STEMPEL
100
AcDbCircle
 10
187.9494480224008
 20
353.1999799500173
 30
0.0
 40
12.0
100
AcDbArc
 50
0.0
 51
33.34070734647571
  0
ARC
  5
CE6
102
{ACAD_REACTORS
330
E3F
102
}
330
1E
100
AcDbEntity
  8
STEMPEL
100
AcDbCircle
 10
187.9494480224008
 20
353.1999799500173
 30
0.0
 40
13.5
100
AcDbArc
 50
0.0
 51
33.34070734647571
  0
TEXT
  5
CE7
330
1E
100
AcDbEntity
  8
TEXT
 62
     1
100
AcDbText
 10
222.5129131307487
 20
302.5705728429959
 30
0.0
 40
7.0
  1
DN50
 50
90.0
 41
0.8
  7
GREEKS
100
AcDbText
  0
INSERT
  5
CE8
330
1E
100
AcDbEntity
  8
SCHRAFF
100
AcDbBlockReference
  2
*X1
 10
8.438343841696564
 20
11.88742164412042
 30
0.0
1001
ACAD
1000
HATCH
1002
{
1070
    16
1000
_U,I
1040
2.0
1040
2.356194490192344
1070
     0
1002
}
  0
ARC
  5
CE9
102
{ACAD_REACTORS
330
E77
102
}
330
1E
100
AcDbEntity
  8
STEMPEL
100
AcDbCircle
 10
166.8494480224009
 20
419.4532524846668
 30
0.0
 40
12.0
100
AcDbArc
 50
0.0
 51
25.30772309807298
  0
ARC
  5
CEA
102
{ACAD_REACTORS
330
E77
102
}
330
1E
100
AcDbEntity
  8
STEMPEL
100
AcDbCircle
 10
166.8494480224009
 20
419.4532524846668
 30
0.0
 40
13.6
100
AcDbArc
 50
0.0
 51
25.29078705431738
  0
ARC
  5
CEB
102
{ACAD_REACTORS
330
E77
102
}
330
1E
100
AcDbEntity
  8
STEMPEL
100
AcDbCircle
 10
190.8494480224009
 20
400.1821119652789
 30
0.0
 40
12.0
100
AcDbArc
 50
180.0
 51
212.3280641221607
  0
ARC
  5
CEC
102
{ACAD_REACTORS
330
E77
102
}
330
1E
100
AcDbEntity
  8
STEMPEL
100
AcDbCircle
 10
190.8494480224009
 20
400.1821119652789
 30
0.0
 40
10.4
100
AcDbArc
 50
180.0
 51
212.3280641221607
  0
ARC
  5
CED
102
{ACAD_REACTORS
330
E77
102
}
330
1E
100
AcDbEntity
  8
STEMPEL
100
AcDbCircle
 10
195.5494480224008
 20
387.8243529843923
 30
0.0
 40
13.6
100
AcDbArc
 50
180.0
 51
215.717708244594
  0
ARC
  5
CEE
102
{ACAD_REACTORS
330
E77
102
}
330
1E
100
AcDbEntity
  8
STEMPEL
100
AcDbCircle
 10
173.9494480224008
 20
389.4867858832934
 30
0.0
 40
9.599999999999999
100
AcDbArc
 50
0.0
 51
32.32806412216066
  0
POINT
  5
CEF
330
1E
100
AcDbEntity
  8
STEMPEL
100
AcDbPoint
 10
181.9494480224008
 20
387.8243529843922
 30
0.0
  0
ARC
  5
CF0
102
{ACAD_REACTORS
330
E77
102
}
330
1E
100
AcDbEntity
  8
STEMPEL
100
AcDbCircle
 10
173.9494480224008
 20
389.4867858832934
 30
0.0
 40
8.0
100
AcDbArc
 50
0.0
 51
32.32806412216066
  0
LINE
  5
CF1
102
{ACAD_REACTORS
330
E77
102
}
330
1E
100
AcDbEntity
  8
STEMPEL
100
AcDbLine
 10
181.9494480224008
 20
389.4867858832934
 30
0.0
 11
181.9494480224008
 21
387.8243529843922
 31
0.0
  0
ARC
  5
CF2
102
{ACAD_REACTORS
330
E77
102
}
330
1E
100
AcDbEntity
  8
STEMPEL
100
AcDbCircle
 10
195.5494480224008
 20
387.8243529843923
 30
0.0
 40
12.0
100
AcDbArc
 50
180.0
 51
215.7177082445937
  0
LINE
  5
CF3
102
{ACAD_REACTORS
330
E77
102
}
330
1E
100
AcDbEntity
  8
STEMPEL
100
AcDbLine
 10
189.4201264588604
 20
375.7933855478618
 30
0.0
 11
185.8066104062878
 21
380.8188469222971
 31
0.0
  0
LINE
  5
CF4
102
{ACAD_REACTORS
330
E77
102
}
330
1E
100
AcDbEntity
  8
STEMPEL
100
AcDbLine
 10
187.4494480224008
 20
375.7933855478618
 30
0.0
 11
184.507565390806
 21
379.884779447351
 31
0.0
  0
POINT
  5
CF5
330
1E
100
AcDbEntity
  8
STEMPEL
100
AcDbPoint
 10
187.4494480224008
 20
375.793385547862
 30
0.0
  0
LINE
  5
CF6
102
{ACAD_REACTORS
330
E77
102
}
330
1E
100
AcDbEntity
  8
STEMPEL
100
AcDbLine
 10
183.5494480224008
 20
389.4867858832934
 30
0.0
 11
183.5494480224008
 21
387.8243529843924
 31
0.0
  0
LINE
  5
CF7
102
{ACAD_REACTORS
330
E77
102
}
330
1E
100
AcDbEntity
  8
STEMPEL
100
AcDbLine
 10
178.8494480224009
 20
419.4532524846668
 30
0.0
 11
178.8494480224009
 21
400.1821119652789
 31
0.0
  0
LINE
  5
CF8
102
{ACAD_REACTORS
330
E77
102
}
330
1E
100
AcDbEntity
  8
STEMPEL
100
AcDbLine
 10
180.4494480224008
 20
419.4532524846668
 30
0.0
 11
180.4494480224008
 21
400.1821119652789
 31
0.0
  0
POINT
  5
CF9
330
1E
100
AcDbEntity
  8
STEMPEL
100
AcDbPoint
 10
178.8494480224009
 20
400.1821119652789
 30
0.0
  0
ARC
  5
CFA
102
{ACAD_REACTORS
330
E77
102
}
330
1E
100
AcDbEntity
  8
STEMPEL
100
AcDbCircle
 10
199.9494480224008
 20
442.188634085291
 30
0.0
 40
23.0
100
AcDbArc
 50
155.0000000000079
 51
180.0
  0
ARC
  5
CFB
102
{ACAD_REACTORS
330
E77
102
}
330
1E
100
AcDbEntity
  8
STEMPEL
100
AcDbCircle
 10
199.9494480224008
 20
442.188634085291
 30
0.0
 40
24.6
100
AcDbArc
 50
155.0000000000036
 51
180.0
  0
ARC
  5
CFC
102
{ACAD_REACTORS
330
E77
102
}
330
1E
100
AcDbEntity
  8
STEMPEL
100
AcDbCircle
 10
200.3494480224009
 20
435.1615305570716
 30
0.0
 40
25.00009324312574
100
AcDbArc
 50
179.8435140454165
 51
205.0329424415429
  0
ARC
  5
CFD
102
{ACAD_REACTORS
330
E77
102
}
330
1E
100
AcDbEntity
  8
STEMPEL
100
AcDbCircle
 10
200.3494480224009
 20
435.1615305570716
 30
0.0
 40
23.40009324312573
100
AcDbArc
 50
179.8382525685294
 51
205.0239971925797
  0
LINE
  5
CFE
102
{ACAD_REACTORS
330
E77
102
}
330
1E
100
AcDbEntity
  8
STEMPEL
100
AcDbLine
 10
176.9494480224008
 20
442.188634085291
 30
0.0
 11
176.9494480224008
 21
435.2275895230746
 31
0.0
  0
LINE
  5
CFF
102
{ACAD_REACTORS
330
E77
102
}
330
1E
100
AcDbEntity
  8
STEMPEL
100
AcDbLine
 10
175.3494480224009
 20
442.188634085291
 30
0.0
 11
175.3494480224009
 21
435.2298106053632
 31
0.0
  0
LINE
  5
D00
102
{ACAD_REACTORS
330
E77
102
}
330
1E
100
AcDbEntity
  8
STEMPEL
100
AcDbLine
 10
178.6840433520609
 20
454.793385547862
 30
0.0
 11
177.6542764612994
 21
452.5850433241126
 31
0.0
  0
LINE
  5
D01
102
{ACAD_REACTORS
330
E77
102
}
330
1E
100
AcDbEntity
  8
STEMPEL
100
AcDbLine
 10
180.4494480224009
 20
454.793385547862
 30
0.0
 11
179.1043689205579
 21
451.9088541053269
 31
0.0
  0
TEXT
  5
D02
330
1E
100
AcDbEntity
  8
TEXT
 62
     1
100
AcDbText
 10
222.5129131307487
 20
424.9567021769303
 30
0.0
 40
7.0
  1
DN80
 50
90.0
 41
0.8
  7
GREEKS
100
AcDbText
  0
LINE
  5
D04
102
{ACAD_REACTORS
330
E3F
102
}
330
1E
100
AcDbEntity
  8
STEMPEL
100
AcDbLine
 10
252.9494480224008
 20
286.7278941334991
 30
0.0
 11
252.0802911434565
 21
276.7933855478618
 31
0.0
  0
LINE
  5
D05
102
{ACAD_REACTORS
330
E3F
102
}
330
1E
100
AcDbEntity
  8
STEMPEL
100
AcDbLine
 10
251.4494480224008
 20
286.7933855478622
 30
0.0
 11
250.5745613871415
 21
276.7933855478618
 31
0.0
  0
LINE
  5
D0A
102
{ACAD_REACTORS
330
CAD
102
}
330
1E
100
AcDbEntity
  8
STEMPEL
100
AcDbLine
 10
285.7171737297833
 20
378.1164673761151
 30
0.0
 11
278.6745660289536
 21
369.7933855478618
 31
0.0
  0
LINE
  5
D0B
102
{ACAD_REACTORS
330
CAD
102
}
330
1E
100
AcDbEntity
  8
STEMPEL
100
AcDbLine
 10
287.625639443206
 20
376.5016117724496
 30
0.0
 11
281.9494480224009
 21
369.7933855478619
 31
0.0
  0
ARC
  5
D0C
330
1E
100
AcDbEntity
  8
SCHRAFF
100
AcDbCircle
 10
265.4494480224008
 20
375.7933855478617
 30
0.0
 40
3.0
100
AcDbArc
 50
236.6592926535219
 51
54.28229175540816
  0
LINE
  5
D0D
102
{ACAD_REACTORS
330
E3F
102
}
330
1E
100
AcDbEntity
  8
STEMPEL
100
AcDbLine
 10
253.6713174121077
 20
360.6198027199468
 30
0.0
 11
263.6539376936306
 21
375.7933855478617
 31
0.0
  0
LINE
  5
D0E
102
{ACAD_REACTORS
330
E3F
102
}
330
1E
100
AcDbEntity
  8
STEMPEL
100
AcDbLine
 10
254.9244430354737
 20
359.7953779677323
 30
0.0
 11
265.4494480224008
 21
375.7933855478617
 31
0.0
  0
ARC
  5
D0F
102
{ACAD_REACTORS
330
CAE
102
}
330
1E
100
AcDbEntity
  8
STEMPEL
100
AcDbCircle
 10
290.9494480224008
 20
349.4672285189048
 30
0.0
 40
20.0
100
AcDbArc
 50
139.7636416907258
 51
180.0
  0
ARC
  5
D10
102
{ACAD_REACTORS
330
CAE
102
}
330
1E
100
AcDbEntity
  8
STEMPEL
100
AcDbCircle
 10
290.9494480224008
 20
349.4672285189048
 30
0.0
 40
21.6
100
AcDbArc
 50
139.7636416907258
 51
180.0
  0
LINE
  5
D11
102
{ACAD_REACTORS
330
CAE
102
}
330
1E
100
AcDbEntity
  8
STEMPEL
100
AcDbLine
 10
270.9494480224008
 20
349.4672285189048
 30
0.0
 11
270.9494480224008
 21
304.7933855478614
 31
0.0
  0
LINE
  5
D12
102
{ACAD_REACTORS
330
CAE
102
}
330
1E
100
AcDbEntity
  8
STEMPEL
100
AcDbLine
 10
269.3494480224009
 20
349.4672285189048
 30
0.0
 11
269.3494480224008
 21
306.7933855478618
 31
0.0
  0
LINE
  5
D13
102
{ACAD_REACTORS
330
E3F
102
}
330
1E
100
AcDbEntity
  8
STEMPEL
100
AcDbLine
 10
251.4494480224008
 20
353.199979950017
 30
0.0
 11
251.4494480224008
 21
286.7933855478622
 31
0.0
  0
LINE
  5
D14
102
{ACAD_REACTORS
330
E3F
102
}
330
1E
100
AcDbEntity
  8
STEMPEL
100
AcDbLine
 10
252.9494480224009
 20
353.199979950017
 30
0.0
 11
252.9494480224008
 21
286.7278941334991
 31
0.0
  0
LINE
  5
D15
330
1E
100
AcDbEntity
  8
STEMPEL
100
AcDbLine
 10
268.7907157105329
 20
322.7933855478618
 30
0.0
 11
252.9494480224008
 21
322.7933855478618
 31
0.0
  0
LINE
  5
D16
330
1E
100
AcDbEntity
  8
STEMPEL
100
AcDbLine
 10
256.9494480224009
 20
312.7933855478618
 30
0.0
 11
252.9494480224008
 21
312.7933855478618
 31
0.0
  0
LINE
  5
D17
102
{ACAD_REACTORS
330
CAE
102
}
330
1E
100
AcDbEntity
  8
STEMPEL
100
AcDbLine
 10
270.9494480224008
 20
306.7933855478619
 30
0.0
 11
269.3494480224008
 21
306.7933855478619
 31
0.0
  0
POINT
  5
D1A
330
1E
100
AcDbEntity
  8
STEMPEL
100
AcDbPoint
 10
256.9494480224009
 20
312.7933855478618
 30
0.0
  0
POINT
  5
D1C
330
1E
100
AcDbEntity
  8
STEMPEL
100
AcDbPoint
 10
260.9494480224009
 20
322.7933855478618
 30
0.0
  0
LINE
  5
D1E
330
1E
100
AcDbEntity
  8
STEMPEL
100
AcDbLine
 10
269.3494480224009
 20
306.7933855478618
 30
0.0
 11
268.7907157105329
 21
322.7933855478618
 31
0.0
  0
POINT
  5
D1F
330
1E
100
AcDbEntity
  8
STEMPEL
100
AcDbPoint
 10
268.7907157105329
 20
322.7933855478618
 30
0.0
  0
ARC
  5
D20
102
{ACAD_REACTORS
330
E3F
102
}
330
1E
100
AcDbEntity
  8
STEMPEL
100
AcDbCircle
 10
264.9494480224009
 20
353.199979950017
 30
0.0
 40
13.5
100
AcDbArc
 50
146.6592926535243
 51
180.0
  0
ARC
  5
D21
102
{ACAD_REACTORS
330
E3F
102
}
330
1E
100
AcDbEntity
  8
STEMPEL
100
AcDbCircle
 10
264.9494480224009
 20
353.199979950017
 30
0.0
 40
12.0
100
AcDbArc
 50
146.6592926535243
 51
180.0
  0
HATCH
  5
D22
330
1E
100
AcDbEntity
  8
SCHRAFF
100
AcDbHatch
 10
0.0
 20
0.0
 30
0.0
210
0.0
220
0.0
230
1.0
  2
_USER
 70
     0
 71
     0
 91
        1
 92
        7
 72
     1
 73
     1
 93
        3
 10
284.4879095608624
 20
372.7933855478618
 42
-0.4609726903787285
 10
279.4109864839393
 20
366.7933855478618
 42
0.0
 10
281.9494480224009
 20
369.7933855478618
 42
0.0
 97
        0
 75
     0
 76
     0
 52
0.0
 41
0.1
 77
     0
 78
     1
 53
179.9999999999999
 43
423.0570438544665
 44
-37.43823484723129
 45
0.0000000000000001
 46
0.1
 79
     0
 47
0.0283863964850914
 98
        1
 10
282.9707064024858
 20
369.8752510862466
  0
ARC
  5
D23
330
1E
100
AcDbEntity
  8
SCHRAFF
100
AcDbCircle
 10
279.3869181963563
 20
371.9616800160534
 30
0.0
 40
5.168350509824833
100
AcDbArc
 50
270.2668194195273
 51
9.260463961922761
  0
LINE
  5
D24
102
{ACAD_REACTORS
330
CAE
330
CAD
102
}
330
1E
100
AcDbEntity
  8
STEMPEL
100
AcDbLine
 10
278.6745660289537
 20
369.7933855478619
 30
0.0
 11
281.9494480224009
 21
369.7933855478619
 31
0.0
  0
LINE
  5
D25
102
{ACAD_REACTORS
330
CAE
102
}
330
1E
100
AcDbEntity
  8
STEMPEL
100
AcDbLine
 10
281.9494480224009
 20
369.7933855478619
 30
0.0
 11
275.6817223150186
 21
362.3860733482284
 31
0.0
  0
LINE
  5
D26
102
{ACAD_REACTORS
330
CAE
102
}
330
1E
100
AcDbEntity
  8
STEMPEL
100
AcDbLine
 10
279.8535235465946
 20
369.7933855478619
 30
0.0
 11
274.460304258428
 21
363.4195809345741
 31
0.0
  0
LINE
  5
D28
102
{ACAD_REACTORS
330
E77
102
}
330
1E
100
AcDbEntity
  8
STEMPEL
100
AcDbLine
 10
272.4494480224008
 20
454.793385547862
 30
0.0
 11
273.7945271242437
 21
451.9088541053269
 31
0.0
  0
ARC
  5
D29
102
{ACAD_REACTORS
330
E77
102
}
330
1E
100
AcDbEntity
  8
STEMPEL
100
AcDbCircle
 10
286.0494480224009
 20
419.4532524846668
 30
0.0
 40
13.6
100
AcDbArc
 50
154.7092129456854
 51
180.0
  0
ARC
  5
D2A
102
{ACAD_REACTORS
330
E77
102
}
330
1E
100
AcDbEntity
  8
STEMPEL
100
AcDbCircle
 10
262.049448022401
 20
400.1821119652789
 30
0.0
 40
12.0
100
AcDbArc
 50
327.6719358778393
 51
0.0
  0
ARC
  5
D2B
102
{ACAD_REACTORS
330
E77
102
}
330
1E
100
AcDbEntity
  8
STEMPEL
100
AcDbCircle
 10
262.049448022401
 20
400.1821119652789
 30
0.0
 40
10.4
100
AcDbArc
 50
327.6719358778393
 51
0.0
  0
LINE
  5
D2C
102
{ACAD_REACTORS
330
E77
102
}
330
1E
100
AcDbEntity
  8
STEMPEL
100
AcDbLine
 10
263.4787695859413
 20
375.7933855478618
 30
0.0
 11
267.092285638514
 21
380.8188469222971
 31
0.0
  0
ARC
  5
D2D
102
{ACAD_REACTORS
330
E77
102
}
330
1E
100
AcDbEntity
  8
STEMPEL
100
AcDbCircle
 10
257.3494480224009
 20
387.8243529843923
 30
0.0
 40
13.6
100
AcDbArc
 50
324.282291755406
 51
0.0
  0
ARC
  5
D2E
102
{ACAD_REACTORS
330
E77
102
}
330
1E
100
AcDbEntity
  8
STEMPEL
100
AcDbCircle
 10
257.3494480224009
 20
387.8243529843923
 30
0.0
 40
12.0
100
AcDbArc
 50
324.282291755406
 51
0.0
  0
LINE
  5
D2F
102
{ACAD_REACTORS
330
E77
102
}
330
1E
100
AcDbEntity
  8
STEMPEL
100
AcDbLine
 10
265.4494480224008
 20
375.7933855478618
 30
0.0
 11
268.3913306539956
 21
379.884779447351
 31
0.0
  0
POINT
  5
D30
330
1E
100
AcDbEntity
  8
STEMPEL
100
AcDbPoint
 10
265.4494480224008
 20
375.7933855478618
 30
0.0
  0
POINT
  5
D31
330
1E
100
AcDbEntity
  8
STEMPEL
100
AcDbPoint
 10
270.9494480224011
 20
387.8243529843923
 30
0.0
  0
ARC
  5
D32
102
{ACAD_REACTORS
330
E77
102
}
330
1E
100
AcDbEntity
  8
STEMPEL
100
AcDbCircle
 10
278.9494480224008
 20
389.4867858832934
 30
0.0
 40
9.599999999999999
100
AcDbArc
 50
147.6719358778393
 51
180.0
  0
ARC
  5
D33
102
{ACAD_REACTORS
330
E77
102
}
330
1E
100
AcDbEntity
  8
STEMPEL
100
AcDbCircle
 10
278.9494480224008
 20
389.4867858832934
 30
0.0
 40
8.0
100
AcDbArc
 50
147.6719358778393
 51
180.0
  0
LINE
  5
D34
102
{ACAD_REACTORS
330
E77
102
}
330
1E
100
AcDbEntity
  8
STEMPEL
100
AcDbLine
 10
269.3494480224009
 20
389.4867858832934
 30
0.0
 11
269.3494480224009
 21
387.8243529843923
 31
0.0
  0
LINE
  5
D35
102
{ACAD_REACTORS
330
E77
102
}
330
1E
100
AcDbEntity
  8
STEMPEL
100
AcDbLine
 10
270.9494480224008
 20
389.4867858832934
 30
0.0
 11
270.9494480224008
 21
387.8243529843923
 31
0.0
  0
LINE
  5
D36
102
{ACAD_REACTORS
330
E77
102
}
330
1E
100
AcDbEntity
  8
STEMPEL
100
AcDbLine
 10
272.4494480224008
 20
419.4532524846668
 30
0.0
 11
272.4494480224008
 21
400.1821119652789
 31
0.0
  0
LINE
  5
D37
102
{ACAD_REACTORS
330
CAD
102
}
330
1E
100
AcDbEntity
  8
STEMPEL
100
AcDbLine
 10
290.4494480224009
 20
454.7933855478619
 30
0.0
 11
290.4494480224009
 21
391.0353122054384
 31
0.0
  0
LINE
  5
D38
102
{ACAD_REACTORS
330
CAD
102
}
330
1E
100
AcDbEntity
  8
STEMPEL
100
AcDbLine
 10
292.9494480224009
 20
454.7933855478619
 30
0.0
 11
292.9494480224009
 21
391.0353122054384
 31
0.0
  0
ARC
  5
D39
102
{ACAD_REACTORS
330
E77
102
}
330
1E
100
AcDbEntity
  8
STEMPEL
100
AcDbCircle
 10
286.0494480224009
 20
419.4532524846668
 30
0.0
 40
12.0
100
AcDbArc
 50
154.6922769019328
 51
180.0
  0
ARC
  5
D3A
102
{ACAD_REACTORS
330
CAD
102
}
330
1E
100
AcDbEntity
  8
STEMPEL
100
AcDbCircle
 10
270.4494480224009
 20
391.0353122054385
 30
0.0
 40
20.0
100
AcDbArc
 50
319.7636416907261
 51
0.0
  0
ARC
  5
D3B
102
{ACAD_REACTORS
330
CAD
102
}
330
1E
100
AcDbEntity
  8
STEMPEL
100
AcDbCircle
 10
270.4494480224009
 20
391.0353122054385
 30
0.0
 40
22.5
100
AcDbArc
 50
319.7636416907261
 51
0.0
  0
LINE
  5
D3C
102
{ACAD_REACTORS
330
E77
102
}
330
1E
100
AcDbEntity
  8
STEMPEL
100
AcDbLine
 10
274.0494480224009
 20
419.4532524846668
 30
0.0
 11
274.0494480224009
 21
400.1821119652789
 31
0.0
  0
POINT
  5
D3D
330
1E
100
AcDbEntity
  8
STEMPEL
100
AcDbPoint
 10
274.0494480224009
 20
400.1821119652789
 30
0.0
  0
LINE
  5
D3E
330
1E
100
AcDbEntity
  8
STEMPEL
100
AcDbLine
 10
290.4494480224008
 20
440.7933855478615
 30
0.0
 11
277.549448022401
 21
440.7933855478616
 31
0.0
  0
ARC
  5
D3F
102
{ACAD_REACTORS
330
E77
102
}
330
1E
100
AcDbEntity
  8
STEMPEL
100
AcDbCircle
 10
252.9494480224008
 20
442.188634085291
 30
0.0
 40
23.0
100
AcDbArc
 50
0.0
 51
24.99999999999041
  0
ARC
  5
D40
102
{ACAD_REACTORS
330
E77
102
}
330
1E
100
AcDbEntity
  8
STEMPEL
100
AcDbCircle
 10
252.9494480224008
 20
442.188634085291
 30
0.0
 40
24.6
100
AcDbArc
 50
0.0
 51
24.99999999999078
  0
ARC
  5
D41
102
{ACAD_REACTORS
330
E77
102
}
330
1E
100
AcDbEntity
  8
STEMPEL
100
AcDbCircle
 10
252.5494480224007
 20
435.1615305570716
 30
0.0
 40
23.40009324312573
100
AcDbArc
 50
334.9760028074218
 51
0.1617474314705525
  0
ARC
  5
D42
102
{ACAD_REACTORS
330
E77
102
}
330
1E
100
AcDbEntity
  8
STEMPEL
100
AcDbCircle
 10
252.549448022401
 20
435.1615305570716
 30
0.0
 40
25.00009324312574
100
AcDbArc
 50
334.9670575584598
 51
0.1564859545818676
  0
LINE
  5
D43
102
{ACAD_REACTORS
330
E77
102
}
330
1E
100
AcDbEntity
  8
STEMPEL
100
AcDbLine
 10
275.9494480224008
 20
442.188634085291
 30
0.0
 11
275.9494480224008
 21
435.2275895230746
 31
0.0
  0
LINE
  5
D44
102
{ACAD_REACTORS
330
E77
102
}
330
1E
100
AcDbEntity
  8
STEMPEL
100
AcDbLine
 10
277.549448022401
 20
442.188634085291
 30
0.0
 11
277.549448022401
 21
435.2298106053632
 31
0.0
  0
LINE
  5
D45
102
{ACAD_REACTORS
330
E77
102
}
330
1E
100
AcDbEntity
  8
STEMPEL
100
AcDbLine
 10
274.2148526927407
 20
454.793385547862
 30
0.0
 11
275.2446195835022
 21
452.5850433241126
 31
0.0
  0
HATCH
  5
E3F
330
1E
100
AcDbEntity
  8
SCHRAFF
100
AcDbHatch
 10
0.0
 20
0.0
 30
0.0
210
0.0
220
0.0
230
1.0
  2
_USER
 70
     0
 71
     1
 91
        2
 92
        7
 72
     1
 73
     1
 93
       10
 10
252.9494480224009
 20
353.199979950017
 42
-0.1465112972333387
 10
254.9244430354737
 20
359.7953779677323
 42
0.0
 10
265.4494480224008
 20
375.7933855478618
 42
0.0
 10
263.6539376936307
 20
375.7933855478618
 42
0.0
 10
253.6713174121077
 20
360.6198027199468
 42
0.1465112972333385
 10
251.4494480224008
 20
353.1999799500172
 42
0.0
 10
251.4494480224008
 20
286.7933855478618
 42
0.0
 10
250.5745613871415
 20
276.7933855478619
 42
0.0
 10
252.0802911434565
 20
276.7933855478619
 42
0.0
 10
252.9494480224008
 20
286.7278941334987
 42
0.0
 97
       10
330
D21
330
D0E
330
CBA
330
D0D
330
D20
330
D13
330
D05
330
CB9
330
D04
330
D14
 92
        7
 72
     1
 73
     1
 93
       10
 10
201.4494480224008
 20
353.1999799500173
 42
0.1465112972333395
 10
199.227578632694
 20
360.619802719947
 42
0.0
 10
189.2449583511709
 20
375.793385547862
 42
0.0
 10
187.4494480224008
 20
375.793385547862
 42
0.0
 10
197.9744530093281
 20
359.7953779677327
 42
-0.1465112972333383
 10
199.9494480224008
 20
353.1999799500174
 42
0.0
 10
199.9494480224008
 20
286.7278941334993
 42
0.0
 10
200.8186049013451
 20
276.7933855478621
 42
0.0
 10
202.3243346576601
 20
276.7933855478621
 42
0.0
 10
201.4494480224008
 20
286.7933855478621
 42
0.0
 97
       10
330
CE6
330
CCF
330
CBA
330
CD0
330
CE5
330
CD4
330
CBD
330
CB9
330
CBE
330
CD3
 75
     0
 76
     0
 52
45.0
 41
2.0
 77
     0
 78
     1
 53
45.0
 43
17.24197896456962
 44
0.0
 45
-1.414213562373094
 46
1.414213562373095
 79
     0
 47
0.3796462923421304
 98
        2
 10
252.3721161250792
 20
336.8245611501297
 10
201.0836168484934
 20
336.0652688052003
  0
HATCH
  5
E77
330
1E
100
AcDbEntity
  8
SCHRAFF
100
AcDbHatch
 10
0.0
 20
0.0
 30
0.0
210
0.0
220
0.0
230
1.0
  2
_USER
 70
     0
 71
     1
 91
        2
 92
        7
 72
     1
 73
     1
 93
       24
 10
274.0494480224009
 20
419.4532524846668
 42
-0.1108768121414951
 10
275.2011487857219
 20
424.5830091720224
 42
0.1089723179973239
 10
277.549448022401
 20
435.0932505088802
 42
0.0
 10
277.549448022401
 20
442.188634085291
 42
0.1095178116832473
 10
275.2446195835022
 20
452.5850433241126
 42
0.0
 10
274.2148526927408
 20
454.7933855478616
 42
0.0
 10
272.4494480224009
 20
454.7933855478616
 42
0.0
 10
273.7945271242437
 20
451.9088541053269
 42
-0.1095178116832433
 10
275.9494480224008
 20
442.1886340852907
 42
0.0
 10
275.9494480224008
 20
435.2275895230746
 42
-0.1112043308294309
 10
273.7189848539859
 20
425.1908197437376
 42
0.109311752196456
 10
272.4494480224008
 20
419.4532524846668
 42
0.0
 10
272.4494480224008
 20
400.1821119652789
 42
-0.1420008527982216
 10
270.8374480224011
 20
394.6205424026467
 42
0.1420008527982426
 10
269.3494480224009
 20
389.4867858832932
 42
0.0
 10
269.3494480224009
 20
387.8243529843923
 42
-0.1571220570869207
 10
267.092285638514
 20
380.8188469222971
 42
0.0
 10
263.4787695859413
 20
375.7933855478617
 42
0.0
 10
265.4494480224008
 20
375.7933855478618
 42
0.0
 10
268.3913306539956
 20
379.884779447351
 42
0.1571220570869213
 10
270.9494480224008
 20
387.8243529843923
 42
0.0
 10
270.9494480224008
 20
389.4867858832934
 42
-0.1420008527982223
 10
272.1894480224007
 20
393.7649163160874
 42
0.1420008527982346
 10
274.0494480224009
 20
400.1821119652789
 42
0.0
 97
       24
330
D39
330
D42
330
D44
330
D40
330
D45
330
CBB
330
D28
330
D3F
330
D43
330
D41
330
D29
330
D36
330
D2B
330
D32
330
D34
330
D2E
330
D2C
330
CBA
330
D2F
330
D2D
330
D35
330
D33
330
D2A
330
D3C
 92
        7
 72
     1
 73
     1
 93
       24
 10
180.4494480224008
 20
419.4532524846668
 42
0.1093117521957537
 10
179.1799111908318
 20
425.1908197437033
 42
-0.1112043308298406
 10
176.9494480224008
 20
435.2275895230746
 42
0.0
 10
176.9494480224008
 20
442.188634085291
 42
-0.1095178116832406
 10
179.1043689205579
 20
451.9088541053269
 42
0.0
 10
180.4494480224009
 20
454.793385547862
 42
0.0
 10
178.6840433520609
 20
454.7933855478621
 42
0.0
 10
177.6542764612994
 20
452.5850433241126
 42
0.1095178116832467
 10
175.3494480224009
 20
442.188634085291
 42
0.0
 10
175.3494480224009
 20
435.0932505088827
 42
0.1089723179973986
 10
177.697747259082
 20
424.583009172018
 42
-0.1108768121413934
 10
178.8494480224009
 20
419.4532524846668
 42
0.0
 10
178.8494480224009
 20
400.1821119652789
 42
0.1420008527982292
 10
180.7094480224009
 20
393.7649163160876
 42
-0.1420008527982267
 10
181.9494480224008
 20
389.4867858832935
 42
0.0
 10
181.9494480224008
 20
387.8243529843922
 42
0.1571220570869204
 10
184.507565390806
 20
379.884779447351
 42
0.0
 10
187.4494480224006
 20
375.793385547862
 42
0.0
 10
189.4201264588601
 20
375.7933855478621
 42
0.0
 10
185.8066104062878
 20
380.8188469222971
 42
-0.1571220570869228
 10
183.5494480224008
 20
387.8243529843924
 42
0.0
 10
183.5494480224008
 20
389.4867858832934
 42
0.1420008527982292
 10
182.0614480224008
 20
394.6205424026464
 42
-0.1420008527982307
 10
180.4494480224008
 20
400.1821119652789
 42
0.0
 97
       24
330
CEA
330
CFD
330
CFE
330
CFA
330
D01
330
CBB
330
D00
330
CFB
330
CFF
330
CFC
330
CE9
330
CF7
330
CEB
330
CF0
330
CF1
330
CED
330
CF4
330
CBA
330
CF3
330
CF2
330
CF6
330
CEE
330
CEC
330
CF8
 75
     0
 76
     0
 52
135.0
 41
2.0
 77
     0
 78
     1
 53
135.0
 43
17.24197896456962
 44
0.0
 45
-1.414213562373095
 46
-1.414213562373094
 79
     0
 47
0.3796462923421304
 98
        2
 10
272.8875158357137
 20
411.6148813056583
 10
179.8083883469212
 20
408.198064857921
  0
LINE
  5
E78
330
1E
100
AcDbEntity
  8
HILF
100
AcDbLine
 10
271.0784829426182
 20
422.0819792829336
 30
0.0
 11
181.8204131021836
 21
422.0819792829336
 31
0.0
  0
LINE
  5
E79
330
1E
100
AcDbEntity
  8
HILF
100
AcDbLine
 10
270.1907009972201
 20
396.8414533475812
 30
0.0
 11
182.7081950475818
 21
396.8414533475811
 31
0.0
  0
LINE
  5
E7A
330
1E
100
AcDbEntity
  8
HILF
100
AcDbLine
 10
267.973109835191
 20
391.7138916284254
 30
0.0
 11
184.9257862096106
 21
391.7138916284253
 31
0.0
  0
LINE
  5
E7B
330
1E
100
AcDbEntity
  8
HILF
100
AcDbLine
 10
266.8765043303506
 20
383.6535978842748
 30
0.0
 11
186.0223917144512
 21
383.6535978842746
 31
0.0
  0
HATCH
  5
F13
330
1E
100
AcDbEntity
  8
SCHRAFF
100
AcDbHatch
 10
0.0
 20
0.0
 30
0.0
210
0.0
220
0.0
230
1.0
  2
NET
 70
     0
 71
     0
 91
        2
 92
        7
 72
     0
 73
     1
 93
       10
 10
268.7907157105328
 20
322.7933855478617
 10
252.9494480224005
 20
322.7933855478618
 10
252.9494480224005
 20
312.7933855478617
 10
256.9494480224008
 20
312.7933855478618
 10
260.4135496375387
 20
306.7933855478616
 10
264.9494480223999
 20
306.7933855478616
 10
264.9494480223999
 20
304.7933855478614
 10
270.9494480224007
 20
304.7933855478614
 10
270.9494480224006
 20
306.7933855478615
 10
269.3494480224008
 20
306.7933855478616
 97
        0
 92
        7
 72
     0
 73
     1
 93
       10
 10
199.9494480224061
 20
322.7933855478618
 10
184.1081803342688
 20
322.7933855478619
 10
183.5494480224008
 20
306.7933855478619
 10
181.9494480224008
 20
306.7933855478619
 10
181.9494480224008
 20
304.7933855478619
 10
187.9494480223998
 20
304.7933855478618
 10
187.9494480223998
 20
306.7933855478619
 10
192.4853464072631
 20
306.7933855478618
 10
195.9494480224008
 20
312.7933855478618
 10
199.9494480224067
 20
312.7933855478618
 97
        0
 75
     0
 76
     1
 52
45.0
 41
20.0
 77
     0
 78
     2
 53
45.0
 43
1.449448022400531
 44
-15.08160851132408
 45
-1.767766952966368
 46
1.767766952966368
 79
     0
 53
135.0
 43
1.449448022400531
 44
-15.08160851132408
 45
-1.767766952966368
 46
-1.767766952966368
 79
     0
 47
0.1255994509103582
 98
        2
 10
260.5278286270498
 20
318.076711569005
 10
194.6740107035815
 20
319.0815074812373
  0
LINE
  5
F14
330
1E
100
AcDbEntity
  8
STEMPEL
100
AcDbLine
 10
264.9494480223999
 20
306.7933855478616
 30
0.0
 11
252.9494480224005
 21
306.7933855478616
 31
0.0
  0
POINT
  5
F15
330
1E
100
AcDbEntity
  8
STEMPEL
100
AcDbPoint
 10
264.9494480223999
 20
304.7933855478616
 30
0.0
  0
LINE
  5
F16
330
1E
100
AcDbEntity
  8
STEMPEL
100
AcDbLine
 10
264.9494480223999
 20
306.7933855478616
 30
0.0
 11
264.9494480223999
 21
304.7933855478616
 31
0.0
  0
LINE
  5
F17
330
1E
100
AcDbEntity
  8
STEMPEL
100
AcDbLine
 10
270.9494480224007
 20
304.7933855478614
 30
0.0
 11
252.9494480224005
 21
304.7933855478615
 31
0.0
  0
LINE
  5
F18
330
1E
100
AcDbEntity
  8
STEMPEL
100
AcDbLine
 10
256.9494480224008
 20
312.7933855478618
 30
0.0
 11
260.4135496375386
 21
306.7933855478618
 31
0.0
  0
LINE
  5
F19
330
1E
100
AcDbEntity
  8
STEMPEL
100
AcDbLine
 10
256.9494480224008
 20
312.7933855478618
 30
0.0
 11
260.4135496375386
 21
306.7933855478618
 31
0.0
  0
LINE
  5
F1A
330
1E
100
AcDbEntity
  8
STEMPEL
100
AcDbLine
 10
199.9494480224072
 20
304.7933855478618
 30
0.0
 11
181.9494480224008
 21
304.7933855478619
 31
0.0
  0
POINT
  5
F1B
330
1E
100
AcDbEntity
  8
STEMPEL
100
AcDbPoint
 10
187.9494480223998
 20
304.7933855478616
 30
0.0
  0
LINE
  5
F1C
330
1E
100
AcDbEntity
  8
STEMPEL
100
AcDbLine
 10
187.9494480223998
 20
306.7933855478616
 30
0.0
 11
187.9494480223998
 21
304.7933855478616
 31
0.0
  0
LINE
  5
F1D
330
1E
100
AcDbEntity
  8
STEMPEL
100
AcDbLine
 10
199.949448022407
 20
306.7933855478618
 30
0.0
 11
187.9494480223998
 21
306.7933855478619
 31
0.0
  0
LINE
  5
F1E
330
1E
100
AcDbEntity
  8
STEMPEL
100
AcDbLine
 10
195.9494480224008
 20
312.7933855478618
 30
0.0
 11
192.485346407263
 21
306.7933855478618
 31
0.0
  0
LINE
  5
F1F
330
1E
100
AcDbEntity
  8
STEMPEL
100
AcDbLine
 10
199.949448022407
 20
306.7933855478618
 30
0.0
 11
187.9494480223998
 21
306.7933855478619
 31
0.0
  0
LINE
  5
F20
330
1E
100
AcDbEntity
  8
STEMPEL
100
AcDbLine
 10
195.9494480224008
 20
312.7933855478618
 30
0.0
 11
192.485346407263
 21
306.7933855478618
 31
0.0
  0
DIMENSION
  5
F5D
330
1E
100
AcDbEntity
  8
BEM
100
AcDbDimension
  2
*D7
 10
159.8546618650303
 20
306.7933855478619
 30
0.0
 11
153.3546618650302
 21
291.793385547862
 31
0.0
 70
    32
 71
     5
 42
29.99999999999989
  3
Standard
100
AcDbAlignedDimension
 13
200.8186049013451
 23
276.793385547862
 33
0.0
 14
181.9494480224008
 24
306.7933855478619
 34
0.0
 50
90.0
100
AcDbRotatedDimension
1001
ACAD
1000
DSTYLE
1002
{
1070
    40
1040
2.0
1070
    41
1040
3.5
1070
    42
1040
1.0
1070
    43
1040
7.0
1070
    44
1040
1.0
1070
    47
1040
0.15
1070
    48
1040
0.15
1070
    73
1070
     0
1070
    74
1070
     0
1070
    77
1070
     1
1070
    78
1070
     8
1070
    79
1070
     2
1070
   140
1040
3.5
1070
   141
1040
1.5
1070
   146
1040
0.5142857142857144
1070
   147
1040
1.5
1070
   172
1070
     1
1070
   178
1070
     1
1070
   179
1070
     2
1070
   271
1070
     2
1070
   272
1070
     2
1070
   284
1070
     8
1070
   285
1070
     8
1070
   286
1070
     8
1002
}
  0
ENDSEC
  0
SECTION
  2
OBJECTS
  0
DICTIONARY
  5
C
330
0
100
AcDbDictionary
281
     1
  3
ACAD_COLOR
350
39F
  3
ACAD_GROUP
350
D
  3
ACAD_LAYOUT
350
19
  3
ACAD_MATERIAL
350
39E
  3
ACAD_MLINESTYLE
350
16
  3
ACAD_PLOTSETTINGS
350
18
  3
ACAD_PLOTSTYLENAME
350
E
  3
AcDbVariableDictionary
350
31A
  0
DICTIONARY
  5
39F
102
{ACAD_REACTORS
330
C
102
}
330
C
100
AcDbDictionary
281
     1
  0
DICTIONARY
  5
D
102
{ACAD_REACTORS
330
C
102
}
330
C
100
AcDbDictionary
281
     1
  0
DICTIONARY
  5
19
102
{ACAD_REACTORS
330
C
102
}
330
C
100
AcDbDictionary
281
     1
  3
Layout1
350
1D
  3
Model
350
21
  0
DICTIONARY
  5
39E
102
{ACAD_REACTORS
330
C
102
}
330
C
100
AcDbDictionary
281
     1
  0
DICTIONARY
  5
16
102
{ACAD_REACTORS
330
C
102
}
330
C
100
AcDbDictionary
281
     1
  3
Standard
350
17
  0
DICTIONARY
  5
18
102
{ACAD_REACTORS
330
C
102
}
330
C
100
AcDbDictionary
281
     1
  0
ACDBDICTIONARYWDFLT
  5
E
102
{ACAD_REACTORS
330
C
102
}
330
C
100
AcDbDictionary
281
     1
  3
Normal
350
F
100
AcDbDictionaryWithDefault
340
F
  0
DICTIONARY
  5
31A
102
{ACAD_REACTORS
330
C
102
}
330
C
100
AcDbDictionary
281
     1
  3
DIMASSOC
350
696
  3
PROJECTNAME
350
697
  3
SORTENTS
350
31B
  0
LAYOUT
  5
1D
102
{ACAD_REACTORS
330
19
102
}
330
19
100
AcDbPlotSettings
  1

  2
Tektronix Phaser 740
  4

  6

 40
0.0
 41
0.0
 42
0.0
 43
0.0
 44
0.0
 45
0.0
 46
0.0
 47
0.0
 48
0.0
 49
0.0
140
0.0
141
0.0
142
1.0
143
1.0
 70
   688
 72
     0
 73
     0
 74
     5
  7
monochrome.ctb
 75
    16
147
1.0
 76
     0
 77
     2
 78
   300
148
0.0
149
0.0
100
AcDbLayout
  1
Layout1
 70
     0
 71
     1
 10
0.0
 20
0.0
 11
12.0
 21
9.0
 12
0.0
 22
0.0
 32
0.0
 14
1.000000000000000E+20
 24
1.000000000000000E+20
 34
1.000000000000000E+20
 15
-1.000000000000000E+20
 25
-1.000000000000000E+20
 35
-1.000000000000000E+20
146
0.0
 13
0.0
 23
0.0
 33
0.0
 16
1.0
 26
0.0
 36
0.0
 17
0.0
 27
1.0
 37
0.0
 76
     0
330
1A
  0
LAYOUT
  5
21
102
{ACAD_REACTORS
330
19
102
}
330
19
100
AcDbPlotSettings
  1

  2
none_device
  4
Letter_(8.50_x_11.00_Inches)
  6

 40
6.349999904632568
 41
6.349999904632568
 42
6.350006103515625
 43
6.350006103515625
 44
215.8999938964844
 45
279.3999938964844
 46
0.0
 47
0.0
 48
0.0
 49
0.0
140
0.0
141
0.0
142
1.0
143
1.0
 70
 11952
 72
     0
 73
     1
 74
     0
  7
monochrome.ctb
 75
     0
147
1.0
 76
     0
 77
     2
 78
   300
148
-427.6236799849804
149
44.87778572714498
100
AcDbLayout
  1
Model
 70
     1
 71
     0
 10
0.0
 20
0.0
 11
12.0
 21
9.0
 12
0.0
 22
0.0
 32
0.0
 14
0.0
 24
0.0
 34
0.0
 15
0.0
 25
0.0
 35
0.0
146
0.0
 13
0.0
 23
0.0
 33
0.0
 16
1.0
 26
0.0
 36
0.0
 17
0.0
 27
1.0
 37
0.0
 76
     0
330
1E
  0
MLINESTYLE
  5
17
102
{ACAD_REACTORS
330
16
102
}
330
16
100
AcDbMlineStyle
  2
STANDARD
 70
     0
  3

 62
   256
 51
90.0
 52
90.0
 71
     2
 49
0.5
 62
   256
  6
BYLAYER
 49
-0.5
 62
   256
  6
BYLAYER
  0
ACDBPLACEHOLDER
  5
F
102
{ACAD_REACTORS
330
E
102
}
330
E
  0
DICTIONARYVAR
  5
696
102
{ACAD_REACTORS
330
31A
102
}
330
31A
100
DictionaryVariables
280
     0
  1
1
  0
DICTIONARYVAR
  5
697
102
{ACAD_REACTORS
330
31A
102
}
330
31A
100
DictionaryVariables
280
     0
  1

  0
DICTIONARYVAR
  5
31B
102
{ACAD_REACTORS
330
31A
102
}
330
31A
100
DictionaryVariables
280
     0
  1
96
  0
ENDSEC
  0
EOF
