  0
SECTION
  2
HEADER
  9
$ACADVER
  1
AC1018
  9
$ACADMAINTVER
 70
     2
  9
$DWGCODEPAGE
  3
ANSI_1252
  9
$INSBASE
 10
0.0
 20
0.0
 30
0.0
  9
$EXTMIN
 10
-0.0000000000001137
 20
-0.0000000000001137
 30
0.0
  9
$EXTMAX
 10
419.9999999999999
 20
594.0000000000002
 30
0.0
  9
$LIMMIN
 10
0.0
 20
0.0
  9
$LIMMAX
 10
419.9999999999999
 20
594.0000000000002
  9
$ORTHOMODE
 70
     1
  9
$REGENMODE
 70
     1
  9
$FILLMODE
 70
     1
  9
$QTEXTMODE
 70
     0
  9
$MIRRTEXT
 70
     1
  9
$LTSCALE
 40
20.0
  9
$ATTMODE
 70
     1
  9
$TEXTSIZE
 40
3.5
  9
$TRACEWID
 40
0.5
  9
$TEXTSTYLE
  7
STANDARD
  9
$CLAYER
  8
VOLL
  9
$CELTYPE
  6
ByLayer
  9
$CECOLOR
 62
   256
  9
$CELTSCALE
 40
1.0
  9
$DISPSILH
 70
     0
  9
$DIMSCALE
 40
2.0
  9
$DIMASZ
 40
3.5
  9
$DIMEXO
 40
1.0
  9
$DIMDLI
 40
7.0
  9
$DIMRND
 40
0.0
  9
$DIMDLE
 40
0.0
  9
$DIMEXE
 40
1.0
  9
$DIMTP
 40
0.15
  9
$DIMTM
 40
0.15
  9
$DIMTXT
 40
3.5
  9
$DIMCEN
 40
1.5
  9
$DIMTSZ
 40
0.0
  9
$DIMTOL
 70
     0
  9
$DIMLIM
 70
     0
  9
$DIMTIH
 70
     0
  9
$DIMTOH
 70
     0
  9
$DIMSE1
 70
     0
  9
$DIMSE2
 70
     0
  9
$DIMTAD
 70
     1
  9
$DIMZIN
 70
     8
  9
$DIMBLK
  1

  9
$DIMASO
 70
     1
  9
$DIMSHO
 70
     0
  9
$DIMPOST
  1

  9
$DIMAPOST
  1

  9
$DIMALT
 70
     0
  9
$DIMALTD
 70
     2
  9
$DIMALTF
 40
25.4
  9
$DIMLFAC
 40
1.0
  9
$DIMTOFL
 70
     1
  9
$DIMTVP
 40
0.0
  9
$DIMTIX
 70
     0
  9
$DIMSOXD
 70
     0
  9
$DIMSAH
 70
     0
  9
$DIMBLK1
  1

  9
$DIMBLK2
  1

  9
$DIMSTYLE
  2
Standard
  9
$DIMCLRD
 70
     0
  9
$DIMCLRE
 70
     0
  9
$DIMCLRT
 70
     1
  9
$DIMTFAC
 40
0.5142857142857144
  9
$DIMGAP
 40
1.5
  9
$DIMJUST
 70
     0
  9
$DIMSD1
 70
     0
  9
$DIMSD2
 70
     0
  9
$DIMTOLJ
 70
     1
  9
$DIMTZIN
 70
     8
  9
$DIMALTZ
 70
     8
  9
$DIMALTTZ
 70
     8
  9
$DIMUPT
 70
     0
  9
$DIMDEC
 70
     2
  9
$DIMTDEC
 70
     2
  9
$DIMALTU
 70
     2
  9
$DIMALTTD
 70
     2
  9
$DIMTXSTY
  7
STANDARD
  9
$DIMAUNIT
 70
     0
  9
$DIMADEC
 70
     2
  9
$DIMALTRND
 40
0.0
  9
$DIMAZIN
 70
     2
  9
$DIMDSEP
 70
    46
  9
$DIMATFIT
 70
     3
  9
$DIMFRAC
 70
     0
  9
$DIMLDRBLK
  1

  9
$DIMLUNIT
 70
     2
  9
$DIMLWD
 70
    -2
  9
$DIMLWE
 70
    -2
  9
$DIMTMOVE
 70
     0
  9
$LUNITS
 70
     2
  9
$LUPREC
 70
     2
  9
$SKETCHINC
 40
1.0
  9
$FILLETRAD
 40
20.0
  9
$AUNITS
 70
     0
  9
$AUPREC
 70
     0
  9
$MENU
  1
ACAD
  9
$ELEVATION
 40
0.0
  9
$PELEVATION
 40
0.0
  9
$THICKNESS
 40
0.0
  9
$LIMCHECK
 70
     0
  9
$CHAMFERA
 40
0.0
  9
$CHAMFERB
 40
0.0
  9
$CHAMFERC
 40
0.0
  9
$CHAMFERD
 40
0.0
  9
$SKPOLY
 70
     0
  9
$TDCREATE
 40
2455573.107286459
  9
$TDUCREATE
 40
2455573.023953125
  9
$TDUPDATE
 40
2456217.534139260
  9
$TDUUPDATE
 40
2456217.450805926
  9
$TDINDWG
 40
0.2711770023
  9
$TDUSRTIMER
 40
0.2711770023
  9
$USRTIMER
 70
     1
  9
$ANGBASE
 50
0.0
  9
$ANGDIR
 70
     0
  9
$PDMODE
 70
     0
  9
$PDSIZE
 40
0.0
  9
$PLINEWID
 40
0.0
  9
$SPLFRAME
 70
     0
  9
$SPLINETYPE
 70
     6
  9
$SPLINESEGS
 70
     8
  9
$HANDSEED
  5
2AD7
  9
$SURFTAB1
 70
     6
  9
$SURFTAB2
 70
     6
  9
$SURFTYPE
 70
     6
  9
$SURFU
 70
     6
  9
$SURFV
 70
     6
  9
$UCSBASE
  2

  9
$UCSNAME
  2

  9
$UCSORG
 10
0.0
 20
0.0
 30
0.0
  9
$UCSXDIR
 10
1.0
 20
0.0
 30
0.0
  9
$UCSYDIR
 10
0.0
 20
1.0
 30
0.0
  9
$UCSORTHOREF
  2

  9
$UCSORTHOVIEW
 70
     0
  9
$UCSORGTOP
 10
0.0
 20
0.0
 30
0.0
  9
$UCSORGBOTTOM
 10
0.0
 20
0.0
 30
0.0
  9
$UCSORGLEFT
 10
0.0
 20
0.0
 30
0.0
  9
$UCSORGRIGHT
 10
0.0
 20
0.0
 30
0.0
  9
$UCSORGFRONT
 10
0.0
 20
0.0
 30
0.0
  9
$UCSORGBACK
 10
0.0
 20
0.0
 30
0.0
  9
$PUCSBASE
  2

  9
$PUCSNAME
  2

  9
$PUCSORG
 10
0.0
 20
0.0
 30
0.0
  9
$PUCSXDIR
 10
1.0
 20
0.0
 30
0.0
  9
$PUCSYDIR
 10
0.0
 20
1.0
 30
0.0
  9
$PUCSORTHOREF
  2

  9
$PUCSORTHOVIEW
 70
     0
  9
$PUCSORGTOP
 10
0.0
 20
0.0
 30
0.0
  9
$PUCSORGBOTTOM
 10
0.0
 20
0.0
 30
0.0
  9
$PUCSORGLEFT
 10
0.0
 20
0.0
 30
0.0
  9
$PUCSORGRIGHT
 10
0.0
 20
0.0
 30
0.0
  9
$PUCSORGFRONT
 10
0.0
 20
0.0
 30
0.0
  9
$PUCSORGBACK
 10
0.0
 20
0.0
 30
0.0
  9
$USERI1
 70
     0
  9
$USERI2
 70
     0
  9
$USERI3
 70
     0
  9
$USERI4
 70
     0
  9
$USERI5
 70
     0
  9
$USERR1
 40
0.0
  9
$USERR2
 40
0.0
  9
$USERR3
 40
0.0
  9
$USERR4
 40
0.0
  9
$USERR5
 40
0.0
  9
$WORLDVIEW
 70
     1
  9
$SHADEDGE
 70
     3
  9
$SHADEDIF
 70
    70
  9
$TILEMODE
 70
     1
  9
$MAXACTVP
 70
    16
  9
$PINSBASE
 10
0.0
 20
0.0
 30
0.0
  9
$PLIMCHECK
 70
     0
  9
$PEXTMIN
 10
1.000000000000000E+20
 20
1.000000000000000E+20
 30
1.000000000000000E+20
  9
$PEXTMAX
 10
-1.000000000000000E+20
 20
-1.000000000000000E+20
 30
-1.000000000000000E+20
  9
$PLIMMIN
 10
0.0
 20
0.0
  9
$PLIMMAX
 10
12.0
 20
9.0
  9
$UNITMODE
 70
     0
  9
$VISRETAIN
 70
     0
  9
$PLINEGEN
 70
     0
  9
$PSLTSCALE
 70
     0
  9
$TREEDEPTH
 70
  3020
  9
$CMLSTYLE
  2
Standard
  9
$CMLJUST
 70
     0
  9
$CMLSCALE
 40
1.0
  9
$PROXYGRAPHICS
 70
     1
  9
$MEASUREMENT
 70
     0
  9
$CELWEIGHT
370
    -1
  9
$ENDCAPS
280
     0
  9
$JOINSTYLE
280
     0
  9
$LWDISPLAY
290
     0
  9
$INSUNITS
 70
     0
  9
$HYPERLINKBASE
  1

  9
$STYLESHEET
  1
monochrome1.ctb
  9
$XEDIT
290
     1
  9
$CEPSNTYPE
380
     0
  9
$PSTYLEMODE
290
     1
  9
$FINGERPRINTGUID
  2
{CF47490D-A8B5-11D8-B772-000102183313}
  9
$VERSIONGUID
  2
{D29EE7F5-D7D4-4EF1-99B3-115094E83952}
  9
$EXTNAMES
290
     1
  9
$PSVPSCALE
 40
0.0
  9
$OLESTARTUP
290
     0
  9
$SORTENTS
280
    96
  9
$INDEXCTL
280
     0
  9
$HIDETEXT
280
     0
  9
$XCLIPFRAME
290
     0
  9
$HALOGAP
280
     0
  9
$OBSCOLOR
 70
   257
  9
$OBSLTYPE
280
     0
  9
$INTERSECTIONDISPLAY
280
     0
  9
$INTERSECTIONCOLOR
 70
   257
  9
$DIMASSOC
280
     1
  9
$PROJECTNAME
  1

  0
ENDSEC
  0
SECTION
  2
CLASSES
  0
CLASS
  1
ACDBDICTIONARYWDFLT
  2
AcDbDictionaryWithDefault
  3
ObjectDBX Classes
 90
        0
 91
        1
280
     0
281
     0
  0
CLASS
  1
DICTIONARYVAR
  2
AcDbDictionaryVar
  3
ObjectDBX Classes
 90
        0
 91
        3
280
     0
281
     0
  0
ENDSEC
  0
SECTION
  2
TABLES
  0
TABLE
  2
VPORT
  5
8
330
0
100
AcDbSymbolTable
 70
     3
  0
VPORT
  5
2AD6
330
8
100
AcDbSymbolTableRecord
100
AcDbViewportTableRecord
  2
*Active
 70
     0
 10
0.0
 20
0.0
 11
1.0
 21
1.0
 12
210.0
 22
297.0
 13
0.0
 23
0.0
 14
1.0
 24
1.0
 15
10.0
 25
10.0
 16
0.0
 26
0.0
 36
1.0
 17
0.0
 27
0.0
 37
0.0
 40
594.0
 41
1.404858299595141
 42
50.0
 43
0.0
 44
0.0
 50
0.0
 51
0.0
 71
     0
 72
  1500
 73
     1
 74
     0
 75
     0
 76
     0
 77
     0
 78
     0
281
     0
 65
     1
110
0.0
120
0.0
130
0.0
111
1.0
121
0.0
131
0.0
112
0.0
122
1.0
132
0.0
 79
     0
146
0.0
  0
ENDTAB
  0
TABLE
  2
LTYPE
  5
5
330
0
100
AcDbSymbolTable
 70
     2
  0
LTYPE
  5
13
330
5
100
AcDbSymbolTableRecord
100
AcDbLinetypeTableRecord
  2
ByBlock
 70
     0
  3

 72
    65
 73
     0
 40
0.0
  0
LTYPE
  5
14
330
5
100
AcDbSymbolTableRecord
100
AcDbLinetypeTableRecord
  2
ByLayer
 70
     0
  3

 72
    65
 73
     0
 40
0.0
  0
LTYPE
  5
15
330
5
100
AcDbSymbolTableRecord
100
AcDbLinetypeTableRecord
  2
Continuous
 70
     0
  3
Solid line
 72
    65
 73
     0
 40
0.0
  0
LTYPE
  5
32
330
5
100
AcDbSymbolTableRecord
100
AcDbLinetypeTableRecord
  2
STRICHPUNKT
 70
     0
  3
__ . __ . __ . __ . __ . __ . __ . __ . __ . __
 72
    65
 73
     4
 40
1.0
 49
0.5
 74
     0
 49
-0.25
 74
     0
 49
0.0
 74
     0
 49
-0.25
 74
     0
  0
ENDTAB
  0
TABLE
  2
LAYER
  5
2
330
0
100
AcDbSymbolTable
 70
     9
  0
LAYER
  5
10
330
2
100
AcDbSymbolTableRecord
100
AcDbLayerTableRecord
  2
0
 70
     0
 62
     7
  6
Continuous
370
    -3
390
F
  0
LAYER
  5
35
330
2
100
AcDbSymbolTableRecord
100
AcDbLayerTableRecord
  2
VOLL
 70
     0
 62
     1
  6
Continuous
370
    -3
390
F
  0
LAYER
  5
36
330
2
100
AcDbSymbolTableRecord
100
AcDbLayerTableRecord
  2
HILF
 70
     0
 62
     2
  6
Continuous
370
    -3
390
F
  0
LAYER
  5
37
330
2
100
AcDbSymbolTableRecord
100
AcDbLayerTableRecord
  2
MITTEL
 70
     0
 62
     2
  6
STRICHPUNKT
370
    -3
390
F
  0
LAYER
  5
38
330
2
100
AcDbSymbolTableRecord
100
AcDbLayerTableRecord
  2
BEM
 70
     0
 62
     7
  6
Continuous
370
    -3
390
F
  0
LAYER
  5
39
330
2
100
AcDbSymbolTableRecord
100
AcDbLayerTableRecord
  2
DEFPOINTS
 70
     0
 62
     7
  6
Continuous
290
     0
370
    -3
390
F
  0
LAYER
  5
3A
330
2
100
AcDbSymbolTableRecord
100
AcDbLayerTableRecord
  2
STEMPEL
 70
     0
 62
     3
  6
Continuous
370
    -3
390
F
  0
LAYER
  5
3B
330
2
100
AcDbSymbolTableRecord
100
AcDbLayerTableRecord
  2
TEXT
 70
     0
 62
     7
  6
Continuous
370
    -3
390
F
  0
LAYER
  5
3C
330
2
100
AcDbSymbolTableRecord
100
AcDbLayerTableRecord
  2
SCHRAFF
 70
     0
 62
     7
  6
Continuous
370
    -3
390
F
  0
ENDTAB
  0
TABLE
  2
STYLE
  5
3
330
0
100
AcDbSymbolTable
 70
     2
  0
STYLE
  5
11
330
3
100
AcDbSymbolTableRecord
100
AcDbTextStyleTableRecord
  2
STANDARD
 70
     0
 40
0.0
 41
0.8
 50
0.0
 71
     0
 42
3.5
  3
simplex.shx
  4

  0
STYLE
  5
31
330
3
100
AcDbSymbolTableRecord
100
AcDbTextStyleTableRecord
  2
GREEKS
 70
     0
 40
0.0
 41
0.8
 50
0.0
 71
     0
 42
2.5
  3
SIMPLEX.shx
  4

  0
ENDTAB
  0
TABLE
  2
VIEW
  5
6
330
0
100
AcDbSymbolTable
 70
     0
  0
ENDTAB
  0
TABLE
  2
UCS
  5
7
330
0
100
AcDbSymbolTable
 70
     0
  0
ENDTAB
  0
TABLE
  2
APPID
  5
9
330
0
100
AcDbSymbolTable
 70
     1
  0
APPID
  5
12
330
9
100
AcDbSymbolTableRecord
100
AcDbRegAppTableRecord
  2
ACAD
 70
     0
  0
ENDTAB
  0
TABLE
  2
DIMSTYLE
  5
A
330
0
100
AcDbSymbolTable
 70
     1
100
AcDbDimStyleTable
 71
     1
340
26B
  0
DIMSTYLE
105
26B
102
{ACAD_REACTORS
330
2664
330
2665
330
2666
330
2676
330
2677
330
267F
102
}
330
A
100
AcDbSymbolTableRecord
100
AcDbDimStyleTableRecord
  2
Standard
 70
     0
340
11
  0
ENDTAB
  0
TABLE
  2
BLOCK_RECORD
  5
1
330
0
100
AcDbSymbolTable
 70
    11
  0
BLOCK_RECORD
  5
1E
330
1
100
AcDbSymbolTableRecord
100
AcDbBlockTableRecord
  2
*Model_Space
340
21
  0
BLOCK_RECORD
  5
1A
330
1
100
AcDbSymbolTableRecord
100
AcDbBlockTableRecord
  2
*Paper_Space
340
1D
  0
BLOCK_RECORD
  5
22
330
1
100
AcDbSymbolTableRecord
100
AcDbBlockTableRecord
  2
LOGO
340
0
102
{BLKREFS
331
1E2
102
}
  0
BLOCK_RECORD
  5
24CD
330
1
100
AcDbSymbolTableRecord
100
AcDbBlockTableRecord
  2
*X1
340
0
102
{BLKREFS
331
268E
102
}
  0
BLOCK_RECORD
  5
2519
330
1
100
AcDbSymbolTableRecord
100
AcDbBlockTableRecord
  2
*X2
340
0
102
{BLKREFS
331
26D4
102
}
  0
BLOCK_RECORD
  5
2707
330
1
100
AcDbSymbolTableRecord
100
AcDbBlockTableRecord
  2
*D3
340
0
  0
BLOCK_RECORD
  5
2713
330
1
100
AcDbSymbolTableRecord
100
AcDbBlockTableRecord
  2
*D4
340
0
  0
BLOCK_RECORD
  5
271F
330
1
100
AcDbSymbolTableRecord
100
AcDbBlockTableRecord
  2
*D5
340
0
  0
BLOCK_RECORD
  5
272B
330
1
100
AcDbSymbolTableRecord
100
AcDbBlockTableRecord
  2
*D6
340
0
  0
BLOCK_RECORD
  5
2737
330
1
100
AcDbSymbolTableRecord
100
AcDbBlockTableRecord
  2
*D7
340
0
  0
BLOCK_RECORD
  5
2743
330
1
100
AcDbSymbolTableRecord
100
AcDbBlockTableRecord
  2
*D8
340
0
  0
ENDTAB
  0
ENDSEC
  0
SECTION
  2
BLOCKS
  0
BLOCK
  5
40
330
1E
100
AcDbEntity
  8
0
100
AcDbBlockBegin
  2
*Model_Space
 70
     0
 10
0.0
 20
0.0
 30
0.0
  3
*Model_Space
  1

  0
ENDBLK
  5
41
330
1E
100
AcDbEntity
  8
0
100
AcDbBlockEnd
  0
BLOCK
  5
3E
330
1A
100
AcDbEntity
 67
     1
  8
0
100
AcDbBlockBegin
  2
*Paper_Space
 70
     0
 10
0.0
 20
0.0
 30
0.0
  3
*Paper_Space
  1

  0
ENDBLK
  5
3F
330
1A
100
AcDbEntity
 67
     1
  8
0
100
AcDbBlockEnd
  0
BLOCK
  5
42
330
22
100
AcDbEntity
  8
0
100
AcDbBlockBegin
  2
LOGO
 70
     0
 10
0.0
 20
0.0
 30
0.0
  3
LOGO
  1

  0
ARC
  5
43
330
22
100
AcDbEntity
  8
0
100
AcDbCircle
 10
11.59973089678112
 20
-9.271599258481501
 30
0.0
 40
4.5
100
AcDbArc
 50
270.0
 51
231.0575587310159
  0
LINE
  5
44
330
22
100
AcDbEntity
  8
0
100
AcDbLine
 10
3.599730896781125
 20
-4.771599258481529
 30
0.0
 11
3.599730896781153
 21
-11.77159925848133
 31
0.0
  0
LINE
  5
45
330
22
100
AcDbEntity
  8
0
100
AcDbLine
 10
2.599730896781125
 20
-4.771599258481529
 30
0.0
 11
2.599730896781153
 21
-11.77159925848133
 31
0.0
  0
CIRCLE
  5
46
330
22
100
AcDbEntity
  8
0
100
AcDbCircle
 10
11.59973089678112
 20
-9.271599258481501
 30
0.0
 40
3.5
  0
ARC
  5
47
330
22
100
AcDbEntity
  8
0
100
AcDbCircle
 10
31.59973089678115
 20
-9.271599258481472
 30
0.0
 40
4.5
100
AcDbArc
 50
270.0
 51
231.0575587310182
  0
LINE
  5
48
330
22
100
AcDbEntity
  8
0
100
AcDbLine
 10
17.59973089678112
 20
-4.771599258481472
 30
0.0
 11
17.59973089678115
 21
-13.77159925848147
 31
0.0
  0
ARC
  5
49
330
22
100
AcDbEntity
  8
0
100
AcDbCircle
 10
22.59973089678116
 20
-7.271599258481472
 30
0.0
 40
2.5
100
AcDbArc
 50
293.1161887722295
 51
90.0
  0
CIRCLE
  5
4A
330
22
100
AcDbEntity
  8
0
100
AcDbCircle
 10
31.59973089678115
 20
-9.271599258481472
 30
0.0
 40
3.5
  0
ARC
  5
4B
330
22
100
AcDbEntity
  8
0
100
AcDbCircle
 10
4.599730896781153
 20
-11.77159925848133
 30
0.0
 40
1.0
100
AcDbArc
 50
180.0
 51
270.0
  0
ARC
  5
4C
330
22
100
AcDbEntity
  8
0
100
AcDbCircle
 10
4.599730896781153
 20
-11.77159925848133
 30
0.0
 40
2.0
100
AcDbArc
 50
179.9999999999992
 51
270.0
  0
LINE
  5
4D
330
22
100
AcDbEntity
  8
0
100
AcDbLine
 10
11.59973089678115
 20
-13.77159925848144
 30
0.0
 11
4.599730896781153
 21
-13.77159925848147
 31
0.0
  0
LINE
  5
4E
330
22
100
AcDbEntity
  8
0
100
AcDbLine
 10
8.771303772034769
 20
-12.77159925848136
 30
0.0
 11
4.599730896781153
 21
-12.77159925848133
 31
0.0
  0
LINE
  5
4F
330
22
100
AcDbEntity
  8
0
100
AcDbLine
 10
31.59973089678115
 20
-13.77159925848147
 30
0.0
 11
23.6715276665056
 21
-13.77159925848144
 31
0.0
  0
LINE
  5
50
330
22
100
AcDbEntity
  8
0
100
AcDbLine
 10
23.56565672307022
 20
-9.51278021337896
 30
0.0
 11
24.4388546544846
 21
-12.77159925848144
 31
0.0
  0
LINE
  5
51
330
22
100
AcDbEntity
  8
0
100
AcDbLine
 10
22.59973089678116
 20
-9.771599258481472
 30
0.0
 11
18.59973089678112
 21
-9.771599258481472
 31
0.0
  0
LINE
  5
52
330
22
100
AcDbEntity
  8
0
100
AcDbLine
 10
18.59973089678115
 20
-13.77159925848144
 30
0.0
 11
17.59973089678115
 21
-13.77159925848144
 31
0.0
  0
LINE
  5
53
330
22
100
AcDbEntity
  8
0
100
AcDbLine
 10
18.59973089678115
 20
-9.771599258481472
 30
0.0
 11
18.59973089678115
 21
-13.77159925848144
 31
0.0
  0
LINE
  5
54
330
22
100
AcDbEntity
  8
0
100
AcDbLine
 10
22.59973089678116
 20
-9.771599258481472
 30
0.0
 11
23.67152766650562
 21
-13.77159925848147
 31
0.0
  0
ARC
  5
55
330
22
100
AcDbEntity
  8
0
100
AcDbCircle
 10
22.59973089678116
 20
-7.271599258481472
 30
0.0
 40
2.5
100
AcDbArc
 50
270.0
 51
270.0000000000007
  0
LINE
  5
56
330
22
100
AcDbEntity
  8
0
100
AcDbLine
 10
28.77130377203494
 20
-12.77159925848147
 30
0.0
 11
24.43885465448463
 21
-12.77159925848144
 31
0.0
  0
LINE
  5
57
330
22
100
AcDbEntity
  8
0
100
AcDbLine
 10
3.599730896781125
 20
-4.771599258481472
 30
0.0
 11
2.599730896781125
 21
-4.771599258481472
 31
0.0
  0
LINE
  5
58
330
22
100
AcDbEntity
  8
0
100
AcDbLine
 10
22.59973089678116
 20
-8.771599258481472
 30
0.0
 11
18.59973089678115
 21
-8.771599258481472
 31
0.0
  0
LINE
  5
59
330
22
100
AcDbEntity
  8
0
100
AcDbLine
 10
22.59973089678116
 20
-5.771599258481472
 30
0.0
 11
18.59973089678115
 21
-5.771599258481472
 31
0.0
  0
LINE
  5
5A
330
22
100
AcDbEntity
  8
0
100
AcDbLine
 10
22.59973089678116
 20
-4.771599258481472
 30
0.0
 11
17.59973089678115
 21
-4.771599258481472
 31
0.0
  0
LINE
  5
5B
330
22
100
AcDbEntity
  8
0
100
AcDbLine
 10
18.59973089678115
 20
-5.771599258481472
 30
0.0
 11
18.59973089678115
 21
-8.771599258481472
 31
0.0
  0
ARC
  5
5C
330
22
100
AcDbEntity
  8
0
100
AcDbCircle
 10
22.59973089678116
 20
-7.271599258481472
 30
0.0
 40
1.5
100
AcDbArc
 50
270.0
 51
90.0
  0
ENDBLK
  5
5D
330
22
100
AcDbEntity
  8
0
100
AcDbBlockEnd
  0
BLOCK
  5
24CE
330
24CD
100
AcDbEntity
  8
0
100
AcDbBlockBegin
  2
*X1
 70
     1
 10
0.0
 20
0.0
 30
0.0
  3
*X1
  1

  0
LINE
  5
24CF
330
24CD
100
AcDbEntity
  8
0
 62
     0
100
AcDbLine
 10
181.9271024097293
 20
409.1
 30
0.0
 11
185.9441769881413
 21
409.1
 31
0.0
  0
LINE
  5
24D0
330
24CD
100
AcDbEntity
  8
0
 62
     0
100
AcDbLine
 10
181.9186831022158
 20
409.2
 30
0.0
 11
185.934917728882
 21
409.2
 31
0.0
  0
LINE
  5
24D1
330
24CD
100
AcDbEntity
  8
0
 62
     0
100
AcDbLine
 10
181.9127834349063
 20
409.2999999999999
 30
0.0
 11
185.9256584696228
 21
409.2999999999999
 31
0.0
  0
LINE
  5
24D2
330
24CD
100
AcDbEntity
  8
0
 62
     0
100
AcDbLine
 10
181.9093922564548
 20
409.4
 30
0.0
 11
185.9163992103635
 21
409.4
 31
0.0
  0
LINE
  5
24D3
330
24CD
100
AcDbEntity
  8
0
 62
     0
100
AcDbLine
 10
181.9085031867647
 20
409.4999999999999
 30
0.0
 11
185.8983681399606
 21
409.4999999999999
 31
0.0
  0
LINE
  5
24D4
330
24CD
100
AcDbEntity
  8
0
 62
     0
100
AcDbLine
 10
181.9101145567405
 20
409.6
 30
0.0
 11
185.8283681399605
 21
409.6
 31
0.0
  0
LINE
  5
24D5
330
24CD
100
AcDbEntity
  8
0
 62
     0
100
AcDbLine
 10
181.9142293925832
 20
409.7
 30
0.0
 11
185.7583681399605
 21
409.7
 31
0.0
  0
LINE
  5
24D6
330
24CD
100
AcDbEntity
  8
0
 62
     0
100
AcDbLine
 10
181.9208554442813
 20
409.7999999999999
 30
0.0
 11
185.6883681399605
 21
409.7999999999999
 31
0.0
  0
LINE
  5
24D7
330
24CD
100
AcDbEntity
  8
0
 62
     0
100
AcDbLine
 10
181.9300052589288
 20
409.9
 30
0.0
 11
185.6183681399605
 21
409.9
 31
0.0
  0
LINE
  5
24D8
330
24CD
100
AcDbEntity
  8
0
 62
     0
100
AcDbLine
 10
181.9416963004945
 20
410.0
 30
0.0
 11
185.5483681399606
 21
410.0
 31
0.0
  0
LINE
  5
24D9
330
24CD
100
AcDbEntity
  8
0
 62
     0
100
AcDbLine
 10
181.955951118739
 20
410.0999999999999
 30
0.0
 11
185.4783681399606
 21
410.0999999999999
 31
0.0
  0
LINE
  5
24DA
330
24CD
100
AcDbEntity
  8
0
 62
     0
100
AcDbLine
 10
181.9727975711445
 20
410.2
 30
0.0
 11
185.4083681399605
 21
410.2
 31
0.0
  0
LINE
  5
24DB
330
24CD
100
AcDbEntity
  8
0
 62
     0
100
AcDbLine
 10
181.9922691030657
 20
410.2999999999999
 30
0.0
 11
185.3383681399606
 21
410.2999999999999
 31
0.0
  0
LINE
  5
24DC
330
24CD
100
AcDbEntity
  8
0
 62
     0
100
AcDbLine
 10
182.014405092866
 20
410.4
 30
0.0
 11
185.2683681399605
 21
410.4
 31
0.0
  0
LINE
  5
24DD
330
24CD
100
AcDbEntity
  8
0
 62
     0
100
AcDbLine
 10
182.0392512706728
 20
410.5
 30
0.0
 11
185.1983681399606
 21
410.5
 31
0.0
  0
LINE
  5
24DE
330
24CD
100
AcDbEntity
  8
0
 62
     0
100
AcDbLine
 10
182.066860221651
 20
410.5999999999999
 30
0.0
 11
185.1283681399605
 21
410.5999999999999
 31
0.0
  0
LINE
  5
24DF
330
24CD
100
AcDbEntity
  8
0
 62
     0
100
AcDbLine
 10
182.0972919874925
 20
410.7
 30
0.0
 11
185.0583681399605
 21
410.7
 31
0.0
  0
LINE
  5
24E0
330
24CD
100
AcDbEntity
  8
0
 62
     0
100
AcDbLine
 10
182.1306147833345
 20
410.8
 30
0.0
 11
184.9883681399606
 21
410.8
 31
0.0
  0
LINE
  5
24E1
330
24CD
100
AcDbEntity
  8
0
 62
     0
100
AcDbLine
 10
182.1669058517584
 20
410.8999999999999
 30
0.0
 11
184.9183681399605
 21
410.8999999999999
 31
0.0
  0
LINE
  5
24E2
330
24CD
100
AcDbEntity
  8
0
 62
     0
100
AcDbLine
 10
182.2062524812388
 20
411.0
 30
0.0
 11
184.8483681399605
 21
411.0
 31
0.0
  0
LINE
  5
24E3
330
24CD
100
AcDbEntity
  8
0
 62
     0
100
AcDbLine
 10
182.2487532238087
 20
411.1
 30
0.0
 11
184.7783681399605
 21
411.1
 31
0.0
  0
LINE
  5
24E4
330
24CD
100
AcDbEntity
  8
0
 62
     0
100
AcDbLine
 10
182.2945193564339
 20
411.2
 30
0.0
 11
184.7083681399605
 21
411.2
 31
0.0
  0
LINE
  5
24E5
330
24CD
100
AcDbEntity
  8
0
 62
     0
100
AcDbLine
 10
182.3436766434924
 20
411.3
 30
0.0
 11
184.6383681399606
 21
411.3
 31
0.0
  0
LINE
  5
24E6
330
24CD
100
AcDbEntity
  8
0
 62
     0
100
AcDbLine
 10
182.3963674751057
 20
411.4
 30
0.0
 11
184.5683681399606
 21
411.4
 31
0.0
  0
LINE
  5
24E7
330
24CD
100
AcDbEntity
  8
0
 62
     0
100
AcDbLine
 10
182.4527534796908
 20
411.5
 30
0.0
 11
184.4983681399606
 21
411.5
 31
0.0
  0
LINE
  5
24E8
330
24CD
100
AcDbEntity
  8
0
 62
     0
100
AcDbLine
 10
182.5130187417242
 20
411.6
 30
0.0
 11
184.4283681399605
 21
411.6
 31
0.0
  0
LINE
  5
24E9
330
24CD
100
AcDbEntity
  8
0
 62
     0
100
AcDbLine
 10
182.577373801429
 20
411.7
 30
0.0
 11
184.3583681399605
 21
411.7
 31
0.0
  0
LINE
  5
24EA
330
24CD
100
AcDbEntity
  8
0
 62
     0
100
AcDbLine
 10
182.6460606782557
 20
411.8
 30
0.0
 11
184.2883681399605
 21
411.8
 31
0.0
  0
LINE
  5
24EB
330
24CD
100
AcDbEntity
  8
0
 62
     0
100
AcDbLine
 10
182.7193592545537
 20
411.9
 30
0.0
 11
184.2183681399605
 21
411.9
 31
0.0
  0
LINE
  5
24EC
330
24CD
100
AcDbEntity
  8
0
 62
     0
100
AcDbLine
 10
182.7975954957608
 20
412.0
 30
0.0
 11
184.1483681399606
 21
412.0
 31
0.0
  0
LINE
  5
24ED
330
24CD
100
AcDbEntity
  8
0
 62
     0
100
AcDbLine
 10
182.881152195199
 20
412.1
 30
0.0
 11
184.0783681399605
 21
412.1
 31
0.0
  0
LINE
  5
24EE
330
24CD
100
AcDbEntity
  8
0
 62
     0
100
AcDbLine
 10
182.9704832601384
 20
412.2
 30
0.0
 11
184.0083681399605
 21
412.2
 31
0.0
  0
LINE
  5
24EF
330
24CD
100
AcDbEntity
  8
0
 62
     0
100
AcDbLine
 10
183.0661330801597
 20
412.3
 30
0.0
 11
183.9383681399606
 21
412.3
 31
0.0
  0
LINE
  5
24F0
330
24CD
100
AcDbEntity
  8
0
 62
     0
100
AcDbLine
 10
183.1687633829446
 20
412.4
 30
0.0
 11
183.8683681399605
 21
412.4
 31
0.0
  0
LINE
  5
24F1
330
24CD
100
AcDbEntity
  8
0
 62
     0
100
AcDbLine
 10
183.2791914601362
 20
412.5
 30
0.0
 11
183.7983681399606
 21
412.5
 31
0.0
  0
LINE
  5
24F2
330
24CD
100
AcDbEntity
  8
0
 62
     0
100
AcDbLine
 10
183.3984462832821
 20
412.6
 30
0.0
 11
183.7283681399605
 21
412.6
 31
0.0
  0
LINE
  5
24F3
330
24CD
100
AcDbEntity
  8
0
 62
     0
100
AcDbLine
 10
183.5278539828083
 20
412.7
 30
0.0
 11
183.6583681399605
 21
412.7
 31
0.0
  0
LINE
  5
24F4
330
24CD
100
AcDbEntity
  8
0
 62
     0
100
AcDbLine
 10
181.9380573861676
 20
409.0
 30
0.0
 11
185.9534362474006
 21
409.0
 31
0.0
  0
LINE
  5
24F5
330
24CD
100
AcDbEntity
  8
0
 62
     0
100
AcDbLine
 10
181.9515690920045
 20
408.9
 30
0.0
 11
185.9626955066598
 21
408.9
 31
0.0
  0
LINE
  5
24F6
330
24CD
100
AcDbEntity
  8
0
 62
     0
100
AcDbLine
 10
181.9676638256137
 20
408.8
 30
0.0
 11
185.9719547659191
 21
408.8
 31
0.0
  0
LINE
  5
24F7
330
24CD
100
AcDbEntity
  8
0
 62
     0
100
AcDbLine
 10
181.9863733859824
 20
408.7
 30
0.0
 11
185.9812140251783
 21
408.7
 31
0.0
  0
LINE
  5
24F8
330
24CD
100
AcDbEntity
  8
0
 62
     0
100
AcDbLine
 10
182.0077353982803
 20
408.6
 30
0.0
 11
185.9904732844376
 21
408.6
 31
0.0
  0
LINE
  5
24F9
330
24CD
100
AcDbEntity
  8
0
 62
     0
100
AcDbLine
 10
182.0317937103417
 20
408.4999999999999
 30
0.0
 11
185.9997325436968
 21
408.4999999999999
 31
0.0
  0
LINE
  5
24FA
330
24CD
100
AcDbEntity
  8
0
 62
     0
100
AcDbLine
 10
182.0585988702547
 20
408.4
 30
0.0
 11
186.0089918029561
 21
408.4
 31
0.0
  0
LINE
  5
24FB
330
24CD
100
AcDbEntity
  8
0
 62
     0
100
AcDbLine
 10
182.0882086978876
 20
408.3
 30
0.0
 11
186.0182510622153
 21
408.3
 31
0.0
  0
LINE
  5
24FC
330
24CD
100
AcDbEntity
  8
0
 62
     0
100
AcDbLine
 10
182.1206889664595
 20
408.2
 30
0.0
 11
186.0275103214746
 21
408.2
 31
0.0
  0
LINE
  5
24FD
330
24CD
100
AcDbEntity
  8
0
 62
     0
100
AcDbLine
 10
182.1561142144165
 20
408.1
 30
0.0
 11
186.0367695807339
 21
408.1
 31
0.0
  0
LINE
  5
24FE
330
24CD
100
AcDbEntity
  8
0
 62
     0
100
AcDbLine
 10
182.1945687131756
 20
408.0
 30
0.0
 11
186.0460288399931
 21
408.0
 31
0.0
  0
LINE
  5
24FF
330
24CD
100
AcDbEntity
  8
0
 62
     0
100
AcDbLine
 10
182.236147623162
 20
407.9
 30
0.0
 11
186.0552880992524
 21
407.9
 31
0.0
  0
LINE
  5
2500
330
24CD
100
AcDbEntity
  8
0
 62
     0
100
AcDbLine
 10
182.2809583795389
 20
407.8
 30
0.0
 11
186.0645473585116
 21
407.8
 31
0.0
  0
LINE
  5
2501
330
24CD
100
AcDbEntity
  8
0
 62
     0
100
AcDbLine
 10
182.3291223609088
 20
407.7
 30
0.0
 11
186.0738066177709
 21
407.7
 31
0.0
  0
LINE
  5
2502
330
24CD
100
AcDbEntity
  8
0
 62
     0
100
AcDbLine
 10
182.3807769101689
 20
407.6
 30
0.0
 11
186.0830658770302
 21
407.6
 31
0.0
  0
LINE
  5
2503
330
24CD
100
AcDbEntity
  8
0
 62
     0
100
AcDbLine
 10
182.4360777982862
 20
407.5
 30
0.0
 11
186.0923251362894
 21
407.5
 31
0.0
  0
LINE
  5
2504
330
24CD
100
AcDbEntity
  8
0
 62
     0
100
AcDbLine
 10
182.4952022514296
 20
407.4
 30
0.0
 11
186.1015843955487
 21
407.4
 31
0.0
  0
LINE
  5
2505
330
24CD
100
AcDbEntity
  8
0
 62
     0
100
AcDbLine
 10
182.5583527033
 20
407.3
 30
0.0
 11
186.110843654808
 21
407.3
 31
0.0
  0
LINE
  5
2506
330
24CD
100
AcDbEntity
  8
0
 62
     0
100
AcDbLine
 10
182.6257614932204
 20
407.2
 30
0.0
 11
186.1201029140672
 21
407.2
 31
0.0
  0
LINE
  5
2507
330
24CD
100
AcDbEntity
  8
0
 62
     0
100
AcDbLine
 10
182.6976968152745
 20
407.1
 30
0.0
 11
186.1293621733265
 21
407.1
 31
0.0
  0
LINE
  5
2508
330
24CD
100
AcDbEntity
  8
0
 62
     0
100
AcDbLine
 10
182.7744703484536
 20
407.0
 30
0.0
 11
186.1386214325857
 21
407.0
 31
0.0
  0
LINE
  5
2509
330
24CD
100
AcDbEntity
  8
0
 62
     0
100
AcDbLine
 10
182.856447185193
 20
406.9
 30
0.0
 11
186.147880691845
 21
406.9
 31
0.0
  0
LINE
  5
250A
330
24CD
100
AcDbEntity
  8
0
 62
     0
100
AcDbLine
 10
182.9440589643095
 20
406.8
 30
0.0
 11
186.1571399511042
 21
406.8
 31
0.0
  0
LINE
  5
250B
330
24CD
100
AcDbEntity
  8
0
 62
     0
100
AcDbLine
 10
183.0378215710729
 20
406.7
 30
0.0
 11
186.1663992103635
 21
406.7
 31
0.0
  0
LINE
  5
250C
330
24CD
100
AcDbEntity
  8
0
 62
     0
100
AcDbLine
 10
183.1383595125058
 20
406.6
 30
0.0
 11
186.1756584696228
 21
406.6
 31
0.0
  0
LINE
  5
250D
330
24CD
100
AcDbEntity
  8
0
 62
     0
100
AcDbLine
 10
183.2464403362431
 20
406.5
 30
0.0
 11
186.184917728882
 21
406.5
 31
0.0
  0
LINE
  5
250E
330
24CD
100
AcDbEntity
  8
0
 62
     0
100
AcDbLine
 10
183.3630246814822
 20
406.4
 30
0.0
 11
186.1941769881413
 21
406.4
 31
0.0
  0
LINE
  5
250F
330
24CD
100
AcDbEntity
  8
0
 62
     0
100
AcDbLine
 10
183.4893416555442
 20
406.3
 30
0.0
 11
186.2034362474005
 21
406.3
 31
0.0
  0
LINE
  5
2510
330
24CD
100
AcDbEntity
  8
0
 62
     0
100
AcDbLine
 10
183.6270072705474
 20
406.2
 30
0.0
 11
186.2126955066598
 21
406.2
 31
0.0
  0
LINE
  5
2511
330
24CD
100
AcDbEntity
  8
0
 62
     0
100
AcDbLine
 10
183.7782205738383
 20
406.0999999999999
 30
0.0
 11
186.221954765919
 21
406.0999999999999
 31
0.0
  0
LINE
  5
2512
330
24CD
100
AcDbEntity
  8
0
 62
     0
100
AcDbLine
 10
183.9461108873912
 20
406.0
 30
0.0
 11
186.2312140251783
 21
406.0
 31
0.0
  0
LINE
  5
2513
330
24CD
100
AcDbEntity
  8
0
 62
     0
100
AcDbLine
 10
184.135409295806
 20
405.9
 30
0.0
 11
186.2404732844376
 21
405.9
 31
0.0
  0
LINE
  5
2514
330
24CD
100
AcDbEntity
  8
0
 62
     0
100
AcDbLine
 10
184.3539168003755
 20
405.7999999999999
 30
0.0
 11
186.2497325436969
 21
405.7999999999999
 31
0.0
  0
LINE
  5
2515
330
24CD
100
AcDbEntity
  8
0
 62
     0
100
AcDbLine
 10
184.6163679662188
 20
405.7
 30
0.0
 11
186.2589918029561
 21
405.7
 31
0.0
  0
LINE
  5
2516
330
24CD
100
AcDbEntity
  8
0
 62
     0
100
AcDbLine
 10
184.9585116770442
 20
405.6
 30
0.0
 11
186.2682510622154
 21
405.6
 31
0.0
  0
LINE
  5
2517
330
24CD
100
AcDbEntity
  8
0
 62
     0
100
AcDbLine
 10
185.5688852782836
 20
405.4999999999999
 30
0.0
 11
186.2480689565906
 21
405.4999999999999
 31
0.0
  0
ENDBLK
  5
2518
330
24CD
100
AcDbEntity
  8
0
100
AcDbBlockEnd
  0
BLOCK
  5
251A
330
2519
100
AcDbEntity
  8
0
100
AcDbBlockBegin
  2
*X2
 70
     1
 10
0.0
 20
0.0
 30
0.0
  3
*X2
  1

  0
LINE
  5
251B
330
2519
100
AcDbEntity
  8
0
 62
     0
100
AcDbLine
 10
323.8727772467329
 20
409.1
 30
0.0
 11
327.8898518251493
 21
409.1
 31
0.0
  0
LINE
  5
251C
330
2519
100
AcDbEntity
  8
0
 62
     0
100
AcDbLine
 10
323.8820365059921
 20
409.2
 30
0.0
 11
327.8982711326628
 21
409.2
 31
0.0
  0
LINE
  5
251D
330
2519
100
AcDbEntity
  8
0
 62
     0
100
AcDbLine
 10
323.8912957652514
 20
409.2999999999999
 30
0.0
 11
327.9041707999724
 21
409.2999999999999
 31
0.0
  0
LINE
  5
251E
330
2519
100
AcDbEntity
  8
0
 62
     0
100
AcDbLine
 10
323.9005550245106
 20
409.4
 30
0.0
 11
327.9075619784238
 21
409.4
 31
0.0
  0
LINE
  5
251F
330
2519
100
AcDbEntity
  8
0
 62
     0
100
AcDbLine
 10
323.9185860949137
 20
409.4999999999999
 30
0.0
 11
327.9084510481139
 21
409.4999999999999
 31
0.0
  0
LINE
  5
2520
330
2519
100
AcDbEntity
  8
0
 62
     0
100
AcDbLine
 10
323.9885860949137
 20
409.6
 30
0.0
 11
327.9068396781381
 21
409.6
 31
0.0
  0
LINE
  5
2521
330
2519
100
AcDbEntity
  8
0
 62
     0
100
AcDbLine
 10
324.0585860949137
 20
409.7
 30
0.0
 11
327.9027248422954
 21
409.7
 31
0.0
  0
LINE
  5
2522
330
2519
100
AcDbEntity
  8
0
 62
     0
100
AcDbLine
 10
324.1285860949137
 20
409.7999999999999
 30
0.0
 11
327.8960987905973
 21
409.7999999999999
 31
0.0
  0
LINE
  5
2523
330
2519
100
AcDbEntity
  8
0
 62
     0
100
AcDbLine
 10
324.1985860949137
 20
409.9
 30
0.0
 11
327.8869489759498
 21
409.9
 31
0.0
  0
LINE
  5
2524
330
2519
100
AcDbEntity
  8
0
 62
     0
100
AcDbLine
 10
324.2685860949137
 20
410.0
 30
0.0
 11
327.8752579343841
 21
410.0
 31
0.0
  0
LINE
  5
2525
330
2519
100
AcDbEntity
  8
0
 62
     0
100
AcDbLine
 10
324.3385860949137
 20
410.0999999999999
 30
0.0
 11
327.8610031161397
 21
410.0999999999999
 31
0.0
  0
LINE
  5
2526
330
2519
100
AcDbEntity
  8
0
 62
     0
100
AcDbLine
 10
324.4085860949137
 20
410.2
 30
0.0
 11
327.8441566637341
 21
410.2
 31
0.0
  0
LINE
  5
2527
330
2519
100
AcDbEntity
  8
0
 62
     0
100
AcDbLine
 10
324.4785860949137
 20
410.2999999999999
 30
0.0
 11
327.8246851318129
 21
410.2999999999999
 31
0.0
  0
LINE
  5
2528
330
2519
100
AcDbEntity
  8
0
 62
     0
100
AcDbLine
 10
324.5485860949137
 20
410.4
 30
0.0
 11
327.8025491420128
 21
410.4
 31
0.0
  0
LINE
  5
2529
330
2519
100
AcDbEntity
  8
0
 62
     0
100
AcDbLine
 10
324.6185860949136
 20
410.5
 30
0.0
 11
327.7777029642059
 21
410.5
 31
0.0
  0
LINE
  5
252A
330
2519
100
AcDbEntity
  8
0
 62
     0
100
AcDbLine
 10
324.6885860949137
 20
410.5999999999999
 30
0.0
 11
327.7500940132278
 21
410.5999999999999
 31
0.0
  0
LINE
  5
252B
330
2519
100
AcDbEntity
  8
0
 62
     0
100
AcDbLine
 10
324.7585860949137
 20
410.7
 30
0.0
 11
327.7196622473862
 21
410.7
 31
0.0
  0
LINE
  5
252C
330
2519
100
AcDbEntity
  8
0
 62
     0
100
AcDbLine
 10
324.8285860949137
 20
410.8
 30
0.0
 11
327.6863394515444
 21
410.8
 31
0.0
  0
LINE
  5
252D
330
2519
100
AcDbEntity
  8
0
 62
     0
100
AcDbLine
 10
324.8985860949137
 20
410.8999999999999
 30
0.0
 11
327.6500483831205
 21
410.8999999999999
 31
0.0
  0
LINE
  5
252E
330
2519
100
AcDbEntity
  8
0
 62
     0
100
AcDbLine
 10
324.9685860949137
 20
411.0
 30
0.0
 11
327.6107017536401
 21
411.0
 31
0.0
  0
LINE
  5
252F
330
2519
100
AcDbEntity
  8
0
 62
     0
100
AcDbLine
 10
325.0385860949137
 20
411.1
 30
0.0
 11
327.5682010110703
 21
411.1
 31
0.0
  0
LINE
  5
2530
330
2519
100
AcDbEntity
  8
0
 62
     0
100
AcDbLine
 10
325.1085860949137
 20
411.2
 30
0.0
 11
327.5224348784452
 21
411.2
 31
0.0
  0
LINE
  5
2531
330
2519
100
AcDbEntity
  8
0
 62
     0
100
AcDbLine
 10
325.1785860949137
 20
411.3
 30
0.0
 11
327.4732775913867
 21
411.3
 31
0.0
  0
LINE
  5
2532
330
2519
100
AcDbEntity
  8
0
 62
     0
100
AcDbLine
 10
325.2485860949137
 20
411.4
 30
0.0
 11
327.4205867597735
 21
411.4
 31
0.0
  0
LINE
  5
2533
330
2519
100
AcDbEntity
  8
0
 62
     0
100
AcDbLine
 10
325.3185860949137
 20
411.5
 30
0.0
 11
327.3642007551885
 21
411.5
 31
0.0
  0
LINE
  5
2534
330
2519
100
AcDbEntity
  8
0
 62
     0
100
AcDbLine
 10
325.3885860949137
 20
411.6
 30
0.0
 11
327.3039354931552
 21
411.6
 31
0.0
  0
LINE
  5
2535
330
2519
100
AcDbEntity
  8
0
 62
     0
100
AcDbLine
 10
325.4585860949138
 20
411.7
 30
0.0
 11
327.2395804334504
 21
411.7
 31
0.0
  0
LINE
  5
2536
330
2519
100
AcDbEntity
  8
0
 62
     0
100
AcDbLine
 10
325.5285860949137
 20
411.8
 30
0.0
 11
327.1708935566238
 21
411.8
 31
0.0
  0
LINE
  5
2537
330
2519
100
AcDbEntity
  8
0
 62
     0
100
AcDbLine
 10
325.5985860949138
 20
411.9
 30
0.0
 11
327.097594980326
 21
411.9
 31
0.0
  0
LINE
  5
2538
330
2519
100
AcDbEntity
  8
0
 62
     0
100
AcDbLine
 10
325.6685860949137
 20
412.0
 30
0.0
 11
327.019358739119
 21
412.0
 31
0.0
  0
LINE
  5
2539
330
2519
100
AcDbEntity
  8
0
 62
     0
100
AcDbLine
 10
325.7385860949137
 20
412.1
 30
0.0
 11
326.935802039681
 21
412.1
 31
0.0
  0
LINE
  5
253A
330
2519
100
AcDbEntity
  8
0
 62
     0
100
AcDbLine
 10
325.8085860949137
 20
412.2
 30
0.0
 11
326.8464709747417
 21
412.2
 31
0.0
  0
LINE
  5
253B
330
2519
100
AcDbEntity
  8
0
 62
     0
100
AcDbLine
 10
325.8785860949137
 20
412.3
 30
0.0
 11
326.7508211547206
 21
412.3
 31
0.0
  0
LINE
  5
253C
330
2519
100
AcDbEntity
  8
0
 62
     0
100
AcDbLine
 10
325.9485860949137
 20
412.4
 30
0.0
 11
326.648190851936
 21
412.4
 31
0.0
  0
LINE
  5
253D
330
2519
100
AcDbEntity
  8
0
 62
     0
100
AcDbLine
 10
326.0185860949137
 20
412.5
 30
0.0
 11
326.5377627747446
 21
412.5
 31
0.0
  0
LINE
  5
253E
330
2519
100
AcDbEntity
  8
0
 62
     0
100
AcDbLine
 10
326.0885860949137
 20
412.6
 30
0.0
 11
326.4185079515991
 21
412.6
 31
0.0
  0
LINE
  5
253F
330
2519
100
AcDbEntity
  8
0
 62
     0
100
AcDbLine
 10
326.1585860949137
 20
412.7
 30
0.0
 11
326.2891002520732
 21
412.7
 31
0.0
  0
LINE
  5
2540
330
2519
100
AcDbEntity
  8
0
 62
     0
100
AcDbLine
 10
323.8635179874736
 20
409.0
 30
0.0
 11
327.878896848711
 21
409.0
 31
0.0
  0
LINE
  5
2541
330
2519
100
AcDbEntity
  8
0
 62
     0
100
AcDbLine
 10
323.8542587282144
 20
408.9
 30
0.0
 11
327.8653851428742
 21
408.9
 31
0.0
  0
LINE
  5
2542
330
2519
100
AcDbEntity
  8
0
 62
     0
100
AcDbLine
 10
323.8449994689551
 20
408.8
 30
0.0
 11
327.849290409265
 21
408.8
 31
0.0
  0
LINE
  5
2543
330
2519
100
AcDbEntity
  8
0
 62
     0
100
AcDbLine
 10
323.8357402096959
 20
408.7
 30
0.0
 11
327.8305808488964
 21
408.7
 31
0.0
  0
LINE
  5
2544
330
2519
100
AcDbEntity
  8
0
 62
     0
100
AcDbLine
 10
323.8264809504366
 20
408.6
 30
0.0
 11
327.8092188365984
 21
408.6
 31
0.0
  0
LINE
  5
2545
330
2519
100
AcDbEntity
  8
0
 62
     0
100
AcDbLine
 10
323.8172216911773
 20
408.4999999999999
 30
0.0
 11
327.7851605245371
 21
408.4999999999999
 31
0.0
  0
LINE
  5
2546
330
2519
100
AcDbEntity
  8
0
 62
     0
100
AcDbLine
 10
323.807962431918
 20
408.4
 30
0.0
 11
327.7583553646241
 21
408.4
 31
0.0
  0
LINE
  5
2547
330
2519
100
AcDbEntity
  8
0
 62
     0
100
AcDbLine
 10
323.7987031726588
 20
408.3
 30
0.0
 11
327.7287455369913
 21
408.3
 31
0.0
  0
LINE
  5
2548
330
2519
100
AcDbEntity
  8
0
 62
     0
100
AcDbLine
 10
323.7894439133996
 20
408.2
 30
0.0
 11
327.6962652684194
 21
408.2
 31
0.0
  0
LINE
  5
2549
330
2519
100
AcDbEntity
  8
0
 62
     0
100
AcDbLine
 10
323.7801846541403
 20
408.1
 30
0.0
 11
327.6608400204624
 21
408.1
 31
0.0
  0
LINE
  5
254A
330
2519
100
AcDbEntity
  8
0
 62
     0
100
AcDbLine
 10
323.7709253948811
 20
408.0
 30
0.0
 11
327.6223855217034
 21
408.0
 31
0.0
  0
LINE
  5
254B
330
2519
100
AcDbEntity
  8
0
 62
     0
100
AcDbLine
 10
323.7616661356218
 20
407.9
 30
0.0
 11
327.5808066117172
 21
407.9
 31
0.0
  0
LINE
  5
254C
330
2519
100
AcDbEntity
  8
0
 62
     0
100
AcDbLine
 10
323.7524068763625
 20
407.8
 30
0.0
 11
327.5359958553402
 21
407.8
 31
0.0
  0
LINE
  5
254D
330
2519
100
AcDbEntity
  8
0
 62
     0
100
AcDbLine
 10
323.7431476171033
 20
407.7
 30
0.0
 11
327.4878318739703
 21
407.7
 31
0.0
  0
LINE
  5
254E
330
2519
100
AcDbEntity
  8
0
 62
     0
100
AcDbLine
 10
323.733888357844
 20
407.6
 30
0.0
 11
327.4361773247104
 21
407.6
 31
0.0
  0
LINE
  5
254F
330
2519
100
AcDbEntity
  8
0
 62
     0
100
AcDbLine
 10
323.7246290985847
 20
407.5
 30
0.0
 11
327.3808764365931
 21
407.5
 31
0.0
  0
LINE
  5
2550
330
2519
100
AcDbEntity
  8
0
 62
     0
100
AcDbLine
 10
323.7153698393255
 20
407.4
 30
0.0
 11
327.3217519834498
 21
407.4
 31
0.0
  0
LINE
  5
2551
330
2519
100
AcDbEntity
  8
0
 62
     0
100
AcDbLine
 10
323.7061105800662
 20
407.3
 30
0.0
 11
327.2586015315795
 21
407.3
 31
0.0
  0
LINE
  5
2552
330
2519
100
AcDbEntity
  8
0
 62
     0
100
AcDbLine
 10
323.6968513208069
 20
407.2
 30
0.0
 11
327.1911927416593
 21
407.2
 31
0.0
  0
LINE
  5
2553
330
2519
100
AcDbEntity
  8
0
 62
     0
100
AcDbLine
 10
323.6875920615477
 20
407.1
 30
0.0
 11
327.1192574196053
 21
407.1
 31
0.0
  0
LINE
  5
2554
330
2519
100
AcDbEntity
  8
0
 62
     0
100
AcDbLine
 10
323.6783328022884
 20
407.0
 30
0.0
 11
327.0424838864264
 21
407.0
 31
0.0
  0
LINE
  5
2555
330
2519
100
AcDbEntity
  8
0
 62
     0
100
AcDbLine
 10
323.6690735430292
 20
406.9
 30
0.0
 11
326.9605070496871
 21
406.9
 31
0.0
  0
LINE
  5
2556
330
2519
100
AcDbEntity
  8
0
 62
     0
100
AcDbLine
 10
323.6598142837699
 20
406.8
 30
0.0
 11
326.8728952705708
 21
406.8
 31
0.0
  0
LINE
  5
2557
330
2519
100
AcDbEntity
  8
0
 62
     0
100
AcDbLine
 10
323.6505550245106
 20
406.7
 30
0.0
 11
326.7791326638076
 21
406.7
 31
0.0
  0
LINE
  5
2558
330
2519
100
AcDbEntity
  8
0
 62
     0
100
AcDbLine
 10
323.6412957652514
 20
406.6
 30
0.0
 11
326.678594722375
 21
406.6
 31
0.0
  0
LINE
  5
2559
330
2519
100
AcDbEntity
  8
0
 62
     0
100
AcDbLine
 10
323.6320365059921
 20
406.5
 30
0.0
 11
326.5705138986378
 21
406.5
 31
0.0
  0
LINE
  5
255A
330
2519
100
AcDbEntity
  8
0
 62
     0
100
AcDbLine
 10
323.6227772467329
 20
406.4
 30
0.0
 11
326.4539295533991
 21
406.4
 31
0.0
  0
LINE
  5
255B
330
2519
100
AcDbEntity
  8
0
 62
     0
100
AcDbLine
 10
323.6135179874736
 20
406.3
 30
0.0
 11
326.3276125793375
 21
406.3
 31
0.0
  0
LINE
  5
255C
330
2519
100
AcDbEntity
  8
0
 62
     0
100
AcDbLine
 10
323.6042587282144
 20
406.2
 30
0.0
 11
326.1899469643347
 21
406.2
 31
0.0
  0
LINE
  5
255D
330
2519
100
AcDbEntity
  8
0
 62
     0
100
AcDbLine
 10
323.5949994689551
 20
406.0999999999999
 30
0.0
 11
326.0387336610445
 21
406.0999999999999
 31
0.0
  0
LINE
  5
255E
330
2519
100
AcDbEntity
  8
0
 62
     0
100
AcDbLine
 10
323.5857402096958
 20
406.0
 30
0.0
 11
325.8708433474923
 21
406.0
 31
0.0
  0
LINE
  5
255F
330
2519
100
AcDbEntity
  8
0
 62
     0
100
AcDbLine
 10
323.5764809504366
 20
405.9
 30
0.0
 11
325.6815449390785
 21
405.9
 31
0.0
  0
LINE
  5
2560
330
2519
100
AcDbEntity
  8
0
 62
     0
100
AcDbLine
 10
323.5672216911773
 20
405.7999999999999
 30
0.0
 11
325.4630374345105
 21
405.7999999999999
 31
0.0
  0
LINE
  5
2561
330
2519
100
AcDbEntity
  8
0
 62
     0
100
AcDbLine
 10
323.557962431918
 20
405.7
 30
0.0
 11
325.2005862686695
 21
405.7
 31
0.0
  0
LINE
  5
2562
330
2519
100
AcDbEntity
  8
0
 62
     0
100
AcDbLine
 10
323.5487031726588
 20
405.6
 30
0.0
 11
324.8584425578493
 21
405.6
 31
0.0
  0
LINE
  5
2563
330
2519
100
AcDbEntity
  8
0
 62
     0
100
AcDbLine
 10
323.5688852782293
 20
405.4999999999999
 30
0.0
 11
324.2480689566448
 21
405.4999999999999
 31
0.0
  0
ENDBLK
  5
2564
330
2519
100
AcDbEntity
  8
0
100
AcDbBlockEnd
  0
BLOCK
  5
2711
330
2707
100
AcDbEntity
  8
0
100
AcDbBlockBegin
  2
*D3
 70
     1
 10
0.0
 20
0.0
 30
0.0
  3
*D3
  1

  0
LINE
  5
298A
330
2707
100
AcDbEntity
  8
BEM
 62
     0
370
    -2
100
AcDbLine
 10
111.5583253849382
 20
309.6962555781889
 30
0.0
 11
111.5583253849382
 21
198.5254123224072
 31
0.0
  0
LINE
  5
298B
330
2707
100
AcDbEntity
  8
BEM
 62
     0
370
    -2
100
AcDbLine
 10
279.8583253849382
 20
309.6962555781886
 30
0.0
 11
279.8583253849382
 21
198.5254123224072
 31
0.0
  0
LINE
  5
298C
330
2707
100
AcDbEntity
  8
BEM
 62
     0
370
    -2
100
AcDbLine
 10
118.5583253849382
 20
200.5254123224072
 30
0.0
 11
272.8583253849382
 21
200.5254123224072
 31
0.0
  0
SOLID
  5
298D
330
2707
100
AcDbEntity
  8
BEM
 62
     0
100
AcDbTrace
 10
118.5583253849382
 20
201.6920789890738
 30
0.0
 11
118.5583253849382
 21
199.3587456557405
 31
0.0
 12
111.5583253849382
 22
200.5254123224072
 32
0.0
 13
111.5583253849382
 23
200.5254123224072
 33
0.0
  0
SOLID
  5
298E
330
2707
100
AcDbEntity
  8
BEM
 62
     0
100
AcDbTrace
 10
272.8583253849382
 20
201.6920789890738
 30
0.0
 11
272.8583253849382
 21
199.3587456557405
 31
0.0
 12
279.8583253849382
 22
200.5254123224072
 32
0.0
 13
279.8583253849382
 23
200.5254123224072
 33
0.0
  0
MTEXT
  5
298F
330
2707
100
AcDbEntity
  8
BEM
 62
     1
100
AcDbMText
 10
195.7083253849382
 20
207.0254123224072
 30
0.0
 40
7.0
 41
0.0
 71
     5
 72
     1
  1
\A1;%%c168.3
 73
     1
 44
1.0
  0
POINT
  5
2990
330
2707
100
AcDbEntity
  8
DEFPOINTS
 62
     0
100
AcDbPoint
 10
111.5583253849382
 20
311.6962555781889
 30
0.0
  0
POINT
  5
2991
330
2707
100
AcDbEntity
  8
DEFPOINTS
 62
     0
100
AcDbPoint
 10
279.8583253849382
 20
311.6962555781886
 30
0.0
  0
POINT
  5
2992
330
2707
100
AcDbEntity
  8
DEFPOINTS
 62
     0
100
AcDbPoint
 10
279.8583253849382
 20
200.5254123224072
 30
0.0
  0
ENDBLK
  5
2712
330
2707
100
AcDbEntity
  8
0
100
AcDbBlockEnd
  0
BLOCK
  5
271D
330
2713
100
AcDbEntity
  8
0
100
AcDbBlockBegin
  2
*D4
 70
     1
 10
0.0
 20
0.0
 30
0.0
  3
*D4
  1

  0
LINE
  5
27BF
330
2713
100
AcDbEntity
  8
BEM
 62
     0
370
    -2
100
AcDbLine
 10
129.2083253849382
 20
264.5871032209172
 30
0.0
 11
129.2083253849382
 21
229.5531117513876
 31
0.0
  0
LINE
  5
27C0
330
2713
100
AcDbEntity
  8
BEM
 62
     0
370
    -2
100
AcDbLine
 10
262.2083253849382
 20
264.5871032209178
 30
0.0
 11
262.2083253849382
 21
229.5531117513876
 31
0.0
  0
LINE
  5
27C1
330
2713
100
AcDbEntity
  8
BEM
 62
     0
370
    -2
100
AcDbLine
 10
136.2083253849382
 20
231.5531117513876
 30
0.0
 11
255.2083253849382
 21
231.5531117513876
 31
0.0
  0
SOLID
  5
27C2
330
2713
100
AcDbEntity
  8
BEM
 62
     0
100
AcDbTrace
 10
136.2083253849382
 20
232.7197784180543
 30
0.0
 11
136.2083253849382
 21
230.386445084721
 31
0.0
 12
129.2083253849382
 22
231.5531117513876
 32
0.0
 13
129.2083253849382
 23
231.5531117513876
 33
0.0
  0
SOLID
  5
27C3
330
2713
100
AcDbEntity
  8
BEM
 62
     0
100
AcDbTrace
 10
255.2083253849382
 20
232.7197784180543
 30
0.0
 11
255.2083253849382
 21
230.386445084721
 31
0.0
 12
262.2083253849382
 22
231.5531117513876
 32
0.0
 13
262.2083253849382
 23
231.5531117513876
 33
0.0
  0
MTEXT
  5
27C4
330
2713
100
AcDbEntity
  8
BEM
 62
     1
100
AcDbMText
 10
195.7083253849382
 20
238.0531117513876
 30
0.0
 40
7.0
 41
0.0
 71
     5
 72
     1
  1
\A1;%%c133
 73
     1
 44
1.0
  0
POINT
  5
27C5
330
2713
100
AcDbEntity
  8
DEFPOINTS
 62
     0
100
AcDbPoint
 10
129.2083253849382
 20
266.5871032209172
 30
0.0
  0
POINT
  5
27C6
330
2713
100
AcDbEntity
  8
DEFPOINTS
 62
     0
100
AcDbPoint
 10
262.2083253849382
 20
266.5871032209178
 30
0.0
  0
POINT
  5
27C7
330
2713
100
AcDbEntity
  8
DEFPOINTS
 62
     0
100
AcDbPoint
 10
262.2083253849382
 20
231.5531117513876
 30
0.0
  0
ENDBLK
  5
271E
330
2713
100
AcDbEntity
  8
0
100
AcDbBlockEnd
  0
BLOCK
  5
2729
330
271F
100
AcDbEntity
  8
0
100
AcDbBlockBegin
  2
*D5
 70
     1
 10
0.0
 20
0.0
 30
0.0
  3
*D5
  1

  0
LINE
  5
2A17
330
271F
100
AcDbEntity
  8
BEM
 62
     0
370
    -2
100
AcDbLine
 10
86.15832538493823
 20
538.6962555781888
 30
0.0
 11
86.15832538493823
 21
563.2072061560361
 31
0.0
  0
LINE
  5
2A18
330
271F
100
AcDbEntity
  8
BEM
 62
     0
370
    -2
100
AcDbLine
 10
305.2583253849383
 20
538.6962555781888
 30
0.0
 11
305.2583253849383
 21
563.2072061560361
 31
0.0
  0
LINE
  5
2A19
330
271F
100
AcDbEntity
  8
BEM
 62
     0
370
    -2
100
AcDbLine
 10
93.15832538493822
 20
561.2072061560361
 30
0.0
 11
298.2583253849382
 21
561.2072061560361
 31
0.0
  0
SOLID
  5
2A1A
330
271F
100
AcDbEntity
  8
BEM
 62
     0
100
AcDbTrace
 10
93.15832538493822
 20
562.3738728227027
 30
0.0
 11
93.15832538493822
 21
560.0405394893694
 31
0.0
 12
86.15832538493823
 22
561.2072061560361
 32
0.0
 13
86.15832538493823
 23
561.2072061560361
 33
0.0
  0
SOLID
  5
2A1B
330
271F
100
AcDbEntity
  8
BEM
 62
     0
100
AcDbTrace
 10
298.2583253849382
 20
562.3738728227027
 30
0.0
 11
298.2583253849382
 21
560.0405394893694
 31
0.0
 12
305.2583253849383
 22
561.2072061560361
 32
0.0
 13
305.2583253849383
 23
561.2072061560361
 33
0.0
  0
MTEXT
  5
2A1C
330
271F
100
AcDbEntity
  8
BEM
 62
     1
100
AcDbMText
 10
195.7083253849382
 20
567.7072061560361
 30
0.0
 40
7.0
 41
0.0
 71
     5
 72
     1
  1
\A1;%%c219.1
 73
     1
 44
1.0
  0
POINT
  5
2A1D
330
271F
100
AcDbEntity
  8
DEFPOINTS
 62
     0
100
AcDbPoint
 10
86.15832538493823
 20
536.6962555781888
 30
0.0
  0
POINT
  5
2A1E
330
271F
100
AcDbEntity
  8
DEFPOINTS
 62
     0
100
AcDbPoint
 10
305.2583253849383
 20
536.6962555781888
 30
0.0
  0
POINT
  5
2A1F
330
271F
100
AcDbEntity
  8
DEFPOINTS
 62
     0
100
AcDbPoint
 10
305.2583253849383
 20
561.2072061560361
 30
0.0
  0
ENDBLK
  5
272A
330
271F
100
AcDbEntity
  8
0
100
AcDbBlockEnd
  0
BLOCK
  5
2735
330
272B
100
AcDbEntity
  8
0
100
AcDbBlockBegin
  2
*D6
 70
     1
 10
0.0
 20
0.0
 30
0.0
  3
*D6
  1

  0
LINE
  5
2A20
330
272B
100
AcDbEntity
  8
BEM
 62
     0
370
    -2
100
AcDbLine
 10
84.15832538493821
 20
536.6962555781888
 30
0.0
 11
57.66863281683761
 21
536.6962555781888
 31
0.0
  0
LINE
  5
2A21
330
272B
100
AcDbEntity
  8
BEM
 62
     0
370
    -2
100
AcDbLine
 10
128.5111057439687
 20
251.6962555781889
 30
0.0
 11
57.66863281683754
 21
251.6962555781889
 31
0.0
  0
LINE
  5
2A22
330
272B
100
AcDbEntity
  8
BEM
 62
     0
370
    -2
100
AcDbLine
 10
59.6686328168376
 20
529.6962555781887
 30
0.0
 11
59.66863281683754
 21
258.6962555781889
 31
0.0
  0
SOLID
  5
2A23
330
272B
100
AcDbEntity
  8
BEM
 62
     0
100
AcDbTrace
 10
58.50196615017094
 20
529.6962555781887
 30
0.0
 11
60.83529948350427
 21
529.6962555781887
 31
0.0
 12
59.6686328168376
 22
536.6962555781888
 32
0.0
 13
59.6686328168376
 23
536.6962555781888
 33
0.0
  0
SOLID
  5
2A24
330
272B
100
AcDbEntity
  8
BEM
 62
     0
100
AcDbTrace
 10
58.50196615017088
 20
258.6962555781889
 30
0.0
 11
60.8352994835042
 21
258.6962555781889
 31
0.0
 12
59.66863281683754
 22
251.6962555781889
 32
0.0
 13
59.66863281683754
 23
251.6962555781889
 33
0.0
  0
MTEXT
  5
2A25
330
272B
100
AcDbEntity
  8
BEM
 62
     1
100
AcDbMText
 10
53.16863281683751
 20
394.1962555781889
 30
0.0
 40
7.0
 41
0.0
 71
     5
 72
     1
  1
\A1;285
 11
0.0000000000000001
 21
1.0
 31
0.0
 73
     1
 44
1.0
  0
POINT
  5
2A26
330
272B
100
AcDbEntity
  8
DEFPOINTS
 62
     0
100
AcDbPoint
 10
86.15832538493823
 20
536.6962555781888
 30
0.0
  0
POINT
  5
2A27
330
272B
100
AcDbEntity
  8
DEFPOINTS
 62
     0
100
AcDbPoint
 10
130.5111057439687
 20
251.6962555781889
 30
0.0
  0
POINT
  5
2A28
330
272B
100
AcDbEntity
  8
DEFPOINTS
 62
     0
100
AcDbPoint
 10
59.66863281683754
 20
251.6962555781889
 30
0.0
  0
ENDBLK
  5
2736
330
272B
100
AcDbEntity
  8
0
100
AcDbBlockEnd
  0
BLOCK
  5
2741
330
2737
100
AcDbEntity
  8
0
100
AcDbBlockBegin
  2
*D7
 70
     1
 10
0.0
 20
0.0
 30
0.0
  3
*D7
  1

  0
LINE
  5
2A34
330
2737
100
AcDbEntity
  8
BEM
 62
     0
370
    -2
100
AcDbLine
 10
84.15832538493821
 20
536.6962555781888
 30
0.0
 11
71.66863281683759
 21
536.6962555781888
 31
0.0
  0
LINE
  5
2A35
330
2737
100
AcDbEntity
  8
BEM
 62
     0
370
    -2
100
AcDbLine
 10
109.7083253849382
 20
311.6962555781889
 30
0.0
 11
71.66863281683754
 21
311.6962555781889
 31
0.0
  0
LINE
  5
2A36
330
2737
100
AcDbEntity
  8
BEM
 62
     0
370
    -2
100
AcDbLine
 10
73.66863281683759
 20
529.6962555781887
 30
0.0
 11
73.66863281683754
 21
318.6962555781889
 31
0.0
  0
SOLID
  5
2A37
330
2737
100
AcDbEntity
  8
BEM
 62
     0
100
AcDbTrace
 10
72.50196615017092
 20
529.6962555781887
 30
0.0
 11
74.83529948350426
 21
529.6962555781887
 31
0.0
 12
73.66863281683759
 22
536.6962555781888
 32
0.0
 13
73.66863281683759
 23
536.6962555781888
 33
0.0
  0
SOLID
  5
2A38
330
2737
100
AcDbEntity
  8
BEM
 62
     0
100
AcDbTrace
 10
72.50196615017087
 20
318.6962555781889
 30
0.0
 11
74.83529948350422
 21
318.6962555781889
 31
0.0
 12
73.66863281683754
 22
311.6962555781889
 32
0.0
 13
73.66863281683754
 23
311.6962555781889
 33
0.0
  0
MTEXT
  5
2A39
330
2737
100
AcDbEntity
  8
BEM
 62
     1
100
AcDbMText
 10
67.1686328168375
 20
424.1962555781888
 30
0.0
 40
7.0
 41
0.0
 71
     5
 72
     1
  1
\A1;225
 11
0.0000000000000001
 21
1.0
 31
0.0
 73
     1
 44
1.0
  0
POINT
  5
2A3A
330
2737
100
AcDbEntity
  8
DEFPOINTS
 62
     0
100
AcDbPoint
 10
86.15832538493823
 20
536.6962555781888
 30
0.0
  0
POINT
  5
2A3B
330
2737
100
AcDbEntity
  8
DEFPOINTS
 62
     0
100
AcDbPoint
 10
111.7083253849382
 20
311.6962555781889
 30
0.0
  0
POINT
  5
2A3C
330
2737
100
AcDbEntity
  8
DEFPOINTS
 62
     0
100
AcDbPoint
 10
73.66863281683754
 20
311.6962555781889
 30
0.0
  0
ENDBLK
  5
2742
330
2737
100
AcDbEntity
  8
0
100
AcDbBlockEnd
  0
BLOCK
  5
274F
330
2743
100
AcDbEntity
  8
0
100
AcDbBlockBegin
  2
*D8
 70
     1
 10
0.0
 20
0.0
 30
0.0
  3
*D8
  1

  0
LINE
  5
299E
330
2743
100
AcDbEntity
  8
BEM
 62
     0
370
    -2
100
AcDbLine
 10
111.5583253849382
 20
309.6962555781889
 30
0.0
 11
111.5583253849382
 21
212.5254123224072
 31
0.0
  0
LINE
  5
299F
330
2743
100
AcDbEntity
  8
BEM
 62
     0
370
    -2
100
AcDbLine
 10
114.4583253849382
 20
309.6962555781889
 30
0.0
 11
114.4583253849382
 21
212.5254123224072
 31
0.0
  0
LINE
  5
29A0
330
2743
100
AcDbEntity
  8
BEM
 62
     0
370
    -2
100
AcDbLine
 10
104.5583253849382
 20
214.5254123224072
 30
0.0
 11
97.55832538493825
 21
214.5254123224072
 31
0.0
  0
LINE
  5
29A1
330
2743
100
AcDbEntity
  8
BEM
 62
     0
370
    -2
100
AcDbLine
 10
121.4583253849382
 20
214.5254123224072
 30
0.0
 11
145.9249920516049
 21
214.5254123224072
 31
0.0
  0
LINE
  5
29A2
330
2743
100
AcDbEntity
  8
BEM
 62
     0
370
    -2
100
AcDbLine
 10
111.5583253849382
 20
214.5254123224072
 30
0.0
 11
114.4583253849382
 21
214.5254123224072
 31
0.0
  0
SOLID
  5
29A3
330
2743
100
AcDbEntity
  8
BEM
 62
     0
100
AcDbTrace
 10
104.5583253849382
 20
215.6920789890738
 30
0.0
 11
104.5583253849382
 21
213.3587456557406
 31
0.0
 12
111.5583253849382
 22
214.5254123224072
 32
0.0
 13
111.5583253849382
 23
214.5254123224072
 33
0.0
  0
SOLID
  5
29A4
330
2743
100
AcDbEntity
  8
BEM
 62
     0
100
AcDbTrace
 10
121.4583253849382
 20
215.6920789890738
 30
0.0
 11
121.4583253849382
 21
213.3587456557406
 31
0.0
 12
114.4583253849382
 22
214.5254123224072
 32
0.0
 13
114.4583253849382
 23
214.5254123224072
 33
0.0
  0
MTEXT
  5
29A5
330
2743
100
AcDbEntity
  8
BEM
 62
     1
100
AcDbMText
 10
137.1916587182716
 20
221.0254123224072
 30
0.0
 40
7.0
 41
0.0
 71
     5
 72
     1
  1
\A1;2.9
 73
     1
 44
1.0
  0
POINT
  5
29A6
330
2743
100
AcDbEntity
  8
DEFPOINTS
 62
     0
100
AcDbPoint
 10
111.5583253849382
 20
311.6962555781889
 30
0.0
  0
POINT
  5
29A7
330
2743
100
AcDbEntity
  8
DEFPOINTS
 62
     0
100
AcDbPoint
 10
114.4583253849382
 20
311.6962555781889
 30
0.0
  0
POINT
  5
29A8
330
2743
100
AcDbEntity
  8
DEFPOINTS
 62
     0
100
AcDbPoint
 10
114.4583253849382
 20
214.5254123224072
 30
0.0
  0
ENDBLK
  5
2750
330
2743
100
AcDbEntity
  8
0
100
AcDbBlockEnd
  0
ENDSEC
  0
SECTION
  2
ENTITIES
  0
LINE
  5
19F
330
1E
100
AcDbEntity
  8
STEMPEL
100
AcDbLine
 10
409.9999999999999
 20
110.0
 30
0.0
 11
39.99999999999995
 21
110.0
 31
0.0
  0
LINE
  5
1A0
330
1E
100
AcDbEntity
  8
STEMPEL
100
AcDbLine
 10
136.0000000000001
 20
109.9999999999999
 30
0.0
 11
136.0
 21
9.999999999999971
 31
0.0
  0
LINE
  5
1A1
330
1E
100
AcDbEntity
  8
STEMPEL
100
AcDbLine
 10
220.0
 20
110.0
 30
0.0
 11
220.0
 21
9.999999999999971
 31
0.0
  0
LINE
  5
1A2
330
1E
100
AcDbEntity
  8
STEMPEL
100
AcDbLine
 10
331.9999999999999
 20
109.9999999999997
 30
0.0
 11
331.9999999999999
 21
40.0
 31
0.0
  0
LINE
  5
1A3
330
1E
100
AcDbEntity
  8
STEMPEL
100
AcDbLine
 10
135.9999999999999
 20
29.99999999999997
 30
0.0
 11
39.99999999999995
 21
29.99999999999997
 31
0.0
  0
LINE
  5
1A4
330
1E
100
AcDbEntity
  8
STEMPEL
100
AcDbLine
 10
409.9999999999999
 20
40.0
 30
0.0
 11
136.0000000000001
 21
39.99999999999997
 31
0.0
  0
LINE
  5
1A5
330
1E
100
AcDbEntity
  8
STEMPEL
100
AcDbLine
 10
409.9999999999999
 20
80.0
 30
0.0
 11
136.0000000000001
 21
79.99999999999994
 31
0.0
  0
LINE
  5
1A6
330
1E
100
AcDbEntity
  8
VOLL
100
AcDbLine
 10
54.00000000000005
 20
110.0
 30
0.0
 11
53.99999999999995
 21
9.999999999999971
 31
0.0
  0
LINE
  5
1A7
330
1E
100
AcDbEntity
  8
VOLL
100
AcDbLine
 10
94.00000000000011
 20
109.9999999999999
 30
0.0
 11
94.0
 21
9.999999999999971
 31
0.0
  0
LINE
  5
1A8
330
1E
100
AcDbEntity
  8
VOLL
100
AcDbLine
 10
114.0000000000001
 20
109.9999999999999
 30
0.0
 11
114.0
 21
9.999999999999971
 31
0.0
  0
LINE
  5
1A9
330
1E
100
AcDbEntity
  8
VOLL
100
AcDbLine
 10
154.0000000000001
 20
79.99999999999994
 30
0.0
 11
154.0000000000001
 21
39.99999999999997
 31
0.0
  0
LINE
  5
1AA
330
1E
100
AcDbEntity
  8
VOLL
100
AcDbLine
 10
180.0000000000001
 20
109.9999999999998
 30
0.0
 11
180.0
 21
39.99999999999997
 31
0.0
  0
LINE
  5
1AB
330
1E
100
AcDbEntity
  8
HILF
100
AcDbLine
 10
40.00000000000006
 20
100.0
 30
0.0
 11
136.0000000000001
 21
100.0
 31
0.0
  0
LINE
  5
1AC
330
1E
100
AcDbEntity
  8
HILF
100
AcDbLine
 10
40.00000000000006
 20
90.00000000000005
 30
0.0
 11
136.0000000000001
 21
90.00000000000005
 31
0.0
  0
LINE
  5
1AD
330
1E
100
AcDbEntity
  8
HILF
100
AcDbLine
 10
40.00000000000006
 20
79.99999999999994
 30
0.0
 11
136.0000000000001
 21
79.99999999999994
 31
0.0
  0
LINE
  5
1AE
330
1E
100
AcDbEntity
  8
HILF
100
AcDbLine
 10
40.00000000000006
 20
69.99999999999994
 30
0.0
 11
136.0000000000001
 21
69.99999999999994
 31
0.0
  0
LINE
  5
1AF
330
1E
100
AcDbEntity
  8
HILF
100
AcDbLine
 10
40.00000000000006
 20
59.99999999999997
 30
0.0
 11
136.0000000000001
 21
59.99999999999997
 31
0.0
  0
LINE
  5
1B0
330
1E
100
AcDbEntity
  8
HILF
100
AcDbLine
 10
40.00000000000006
 20
49.99999999999997
 30
0.0
 11
136.0000000000001
 21
49.99999999999997
 31
0.0
  0
LINE
  5
1B1
330
1E
100
AcDbEntity
  8
HILF
100
AcDbLine
 10
40.00000000000006
 20
39.99999999999997
 30
0.0
 11
136.0000000000001
 21
39.99999999999997
 31
0.0
  0
LINE
  5
1B2
330
1E
100
AcDbEntity
  8
HILF
100
AcDbLine
 10
136.0000000000001
 20
69.99999999999994
 30
0.0
 11
220.0
 21
69.99999999999994
 31
0.0
  0
LINE
  5
1B3
330
1E
100
AcDbEntity
  8
HILF
100
AcDbLine
 10
136.0000000000001
 20
59.99999999999997
 30
0.0
 11
220.0
 21
59.99999999999997
 31
0.0
  0
LINE
  5
1B4
330
1E
100
AcDbEntity
  8
HILF
100
AcDbLine
 10
136.0000000000001
 20
49.99999999999997
 30
0.0
 11
220.0
 21
49.99999999999997
 31
0.0
  0
LINE
  5
1B5
330
1E
100
AcDbEntity
  8
HILF
100
AcDbLine
 10
224.7736801096948
 20
84.03758247564139
 30
0.0
 11
324.8353916556311
 21
84.03758247564139
 31
0.0
  0
LINE
  5
1B6
330
1E
100
AcDbEntity
  8
HILF
100
AcDbLine
 10
224.7736801096948
 20
69.99999999999994
 30
0.0
 11
324.835391655631
 21
69.99999999999994
 31
0.0
  0
LINE
  5
1B7
330
1E
100
AcDbEntity
  8
HILF
100
AcDbLine
 10
224.7736801096948
 20
59.99999999999997
 30
0.0
 11
324.835391655631
 21
59.99999999999997
 31
0.0
  0
LINE
  5
1B8
330
1E
100
AcDbEntity
  8
HILF
100
AcDbLine
 10
224.7736801096948
 20
49.99999999999997
 30
0.0
 11
324.835391655631
 21
49.99999999999997
 31
0.0
  0
LINE
  5
1B9
330
1E
100
AcDbEntity
  8
VOLL
100
AcDbLine
 10
331.9999999999999
 20
60.0
 30
0.0
 11
409.9999999999999
 21
60.0
 31
0.0
  0
LINE
  5
1BA
330
1E
100
AcDbEntity
  8
HILF
100
AcDbLine
 10
336.7238616296992
 20
83.77983636955827
 30
0.0
 11
404.8588839326727
 21
83.77983636955827
 31
0.0
  0
LINE
  5
1BB
330
1E
100
AcDbEntity
  8
HILF
100
AcDbLine
 10
223.4909699289885
 20
14.89398258028314
 30
0.0
 11
404.8588839326727
 21
14.89398258028314
 31
0.0
  0
TEXT
  5
1BC
330
1E
100
AcDbEntity
  8
TEXT
100
AcDbText
 10
63.30818695982741
 20
18.59145467910836
 30
0.0
 40
4.0
  1
Änderung
 41
0.8
  7
GREEKS
 72
     4
 11
74.05104410268456
 21
20.30574039339407
 31
0.0
100
AcDbText
  0
TEXT
  5
1BD
330
1E
100
AcDbEntity
  8
TEXT
100
AcDbText
 10
143.5163572150377
 20
102.4620895087088
 30
0.0
 40
5.0
  1
Maßstab
 41
0.8
  7
GREEKS
100
AcDbText
  0
TEXT
  5
1BE
330
1E
100
AcDbEntity
  8
TEXT
100
AcDbText
 10
184.2858954734051
 20
102.4184168434819
 30
0.0
 40
5.0
  1
Zul. Abw.
 41
0.8
  7
GREEKS
100
AcDbText
  0
TEXT
  5
1BF
330
1E
100
AcDbEntity
  8
TEXT
100
AcDbText
 10
224.877940380901
 20
102.5489328011779
 30
0.0
 40
5.0
  1
Benennung
 41
0.8
  7
GREEKS
100
AcDbText
  0
TEXT
  5
1C0
330
1E
100
AcDbEntity
  8
TEXT
100
AcDbText
 10
336.178754957634
 20
102.3132034537136
 30
0.0
 40
5.0
  1
Zeichnungs Nr.
 41
0.8
  7
GREEKS
100
AcDbText
  0
TEXT
  5
1C1
330
1E
100
AcDbEntity
  8
TEXT
100
AcDbText
 10
224.742238391136
 20
30.84560570193057
 30
0.0
 40
5.0
  1
Bauvorhaben
 41
0.8
  7
GREEKS
100
AcDbText
  0
TEXT
  5
1C2
330
1E
100
AcDbEntity
  8
TEXT
100
AcDbText
 10
336.7238616296992
 20
73.1811823709997
 30
0.0
 40
5.0
  1
Ersatz für:
 41
0.8
  7
GREEKS
100
AcDbText
  0
TEXT
  5
1C3
330
1E
100
AcDbEntity
  8
TEXT
100
AcDbText
 10
48.26641107045753
 20
13.65465846027192
 30
0.0
 40
3.6
  1
Index
 50
90.0
 41
0.8
  7
GREEKS
100
AcDbText
  0
TEXT
  5
1C6
330
1E
100
AcDbEntity
  8
TEXT
100
AcDbText
 10
162.3311673153651
 20
73.31880501229926
 30
0.0
 40
3.6
  1
Tag
 41
0.8
  7
GREEKS
100
AcDbText
  0
TEXT
  5
1C7
330
1E
100
AcDbEntity
  8
TEXT
100
AcDbText
 10
192.4626584226295
 20
73.30961091915225
 30
0.0
 40
3.6
  1
Name
 41
0.8
  7
GREEKS
100
AcDbText
  0
TEXT
  5
1C8
330
1E
100
AcDbEntity
  8
TEXT
100
AcDbText
 10
137.5836127167615
 20
63.62990369617964
 30
0.0
 40
3.6
  1
Gez.
 41
0.8
  7
GREEKS
100
AcDbText
  0
TEXT
  5
1C9
330
1E
100
AcDbEntity
  8
TEXT
100
AcDbText
 10
137.5515086571672
 20
53.68926291428377
 30
0.0
 40
3.6
  1
Gepr.
 41
0.8
  7
GREEKS
100
AcDbText
  0
TEXT
  5
1CA
330
1E
100
AcDbEntity
  8
TEXT
100
AcDbText
 10
137.6006777387304
 20
43.52946389649807
 30
0.0
 40
3.6
  1
Norm.
 41
0.8
  7
GREEKS
100
AcDbText
  0
LINE
  5
1CB
330
1E
100
AcDbEntity
  8
STEMPEL
100
AcDbLine
 10
49.99999999999989
 20
10.0
 30
0.0
 11
409.9999999999999
 21
10.0
 31
0.0
  0
LINE
  5
1CC
330
1E
100
AcDbEntity
  8
STEMPEL
100
AcDbLine
 10
409.9999999999999
 20
110.0
 30
0.0
 11
409.9999999999999
 21
10.0
 31
0.0
  0
TEXT
  5
1CD
330
1E
100
AcDbEntity
  8
TEXT
100
AcDbText
 10
337.2400861497005
 20
52.07416177878602
 30
0.0
 40
5.0
  1
ersetzt durch:
 41
0.8
  7
GREEKS
100
AcDbText
  0
LINE
  5
1CE
330
1E
100
AcDbEntity
  8
STEMPEL
100
AcDbLine
 10
409.9999999999999
 20
10.0
 30
0.0
 11
39.99999999999989
 21
10.0
 31
0.0
  0
LINE
  5
1CF
330
1E
100
AcDbEntity
  8
STEMPEL
100
AcDbLine
 10
409.9999999999999
 20
110.0
 30
0.0
 11
409.9999999999999
 21
584.0
 31
0.0
  0
LINE
  5
1D0
330
1E
100
AcDbEntity
  8
STEMPEL
100
AcDbLine
 10
40.0
 20
10.0
 30
0.0
 11
39.99999999999989
 21
584.0
 31
0.0
  0
LINE
  5
1D1
330
1E
100
AcDbEntity
  8
STEMPEL
100
AcDbLine
 10
409.9999999999999
 20
584.0
 30
0.0
 11
39.99999999999989
 21
584.0
 31
0.0
  0
LINE
  5
1D2
330
1E
100
AcDbEntity
  8
HILF
100
AcDbLine
 10
0.0
 20
0.0
 30
0.0
 11
-0.0000000000001137
 21
594.0
 31
0.0
  0
LINE
  5
1D3
330
1E
100
AcDbEntity
  8
HILF
100
AcDbLine
 10
419.9999999999999
 20
594.0000000000002
 30
0.0
 11
0.0
 21
594.0
 31
0.0
  0
LINE
  5
1D4
330
1E
100
AcDbEntity
  8
HILF
100
AcDbLine
 10
419.9999999999999
 20
0.0
 30
0.0
 11
0.0
 21
0.0
 31
0.0
  0
LINE
  5
1D5
330
1E
100
AcDbEntity
  8
HILF
100
AcDbLine
 10
31.08767135713856
 20
297.0
 30
0.0
 11
0.0000000000001137
 21
297.0
 31
0.0
  0
TEXT
  5
1D6
330
1E
100
AcDbEntity
  8
TEXT
100
AcDbText
 10
139.8886662448949
 20
73.33699103545173
 30
0.0
 40
3.6
  1
2012
 41
0.8
  7
GREEKS
100
AcDbText
  0
LINE
  5
1D7
330
1E
100
AcDbEntity
  8
HILF
100
AcDbLine
 10
419.9999999999999
 20
-0.0000000000001137
 30
0.0
 11
419.9999999999999
 21
594.0
 31
0.0
  0
TEXT
  5
1D8
330
1E
100
AcDbEntity
  8
VOLL
100
AcDbText
 10
78.07675471698113
 20
31.02594776470585
 30
0.0
 40
1.8
  1

  7
GREEKS
100
AcDbText
  0
TEXT
  5
1D9
330
1E
100
AcDbEntity
  8
TEXT
100
AcDbText
 10
42.25669815425914
 20
111.6719999999999
 30
0.0
 40
5.0
  1
Erstellt mit AUTOCAD 2004
 41
0.8
  7
GREEKS
100
AcDbText
  0
TEXT
  5
1DA
330
1E
100
AcDbEntity
  8
TEXT
100
AcDbText
 10
194.4216048581257
 20
63.0896391972351
 30
0.0
 40
4.0
  1
Koeh
 41
0.8
  7
GREEKS
 72
     1
 11
199.6787477152685
 21
63.0896391972351
 31
0.0
100
AcDbText
  0
TEXT
  5
1DB
330
1E
100
AcDbEntity
  8
TEXT
 62
     1
100
AcDbText
 10
347.6395763650676
 20
88.14901428913959
 30
0.0
 40
7.0
  1
58602FE0W
 41
0.8
  7
GREEKS
 72
     1
 11
371.2395763650676
 21
88.14901428913959
 31
0.0
100
AcDbText
  0
TEXT
  5
1DC
330
1E
100
AcDbEntity
  8
TEXT
 62
     1
100
AcDbText
 10
150.5006306481887
 20
88.14901428913959
 30
0.0
 40
7.0
  1
1:2
  7
GREEKS
100
AcDbText
  0
TEXT
  5
1DD
330
1E
100
AcDbEntity
  8
TEXT
100
AcDbText
 10
161.0085209177598
 20
63.10765040825732
 30
0.0
 40
4.0
  1
16.10.
 41
0.8
  7
GREEKS
 72
     1
 11
167.4085209177598
 21
63.10765040825732
 31
0.0
100
AcDbText
  0
TEXT
  5
1DE
330
1E
100
AcDbEntity
  8
TEXT
 62
     1
100
AcDbText
 10
225.3291095064849
 20
87.41748789253779
 30
0.0
 40
7.0
  1
Verbundrohr
 41
0.8
  7
GREEKS
100
AcDbText
  0
TEXT
  5
1DF
330
1E
100
AcDbEntity
  8
TEXT
100
AcDbText
 10
225.1296391125315
 20
72.50168891988375
 30
0.0
 40
5.0
  1
Abgleichstück DN150/125
 41
0.8
  7
GREEKS
100
AcDbText
  0
TEXT
  5
1E0
330
1E
100
AcDbEntity
  8
TEXT
100
AcDbText
 10
225.1296391125315
 20
51.64011943042158
 30
0.0
 40
5.0
  1
EDV-Art.Nr. 58602.FE0X
 41
0.8
  7
GREEKS
100
AcDbText
  0
TEXT
  5
1E1
330
1E
100
AcDbEntity
  8
TEXT
100
AcDbText
 10
224.9837501577827
 20
42.62974153022634
 30
0.0
 40
3.6
  1
58602FE0W.DWG
 41
0.8
  7
GREEKS
100
AcDbText
  0
INSERT
  5
1E2
330
1E
100
AcDbEntity
  8
STEMPEL
100
AcDbBlockReference
  2
LOGO
 10
140.9955485457794
 20
45.02105276448321
 30
0.0
 41
2.0
 42
2.0
 43
2.0
  0
TEXT
  5
1E4
330
1E
100
AcDbEntity
  8
VOLL
100
AcDbText
 10
339.7958237333797
 20
71.91957633833147
 30
0.0
 40
1.8
  1

  7
GREEKS
100
AcDbText
  0
TEXT
  5
1E5
330
1E
100
AcDbEntity
  8
TEXT
100
AcDbText
 10
671.6280919369726
 20
77.47781187155701
 30
0.0
 40
2.5
  1
  
  7
GREEKS
 72
     1
 11
673.8899966988774
 21
77.47781187155701
 31
0.0
100
AcDbText
  0
TEXT
  5
1E6
330
1E
100
AcDbEntity
  8
BEM
100
AcDbText
 10
915.7478092494546
 20
213.0366939019592
 30
0.0
 40
2.5
  1
 
 72
     4
 11
916.878761630407
 21
213.0366939019592
 31
0.0
100
AcDbText
  0
TEXT
  5
1E8
330
1E
100
AcDbEntity
  8
BEM
100
AcDbText
 10
454.2848421115471
 20
134.8585024391051
 30
0.0
 40
2.5
  1

  7
GREEKS
100
AcDbText
  0
TEXT
  5
1E9
330
1E
100
AcDbEntity
  8
VOLL
100
AcDbText
 10
440.2186490918256
 20
114.67524178207
 30
0.0
 40
1.8
  1

  7
GREEKS
100
AcDbText
  0
TEXT
  5
1EA
330
1E
100
AcDbEntity
  8
BEM
100
AcDbText
 10
474.7067139311102
 20
119.4009661052905
 30
0.0
 40
2.5
  1

 41
0.8
  7
GREEKS
100
AcDbText
  0
TEXT
  5
1EB
330
1E
100
AcDbEntity
  8
BEM
100
AcDbText
 10
474.7067139311102
 20
114.7071975512384
 30
0.0
 40
2.5
  1

 41
0.8
  7
GREEKS
100
AcDbText
  0
TEXT
  5
1EC
330
1E
100
AcDbEntity
  8
BEM
100
AcDbText
 10
474.7067139311102
 20
109.4693537325749
 30
0.0
 40
2.5
  1

 41
0.8
  7
GREEKS
100
AcDbText
  0
TEXT
  5
1ED
330
1E
100
AcDbEntity
  8
BEM
100
AcDbText
 10
474.6337694537358
 20
104.9641647824773
 30
0.0
 40
1.8
  1

 41
0.8
  7
GREEKS
100
AcDbText
  0
TEXT
  5
1EE
330
1E
100
AcDbEntity
  8
BEM
100
AcDbText
 10
461.9501985741246
 20
130.5557538787025
 30
0.0
 40
2.0
  1

 41
0.8
  7
GREEKS
 72
     1
 11
461.9501985741246
 21
130.5557538787025
 31
0.0
100
AcDbText
  0
TEXT
  5
1EF
330
1E
100
AcDbEntity
  8
TEXT
100
AcDbText
 10
772.0509172954185
 20
120.2334773152955
 30
0.0
 40
2.5
  1
  
  7
GREEKS
 72
     1
 11
774.3128220573233
 21
120.2334773152955
 31
0.0
100
AcDbText
  0
TEXT
  5
1F0
330
1E
100
AcDbEntity
  8
BEM
100
AcDbText
 10
1016.1706346079
 20
255.7923593456977
 30
0.0
 40
2.5
  1
 
 72
     4
 11
1017.301586988853
 21
255.7923593456977
 31
0.0
100
AcDbText
  0
TEXT
  5
1F1
330
1E
100
AcDbEntity
  8
VOLL
100
AcDbText
 10
228.6383494536079
 20
31.18631511162239
 30
0.0
 40
1.8
  1

  7
GREEKS
100
AcDbText
  0
TEXT
  5
1F2
330
1E
100
AcDbEntity
  8
TEXT
100
AcDbText
 10
560.4706176572007
 20
36.74455064484793
 30
0.0
 40
2.5
  1
  
  7
GREEKS
 72
     1
 11
562.7325224191056
 21
36.74455064484793
 31
0.0
100
AcDbText
  0
TEXT
  5
1F3
330
1E
100
AcDbEntity
  8
BEM
100
AcDbText
 10
804.5903349696828
 20
172.3034326752502
 30
0.0
 40
2.5
  1
 
 72
     4
 11
805.7212873506353
 21
172.3034326752502
 31
0.0
100
AcDbText
  0
TEXT
  5
1F4
330
1E
100
AcDbEntity
  8
BEM
100
AcDbText
 10
393.9839625332579
 20
71.33954581020805
 30
0.0
 40
2.5
  1

  7
GREEKS
100
AcDbText
  0
TEXT
  5
1F5
330
1E
100
AcDbEntity
  8
VOLL
100
AcDbText
 10
379.9177695135364
 20
51.15628515317294
 30
0.0
 40
1.8
  1

  7
GREEKS
100
AcDbText
  0
TEXT
  5
1F6
330
1E
100
AcDbEntity
  8
BEM
100
AcDbText
 10
414.4058343528211
 20
55.88200947639354
 30
0.0
 40
2.5
  1

 41
0.8
  7
GREEKS
100
AcDbText
  0
TEXT
  5
1F7
330
1E
100
AcDbEntity
  8
BEM
100
AcDbText
 10
414.4058343528211
 20
51.18824092234138
 30
0.0
 40
2.5
  1

 41
0.8
  7
GREEKS
100
AcDbText
  0
TEXT
  5
1F8
330
1E
100
AcDbEntity
  8
BEM
100
AcDbText
 10
414.4058343528211
 20
45.95039710367788
 30
0.0
 40
2.5
  1

 41
0.8
  7
GREEKS
100
AcDbText
  0
TEXT
  5
1F9
330
1E
100
AcDbEntity
  8
BEM
100
AcDbText
 10
414.3328898754466
 20
41.44520815358026
 30
0.0
 40
1.8
  1

 41
0.8
  7
GREEKS
100
AcDbText
  0
TEXT
  5
1FA
330
1E
100
AcDbEntity
  8
BEM
100
AcDbText
 10
401.6493189958354
 20
67.03679724980554
 30
0.0
 40
2.0
  1

 41
0.8
  7
GREEKS
 72
     1
 11
401.6493189958354
 21
67.03679724980554
 31
0.0
100
AcDbText
  0
TEXT
  5
1FB
330
1E
100
AcDbEntity
  8
TEXT
100
AcDbText
 10
711.7500377171293
 20
56.71452068639848
 30
0.0
 40
2.5
  1
  
  7
GREEKS
 72
     1
 11
714.0119424790341
 21
56.71452068639848
 31
0.0
100
AcDbText
  0
TEXT
  5
1FC
330
1E
100
AcDbEntity
  8
BEM
100
AcDbText
 10
955.8697550296114
 20
192.2734027168007
 30
0.0
 40
2.5
  1
 
 72
     4
 11
957.0007074105637
 21
192.2734027168007
 31
0.0
100
AcDbText
  0
TEXT
  5
24B
330
1E
100
AcDbEntity
  8
TEXT
 62
     1
100
AcDbText
 10
78.53685804086016
 20
188.552964463262
 30
0.0
 40
7.0
  1
Rohrende leicht eingezogen
 41
0.8
  7
GREEKS
100
AcDbText
  0
TEXT
  5
26A
330
1E
100
AcDbEntity
  8
TEXT
100
AcDbText
 10
184.2858954734051
 20
90.23051188311759
 30
0.0
 40
4.0
  1
DIN EN1123-2
 41
0.8
  7
GREEKS
100
AcDbText
  0
TEXT
  5
2ED
330
1E
100
AcDbEntity
  8
TEXT
100
AcDbText
 10
99.98381106419387
 20
18.97240706006074
 30
0.0
 40
4.0
  1
Tag
 41
0.8
  7
GREEKS
 72
     4
 11
103.7171443975272
 21
20.30574039339407
 31
0.0
100
AcDbText
  0
TEXT
  5
2EE
330
1E
100
AcDbEntity
  8
TEXT
100
AcDbText
 10
118.0779538781902
 20
18.30574039339407
 30
0.0
 40
4.0
  1
Name
 41
0.8
  7
GREEKS
 72
     4
 11
124.4017634019997
 21
20.30574039339407
 31
0.0
100
AcDbText
  0
TEXT
  5
54A
330
1E
100
AcDbEntity
  8
VOLL
100
AcDbText
 10
305.2666505177693
 20
60.9917365573275
 30
0.0
 40
1.8
  1

  7
GREEKS
100
AcDbText
  0
TEXT
  5
558
330
1E
100
AcDbEntity
  8
BEM
100
AcDbText
 10
779.8708637178527
 20
75.83979991258411
 30
0.0
 40
2.5
  1

 41
0.8
  7
GREEKS
 72
     4
 11
779.8708637178527
 21
75.83979991258411
 31
0.0
100
AcDbText
  0
TEXT
  5
6F0
330
1E
100
AcDbEntity
  8
TEXT
100
AcDbText
 10
416.5811541437436
 20
12.14804815338303
 30
0.0
 40
4.0
  1
Diese Zeichnung ist urheberrechtlich geschützt und bleibt unser Eigentum. Sie darf weder ganz noch teilweise vervielfältigt und nicht an Dritte weitergegeben werden.
 50
90.0
 41
0.8
  7
GREEKS
100
AcDbText
  0
TEXT
  5
6FA
330
1E
100
AcDbEntity
  8
TEXT
 62
     1
100
AcDbText
 10
182.3890270894183
 20
136.1336838108334
 30
0.0
 40
7.0
  1
und innenbeschichtet
 41
0.8
  7
GREEKS
100
AcDbText
  0
TEXT
  5
6FB
330
1E
100
AcDbEntity
  8
TEXT
 62
     1
100
AcDbText
 10
127.2400875687074
 20
123.5388484254513
 30
0.0
 40
7.0
  1
Dämmung: 2 K-PU-Schaum
 41
0.8
  7
GREEKS
100
AcDbText
  0
TEXT
  5
6FC
330
1E
100
AcDbEntity
  8
TEXT
 62
     1
100
AcDbText
 10
134.7344982134045
 20
147.4027376500592
 30
0.0
 40
7.0
  1
Innenrohr: E195 EN10305 feuerverzinkt
 41
0.8
  7
GREEKS
100
AcDbText
  0
TEXT
  5
6FD
330
1E
100
AcDbEntity
  8
TEXT
 62
     1
100
AcDbText
 10
130.9622808425405
 20
158.7558056864142
 30
0.0
 40
7.0
  1
Außenrohr: P235 TR1 EN10217-1 feuerverzinkt
 41
0.8
  7
GREEKS
100
AcDbText
  0
DIMENSION
  5
2664
330
1E
100
AcDbEntity
  8
BEM
100
AcDbDimension
  2
*D3
 10
279.8583253849382
 20
200.5254123224072
 30
0.0
 11
195.7083253849382
 21
207.0254123224072
 31
0.0
 70
    32
  1
%%c<>
 71
     5
 42
168.2999999999999
  3
Standard
100
AcDbAlignedDimension
 13
111.5583253849382
 23
311.6962555781889
 33
0.0
 14
279.8583253849382
 24
311.6962555781886
 34
0.0
100
AcDbRotatedDimension
1001
ACAD
1000
DSTYLE
1002
{
1070
    40
1040
2.0
1070
    41
1040
3.5
1070
    42
1040
1.0
1070
    43
1040
7.0
1070
    44
1040
1.0
1070
    47
1040
0.15
1070
    48
1040
0.15
1070
    73
1070
     0
1070
    74
1070
     0
1070
    77
1070
     1
1070
    78
1070
     8
1070
    79
1070
     2
1070
   140
1040
3.5
1070
   141
1040
1.5
1070
   146
1040
0.5142857142857144
1070
   147
1040
1.5
1070
   172
1070
     1
1070
   178
1070
     1
1070
   179
1070
     2
1070
   271
1070
     2
1070
   272
1070
     2
1070
   284
1070
     8
1070
   285
1070
     8
1070
   286
1070
     8
1002
}
  0
DIMENSION
  5
2665
330
1E
100
AcDbEntity
  8
BEM
100
AcDbDimension
  2
*D4
 10
262.2083253849382
 20
231.5531117513876
 30
0.0
 11
195.7083253849382
 21
238.0531117513876
 31
0.0
 70
    32
  1
%%c<>
 71
     5
 42
133.0
  3
Standard
100
AcDbAlignedDimension
 13
129.2083253849382
 23
266.5871032209172
 33
0.0
 14
262.2083253849382
 24
266.5871032209178
 34
0.0
100
AcDbRotatedDimension
1001
ACAD
1000
DSTYLE
1002
{
1070
    40
1040
2.0
1070
    41
1040
3.5
1070
    42
1040
1.0
1070
    43
1040
7.0
1070
    44
1040
1.0
1070
    47
1040
0.15
1070
    48
1040
0.15
1070
    73
1070
     0
1070
    74
1070
     0
1070
    77
1070
     1
1070
    78
1070
     8
1070
    79
1070
     2
1070
   140
1040
3.5
1070
   141
1040
1.5
1070
   146
1040
0.5142857142857144
1070
   147
1040
1.5
1070
   172
1070
     1
1070
   178
1070
     1
1070
   179
1070
     2
1070
   271
1070
     2
1070
   272
1070
     2
1070
   284
1070
     8
1070
   285
1070
     8
1070
   286
1070
     8
1002
}
  0
DIMENSION
  5
2666
330
1E
100
AcDbEntity
  8
BEM
100
AcDbDimension
  2
*D5
 10
305.2583253849383
 20
561.2072061560361
 30
0.0
 11
195.7083253849382
 21
567.7072061560361
 31
0.0
 70
    32
  1
%%c<>
 71
     5
 42
219.1
  3
Standard
100
AcDbAlignedDimension
 13
86.15832538493823
 23
536.6962555781888
 33
0.0
 14
305.2583253849383
 24
536.6962555781888
 34
0.0
100
AcDbRotatedDimension
1001
ACAD
1000
DSTYLE
1002
{
1070
    40
1040
2.0
1070
    41
1040
3.5
1070
    42
1040
1.0
1070
    43
1040
7.0
1070
    44
1040
1.0
1070
    47
1040
0.15
1070
    48
1040
0.15
1070
    73
1070
     0
1070
    74
1070
     0
1070
    77
1070
     1
1070
    78
1070
     8
1070
    79
1070
     2
1070
   140
1040
3.5
1070
   141
1040
1.5
1070
   146
1040
0.5142857142857144
1070
   147
1040
1.5
1070
   172
1070
     1
1070
   178
1070
     1
1070
   179
1070
     2
1070
   271
1070
     2
1070
   272
1070
     2
1070
   284
1070
     8
1070
   285
1070
     8
1070
   286
1070
     8
1002
}
  0
LINE
  5
266D
330
1E
100
AcDbEntity
  8
STEMPEL
100
AcDbLine
 10
257.2213379231253
 20
381.6962555781886
 30
0.0
 11
134.1953128467512
 21
381.6962555781889
 31
0.0
  0
LINE
  5
266E
330
1E
100
AcDbEntity
  8
HILF
100
AcDbLine
 10
257.2083253849382
 20
266.6962555781887
 30
0.0
 11
134.2083253849382
 21
266.6962555781889
 31
0.0
  0
LINE
  5
266F
102
{ACAD_REACTORS
330
2814
102
}
330
1E
100
AcDbEntity
  8
STEMPEL
100
AcDbLine
 10
260.9055450259079
 20
251.6962555781887
 30
0.0
 11
130.5111057439687
 21
251.6962555781889
 31
0.0
  0
LINE
  5
2674
102
{ACAD_REACTORS
330
2814
330
2865
102
}
330
1E
100
AcDbEntity
  8
STEMPEL
100
AcDbLine
 10
264.7083253849382
 20
408.6962555781886
 30
0.0
 11
126.7083253849382
 21
408.6962555781887
 31
0.0
  0
LINE
  5
2675
102
{ACAD_REACTORS
330
2865
330
2A7D
330
2ACB
102
}
330
1E
100
AcDbEntity
  8
STEMPEL
100
AcDbLine
 10
305.2583253849383
 20
536.6962555781888
 30
0.0
 11
86.15832538493823
 21
536.6962555781888
 31
0.0
  0
DIMENSION
  5
2676
330
1E
100
AcDbEntity
  8
BEM
100
AcDbDimension
  2
*D6
 10
59.66863281683754
 20
251.6962555781889
 30
0.0
 11
53.16863281683751
 21
394.1962555781889
 31
0.0
 70
    32
 71
     5
 42
284.9999999999999
  3
Standard
100
AcDbAlignedDimension
 13
86.15832538493823
 23
536.6962555781888
 33
0.0
 14
130.5111057439687
 24
251.6962555781889
 34
0.0
 50
90.0
100
AcDbRotatedDimension
1001
ACAD
1000
DSTYLE
1002
{
1070
    40
1040
2.0
1070
    41
1040
3.5
1070
    42
1040
1.0
1070
    43
1040
7.0
1070
    44
1040
1.0
1070
    47
1040
0.15
1070
    48
1040
0.15
1070
    73
1070
     0
1070
    74
1070
     0
1070
    77
1070
     1
1070
    78
1070
     8
1070
    79
1070
     2
1070
   140
1040
3.5
1070
   141
1040
1.5
1070
   146
1040
0.5142857142857144
1070
   147
1040
1.5
1070
   172
1070
     1
1070
   178
1070
     1
1070
   179
1070
     2
1070
   271
1070
     2
1070
   272
1070
     2
1070
   284
1070
     8
1070
   285
1070
     8
1070
   286
1070
     8
1002
}
  0
DIMENSION
  5
2677
330
1E
100
AcDbEntity
  8
BEM
100
AcDbDimension
  2
*D7
 10
73.66863281683754
 20
311.6962555781889
 30
0.0
 11
67.1686328168375
 21
424.1962555781888
 31
0.0
 70
    32
 71
     5
 42
224.9999999999999
  3
Standard
100
AcDbAlignedDimension
 13
86.15832538493823
 23
536.6962555781888
 33
0.0
 14
111.7083253849382
 24
311.6962555781889
 34
0.0
 50
90.0
100
AcDbRotatedDimension
1001
ACAD
1000
DSTYLE
1002
{
1070
    40
1040
2.0
1070
    41
1040
3.5
1070
    42
1040
1.0
1070
    43
1040
7.0
1070
    44
1040
1.0
1070
    47
1040
0.15
1070
    48
1040
0.15
1070
    73
1070
     0
1070
    74
1070
     0
1070
    77
1070
     1
1070
    78
1070
     8
1070
    79
1070
     2
1070
   140
1040
3.5
1070
   141
1040
1.5
1070
   146
1040
0.5142857142857144
1070
   147
1040
1.5
1070
   172
1070
     1
1070
   178
1070
     1
1070
   179
1070
     2
1070
   271
1070
     2
1070
   272
1070
     2
1070
   284
1070
     8
1070
   285
1070
     8
1070
   286
1070
     8
1002
}
  0
TEXT
  5
267B
330
1E
100
AcDbEntity
  8
TEXT
 62
     1
100
AcDbText
 10
191.9948079667313
 20
290.9895343143096
 30
0.0
 40
7.0
  1
DN125
 50
90.0
 41
0.8
  7
GREEKS
100
AcDbText
  0
LINE
  5
267C
102
{ACAD_REACTORS
330
2814
102
}
330
1E
100
AcDbEntity
  8
STEMPEL
100
AcDbLine
 10
131.7083253849382
 20
380.9570957323487
 30
0.0
 11
131.7083253849382
 21
266.6962555781893
 31
0.0
  0
LINE
  5
267D
102
{ACAD_REACTORS
330
2814
330
2A02
330
2AB2
102
}
330
1E
100
AcDbEntity
  8
STEMPEL
100
AcDbLine
 10
129.2083253849382
 20
380.9570957323487
 30
0.0
 11
129.2083253849382
 21
266.5871032209172
 31
0.0
  0
LINE
  5
267E
330
1E
100
AcDbEntity
  8
MITTEL
100
AcDbLine
 10
195.7083253849382
 20
541.6962555781887
 30
0.0
 11
195.7083253849382
 21
246.6962555781888
 31
0.0
  0
DIMENSION
  5
267F
330
1E
100
AcDbEntity
  8
BEM
100
AcDbDimension
  2
*D8
 10
114.4583253849382
 20
214.5254123224072
 30
0.0
 11
137.1916587182716
 21
221.0254123224072
 31
0.0
 70
    32
 71
     5
 42
2.900000000000005
  3
Standard
100
AcDbAlignedDimension
 13
111.5583253849382
 23
311.6962555781889
 33
0.0
 14
114.4583253849382
 24
311.6962555781889
 34
0.0
100
AcDbRotatedDimension
1001
ACAD
1000
DSTYLE
1002
{
1070
    40
1040
2.0
1070
    41
1040
3.5
1070
    42
1040
1.0
1070
    43
1040
7.0
1070
    44
1040
1.0
1070
    47
1040
0.15
1070
    48
1040
0.15
1070
    73
1070
     0
1070
    74
1070
     0
1070
    77
1070
     1
1070
    78
1070
     8
1070
    79
1070
     2
1070
   140
1040
3.5
1070
   141
1040
1.5
1070
   146
1040
0.5142857142857144
1070
   147
1040
1.5
1070
   172
1070
     1
1070
   178
1070
     1
1070
   179
1070
     2
1070
   271
1070
     2
1070
   272
1070
     2
1070
   284
1070
     8
1070
   285
1070
     8
1070
   286
1070
     8
1002
}
  0
LINE
  5
2680
102
{ACAD_REACTORS
330
2814
102
}
330
1E
100
AcDbEntity
  8
STEMPEL
100
AcDbLine
 10
129.2083253849382
 20
266.5871032209172
 30
0.0
 11
130.5111057439687
 21
251.6962555781889
 31
0.0
  0
LINE
  5
2681
102
{ACAD_REACTORS
330
2814
102
}
330
1E
100
AcDbEntity
  8
STEMPEL
100
AcDbLine
 10
131.7083253849382
 20
266.6962555781893
 30
0.0
 11
133.020655337827
 21
251.6962555781889
 31
0.0
  0
ARC
  5
2687
102
{ACAD_REACTORS
330
2865
102
}
330
1E
100
AcDbEntity
  8
STEMPEL
100
AcDbCircle
 10
140.2063530646962
 20
504.6935570974708
 30
0.0
 40
32.5
100
AcDbArc
 50
179.3687711177433
 51
207.7536279564345
  0
ARC
  5
2688
102
{ACAD_REACTORS
330
2865
330
2AB2
102
}
330
1E
100
AcDbEntity
  8
STEMPEL
100
AcDbCircle
 10
140.2083253849382
 20
504.6912555781887
 30
0.0
 40
35.00004740563918
100
AcDbArc
 50
179.9056985508316
 51
207.5271836205505
  0
TEXT
  5
2689
330
1E
100
AcDbEntity
  8
TEXT
 62
     1
100
AcDbText
 10
190.6182448165839
 20
489.8448260574553
 30
0.0
 40
7.0
  1
DN150
 50
90.0
 41
0.8
  7
GREEKS
100
AcDbText
  0
HATCH
  5
268A
330
1E
100
AcDbEntity
  8
SCHRAFF
100
AcDbHatch
 10
0.0
 20
0.0
 30
0.0
210
0.0
220
0.0
230
1.0
  2
_USER
 70
     0
 71
     0
 91
        1
 92
        7
 72
     1
 73
     1
 93
        3
 10
96.45832538493825
 20
402.6962555781889
 42
0.0
 10
93.55356348017638
 20
406.6962555781888
 42
0.4620302962107413
 10
99.36308728970018
 20
398.6962555781888
 42
0.0
 97
        0
 75
     0
 76
     0
 52
0.0
 41
0.1
 77
     0
 78
     1
 53
0.0
 43
0.0703042643126537
 44
15.21584036162244
 45
0.0
 46
0.1
 79
     0
 47
0.0395167134121635
 98
        1
 10
95.63616023298392
 20
402.0599478571207
  0
ARC
  5
268B
330
1E
100
AcDbEntity
  8
SCHRAFF
100
AcDbCircle
 10
99.8629852604226
 20
405.1686871544332
 30
0.0
 40
6.491707671352749
100
AcDbArc
 50
166.3900604843749
 51
265.5835308043403
  0
INSERT
  5
268E
330
1E
100
AcDbEntity
  8
SCHRAFF
100
AcDbBlockReference
  2
*X1
 10
-59.20015173249885
 20
-0.7893030254160749
 30
0.0
1001
ACAD
1000
HATCH
1002
{
1070
    16
1000
_U,I
1040
0.1
1040
0.0
1070
     0
1002
}
  0
ARC
  5
268F
102
{ACAD_REACTORS
330
2AB2
102
}
330
1E
100
AcDbEntity
  8
SCHRAFF
100
AcDbCircle
 10
126.7083253849382
 20
408.6962555781887
 30
0.0
 40
4.0
100
AcDbArc
 50
124.9920201985564
 51
275.2900812053722
  0
LINE
  5
2690
102
{ACAD_REACTORS
330
2814
102
}
330
1E
100
AcDbEntity
  8
STEMPEL
100
AcDbLine
 10
131.6295278549735
 20
382.6627626277223
 30
0.0
 11
129.2190192484488
 21
408.6962555781887
 31
0.0
  0
LINE
  5
2691
102
{ACAD_REACTORS
330
2814
330
2AB2
102
}
330
1E
100
AcDbEntity
  8
STEMPEL
100
AcDbLine
 10
129.1401761698334
 20
382.4322671013204
 30
0.0
 11
126.7083253849382
 21
408.6962555781887
 31
0.0
  0
LINE
  5
2695
330
1E
100
AcDbEntity
  8
STEMPEL
100
AcDbLine
 10
107.7413740564219
 20
387.1589426535227
 30
0.0
 11
96.45832538493824
 21
402.6962555781888
 31
0.0
  0
LINE
  5
2696
102
{ACAD_REACTORS
330
2ACB
102
}
330
1E
100
AcDbEntity
  8
STEMPEL
100
AcDbLine
 10
100.1659086233009
 20
402.6962555781887
 30
0.0
 11
96.45832538493824
 21
402.6962555781887
 31
0.0
  0
ARC
  5
26A3
102
{ACAD_REACTORS
330
2814
102
}
330
1E
100
AcDbEntity
  8
STEMPEL
100
AcDbCircle
 10
113.2083253849382
 20
380.9570957323487
 30
0.0
 40
18.5
100
AcDbArc
 50
0.0
 51
5.29008120537073
  0
ARC
  5
26A4
102
{ACAD_REACTORS
330
2814
330
2AB2
102
}
330
1E
100
AcDbEntity
  8
STEMPEL
100
AcDbCircle
 10
113.2083253849382
 20
380.9570957323487
 30
0.0
 40
16.0
100
AcDbArc
 50
0.0
 51
5.29008120537073
  0
ARC
  5
26A5
102
{ACAD_REACTORS
330
2865
330
2AB2
102
}
330
1E
100
AcDbEntity
  8
STEMPEL
100
AcDbCircle
 10
93.20832538493823
 20
480.1962555781888
 30
0.0
 40
18.0
100
AcDbArc
 50
0.0
 51
27.52718362055047
  0
ARC
  5
26A6
102
{ACAD_REACTORS
330
2865
102
}
330
1E
100
AcDbEntity
  8
STEMPEL
100
AcDbCircle
 10
93.20832538493823
 20
480.1962555781888
 30
0.0
 40
20.5
100
AcDbArc
 50
0.0
 51
27.1764372758623
  0
ARC
  5
26A7
102
{ACAD_REACTORS
330
2865
330
2AB2
102
}
330
1E
100
AcDbEntity
  8
STEMPEL
100
AcDbCircle
 10
129.2083253849382
 20
465.1372270862558
 30
0.0
 40
18.0
100
AcDbArc
 50
180.0
 51
214.7719440319491
  0
LINE
  5
26AA
102
{ACAD_REACTORS
330
2865
330
2AB2
102
}
330
1E
100
AcDbEntity
  8
STEMPEL
100
AcDbLine
 10
111.2083253849382
 20
480.1962555781888
 30
0.0
 11
111.2083253849382
 21
465.1372270862558
 31
0.0
  0
POINT
  5
26AB
330
1E
100
AcDbEntity
  8
SCHRAFF
100
AcDbPoint
 10
111.2083253849382
 20
465.1372270862558
 30
0.0
  0
ARC
  5
26AC
102
{ACAD_REACTORS
330
2865
102
}
330
1E
100
AcDbEntity
  8
STEMPEL
100
AcDbCircle
 10
106.2083253849382
 20
449.1685076635845
 30
0.0
 40
12.5
100
AcDbArc
 50
0.0
 51
34.77194403194904
  0
ARC
  5
26AD
102
{ACAD_REACTORS
330
2865
330
2AB2
102
}
330
1E
100
AcDbEntity
  8
STEMPEL
100
AcDbCircle
 10
106.2083253849382
 20
449.1685076635845
 30
0.0
 40
10.0
100
AcDbArc
 50
0.0
 51
34.77194403194904
  0
LINE
  5
26AE
102
{ACAD_REACTORS
330
2865
102
}
330
1E
100
AcDbEntity
  8
STEMPEL
100
AcDbLine
 10
129.7599642888717
 20
408.6962555781888
 30
0.0
 11
121.6006146566337
 21
420.3524693385289
 31
0.0
  0
ARC
  5
26AF
102
{ACAD_REACTORS
330
2865
330
2AB2
102
}
330
1E
100
AcDbEntity
  8
STEMPEL
100
AcDbCircle
 10
134.7083253849382
 20
429.5278668483422
 30
0.0
 40
18.5
100
AcDbArc
 50
180.0
 51
214.9920201985587
  0
ARC
  5
26B0
102
{ACAD_REACTORS
330
2865
102
}
330
1E
100
AcDbEntity
  8
STEMPEL
100
AcDbCircle
 10
134.7083253849382
 20
429.5278668483422
 30
0.0
 40
16.0
100
AcDbArc
 50
180.0
 51
214.9920201985587
  0
LINE
  5
26B1
102
{ACAD_REACTORS
330
2865
330
2AB2
102
}
330
1E
100
AcDbEntity
  8
STEMPEL
100
AcDbLine
 10
126.7083253849382
 20
408.6962555781888
 30
0.0
 11
119.552534855336
 21
418.9188134776206
 31
0.0
  0
POINT
  5
26B2
330
1E
100
AcDbEntity
  8
SCHRAFF
100
AcDbPoint
 10
126.7083253849382
 20
408.6962555781887
 30
0.0
  0
LINE
  5
26B3
102
{ACAD_REACTORS
330
2865
102
}
330
1E
100
AcDbEntity
  8
STEMPEL
100
AcDbLine
 10
118.7083253849382
 20
449.1685076635845
 30
0.0
 11
118.7083253849382
 21
429.5278668483422
 31
0.0
  0
LINE
  5
26B4
102
{ACAD_REACTORS
330
2865
330
2AB2
102
}
330
1E
100
AcDbEntity
  8
STEMPEL
100
AcDbLine
 10
116.2083253849382
 20
449.1685076635845
 30
0.0
 11
116.2083253849382
 21
429.5278668483422
 31
0.0
  0
POINT
  5
26B5
330
1E
100
AcDbEntity
  8
SCHRAFF
100
AcDbPoint
 10
116.2083253849382
 20
429.5278668483422
 30
0.0
  0
LINE
  5
26B6
102
{ACAD_REACTORS
330
2865
102
}
330
1E
100
AcDbEntity
  8
STEMPEL
100
AcDbLine
 10
113.7083253849382
 20
480.1962555781888
 30
0.0
 11
113.7083253849382
 21
465.1372270862558
 31
0.0
  0
ARC
  5
26B7
102
{ACAD_REACTORS
330
2865
102
}
330
1E
100
AcDbEntity
  8
STEMPEL
100
AcDbCircle
 10
129.2083253849382
 20
465.1372270862558
 30
0.0
 40
15.5
100
AcDbArc
 50
180.0
 51
214.7719440319491
  0
LINE
  5
26B8
102
{ACAD_REACTORS
330
2865
102
}
330
1E
100
AcDbEntity
  8
STEMPEL
100
AcDbLine
 10
111.7083253849382
 20
536.6962555781888
 30
0.0
 11
110.7533223062469
 21
534.6482448668271
 31
0.0
  0
LINE
  5
26B9
102
{ACAD_REACTORS
330
2A7D
330
2AB2
102
}
330
1E
100
AcDbEntity
  8
STEMPEL
100
AcDbLine
 10
105.2083253849382
 20
518.6962555781888
 30
0.0
 11
89.05832538493825
 21
518.6962555781887
 31
0.0
  0
ARC
  5
26BA
102
{ACAD_REACTORS
330
2865
102
}
330
1E
100
AcDbEntity
  8
STEMPEL
100
AcDbCircle
 10
140.2083253849382
 20
520.913151360255
 30
0.0
 40
32.5
100
AcDbArc
 50
155.0000000000079
 51
180.0
  0
ARC
  5
26BB
102
{ACAD_REACTORS
330
2865
330
2A7D
102
}
330
1E
100
AcDbEntity
  8
STEMPEL
100
AcDbCircle
 10
140.2083253849382
 20
520.913151360255
 30
0.0
 40
35.0
100
AcDbArc
 50
155.0000000000079
 51
180.0
  0
LINE
  5
26BC
102
{ACAD_REACTORS
330
2865
102
}
330
1E
100
AcDbEntity
  8
STEMPEL
100
AcDbLine
 10
107.7083253849382
 20
520.913151360255
 30
0.0
 11
107.7083253849382
 21
505.051603080104
 31
0.0
  0
LINE
  5
26BD
102
{ACAD_REACTORS
330
2865
330
2A7D
330
2AB2
102
}
330
1E
100
AcDbEntity
  8
STEMPEL
100
AcDbLine
 10
105.2083253849382
 20
520.913151360255
 30
0.0
 11
105.2083253849382
 21
504.7488611074129
 31
0.0
  0
LINE
  5
26BE
102
{ACAD_REACTORS
330
2865
330
2A7D
102
}
330
1E
100
AcDbEntity
  8
STEMPEL
100
AcDbLine
 10
108.9498805875321
 20
536.6962555781888
 30
0.0
 11
108.4875528386553
 21
535.7047905211793
 31
0.0
  0
LINE
  5
26C2
102
{ACAD_REACTORS
330
2814
102
}
330
1E
100
AcDbEntity
  8
STEMPEL
100
AcDbLine
 10
259.7083253849382
 20
380.9570957323485
 30
0.0
 11
259.7083253849382
 21
266.6962555781894
 31
0.0
  0
LINE
  5
26C3
102
{ACAD_REACTORS
330
2814
330
2A02
330
2AB2
102
}
330
1E
100
AcDbEntity
  8
STEMPEL
100
AcDbLine
 10
262.2083253849382
 20
380.9570957323485
 30
0.0
 11
262.2083253849382
 21
266.5871032209178
 31
0.0
  0
TEXT
  5
26C4
330
1E
100
AcDbEntity
  8
TEXT
 62
     1
100
AcDbText
 10
288.4349883468467
 20
262.4840371498456
 30
0.0
 40
7.0
  1
EDV-Art.Nr. 19602.FE0X
 41
0.8
  7
GREEKS
100
AcDbText
  0
TEXT
  5
26C5
330
1E
100
AcDbEntity
  8
TEXT
 62
     1
100
AcDbText
 10
288.4349883468467
 20
275.4479440403926
 30
0.0
 40
7.0
  1
Abgleichstück DN150/125
 41
0.8
  7
GREEKS
100
AcDbText
  0
LINE
  5
26C6
330
1E
100
AcDbEntity
  8
TEXT
 62
     2
100
AcDbLine
 10
287.8795589500565
 20
272.0680386234962
 30
0.0
 11
403.678772005627
 21
272.0680386234962
 31
0.0
  0
LINE
  5
26C8
330
1E
100
AcDbEntity
  8
TEXT
 62
     2
100
AcDbLine
 10
287.8795589500565
 20
272.0680386234962
 30
0.0
 11
261.6292300792864
 21
286.845675373332
 31
0.0
  0
LINE
  5
26C9
102
{ACAD_REACTORS
330
2814
102
}
330
1E
100
AcDbEntity
  8
STEMPEL
100
AcDbLine
 10
259.7083253849382
 20
266.6962555781894
 30
0.0
 11
258.3959954320494
 21
251.6962555781887
 31
0.0
  0
LINE
  5
26CA
102
{ACAD_REACTORS
330
2814
102
}
330
1E
100
AcDbEntity
  8
STEMPEL
100
AcDbLine
 10
262.2083253849382
 20
266.5871032209178
 30
0.0
 11
260.9055450259079
 21
251.6962555781887
 31
0.0
  0
ARC
  5
26CE
102
{ACAD_REACTORS
330
2865
102
}
330
1E
100
AcDbEntity
  8
STEMPEL
100
AcDbCircle
 10
251.2102977051802
 20
504.6935570974708
 30
0.0
 40
32.5
100
AcDbArc
 50
332.2463720435655
 51
0.6312288822566936
  0
ARC
  5
26CF
102
{ACAD_REACTORS
330
2865
330
2AB2
102
}
330
1E
100
AcDbEntity
  8
STEMPEL
100
AcDbCircle
 10
251.2083253849382
 20
504.6912555781887
 30
0.0
 40
35.00004740563918
100
AcDbArc
 50
332.4728163794495
 51
0.0943014491683565
  0
ARC
  5
26D1
102
{ACAD_REACTORS
330
2865
330
2AB2
102
}
330
1E
100
AcDbEntity
  8
STEMPEL
100
AcDbCircle
 10
256.7083253849382
 20
429.5278668483422
 30
0.0
 40
18.5
100
AcDbArc
 50
325.0079798014413
 51
0.0
  0
ARC
  5
26D2
102
{ACAD_REACTORS
330
2865
102
}
330
1E
100
AcDbEntity
  8
STEMPEL
100
AcDbCircle
 10
262.2083253849382
 20
465.1372270862558
 30
0.0
 40
15.5
100
AcDbArc
 50
325.228055968051
 51
0.0
  0
ARC
  5
26D3
102
{ACAD_REACTORS
330
2865
330
2AB2
102
}
330
1E
100
AcDbEntity
  8
STEMPEL
100
AcDbCircle
 10
285.2083253849382
 20
449.1685076635845
 30
0.0
 40
10.0
100
AcDbArc
 50
145.2280559680509
 51
180.0
  0
INSERT
  5
26D4
330
1E
100
AcDbEntity
  8
SCHRAFF
100
AcDbBlockReference
  2
*X2
 10
-59.20015173249885
 20
-0.7893030254160749
 30
0.0
1001
ACAD
1000
HATCH
1002
{
1070
    16
1000
_U,I
1040
0.1
1040
0.0
1070
     0
1002
}
  0
ARC
  5
26D5
102
{ACAD_REACTORS
330
2AB2
102
}
330
1E
100
AcDbEntity
  8
SCHRAFF
100
AcDbCircle
 10
264.7083253849382
 20
408.6962555781886
 30
0.0
 40
4.0
100
AcDbArc
 50
264.7099187946278
 51
55.00797980144
  0
LINE
  5
26D6
102
{ACAD_REACTORS
330
2814
102
}
330
1E
100
AcDbEntity
  8
STEMPEL
100
AcDbLine
 10
259.7871229149032
 20
382.6627626277222
 30
0.0
 11
262.1976315214279
 21
408.6962555781886
 31
0.0
  0
LINE
  5
26D7
102
{ACAD_REACTORS
330
2814
330
2AB2
102
}
330
1E
100
AcDbEntity
  8
STEMPEL
100
AcDbLine
 10
262.276474600043
 20
382.4322671013204
 30
0.0
 11
264.7083253849382
 21
408.6962555781886
 31
0.0
  0
ARC
  5
26E4
102
{ACAD_REACTORS
330
2814
102
}
330
1E
100
AcDbEntity
  8
STEMPEL
100
AcDbCircle
 10
278.2083253849382
 20
380.9570957323485
 30
0.0
 40
18.5
100
AcDbArc
 50
174.7099187946276
 51
180.0
  0
ARC
  5
26E5
102
{ACAD_REACTORS
330
2814
330
2AB2
102
}
330
1E
100
AcDbEntity
  8
STEMPEL
100
AcDbCircle
 10
278.2083253849382
 20
380.9570957323485
 30
0.0
 40
16.0
100
AcDbArc
 50
174.7099187946276
 51
180.0
  0
ARC
  5
26E6
102
{ACAD_REACTORS
330
2865
102
}
330
1E
100
AcDbEntity
  8
STEMPEL
100
AcDbCircle
 10
285.2083253849382
 20
449.1685076635845
 30
0.0
 40
12.5
100
AcDbArc
 50
145.2280559680509
 51
180.0
  0
ARC
  5
26E7
102
{ACAD_REACTORS
330
2865
102
}
330
1E
100
AcDbEntity
  8
STEMPEL
100
AcDbCircle
 10
256.7083253849382
 20
429.5278668483422
 30
0.0
 40
16.0
100
AcDbArc
 50
325.0079798014413
 51
0.0
  0
LINE
  5
26E8
102
{ACAD_REACTORS
330
2865
102
}
330
1E
100
AcDbEntity
  8
STEMPEL
100
AcDbLine
 10
269.8160361132427
 20
420.3524693385289
 30
0.0
 11
261.6566864810047
 21
408.6962555781887
 31
0.0
  0
LINE
  5
26E9
102
{ACAD_REACTORS
330
2865
330
2AB2
102
}
330
1E
100
AcDbEntity
  8
STEMPEL
100
AcDbLine
 10
271.8641159145404
 20
418.9188134776205
 30
0.0
 11
264.7083253849382
 21
408.6962555781886
 31
0.0
  0
POINT
  5
26EA
330
1E
100
AcDbEntity
  8
SCHRAFF
100
AcDbPoint
 10
264.7083253849382
 20
408.6962555781886
 30
0.0
  0
LINE
  5
26EB
102
{ACAD_REACTORS
330
2865
330
2AB2
102
}
330
1E
100
AcDbEntity
  8
STEMPEL
100
AcDbLine
 10
275.2083253849382
 20
449.1685076635845
 30
0.0
 11
275.2083253849382
 21
429.5278668483422
 31
0.0
  0
LINE
  5
26EC
102
{ACAD_REACTORS
330
2865
102
}
330
1E
100
AcDbEntity
  8
STEMPEL
100
AcDbLine
 10
272.7083253849382
 20
449.1685076635845
 30
0.0
 11
272.7083253849382
 21
429.5278668483422
 31
0.0
  0
POINT
  5
26ED
330
1E
100
AcDbEntity
  8
SCHRAFF
100
AcDbPoint
 10
275.2083253849382
 20
429.5278668483422
 30
0.0
  0
HATCH
  5
26EE
330
1E
100
AcDbEntity
  8
SCHRAFF
100
AcDbHatch
 10
0.0
 20
0.0
 30
0.0
210
0.0
220
0.0
230
1.0
  2
_USER
 70
     0
 71
     0
 91
        1
 92
        7
 72
     1
 73
     1
 93
        3
 10
294.9583253849383
 20
402.6962555781888
 42
0.0
 10
297.8630872897002
 20
406.6962555781887
 42
-0.462030296210738
 10
292.0535634801764
 20
398.6962555781888
 42
0.0
 97
        0
 75
     0
 76
     0
 52
0.0
 41
0.1
 77
     0
 78
     1
 53
180.0
 43
391.346346505564
 44
15.21584036162244
 45
0.0
 46
0.1
 79
     0
 47
0.0395167134121635
 98
        1
 10
295.7804905368925
 20
402.0599478571207
  0
ARC
  5
26EF
330
1E
100
AcDbEntity
  8
SCHRAFF
100
AcDbCircle
 10
291.5536655094539
 20
405.1686871544332
 30
0.0
 40
6.491707671352749
100
AcDbArc
 50
274.4164691956597
 51
13.60993951562511
  0
LINE
  5
26F0
102
{ACAD_REACTORS
330
2ACB
102
}
330
1E
100
AcDbEntity
  8
STEMPEL
100
AcDbLine
 10
294.9583253849382
 20
402.6962555781888
 30
0.0
 11
301.4413740564219
 21
411.6237324372809
 31
0.0
  0
LINE
  5
26F3
102
{ACAD_REACTORS
330
2ACB
102
}
330
1E
100
AcDbEntity
  8
STEMPEL
100
AcDbLine
 10
291.3743282545209
 20
402.6962555781887
 30
0.0
 11
294.9583253849382
 21
402.6962555781887
 31
0.0
  0
LINE
  5
26F4
330
1E
100
AcDbEntity
  8
STEMPEL
100
AcDbLine
 10
283.6752767134545
 20
387.1589426535226
 30
0.0
 11
294.9583253849382
 21
402.6962555781888
 31
0.0
  0
LINE
  5
26FA
102
{ACAD_REACTORS
330
2865
102
}
330
1E
100
AcDbEntity
  8
STEMPEL
100
AcDbLine
 10
277.7083253849383
 20
480.1962555781888
 30
0.0
 11
277.7083253849383
 21
465.1372270862558
 31
0.0
  0
LINE
  5
26FB
102
{ACAD_REACTORS
330
2865
330
2AB2
102
}
330
1E
100
AcDbEntity
  8
STEMPEL
100
AcDbLine
 10
280.2083253849382
 20
480.1962555781888
 30
0.0
 11
280.2083253849382
 21
465.1372270862558
 31
0.0
  0
ARC
  5
26FC
102
{ACAD_REACTORS
330
2865
330
2AB2
102
}
330
1E
100
AcDbEntity
  8
STEMPEL
100
AcDbCircle
 10
262.2083253849382
 20
465.1372270862558
 30
0.0
 40
18.0
100
AcDbArc
 50
325.228055968051
 51
0.0
  0
POINT
  5
26FD
330
1E
100
AcDbEntity
  8
SCHRAFF
100
AcDbPoint
 10
280.2083253849382
 20
465.1372270862558
 30
0.0
  0
ARC
  5
26FE
102
{ACAD_REACTORS
330
2865
330
2AB2
102
}
330
1E
100
AcDbEntity
  8
STEMPEL
100
AcDbCircle
 10
298.2083253849382
 20
480.1962555781888
 30
0.0
 40
18.0
100
AcDbArc
 50
152.4728163794495
 51
180.0
  0
ARC
  5
26FF
102
{ACAD_REACTORS
330
2865
102
}
330
1E
100
AcDbEntity
  8
STEMPEL
100
AcDbCircle
 10
298.2083253849382
 20
480.1962555781888
 30
0.0
 40
20.5
100
AcDbArc
 50
152.8235627241377
 51
180.0
  0
LINE
  5
2700
102
{ACAD_REACTORS
330
2A7D
330
2AB2
102
}
330
1E
100
AcDbEntity
  8
STEMPEL
100
AcDbLine
 10
302.3583253849383
 20
518.6962555781888
 30
0.0
 11
286.2083253849382
 21
518.6962555781888
 31
0.0
  0
ARC
  5
2701
102
{ACAD_REACTORS
330
2865
102
}
330
1E
100
AcDbEntity
  8
STEMPEL
100
AcDbCircle
 10
251.2083253849382
 20
520.913151360255
 30
0.0
 40
32.5
100
AcDbArc
 50
0.0
 51
24.99999999998912
  0
ARC
  5
2702
102
{ACAD_REACTORS
330
2865
330
2A7D
102
}
330
1E
100
AcDbEntity
  8
STEMPEL
100
AcDbCircle
 10
251.2083253849382
 20
520.913151360255
 30
0.0
 40
35.0
100
AcDbArc
 50
0.0
 51
24.99999999999059
  0
LINE
  5
2703
102
{ACAD_REACTORS
330
2865
102
}
330
1E
100
AcDbEntity
  8
STEMPEL
100
AcDbLine
 10
283.7083253849382
 20
520.913151360255
 30
0.0
 11
283.7083253849382
 21
505.051603080104
 31
0.0
  0
LINE
  5
2704
102
{ACAD_REACTORS
330
2865
330
2A7D
330
2AB2
102
}
330
1E
100
AcDbEntity
  8
STEMPEL
100
AcDbLine
 10
286.2083253849382
 20
520.913151360255
 30
0.0
 11
286.2083253849382
 21
504.7488611074129
 31
0.0
  0
LINE
  5
2705
102
{ACAD_REACTORS
330
2865
102
}
330
1E
100
AcDbEntity
  8
STEMPEL
100
AcDbLine
 10
279.7083253849383
 20
536.6962555781888
 30
0.0
 11
280.6633284636296
 21
534.6482448668271
 31
0.0
  0
LINE
  5
2706
102
{ACAD_REACTORS
330
2865
330
2A7D
102
}
330
1E
100
AcDbEntity
  8
STEMPEL
100
AcDbLine
 10
282.4667701823443
 20
536.6962555781888
 30
0.0
 11
282.9290979312211
 21
535.7047905211793
 31
0.0
  0
HATCH
  5
2814
330
1E
100
AcDbEntity
  8
SCHRAFF
100
AcDbHatch
 10
0.0
 20
0.0
 30
0.0
210
0.0
220
0.0
230
1.0
  2
_USER
 70
     0
 71
     1
 91
        2
 92
        7
 72
     1
 73
     1
 93
       10
 10
262.2083253849382
 20
380.9570957323485
 42
-0.0230864339340223
 10
262.276474600043
 20
382.4322671013204
 42
0.0
 10
264.7083253849383
 20
408.6962555781886
 42
0.0
 10
262.1976315214279
 20
408.6962555781886
 42
0.0
 10
259.7871229149032
 20
382.6627626277222
 42
0.0230864339340275
 10
259.7083253849382
 20
380.9570957323482
 42
0.0
 10
259.7083253849382
 20
266.6962555781893
 42
0.0
 10
258.3959954320494
 20
251.6962555781887
 42
0.0
 10
260.9055450259079
 20
251.6962555781887
 42
0.0
 10
262.2083253849382
 20
266.5871032209178
 42
0.0
 97
       10
330
26E5
330
26D7
330
2674
330
26D6
330
26E4
330
26C2
330
26C9
330
266F
330
26CA
330
26C3
 92
        7
 72
     1
 73
     1
 93
       10
 10
131.7083253849382
 20
380.9570957323487
 42
0.0230864339340219
 10
131.6295278549735
 20
382.6627626277223
 42
0.0
 10
129.2190192484488
 20
408.6962555781888
 42
0.0
 10
126.7083253849382
 20
408.6962555781889
 42
0.0
 10
129.1401761698334
 20
382.4322671013204
 42
-0.023086433934017
 10
129.2083253849382
 20
380.9570957323489
 42
0.0
 10
129.2083253849382
 20
266.5871032209174
 42
0.0
 10
130.5111057439687
 20
251.6962555781888
 42
0.0
 10
133.020655337827
 20
251.6962555781889
 42
0.0
 10
131.7083253849382
 20
266.6962555781895
 42
0.0
 97
       10
330
26A3
330
2690
330
2674
330
2691
330
26A4
330
267D
330
2680
330
266F
330
2681
330
267C
 75
     0
 76
     0
 52
45.0
 41
2.0
 77
     0
 78
     1
 53
45.0
 43
0.0
 44
0.0
 45
-1.414213562373094
 46
1.414213562373095
 79
     0
 47
0.6474751365904299
 98
        2
 10
261.0059066614072
 20
341.7714079649988
 10
130.7713586988848
 20
311.3400767050387
  0
HATCH
  5
2865
330
1E
100
AcDbEntity
  8
SCHRAFF
100
AcDbHatch
 10
0.0
 20
0.0
 30
0.0
210
0.0
220
0.0
230
1.0
  2
_USER
 70
     0
 71
     1
 91
        2
 92
        7
 72
     1
 73
     1
 93
       24
 10
283.7083253849382
 20
505.051603080104
 42
-0.1244894853097828
 10
279.971437680204
 20
489.5592640073695
 42
0.1191385083149856
 10
277.7083253849383
 20
480.1962555781885
 42
0.0
 10
277.7083253849383
 20
465.1372270862558
 42
-0.1528962216020417
 10
274.940468242081
 20
456.2974002629912
 42
0.1528962216020364
 10
272.7083253849382
 20
449.1685076635845
 42
0.0
 10
272.7083253849382
 20
429.5278668483422
 42
-0.1538790779584982
 10
269.8160361132428
 20
420.3524693385291
 42
0.0
 10
261.6566864810047
 20
408.6962555781887
 42
0.0
 10
264.7083253849382
 20
408.6962555781886
 42
0.0
 10
271.8641159145404
 20
418.9188134776205
 42
0.1538790779585001
 10
275.2083253849382
 20
429.5278668483422
 42
0.0
 10
275.2083253849382
 20
449.1685076635845
 42
-0.1528962216020417
 10
276.9940396706526
 20
454.87162174311
 42
0.1528962216020388
 10
280.2083253849382
 20
465.1372270862558
 42
0.0
 10
280.2083253849382
 20
480.1962555781888
 42
-0.1206909349745618
 10
282.2460755113655
 20
488.5153047410215
 42
0.1211084169874218
 10
286.2083253849382
 20
504.7488611074129
 42
0.0
 10
286.2083253849382
 20
520.913151360255
 42
0.1095178116832397
 10
282.9290979312211
 20
535.7047905211793
 42
0.0
 10
282.4667701823443
 20
536.6962555781888
 42
0.0
 10
279.7083253849383
 20
536.6962555781888
 42
0.0
 10
280.6633284636296
 20
534.6482448668271
 42
-0.1095178116832373
 10
283.7083253849382
 20
520.9131513602548
 42
0.0
 97
       24
330
2702
330
2706
330
2675
330
2705
330
2701
330
2703
330
26CE
330
26FF
330
26FA
330
26D2
330
26E6
330
26EC
330
26E7
330
26E8
330
2674
330
26E9
330
26D1
330
26EB
330
26D3
330
26FC
330
26FB
330
26FE
330
26CF
330
2704
 92
        7
 72
     1
 73
     1
 93
       24
 10
107.7083253849382
 20
520.913151360255
 42
-0.1095178116832359
 10
110.7533223062469
 20
534.6482448668271
 42
0.0
 10
111.7083253849382
 20
536.6962555781888
 42
0.0
 10
108.949880587532
 20
536.6962555781888
 42
0.0
 10
108.4875528386553
 20
535.7047905211793
 42
0.1095178116832391
 10
105.2083253849382
 20
520.9131513602551
 42
0.0
 10
105.2083253849382
 20
504.7488611074129
 42
0.1211084169874186
 10
109.1705752585107
 20
488.5153047410219
 42
-0.1206909349745707
 10
111.2083253849382
 20
480.1962555781886
 42
0.0
 10
111.2083253849382
 20
465.1372270862558
 42
0.1528962216020406
 10
114.4226110992239
 20
454.8716217431099
 42
-0.1528962216020398
 10
116.2083253849382
 20
449.1685076635844
 42
0.0
 10
116.2083253849382
 20
429.5278668483422
 42
0.1538790779585
 10
119.552534855336
 20
418.9188134776206
 42
0.0
 10
126.7083253849382
 20
408.6962555781888
 42
0.0
 10
129.7599642888717
 20
408.6962555781888
 42
0.0
 10
121.6006146566337
 20
420.3524693385289
 42
-0.1538790779585015
 10
118.7083253849382
 20
429.5278668483422
 42
0.0
 10
118.7083253849382
 20
449.1685076635845
 42
0.1528962216020391
 10
116.4761825277953
 20
456.2974002629913
 42
-0.1528962216020395
 10
113.7083253849382
 20
465.1372270862558
 42
0.0
 10
113.7083253849382
 20
480.1962555781888
 42
0.1191385083148282
 10
111.4452130896782
 20
489.5592640073584
 42
-0.1244894853098801
 10
107.7083253849382
 20
505.051603080104
 42
0.0
 97
       24
330
26BA
330
26B8
330
2675
330
26BE
330
26BB
330
26BD
330
2688
330
26A5
330
26AA
330
26A7
330
26AD
330
26B4
330
26AF
330
26B1
330
2674
330
26AE
330
26B0
330
26B3
330
26AC
330
26B7
330
26B6
330
26A6
330
2687
330
26BC
 75
     0
 76
     0
 52
135.0
 41
2.0
 77
     0
 78
     1
 53
135.0
 43
0.0
 44
0.0
 45
-1.414213562373095
 46
-1.414213562373094
 79
     0
 47
0.3004470956767103
 98
        2
 10
284.6729463405795
 20
514.671725118817
 10
106.9831237818193
 20
515.873513777024
  0
LINE
  5
2885
330
1E
100
AcDbEntity
  8
HILF
100
AcDbLine
 10
275.6105323762802
 20
484.4787491436068
 30
0.0
 11
115.8061183935963
 21
484.4787491436068
 31
0.0
  0
LINE
  5
2886
330
1E
100
AcDbEntity
  8
HILF
100
AcDbLine
 10
274.0435029742872
 20
459.758698344251
 30
0.0
 11
117.3731477955892
 21
459.758698344251
 31
0.0
  0
LINE
  5
2887
330
1E
100
AcDbEntity
  8
HILF
100
AcDbLine
 10
270.5089570797549
 20
452.1565791869206
 30
0.0
 11
120.9076936901216
 21
452.1565791869205
 31
0.0
  0
LINE
  5
2888
330
1E
100
AcDbEntity
  8
HILF
100
AcDbLine
 10
269.0093847864215
 20
423.9660382280789
 30
0.0
 11
122.4072659834549
 21
423.9660382280789
 31
0.0
  0
LINE
  5
28F7
330
1E
100
AcDbEntity
  8
STEMPEL
100
AcDbLine
 10
111.5583253849382
 20
375.4069668325644
 30
0.0
 11
111.5583253849382
 21
311.6962555781889
 31
0.0
  0
LINE
  5
28F8
330
1E
100
AcDbEntity
  8
STEMPEL
100
AcDbLine
 10
279.8583253849382
 20
375.4069668325643
 30
0.0
 11
279.8583253849382
 21
311.6962555781889
 31
0.0
  0
LINE
  5
28F9
102
{ACAD_REACTORS
330
2A02
102
}
330
1E
100
AcDbEntity
  8
STEMPEL
100
AcDbLine
 10
279.8583253849382
 20
311.6962555781889
 30
0.0
 11
276.9583253849382
 21
311.6962555781888
 31
0.0
  0
LINE
  5
28FA
102
{ACAD_REACTORS
330
2A02
330
2AB2
102
}
330
1E
100
AcDbEntity
  8
STEMPEL
100
AcDbLine
 10
114.4583253849382
 20
375.4069668325644
 30
0.0
 11
114.4583253849382
 21
311.6962555781889
 31
0.0
  0
LINE
  5
28FB
102
{ACAD_REACTORS
330
2A02
330
2AB2
102
}
330
1E
100
AcDbEntity
  8
STEMPEL
100
AcDbLine
 10
276.9583253849382
 20
375.4069668325643
 30
0.0
 11
276.9583253849382
 21
311.6962555781889
 31
0.0
  0
ARC
  5
28FC
330
1E
100
AcDbEntity
  8
STEMPEL
100
AcDbCircle
 10
299.8583253849382
 20
375.4069668325643
 30
0.0
 40
20.0
100
AcDbArc
 50
144.0132043556428
 51
180.0
  0
ARC
  5
28FD
330
1E
100
AcDbEntity
  8
STEMPEL
100
AcDbCircle
 10
91.55832538493823
 20
375.4069668325644
 30
0.0
 40
20.0
100
AcDbArc
 50
0.0
 51
35.98679564435717
  0
ARC
  5
28FE
102
{ACAD_REACTORS
330
2AB2
102
}
330
1E
100
AcDbEntity
  8
STEMPEL
100
AcDbCircle
 10
91.55832538493823
 20
375.4069668325644
 30
0.0
 40
22.9
100
AcDbArc
 50
0.0
 51
35.98679564435717
  0
LINE
  5
28FF
102
{ACAD_REACTORS
330
268A
330
2AB2
102
}
330
1E
100
AcDbEntity
  8
STEMPEL
100
AcDbLine
 10
110.087916113787
 20
388.8629791475617
 30
0.0
 11
100.0423225153555
 21
402.6962555781887
 31
0.0
  0
ARC
  5
2900
102
{ACAD_REACTORS
330
2AB2
102
}
330
1E
100
AcDbEntity
  8
STEMPEL
100
AcDbCircle
 10
299.8583253849382
 20
375.4069668325643
 30
0.0
 40
22.9
100
AcDbArc
 50
144.0132043556428
 51
180.0
  0
LINE
  5
2901
102
{ACAD_REACTORS
330
2AB2
102
}
330
1E
100
AcDbEntity
  8
STEMPEL
100
AcDbLine
 10
281.3287346560894
 20
388.8629791475616
 30
0.0
 11
291.374328254521
 21
402.6962555781887
 31
0.0
  0
HATCH
  5
2912
330
1E
100
AcDbEntity
  8
SCHRAFF
100
AcDbHatch
 10
0.0
 20
0.0
 30
0.0
210
0.0
220
0.0
230
1.0
  2
_USER
 70
     0
 71
     0
 91
        2
 92
        7
 72
     1
 73
     1
 93
        8
 10
276.9583253849383
 20
311.6962555781888
 42
0.0
 10
279.8583253849382
 20
311.6962555781888
 42
0.0
 10
279.8583253849382
 20
375.4069668325643
 42
-0.1583253806876388
 10
283.6752767134544
 20
387.1589426535225
 42
0.0
 10
294.9583253849382
 20
402.6962555781887
 42
0.0
 10
291.374328254521
 20
402.6962555781887
 42
0.0
 10
281.3287346560894
 20
388.8629791475616
 42
0.1583253806876396
 10
276.9583253849382
 20
375.4069668325643
 42
0.0
 97
        0
 92
        7
 72
     1
 73
     1
 93
        8
 10
114.4583253849382
 20
375.4069668325644
 42
0.1583253806876399
 10
110.087916113787
 20
388.8629791475617
 42
0.0
 10
100.0423225153554
 20
402.6962555781887
 42
0.0
 10
96.45832538493822
 20
402.6962555781887
 42
0.0
 10
107.7413740564219
 20
387.1589426535227
 42
-0.1583253806876397
 10
111.5583253849382
 20
375.4069668325644
 42
0.0
 10
111.5583253849382
 20
311.6962555781889
 42
0.0
 10
114.4583253849382
 20
311.6962555781889
 42
0.0
 97
        0
 75
     0
 76
     0
 52
135.0
 41
2.0
 77
     0
 78
     1
 53
135.0
 43
0.0
 44
0.0
 45
-1.414213562373095
 46
-1.414213562373094
 79
     0
 47
0.3288949426147316
 98
        2
 10
277.8144610725894
 20
340.1361869577206
 10
113.6321183070963
 20
343.7540303133692
  0
LINE
  5
2946
102
{ACAD_REACTORS
330
2A02
102
}
330
1E
100
AcDbEntity
  8
STEMPEL
100
AcDbLine
 10
125.2083253849382
 20
327.6962555781889
 30
0.0
 11
125.2083253849382
 21
323.6962555781889
 31
0.0
  0
LINE
  5
2947
102
{ACAD_REACTORS
330
2A02
102
}
330
1E
100
AcDbEntity
  8
STEMPEL
100
AcDbLine
 10
119.2083253849382
 20
327.6962555781889
 30
0.0
 11
119.2083253849381
 21
323.6962555781889
 31
0.0
  0
ARC
  5
2948
102
{ACAD_REACTORS
330
2A02
102
}
330
1E
100
AcDbEntity
  8
STEMPEL
100
AcDbCircle
 10
122.2083253849381
 20
323.6962555781889
 30
0.0
 40
3.000000000000056
100
AcDbArc
 50
245.3756816478386
 51
0.0
  0
ARC
  5
2949
102
{ACAD_REACTORS
330
2A02
102
}
330
1E
100
AcDbEntity
  8
STEMPEL
100
AcDbCircle
 10
122.2083253849381
 20
323.6962555781889
 30
0.0
 40
3.000000000000056
100
AcDbArc
 50
180.0
 51
245.3756816478386
  0
POINT
  5
294A
330
1E
100
AcDbEntity
  8
DEFPOINTS
  6
ByBlock
 62
     0
100
AcDbPoint
 10
122.2083253849382
 20
320.6962555781889
 30
0.0
  0
POINT
  5
294B
330
1E
100
AcDbEntity
  8
DEFPOINTS
  6
ByBlock
 62
     0
100
AcDbPoint
 10
279.8583253849382
 20
311.6962555781889
 30
0.0
  0
POINT
  5
294C
330
1E
100
AcDbEntity
  8
DEFPOINTS
  6
ByBlock
 62
     0
100
AcDbPoint
 10
111.5583253849382
 20
311.6962555781889
 30
0.0
  0
POINT
  5
294D
330
1E
100
AcDbEntity
  8
DEFPOINTS
  6
ByBlock
 62
     0
100
AcDbPoint
 10
271.2083253849382
 20
311.5622809819734
 30
0.0
  0
POINT
  5
294E
330
1E
100
AcDbEntity
  8
DEFPOINTS
  6
ByBlock
 62
     0
100
AcDbPoint
 10
271.7083253849382
 20
309.6962555781889
 30
0.0
  0
POINT
  5
294F
330
1E
100
AcDbEntity
  8
DEFPOINTS
  6
ByBlock
 62
     0
100
AcDbPoint
 10
119.7083253849382
 20
309.6962555781889
 30
0.0
  0
POINT
  5
2950
330
1E
100
AcDbEntity
  8
DEFPOINTS
  6
ByBlock
 62
     0
100
AcDbPoint
 10
269.5647318454893
 20
317.6962555781889
 30
0.0
  0
POINT
  5
2951
330
1E
100
AcDbEntity
  8
DEFPOINTS
  6
ByBlock
 62
     0
100
AcDbPoint
 10
121.8519189243872
 20
317.6962555781889
 30
0.0
  0
POINT
  5
2952
330
1E
100
AcDbEntity
  8
DEFPOINTS
  6
ByBlock
 62
     0
100
AcDbPoint
 10
274.8583253849382
 20
327.6962555781889
 30
0.0
  0
POINT
  5
2953
330
1E
100
AcDbEntity
  8
DEFPOINTS
  6
ByBlock
 62
     0
100
AcDbPoint
 10
269.2083253849382
 20
320.6962555781889
 30
0.0
  0
POINT
  5
2954
330
1E
100
AcDbEntity
  8
DEFPOINTS
  6
ByBlock
 62
     0
100
AcDbPoint
 10
272.2083253849382
 20
327.6962555781889
 30
0.0
  0
POINT
  5
2955
330
1E
100
AcDbEntity
  8
DEFPOINTS
  6
ByBlock
 62
     0
100
AcDbPoint
 10
266.2083253849382
 20
327.6962555781889
 30
0.0
  0
POINT
  5
2957
330
1E
100
AcDbEntity
  8
DEFPOINTS
  6
ByBlock
 62
     0
100
AcDbPoint
 10
114.5583253849382
 20
325.6962555781889
 30
0.0
  0
POINT
  5
2958
330
1E
100
AcDbEntity
  8
DEFPOINTS
  6
ByBlock
 62
     0
100
AcDbPoint
 10
122.2083253849382
 20
327.6962555781889
 30
0.0
  0
ARC
  5
295B
102
{ACAD_REACTORS
330
2A02
102
}
330
1E
100
AcDbEntity
  8
STEMPEL
100
AcDbCircle
 10
269.2083253849383
 20
323.6962555781889
 30
0.0
 40
3.000000000000056
100
AcDbArc
 50
294.6243183521614
 51
0.0
  0
LINE
  5
295C
102
{ACAD_REACTORS
330
2A02
102
}
330
1E
100
AcDbEntity
  8
STEMPEL
100
AcDbLine
 10
271.2083253849382
 20
311.5622809819734
 30
0.0
 11
269.5647318454893
 21
317.6962555781889
 31
0.0
  0
ARC
  5
295D
102
{ACAD_REACTORS
330
2A02
102
}
330
1E
100
AcDbEntity
  8
STEMPEL
100
AcDbCircle
 10
269.2083253849383
 20
323.6962555781889
 30
0.0
 40
3.000000000000056
100
AcDbArc
 50
180.0
 51
294.6243183521614
  0
LINE
  5
295E
102
{ACAD_REACTORS
330
2A02
102
}
330
1E
100
AcDbEntity
  8
STEMPEL
100
AcDbLine
 10
272.2083253849382
 20
327.6962555781889
 30
0.0
 11
272.2083253849383
 21
323.6962555781889
 31
0.0
  0
LINE
  5
295F
102
{ACAD_REACTORS
330
2A02
102
}
330
1E
100
AcDbEntity
  8
STEMPEL
100
AcDbLine
 10
266.2083253849382
 20
327.6962555781889
 30
0.0
 11
266.2083253849382
 21
323.6962555781889
 31
0.0
  0
LINE
  5
2960
102
{ACAD_REACTORS
330
2A02
330
2AB2
102
}
330
1E
100
AcDbEntity
  8
STEMPEL
100
AcDbLine
 10
276.9583253849382
 20
325.5962555781888
 30
0.0
 11
274.8583253849382
 21
327.6962555781889
 31
0.0
  0
LINE
  5
2961
102
{ACAD_REACTORS
330
2A02
102
}
330
1E
100
AcDbEntity
  8
STEMPEL
100
AcDbLine
 10
271.7083253849382
 20
309.6962555781889
 30
0.0
 11
271.2083253849382
 21
311.5622809819734
 31
0.0
  0
LINE
  5
2963
102
{ACAD_REACTORS
330
2A02
102
}
330
1E
100
AcDbEntity
  8
STEMPEL
100
AcDbLine
 10
279.7083253849383
 20
311.6962555781889
 30
0.0
 11
279.7083253849383
 21
309.6962555781889
 31
0.0
  0
LINE
  5
2968
102
{ACAD_REACTORS
330
2A02
102
}
330
1E
100
AcDbEntity
  8
STEMPEL
100
AcDbLine
 10
119.7083253849382
 20
309.6962555781889
 30
0.0
 11
121.8519189243872
 21
317.6962555781889
 31
0.0
  0
LINE
  5
2969
102
{ACAD_REACTORS
330
2A02
102
}
330
1E
100
AcDbEntity
  8
STEMPEL
100
AcDbLine
 10
121.8519189243872
 20
317.6962555781889
 30
0.0
 11
129.2083253849382
 21
317.6962555781889
 31
0.0
  0
LINE
  5
296A
102
{ACAD_REACTORS
330
2A02
330
2AB2
102
}
330
1E
100
AcDbEntity
  8
STEMPEL
100
AcDbLine
 10
114.4583253849382
 20
325.5962555781888
 30
0.0
 11
116.5583253849382
 21
327.6962555781889
 31
0.0
  0
LINE
  5
296D
102
{ACAD_REACTORS
330
2A02
330
2AB2
102
}
330
1E
100
AcDbEntity
  8
STEMPEL
100
AcDbLine
 10
116.5583253849382
 20
327.6962555781889
 30
0.0
 11
129.2083253849382
 21
327.6962555781889
 31
0.0
  0
LINE
  5
296E
102
{ACAD_REACTORS
330
2A02
102
}
330
1E
100
AcDbEntity
  8
STEMPEL
100
AcDbLine
 10
111.7083253849382
 20
309.6962555781889
 30
0.0
 11
129.2083253849382
 21
309.6962555781889
 31
0.0
  0
LINE
  5
296F
102
{ACAD_REACTORS
330
2A02
102
}
330
1E
100
AcDbEntity
  8
STEMPEL
100
AcDbLine
 10
111.7083253849382
 20
311.6962555781889
 30
0.0
 11
111.7083253849382
 21
309.6962555781889
 31
0.0
  0
LINE
  5
297D
102
{ACAD_REACTORS
330
2A02
330
2AB2
102
}
330
1E
100
AcDbEntity
  8
STEMPEL
100
AcDbLine
 10
262.2083253849382
 20
327.696255578189
 30
0.0
 11
274.8583253849382
 21
327.6962555781889
 31
0.0
  0
LINE
  5
297E
102
{ACAD_REACTORS
330
2A02
102
}
330
1E
100
AcDbEntity
  8
STEMPEL
100
AcDbLine
 10
262.2083253849382
 20
317.6962555781889
 30
0.0
 11
269.5647318454893
 21
317.6962555781889
 31
0.0
  0
LINE
  5
297F
102
{ACAD_REACTORS
330
2A02
102
}
330
1E
100
AcDbEntity
  8
STEMPEL
100
AcDbLine
 10
114.4583253849382
 20
311.6962555781889
 30
0.0
 11
111.5583253849382
 21
311.6962555781889
 31
0.0
  0
LINE
  5
2980
102
{ACAD_REACTORS
330
2A02
102
}
330
1E
100
AcDbEntity
  8
STEMPEL
100
AcDbLine
 10
262.2083253849382
 20
309.6962555781889
 30
0.0
 11
279.7083253849383
 21
309.6962555781889
 31
0.0
  0
HATCH
  5
2A02
330
1E
100
AcDbEntity
  8
SCHRAFF
100
AcDbHatch
 10
0.0
 20
0.0
 30
0.0
210
0.0
220
0.0
230
1.0
  2
NET
 70
     0
 71
     1
 91
        2
 92
        7
 72
     1
 73
     1
 93
       15
 10
271.2083253849382
 20
311.5622809819734
 42
0.0
 10
271.7083253849382
 20
309.6962555781889
 42
0.0
 10
279.7083253849383
 20
309.6962555781889
 42
0.0
 10
279.7083253849383
 20
311.6962555781889
 42
0.0
 10
276.9583253849383
 20
311.6962555781888
 42
0.0
 10
276.9583253849383
 20
325.5962555781888
 42
0.0
 10
274.8583253849382
 20
327.696255578189
 42
0.0
 10
272.2083253849382
 20
327.696255578189
 42
0.0
 10
272.2083253849383
 20
323.6962555781889
 42
-0.2932527545971531
 10
270.4583253849382
 20
320.9690775495299
 42
-0.5464881036522558
 10
266.2083253849382
 20
323.6962555781889
 42
0.0
 10
266.2083253849382
 20
327.6962555781889
 42
0.0
 10
262.2083253849382
 20
327.696255578189
 42
0.0
 10
262.2083253849382
 20
317.696255578189
 42
0.0
 10
269.5647318454894
 20
317.696255578189
 42
0.0
 97
       14
330
2960
330
297D
330
295E
330
295B
330
295D
330
295F
330
26C3
330
297E
330
295C
330
2961
330
2980
330
2963
330
28F9
330
28FB
 92
        7
 72
     1
 73
     1
 93
       14
 10
121.8519189243872
 20
317.6962555781889
 42
0.0
 10
129.2083253849382
 20
317.6962555781888
 42
0.0
 10
129.2083253849382
 20
327.6962555781889
 42
0.0
 10
125.2083253849382
 20
327.6962555781889
 42
0.0
 10
125.2083253849382
 20
323.6962555781889
 42
-0.5464881036522462
 10
120.9583253849382
 20
320.9690775495299
 42
-0.2932527545971531
 10
119.2083253849381
 20
323.6962555781889
 42
0.0
 10
119.2083253849382
 20
327.696255578189
 42
0.0
 10
116.5583253849382
 20
327.6962555781889
 42
0.0
 10
114.4583253849382
 20
325.5962555781888
 42
0.0
 10
114.4583253849382
 20
311.6962555781889
 42
0.0
 10
111.7083253849382
 20
311.6962555781889
 42
0.0
 10
111.7083253849382
 20
309.6962555781889
 42
0.0
 10
119.7083253849382
 20
309.6962555781889
 42
0.0
 97
       13
330
2969
330
267D
330
296D
330
2946
330
2948
330
2949
330
2947
330
296A
330
28FA
330
297F
330
296F
330
296E
330
2968
 75
     0
 76
     1
 52
45.0
 41
20.0
 77
     0
 78
     2
 53
45.0
 43
0.0
 44
0.0
 45
-1.767766952966368
 46
1.767766952966368
 79
     0
 53
135.0
 43
0.0
 44
0.0
 45
-1.767766952966368
 46
-1.767766952966368
 79
     0
 47
0.3720071401685836
 98
        2
 10
271.7894640122995
 20
317.0321137920932
 10
118.8351245347212
 20
317.4041211928361
  0
LINE
  5
2A0D
102
{ACAD_REACTORS
330
2ACB
102
}
330
1E
100
AcDbEntity
  8
STEMPEL
100
AcDbLine
 10
305.2583253849383
 20
536.6962555781888
 30
0.0
 11
305.2583253849383
 21
423.3757082582394
 31
0.0
  0
LINE
  5
2A5F
102
{ACAD_REACTORS
330
2A7D
330
2AB2
330
2ACB
102
}
330
1E
100
AcDbEntity
  8
STEMPEL
100
AcDbLine
 10
302.3583253849383
 20
536.6962555781888
 30
0.0
 11
302.3583253849383
 21
423.3757082582394
 31
0.0
  0
ARC
  5
2A62
102
{ACAD_REACTORS
330
2ACB
102
}
330
1E
100
AcDbEntity
  8
STEMPEL
100
AcDbCircle
 10
285.2583253849383
 20
423.3757082582394
 30
0.0
 40
20.0
100
AcDbArc
 50
324.0132043556426
 51
0.0
  0
ARC
  5
2A64
102
{ACAD_REACTORS
330
2AB2
330
2ACB
102
}
330
1E
100
AcDbEntity
  8
STEMPEL
100
AcDbCircle
 10
285.2583253849383
 20
423.3757082582394
 30
0.0
 40
17.1
100
AcDbArc
 50
324.0132043556426
 51
0.0
  0
LINE
  5
2A65
102
{ACAD_REACTORS
330
2AB2
330
2ACB
102
}
330
1E
100
AcDbEntity
  8
STEMPEL
100
AcDbLine
 10
291.3743282545209
 20
402.6962555781887
 30
0.0
 11
299.0948319990567
 21
413.3277689313199
 31
0.0
  0
LINE
  5
2A66
102
{ACAD_REACTORS
330
2A7D
330
2AB2
330
2ACB
102
}
330
1E
100
AcDbEntity
  8
STEMPEL
100
AcDbLine
 10
89.0583253849382
 20
536.6962555781888
 30
0.0
 11
89.0583253849382
 21
423.3757082582394
 31
0.0
  0
LINE
  5
2A67
102
{ACAD_REACTORS
330
2ACB
102
}
330
1E
100
AcDbEntity
  8
STEMPEL
100
AcDbLine
 10
86.15832538493823
 20
536.6962555781888
 30
0.0
 11
86.15832538493823
 21
423.3757082582394
 31
0.0
  0
LINE
  5
2A68
102
{ACAD_REACTORS
330
2AB2
330
2ACB
102
}
330
1E
100
AcDbEntity
  8
STEMPEL
100
AcDbLine
 10
100.0423225153556
 20
402.6962555781887
 30
0.0
 11
92.32181877081973
 21
413.3277689313199
 31
0.0
  0
ARC
  5
2A69
102
{ACAD_REACTORS
330
2ACB
102
}
330
1E
100
AcDbEntity
  8
STEMPEL
100
AcDbCircle
 10
106.1583253849382
 20
423.3757082582394
 30
0.0
 40
20.0
100
AcDbArc
 50
180.0
 51
215.9867956443574
  0
LINE
  5
2A6A
102
{ACAD_REACTORS
330
2ACB
102
}
330
1E
100
AcDbEntity
  8
STEMPEL
100
AcDbLine
 10
96.45832538493824
 20
402.6962555781888
 30
0.0
 11
89.9752767134546
 21
411.6237324372809
 31
0.0
  0
ARC
  5
2A6B
102
{ACAD_REACTORS
330
2AB2
330
2ACB
102
}
330
1E
100
AcDbEntity
  8
STEMPEL
100
AcDbCircle
 10
106.1583253849382
 20
423.3757082582394
 30
0.0
 40
17.1
100
AcDbArc
 50
180.0
 51
215.9867956443574
  0
HATCH
  5
2A7D
330
1E
100
AcDbEntity
  8
SCHRAFF
100
AcDbHatch
 10
0.0
 20
0.0
 30
0.0
210
0.0
220
0.0
230
1.0
  2
NET
 70
     0
 71
     1
 91
        2
 92
        7
 72
     1
 73
     1
 93
        6
 10
286.2083253849382
 20
520.9131513602549
 42
0.0
 10
286.2083253849382
 20
518.6962555781889
 42
0.0
 10
302.3583253849383
 20
518.6962555781889
 42
0.0
 10
302.3583253849383
 20
536.6962555781888
 42
0.0
 10
282.4667701823443
 20
536.6962555781888
 42
0.0
 10
282.9290979312211
 20
535.7047905211793
 42
-0.1095178116832405
 97
        6
330
2675
330
2706
330
2702
330
2704
330
2700
330
2A5F
 92
        7
 72
     1
 73
     1
 93
        6
 10
89.05832538493822
 20
536.6962555781888
 42
0.0
 10
89.0583253849382
 20
518.6962555781885
 42
0.0
 10
105.2083253849382
 20
518.6962555781887
 42
0.0
 10
105.2083253849382
 20
520.913151360255
 42
-0.1095178116832399
 10
108.4875528386553
 20
535.7047905211793
 42
0.0
 10
108.949880587532
 20
536.6962555781888
 42
0.0
 97
        6
330
26BE
330
2675
330
2A66
330
26B9
330
26BD
330
26BB
 75
     0
 76
     1
 52
45.0
 41
20.0
 77
     0
 78
     2
 53
45.0
 43
0.0
 44
0.0
 45
-1.767766952966368
 46
1.767766952966368
 79
     0
 53
135.0
 43
0.0
 44
0.0
 45
-1.767766952966368
 46
-1.767766952966368
 79
     0
 47
0.2981653184141841
 98
        2
 10
290.2744401680857
 20
531.2681219378307
 10
97.58480490571082
 20
531.2681219378307
  0
HATCH
  5
2AB2
330
1E
100
AcDbEntity
  8
SCHRAFF
100
AcDbHatch
 10
0.0
 20
0.0
 30
0.0
210
0.0
220
0.0
230
1.0
  2
HONEY
 70
     0
 71
     1
 91
        2
 92
        7
 72
     1
 73
     1
 93
       22
 10
275.2083253849382
 20
429.5278668483422
 42
-0.1538790779584982
 10
271.8641159145405
 20
418.9188134776206
 42
0.0
 10
267.0021747623915
 20
411.9731832602648
 42
-0.7693953335041659
 10
264.3395325426953
 20
404.7132928819649
 42
0.0
 10
262.276474600043
 20
382.4322671013204
 42
0.0230864339340169
 10
262.2083253849382
 20
380.9570957323489
 42
0.0
 10
262.2083253849382
 20
327.696255578189
 42
0.0
 10
274.8583253849382
 20
327.6962555781889
 42
0.0
 10
276.9583253849382
 20
325.5962555781888
 42
0.0
 10
276.9583253849382
 20
375.4069668325643
 42
-0.1583253806876419
 10
281.3287346560894
 20
388.8629791475618
 42
0.0
 10
291.374328254521
 20
402.6962555781887
 42
0.0
 10
299.0948319990567
 20
413.3277689313199
 42
0.1583253806876407
 10
302.3583253849383
 20
423.3757082582394
 42
0.0
 10
302.3583253849383
 20
518.6962555781888
 42
0.0
 10
286.2083253849382
 20
518.6962555781889
 42
0.0
 10
286.2083253849382
 20
504.7488611074129
 42
-0.1211084169874124
 10
282.2460755113661
 20
488.5153047410226
 42
0.1206909349745815
 10
280.2083253849382
 20
480.1962555781886
 42
0.0
 10
280.2083253849382
 20
465.1372270862558
 42
-0.1528962216020418
 10
276.9940396706525
 20
454.8716217431098
 42
0.152896221602038
 10
275.2083253849382
 20
449.1685076635844
 42
0.0
 97
       22
330
2700
330
2704
330
26CF
330
26FE
330
26FB
330
26FC
330
26D3
330
26EB
330
26D1
330
26E9
330
26D5
330
26D7
330
26E5
330
26C3
330
297D
330
2960
330
28FB
330
2900
330
2901
330
2A65
330
2A64
330
2A5F
 92
        7
 72
     1
 73
     1
 93
       22
 10
116.2083253849382
 20
429.5278668483422
 42
0.0
 10
116.2083253849382
 20
449.1685076635845
 42
0.1528962216020384
 10
114.4226110992239
 20
454.8716217431099
 42
-0.1528962216020406
 10
111.2083253849382
 20
465.1372270862558
 42
0.0
 10
111.2083253849382
 20
480.1962555781888
 42
0.1206909349745682
 10
109.1705752585107
 20
488.5153047410219
 42
-0.1211084169874191
 10
105.2083253849382
 20
504.7488611074129
 42
0.0
 10
105.2083253849382
 20
518.6962555781888
 42
0.0
 10
89.05832538493818
 20
518.6962555781885
 42
0.0
 10
89.0583253849382
 20
423.3757082582394
 42
0.158325380687641
 10
92.32181877081973
 20
413.3277689313199
 42
0.0
 10
100.0423225153556
 20
402.6962555781887
 42
0.0
 10
110.087916113787
 20
388.8629791475617
 42
-0.1583253806876398
 10
114.4583253849382
 20
375.4069668325644
 42
0.0
 10
114.4583253849382
 20
325.5962555781889
 42
0.0
 10
116.5583253849382
 20
327.6962555781889
 42
0.0
 10
129.2083253849382
 20
327.6962555781889
 42
0.0
 10
129.2083253849382
 20
380.9570957323487
 42
0.023086433934025
 10
129.1401761698334
 20
382.4322671013206
 42
0.0
 10
127.0771182271811
 20
404.713292881965
 42
-0.769395333504173
 10
124.4144760074849
 20
411.9731832602649
 42
0.0
 10
119.552534855336
 20
418.9188134776206
 42
-0.1538790779585
 97
       22
330
26B4
330
26AD
330
26A7
330
26AA
330
26A5
330
2688
330
26BD
330
26B9
330
2A66
330
2A6B
330
2A68
330
28FF
330
28FE
330
28FA
330
296A
330
296D
330
267D
330
26A4
330
2691
330
268F
330
26B1
330
26AF
 75
     0
 76
     1
 52
0.0
 41
40.0
 77
     0
 78
     3
 53
0.0
 43
0.0
 44
0.0
 45
7.5
 46
4.330127
 79
     2
 49
5.0
 49
-10.0
 53
120.0
 43
0.0
 44
0.0
 45
-7.499999983612898
 46
4.330127028383291
 79
     2
 49
5.0
 49
-10.0
 53
60.0
 43
0.0
 44
0.0
 45
0.0000000163871017
 46
8.66025402838329
 79
     2
 49
-10.0
 49
5.0
 47
0.4768926554242018
 98
        2
 10
282.7592462800408
 20
429.3051046294424
 10
103.3779371693499
 20
428.8282123200611
  0
HATCH
  5
2ACB
330
1E
100
AcDbEntity
  8
SCHRAFF
100
AcDbHatch
 10
0.0
 20
0.0
 30
0.0
210
0.0
220
0.0
230
1.0
  2
_USER
 70
     0
 71
     1
 91
        2
 92
        7
 72
     1
 73
     1
 93
        8
 10
305.2583253849383
 20
536.6962555781888
 42
0.0
 10
302.3583253849382
 20
536.6962555781888
 42
0.0
 10
302.3583253849383
 20
423.3757082582394
 42
-0.1583253806876407
 10
299.0948319990567
 20
413.3277689313199
 42
0.0
 10
291.374328254521
 20
402.6962555781887
 42
0.0
 10
294.9583253849382
 20
402.6962555781887
 42
0.0
 10
301.4413740564219
 20
411.6237324372809
 42
0.1583253806876408
 10
305.2583253849383
 20
423.3757082582394
 42
0.0
 97
        8
330
2675
330
2A5F
330
2A64
330
2A65
330
26F3
330
26F0
330
2A62
330
2A0D
 92
        7
 72
     1
 73
     1
 93
        8
 10
89.0583253849382
 20
536.6962555781888
 42
0.0
 10
86.15832538493821
 20
536.6962555781888
 42
0.0
 10
86.15832538493823
 20
423.3757082582394
 42
0.1583253806876408
 10
89.9752767134546
 20
411.6237324372809
 42
0.0
 10
96.45832538493825
 20
402.6962555781887
 42
0.0
 10
100.0423225153555
 20
402.6962555781887
 42
0.0
 10
92.32181877081973
 20
413.3277689313199
 42
-0.158325380687641
 10
89.0583253849382
 20
423.3757082582394
 42
0.0
 97
        8
330
2675
330
2A67
330
2A69
330
2A6A
330
2696
330
2A68
330
2A6B
330
2A66
 75
     0
 76
     0
 52
45.0
 41
2.0
 77
     0
 78
     1
 53
45.0
 43
0.0
 44
0.0
 45
-1.414213562373094
 46
1.414213562373095
 79
     0
 47
0.4768926554242018
 98
        2
 10
304.7048300041747
 20
466.0258387468939
 10
87.63436463069457
 20
499.4083251519062
  0
ENDSEC
  0
SECTION
  2
OBJECTS
  0
DICTIONARY
  5
C
330
0
100
AcDbDictionary
281
     1
  3
ACAD_COLOR
350
39F
  3
ACAD_GROUP
350
D
  3
ACAD_LAYOUT
350
19
  3
ACAD_MATERIAL
350
39E
  3
ACAD_MLINESTYLE
350
16
  3
ACAD_PLOTSETTINGS
350
18
  3
ACAD_PLOTSTYLENAME
350
E
  3
AcDbVariableDictionary
350
31A
  0
DICTIONARY
  5
39F
102
{ACAD_REACTORS
330
C
102
}
330
C
100
AcDbDictionary
281
     1
  0
DICTIONARY
  5
D
102
{ACAD_REACTORS
330
C
102
}
330
C
100
AcDbDictionary
281
     1
  0
DICTIONARY
  5
19
102
{ACAD_REACTORS
330
C
102
}
330
C
100
AcDbDictionary
281
     1
  3
Layout1
350
1D
  3
Model
350
21
  0
DICTIONARY
  5
39E
102
{ACAD_REACTORS
330
C
102
}
330
C
100
AcDbDictionary
281
     1
  0
DICTIONARY
  5
16
102
{ACAD_REACTORS
330
C
102
}
330
C
100
AcDbDictionary
281
     1
  3
Standard
350
17
  0
DICTIONARY
  5
18
102
{ACAD_REACTORS
330
C
102
}
330
C
100
AcDbDictionary
281
     1
  0
ACDBDICTIONARYWDFLT
  5
E
102
{ACAD_REACTORS
330
C
102
}
330
C
100
AcDbDictionary
281
     1
  3
Normal
350
F
100
AcDbDictionaryWithDefault
340
F
  0
DICTIONARY
  5
31A
102
{ACAD_REACTORS
330
C
102
}
330
C
100
AcDbDictionary
281
     1
  3
DIMASSOC
350
696
  3
PROJECTNAME
350
697
  3
SORTENTS
350
31B
  0
LAYOUT
  5
1D
102
{ACAD_REACTORS
330
19
102
}
330
19
100
AcDbPlotSettings
  1

  2
Tektronix Phaser 740
  4

  6

 40
0.0
 41
0.0
 42
0.0
 43
0.0
 44
0.0
 45
0.0
 46
0.0
 47
0.0
 48
0.0
 49
0.0
140
0.0
141
0.0
142
1.0
143
1.0
 70
   688
 72
     0
 73
     0
 74
     5
  7
monochrome.ctb
 75
    16
147
1.0
 76
     0
 77
     2
 78
   300
148
0.0
149
0.0
100
AcDbLayout
  1
Layout1
 70
     0
 71
     1
 10
0.0
 20
0.0
 11
12.0
 21
9.0
 12
0.0
 22
0.0
 32
0.0
 14
1.000000000000000E+20
 24
1.000000000000000E+20
 34
1.000000000000000E+20
 15
-1.000000000000000E+20
 25
-1.000000000000000E+20
 35
-1.000000000000000E+20
146
0.0
 13
0.0
 23
0.0
 33
0.0
 16
1.0
 26
0.0
 36
0.0
 17
0.0
 27
1.0
 37
0.0
 76
     0
330
1A
  0
LAYOUT
  5
21
102
{ACAD_REACTORS
330
19
102
}
330
19
100
AcDbPlotSettings
  1

  2
none_device
  4
Letter_(8.50_x_11.00_Inches)
  6

 40
6.349999904632568
 41
6.349999904632568
 42
6.350006103515625
 43
6.350006103515625
 44
215.8999938964844
 45
279.3999938964844
 46
0.0
 47
0.0
 48
0.0
 49
0.0
140
0.0
141
0.0
142
1.0
143
1.0
 70
 11952
 72
     0
 73
     1
 74
     0
  7
monochrome.ctb
 75
     0
147
1.0
 76
     0
 77
     2
 78
   300
148
-427.6236799849804
149
44.87778572714498
100
AcDbLayout
  1
Model
 70
     1
 71
     0
 10
0.0
 20
0.0
 11
12.0
 21
9.0
 12
0.0
 22
0.0
 32
0.0
 14
0.0
 24
0.0
 34
0.0
 15
0.0
 25
0.0
 35
0.0
146
0.0
 13
0.0
 23
0.0
 33
0.0
 16
1.0
 26
0.0
 36
0.0
 17
0.0
 27
1.0
 37
0.0
 76
     0
330
1E
  0
MLINESTYLE
  5
17
102
{ACAD_REACTORS
330
16
102
}
330
16
100
AcDbMlineStyle
  2
STANDARD
 70
     0
  3

 62
   256
 51
90.0
 52
90.0
 71
     2
 49
0.5
 62
   256
  6
BYLAYER
 49
-0.5
 62
   256
  6
BYLAYER
  0
ACDBPLACEHOLDER
  5
F
102
{ACAD_REACTORS
330
E
102
}
330
E
  0
DICTIONARYVAR
  5
696
102
{ACAD_REACTORS
330
31A
102
}
330
31A
100
DictionaryVariables
280
     0
  1
1
  0
DICTIONARYVAR
  5
697
102
{ACAD_REACTORS
330
31A
102
}
330
31A
100
DictionaryVariables
280
     0
  1

  0
DICTIONARYVAR
  5
31B
102
{ACAD_REACTORS
330
31A
102
}
330
31A
100
DictionaryVariables
280
     0
  1
96
  0
ENDSEC
  0
EOF
