  0
SECTION
  2
HEADER
  9
$ACADVER
  1
AC1018
  9
$ACADMAINTVER
 70
     2
  9
$DWGCODEPAGE
  3
ANSI_1252
  9
$INSBASE
 10
0.0
 20
0.0
 30
0.0
  9
$EXTMIN
 10
-0.0197349735720991
 20
-0.0453012447965193
 30
-0.0000000000000129
  9
$EXTMAX
 10
420.0036597528344
 20
594.0362620742282
 30
0.0000000000000023
  9
$LIMMIN
 10
0.0
 20
0.0
  9
$LIMMAX
 10
419.9999999999999
 20
594.0000000000002
  9
$ORTHOMODE
 70
     0
  9
$REGENMODE
 70
     1
  9
$FILLMODE
 70
     1
  9
$QTEXTMODE
 70
     0
  9
$MIRRTEXT
 70
     1
  9
$LTSCALE
 40
20.0
  9
$ATTMODE
 70
     1
  9
$TEXTSIZE
 40
3.5
  9
$TRACEWID
 40
0.5
  9
$TEXTSTYLE
  7
STANDARD
  9
$CLAYER
  8
BEM
  9
$CELTYPE
  6
ByLayer
  9
$CECOLOR
 62
   256
  9
$CELTSCALE
 40
1.0
  9
$DISPSILH
 70
     0
  9
$DIMSCALE
 40
2.0
  9
$DIMASZ
 40
3.5
  9
$DIMEXO
 40
1.0
  9
$DIMDLI
 40
7.0
  9
$DIMRND
 40
0.0
  9
$DIMDLE
 40
0.0
  9
$DIMEXE
 40
1.0
  9
$DIMTP
 40
0.15
  9
$DIMTM
 40
0.15
  9
$DIMTXT
 40
3.5
  9
$DIMCEN
 40
1.5
  9
$DIMTSZ
 40
0.0
  9
$DIMTOL
 70
     0
  9
$DIMLIM
 70
     0
  9
$DIMTIH
 70
     0
  9
$DIMTOH
 70
     0
  9
$DIMSE1
 70
     0
  9
$DIMSE2
 70
     0
  9
$DIMTAD
 70
     1
  9
$DIMZIN
 70
     8
  9
$DIMBLK
  1

  9
$DIMASO
 70
     1
  9
$DIMSHO
 70
     0
  9
$DIMPOST
  1

  9
$DIMAPOST
  1

  9
$DIMALT
 70
     0
  9
$DIMALTD
 70
     2
  9
$DIMALTF
 40
25.4
  9
$DIMLFAC
 40
1.0
  9
$DIMTOFL
 70
     1
  9
$DIMTVP
 40
0.0
  9
$DIMTIX
 70
     0
  9
$DIMSOXD
 70
     0
  9
$DIMSAH
 70
     0
  9
$DIMBLK1
  1

  9
$DIMBLK2
  1

  9
$DIMSTYLE
  2
Standard
  9
$DIMCLRD
 70
     0
  9
$DIMCLRE
 70
     0
  9
$DIMCLRT
 70
     1
  9
$DIMTFAC
 40
0.5142857142857144
  9
$DIMGAP
 40
1.5
  9
$DIMJUST
 70
     0
  9
$DIMSD1
 70
     0
  9
$DIMSD2
 70
     0
  9
$DIMTOLJ
 70
     1
  9
$DIMTZIN
 70
     8
  9
$DIMALTZ
 70
     8
  9
$DIMALTTZ
 70
     8
  9
$DIMUPT
 70
     0
  9
$DIMDEC
 70
     2
  9
$DIMTDEC
 70
     2
  9
$DIMALTU
 70
     2
  9
$DIMALTTD
 70
     2
  9
$DIMTXSTY
  7
STANDARD
  9
$DIMAUNIT
 70
     0
  9
$DIMADEC
 70
     2
  9
$DIMALTRND
 40
0.0
  9
$DIMAZIN
 70
     2
  9
$DIMDSEP
 70
    46
  9
$DIMATFIT
 70
     3
  9
$DIMFRAC
 70
     0
  9
$DIMLDRBLK
  1

  9
$DIMLUNIT
 70
     2
  9
$DIMLWD
 70
    -2
  9
$DIMLWE
 70
    -2
  9
$DIMTMOVE
 70
     0
  9
$LUNITS
 70
     2
  9
$LUPREC
 70
     2
  9
$SKETCHINC
 40
1.0
  9
$FILLETRAD
 40
0.0
  9
$AUNITS
 70
     0
  9
$AUPREC
 70
     0
  9
$MENU
  1
ACAD
  9
$ELEVATION
 40
0.0
  9
$PELEVATION
 40
0.0
  9
$THICKNESS
 40
0.0
  9
$LIMCHECK
 70
     0
  9
$CHAMFERA
 40
0.0
  9
$CHAMFERB
 40
0.0
  9
$CHAMFERC
 40
0.0
  9
$CHAMFERD
 40
0.0
  9
$SKPOLY
 70
     0
  9
$TDCREATE
 40
2455573.065619792
  9
$TDUCREATE
 40
2455573.023953125
  9
$TDUPDATE
 40
2455532.602265000
  9
$TDUUPDATE
 40
2455532.560598334
  9
$TDINDWG
 40
0.2309839583
  9
$TDUSRTIMER
 40
0.2309839583
  9
$USRTIMER
 70
     1
  9
$ANGBASE
 50
0.0
  9
$ANGDIR
 70
     0
  9
$PDMODE
 70
     0
  9
$PDSIZE
 40
0.0
  9
$PLINEWID
 40
0.0
  9
$SPLFRAME
 70
     0
  9
$SPLINETYPE
 70
     6
  9
$SPLINESEGS
 70
     8
  9
$HANDSEED
  5
246E
  9
$SURFTAB1
 70
     6
  9
$SURFTAB2
 70
     6
  9
$SURFTYPE
 70
     6
  9
$SURFU
 70
     6
  9
$SURFV
 70
     6
  9
$UCSBASE
  2

  9
$UCSNAME
  2

  9
$UCSORG
 10
0.0
 20
0.0
 30
0.0
  9
$UCSXDIR
 10
1.0
 20
0.0
 30
0.0
  9
$UCSYDIR
 10
0.0
 20
1.0
 30
0.0
  9
$UCSORTHOREF
  2

  9
$UCSORTHOVIEW
 70
     0
  9
$UCSORGTOP
 10
0.0
 20
0.0
 30
0.0
  9
$UCSORGBOTTOM
 10
0.0
 20
0.0
 30
0.0
  9
$UCSORGLEFT
 10
0.0
 20
0.0
 30
0.0
  9
$UCSORGRIGHT
 10
0.0
 20
0.0
 30
0.0
  9
$UCSORGFRONT
 10
0.0
 20
0.0
 30
0.0
  9
$UCSORGBACK
 10
0.0
 20
0.0
 30
0.0
  9
$PUCSBASE
  2

  9
$PUCSNAME
  2

  9
$PUCSORG
 10
0.0
 20
0.0
 30
0.0
  9
$PUCSXDIR
 10
1.0
 20
0.0
 30
0.0
  9
$PUCSYDIR
 10
0.0
 20
1.0
 30
0.0
  9
$PUCSORTHOREF
  2

  9
$PUCSORTHOVIEW
 70
     0
  9
$PUCSORGTOP
 10
0.0
 20
0.0
 30
0.0
  9
$PUCSORGBOTTOM
 10
0.0
 20
0.0
 30
0.0
  9
$PUCSORGLEFT
 10
0.0
 20
0.0
 30
0.0
  9
$PUCSORGRIGHT
 10
0.0
 20
0.0
 30
0.0
  9
$PUCSORGFRONT
 10
0.0
 20
0.0
 30
0.0
  9
$PUCSORGBACK
 10
0.0
 20
0.0
 30
0.0
  9
$USERI1
 70
     0
  9
$USERI2
 70
     0
  9
$USERI3
 70
     0
  9
$USERI4
 70
     0
  9
$USERI5
 70
     0
  9
$USERR1
 40
0.0
  9
$USERR2
 40
0.0
  9
$USERR3
 40
0.0
  9
$USERR4
 40
0.0
  9
$USERR5
 40
0.0
  9
$WORLDVIEW
 70
     1
  9
$SHADEDGE
 70
     3
  9
$SHADEDIF
 70
    70
  9
$TILEMODE
 70
     1
  9
$MAXACTVP
 70
    16
  9
$PINSBASE
 10
0.0
 20
0.0
 30
0.0
  9
$PLIMCHECK
 70
     0
  9
$PEXTMIN
 10
1.000000000000000E+20
 20
1.000000000000000E+20
 30
1.000000000000000E+20
  9
$PEXTMAX
 10
-1.000000000000000E+20
 20
-1.000000000000000E+20
 30
-1.000000000000000E+20
  9
$PLIMMIN
 10
0.0
 20
0.0
  9
$PLIMMAX
 10
12.0
 20
9.0
  9
$UNITMODE
 70
     0
  9
$VISRETAIN
 70
     0
  9
$PLINEGEN
 70
     0
  9
$PSLTSCALE
 70
     0
  9
$TREEDEPTH
 70
  3020
  9
$CMLSTYLE
  2
Standard
  9
$CMLJUST
 70
     0
  9
$CMLSCALE
 40
1.0
  9
$PROXYGRAPHICS
 70
     1
  9
$MEASUREMENT
 70
     0
  9
$CELWEIGHT
370
    -1
  9
$ENDCAPS
280
     0
  9
$JOINSTYLE
280
     0
  9
$LWDISPLAY
290
     0
  9
$INSUNITS
 70
     0
  9
$HYPERLINKBASE
  1

  9
$STYLESHEET
  1
monochrome 1.ctb
  9
$XEDIT
290
     1
  9
$CEPSNTYPE
380
     0
  9
$PSTYLEMODE
290
     1
  9
$FINGERPRINTGUID
  2
{CF47490D-A8B5-11D8-B772-000102183313}
  9
$VERSIONGUID
  2
{F2BD77D5-99A5-4E1F-AD00-A5A96ABDB7E4}
  9
$EXTNAMES
290
     1
  9
$PSVPSCALE
 40
0.0
  9
$OLESTARTUP
290
     0
  9
$SORTENTS
280
    96
  9
$INDEXCTL
280
     0
  9
$HIDETEXT
280
     0
  9
$XCLIPFRAME
290
     0
  9
$HALOGAP
280
     0
  9
$OBSCOLOR
 70
   257
  9
$OBSLTYPE
280
     0
  9
$INTERSECTIONDISPLAY
280
     0
  9
$INTERSECTIONCOLOR
 70
   257
  9
$DIMASSOC
280
     1
  9
$PROJECTNAME
  1

  0
ENDSEC
  0
SECTION
  2
CLASSES
  0
CLASS
  1
ACDBDICTIONARYWDFLT
  2
AcDbDictionaryWithDefault
  3
ObjectDBX Classes
 90
        0
 91
        1
280
     0
281
     0
  0
CLASS
  1
DICTIONARYVAR
  2
AcDbDictionaryVar
  3
ObjectDBX Classes
 90
        0
 91
        3
280
     0
281
     0
  0
ENDSEC
  0
SECTION
  2
TABLES
  0
TABLE
  2
VPORT
  5
8
330
0
100
AcDbSymbolTable
 70
     2
  0
VPORT
  5
246D
330
8
100
AcDbSymbolTableRecord
100
AcDbViewportTableRecord
  2
*Active
 70
     0
 10
0.0
 20
0.0
 11
1.0
 21
1.0
 12
209.9919623896312
 22
296.9954804147159
 13
0.0
 23
0.0
 14
1.0
 24
1.0
 15
10.0
 25
10.0
 16
0.0
 26
0.0
 36
1.0
 17
0.0
 27
0.0
 37
0.0
 40
598.8789918249658
 41
1.336927223719676
 42
50.0
 43
0.0
 44
0.0
 50
0.0
 51
0.0
 71
     0
 72
  1500
 73
     1
 74
     0
 75
     0
 76
     0
 77
     0
 78
     0
281
     0
 65
     1
110
0.0
120
0.0
130
0.0
111
1.0
121
0.0
131
0.0
112
0.0
122
1.0
132
0.0
 79
     0
146
0.0
  0
ENDTAB
  0
TABLE
  2
LTYPE
  5
5
330
0
100
AcDbSymbolTable
 70
     2
  0
LTYPE
  5
13
330
5
100
AcDbSymbolTableRecord
100
AcDbLinetypeTableRecord
  2
ByBlock
 70
     0
  3

 72
    65
 73
     0
 40
0.0
  0
LTYPE
  5
14
330
5
100
AcDbSymbolTableRecord
100
AcDbLinetypeTableRecord
  2
ByLayer
 70
     0
  3

 72
    65
 73
     0
 40
0.0
  0
LTYPE
  5
15
330
5
100
AcDbSymbolTableRecord
100
AcDbLinetypeTableRecord
  2
Continuous
 70
     0
  3
Solid line
 72
    65
 73
     0
 40
0.0
  0
LTYPE
  5
32
330
5
100
AcDbSymbolTableRecord
100
AcDbLinetypeTableRecord
  2
STRICHPUNKT
 70
     0
  3
__ . __ . __ . __ . __ . __ . __ . __ . __ . __
 72
    65
 73
     4
 40
1.0
 49
0.5
 74
     0
 49
-0.25
 74
     0
 49
0.0
 74
     0
 49
-0.25
 74
     0
  0
ENDTAB
  0
TABLE
  2
LAYER
  5
2
330
0
100
AcDbSymbolTable
 70
     9
  0
LAYER
  5
10
330
2
100
AcDbSymbolTableRecord
100
AcDbLayerTableRecord
  2
0
 70
     0
 62
     7
  6
Continuous
370
    -3
390
F
  0
LAYER
  5
35
330
2
100
AcDbSymbolTableRecord
100
AcDbLayerTableRecord
  2
VOLL
 70
     0
 62
     1
  6
Continuous
370
    -3
390
F
  0
LAYER
  5
36
330
2
100
AcDbSymbolTableRecord
100
AcDbLayerTableRecord
  2
HILF
 70
     0
 62
     2
  6
Continuous
370
    -3
390
F
  0
LAYER
  5
37
330
2
100
AcDbSymbolTableRecord
100
AcDbLayerTableRecord
  2
MITTEL
 70
     0
 62
     2
  6
STRICHPUNKT
370
    -3
390
F
  0
LAYER
  5
38
330
2
100
AcDbSymbolTableRecord
100
AcDbLayerTableRecord
  2
BEM
 70
     0
 62
     7
  6
Continuous
370
    -3
390
F
  0
LAYER
  5
39
330
2
100
AcDbSymbolTableRecord
100
AcDbLayerTableRecord
  2
DEFPOINTS
 70
     0
 62
     7
  6
Continuous
290
     0
370
    -3
390
F
  0
LAYER
  5
3A
330
2
100
AcDbSymbolTableRecord
100
AcDbLayerTableRecord
  2
STEMPEL
 70
     0
 62
     3
  6
Continuous
370
    -3
390
F
  0
LAYER
  5
3B
330
2
100
AcDbSymbolTableRecord
100
AcDbLayerTableRecord
  2
TEXT
 70
     0
 62
     7
  6
Continuous
370
    -3
390
F
  0
LAYER
  5
3C
330
2
100
AcDbSymbolTableRecord
100
AcDbLayerTableRecord
  2
SCHRAFF
 70
     0
 62
     7
  6
Continuous
370
    -3
390
F
  0
ENDTAB
  0
TABLE
  2
STYLE
  5
3
330
0
100
AcDbSymbolTable
 70
     2
  0
STYLE
  5
11
330
3
100
AcDbSymbolTableRecord
100
AcDbTextStyleTableRecord
  2
STANDARD
 70
     0
 40
0.0
 41
0.8
 50
0.0
 71
     0
 42
3.5
  3
simplex.shx
  4

  0
STYLE
  5
31
330
3
100
AcDbSymbolTableRecord
100
AcDbTextStyleTableRecord
  2
GREEKS
 70
     0
 40
0.0
 41
0.8
 50
0.0
 71
     0
 42
2.5
  3
SIMPLEX.shx
  4

  0
ENDTAB
  0
TABLE
  2
VIEW
  5
6
330
0
100
AcDbSymbolTable
 70
     0
  0
ENDTAB
  0
TABLE
  2
UCS
  5
7
330
0
100
AcDbSymbolTable
 70
     0
  0
ENDTAB
  0
TABLE
  2
APPID
  5
9
330
0
100
AcDbSymbolTable
 70
     1
  0
APPID
  5
12
330
9
100
AcDbSymbolTableRecord
100
AcDbRegAppTableRecord
  2
ACAD
 70
     0
  0
ENDTAB
  0
TABLE
  2
DIMSTYLE
  5
A
330
0
100
AcDbSymbolTable
 70
     1
100
AcDbDimStyleTable
 71
     1
340
26B
  0
DIMSTYLE
105
26B
102
{ACAD_REACTORS
330
21B2
330
21B3
330
21B4
330
21C6
330
2444
102
}
330
A
100
AcDbSymbolTableRecord
100
AcDbDimStyleTableRecord
  2
Standard
 70
     0
340
11
  0
ENDTAB
  0
TABLE
  2
BLOCK_RECORD
  5
1
330
0
100
AcDbSymbolTable
 70
     7
  0
BLOCK_RECORD
  5
1E
330
1
100
AcDbSymbolTableRecord
100
AcDbBlockTableRecord
  2
*Model_Space
340
21
  0
BLOCK_RECORD
  5
1A
330
1
100
AcDbSymbolTableRecord
100
AcDbBlockTableRecord
  2
*Paper_Space
340
1D
  0
BLOCK_RECORD
  5
22
330
1
100
AcDbSymbolTableRecord
100
AcDbBlockTableRecord
  2
LOGO
340
0
102
{BLKREFS
331
1E2
102
}
  0
BLOCK_RECORD
  5
2039
330
1
100
AcDbSymbolTableRecord
100
AcDbBlockTableRecord
  2
*X1
340
0
102
{BLKREFS
331
21BA
102
}
  0
BLOCK_RECORD
  5
224B
330
1
100
AcDbSymbolTableRecord
100
AcDbBlockTableRecord
  2
*D2
340
0
  0
BLOCK_RECORD
  5
2257
330
1
100
AcDbSymbolTableRecord
100
AcDbBlockTableRecord
  2
*D3
340
0
  0
BLOCK_RECORD
  5
2263
330
1
100
AcDbSymbolTableRecord
100
AcDbBlockTableRecord
  2
*D4
340
0
  0
BLOCK_RECORD
  5
226F
330
1
100
AcDbSymbolTableRecord
100
AcDbBlockTableRecord
  2
*D5
340
0
  0
BLOCK_RECORD
  5
2445
330
1
100
AcDbSymbolTableRecord
100
AcDbBlockTableRecord
  2
*D6
340
0
  0
ENDTAB
  0
ENDSEC
  0
SECTION
  2
BLOCKS
  0
BLOCK
  5
40
330
1E
100
AcDbEntity
  8
0
100
AcDbBlockBegin
  2
*Model_Space
 70
     0
 10
0.0
 20
0.0
 30
0.0
  3
*Model_Space
  1

  0
ENDBLK
  5
41
330
1E
100
AcDbEntity
  8
0
100
AcDbBlockEnd
  0
BLOCK
  5
3E
330
1A
100
AcDbEntity
 67
     1
  8
0
100
AcDbBlockBegin
  2
*Paper_Space
 70
     0
 10
0.0
 20
0.0
 30
0.0
  3
*Paper_Space
  1

  0
ENDBLK
  5
3F
330
1A
100
AcDbEntity
 67
     1
  8
0
100
AcDbBlockEnd
  0
BLOCK
  5
42
330
22
100
AcDbEntity
  8
0
100
AcDbBlockBegin
  2
LOGO
 70
     0
 10
0.0
 20
0.0
 30
0.0
  3
LOGO
  1

  0
ARC
  5
43
330
22
100
AcDbEntity
  8
0
100
AcDbCircle
 10
11.59973089678112
 20
-9.271599258481501
 30
0.0
 40
4.5
100
AcDbArc
 50
270.0
 51
231.0575587310159
  0
LINE
  5
44
330
22
100
AcDbEntity
  8
0
100
AcDbLine
 10
3.599730896781125
 20
-4.771599258481529
 30
0.0
 11
3.599730896781153
 21
-11.77159925848133
 31
0.0
  0
LINE
  5
45
330
22
100
AcDbEntity
  8
0
100
AcDbLine
 10
2.599730896781125
 20
-4.771599258481529
 30
0.0
 11
2.599730896781153
 21
-11.77159925848133
 31
0.0
  0
CIRCLE
  5
46
330
22
100
AcDbEntity
  8
0
100
AcDbCircle
 10
11.59973089678112
 20
-9.271599258481501
 30
0.0
 40
3.5
  0
ARC
  5
47
330
22
100
AcDbEntity
  8
0
100
AcDbCircle
 10
31.59973089678115
 20
-9.271599258481472
 30
0.0
 40
4.5
100
AcDbArc
 50
270.0
 51
231.0575587310182
  0
LINE
  5
48
330
22
100
AcDbEntity
  8
0
100
AcDbLine
 10
17.59973089678112
 20
-4.771599258481472
 30
0.0
 11
17.59973089678115
 21
-13.77159925848147
 31
0.0
  0
ARC
  5
49
330
22
100
AcDbEntity
  8
0
100
AcDbCircle
 10
22.59973089678116
 20
-7.271599258481472
 30
0.0
 40
2.5
100
AcDbArc
 50
293.1161887722295
 51
90.0
  0
CIRCLE
  5
4A
330
22
100
AcDbEntity
  8
0
100
AcDbCircle
 10
31.59973089678115
 20
-9.271599258481472
 30
0.0
 40
3.5
  0
ARC
  5
4B
330
22
100
AcDbEntity
  8
0
100
AcDbCircle
 10
4.599730896781153
 20
-11.77159925848133
 30
0.0
 40
1.0
100
AcDbArc
 50
180.0
 51
270.0
  0
ARC
  5
4C
330
22
100
AcDbEntity
  8
0
100
AcDbCircle
 10
4.599730896781153
 20
-11.77159925848133
 30
0.0
 40
2.0
100
AcDbArc
 50
179.9999999999992
 51
270.0
  0
LINE
  5
4D
330
22
100
AcDbEntity
  8
0
100
AcDbLine
 10
11.59973089678115
 20
-13.77159925848144
 30
0.0
 11
4.599730896781153
 21
-13.77159925848147
 31
0.0
  0
LINE
  5
4E
330
22
100
AcDbEntity
  8
0
100
AcDbLine
 10
8.771303772034769
 20
-12.77159925848136
 30
0.0
 11
4.599730896781153
 21
-12.77159925848133
 31
0.0
  0
LINE
  5
4F
330
22
100
AcDbEntity
  8
0
100
AcDbLine
 10
31.59973089678115
 20
-13.77159925848147
 30
0.0
 11
23.6715276665056
 21
-13.77159925848144
 31
0.0
  0
LINE
  5
50
330
22
100
AcDbEntity
  8
0
100
AcDbLine
 10
23.56565672307022
 20
-9.51278021337896
 30
0.0
 11
24.4388546544846
 21
-12.77159925848144
 31
0.0
  0
LINE
  5
51
330
22
100
AcDbEntity
  8
0
100
AcDbLine
 10
22.59973089678116
 20
-9.771599258481472
 30
0.0
 11
18.59973089678112
 21
-9.771599258481472
 31
0.0
  0
LINE
  5
52
330
22
100
AcDbEntity
  8
0
100
AcDbLine
 10
18.59973089678115
 20
-13.77159925848144
 30
0.0
 11
17.59973089678115
 21
-13.77159925848144
 31
0.0
  0
LINE
  5
53
330
22
100
AcDbEntity
  8
0
100
AcDbLine
 10
18.59973089678115
 20
-9.771599258481472
 30
0.0
 11
18.59973089678115
 21
-13.77159925848144
 31
0.0
  0
LINE
  5
54
330
22
100
AcDbEntity
  8
0
100
AcDbLine
 10
22.59973089678116
 20
-9.771599258481472
 30
0.0
 11
23.67152766650562
 21
-13.77159925848147
 31
0.0
  0
ARC
  5
55
330
22
100
AcDbEntity
  8
0
100
AcDbCircle
 10
22.59973089678116
 20
-7.271599258481472
 30
0.0
 40
2.5
100
AcDbArc
 50
270.0
 51
270.0000000000007
  0
LINE
  5
56
330
22
100
AcDbEntity
  8
0
100
AcDbLine
 10
28.77130377203494
 20
-12.77159925848147
 30
0.0
 11
24.43885465448463
 21
-12.77159925848144
 31
0.0
  0
LINE
  5
57
330
22
100
AcDbEntity
  8
0
100
AcDbLine
 10
3.599730896781125
 20
-4.771599258481472
 30
0.0
 11
2.599730896781125
 21
-4.771599258481472
 31
0.0
  0
LINE
  5
58
330
22
100
AcDbEntity
  8
0
100
AcDbLine
 10
22.59973089678116
 20
-8.771599258481472
 30
0.0
 11
18.59973089678115
 21
-8.771599258481472
 31
0.0
  0
LINE
  5
59
330
22
100
AcDbEntity
  8
0
100
AcDbLine
 10
22.59973089678116
 20
-5.771599258481472
 30
0.0
 11
18.59973089678115
 21
-5.771599258481472
 31
0.0
  0
LINE
  5
5A
330
22
100
AcDbEntity
  8
0
100
AcDbLine
 10
22.59973089678116
 20
-4.771599258481472
 30
0.0
 11
17.59973089678115
 21
-4.771599258481472
 31
0.0
  0
LINE
  5
5B
330
22
100
AcDbEntity
  8
0
100
AcDbLine
 10
18.59973089678115
 20
-5.771599258481472
 30
0.0
 11
18.59973089678115
 21
-8.771599258481472
 31
0.0
  0
ARC
  5
5C
330
22
100
AcDbEntity
  8
0
100
AcDbCircle
 10
22.59973089678116
 20
-7.271599258481472
 30
0.0
 40
1.5
100
AcDbArc
 50
270.0
 51
90.0
  0
ENDBLK
  5
5D
330
22
100
AcDbEntity
  8
0
100
AcDbBlockEnd
  0
BLOCK
  5
203A
330
2039
100
AcDbEntity
  8
0
100
AcDbBlockBegin
  2
*X1
 70
     1
 10
0.0
 20
0.0
 30
0.0
  3
*X1
  1

  0
LINE
  5
203B
330
2039
100
AcDbEntity
  8
0
 62
     0
100
AcDbLine
 10
177.1793793810233
 20
397.6984337236398
 30
0.0
 11
176.9551707748133
 21
397.9226423298497
 31
0.0
  0
LINE
  5
203C
330
2039
100
AcDbEntity
  8
0
 62
     0
100
AcDbLine
 10
177.3208007372606
 20
397.4155910111652
 30
0.0
 11
176.8638464418313
 21
397.8725453065946
 31
0.0
  0
LINE
  5
203D
330
2039
100
AcDbEntity
  8
0
 62
     0
100
AcDbLine
 10
177.4622220934979
 20
397.1327482986906
 30
0.0
 11
176.774498330415
 21
397.8204720617736
 31
0.0
  0
LINE
  5
203E
330
2039
100
AcDbEntity
  8
0
 62
     0
100
AcDbLine
 10
177.6036434497352
 20
396.8499055862159
 30
0.0
 11
176.687086417589
 21
397.7664626183622
 31
0.0
  0
LINE
  5
203F
330
2039
100
AcDbEntity
  8
0
 62
     0
100
AcDbLine
 10
177.7450648059725
 20
396.5670628737413
 30
0.0
 11
176.6015757520177
 21
397.7105519276962
 31
0.0
  0
LINE
  5
2040
330
2039
100
AcDbEntity
  8
0
 62
     0
100
AcDbLine
 10
177.8864861622099
 20
396.2842201612667
 30
0.0
 11
176.5179360613192
 21
397.6527702621573
 31
0.0
  0
LINE
  5
2041
330
2039
100
AcDbEntity
  8
0
 62
     0
100
AcDbLine
 10
178.0279075184471
 20
396.0013774487921
 30
0.0
 11
176.4361414241931
 21
397.5931435430462
 31
0.0
  0
LINE
  5
2042
330
2039
100
AcDbEntity
  8
0
 62
     0
100
AcDbLine
 10
178.1693288746845
 20
395.7185347363174
 30
0.0
 11
176.3561699986177
 21
397.5316936123842
 31
0.0
  0
LINE
  5
2043
330
2039
100
AcDbEntity
  8
0
 62
     0
100
AcDbLine
 10
178.3107502309218
 20
395.4356920238428
 30
0.0
 11
176.278003799175
 21
397.4684384555896
 31
0.0
  0
LINE
  5
2044
330
2039
100
AcDbEntity
  8
0
 62
     0
100
AcDbLine
 10
178.4521715871591
 20
395.1528493113682
 30
0.0
 11
176.2016285180227
 21
397.4033923805046
 31
0.0
  0
LINE
  5
2045
330
2039
100
AcDbEntity
  8
0
 62
     0
100
AcDbLine
 10
178.5935929433964
 20
394.8700065988935
 30
0.0
 11
176.1270333852502
 21
397.3365661570398
 31
0.0
  0
LINE
  5
2046
330
2039
100
AcDbEntity
  8
0
 62
     0
100
AcDbLine
 10
178.7350142996337
 20
394.587163886419
 30
0.0
 11
176.0542110653791
 21
397.2679671206736
 31
0.0
  0
LINE
  5
2047
330
2039
100
AcDbEntity
  8
0
 62
     0
100
AcDbLine
 10
178.8620059308783
 20
394.3187508989371
 30
0.0
 11
175.9831575876604
 21
397.197599242155
 31
0.0
  0
LINE
  5
2048
330
2039
100
AcDbEntity
  8
0
 62
     0
100
AcDbLine
 10
178.9562868350365
 20
394.0830486385415
 30
0.0
 11
175.9138723086107
 21
397.1254631649673
 31
0.0
  0
LINE
  5
2049
330
2039
100
AcDbEntity
  8
0
 62
     0
100
AcDbLine
 10
179.0505677391947
 20
393.8473463781461
 30
0.0
 11
175.8463579059587
 21
397.0515562113821
 31
0.0
  0
LINE
  5
204A
330
2039
100
AcDbEntity
  8
0
 62
     0
100
AcDbLine
 10
179.1448486433529
 20
393.6116441177505
 30
0.0
 11
175.7806204038678
 21
396.9758723572356
 31
0.0
  0
LINE
  5
204B
330
2039
100
AcDbEntity
  8
0
 62
     0
100
AcDbLine
 10
179.2391295475111
 20
393.3759418573551
 30
0.0
 11
175.7166692299942
 21
396.898402174872
 31
0.0
  0
LINE
  5
204C
330
2039
100
AcDbEntity
  8
0
 62
     0
100
AcDbLine
 10
179.3334104516693
 20
393.1402395969596
 30
0.0
 11
175.6545173056449
 21
396.8191327429839
 31
0.0
  0
LINE
  5
204D
330
2039
100
AcDbEntity
  8
0
 62
     0
100
AcDbLine
 10
179.4276913558276
 20
392.904537336564
 30
0.0
 11
175.5941811710732
 21
396.7380475213183
 31
0.0
  0
LINE
  5
204E
330
2039
100
AcDbEntity
  8
0
 62
     0
100
AcDbLine
 10
179.5219722599857
 20
392.6688350761685
 30
0.0
 11
175.5356811487866
 21
396.6551261873676
 31
0.0
  0
LINE
  5
204F
330
2039
100
AcDbEntity
  8
0
 62
     0
100
AcDbLine
 10
179.616253164144
 20
392.433132815773
 30
0.0
 11
175.4790415487172
 21
396.5703444311997
 31
0.0
  0
LINE
  5
2050
330
2039
100
AcDbEntity
  8
0
 62
     0
100
AcDbLine
 10
179.7105340683021
 20
392.1974305553775
 30
0.0
 11
175.4242909202347
 21
396.4836737034449
 31
0.0
  0
LINE
  5
2051
330
2039
100
AcDbEntity
  8
0
 62
     0
100
AcDbLine
 10
179.8048149724604
 20
391.9617282949819
 30
0.0
 11
175.3714623573453
 21
396.395080910097
 31
0.0
  0
LINE
  5
2052
330
2039
100
AcDbEntity
  8
0
 62
     0
100
AcDbLine
 10
179.8990958766186
 20
391.7260260345864
 30
0.0
 11
175.3205938650733
 21
396.3045280461316
 31
0.0
  0
LINE
  5
2053
330
2039
100
AcDbEntity
  8
0
 62
     0
100
AcDbLine
 10
179.9933767807768
 20
391.490323774191
 30
0.0
 11
175.2717287970779
 21
396.2119717578898
 31
0.0
  0
LINE
  5
2054
330
2039
100
AcDbEntity
  8
0
 62
     0
100
AcDbLine
 10
180.087657684935
 20
391.2546215137954
 30
0.0
 11
175.2249163771308
 21
396.1173628215996
 31
0.0
  0
LINE
  5
2055
330
2039
100
AcDbEntity
  8
0
 62
     0
100
AcDbLine
 10
180.1819385890932
 20
391.0189192533999
 30
0.0
 11
175.1802123203549
 21
396.0206455221382
 31
0.0
  0
LINE
  5
2056
330
2039
100
AcDbEntity
  8
0
 62
     0
100
AcDbLine
 10
180.2762194932514
 20
390.7832169930044
 30
0.0
 11
175.1376795743277
 21
395.9217569119281
 31
0.0
  0
LINE
  5
2057
330
2039
100
AcDbEntity
  8
0
 62
     0
100
AcDbLine
 10
180.2628728813864
 20
390.655142248632
 30
0.0
 11
175.0973892056237
 21
395.8206259243947
 31
0.0
  0
LINE
  5
2058
330
2039
100
AcDbEntity
  8
0
 62
     0
100
AcDbLine
 10
180.1594192662146
 20
390.6171745075666
 30
0.0
 11
175.0594214645582
 21
395.7171723092229
 31
0.0
  0
LINE
  5
2059
330
2039
100
AcDbEntity
  8
0
 62
     0
100
AcDbLine
 10
180.0535523040744
 20
390.5816201134694
 30
0.0
 11
175.0238670704611
 21
395.6113053470827
 31
0.0
  0
LINE
  5
205A
330
2039
100
AcDbEntity
  8
0
 62
     0
100
AcDbLine
 10
179.9451692456063
 20
390.5485818157003
 30
0.0
 11
174.990828772692
 21
395.5029222886146
 31
0.0
  0
LINE
  5
205B
330
2039
100
AcDbEntity
  8
0
 62
     0
100
AcDbLine
 10
179.8341534018686
 20
390.5181763032006
 30
0.0
 11
174.9604232601923
 21
395.3919064448769
 31
0.0
  0
LINE
  5
205C
330
2039
100
AcDbEntity
  8
0
 62
     0
100
AcDbLine
 10
179.7203717891217
 20
390.4905365597101
 30
0.0
 11
174.9327835167018
 21
395.2781248321301
 31
0.0
  0
LINE
  5
205D
330
2039
100
AcDbEntity
  8
0
 62
     0
100
AcDbLine
 10
179.6036721966195
 20
390.465814795975
 30
0.0
 11
174.9080617529668
 21
395.1614252396279
 31
0.0
  0
LINE
  5
205E
330
2039
100
AcDbEntity
  8
0
 62
     0
100
AcDbLine
 10
179.4838794972181
 20
390.4441861391392
 30
0.0
 11
174.8864330961309
 21
395.0416325402264
 31
0.0
  0
LINE
  5
205F
330
2039
100
AcDbEntity
  8
0
 62
     0
100
AcDbLine
 10
179.3607909494877
 20
390.4258533306323
 30
0.0
 11
174.868100287624
 21
394.918543992496
 31
0.0
  0
LINE
  5
2060
330
2039
100
AcDbEntity
  8
0
 62
     0
100
AcDbLine
 10
179.2341701343841
 20
390.4110527894985
 30
0.0
 11
174.8532997464902
 21
394.7919231773925
 31
0.0
  0
LINE
  5
2061
330
2039
100
AcDbEntity
  8
0
 62
     0
100
AcDbLine
 10
179.1037390090557
 20
390.4000625585896
 30
0.0
 11
174.8423095155813
 21
394.661492052064
 31
0.0
  0
LINE
  5
2062
330
2039
100
AcDbEntity
  8
0
 62
     0
100
AcDbLine
 10
178.9691673102883
 20
390.3932129011197
 30
0.0
 11
174.8354598581114
 21
394.5269203532967
 31
0.0
  0
LINE
  5
2063
330
2039
100
AcDbEntity
  8
0
 62
     0
100
AcDbLine
 10
178.8300581390368
 20
390.3909007161339
 30
0.0
 11
174.8331476731256
 21
394.3878111820451
 31
0.0
  0
LINE
  5
2064
330
2039
100
AcDbEntity
  8
0
 62
     0
100
AcDbLine
 10
178.6859278928815
 20
390.3936096060519
 30
0.0
 11
174.8358565630437
 21
394.2436809358898
 31
0.0
  0
LINE
  5
2065
330
2039
100
AcDbEntity
  8
0
 62
     0
100
AcDbLine
 10
178.5361775694203
 20
390.4019385732758
 30
0.0
 11
174.8441855302675
 21
394.0939306124286
 31
0.0
  0
LINE
  5
2066
330
2039
100
AcDbEntity
  8
0
 62
     0
100
AcDbLine
 10
178.3800504062462
 20
390.4166443802126
 30
0.0
 11
174.8588913372043
 21
393.9378034492546
 31
0.0
  0
LINE
  5
2067
330
2039
100
AcDbEntity
  8
0
 62
     0
100
AcDbLine
 10
178.216566924153
 20
390.4387065060685
 30
0.0
 11
174.8809534630601
 21
393.7743199671614
 31
0.0
  0
LINE
  5
2068
330
2039
100
AcDbEntity
  8
0
 62
     0
100
AcDbLine
 10
178.0444205709974
 20
390.4694315029867
 30
0.0
 11
174.9116784599784
 21
393.6021736140058
 31
0.0
  0
LINE
  5
2069
330
2039
100
AcDbEntity
  8
0
 62
     0
100
AcDbLine
 10
177.8618000010379
 20
390.510630716709
 30
0.0
 11
174.9528776737007
 21
393.4195530440462
 31
0.0
  0
LINE
  5
206A
330
2039
100
AcDbEntity
  8
0
 62
     0
100
AcDbLine
 10
177.6660627269154
 20
390.5649466345941
 30
0.0
 11
175.0071935915858
 21
393.2238157699238
 31
0.0
  0
LINE
  5
206B
330
2039
100
AcDbEntity
  8
0
 62
     0
100
AcDbLine
 10
177.4530717519765
 20
390.6365162532958
 30
0.0
 11
175.0787632102875
 21
393.0108247949848
 31
0.0
  0
LINE
  5
206C
330
2039
100
AcDbEntity
  8
0
 62
     0
100
AcDbLine
 10
177.2156352698185
 20
390.7325313792164
 30
0.0
 11
175.1747783362081
 21
392.7733883128268
 31
0.0
  0
LINE
  5
206D
330
2039
100
AcDbEntity
  8
0
 62
     0
100
AcDbLine
 10
176.9388751821821
 20
390.8678701106155
 30
0.0
 11
175.3101170676072
 21
392.4966282251904
 31
0.0
  0
LINE
  5
206E
330
2039
100
AcDbEntity
  8
0
 62
     0
100
AcDbLine
 10
176.5783350078573
 20
391.086988928703
 30
0.0
 11
175.5292358856947
 21
392.1360880508656
 31
0.0
  0
LINE
  5
206F
330
2039
100
AcDbEntity
  8
0
 62
     0
100
AcDbLine
 10
295.3648770325794
 20
390.670122074609
 30
0.0
 11
295.3505616530055
 21
390.684437454183
 31
0.0
  0
LINE
  5
2070
330
2039
100
AcDbEntity
  8
0
 62
     0
100
AcDbLine
 10
295.5861927856501
 20
390.5902276777755
 30
0.0
 11
295.3909677547875
 21
390.7854527086382
 31
0.0
  0
LINE
  5
2071
330
2039
100
AcDbEntity
  8
0
 62
     0
100
AcDbLine
 10
295.7879826410417
 20
390.5298591786213
 30
0.0
 11
295.4313738565696
 21
390.8864679630935
 31
0.0
  0
LINE
  5
2072
330
2039
100
AcDbEntity
  8
0
 62
     0
100
AcDbLine
 10
295.9752914380606
 20
390.4839717378397
 30
0.0
 11
295.4717799583517
 21
390.9874832175487
 31
0.0
  0
LINE
  5
2073
330
2039
100
AcDbEntity
  8
0
 62
     0
100
AcDbLine
 10
296.1512301978814
 20
390.4494543342563
 30
0.0
 11
295.5121860601338
 21
391.0884984720039
 31
0.0
  0
LINE
  5
2074
330
2039
100
AcDbEntity
  8
0
 62
     0
100
AcDbLine
 10
296.3178801047255
 20
390.4242257836494
 30
0.0
 11
295.5525921619159
 21
391.1895137264592
 31
0.0
  0
LINE
  5
2075
330
2039
100
AcDbEntity
  8
0
 62
     0
100
AcDbLine
 10
296.4767157098864
 20
390.4068115347259
 30
0.0
 11
295.592998263698
 21
391.2905289809143
 31
0.0
  0
LINE
  5
2076
330
2039
100
AcDbEntity
  8
0
 62
     0
100
AcDbLine
 10
296.6288273819113
 20
390.3961212189382
 30
0.0
 11
295.63340436548
 21
391.3915442353696
 31
0.0
  0
LINE
  5
2077
330
2039
100
AcDbEntity
  8
0
 62
     0
100
AcDbLine
 10
296.7750484888475
 20
390.3913214682394
 30
0.0
 11
295.6738104672622
 21
391.4925594898248
 31
0.0
  0
LINE
  5
2078
330
2039
100
AcDbEntity
  8
0
 62
     0
100
AcDbLine
 10
296.9160329268533
 20
390.3917583864709
 30
0.0
 11
295.7142165690442
 21
391.59357474428
 31
0.0
  0
LINE
  5
2079
330
2039
100
AcDbEntity
  8
0
 62
     0
100
AcDbLine
 10
297.0523048351568
 20
390.3969078344047
 30
0.0
 11
295.7546226708263
 21
391.6945899987352
 31
0.0
  0
LINE
  5
207A
330
2039
100
AcDbEntity
  8
0
 62
     0
100
AcDbLine
 10
297.1842918118803
 20
390.4063422139184
 30
0.0
 11
295.7950287726084
 21
391.7956052531904
 31
0.0
  0
LINE
  5
207B
330
2039
100
AcDbEntity
  8
0
 62
     0
100
AcDbLine
 10
297.3123478737736
 20
390.4197075082625
 30
0.0
 11
295.8354348743905
 21
391.8966205076456
 31
0.0
  0
LINE
  5
207C
330
2039
100
AcDbEntity
  8
0
 62
     0
100
AcDbLine
 10
297.4367697873193
 20
390.4367069509541
 30
0.0
 11
295.8758409761726
 21
391.9976357621009
 31
0.0
  0
LINE
  5
207D
330
2039
100
AcDbEntity
  8
0
 62
     0
100
AcDbLine
 10
297.5578089719899
 20
390.4570891225209
 30
0.0
 11
295.9162470779546
 21
392.0986510165561
 31
0.0
  0
LINE
  5
207E
330
2039
100
AcDbEntity
  8
0
 62
     0
100
AcDbLine
 10
297.6756803607874
 20
390.4806390899607
 30
0.0
 11
295.9566531797367
 21
392.1996662710114
 31
0.0
  0
LINE
  5
207F
330
2039
100
AcDbEntity
  8
0
 62
     0
100
AcDbLine
 10
297.7905691178208
 20
390.5071716891645
 30
0.0
 11
295.9970592815188
 21
392.3006815254666
 31
0.0
  0
LINE
  5
2080
330
2039
100
AcDbEntity
  8
0
 62
     0
100
AcDbLine
 10
297.9026358136648
 20
390.5365263495578
 30
0.0
 11
296.0374653833009
 21
392.4016967799218
 31
0.0
  0
LINE
  5
2081
330
2039
100
AcDbEntity
  8
0
 62
     0
100
AcDbLine
 10
298.0120204693975
 20
390.5685630500625
 30
0.0
 11
296.077871485083
 21
392.502712034377
 31
0.0
  0
LINE
  5
2082
330
2039
100
AcDbEntity
  8
0
 62
     0
100
AcDbLine
 10
298.1188457564298
 20
390.6031591192675
 30
0.0
 11
296.1182775868651
 21
392.6037272888322
 31
0.0
  0
LINE
  5
2083
330
2039
100
AcDbEntity
  8
0
 62
     0
100
AcDbLine
 10
298.2232195565919
 20
390.6402066753427
 30
0.0
 11
296.1586836886472
 21
392.7047425432875
 31
0.0
  0
LINE
  5
2084
330
2039
100
AcDbEntity
  8
0
 62
     0
100
AcDbLine
 10
298.3252370305891
 20
390.6796105575827
 30
0.0
 11
296.1990897904293
 21
392.8057577977426
 31
0.0
  0
LINE
  5
2085
330
2039
100
AcDbEntity
  8
0
 62
     0
100
AcDbLine
 10
298.4249823037713
 20
390.721286640638
 30
0.0
 11
296.2394958922114
 21
392.9067730521979
 31
0.0
  0
LINE
  5
2086
330
2039
100
AcDbEntity
  8
0
 62
     0
100
AcDbLine
 10
298.522529850458
 20
390.7651604501885
 30
0.0
 11
296.2799019939934
 21
393.0077883066531
 31
0.0
  0
LINE
  5
2087
330
2039
100
AcDbEntity
  8
0
 62
     0
100
AcDbLine
 10
298.617945638173
 20
390.8111660187108
 30
0.0
 11
296.3203080957756
 21
393.1088035611083
 31
0.0
  0
LINE
  5
2088
330
2039
100
AcDbEntity
  8
0
 62
     0
100
AcDbLine
 10
298.7112880786262
 20
390.859244934495
 30
0.0
 11
296.3607141975576
 21
393.2098188155635
 31
0.0
  0
LINE
  5
2089
330
2039
100
AcDbEntity
  8
0
 62
     0
100
AcDbLine
 10
298.8026088215772
 20
390.9093455477813
 30
0.0
 11
296.4011202993397
 21
393.3108340700187
 31
0.0
  0
LINE
  5
208A
330
2039
100
AcDbEntity
  8
0
 62
     0
100
AcDbLine
 10
298.891953419692
 20
390.9614223059038
 30
0.0
 11
296.4415264011218
 21
393.4118493244739
 31
0.0
  0
LINE
  5
208B
330
2039
100
AcDbEntity
  8
0
 62
     0
100
AcDbLine
 10
298.9793618864375
 20
391.0154351953956
 30
0.0
 11
296.481932502904
 21
393.5128645789292
 31
0.0
  0
LINE
  5
208C
330
2039
100
AcDbEntity
  8
0
 62
     0
100
AcDbLine
 10
299.064869164411
 20
391.0713492736594
 30
0.0
 11
296.522338604686
 21
393.6138798333844
 31
0.0
  0
LINE
  5
208D
330
2039
100
AcDbEntity
  8
0
 62
     0
100
AcDbLine
 10
299.1485055179003
 20
391.1291342764074
 30
0.0
 11
296.5627447064681
 21
393.7148950878397
 31
0.0
  0
LINE
  5
208E
330
2039
100
AcDbEntity
  8
0
 62
     0
100
AcDbLine
 10
299.2302968606479
 20
391.1887642898971
 30
0.0
 11
296.6031508082502
 21
393.8159103422949
 31
0.0
  0
LINE
  5
208F
330
2039
100
AcDbEntity
  8
0
 62
     0
100
AcDbLine
 10
299.3102650275599
 20
391.2502174792224
 30
0.0
 11
296.6435569100323
 21
393.9169255967501
 31
0.0
  0
LINE
  5
2090
330
2039
100
AcDbEntity
  8
0
 62
     0
100
AcDbLine
 10
299.3884279972984
 20
391.3134758657212
 30
0.0
 11
296.6839630118144
 21
394.0179408512053
 31
0.0
  0
LINE
  5
2091
330
2039
100
AcDbEntity
  8
0
 62
     0
100
AcDbLine
 10
299.4648000712345
 20
391.3785251480224
 30
0.0
 11
296.7243691135964
 21
394.1189561056605
 31
0.0
  0
LINE
  5
2092
330
2039
100
AcDbEntity
  8
0
 62
     0
100
AcDbLine
 10
299.5393920130257
 20
391.4453545624686
 30
0.0
 11
296.7647752153785
 21
394.2199713601158
 31
0.0
  0
LINE
  5
2093
330
2039
100
AcDbEntity
  8
0
 62
     0
100
AcDbLine
 10
299.6122111520516
 20
391.5139567796799
 30
0.0
 11
296.8051813171606
 21
394.3209866145709
 31
0.0
  0
LINE
  5
2094
330
2039
100
AcDbEntity
  8
0
 62
     0
100
AcDbLine
 10
299.6832614530587
 20
391.5843278349102
 30
0.0
 11
296.8476609086177
 21
394.4199283793512
 31
0.0
  0
LINE
  5
2095
330
2039
100
AcDbEntity
  8
0
 62
     0
100
AcDbLine
 10
299.7525435535667
 20
391.6564670906396
 30
0.0
 11
296.8948013606968
 21
394.5142092835094
 31
0.0
  0
LINE
  5
2096
330
2039
100
AcDbEntity
  8
0
 62
     0
100
AcDbLine
 10
299.820054769866
 20
391.7303772305774
 30
0.0
 11
296.9419418127759
 21
394.6084901876676
 31
0.0
  0
LINE
  5
2097
330
2039
100
AcDbEntity
  8
0
 62
     0
100
AcDbLine
 10
299.8857890717386
 20
391.8060642849422
 30
0.0
 11
296.9890822648551
 21
394.7027710918258
 31
0.0
  0
LINE
  5
2098
330
2039
100
AcDbEntity
  8
0
 62
     0
100
AcDbLine
 10
299.949737025342
 20
391.883537687576
 30
0.0
 11
297.0362227169341
 21
394.797051995984
 31
0.0
  0
LINE
  5
2099
330
2039
100
AcDbEntity
  8
0
 62
     0
100
AcDbLine
 10
300.0118857029897
 20
391.9628103661657
 30
0.0
 11
297.0833631690132
 21
394.8913329001422
 31
0.0
  0
LINE
  5
209A
330
2039
100
AcDbEntity
  8
0
 62
     0
100
AcDbLine
 10
300.0722185577909
 20
392.0438988676019
 30
0.0
 11
297.1305036210923
 21
394.9856138043005
 31
0.0
  0
LINE
  5
209B
330
2039
100
AcDbEntity
  8
0
 62
     0
100
AcDbLine
 10
300.1307152602703
 20
392.1268235213597
 30
0.0
 11
297.1776440731714
 21
395.0798947084586
 31
0.0
  0
LINE
  5
209C
330
2039
100
AcDbEntity
  8
0
 62
     0
100
AcDbLine
 10
300.1873514931197
 20
392.2116086447477
 30
0.0
 11
297.2247845252505
 21
395.1741756126168
 31
0.0
  0
LINE
  5
209D
330
2039
100
AcDbEntity
  8
0
 62
     0
100
AcDbLine
 10
300.2420986990939
 20
392.2982827950108
 30
0.0
 11
297.2719249773296
 21
395.268456516775
 31
0.0
  0
LINE
  5
209E
330
2039
100
AcDbEntity
  8
0
 62
     0
100
AcDbLine
 10
300.2949237757108
 20
392.3868790746312
 30
0.0
 11
297.3190654294088
 21
395.3627374209332
 31
0.0
  0
LINE
  5
209F
330
2039
100
AcDbEntity
  8
0
 62
     0
100
AcDbLine
 10
300.3457887087512
 20
392.4774354978282
 30
0.0
 11
297.3662058814878
 21
395.4570183250915
 31
0.0
  0
LINE
  5
20A0
330
2039
100
AcDbEntity
  8
0
 62
     0
100
AcDbLine
 10
300.3946501345033
 20
392.5699954283133
 30
0.0
 11
297.413346333567
 21
395.5512992292497
 31
0.0
  0
LINE
  5
20A1
330
2039
100
AcDbEntity
  8
0
 62
     0
100
AcDbLine
 10
300.4414588181213
 20
392.6646081009327
 30
0.0
 11
297.460486785646
 21
395.6455801334079
 31
0.0
  0
LINE
  5
20A2
330
2039
100
AcDbEntity
  8
0
 62
     0
100
AcDbLine
 10
300.4861590321908
 20
392.7613292431004
 30
0.0
 11
297.5076272377251
 21
395.7398610375661
 31
0.0
  0
LINE
  5
20A3
330
2039
100
AcDbEntity
  8
0
 62
     0
100
AcDbLine
 10
300.5286878153891
 20
392.8602218161394
 30
0.0
 11
297.5547676898042
 21
395.8341419417243
 31
0.0
  0
LINE
  5
20A4
330
2039
100
AcDbEntity
  8
0
 62
     0
100
AcDbLine
 10
300.5689740856541
 20
392.9613569021118
 30
0.0
 11
297.6019081418834
 21
395.9284228458825
 31
0.0
  0
LINE
  5
20A5
330
2039
100
AcDbEntity
  8
0
 62
     0
100
AcDbLine
 10
300.6069375750856
 20
393.0648147689175
 30
0.0
 11
297.6490485939624
 21
396.0227037500406
 31
0.0
  0
LINE
  5
20A6
330
2039
100
AcDbEntity
  8
0
 62
     0
100
AcDbLine
 10
300.6424875442303
 20
393.1706861560101
 30
0.0
 11
297.6961890460416
 21
396.1169846541989
 31
0.0
  0
LINE
  5
20A7
330
2039
100
AcDbEntity
  8
0
 62
     0
100
AcDbLine
 10
300.6755212205113
 20
393.2790738359665
 30
0.0
 11
297.7433294981207
 21
396.2112655583571
 31
0.0
  0
LINE
  5
20A8
330
2039
100
AcDbEntity
  8
0
 62
     0
100
AcDbLine
 10
300.7059218879712
 20
393.3900945247438
 30
0.0
 11
297.7904699501997
 21
396.3055464625153
 31
0.0
  0
LINE
  5
20A9
330
2039
100
AcDbEntity
  8
0
 62
     0
100
AcDbLine
 10
300.7335565311488
 20
393.5038812378036
 30
0.0
 11
297.8376104022789
 21
396.3998273666735
 31
0.0
  0
LINE
  5
20AA
330
2039
100
AcDbEntity
  8
0
 62
     0
100
AcDbLine
 10
300.7582729016893
 20
393.6205862235004
 30
0.0
 11
297.884750854358
 21
396.4941082708317
 31
0.0
  0
LINE
  5
20AB
330
2039
100
AcDbEntity
  8
0
 62
     0
100
AcDbLine
 10
300.779895827392
 20
393.740384654035
 30
0.0
 11
297.9318913064371
 21
396.5883891749899
 31
0.0
  0
LINE
  5
20AC
330
2039
100
AcDbEntity
  8
0
 62
     0
100
AcDbLine
 10
300.798222512227
 20
393.8634793254372
 30
0.0
 11
297.9790317585162
 21
396.6826700791481
 31
0.0
  0
LINE
  5
20AD
330
2039
100
AcDbEntity
  8
0
 62
     0
100
AcDbLine
 10
300.8130164701463
 20
393.9901067237554
 30
0.0
 11
298.0261722105953
 21
396.7769509833063
 31
0.0
  0
LINE
  5
20AE
330
2039
100
AcDbEntity
  8
0
 62
     0
100
AcDbLine
 10
300.8239995749093
 20
394.1205449752296
 30
0.0
 11
298.0733126626743
 21
396.8712318874645
 31
0.0
  0
LINE
  5
20AF
330
2039
100
AcDbEntity
  8
0
 62
     0
100
AcDbLine
 10
300.8308414578654
 20
394.2551244485108
 30
0.0
 11
298.1204531147535
 21
396.9655127916228
 31
0.0
  0
LINE
  5
20B0
330
2039
100
AcDbEntity
  8
0
 62
     0
100
AcDbLine
 10
300.8331450842263
 20
394.3942421783873
 30
0.0
 11
298.1675935668326
 21
397.059793695781
 31
0.0
  0
LINE
  5
20B1
330
2039
100
AcDbEntity
  8
0
 62
     0
100
AcDbLine
 10
300.8304266731315
 20
394.5383819457193
 30
0.0
 11
298.2147340189117
 21
397.1540745999391
 31
0.0
  0
LINE
  5
20B2
330
2039
100
AcDbEntity
  8
0
 62
     0
100
AcDbLine
 10
300.8220869818187
 20
394.6881429932695
 30
0.0
 11
298.2618744709908
 21
397.2483555040973
 31
0.0
  0
LINE
  5
20B3
330
2039
100
AcDbEntity
  8
0
 62
     0
100
AcDbLine
 10
300.8073689145888
 20
394.8442824167366
 30
0.0
 11
298.3090149230699
 21
397.3426364082556
 31
0.0
  0
LINE
  5
20B4
330
2039
100
AcDbEntity
  8
0
 62
     0
100
AcDbLine
 10
300.7852925135618
 20
395.007780174001
 30
0.0
 11
298.356155375149
 21
397.4369173124138
 31
0.0
  0
LINE
  5
20B5
330
2039
100
AcDbEntity
  8
0
 62
     0
100
AcDbLine
 10
300.7545505085559
 20
395.1799435352441
 30
0.0
 11
298.4032958272281
 21
397.531198216572
 31
0.0
  0
LINE
  5
20B6
330
2039
100
AcDbEntity
  8
0
 62
     0
100
AcDbLine
 10
300.7133304153648
 20
395.3625849846726
 30
0.0
 11
298.4504362793072
 21
397.6254791207302
 31
0.0
  0
LINE
  5
20B7
330
2039
100
AcDbEntity
  8
0
 62
     0
100
AcDbLine
 10
300.6589878044899
 20
395.5583489517849
 30
0.0
 11
298.4975767313863
 21
397.7197600248884
 31
0.0
  0
LINE
  5
20B8
330
2039
100
AcDbEntity
  8
0
 62
     0
100
AcDbLine
 10
300.587382011665
 20
395.771376100847
 30
0.0
 11
298.5447171834654
 21
397.8140409290466
 31
0.0
  0
LINE
  5
20B9
330
2039
100
AcDbEntity
  8
0
 62
     0
100
AcDbLine
 10
300.4913131675989
 20
396.0088663011504
 30
0.0
 11
298.5918576355445
 21
397.9083218332048
 31
0.0
  0
LINE
  5
20BA
330
2039
100
AcDbEntity
  8
0
 62
     0
100
AcDbLine
 10
300.3558802427404
 20
396.2857205822463
 30
0.0
 11
298.7279675392379
 21
397.9136332857487
 31
0.0
  0
LINE
  5
20BB
330
2039
100
AcDbEntity
  8
0
 62
     0
100
AcDbLine
 10
300.1365104775779
 20
396.6465117036459
 30
0.0
 11
299.0887586606376
 21
397.6942635205863
 31
0.0
  0
ENDBLK
  5
20BC
330
2039
100
AcDbEntity
  8
0
100
AcDbBlockEnd
  0
BLOCK
  5
2255
330
224B
100
AcDbEntity
  8
0
100
AcDbBlockBegin
  2
*D2
 70
     1
 10
0.0
 20
0.0
 30
0.0
  3
*D2
  1

  0
LINE
  5
2432
330
224B
100
AcDbEntity
  8
BEM
 62
     0
370
    -2
100
AcDbLine
 10
137.7607648491031
 20
529.6553465483355
 30
0.0
 11
137.7607648491031
 21
540.7022980881103
 31
0.0
  0
LINE
  5
2433
330
224B
100
AcDbEntity
  8
BEM
 62
     0
370
    -2
100
AcDbLine
 10
305.760764849103
 20
529.6553465483355
 30
0.0
 11
305.760764849103
 21
540.7022980881103
 31
0.0
  0
LINE
  5
2434
330
224B
100
AcDbEntity
  8
BEM
 62
     0
370
    -2
100
AcDbLine
 10
144.7607648491031
 20
538.7022980881104
 30
0.0
 11
298.760764849103
 21
538.7022980881104
 31
0.0
  0
SOLID
  5
2435
330
224B
100
AcDbEntity
  8
BEM
 62
     0
100
AcDbTrace
 10
144.7607648491031
 20
539.868964754777
 30
0.0
 11
144.7607648491031
 21
537.5356314214437
 31
0.0
 12
137.7607648491031
 22
538.7022980881104
 32
0.0
 13
137.7607648491031
 23
538.7022980881104
 33
0.0
  0
SOLID
  5
2436
330
224B
100
AcDbEntity
  8
BEM
 62
     0
100
AcDbTrace
 10
298.760764849103
 20
539.868964754777
 30
0.0
 11
298.760764849103
 21
537.5356314214437
 31
0.0
 12
305.760764849103
 22
538.7022980881104
 32
0.0
 13
305.760764849103
 23
538.7022980881104
 33
0.0
  0
MTEXT
  5
2437
330
224B
100
AcDbEntity
  8
BEM
 62
     1
100
AcDbMText
 10
221.7607648491031
 20
545.2022980881103
 30
0.0
 40
7.0
 41
0.0
 71
     5
 72
     1
  1
\A1;%%c168
 73
     1
 44
1.0
  0
POINT
  5
2438
330
224B
100
AcDbEntity
  8
DEFPOINTS
 62
     0
100
AcDbPoint
 10
137.7607648491031
 20
527.6553465483354
 30
0.0
  0
POINT
  5
2439
330
224B
100
AcDbEntity
  8
DEFPOINTS
 62
     0
100
AcDbPoint
 10
305.760764849103
 20
527.6553465483354
 30
0.0
  0
POINT
  5
243A
330
224B
100
AcDbEntity
  8
DEFPOINTS
 62
     0
100
AcDbPoint
 10
305.760764849103
 20
538.7022980881104
 30
0.0
  0
ENDBLK
  5
2256
330
224B
100
AcDbEntity
  8
0
100
AcDbBlockEnd
  0
BLOCK
  5
2261
330
2257
100
AcDbEntity
  8
0
100
AcDbBlockBegin
  2
*D3
 70
     1
 10
0.0
 20
0.0
 30
0.0
  3
*D3
  1

  0
LINE
  5
243B
330
2257
100
AcDbEntity
  8
BEM
 62
     0
370
    -2
100
AcDbLine
 10
155.2607648491031
 20
323.6553465483354
 30
0.0
 11
155.2607648491031
 21
228.5836056788856
 31
0.0
  0
LINE
  5
243C
330
2257
100
AcDbEntity
  8
BEM
 62
     0
370
    -2
100
AcDbLine
 10
288.260764849103
 20
323.6553465483354
 30
0.0
 11
288.260764849103
 21
228.5836056788856
 31
0.0
  0
LINE
  5
243D
330
2257
100
AcDbEntity
  8
BEM
 62
     0
370
    -2
100
AcDbLine
 10
162.2607648491031
 20
230.5836056788855
 30
0.0
 11
281.260764849103
 21
230.5836056788855
 31
0.0
  0
SOLID
  5
243E
330
2257
100
AcDbEntity
  8
BEM
 62
     0
100
AcDbTrace
 10
162.2607648491031
 20
231.7502723455522
 30
0.0
 11
162.2607648491031
 21
229.4169390122189
 31
0.0
 12
155.2607648491031
 22
230.5836056788855
 32
0.0
 13
155.2607648491031
 23
230.5836056788855
 33
0.0
  0
SOLID
  5
243F
330
2257
100
AcDbEntity
  8
BEM
 62
     0
100
AcDbTrace
 10
281.260764849103
 20
231.7502723455522
 30
0.0
 11
281.260764849103
 21
229.4169390122189
 31
0.0
 12
288.260764849103
 22
230.5836056788855
 32
0.0
 13
288.260764849103
 23
230.5836056788855
 33
0.0
  0
MTEXT
  5
2440
330
2257
100
AcDbEntity
  8
BEM
 62
     1
100
AcDbMText
 10
221.7607648491031
 20
237.0836056788856
 30
0.0
 40
7.0
 41
0.0
 71
     5
 72
     1
  1
\A1;%%c133
 73
     1
 44
1.0
  0
POINT
  5
2441
330
2257
100
AcDbEntity
  8
DEFPOINTS
 62
     0
100
AcDbPoint
 10
155.2607648491031
 20
325.6553465483354
 30
0.0
  0
POINT
  5
2442
330
2257
100
AcDbEntity
  8
DEFPOINTS
 62
     0
100
AcDbPoint
 10
288.260764849103
 20
325.6553465483354
 30
0.0
  0
POINT
  5
2443
330
2257
100
AcDbEntity
  8
DEFPOINTS
 62
     0
100
AcDbPoint
 10
288.260764849103
 20
230.5836056788855
 30
0.0
  0
ENDBLK
  5
2262
330
2257
100
AcDbEntity
  8
0
100
AcDbBlockEnd
  0
BLOCK
  5
226D
330
2263
100
AcDbEntity
  8
0
100
AcDbBlockBegin
  2
*D4
 70
     1
 10
0.0
 20
0.0
 30
0.0
  3
*D4
  1

  0
LINE
  5
22F8
330
2263
100
AcDbEntity
  8
BEM
 62
     0
370
    -2
100
AcDbLine
 10
272.760764849103
 20
277.5680246625181
 30
0.0
 11
272.760764849103
 21
244.3934971020046
 31
0.0
  0
LINE
  5
22F9
330
2263
100
AcDbEntity
  8
BEM
 62
     0
370
    -2
100
AcDbLine
 10
170.7607648491031
 20
277.5680246625185
 30
0.0
 11
170.7607648491031
 21
244.3934971020046
 31
0.0
  0
LINE
  5
22FA
330
2263
100
AcDbEntity
  8
BEM
 62
     0
370
    -2
100
AcDbLine
 10
265.760764849103
 20
246.3934971020046
 30
0.0
 11
177.7607648491031
 21
246.3934971020046
 31
0.0
  0
SOLID
  5
22FB
330
2263
100
AcDbEntity
  8
BEM
 62
     0
100
AcDbTrace
 10
265.760764849103
 20
247.5601637686713
 30
0.0
 11
265.760764849103
 21
245.226830435338
 31
0.0
 12
272.760764849103
 22
246.3934971020046
 32
0.0
 13
272.760764849103
 23
246.3934971020046
 33
0.0
  0
SOLID
  5
22FC
330
2263
100
AcDbEntity
  8
BEM
 62
     0
100
AcDbTrace
 10
177.7607648491031
 20
247.5601637686713
 30
0.0
 11
177.7607648491031
 21
245.226830435338
 31
0.0
 12
170.7607648491031
 22
246.3934971020046
 32
0.0
 13
170.7607648491031
 23
246.3934971020046
 33
0.0
  0
MTEXT
  5
22FD
330
2263
100
AcDbEntity
  8
BEM
 62
     1
100
AcDbMText
 10
221.7607648491031
 20
252.8934971020046
 30
0.0
 40
7.0
 41
0.0
 71
     5
 72
     1
  1
\A1;%%c102
 73
     1
 44
1.0
  0
POINT
  5
22FE
330
2263
100
AcDbEntity
  8
DEFPOINTS
 62
     0
100
AcDbPoint
 10
272.760764849103
 20
279.5680246625181
 30
0.0
  0
POINT
  5
22FF
330
2263
100
AcDbEntity
  8
DEFPOINTS
 62
     0
100
AcDbPoint
 10
170.7607648491031
 20
279.5680246625185
 30
0.0
  0
POINT
  5
2300
330
2263
100
AcDbEntity
  8
DEFPOINTS
 62
     0
100
AcDbPoint
 10
170.7607648491031
 20
246.3934971020046
 30
0.0
  0
ENDBLK
  5
226E
330
2263
100
AcDbEntity
  8
0
100
AcDbBlockEnd
  0
BLOCK
  5
2279
330
226F
100
AcDbEntity
  8
0
100
AcDbBlockBegin
  2
*D5
 70
     1
 10
0.0
 20
0.0
 30
0.0
  3
*D5
  1

  0
LINE
  5
245A
330
226F
100
AcDbEntity
  8
BEM
 62
     0
370
    -2
100
AcDbLine
 10
135.7607648491031
 20
527.6553465483354
 30
0.0
 11
116.2389416586607
 21
527.6553465483354
 31
0.0
  0
LINE
  5
245B
330
226F
100
AcDbEntity
  8
BEM
 62
     0
370
    -2
100
AcDbLine
 10
169.8029891363276
 20
267.6553465483354
 30
0.0
 11
116.2389416586607
 21
267.6553465483355
 31
0.0
  0
LINE
  5
245C
330
226F
100
AcDbEntity
  8
BEM
 62
     0
370
    -2
100
AcDbLine
 10
118.2389416586607
 20
520.6553465483355
 30
0.0
 11
118.2389416586607
 21
274.6553465483354
 31
0.0
  0
SOLID
  5
245D
330
226F
100
AcDbEntity
  8
BEM
 62
     0
100
AcDbTrace
 10
117.072274991994
 20
520.6553465483355
 30
0.0
 11
119.4056083253274
 21
520.6553465483355
 31
0.0
 12
118.2389416586607
 22
527.6553465483354
 32
0.0
 13
118.2389416586607
 23
527.6553465483354
 33
0.0
  0
SOLID
  5
245E
330
226F
100
AcDbEntity
  8
BEM
 62
     0
100
AcDbTrace
 10
117.072274991994
 20
274.6553465483354
 30
0.0
 11
119.4056083253273
 21
274.6553465483354
 31
0.0
 12
118.2389416586607
 22
267.6553465483355
 32
0.0
 13
118.2389416586607
 23
267.6553465483355
 33
0.0
  0
MTEXT
  5
245F
330
226F
100
AcDbEntity
  8
BEM
 62
     1
100
AcDbMText
 10
111.7389416586606
 20
397.6553465483355
 30
0.0
 40
7.0
 41
0.0
 71
     5
 72
     1
  1
\A1;260
 11
0.0000000000000001
 21
1.0
 31
0.0
 73
     1
 44
1.0
  0
POINT
  5
2460
330
226F
100
AcDbEntity
  8
DEFPOINTS
 62
     0
100
AcDbPoint
 10
137.7607648491031
 20
527.6553465483354
 30
0.0
  0
POINT
  5
2461
330
226F
100
AcDbEntity
  8
DEFPOINTS
 62
     0
100
AcDbPoint
 10
171.8029891363276
 20
267.6553465483354
 30
0.0
  0
POINT
  5
2462
330
226F
100
AcDbEntity
  8
DEFPOINTS
 62
     0
100
AcDbPoint
 10
118.2389416586607
 20
267.6553465483355
 30
0.0
  0
ENDBLK
  5
227A
330
226F
100
AcDbEntity
  8
0
100
AcDbBlockEnd
  0
BLOCK
  5
244F
330
2445
100
AcDbEntity
  8
0
100
AcDbBlockBegin
  2
*D6
 70
     1
 10
0.0
 20
0.0
 30
0.0
  3
*D6
  1

  0
LINE
  5
2451
330
2445
100
AcDbEntity
  8
BEM
 62
     0
370
    -2
100
AcDbLine
 10
169.8029891363276
 20
267.6553465483354
 30
0.0
 11
131.6708907990876
 21
267.6553465483354
 31
0.0
  0
LINE
  5
2452
330
2445
100
AcDbEntity
  8
BEM
 62
     0
370
    -2
100
AcDbLine
 10
153.2607648491031
 20
327.6553465483354
 30
0.0
 11
131.6708907990876
 21
327.6553465483354
 31
0.0
  0
LINE
  5
2453
330
2445
100
AcDbEntity
  8
BEM
 62
     0
370
    -2
100
AcDbLine
 10
133.6708907990876
 20
274.6553465483354
 30
0.0
 11
133.6708907990876
 21
320.6553465483354
 31
0.0
  0
SOLID
  5
2454
330
2445
100
AcDbEntity
  8
BEM
 62
     0
100
AcDbTrace
 10
132.5042241324209
 20
274.6553465483354
 30
0.0
 11
134.8375574657542
 21
274.6553465483354
 31
0.0
 12
133.6708907990876
 22
267.6553465483354
 32
0.0
 13
133.6708907990876
 23
267.6553465483354
 33
0.0
  0
SOLID
  5
2455
330
2445
100
AcDbEntity
  8
BEM
 62
     0
100
AcDbTrace
 10
132.5042241324209
 20
320.6553465483354
 30
0.0
 11
134.8375574657542
 21
320.6553465483354
 31
0.0
 12
133.6708907990876
 22
327.6553465483354
 32
0.0
 13
133.6708907990876
 23
327.6553465483354
 33
0.0
  0
MTEXT
  5
2456
330
2445
100
AcDbEntity
  8
BEM
 62
     1
100
AcDbMText
 10
127.1708907990875
 20
297.6553465483355
 30
0.0
 40
7.0
 41
0.0
 71
     5
 72
     1
  1
\A1;60
 11
0.0000000000000001
 21
1.0
 31
0.0
 73
     1
 44
1.0
  0
POINT
  5
2457
330
2445
100
AcDbEntity
  8
DEFPOINTS
 62
     0
100
AcDbPoint
 10
171.8029891363276
 20
267.6553465483354
 30
0.0
  0
POINT
  5
2458
330
2445
100
AcDbEntity
  8
DEFPOINTS
 62
     0
100
AcDbPoint
 10
155.2607648491031
 20
327.6553465483354
 30
0.0
  0
POINT
  5
2459
330
2445
100
AcDbEntity
  8
DEFPOINTS
 62
     0
100
AcDbPoint
 10
133.6708907990876
 20
327.6553465483354
 30
0.0
  0
ENDBLK
  5
2450
330
2445
100
AcDbEntity
  8
0
100
AcDbBlockEnd
  0
ENDSEC
  0
SECTION
  2
ENTITIES
  0
LINE
  5
19F
330
1E
100
AcDbEntity
  8
STEMPEL
100
AcDbLine
 10
409.9999999999999
 20
110.0
 30
0.0
 11
39.99999999999995
 21
110.0
 31
0.0
  0
LINE
  5
1A0
330
1E
100
AcDbEntity
  8
STEMPEL
100
AcDbLine
 10
136.0000000000001
 20
109.9999999999999
 30
0.0
 11
136.0
 21
9.999999999999971
 31
0.0
  0
LINE
  5
1A1
330
1E
100
AcDbEntity
  8
STEMPEL
100
AcDbLine
 10
220.0
 20
110.0
 30
0.0
 11
220.0
 21
9.999999999999971
 31
0.0
  0
LINE
  5
1A2
330
1E
100
AcDbEntity
  8
STEMPEL
100
AcDbLine
 10
331.9999999999999
 20
109.9999999999997
 30
0.0
 11
331.9999999999999
 21
40.0
 31
0.0
  0
LINE
  5
1A3
330
1E
100
AcDbEntity
  8
STEMPEL
100
AcDbLine
 10
135.9999999999999
 20
29.99999999999997
 30
0.0
 11
39.99999999999995
 21
29.99999999999997
 31
0.0
  0
LINE
  5
1A4
330
1E
100
AcDbEntity
  8
STEMPEL
100
AcDbLine
 10
409.9999999999999
 20
40.0
 30
0.0
 11
136.0000000000001
 21
39.99999999999997
 31
0.0
  0
LINE
  5
1A5
330
1E
100
AcDbEntity
  8
STEMPEL
100
AcDbLine
 10
409.9999999999999
 20
80.0
 30
0.0
 11
136.0000000000001
 21
79.99999999999994
 31
0.0
  0
LINE
  5
1A6
330
1E
100
AcDbEntity
  8
VOLL
100
AcDbLine
 10
54.00000000000005
 20
110.0
 30
0.0
 11
53.99999999999995
 21
9.999999999999971
 31
0.0
  0
LINE
  5
1A7
330
1E
100
AcDbEntity
  8
VOLL
100
AcDbLine
 10
94.00000000000011
 20
109.9999999999999
 30
0.0
 11
94.0
 21
9.999999999999971
 31
0.0
  0
LINE
  5
1A8
330
1E
100
AcDbEntity
  8
VOLL
100
AcDbLine
 10
114.0000000000001
 20
109.9999999999999
 30
0.0
 11
114.0
 21
9.999999999999971
 31
0.0
  0
LINE
  5
1A9
330
1E
100
AcDbEntity
  8
VOLL
100
AcDbLine
 10
154.0000000000001
 20
79.99999999999994
 30
0.0
 11
154.0000000000001
 21
39.99999999999997
 31
0.0
  0
LINE
  5
1AA
330
1E
100
AcDbEntity
  8
VOLL
100
AcDbLine
 10
180.0000000000001
 20
109.9999999999998
 30
0.0
 11
180.0
 21
39.99999999999997
 31
0.0
  0
LINE
  5
1AB
330
1E
100
AcDbEntity
  8
HILF
100
AcDbLine
 10
40.00000000000006
 20
100.0
 30
0.0
 11
136.0000000000001
 21
100.0
 31
0.0
  0
LINE
  5
1AC
330
1E
100
AcDbEntity
  8
HILF
100
AcDbLine
 10
40.00000000000006
 20
90.00000000000005
 30
0.0
 11
136.0000000000001
 21
90.00000000000005
 31
0.0
  0
LINE
  5
1AD
330
1E
100
AcDbEntity
  8
HILF
100
AcDbLine
 10
40.00000000000006
 20
79.99999999999994
 30
0.0
 11
136.0000000000001
 21
79.99999999999994
 31
0.0
  0
LINE
  5
1AE
330
1E
100
AcDbEntity
  8
HILF
100
AcDbLine
 10
40.00000000000006
 20
69.99999999999994
 30
0.0
 11
136.0000000000001
 21
69.99999999999994
 31
0.0
  0
LINE
  5
1AF
330
1E
100
AcDbEntity
  8
HILF
100
AcDbLine
 10
40.00000000000006
 20
59.99999999999997
 30
0.0
 11
136.0000000000001
 21
59.99999999999997
 31
0.0
  0
LINE
  5
1B0
330
1E
100
AcDbEntity
  8
HILF
100
AcDbLine
 10
40.00000000000006
 20
49.99999999999997
 30
0.0
 11
136.0000000000001
 21
49.99999999999997
 31
0.0
  0
LINE
  5
1B1
330
1E
100
AcDbEntity
  8
HILF
100
AcDbLine
 10
40.00000000000006
 20
39.99999999999997
 30
0.0
 11
136.0000000000001
 21
39.99999999999997
 31
0.0
  0
LINE
  5
1B2
330
1E
100
AcDbEntity
  8
HILF
100
AcDbLine
 10
136.0000000000001
 20
69.99999999999994
 30
0.0
 11
220.0
 21
69.99999999999994
 31
0.0
  0
LINE
  5
1B3
330
1E
100
AcDbEntity
  8
HILF
100
AcDbLine
 10
136.0000000000001
 20
59.99999999999997
 30
0.0
 11
220.0
 21
59.99999999999997
 31
0.0
  0
LINE
  5
1B4
330
1E
100
AcDbEntity
  8
HILF
100
AcDbLine
 10
136.0000000000001
 20
49.99999999999997
 30
0.0
 11
220.0
 21
49.99999999999997
 31
0.0
  0
LINE
  5
1B5
330
1E
100
AcDbEntity
  8
HILF
100
AcDbLine
 10
224.7736801096948
 20
84.03758247564139
 30
0.0
 11
324.8353916556311
 21
84.03758247564139
 31
0.0
  0
LINE
  5
1B6
330
1E
100
AcDbEntity
  8
HILF
100
AcDbLine
 10
224.7736801096948
 20
69.99999999999994
 30
0.0
 11
324.835391655631
 21
69.99999999999994
 31
0.0
  0
LINE
  5
1B7
330
1E
100
AcDbEntity
  8
HILF
100
AcDbLine
 10
224.7736801096948
 20
59.99999999999997
 30
0.0
 11
324.835391655631
 21
59.99999999999997
 31
0.0
  0
LINE
  5
1B8
330
1E
100
AcDbEntity
  8
HILF
100
AcDbLine
 10
224.7736801096948
 20
49.99999999999997
 30
0.0
 11
324.835391655631
 21
49.99999999999997
 31
0.0
  0
LINE
  5
1B9
330
1E
100
AcDbEntity
  8
VOLL
100
AcDbLine
 10
331.9999999999999
 20
60.0
 30
0.0
 11
409.9999999999999
 21
60.0
 31
0.0
  0
LINE
  5
1BA
330
1E
100
AcDbEntity
  8
HILF
100
AcDbLine
 10
336.7238616296992
 20
83.77983636955827
 30
0.0
 11
404.8588839326727
 21
83.77983636955827
 31
0.0
  0
LINE
  5
1BB
330
1E
100
AcDbEntity
  8
HILF
100
AcDbLine
 10
223.4909699289885
 20
14.89398258028314
 30
0.0
 11
404.8588839326727
 21
14.89398258028314
 31
0.0
  0
TEXT
  5
1BC
330
1E
100
AcDbEntity
  8
TEXT
100
AcDbText
 10
63.30818695982741
 20
18.59145467910836
 30
0.0
 40
4.0
  1
Änderung
 41
0.8
  7
GREEKS
 72
     4
 11
74.05104410268456
 21
20.30574039339407
 31
0.0
100
AcDbText
  0
TEXT
  5
1BD
330
1E
100
AcDbEntity
  8
TEXT
100
AcDbText
 10
143.5163572150377
 20
102.4620895087088
 30
0.0
 40
5.0
  1
Maßstab
 41
0.8
  7
GREEKS
100
AcDbText
  0
TEXT
  5
1BE
330
1E
100
AcDbEntity
  8
TEXT
100
AcDbText
 10
184.2858954734051
 20
102.4184168434819
 30
0.0
 40
5.0
  1
Zul. Abw.
 41
0.8
  7
GREEKS
100
AcDbText
  0
TEXT
  5
1BF
330
1E
100
AcDbEntity
  8
TEXT
100
AcDbText
 10
224.877940380901
 20
102.5489328011779
 30
0.0
 40
5.0
  1
Benennung
 41
0.8
  7
GREEKS
100
AcDbText
  0
TEXT
  5
1C0
330
1E
100
AcDbEntity
  8
TEXT
100
AcDbText
 10
336.178754957634
 20
102.3132034537136
 30
0.0
 40
5.0
  1
Zeichnungs Nr.
 41
0.8
  7
GREEKS
100
AcDbText
  0
TEXT
  5
1C1
330
1E
100
AcDbEntity
  8
TEXT
100
AcDbText
 10
224.742238391136
 20
30.84560570193057
 30
0.0
 40
5.0
  1
Bauvorhaben
 41
0.8
  7
GREEKS
100
AcDbText
  0
TEXT
  5
1C2
330
1E
100
AcDbEntity
  8
TEXT
100
AcDbText
 10
336.7238616296992
 20
73.1811823709997
 30
0.0
 40
5.0
  1
Ersatz für:
 41
0.8
  7
GREEKS
100
AcDbText
  0
TEXT
  5
1C3
330
1E
100
AcDbEntity
  8
TEXT
100
AcDbText
 10
48.26641107045753
 20
13.65465846027192
 30
0.0
 40
3.6
  1
Index
 50
90.0
 41
0.8
  7
GREEKS
100
AcDbText
  0
TEXT
  5
1C6
330
1E
100
AcDbEntity
  8
TEXT
100
AcDbText
 10
162.3311673153651
 20
73.31880501229926
 30
0.0
 40
3.6
  1
Tag
 41
0.8
  7
GREEKS
100
AcDbText
  0
TEXT
  5
1C7
330
1E
100
AcDbEntity
  8
TEXT
100
AcDbText
 10
192.4626584226295
 20
73.30961091915225
 30
0.0
 40
3.6
  1
Name
 41
0.8
  7
GREEKS
100
AcDbText
  0
TEXT
  5
1C8
330
1E
100
AcDbEntity
  8
TEXT
100
AcDbText
 10
137.5836127167615
 20
63.62990369617964
 30
0.0
 40
3.6
  1
Gez.
 41
0.8
  7
GREEKS
100
AcDbText
  0
TEXT
  5
1C9
330
1E
100
AcDbEntity
  8
TEXT
100
AcDbText
 10
137.5515086571672
 20
53.68926291428377
 30
0.0
 40
3.6
  1
Gepr.
 41
0.8
  7
GREEKS
100
AcDbText
  0
TEXT
  5
1CA
330
1E
100
AcDbEntity
  8
TEXT
100
AcDbText
 10
137.6006777387304
 20
43.52946389649807
 30
0.0
 40
3.6
  1
Norm.
 41
0.8
  7
GREEKS
100
AcDbText
  0
LINE
  5
1CB
330
1E
100
AcDbEntity
  8
STEMPEL
100
AcDbLine
 10
49.99999999999989
 20
10.0
 30
0.0
 11
409.9999999999999
 21
10.0
 31
0.0
  0
LINE
  5
1CC
330
1E
100
AcDbEntity
  8
STEMPEL
100
AcDbLine
 10
409.9999999999999
 20
110.0
 30
0.0
 11
409.9999999999999
 21
10.0
 31
0.0
  0
TEXT
  5
1CD
330
1E
100
AcDbEntity
  8
TEXT
100
AcDbText
 10
337.2400861497005
 20
52.07416177878602
 30
0.0
 40
5.0
  1
ersetzt durch:
 41
0.8
  7
GREEKS
100
AcDbText
  0
LINE
  5
1CE
330
1E
100
AcDbEntity
  8
STEMPEL
100
AcDbLine
 10
409.9999999999999
 20
10.0
 30
0.0
 11
39.99999999999989
 21
10.0
 31
0.0
  0
LINE
  5
1CF
330
1E
100
AcDbEntity
  8
STEMPEL
100
AcDbLine
 10
409.9999999999999
 20
110.0
 30
0.0
 11
409.9999999999999
 21
584.0
 31
0.0
  0
LINE
  5
1D0
330
1E
100
AcDbEntity
  8
STEMPEL
100
AcDbLine
 10
40.0
 20
10.0
 30
0.0
 11
39.99999999999989
 21
584.0
 31
0.0
  0
LINE
  5
1D1
330
1E
100
AcDbEntity
  8
STEMPEL
100
AcDbLine
 10
409.9999999999999
 20
584.0
 30
0.0
 11
39.99999999999989
 21
584.0
 31
0.0
  0
LINE
  5
1D2
330
1E
100
AcDbEntity
  8
HILF
100
AcDbLine
 10
0.0
 20
0.0
 30
0.0
 11
-0.0000000000001137
 21
594.0
 31
0.0
  0
LINE
  5
1D3
330
1E
100
AcDbEntity
  8
HILF
100
AcDbLine
 10
419.9999999999999
 20
594.0000000000002
 30
0.0
 11
0.0
 21
594.0
 31
0.0
  0
LINE
  5
1D4
330
1E
100
AcDbEntity
  8
HILF
100
AcDbLine
 10
419.9999999999999
 20
0.0
 30
0.0
 11
0.0
 21
0.0
 31
0.0
  0
LINE
  5
1D5
330
1E
100
AcDbEntity
  8
HILF
100
AcDbLine
 10
31.08767135713856
 20
297.0
 30
0.0
 11
0.0000000000001137
 21
297.0
 31
0.0
  0
TEXT
  5
1D6
330
1E
100
AcDbEntity
  8
TEXT
100
AcDbText
 10
139.8886662448949
 20
73.33699103545173
 30
0.0
 40
3.6
  1
2007
 41
0.8
  7
GREEKS
100
AcDbText
  0
LINE
  5
1D7
330
1E
100
AcDbEntity
  8
HILF
100
AcDbLine
 10
419.9999999999999
 20
-0.0000000000001137
 30
0.0
 11
419.9999999999999
 21
594.0
 31
0.0
  0
TEXT
  5
1D8
330
1E
100
AcDbEntity
  8
VOLL
100
AcDbText
 10
78.07675471698113
 20
31.02594776470585
 30
0.0
 40
1.8
  1

  7
GREEKS
100
AcDbText
  0
TEXT
  5
1D9
330
1E
100
AcDbEntity
  8
TEXT
100
AcDbText
 10
42.25669815425914
 20
111.6719999999999
 30
0.0
 40
5.0
  1
Erstellt mit AUTOCAD 2004
 41
0.8
  7
GREEKS
100
AcDbText
  0
TEXT
  5
1DA
330
1E
100
AcDbEntity
  8
TEXT
100
AcDbText
 10
194.4216048581257
 20
63.0896391972351
 30
0.0
 40
4.0
  1
Koeh
 41
0.8
  7
GREEKS
 72
     1
 11
199.6787477152685
 21
63.0896391972351
 31
0.0
100
AcDbText
  0
TEXT
  5
1DB
330
1E
100
AcDbEntity
  8
TEXT
 62
     1
100
AcDbText
 10
347.2395763650677
 20
88.14901428913959
 30
0.0
 40
7.0
  1
58602ED0W
 41
0.8
  7
GREEKS
 72
     1
 11
371.2395763650676
 21
88.14901428913959
 31
0.0
100
AcDbText
  0
TEXT
  5
1DC
330
1E
100
AcDbEntity
  8
TEXT
 62
     1
100
AcDbText
 10
150.5006306481887
 20
88.14901428913959
 30
0.0
 40
7.0
  1
1:2
  7
GREEKS
100
AcDbText
  0
TEXT
  5
1DD
330
1E
100
AcDbEntity
  8
TEXT
100
AcDbText
 10
160.398997108236
 20
63.10765040825732
 30
0.0
 40
4.0
  1
25.09.
 41
0.8
  7
GREEKS
 72
     1
 11
167.4085209177598
 21
63.10765040825732
 31
0.0
100
AcDbText
  0
TEXT
  5
1DE
330
1E
100
AcDbEntity
  8
TEXT
 62
     1
100
AcDbText
 10
225.3291095064849
 20
87.41748789253779
 30
0.0
 40
7.0
  1
Verbundrohr
 41
0.8
  7
GREEKS
100
AcDbText
  0
TEXT
  5
1DF
330
1E
100
AcDbEntity
  8
TEXT
100
AcDbText
 10
225.1296391125315
 20
72.50168891988375
 30
0.0
 40
5.0
  1
Abgleichstück DN125/100
 41
0.8
  7
GREEKS
100
AcDbText
  0
TEXT
  5
1E0
330
1E
100
AcDbEntity
  8
TEXT
100
AcDbText
 10
225.1296391125315
 20
51.64011943042158
 30
0.0
 40
5.0
  1
EDV-Art.Nr. 58602.ED0X
 41
0.8
  7
GREEKS
100
AcDbText
  0
TEXT
  5
1E1
330
1E
100
AcDbEntity
  8
TEXT
100
AcDbText
 10
224.9837501577827
 20
42.62974153022634
 30
0.0
 40
3.6
  1
58602ED0W.DWG
 41
0.8
  7
GREEKS
100
AcDbText
  0
INSERT
  5
1E2
330
1E
100
AcDbEntity
  8
STEMPEL
100
AcDbBlockReference
  2
LOGO
 10
140.9955485457794
 20
45.02105276448321
 30
0.0
 41
2.0
 42
2.0
 43
2.0
  0
TEXT
  5
1E4
330
1E
100
AcDbEntity
  8
VOLL
100
AcDbText
 10
339.7958237333797
 20
71.91957633833147
 30
0.0
 40
1.8
  1

  7
GREEKS
100
AcDbText
  0
TEXT
  5
1E5
330
1E
100
AcDbEntity
  8
TEXT
100
AcDbText
 10
671.6280919369726
 20
77.47781187155701
 30
0.0
 40
2.5
  1
  
  7
GREEKS
 72
     1
 11
673.8899966988774
 21
77.47781187155701
 31
0.0
100
AcDbText
  0
TEXT
  5
1E6
330
1E
100
AcDbEntity
  8
BEM
100
AcDbText
 10
915.7478092494546
 20
213.0366939019592
 30
0.0
 40
2.5
  1
 
 72
     4
 11
916.878761630407
 21
213.0366939019592
 31
0.0
100
AcDbText
  0
TEXT
  5
1E8
330
1E
100
AcDbEntity
  8
BEM
100
AcDbText
 10
454.2848421115471
 20
134.8585024391051
 30
0.0
 40
2.5
  1

  7
GREEKS
100
AcDbText
  0
TEXT
  5
1E9
330
1E
100
AcDbEntity
  8
VOLL
100
AcDbText
 10
440.2186490918256
 20
114.67524178207
 30
0.0
 40
1.8
  1

  7
GREEKS
100
AcDbText
  0
TEXT
  5
1EA
330
1E
100
AcDbEntity
  8
BEM
100
AcDbText
 10
474.7067139311102
 20
119.4009661052905
 30
0.0
 40
2.5
  1

 41
0.8
  7
GREEKS
100
AcDbText
  0
TEXT
  5
1EB
330
1E
100
AcDbEntity
  8
BEM
100
AcDbText
 10
474.7067139311102
 20
114.7071975512384
 30
0.0
 40
2.5
  1

 41
0.8
  7
GREEKS
100
AcDbText
  0
TEXT
  5
1EC
330
1E
100
AcDbEntity
  8
BEM
100
AcDbText
 10
474.7067139311102
 20
109.4693537325749
 30
0.0
 40
2.5
  1

 41
0.8
  7
GREEKS
100
AcDbText
  0
TEXT
  5
1ED
330
1E
100
AcDbEntity
  8
BEM
100
AcDbText
 10
474.6337694537358
 20
104.9641647824773
 30
0.0
 40
1.8
  1

 41
0.8
  7
GREEKS
100
AcDbText
  0
TEXT
  5
1EE
330
1E
100
AcDbEntity
  8
BEM
100
AcDbText
 10
461.9501985741246
 20
130.5557538787025
 30
0.0
 40
2.0
  1

 41
0.8
  7
GREEKS
 72
     1
 11
461.9501985741246
 21
130.5557538787025
 31
0.0
100
AcDbText
  0
TEXT
  5
1EF
330
1E
100
AcDbEntity
  8
TEXT
100
AcDbText
 10
772.0509172954185
 20
120.2334773152955
 30
0.0
 40
2.5
  1
  
  7
GREEKS
 72
     1
 11
774.3128220573233
 21
120.2334773152955
 31
0.0
100
AcDbText
  0
TEXT
  5
1F0
330
1E
100
AcDbEntity
  8
BEM
100
AcDbText
 10
1016.1706346079
 20
255.7923593456977
 30
0.0
 40
2.5
  1
 
 72
     4
 11
1017.301586988853
 21
255.7923593456977
 31
0.0
100
AcDbText
  0
TEXT
  5
1F1
330
1E
100
AcDbEntity
  8
VOLL
100
AcDbText
 10
228.6383494536079
 20
31.18631511162239
 30
0.0
 40
1.8
  1

  7
GREEKS
100
AcDbText
  0
TEXT
  5
1F2
330
1E
100
AcDbEntity
  8
TEXT
100
AcDbText
 10
560.4706176572007
 20
36.74455064484793
 30
0.0
 40
2.5
  1
  
  7
GREEKS
 72
     1
 11
562.7325224191056
 21
36.74455064484793
 31
0.0
100
AcDbText
  0
TEXT
  5
1F3
330
1E
100
AcDbEntity
  8
BEM
100
AcDbText
 10
804.5903349696828
 20
172.3034326752502
 30
0.0
 40
2.5
  1
 
 72
     4
 11
805.7212873506353
 21
172.3034326752502
 31
0.0
100
AcDbText
  0
TEXT
  5
1F4
330
1E
100
AcDbEntity
  8
BEM
100
AcDbText
 10
393.9839625332579
 20
71.33954581020805
 30
0.0
 40
2.5
  1

  7
GREEKS
100
AcDbText
  0
TEXT
  5
1F5
330
1E
100
AcDbEntity
  8
VOLL
100
AcDbText
 10
379.9177695135364
 20
51.15628515317294
 30
0.0
 40
1.8
  1

  7
GREEKS
100
AcDbText
  0
TEXT
  5
1F6
330
1E
100
AcDbEntity
  8
BEM
100
AcDbText
 10
414.4058343528211
 20
55.88200947639354
 30
0.0
 40
2.5
  1

 41
0.8
  7
GREEKS
100
AcDbText
  0
TEXT
  5
1F7
330
1E
100
AcDbEntity
  8
BEM
100
AcDbText
 10
414.4058343528211
 20
51.18824092234138
 30
0.0
 40
2.5
  1

 41
0.8
  7
GREEKS
100
AcDbText
  0
TEXT
  5
1F8
330
1E
100
AcDbEntity
  8
BEM
100
AcDbText
 10
414.4058343528211
 20
45.95039710367788
 30
0.0
 40
2.5
  1

 41
0.8
  7
GREEKS
100
AcDbText
  0
TEXT
  5
1F9
330
1E
100
AcDbEntity
  8
BEM
100
AcDbText
 10
414.3328898754466
 20
41.44520815358026
 30
0.0
 40
1.8
  1

 41
0.8
  7
GREEKS
100
AcDbText
  0
TEXT
  5
1FA
330
1E
100
AcDbEntity
  8
BEM
100
AcDbText
 10
401.6493189958354
 20
67.03679724980554
 30
0.0
 40
2.0
  1

 41
0.8
  7
GREEKS
 72
     1
 11
401.6493189958354
 21
67.03679724980554
 31
0.0
100
AcDbText
  0
TEXT
  5
1FB
330
1E
100
AcDbEntity
  8
TEXT
100
AcDbText
 10
711.7500377171293
 20
56.71452068639848
 30
0.0
 40
2.5
  1
  
  7
GREEKS
 72
     1
 11
714.0119424790341
 21
56.71452068639848
 31
0.0
100
AcDbText
  0
TEXT
  5
1FC
330
1E
100
AcDbEntity
  8
BEM
100
AcDbText
 10
955.8697550296114
 20
192.2734027168007
 30
0.0
 40
2.5
  1
 
 72
     4
 11
957.0007074105637
 21
192.2734027168007
 31
0.0
100
AcDbText
  0
TEXT
  5
24B
330
1E
100
AcDbEntity
  8
TEXT
 62
     1
100
AcDbText
 10
78.53685804086016
 20
188.552964463262
 30
0.0
 40
7.0
  1
Rohrende leicht eingezogen
 41
0.8
  7
GREEKS
100
AcDbText
  0
TEXT
  5
26A
330
1E
100
AcDbEntity
  8
TEXT
100
AcDbText
 10
184.2858954734051
 20
90.23051188311759
 30
0.0
 40
4.0
  1
DIN EN1123-2
 41
0.8
  7
GREEKS
100
AcDbText
  0
TEXT
  5
2ED
330
1E
100
AcDbEntity
  8
TEXT
100
AcDbText
 10
99.98381106419387
 20
18.97240706006074
 30
0.0
 40
4.0
  1
Tag
 41
0.8
  7
GREEKS
 72
     4
 11
103.7171443975272
 21
20.30574039339407
 31
0.0
100
AcDbText
  0
TEXT
  5
2EE
330
1E
100
AcDbEntity
  8
TEXT
100
AcDbText
 10
118.0779538781902
 20
18.30574039339407
 30
0.0
 40
4.0
  1
Name
 41
0.8
  7
GREEKS
 72
     4
 11
124.4017634019997
 21
20.30574039339407
 31
0.0
100
AcDbText
  0
TEXT
  5
54A
330
1E
100
AcDbEntity
  8
VOLL
100
AcDbText
 10
305.2666505177693
 20
60.9917365573275
 30
0.0
 40
1.8
  1

  7
GREEKS
100
AcDbText
  0
TEXT
  5
558
330
1E
100
AcDbEntity
  8
BEM
100
AcDbText
 10
779.8708637178527
 20
75.83979991258411
 30
0.0
 40
2.5
  1

 41
0.8
  7
GREEKS
 72
     4
 11
779.8708637178527
 21
75.83979991258411
 31
0.0
100
AcDbText
  0
TEXT
  5
6F0
330
1E
100
AcDbEntity
  8
TEXT
100
AcDbText
 10
416.5811541437436
 20
12.14804815338303
 30
0.0
 40
4.0
  1
Diese Zeichnung ist urheberrechtlich geschützt und bleibt unser Eigentum. Sie darf weder ganz noch teilweise vervielfältigt und nicht an Dritte weitergegeben werden.
 50
90.0
 41
0.8
  7
GREEKS
100
AcDbText
  0
TEXT
  5
6FA
330
1E
100
AcDbEntity
  8
TEXT
 62
     1
100
AcDbText
 10
182.3890270894183
 20
136.1336838108334
 30
0.0
 40
7.0
  1
und innenbeschichtet
 41
0.8
  7
GREEKS
100
AcDbText
  0
TEXT
  5
6FB
330
1E
100
AcDbEntity
  8
TEXT
 62
     1
100
AcDbText
 10
127.2400875687074
 20
123.5388484254513
 30
0.0
 40
7.0
  1
Dämmung: 2 K-PU-Schaum
 41
0.8
  7
GREEKS
100
AcDbText
  0
TEXT
  5
6FC
330
1E
100
AcDbEntity
  8
TEXT
 62
     1
100
AcDbText
 10
134.7344982134045
 20
147.4027376500592
 30
0.0
 40
7.0
  1
Innenrohr: E195 EN10305 feuerverzinkt
 41
0.8
  7
GREEKS
100
AcDbText
  0
TEXT
  5
6FD
330
1E
100
AcDbEntity
  8
TEXT
 62
     1
100
AcDbText
 10
130.9622808425405
 20
158.7558056864142
 30
0.0
 40
7.0
  1
Außenrohr: E195 EN10305, P235 TR1 EN10217-1 feuerverzinkt
 41
0.8
  7
GREEKS
100
AcDbText
  0
DIMENSION
  5
21B2
330
1E
100
AcDbEntity
  8
BEM
100
AcDbDimension
  2
*D2
 10
305.760764849103
 20
538.7022980881104
 30
0.0
 11
221.7607648491031
 21
545.2022980881103
 31
0.0
 70
    32
  1
%%c<>
 71
     5
 42
167.9999999999999
  3
Standard
100
AcDbAlignedDimension
 13
137.7607648491031
 23
527.6553465483354
 33
0.0
 14
305.760764849103
 24
527.6553465483354
 34
0.0
100
AcDbRotatedDimension
1001
ACAD
1000
DSTYLE
1002
{
1070
    40
1040
2.0
1070
    41
1040
3.5
1070
    42
1040
1.0
1070
    43
1040
7.0
1070
    44
1040
1.0
1070
    47
1040
0.15
1070
    48
1040
0.15
1070
    73
1070
     0
1070
    74
1070
     0
1070
    77
1070
     1
1070
    78
1070
     8
1070
    79
1070
     2
1070
   140
1040
3.5
1070
   141
1040
1.5
1070
   146
1040
0.5142857142857144
1070
   147
1040
1.5
1070
   172
1070
     1
1070
   178
1070
     1
1070
   179
1070
     2
1070
   271
1070
     2
1070
   272
1070
     2
1070
   284
1070
     8
1070
   285
1070
     8
1070
   286
1070
     8
1002
}
  0
DIMENSION
  5
21B3
330
1E
100
AcDbEntity
  8
BEM
100
AcDbDimension
  2
*D3
 10
288.260764849103
 20
230.5836056788855
 30
0.0
 11
221.7607648491031
 21
237.0836056788856
 31
0.0
 70
    32
  1
%%c<>
 71
     5
 42
132.9999999999999
  3
Standard
100
AcDbAlignedDimension
 13
155.2607648491031
 23
325.6553465483354
 33
0.0
 14
288.260764849103
 24
325.6553465483354
 34
0.0
100
AcDbRotatedDimension
1001
ACAD
1000
DSTYLE
1002
{
1070
    40
1040
2.0
1070
    41
1040
3.5
1070
    42
1040
1.0
1070
    43
1040
7.0
1070
    44
1040
1.0
1070
    47
1040
0.15
1070
    48
1040
0.15
1070
    73
1070
     0
1070
    74
1070
     0
1070
    77
1070
     1
1070
    78
1070
     8
1070
    79
1070
     2
1070
   140
1040
3.5
1070
   141
1040
1.5
1070
   146
1040
0.5142857142857144
1070
   147
1040
1.5
1070
   172
1070
     1
1070
   178
1070
     1
1070
   179
1070
     2
1070
   271
1070
     2
1070
   272
1070
     2
1070
   284
1070
     8
1070
   285
1070
     8
1070
   286
1070
     8
1002
}
  0
DIMENSION
  5
21B4
330
1E
100
AcDbEntity
  8
BEM
100
AcDbDimension
  2
*D4
 10
170.7607648491031
 20
246.3934971020046
 30
0.0
 11
221.7607648491031
 21
252.8934971020046
 31
0.0
 70
    32
  1
%%c<>
 71
     5
 42
101.9999999999999
  3
Standard
100
AcDbAlignedDimension
 13
272.760764849103
 23
279.5680246625181
 33
0.0
 14
170.7607648491031
 24
279.5680246625185
 34
0.0
100
AcDbRotatedDimension
1001
ACAD
1000
DSTYLE
1002
{
1070
    40
1040
2.0
1070
    41
1040
3.5
1070
    42
1040
1.0
1070
    43
1040
7.0
1070
    44
1040
1.0
1070
    47
1040
0.15
1070
    48
1040
0.15
1070
    73
1070
     0
1070
    74
1070
     0
1070
    77
1070
     1
1070
    78
1070
     8
1070
    79
1070
     2
1070
   140
1040
3.5
1070
   141
1040
1.5
1070
   146
1040
0.5142857142857144
1070
   147
1040
1.5
1070
   172
1070
     1
1070
   178
1070
     1
1070
   179
1070
     2
1070
   271
1070
     2
1070
   272
1070
     2
1070
   284
1070
     8
1070
   285
1070
     8
1070
   286
1070
     8
1002
}
  0
HATCH
  5
21B5
330
1E
100
AcDbEntity
  8
SCHRAFF
100
AcDbHatch
 10
0.0
 20
0.0
 30
0.0
210
0.0
220
0.0
230
1.0
  2
_USER
 70
     0
 71
     1
 91
        2
 92
        7
 72
     1
 73
     1
 93
        8
 10
288.2607648491031
 20
382.9339869983395
 42
-0.1164338214658525
 10
290.3722210291048
 20
391.8782589083386
 42
0.0
 10
297.010764849103
 20
405.1553465483354
 42
0.0
 10
294.2156798772282
 20
405.1553465483354
 42
0.0
 10
288.1361530516049
 20
392.9962928970886
 42
0.1164338214658531
 10
285.7607648491031
 20
382.9339869983395
 42
0.0
 10
285.7607648491031
 20
327.6553465483354
 42
0.0
 10
288.260764849103
 20
327.6553465483354
 42
0.0
 97
        8
330
2228
330
2217
330
2237
330
2218
330
222A
330
221D
330
2220
330
221C
 92
        7
 72
     1
 73
     1
 93
        8
 10
157.7607648491031
 20
382.9339869983395
 42
0.1164338214658526
 10
155.3853766466012
 20
392.9962928970885
 42
0.0
 10
149.3058498209778
 20
405.1553465483354
 42
0.0
 10
146.5107648491031
 20
405.1553465483354
 42
0.0
 10
153.1493086691014
 20
391.8782589083386
 42
-0.1164338214658541
 10
155.2607648491031
 20
382.9339869983394
 42
0.0
 10
155.2607648491031
 20
327.6553465483354
 42
0.0
 10
157.7607648491031
 20
327.6553465483354
 42
0.0
 97
        8
330
21E3
330
21D3
330
21EE
330
21D4
330
21E4
330
21D8
330
21D9
330
21D7
 75
     0
 76
     0
 52
135.0
 41
2.0
 77
     0
 78
     1
 53
135.0
 43
29.05696802464854
 44
7.673147697000558
 45
-1.414213562373095
 46
-1.414213562373094
 79
     0
 47
0.4930193599765056
 98
        2
 10
286.5307757116138
 20
375.0891586864502
 10
157.2637037101854
 20
363.7497138523063
  0
HATCH
  5
21B6
330
1E
100
AcDbEntity
  8
SCHRAFF
100
AcDbHatch
 10
0.0
 20
0.0
 30
0.0
210
0.0
220
0.0
230
1.0
  2
_USER
 70
     0
 71
     1
 91
        2
 92
        7
 72
     1
 73
     1
 93
        8
 10
305.760764849103
 20
527.6553465483353
 42
0.0
 10
303.260764849103
 20
527.6553465483353
 42
0.0
 10
303.260764849103
 20
427.9668760420807
 42
-0.1164338214658537
 10
301.1493086691014
 20
419.0226041320815
 42
0.0
 10
294.2156798772282
 20
405.1553465483354
 42
0.0
 10
297.0107648491029
 20
405.1553465483354
 42
0.0
 10
303.3853766466011
 20
417.9045701433316
 42
0.116433821465854
 10
305.760764849103
 20
427.9668760420807
 42
0.0
 97
        8
330
21C5
330
2212
330
2234
330
2238
330
2237
330
2239
330
2216
330
2213
 92
        7
 72
     1
 73
     1
 93
        8
 10
137.7607648491031
 20
427.9668760420807
 42
0.116433821465854
 10
140.136153051605
 20
417.9045701433316
 42
0.0
 10
146.5107648491031
 20
405.1553465483354
 42
0.0
 10
149.3058498209778
 20
405.1553465483353
 42
0.0
 10
142.3722210291048
 20
419.0226041320815
 42
-0.1164338214658541
 10
140.2607648491031
 20
427.9668760420807
 42
0.0
 10
140.2607648491031
 20
527.6553465483356
 42
0.0
 10
137.7607648491031
 20
527.6553465483354
 42
0.0
 97
        8
330
21C5
330
21D0
330
21E9
330
21E8
330
21EE
330
21ED
330
21E7
330
21CF
 75
     0
 76
     0
 52
45.0
 41
2.0
 77
     0
 78
     1
 53
45.0
 43
29.05696802464854
 44
7.673147697000558
 45
-1.414213562373094
 46
1.414213562373095
 79
     0
 47
0.4930193599765056
 98
        2
 10
304.7860468020599
 20
459.8884884973036
 10
139.0084299148411
 20
483.0603994534251
  0
HATCH
  5
21B8
330
1E
100
AcDbEntity
  8
SCHRAFF
100
AcDbHatch
 10
0.0
 20
0.0
 30
0.0
210
0.0
220
0.0
230
1.0
  2
NET
 70
     0
 71
     1
 91
        2
 92
        7
 72
     1
 73
     1
 93
        6
 10
303.2607648491031
 20
527.6553465483353
 42
0.0
 10
294.5192096465095
 20
527.6553465483353
 42
0.0
 10
294.9499984602021
 20
526.7315169560934
 42
-0.1095178116832519
 10
297.7607648491031
 20
514.0529691038713
 42
0.0
 10
297.7607648491031
 20
511.6553465483353
 42
0.0
 10
303.2607648491029
 20
511.6553465483351
 42
0.0
 97
        6
330
21C5
330
224A
330
2247
330
2243
330
2246
330
2212
 92
        7
 72
     1
 73
     1
 93
        6
 10
148.5715312380042
 20
526.7315169560934
 42
0.0
 10
149.002320051697
 20
527.6553465483354
 42
0.0
 10
140.2607648491031
 20
527.6553465483354
 42
0.0
 10
140.2607648491031
 20
511.6553465483353
 42
0.0
 10
145.7607648491032
 20
511.6553465483354
 42
0.0
 10
145.7607648491032
 20
514.052969103871
 42
-0.1095178116832539
 97
        6
330
2205
330
21C5
330
21CF
330
2201
330
2202
330
2207
 75
     0
 76
     1
 52
45.0
 41
15.0
 77
     0
 78
     2
 53
45.0
 43
0.0
 44
0.0
 45
-1.325825214724776
 46
1.325825214724776
 79
     0
 53
135.0
 43
0.0
 44
0.0
 45
-1.325825214724776
 46
-1.325825214724776
 79
     0
 47
0.4930193599765056
 98
        2
 10
301.3323462811868
 20
520.0368518859147
 10
144.4356728176712
 20
522.0089286398688
  0
HATCH
  5
21B9
330
1E
100
AcDbEntity
  8
SCHRAFF
100
AcDbHatch
 10
0.0
 20
0.0
 30
0.0
210
0.0
220
0.0
230
1.0
  2
HONEY
 70
     0
 71
     1
 91
        2
 92
        7
 72
     1
 73
     1
 93
       23
 10
288.2607648491032
 20
427.0226041320811
 42
-0.1164338214658512
 10
286.3076678826016
 20
418.7491526153321
 42
0.0
 10
282.549619231103
 20
411.2330553123349
 42
-0.9592701018639887
 10
279.2752021436867
 20
403.9414397847941
 42
0.0
 10
273.6190445584799
 20
389.8010458217775
 42
0.0954145723997612
 10
272.760764849103
 20
385.3443577055282
 42
0.0
 10
272.760764849103
 20
345.1553465483354
 42
0.0
 10
284.2607648491029
 20
345.1553465483354
 42
0.0
 10
285.7607648491031
 20
343.6553465483353
 42
0.0
 10
285.7607648491031
 20
382.9339869983395
 42
-0.1164338214658552
 10
288.1361530516049
 20
392.9962928970887
 42
0.0
 10
294.2156798772282
 20
405.1553465483354
 42
0.0
 10
301.1493086691014
 20
419.0226041320815
 42
0.1164338214658537
 10
303.260764849103
 20
427.9668760420807
 42
0.0
 10
303.260764849103
 20
511.6553465483352
 42
0.0
 10
297.7607648491032
 20
511.6553465483354
 42
0.0
 10
297.7607648491031
 20
494.9463465483353
 42
0.0
 10
297.7605011087952
 20
494.9463465483353
 42
-0.109549420553722
 10
294.9481752181176
 20
482.26451335759
 42
0.1095494205538418
 10
293.2607648491031
 20
474.6553465483351
 42
0.0
 10
293.2607648491032
 20
461.1240659710065
 42
-0.1528962216020431
 10
290.0464791348174
 20
450.8584606278605
 42
0.1528962216020326
 10
288.2607648491032
 20
445.1553465483352
 42
0.0
 97
       23
330
2246
330
2243
330
2245
330
2215
330
2241
330
223D
330
223F
330
223A
330
222C
330
222D
330
2231
330
222F
330
221A
330
2229
330
220B
330
2221
330
2227
330
221D
330
222A
330
2218
330
2238
330
2234
330
2212
 92
        7
 72
     1
 73
     1
 93
       23
 10
155.2607648491031
 20
427.0226041320813
 42
0.0
 10
155.2607648491031
 20
445.1553465483353
 42
0.1528962216020371
 10
153.4750505633888
 20
450.8584606278606
 42
-0.1528962216020398
 10
150.2607648491031
 20
461.1240659710065
 42
0.0
 10
150.2607648491031
 20
474.6553465483352
 42
0.1095494205537668
 10
148.5733544800909
 20
482.2645133575853
 42
-0.1095494205537667
 10
145.761028589411
 20
494.9463465483353
 42
0.0
 10
145.7607648491032
 20
494.9463465483353
 42
0.0
 10
145.7607648491032
 20
511.6553465483354
 42
0.0
 10
140.2607648491031
 20
511.6553465483353
 42
0.0
 10
140.2607648491031
 20
427.9668760420807
 42
0.1164338214658541
 10
142.3722210291048
 20
419.0226041320815
 42
0.0
 10
149.3058498209778
 20
405.1553465483354
 42
0.0
 10
155.3853766466012
 20
392.9962928970886
 42
-0.1164338214658533
 10
157.7607648491031
 20
382.9339869983395
 42
0.0
 10
157.7607648491031
 20
343.6553465483354
 42
0.0
 10
159.2607648491029
 20
345.1553465483353
 42
0.0
 10
170.7607648491031
 20
345.1553465483353
 42
0.0
 10
170.7607648491031
 20
385.3443577055283
 42
0.0954145723997598
 10
169.9024851397262
 20
389.8010458217776
 42
0.0
 10
164.2463275545195
 20
403.9414397847941
 42
-0.9592701018639246
 10
160.9719104671033
 20
411.2330553123349
 42
0.0
 10
157.2138618156047
 20
418.7491526153321
 42
-0.1164338214658541
 97
       23
330
21EA
330
21FC
330
21FA
330
21F8
330
21FE
330
21D1
330
2204
330
2202
330
2201
330
21CF
330
21E7
330
21ED
330
21D3
330
21E3
330
21D7
330
21DE
330
21DC
330
21C9
330
21E6
330
21D6
330
21F4
330
21F5
330
21EC
 75
     0
 76
     1
 52
0.0
 41
25.0
 77
     0
 78
     3
 53
0.0
 43
0.0
 44
0.0
 45
4.6875
 46
2.706329374999999
 79
     2
 49
3.125
 49
-6.25
 53
120.0
 43
0.0
 44
0.0
 45
-4.687499989758061
 46
2.706329392739557
 79
     2
 49
3.125
 49
-6.25
 53
60.0
 43
0.0
 44
0.0
 45
0.0000000102419385
 46
5.412658767739556
 79
     2
 49
-6.25
 49
3.125
 47
0.4930193599765056
 98
        2
 10
291.4646316665058
 20
434.7445021867911
 10
148.8761445295226
 20
425.3771341066012
  0
INSERT
  5
21BA
330
1E
100
AcDbEntity
  8
SCHRAFF
100
AcDbBlockReference
  2
*X1
 10
-16.07238163178954
 20
13.26444702443422
 30
0.0
1001
ACAD
1000
HATCH
1002
{
1070
    16
1000
_U,I
1040
0.1
1040
2.356194490192344
1070
     0
1002
}
  0
LINE
  5
21C1
330
1E
100
AcDbEntity
  8
HILF
100
AcDbLine
 10
268.760764849103
 20
279.6553465483353
 30
0.0
 11
174.7607648491031
 21
279.6553465483354
 31
0.0
  0
LINE
  5
21C2
330
1E
100
AcDbEntity
  8
HILF
100
AcDbLine
 10
268.9285404138437
 20
387.6553465483354
 30
0.0
 11
174.5929892843624
 21
387.6553465483354
 31
0.0
  0
LINE
  5
21C3
102
{ACAD_REACTORS
330
239A
102
}
330
1E
100
AcDbEntity
  8
STEMPEL
100
AcDbLine
 10
271.7185405618785
 20
267.6553465483353
 30
0.0
 11
171.8029891363276
 21
267.6553465483354
 31
0.0
  0
LINE
  5
21C4
102
{ACAD_REACTORS
330
239A
330
23D5
102
}
330
1E
100
AcDbEntity
  8
STEMPEL
100
AcDbLine
 10
280.7607648491031
 20
407.6553465483352
 30
0.0
 11
162.7607648491031
 21
407.6553465483352
 31
0.0
  0
LINE
  5
21C5
102
{ACAD_REACTORS
330
21B8
330
21B6
330
23D5
102
}
330
1E
100
AcDbEntity
  8
STEMPEL
100
AcDbLine
 10
305.7607648491031
 20
527.6553465483353
 30
0.0
 11
137.7607648491031
 21
527.6553465483354
 31
0.0
  0
DIMENSION
  5
21C6
330
1E
100
AcDbEntity
  8
BEM
100
AcDbDimension
  2
*D5
 10
118.2389416586607
 20
267.6553465483355
 30
0.0
 11
111.7389416586606
 21
397.6553465483355
 31
0.0
 70
    32
 71
     5
 42
260.0
  3
Standard
100
AcDbAlignedDimension
 13
137.7607648491031
 23
527.6553465483354
 33
0.0
 14
171.8029891363276
 24
267.6553465483354
 34
0.0
 50
90.0
100
AcDbRotatedDimension
1001
ACAD
1000
DSTYLE
1002
{
1070
    40
1040
2.0
1070
    41
1040
3.5
1070
    42
1040
1.0
1070
    43
1040
7.0
1070
    44
1040
1.0
1070
    47
1040
0.15
1070
    48
1040
0.15
1070
    73
1070
     0
1070
    74
1070
     0
1070
    77
1070
     1
1070
    78
1070
     8
1070
    79
1070
     2
1070
   140
1040
3.5
1070
   141
1040
1.5
1070
   146
1040
0.5142857142857144
1070
   147
1040
1.5
1070
   172
1070
     1
1070
   178
1070
     1
1070
   179
1070
     2
1070
   271
1070
     2
1070
   272
1070
     2
1070
   284
1070
     8
1070
   285
1070
     8
1070
   286
1070
     8
1002
}
  0
LINE
  5
21C8
102
{ACAD_REACTORS
330
239A
102
}
330
1E
100
AcDbEntity
  8
STEMPEL
100
AcDbLine
 10
172.7607648491031
 20
385.3443577055283
 30
0.0
 11
172.7607648491031
 21
279.6553465483356
 31
0.0
  0
LINE
  5
21C9
102
{ACAD_REACTORS
330
21B9
330
239A
102
}
330
1E
100
AcDbEntity
  8
STEMPEL
100
AcDbLine
 10
170.7607648491031
 20
385.3443577055283
 30
0.0
 11
170.7607648491031
 21
279.5680246625185
 31
0.0
  0
LINE
  5
21CA
330
1E
100
AcDbEntity
  8
MITTEL
100
AcDbLine
 10
221.7607648491031
 20
532.6553465483352
 30
0.0
 11
221.7607648491031
 21
262.6553465483353
 31
0.0
  0
TEXT
  5
21CB
330
1E
100
AcDbEntity
  8
TEXT
 62
     1
100
AcDbText
 10
216.538975540451
 20
294.1383167680444
 30
0.0
 40
7.0
  1
DN100
 50
90.0
 41
0.8
  7
GREEKS
100
AcDbText
  0
LINE
  5
21CC
102
{ACAD_REACTORS
330
239A
102
}
330
1E
100
AcDbEntity
  8
STEMPEL
100
AcDbLine
 10
172.7607648491031
 20
279.6553465483356
 30
0.0
 11
173.8106288114142
 21
267.6553465483354
 31
0.0
  0
LINE
  5
21CD
102
{ACAD_REACTORS
330
239A
102
}
330
1E
100
AcDbEntity
  8
STEMPEL
100
AcDbLine
 10
170.7607648491031
 20
279.5680246625185
 30
0.0
 11
171.8029891363276
 21
267.6553465483354
 31
0.0
  0
LINE
  5
21CF
102
{ACAD_REACTORS
330
21B9
330
21B8
330
21B6
102
}
330
1E
100
AcDbEntity
  8
STEMPEL
100
AcDbLine
 10
140.2607648491031
 20
527.6553465483354
 30
0.0
 11
140.2607648491031
 21
427.9668760420807
 31
0.0
  0
LINE
  5
21D0
102
{ACAD_REACTORS
330
21B6
102
}
330
1E
100
AcDbEntity
  8
STEMPEL
100
AcDbLine
 10
137.7607648491031
 20
527.6553465483354
 30
0.0
 11
137.7607648491031
 21
427.9668760420807
 31
0.0
  0
ARC
  5
21D1
102
{ACAD_REACTORS
330
21B9
330
23D5
102
}
330
1E
100
AcDbEntity
  8
STEMPEL
100
AcDbCircle
 10
175.7607648491031
 20
494.9463465483353
 30
0.0
 40
29.99973625969209
100
AcDbArc
 50
180.0
 51
205.0071583365467
  0
ARC
  5
21D2
102
{ACAD_REACTORS
330
23D5
102
}
330
1E
100
AcDbEntity
  8
STEMPEL
100
AcDbCircle
 10
175.7607648491031
 20
494.9463465483353
 30
0.0
 40
27.5
100
AcDbArc
 50
180.0
 51
204.843168930035
  0
LINE
  5
21D3
102
{ACAD_REACTORS
330
21B9
330
21B5
102
}
330
1E
100
AcDbEntity
  8
STEMPEL
100
AcDbLine
 10
155.3853766466012
 20
392.9962928970886
 30
0.0
 11
149.3058498209778
 21
405.1553465483354
 31
0.0
  0
LINE
  5
21D4
102
{ACAD_REACTORS
330
21B5
102
}
330
1E
100
AcDbEntity
  8
STEMPEL
100
AcDbLine
 10
153.1493086691014
 20
391.8782589083386
 30
0.0
 11
146.5107648491031
 21
405.1553465483354
 31
0.0
  0
LINE
  5
21D5
102
{ACAD_REACTORS
330
239A
102
}
330
1E
100
AcDbEntity
  8
STEMPEL
100
AcDbLine
 10
164.914830771957
 20
407.6553465483353
 30
0.0
 11
171.7594385214968
 21
390.5438271744858
 31
0.0
  0
LINE
  5
21D6
102
{ACAD_REACTORS
330
21B9
330
239A
102
}
330
1E
100
AcDbEntity
  8
STEMPEL
100
AcDbLine
 10
162.7607648491031
 20
407.6553465483353
 30
0.0
 11
169.9024851397262
 21
389.8010458217776
 31
0.0
  0
LINE
  5
21D7
102
{ACAD_REACTORS
330
21B9
330
21B5
102
}
330
1E
100
AcDbEntity
  8
STEMPEL
100
AcDbLine
 10
157.7607648491031
 20
382.9339869983395
 30
0.0
 11
157.7607648491031
 21
327.6553465483354
 31
0.0
  0
LINE
  5
21D8
102
{ACAD_REACTORS
330
21B5
102
}
330
1E
100
AcDbEntity
  8
STEMPEL
100
AcDbLine
 10
155.2607648491031
 20
382.9339869983395
 30
0.0
 11
155.2607648491031
 21
325.6553465483354
 31
0.0
  0
LINE
  5
21D9
102
{ACAD_REACTORS
330
21B5
102
}
330
1E
100
AcDbEntity
  8
STEMPEL
100
AcDbLine
 10
157.7607648491031
 20
327.6553465483354
 30
0.0
 11
155.2607648491031
 21
327.6553465483354
 31
0.0
  0
LINE
  5
21DB
330
1E
100
AcDbEntity
  8
STEMPEL
100
AcDbLine
 10
157.7607648491031
 20
327.6553465483354
 30
0.0
 11
157.7607648491031
 21
343.6553465483354
 31
0.0
  0
LINE
  5
21DC
102
{ACAD_REACTORS
330
21B9
102
}
330
1E
100
AcDbEntity
  8
STEMPEL
100
AcDbLine
 10
159.2607648491029
 20
345.1553465483353
 30
0.0
 11
170.7607648491031
 21
345.1553465483353
 31
0.0
  0
LINE
  5
21DE
102
{ACAD_REACTORS
330
21B9
102
}
330
1E
100
AcDbEntity
  8
STEMPEL
100
AcDbLine
 10
157.7607648491031
 20
343.6553465483354
 30
0.0
 11
159.2607648491031
 21
345.1553465483354
 31
0.0
  0
LINE
  5
21E0
330
1E
100
AcDbEntity
  8
STEMPEL
100
AcDbLine
 10
165.7607648491031
 20
333.6553465483354
 30
0.0
 11
170.7607648491031
 21
333.6553465483353
 31
0.0
  0
ARC
  5
21E3
102
{ACAD_REACTORS
330
21B9
330
21B5
102
}
330
1E
100
AcDbEntity
  8
STEMPEL
100
AcDbCircle
 10
135.2607648491031
 20
382.9339869983395
 30
0.0
 40
22.5
100
AcDbArc
 50
0.0
 51
26.56505117707799
  0
ARC
  5
21E4
102
{ACAD_REACTORS
330
21B5
102
}
330
1E
100
AcDbEntity
  8
STEMPEL
100
AcDbCircle
 10
135.2607648491031
 20
382.9339869983395
 30
0.0
 40
20.0
100
AcDbArc
 50
0.0
 51
26.56505117707799
  0
ARC
  5
21E5
102
{ACAD_REACTORS
330
239A
102
}
330
1E
100
AcDbEntity
  8
STEMPEL
100
AcDbCircle
 10
158.7607648491031
 20
385.3443577055283
 30
0.0
 40
14.0
100
AcDbArc
 50
0.0
 51
21.80140948635242
  0
ARC
  5
21E6
102
{ACAD_REACTORS
330
21B9
330
239A
102
}
330
1E
100
AcDbEntity
  8
STEMPEL
100
AcDbCircle
 10
158.7607648491031
 20
385.3443577055283
 30
0.0
 40
12.0
100
AcDbArc
 50
0.0
 51
21.80140948635242
  0
ARC
  5
21E7
102
{ACAD_REACTORS
330
21B9
330
21B6
102
}
330
1E
100
AcDbEntity
  8
STEMPEL
100
AcDbCircle
 10
160.2607648491031
 20
427.9668760420807
 30
0.0
 40
20.0
100
AcDbArc
 50
180.0
 51
206.565051177078
  0
LINE
  5
21E8
102
{ACAD_REACTORS
330
21B6
102
}
330
1E
100
AcDbEntity
  8
STEMPEL
100
AcDbLine
 10
146.5107648491031
 20
405.1553465483354
 30
0.0
 11
140.136153051605
 21
417.9045701433316
 31
0.0
  0
ARC
  5
21E9
102
{ACAD_REACTORS
330
21B6
102
}
330
1E
100
AcDbEntity
  8
STEMPEL
100
AcDbCircle
 10
160.2607648491031
 20
427.9668760420807
 30
0.0
 40
22.5
100
AcDbArc
 50
180.0
 51
206.565051177078
  0
LINE
  5
21EA
102
{ACAD_REACTORS
330
21B9
330
23D5
102
}
330
1E
100
AcDbEntity
  8
STEMPEL
100
AcDbLine
 10
155.2607648491031
 20
445.1553465483353
 30
0.0
 11
155.2607648491031
 21
427.0226041320813
 31
0.0
  0
LINE
  5
21EB
102
{ACAD_REACTORS
330
23D5
102
}
330
1E
100
AcDbEntity
  8
STEMPEL
100
AcDbLine
 10
157.7607648491031
 20
445.1553465483353
 30
0.0
 11
157.7607648491031
 21
427.0226041320814
 31
0.0
  0
ARC
  5
21EC
102
{ACAD_REACTORS
330
21B9
330
23D5
102
}
330
1E
100
AcDbEntity
  8
STEMPEL
100
AcDbCircle
 10
173.7607648491031
 20
427.0226041320813
 30
0.0
 40
18.5
100
AcDbArc
 50
180.0
 51
206.565051177078
  0
LINE
  5
21ED
102
{ACAD_REACTORS
330
21B9
330
21B6
102
}
330
1E
100
AcDbEntity
  8
STEMPEL
100
AcDbLine
 10
149.3058498209778
 20
405.1553465483354
 30
0.0
 11
142.3722210291048
 21
419.0226041320815
 31
0.0
  0
LINE
  5
21EE
102
{ACAD_REACTORS
330
21B6
330
21B5
102
}
330
1E
100
AcDbEntity
  8
STEMPEL
100
AcDbLine
 10
149.3058498209778
 20
405.1553465483354
 30
0.0
 11
146.5107648491031
 21
405.1553465483354
 31
0.0
  0
ARC
  5
21EF
330
1E
100
AcDbEntity
  8
SCHRAFF
100
AcDbCircle
 10
149.5988241409558
 20
406.6993761942617
 30
0.0
 40
5.649790946353427
100
AcDbArc
 50
154.2337238975334
 51
258.8963784566205
  0
HATCH
  5
21F0
330
1E
100
AcDbEntity
  8
SCHRAFF
100
AcDbHatch
 10
0.0
 20
0.0
 30
0.0
210
0.0
220
0.0
230
1.0
  2
_USER
 70
     0
 71
     0
 91
        1
 92
        7
 72
     1
 73
     1
 93
        3
 10
146.5107648491031
 20
405.1553465483354
 42
0.0
 10
144.5107648491031
 20
409.1553465483353
 42
0.4913168385077328
 10
148.5107648491031
 20
401.1553465483354
 42
0.0
 97
        0
 75
     0
 76
     0
 52
0.0
 41
0.1
 77
     0
 78
     1
 53
0.0
 43
29.05696802464854
 44
7.673147697000558
 45
0.0
 46
0.1
 79
     0
 47
0.070152952899689
 98
        1
 10
145.0792194817786
 20
404.2065311789685
  0
POINT
  5
21F1
330
1E
100
AcDbEntity
  8
STEMPEL
100
AcDbPoint
 10
155.2607648491031
 20
427.0226041320814
 30
0.0
  0
ARC
  5
21F2
102
{ACAD_REACTORS
330
23D5
102
}
330
1E
100
AcDbEntity
  8
STEMPEL
100
AcDbCircle
 10
173.7607648491031
 20
427.0226041320813
 30
0.0
 40
16.0
100
AcDbArc
 50
180.0
 51
206.565051177078
  0
LINE
  5
21F3
102
{ACAD_REACTORS
330
23D5
102
}
330
1E
100
AcDbEntity
  8
STEMPEL
100
AcDbLine
 10
159.4499297931045
 20
419.867186604082
 30
0.0
 11
165.5558498209778
 21
407.6553465483353
 31
0.0
  0
ARC
  5
21F4
102
{ACAD_REACTORS
330
21B9
102
}
330
1E
100
AcDbEntity
  8
SCHRAFF
100
AcDbCircle
 10
162.7607648491031
 20
407.6553465483352
 30
0.0
 40
4.0
100
AcDbArc
 50
116.5650511770765
 51
291.8014094863524
  0
LINE
  5
21F5
102
{ACAD_REACTORS
330
21B9
330
23D5
102
}
330
1E
100
AcDbEntity
  8
STEMPEL
100
AcDbLine
 10
157.2138618156047
 20
418.7491526153321
 30
0.0
 11
162.7607648491031
 21
407.6553465483353
 31
0.0
  0
POINT
  5
21F6
330
1E
100
AcDbEntity
  8
STEMPEL
100
AcDbPoint
 10
162.7607648491031
 20
407.6553465483352
 30
0.0
  0
ARC
  5
21F7
102
{ACAD_REACTORS
330
23D5
102
}
330
1E
100
AcDbEntity
  8
STEMPEL
100
AcDbCircle
 10
145.2607648491031
 20
445.1553465483353
 30
0.0
 40
12.5
100
AcDbArc
 50
0.0
 51
34.77194403194904
  0
LINE
  5
21F8
102
{ACAD_REACTORS
330
21B9
330
23D5
102
}
330
1E
100
AcDbEntity
  8
STEMPEL
100
AcDbLine
 10
150.2607648491031
 20
474.6553465483352
 30
0.0
 11
150.2607648491031
 21
461.1240659710065
 31
0.0
  0
LINE
  5
21F9
102
{ACAD_REACTORS
330
23D5
102
}
330
1E
100
AcDbEntity
  8
STEMPEL
100
AcDbLine
 10
152.7607648491031
 20
474.6553465483353
 30
0.0
 11
152.7607648491031
 21
461.1240659710065
 31
0.0
  0
ARC
  5
21FA
102
{ACAD_REACTORS
330
21B9
330
23D5
102
}
330
1E
100
AcDbEntity
  8
STEMPEL
100
AcDbCircle
 10
168.2607648491031
 20
461.1240659710064
 30
0.0
 40
18.0
100
AcDbArc
 50
180.0
 51
214.7719440319491
  0
ARC
  5
21FB
102
{ACAD_REACTORS
330
23D5
102
}
330
1E
100
AcDbEntity
  8
STEMPEL
100
AcDbCircle
 10
168.2607648491031
 20
461.1240659710065
 30
0.0
 40
15.5
100
AcDbArc
 50
180.0
 51
214.7719440319491
  0
ARC
  5
21FC
102
{ACAD_REACTORS
330
21B9
330
23D5
102
}
330
1E
100
AcDbEntity
  8
STEMPEL
100
AcDbCircle
 10
145.2607648491031
 20
445.1553465483353
 30
0.0
 40
10.0
100
AcDbArc
 50
0.0
 51
34.77194403194904
  0
POINT
  5
21FD
330
1E
100
AcDbEntity
  8
STEMPEL
100
AcDbPoint
 10
150.2607648491031
 20
461.1240659710065
 30
0.0
  0
ARC
  5
21FE
102
{ACAD_REACTORS
330
21B9
330
23D5
102
}
330
1E
100
AcDbEntity
  8
STEMPEL
100
AcDbCircle
 10
132.2607648491031
 20
474.6553465483353
 30
0.0
 40
18.0
100
AcDbArc
 50
0.0
 51
25.00715833654666
  0
ARC
  5
21FF
102
{ACAD_REACTORS
330
23D5
102
}
330
1E
100
AcDbEntity
  8
STEMPEL
100
AcDbCircle
 10
132.2607648491031
 20
474.6553465483353
 30
0.0
 40
20.5
100
AcDbArc
 50
0.0
 51
25.22714436590734
  0
LINE
  5
2201
102
{ACAD_REACTORS
330
21B9
330
21B8
102
}
330
1E
100
AcDbEntity
  8
STEMPEL
100
AcDbLine
 10
145.7607648491032
 20
511.6553465483354
 30
0.0
 11
140.2607648491031
 21
511.6553465483355
 31
0.0
  0
LINE
  5
2202
102
{ACAD_REACTORS
330
21B9
330
21B8
330
23D5
102
}
330
1E
100
AcDbEntity
  8
STEMPEL
100
AcDbLine
 10
145.7607648491032
 20
514.052969103871
 30
0.0
 11
145.7607648491032
 21
494.9463465483353
 31
0.0
  0
LINE
  5
2203
102
{ACAD_REACTORS
330
23D5
102
}
330
1E
100
AcDbEntity
  8
STEMPEL
100
AcDbLine
 10
148.2607648491032
 20
514.052969103871
 30
0.0
 11
148.2607648491032
 21
494.9463465483353
 31
0.0
  0
LINE
  5
2204
102
{ACAD_REACTORS
330
21B9
330
23D5
102
}
330
1E
100
AcDbEntity
  8
STEMPEL
100
AcDbLine
 10
145.761028589411
 20
494.9463465483353
 30
0.0
 11
145.7607648491032
 21
494.9463465483353
 31
0.0
  0
LINE
  5
2205
102
{ACAD_REACTORS
330
21B8
330
23D5
102
}
330
1E
100
AcDbEntity
  8
STEMPEL
100
AcDbLine
 10
149.002320051697
 20
527.6553465483354
 30
0.0
 11
148.5715312380042
 21
526.7315169560934
 31
0.0
  0
ARC
  5
2206
102
{ACAD_REACTORS
330
23D5
102
}
330
1E
100
AcDbEntity
  8
STEMPEL
100
AcDbCircle
 10
175.7607648491031
 20
514.052969103871
 30
0.0
 40
27.5
100
AcDbArc
 50
155.0000000000036
 51
180.0
  0
ARC
  5
2207
102
{ACAD_REACTORS
330
21B8
330
23D5
102
}
330
1E
100
AcDbEntity
  8
STEMPEL
100
AcDbCircle
 10
175.7607648491031
 20
514.052969103871
 30
0.0
 40
30.0
100
AcDbArc
 50
155.0000000000036
 51
180.0
  0
LINE
  5
2208
102
{ACAD_REACTORS
330
23D5
102
}
330
1E
100
AcDbEntity
  8
STEMPEL
100
AcDbLine
 10
151.7607648491032
 20
527.6553465483354
 30
0.0
 11
150.8373007055956
 21
525.6749713017409
 31
0.0
  0
TEXT
  5
2209
330
1E
100
AcDbEntity
  8
TEXT
 62
     1
100
AcDbText
 10
216.538975540451
 20
492.9936085111901
 30
0.0
 40
7.0
  1
DN125
 50
90.0
 41
0.8
  7
GREEKS
100
AcDbText
  0
LINE
  5
220A
102
{ACAD_REACTORS
330
239A
102
}
330
1E
100
AcDbEntity
  8
STEMPEL
100
AcDbLine
 10
270.760764849103
 20
385.3443577055283
 30
0.0
 11
270.760764849103
 21
279.6553465483346
 31
0.0
  0
LINE
  5
220B
102
{ACAD_REACTORS
330
21B9
330
239A
102
}
330
1E
100
AcDbEntity
  8
STEMPEL
100
AcDbLine
 10
272.760764849103
 20
385.3443577055283
 30
0.0
 11
272.760764849103
 21
279.5680246625181
 31
0.0
  0
LINE
  5
2210
102
{ACAD_REACTORS
330
239A
102
}
330
1E
100
AcDbEntity
  8
STEMPEL
100
AcDbLine
 10
272.760764849103
 20
279.5680246625181
 30
0.0
 11
271.7185405618785
 21
267.6553465483353
 31
0.0
  0
LINE
  5
2211
102
{ACAD_REACTORS
330
239A
102
}
330
1E
100
AcDbEntity
  8
STEMPEL
100
AcDbLine
 10
270.760764849103
 20
279.6553465483346
 30
0.0
 11
269.7109008867919
 21
267.6553465483354
 31
0.0
  0
LINE
  5
2212
102
{ACAD_REACTORS
330
21B9
330
21B8
330
21B6
102
}
330
1E
100
AcDbEntity
  8
STEMPEL
100
AcDbLine
 10
303.260764849103
 20
527.6553465483354
 30
0.0
 11
303.260764849103
 21
427.9668760420807
 31
0.0
  0
LINE
  5
2213
102
{ACAD_REACTORS
330
21B6
102
}
330
1E
100
AcDbEntity
  8
STEMPEL
100
AcDbLine
 10
305.760764849103
 20
527.6553465483354
 30
0.0
 11
305.760764849103
 21
427.9668760420807
 31
0.0
  0
ARC
  5
2214
102
{ACAD_REACTORS
330
23D5
102
}
330
1E
100
AcDbEntity
  8
STEMPEL
100
AcDbCircle
 10
267.7607648491031
 20
494.9463465483353
 30
0.0
 40
27.5
100
AcDbArc
 50
335.1568310699692
 51
0.0
  0
ARC
  5
2215
102
{ACAD_REACTORS
330
21B9
330
23D5
102
}
330
1E
100
AcDbEntity
  8
STEMPEL
100
AcDbCircle
 10
267.7607648491031
 20
494.9463465483353
 30
0.0
 40
29.99973625969209
100
AcDbArc
 50
334.9928416634577
 51
0.0
  0
ARC
  5
2216
102
{ACAD_REACTORS
330
21B6
102
}
330
1E
100
AcDbEntity
  8
STEMPEL
100
AcDbCircle
 10
283.260764849103
 20
427.9668760420807
 30
0.0
 40
22.5
100
AcDbArc
 50
333.434948822922
 51
0.0
  0
LINE
  5
2217
102
{ACAD_REACTORS
330
21B5
102
}
330
1E
100
AcDbEntity
  8
STEMPEL
100
AcDbLine
 10
290.3722210291048
 20
391.8782589083386
 30
0.0
 11
297.010764849103
 21
405.1553465483354
 31
0.0
  0
LINE
  5
2218
102
{ACAD_REACTORS
330
21B9
330
21B5
102
}
330
1E
100
AcDbEntity
  8
STEMPEL
100
AcDbLine
 10
288.1361530516049
 20
392.9962928970886
 30
0.0
 11
294.2156798772282
 21
405.1553465483354
 31
0.0
  0
LINE
  5
2219
102
{ACAD_REACTORS
330
239A
102
}
330
1E
100
AcDbEntity
  8
STEMPEL
100
AcDbLine
 10
278.6066989262492
 20
407.6553465483353
 30
0.0
 11
271.7620911767094
 21
390.5438271744857
 31
0.0
  0
LINE
  5
221A
102
{ACAD_REACTORS
330
21B9
330
239A
102
}
330
1E
100
AcDbEntity
  8
STEMPEL
100
AcDbLine
 10
280.7607648491031
 20
407.6553465483353
 30
0.0
 11
273.6190445584799
 21
389.8010458217775
 31
0.0
  0
ARC
  5
221B
102
{ACAD_REACTORS
330
239A
102
}
330
1E
100
AcDbEntity
  8
STEMPEL
100
AcDbCircle
 10
284.760764849103
 20
385.3443577055283
 30
0.0
 40
14.0
100
AcDbArc
 50
158.1985905136476
 51
180.0
  0
LINE
  5
221C
102
{ACAD_REACTORS
330
21B5
102
}
330
1E
100
AcDbEntity
  8
STEMPEL
100
AcDbLine
 10
288.2607648491031
 20
382.9339869983395
 30
0.0
 11
288.260764849103
 21
325.655346548335
 31
0.0
  0
LINE
  5
221D
102
{ACAD_REACTORS
330
21B9
330
21B5
102
}
330
1E
100
AcDbEntity
  8
STEMPEL
100
AcDbLine
 10
285.7607648491031
 20
382.9339869983395
 30
0.0
 11
285.7607648491031
 21
327.6553465483354
 31
0.0
  0
LINE
  5
221F
330
1E
100
AcDbEntity
  8
STEMPEL
100
AcDbLine
 10
285.7607648491031
 20
327.6553465483354
 30
0.0
 11
285.7607648491031
 21
343.6553465483354
 31
0.0
  0
LINE
  5
2220
102
{ACAD_REACTORS
330
21B5
102
}
330
1E
100
AcDbEntity
  8
STEMPEL
100
AcDbLine
 10
288.260764849103
 20
327.6553465483353
 30
0.0
 11
285.7607648491031
 21
327.6553465483354
 31
0.0
  0
LINE
  5
2221
102
{ACAD_REACTORS
330
21B9
102
}
330
1E
100
AcDbEntity
  8
STEMPEL
100
AcDbLine
 10
272.760764849103
 20
345.1553465483354
 30
0.0
 11
284.260764849103
 21
345.1553465483354
 31
0.0
  0
LINE
  5
2223
330
1E
100
AcDbEntity
  8
STEMPEL
100
AcDbLine
 10
272.760764849103
 20
333.6553465483354
 30
0.0
 11
277.7607648491031
 21
333.6553465483354
 31
0.0
  0
LINE
  5
2227
102
{ACAD_REACTORS
330
21B9
102
}
330
1E
100
AcDbEntity
  8
STEMPEL
100
AcDbLine
 10
285.7607648491031
 20
343.6553465483354
 30
0.0
 11
284.260764849103
 21
345.1553465483354
 31
0.0
  0
ARC
  5
2228
102
{ACAD_REACTORS
330
21B5
102
}
330
1E
100
AcDbEntity
  8
STEMPEL
100
AcDbCircle
 10
308.260764849103
 20
382.9339869983395
 30
0.0
 40
20.0
100
AcDbArc
 50
153.434948822922
 51
180.0
  0
ARC
  5
2229
102
{ACAD_REACTORS
330
21B9
330
239A
102
}
330
1E
100
AcDbEntity
  8
STEMPEL
100
AcDbCircle
 10
284.760764849103
 20
385.3443577055283
 30
0.0
 40
12.0
100
AcDbArc
 50
158.1985905136476
 51
180.0
  0
ARC
  5
222A
102
{ACAD_REACTORS
330
21B9
330
21B5
102
}
330
1E
100
AcDbEntity
  8
STEMPEL
100
AcDbCircle
 10
308.260764849103
 20
382.9339869983395
 30
0.0
 40
22.5
100
AcDbArc
 50
153.434948822922
 51
180.0
  0
LINE
  5
222B
102
{ACAD_REACTORS
330
23D5
102
}
330
1E
100
AcDbEntity
  8
STEMPEL
100
AcDbLine
 10
285.7607648491031
 20
445.1553465483353
 30
0.0
 11
285.7607648491031
 21
427.0226041320811
 31
0.0
  0
LINE
  5
222C
102
{ACAD_REACTORS
330
21B9
330
23D5
102
}
330
1E
100
AcDbEntity
  8
STEMPEL
100
AcDbLine
 10
288.2607648491032
 20
445.1553465483353
 30
0.0
 11
288.2607648491032
 21
427.0226041320811
 31
0.0
  0
ARC
  5
222D
102
{ACAD_REACTORS
330
21B9
330
23D5
102
}
330
1E
100
AcDbEntity
  8
STEMPEL
100
AcDbCircle
 10
269.7607648491031
 20
427.0226041320811
 30
0.0
 40
18.5
100
AcDbArc
 50
333.434948822922
 51
0.0
  0
ARC
  5
222E
102
{ACAD_REACTORS
330
23D5
102
}
330
1E
100
AcDbEntity
  8
STEMPEL
100
AcDbCircle
 10
269.7607648491031
 20
427.0226041320811
 30
0.0
 40
16.0
100
AcDbArc
 50
333.434948822922
 51
0.0
  0
ARC
  5
222F
102
{ACAD_REACTORS
330
21B9
102
}
330
1E
100
AcDbEntity
  8
SCHRAFF
100
AcDbCircle
 10
280.7607648491031
 20
407.6553465483352
 30
0.0
 40
4.0
100
AcDbArc
 50
248.1985905136476
 51
63.43494882292347
  0
LINE
  5
2230
102
{ACAD_REACTORS
330
23D5
102
}
330
1E
100
AcDbEntity
  8
STEMPEL
100
AcDbLine
 10
284.0715999051017
 20
419.8671866040817
 30
0.0
 11
277.9656798772283
 21
407.6553465483353
 31
0.0
  0
LINE
  5
2231
102
{ACAD_REACTORS
330
21B9
330
23D5
102
}
330
1E
100
AcDbEntity
  8
STEMPEL
100
AcDbLine
 10
286.3076678826014
 20
418.7491526153318
 30
0.0
 11
280.7607648491031
 21
407.6553465483353
 31
0.0
  0
POINT
  5
2232
330
1E
100
AcDbEntity
  8
STEMPEL
100
AcDbPoint
 10
280.7607648491031
 20
407.6553465483352
 30
0.0
  0
POINT
  5
2233
330
1E
100
AcDbEntity
  8
STEMPEL
100
AcDbPoint
 10
288.2607648491032
 20
427.0226041320811
 30
0.0
  0
ARC
  5
2234
102
{ACAD_REACTORS
330
21B9
330
21B6
102
}
330
1E
100
AcDbEntity
  8
STEMPEL
100
AcDbCircle
 10
283.260764849103
 20
427.9668760420807
 30
0.0
 40
20.0
100
AcDbArc
 50
333.434948822922
 51
0.0
  0
HATCH
  5
2235
330
1E
100
AcDbEntity
  8
SCHRAFF
100
AcDbHatch
 10
0.0
 20
0.0
 30
0.0
210
0.0
220
0.0
230
1.0
  2
_USER
 70
     0
 71
     0
 91
        1
 92
        7
 72
     1
 73
     1
 93
        3
 10
297.0107648491031
 20
405.1553465483354
 42
0.0
 10
299.010764849103
 20
409.1553465483353
 42
-0.4913168385077328
 10
295.0107648491031
 20
401.1553465483354
 42
0.0
 97
        0
 75
     0
 76
     0
 52
0.0
 41
0.1
 77
     0
 78
     1
 53
180.0
 43
414.4645616735576
 44
7.673147697000558
 45
0.0
 46
0.1
 79
     0
 47
0.070152952899689
 98
        1
 10
298.4423102164276
 20
404.2065311789685
  0
ARC
  5
2236
330
1E
100
AcDbEntity
  8
SCHRAFF
100
AcDbCircle
 10
293.9227055572503
 20
406.6993761942617
 30
0.0
 40
5.649790946353427
100
AcDbArc
 50
281.1036215433795
 51
25.76627610246656
  0
LINE
  5
2237
102
{ACAD_REACTORS
330
21B6
330
21B5
102
}
330
1E
100
AcDbEntity
  8
STEMPEL
100
AcDbLine
 10
294.2156798772284
 20
405.1553465483354
 30
0.0
 11
297.010764849103
 21
405.1553465483354
 31
0.0
  0
LINE
  5
2238
102
{ACAD_REACTORS
330
21B9
330
21B6
102
}
330
1E
100
AcDbEntity
  8
STEMPEL
100
AcDbLine
 10
294.2156798772282
 20
405.1553465483354
 30
0.0
 11
301.1493086691014
 21
419.0226041320815
 31
0.0
  0
LINE
  5
2239
102
{ACAD_REACTORS
330
21B6
102
}
330
1E
100
AcDbEntity
  8
STEMPEL
100
AcDbLine
 10
297.010764849103
 20
405.1553465483354
 30
0.0
 11
303.3853766466011
 21
417.9045701433316
 31
0.0
  0
ARC
  5
223A
102
{ACAD_REACTORS
330
21B9
330
23D5
102
}
330
1E
100
AcDbEntity
  8
STEMPEL
100
AcDbCircle
 10
298.2607648491032
 20
445.1553465483353
 30
0.0
 40
10.0
100
AcDbArc
 50
145.2280559680509
 51
180.0
  0
ARC
  5
223B
102
{ACAD_REACTORS
330
23D5
102
}
330
1E
100
AcDbEntity
  8
STEMPEL
100
AcDbCircle
 10
275.2607648491031
 20
461.1240659710065
 30
0.0
 40
15.5
100
AcDbArc
 50
325.228055968051
 51
0.0
  0
ARC
  5
223C
102
{ACAD_REACTORS
330
23D5
102
}
330
1E
100
AcDbEntity
  8
STEMPEL
100
AcDbCircle
 10
298.2607648491032
 20
445.1553465483353
 30
0.0
 40
12.5
100
AcDbArc
 50
145.2280559680509
 51
180.0
  0
LINE
  5
223D
102
{ACAD_REACTORS
330
21B9
330
23D5
102
}
330
1E
100
AcDbEntity
  8
STEMPEL
100
AcDbLine
 10
293.2607648491031
 20
474.6553465483352
 30
0.0
 11
293.2607648491032
 21
461.1240659710065
 31
0.0
  0
LINE
  5
223E
102
{ACAD_REACTORS
330
23D5
102
}
330
1E
100
AcDbEntity
  8
STEMPEL
100
AcDbLine
 10
290.7607648491031
 20
474.6553465483353
 30
0.0
 11
290.7607648491031
 21
461.1240659710065
 31
0.0
  0
ARC
  5
223F
102
{ACAD_REACTORS
330
21B9
330
23D5
102
}
330
1E
100
AcDbEntity
  8
STEMPEL
100
AcDbCircle
 10
275.2607648491031
 20
461.1240659710064
 30
0.0
 40
18.0
100
AcDbArc
 50
325.228055968051
 51
0.0
  0
POINT
  5
2240
330
1E
100
AcDbEntity
  8
STEMPEL
100
AcDbPoint
 10
293.2607648491032
 20
461.1240659710065
 30
0.0
  0
ARC
  5
2241
102
{ACAD_REACTORS
330
21B9
330
23D5
102
}
330
1E
100
AcDbEntity
  8
STEMPEL
100
AcDbCircle
 10
311.2607648491031
 20
474.6553465483353
 30
0.0
 40
18.0
100
AcDbArc
 50
154.9928416634576
 51
180.0
  0
ARC
  5
2242
102
{ACAD_REACTORS
330
23D5
102
}
330
1E
100
AcDbEntity
  8
STEMPEL
100
AcDbCircle
 10
311.2607648491031
 20
474.6553465483353
 30
0.0
 40
20.5
100
AcDbArc
 50
154.772855634097
 51
180.0
  0
LINE
  5
2243
102
{ACAD_REACTORS
330
21B9
330
21B8
330
23D5
102
}
330
1E
100
AcDbEntity
  8
STEMPEL
100
AcDbLine
 10
297.7607648491031
 20
514.052969103871
 30
0.0
 11
297.7607648491031
 21
494.9463465483353
 31
0.0
  0
LINE
  5
2244
102
{ACAD_REACTORS
330
23D5
102
}
330
1E
100
AcDbEntity
  8
STEMPEL
100
AcDbLine
 10
295.2607648491031
 20
514.052969103871
 30
0.0
 11
295.2607648491031
 21
494.9463465483353
 31
0.0
  0
LINE
  5
2245
102
{ACAD_REACTORS
330
21B9
330
23D5
102
}
330
1E
100
AcDbEntity
  8
STEMPEL
100
AcDbLine
 10
297.7605011087952
 20
494.9463465483353
 30
0.0
 11
297.7607648491031
 21
494.9463465483353
 31
0.0
  0
LINE
  5
2246
102
{ACAD_REACTORS
330
21B9
330
21B8
102
}
330
1E
100
AcDbEntity
  8
STEMPEL
100
AcDbLine
 10
303.260764849103
 20
511.6553465483353
 30
0.0
 11
297.7607648491032
 21
511.6553465483353
 31
0.0
  0
ARC
  5
2247
102
{ACAD_REACTORS
330
21B8
330
23D5
102
}
330
1E
100
AcDbEntity
  8
STEMPEL
100
AcDbCircle
 10
267.7607648491031
 20
514.052969103871
 30
0.0
 40
30.0
100
AcDbArc
 50
0.0
 51
24.99999999999207
  0
ARC
  5
2248
102
{ACAD_REACTORS
330
23D5
102
}
330
1E
100
AcDbEntity
  8
STEMPEL
100
AcDbCircle
 10
267.7607648491031
 20
514.052969103871
 30
0.0
 40
27.5
100
AcDbArc
 50
0.0
 51
24.99999999999059
  0
LINE
  5
2249
102
{ACAD_REACTORS
330
23D5
102
}
330
1E
100
AcDbEntity
  8
STEMPEL
100
AcDbLine
 10
291.7607648491031
 20
527.6553465483354
 30
0.0
 11
292.6842289926108
 21
525.6749713017409
 31
0.0
  0
LINE
  5
224A
102
{ACAD_REACTORS
330
21B8
330
23D5
102
}
330
1E
100
AcDbEntity
  8
STEMPEL
100
AcDbLine
 10
294.5192096465094
 20
527.6553465483354
 30
0.0
 11
294.9499984602021
 21
526.7315169560934
 31
0.0
  0
HATCH
  5
239A
330
1E
100
AcDbEntity
  8
SCHRAFF
100
AcDbHatch
 10
0.0
 20
0.0
 30
0.0
210
0.0
220
0.0
230
1.0
  2
_USER
 70
     0
 71
     1
 91
        2
 92
        7
 72
     1
 73
     1
 93
       10
 10
270.760764849103
 20
279.6553465483349
 42
0.0
 10
269.7109008867919
 20
267.6553465483353
 42
0.0
 10
271.7185405618786
 20
267.6553465483353
 42
0.0
 10
272.760764849103
 20
279.5680246625181
 42
0.0
 10
272.760764849103
 20
385.3443577055283
 42
-0.09541457239976
 10
273.6190445584799
 20
389.8010458217775
 42
0.0
 10
280.760764849103
 20
407.6553465483352
 42
0.0
 10
278.6066989262492
 20
407.6553465483352
 42
0.0
 10
271.7620911767094
 20
390.5438271744857
 42
0.0954145723997613
 10
270.760764849103
 20
385.3443577055282
 42
0.0
 97
       10
330
2229
330
221A
330
21C4
330
2219
330
221B
330
220A
330
2211
330
21C3
330
2210
330
220B
 92
        7
 72
     1
 73
     1
 93
       10
 10
172.7607648491031
 20
385.3443577055283
 42
0.0954145723997588
 10
171.7594385214968
 20
390.5438271744858
 42
0.0
 10
164.914830771957
 20
407.6553465483352
 42
0.0
 10
162.7607648491031
 20
407.6553465483352
 42
0.0
 10
169.9024851397262
 20
389.8010458217776
 42
-0.095414572399761
 10
170.7607648491031
 20
385.3443577055283
 42
0.0
 10
170.7607648491031
 20
279.5680246625185
 42
0.0
 10
171.8029891363275
 20
267.6553465483354
 42
0.0
 10
173.8106288114142
 20
267.6553465483354
 42
0.0
 10
172.7607648491031
 20
279.6553465483354
 42
0.0
 97
       10
330
21E5
330
21D5
330
21C4
330
21D6
330
21E6
330
21C9
330
21CD
330
21C3
330
21CC
330
21C8
 75
     0
 76
     0
 52
45.0
 41
2.0
 77
     0
 78
     1
 53
45.0
 43
0.0
 44
0.0
 45
-1.414213562373094
 46
1.414213562373095
 79
     0
 47
0.5706165763983639
 98
        2
 10
271.2831060331378
 20
351.2517951520949
 10
171.9255963174614
 20
360.9522769563771
  0
HATCH
  5
23D5
330
1E
100
AcDbEntity
  8
SCHRAFF
100
AcDbHatch
 10
0.0
 20
0.0
 30
0.0
210
0.0
220
0.0
230
1.0
  2
_USER
 70
     0
 71
     1
 91
        2
 92
        7
 72
     1
 73
     1
 93
       25
 10
295.2607648491031
 20
494.9463465483353
 42
-0.1088253511823275
 10
292.7159475449879
 20
483.392608771537
 42
0.1105209126118379
 10
290.7607648491031
 20
474.6553465483353
 42
0.0
 10
290.7607648491031
 20
461.1240659710065
 42
-0.1528962216020417
 10
287.9929077062459
 20
452.284239147742
 42
0.152896221602034
 10
285.7607648491031
 20
445.1553465483353
 42
0.0
 10
285.7607648491031
 20
427.0226041320811
 42
-0.1164338214658554
 10
284.0715999051017
 20
419.8671866040817
 42
0.0
 10
277.9656798772283
 20
407.6553465483353
 42
0.0
 10
280.760764849103
 20
407.6553465483352
 42
0.0
 10
286.3076678826014
 20
418.7491526153318
 42
0.1164338214658557
 10
288.2607648491032
 20
427.0226041320811
 42
0.0
 10
288.2607648491032
 20
445.1553465483353
 42
-0.1528962216020417
 10
290.0464791348176
 20
450.8584606278608
 42
0.1528962216020372
 10
293.2607648491032
 20
461.1240659710065
 42
0.0
 10
293.2607648491031
 20
474.6553465483352
 42
-0.109549420553723
 10
294.948175218114
 20
482.2645133575824
 42
0.1095494205537929
 10
297.7605011087952
 20
494.9463465483353
 42
0.0
 10
297.7607648491031
 20
494.9463465483352
 42
0.0
 10
297.7607648491031
 20
514.052969103871
 42
0.1095178116832538
 10
294.9499984602021
 20
526.7315169560934
 42
0.0
 10
294.5192096465094
 20
527.6553465483352
 42
0.0
 10
291.7607648491033
 20
527.6553465483353
 42
0.0
 10
292.6842289926108
 20
525.6749713017409
 42
-0.1095178116832461
 10
295.2607648491031
 20
514.0529691038712
 42
0.0
 97
       25
330
2247
330
224A
330
21C5
330
2249
330
2248
330
2244
330
2214
330
2242
330
223E
330
223B
330
223C
330
222B
330
222E
330
2230
330
21C4
330
2231
330
222D
330
222C
330
223A
330
223F
330
223D
330
2241
330
2215
330
2245
330
2243
 92
        7
 72
     1
 73
     1
 93
       25
 10
148.2607648491032
 20
514.052969103871
 42
-0.1095178116832473
 10
150.8373007055956
 20
525.6749713017409
 42
0.0
 10
151.7607648491032
 20
527.6553465483354
 42
0.0
 10
149.0023200516969
 20
527.6553465483354
 42
0.0
 10
148.5715312380042
 20
526.7315169560934
 42
0.1095178116832539
 10
145.7607648491032
 20
514.052969103871
 42
0.0
 10
145.7607648491032
 20
494.9463465483353
 42
0.0
 10
145.761028589411
 20
494.9463465483353
 42
0.1095494205537667
 10
148.5733544800909
 20
482.2645133575853
 42
-0.109549420553766
 10
150.2607648491031
 20
474.6553465483353
 42
0.0
 10
150.2607648491031
 20
461.1240659710065
 42
0.1528962216020397
 10
153.4750505633888
 20
450.8584606278606
 42
-0.1528962216020415
 10
155.2607648491031
 20
445.1553465483351
 42
0.0
 10
155.2607648491031
 20
427.0226041320813
 42
0.1164338214658541
 10
157.2138618156047
 20
418.7491526153321
 42
0.0
 10
162.7607648491031
 20
407.6553465483351
 42
0.0
 10
165.5558498209778
 20
407.6553465483351
 42
0.0
 10
159.4499297931045
 20
419.867186604082
 42
-0.1164338214658554
 10
157.7607648491031
 20
427.0226041320814
 42
0.0
 10
157.7607648491031
 20
445.1553465483353
 42
0.1528962216020391
 10
155.5286219919602
 20
452.2842391477421
 42
-0.1528962216020384
 10
152.7607648491031
 20
461.1240659710065
 42
0.0
 10
152.7607648491031
 20
474.6553465483353
 42
0.1105209126118306
 10
150.8055821532186
 20
483.3926087715365
 42
-0.108825351182333
 10
148.2607648491032
 20
494.9463465483353
 42
0.0
 97
       25
330
2206
330
2208
330
21C5
330
2205
330
2207
330
2202
330
2204
330
21D1
330
21FE
330
21F8
330
21FA
330
21FC
330
21EA
330
21EC
330
21F5
330
21C4
330
21F3
330
21F2
330
21EB
330
21F7
330
21FB
330
21F9
330
21FF
330
21D2
330
2203
 75
     0
 76
     0
 52
135.0
 41
2.0
 77
     0
 78
     1
 53
135.0
 43
0.0
 44
0.0
 45
-1.414213562373095
 46
-1.414213562373094
 79
     0
 47
0.5706165763983639
 98
        2
 10
296.4079910081
 20
505.3182721020539
 10
147.3717304758629
 20
502.4651888068119
  0
LINE
  5
23D6
330
1E
100
AcDbEntity
  8
HILF
100
AcDbLine
 10
288.593314470225
 20
478.5523573670396
 30
0.0
 11
154.9282152279812
 21
478.5523573670396
 31
0.0
  0
LINE
  5
23D7
330
1E
100
AcDbEntity
  8
HILF
100
AcDbLine
 10
287.0959424384521
 20
455.7455372290016
 30
0.0
 11
156.4255872597541
 21
455.7455372290016
 31
0.0
  0
LINE
  5
23D8
330
1E
100
AcDbEntity
  8
HILF
100
AcDbLine
 10
283.5613965439199
 20
448.1434180716713
 30
0.0
 11
159.9601331542864
 21
448.1434180716713
 31
0.0
  0
LINE
  5
23D9
330
1E
100
AcDbEntity
  8
HILF
100
AcDbLine
 10
282.5741895692886
 20
422.772175101955
 30
0.0
 11
160.9473401289177
 21
422.772175101955
 31
0.0
  0
HATCH
  5
2419
330
1E
100
AcDbEntity
  8
SCHRAFF
100
AcDbHatch
 10
0.0
 20
0.0
 30
0.0
210
0.0
220
0.0
230
1.0
  2
NET
 70
     0
 71
     0
 91
        2
 92
        7
 72
     0
 73
     1
 93
        9
 10
285.7607648491032
 20
343.6553465483353
 10
284.260764849103
 20
345.1553465483355
 10
272.7607648491032
 20
345.1553465483355
 10
272.7607648491032
 20
333.6553465483354
 10
277.7607648491031
 20
333.6553465483354
 10
282.3795670026203
 20
325.655346548335
 10
288.2607648491033
 20
325.655346548335
 10
288.2607648491033
 20
327.6553465483354
 10
285.7607648491033
 20
327.6553465483354
 97
        0
 92
        7
 72
     0
 73
     1
 93
        9
 10
170.7607648491032
 20
345.1553465483354
 10
159.2607648491032
 20
345.1553465483355
 10
157.7607648491031
 20
343.6553465483355
 10
157.7607648491031
 20
327.6553465483353
 10
155.2607648491031
 20
327.6553465483354
 10
155.2607648491031
 20
325.6553465483354
 10
161.141962695586
 20
325.6553465483354
 10
165.7607648491031
 20
333.6553465483354
 10
170.7607648491032
 20
333.6553465483354
 97
        0
 75
     0
 76
     1
 52
45.0
 41
20.0
 77
     0
 78
     2
 53
45.0
 43
-3.239235150896575
 44
15.78035248914978
 45
-1.767766952966368
 46
1.767766952966368
 79
     0
 53
135.0
 43
-3.239235150896575
 44
15.78035248914978
 45
-1.767766952966368
 46
-1.767766952966368
 79
     0
 47
0.1961114262777251
 98
        2
 10
281.5421302493332
 20
338.8532569378896
 10
169.1024936042713
 20
340.0299254765783
  0
LINE
  5
241A
330
1E
100
AcDbEntity
  8
STEMPEL
100
AcDbLine
 10
272.7607648491031
 20
325.6553465483351
 30
0.0
 11
288.2607648491033
 21
325.655346548335
 31
0.0
  0
LINE
  5
241B
330
1E
100
AcDbEntity
  8
STEMPEL
100
AcDbLine
 10
277.7607648491031
 20
333.6553465483354
 30
0.0
 11
282.3795670026202
 21
325.6553465483351
 31
0.0
  0
LINE
  5
241C
330
1E
100
AcDbEntity
  8
STEMPEL
100
AcDbLine
 10
155.2607648491031
 20
325.6553465483354
 30
0.0
 11
170.7607648491032
 21
325.6553465483353
 31
0.0
  0
LINE
  5
241D
330
1E
100
AcDbEntity
  8
STEMPEL
100
AcDbLine
 10
165.7607648491031
 20
333.6553465483354
 30
0.0
 11
161.141962695586
 21
325.6553465483354
 31
0.0
  0
DIMENSION
  5
2444
330
1E
100
AcDbEntity
  8
BEM
100
AcDbDimension
  2
*D6
 10
133.6708907990876
 20
327.6553465483354
 30
0.0
 11
127.1708907990875
 21
297.6553465483355
 31
0.0
 70
    32
 71
     5
 42
60.00000000000006
  3
Standard
100
AcDbAlignedDimension
 13
171.8029891363276
 23
267.6553465483354
 33
0.0
 14
155.2607648491031
 24
327.6553465483354
 34
0.0
 50
90.0
100
AcDbRotatedDimension
1001
ACAD
1000
DSTYLE
1002
{
1070
    40
1040
2.0
1070
    41
1040
3.5
1070
    42
1040
1.0
1070
    43
1040
7.0
1070
    44
1040
1.0
1070
    47
1040
0.15
1070
    48
1040
0.15
1070
    73
1070
     0
1070
    74
1070
     0
1070
    77
1070
     1
1070
    78
1070
     8
1070
    79
1070
     2
1070
   140
1040
3.5
1070
   141
1040
1.5
1070
   146
1040
0.5142857142857144
1070
   147
1040
1.5
1070
   172
1070
     1
1070
   178
1070
     1
1070
   179
1070
     2
1070
   271
1070
     2
1070
   272
1070
     2
1070
   284
1070
     8
1070
   285
1070
     8
1070
   286
1070
     8
1002
}
  0
ENDSEC
  0
SECTION
  2
OBJECTS
  0
DICTIONARY
  5
C
330
0
100
AcDbDictionary
281
     1
  3
ACAD_COLOR
350
39F
  3
ACAD_GROUP
350
D
  3
ACAD_LAYOUT
350
19
  3
ACAD_MATERIAL
350
39E
  3
ACAD_MLINESTYLE
350
16
  3
ACAD_PLOTSETTINGS
350
18
  3
ACAD_PLOTSTYLENAME
350
E
  3
AcDbVariableDictionary
350
31A
  0
DICTIONARY
  5
39F
102
{ACAD_REACTORS
330
C
102
}
330
C
100
AcDbDictionary
281
     1
  0
DICTIONARY
  5
D
102
{ACAD_REACTORS
330
C
102
}
330
C
100
AcDbDictionary
281
     1
  0
DICTIONARY
  5
19
102
{ACAD_REACTORS
330
C
102
}
330
C
100
AcDbDictionary
281
     1
  3
Layout1
350
1D
  3
Model
350
21
  0
DICTIONARY
  5
39E
102
{ACAD_REACTORS
330
C
102
}
330
C
100
AcDbDictionary
281
     1
  0
DICTIONARY
  5
16
102
{ACAD_REACTORS
330
C
102
}
330
C
100
AcDbDictionary
281
     1
  3
Standard
350
17
  0
DICTIONARY
  5
18
102
{ACAD_REACTORS
330
C
102
}
330
C
100
AcDbDictionary
281
     1
  0
ACDBDICTIONARYWDFLT
  5
E
102
{ACAD_REACTORS
330
C
102
}
330
C
100
AcDbDictionary
281
     1
  3
Normal
350
F
100
AcDbDictionaryWithDefault
340
F
  0
DICTIONARY
  5
31A
102
{ACAD_REACTORS
330
C
102
}
330
C
100
AcDbDictionary
281
     1
  3
DIMASSOC
350
696
  3
PROJECTNAME
350
697
  3
SORTENTS
350
31B
  0
LAYOUT
  5
1D
102
{ACAD_REACTORS
330
19
102
}
330
19
100
AcDbPlotSettings
  1

  2
Tektronix Phaser 740
  4

  6

 40
0.0
 41
0.0
 42
0.0
 43
0.0
 44
0.0
 45
0.0
 46
0.0
 47
0.0
 48
0.0
 49
0.0
140
0.0
141
0.0
142
1.0
143
1.0
 70
   688
 72
     0
 73
     0
 74
     5
  7
monochrome.ctb
 75
    16
147
1.0
 76
     0
 77
     2
 78
   300
148
0.0
149
0.0
100
AcDbLayout
  1
Layout1
 70
     0
 71
     1
 10
0.0
 20
0.0
 11
12.0
 21
9.0
 12
0.0
 22
0.0
 32
0.0
 14
1.000000000000000E+20
 24
1.000000000000000E+20
 34
1.000000000000000E+20
 15
-1.000000000000000E+20
 25
-1.000000000000000E+20
 35
-1.000000000000000E+20
146
0.0
 13
0.0
 23
0.0
 33
0.0
 16
1.0
 26
0.0
 36
0.0
 17
0.0
 27
1.0
 37
0.0
 76
     0
330
1A
  0
LAYOUT
  5
21
102
{ACAD_REACTORS
330
19
102
}
330
19
100
AcDbPlotSettings
  1

  2
none_device
  4
Letter_(8.50_x_11.00_Inches)
  6

 40
6.349999904632568
 41
6.349999904632568
 42
6.350006103515625
 43
6.350006103515625
 44
215.8999938964844
 45
279.3999938964844
 46
0.0
 47
0.0
 48
0.0
 49
0.0
140
0.0
141
0.0
142
1.0
143
1.0
 70
 11952
 72
     0
 73
     1
 74
     0
  7
monochrome.ctb
 75
     0
147
1.0
 76
     0
 77
     2
 78
   300
148
-427.6236799849804
149
44.87778572714498
100
AcDbLayout
  1
Model
 70
     1
 71
     0
 10
0.0
 20
0.0
 11
12.0
 21
9.0
 12
0.0
 22
0.0
 32
0.0
 14
0.0
 24
0.0
 34
0.0
 15
0.0
 25
0.0
 35
0.0
146
0.0
 13
0.0
 23
0.0
 33
0.0
 16
1.0
 26
0.0
 36
0.0
 17
0.0
 27
1.0
 37
0.0
 76
     0
330
1E
  0
MLINESTYLE
  5
17
102
{ACAD_REACTORS
330
16
102
}
330
16
100
AcDbMlineStyle
  2
STANDARD
 70
     0
  3

 62
   256
 51
90.0
 52
90.0
 71
     2
 49
0.5
 62
   256
  6
BYLAYER
 49
-0.5
 62
   256
  6
BYLAYER
  0
ACDBPLACEHOLDER
  5
F
102
{ACAD_REACTORS
330
E
102
}
330
E
  0
DICTIONARYVAR
  5
696
102
{ACAD_REACTORS
330
31A
102
}
330
31A
100
DictionaryVariables
280
     0
  1
1
  0
DICTIONARYVAR
  5
697
102
{ACAD_REACTORS
330
31A
102
}
330
31A
100
DictionaryVariables
280
     0
  1

  0
DICTIONARYVAR
  5
31B
102
{ACAD_REACTORS
330
31A
102
}
330
31A
100
DictionaryVariables
280
     0
  1
96
  0
ENDSEC
  0
EOF
