  0
SECTION
  2
HEADER
  9
$ACADVER
  1
AC1018
  9
$ACADMAINTVER
 70
     2
  9
$DWGCODEPAGE
  3
ANSI_1252
  9
$INSBASE
 10
0.0
 20
0.0
 30
0.0
  9
$EXTMIN
 10
-0.0197349735720991
 20
-0.0453012447965193
 30
-0.0000000000000129
  9
$EXTMAX
 10
420.0036597528344
 20
594.0362620742282
 30
0.0000000000000023
  9
$LIMMIN
 10
0.0
 20
0.0
  9
$LIMMAX
 10
419.9999999999999
 20
594.0000000000002
  9
$ORTHOMODE
 70
     1
  9
$REGENMODE
 70
     1
  9
$FILLMODE
 70
     1
  9
$QTEXTMODE
 70
     0
  9
$MIRRTEXT
 70
     1
  9
$LTSCALE
 40
20.0
  9
$ATTMODE
 70
     1
  9
$TEXTSIZE
 40
3.5
  9
$TRACEWID
 40
0.5
  9
$TEXTSTYLE
  7
STANDARD
  9
$CLAYER
  8
VOLL
  9
$CELTYPE
  6
ByLayer
  9
$CECOLOR
 62
   256
  9
$CELTSCALE
 40
1.0
  9
$DISPSILH
 70
     0
  9
$DIMSCALE
 40
2.0
  9
$DIMASZ
 40
3.5
  9
$DIMEXO
 40
1.0
  9
$DIMDLI
 40
7.0
  9
$DIMRND
 40
0.0
  9
$DIMDLE
 40
0.0
  9
$DIMEXE
 40
1.0
  9
$DIMTP
 40
0.15
  9
$DIMTM
 40
0.15
  9
$DIMTXT
 40
3.5
  9
$DIMCEN
 40
1.5
  9
$DIMTSZ
 40
0.0
  9
$DIMTOL
 70
     0
  9
$DIMLIM
 70
     0
  9
$DIMTIH
 70
     0
  9
$DIMTOH
 70
     0
  9
$DIMSE1
 70
     0
  9
$DIMSE2
 70
     0
  9
$DIMTAD
 70
     1
  9
$DIMZIN
 70
     8
  9
$DIMBLK
  1

  9
$DIMASO
 70
     1
  9
$DIMSHO
 70
     0
  9
$DIMPOST
  1

  9
$DIMAPOST
  1

  9
$DIMALT
 70
     0
  9
$DIMALTD
 70
     2
  9
$DIMALTF
 40
25.4
  9
$DIMLFAC
 40
1.0
  9
$DIMTOFL
 70
     1
  9
$DIMTVP
 40
0.0
  9
$DIMTIX
 70
     0
  9
$DIMSOXD
 70
     0
  9
$DIMSAH
 70
     0
  9
$DIMBLK1
  1

  9
$DIMBLK2
  1

  9
$DIMSTYLE
  2
Standard
  9
$DIMCLRD
 70
     0
  9
$DIMCLRE
 70
     0
  9
$DIMCLRT
 70
     1
  9
$DIMTFAC
 40
0.5142857142857144
  9
$DIMGAP
 40
1.5
  9
$DIMJUST
 70
     0
  9
$DIMSD1
 70
     0
  9
$DIMSD2
 70
     0
  9
$DIMTOLJ
 70
     1
  9
$DIMTZIN
 70
     8
  9
$DIMALTZ
 70
     8
  9
$DIMALTTZ
 70
     8
  9
$DIMUPT
 70
     0
  9
$DIMDEC
 70
     2
  9
$DIMTDEC
 70
     2
  9
$DIMALTU
 70
     2
  9
$DIMALTTD
 70
     2
  9
$DIMTXSTY
  7
STANDARD
  9
$DIMAUNIT
 70
     0
  9
$DIMADEC
 70
     2
  9
$DIMALTRND
 40
0.0
  9
$DIMAZIN
 70
     2
  9
$DIMDSEP
 70
    46
  9
$DIMATFIT
 70
     3
  9
$DIMFRAC
 70
     0
  9
$DIMLDRBLK
  1

  9
$DIMLUNIT
 70
     2
  9
$DIMLWD
 70
    -2
  9
$DIMLWE
 70
    -2
  9
$DIMTMOVE
 70
     0
  9
$LUNITS
 70
     2
  9
$LUPREC
 70
     2
  9
$SKETCHINC
 40
1.0
  9
$FILLETRAD
 40
0.0
  9
$AUNITS
 70
     0
  9
$AUPREC
 70
     0
  9
$MENU
  1
ACAD
  9
$ELEVATION
 40
0.0
  9
$PELEVATION
 40
0.0
  9
$THICKNESS
 40
0.0
  9
$LIMCHECK
 70
     0
  9
$CHAMFERA
 40
0.0
  9
$CHAMFERB
 40
0.0
  9
$CHAMFERC
 40
0.0
  9
$CHAMFERD
 40
0.0
  9
$SKPOLY
 70
     0
  9
$TDCREATE
 40
2455573.065619792
  9
$TDUCREATE
 40
2455573.023953125
  9
$TDUPDATE
 40
2455532.597141088
  9
$TDUUPDATE
 40
2455532.555474421
  9
$TDINDWG
 40
0.2244826968
  9
$TDUSRTIMER
 40
0.2244826968
  9
$USRTIMER
 70
     1
  9
$ANGBASE
 50
0.0
  9
$ANGDIR
 70
     0
  9
$PDMODE
 70
     0
  9
$PDSIZE
 40
0.0
  9
$PLINEWID
 40
0.0
  9
$SPLFRAME
 70
     0
  9
$SPLINETYPE
 70
     6
  9
$SPLINESEGS
 70
     8
  9
$HANDSEED
  5
1FF4
  9
$SURFTAB1
 70
     6
  9
$SURFTAB2
 70
     6
  9
$SURFTYPE
 70
     6
  9
$SURFU
 70
     6
  9
$SURFV
 70
     6
  9
$UCSBASE
  2

  9
$UCSNAME
  2

  9
$UCSORG
 10
0.0
 20
0.0
 30
0.0
  9
$UCSXDIR
 10
1.0
 20
0.0
 30
0.0
  9
$UCSYDIR
 10
0.0
 20
1.0
 30
0.0
  9
$UCSORTHOREF
  2

  9
$UCSORTHOVIEW
 70
     0
  9
$UCSORGTOP
 10
0.0
 20
0.0
 30
0.0
  9
$UCSORGBOTTOM
 10
0.0
 20
0.0
 30
0.0
  9
$UCSORGLEFT
 10
0.0
 20
0.0
 30
0.0
  9
$UCSORGRIGHT
 10
0.0
 20
0.0
 30
0.0
  9
$UCSORGFRONT
 10
0.0
 20
0.0
 30
0.0
  9
$UCSORGBACK
 10
0.0
 20
0.0
 30
0.0
  9
$PUCSBASE
  2

  9
$PUCSNAME
  2

  9
$PUCSORG
 10
0.0
 20
0.0
 30
0.0
  9
$PUCSXDIR
 10
1.0
 20
0.0
 30
0.0
  9
$PUCSYDIR
 10
0.0
 20
1.0
 30
0.0
  9
$PUCSORTHOREF
  2

  9
$PUCSORTHOVIEW
 70
     0
  9
$PUCSORGTOP
 10
0.0
 20
0.0
 30
0.0
  9
$PUCSORGBOTTOM
 10
0.0
 20
0.0
 30
0.0
  9
$PUCSORGLEFT
 10
0.0
 20
0.0
 30
0.0
  9
$PUCSORGRIGHT
 10
0.0
 20
0.0
 30
0.0
  9
$PUCSORGFRONT
 10
0.0
 20
0.0
 30
0.0
  9
$PUCSORGBACK
 10
0.0
 20
0.0
 30
0.0
  9
$USERI1
 70
     0
  9
$USERI2
 70
     0
  9
$USERI3
 70
     0
  9
$USERI4
 70
     0
  9
$USERI5
 70
     0
  9
$USERR1
 40
0.0
  9
$USERR2
 40
0.0
  9
$USERR3
 40
0.0
  9
$USERR4
 40
0.0
  9
$USERR5
 40
0.0
  9
$WORLDVIEW
 70
     1
  9
$SHADEDGE
 70
     3
  9
$SHADEDIF
 70
    70
  9
$TILEMODE
 70
     1
  9
$MAXACTVP
 70
    16
  9
$PINSBASE
 10
0.0
 20
0.0
 30
0.0
  9
$PLIMCHECK
 70
     0
  9
$PEXTMIN
 10
1.000000000000000E+20
 20
1.000000000000000E+20
 30
1.000000000000000E+20
  9
$PEXTMAX
 10
-1.000000000000000E+20
 20
-1.000000000000000E+20
 30
-1.000000000000000E+20
  9
$PLIMMIN
 10
0.0
 20
0.0
  9
$PLIMMAX
 10
12.0
 20
9.0
  9
$UNITMODE
 70
     0
  9
$VISRETAIN
 70
     0
  9
$PLINEGEN
 70
     0
  9
$PSLTSCALE
 70
     0
  9
$TREEDEPTH
 70
  3020
  9
$CMLSTYLE
  2
Standard
  9
$CMLJUST
 70
     0
  9
$CMLSCALE
 40
1.0
  9
$PROXYGRAPHICS
 70
     1
  9
$MEASUREMENT
 70
     0
  9
$CELWEIGHT
370
    -1
  9
$ENDCAPS
280
     0
  9
$JOINSTYLE
280
     0
  9
$LWDISPLAY
290
     0
  9
$INSUNITS
 70
     0
  9
$HYPERLINKBASE
  1

  9
$STYLESHEET
  1
monochrome 1.ctb
  9
$XEDIT
290
     1
  9
$CEPSNTYPE
380
     0
  9
$PSTYLEMODE
290
     1
  9
$FINGERPRINTGUID
  2
{CF47490D-A8B5-11D8-B772-000102183313}
  9
$VERSIONGUID
  2
{59851359-C5C5-4484-84CF-BE0B40FAB074}
  9
$EXTNAMES
290
     1
  9
$PSVPSCALE
 40
0.0
  9
$OLESTARTUP
290
     0
  9
$SORTENTS
280
    96
  9
$INDEXCTL
280
     0
  9
$HIDETEXT
280
     0
  9
$XCLIPFRAME
290
     0
  9
$HALOGAP
280
     0
  9
$OBSCOLOR
 70
   257
  9
$OBSLTYPE
280
     0
  9
$INTERSECTIONDISPLAY
280
     0
  9
$INTERSECTIONCOLOR
 70
   257
  9
$DIMASSOC
280
     1
  9
$PROJECTNAME
  1

  0
ENDSEC
  0
SECTION
  2
CLASSES
  0
CLASS
  1
ACDBDICTIONARYWDFLT
  2
AcDbDictionaryWithDefault
  3
ObjectDBX Classes
 90
        0
 91
        1
280
     0
281
     0
  0
CLASS
  1
DICTIONARYVAR
  2
AcDbDictionaryVar
  3
ObjectDBX Classes
 90
        0
 91
        3
280
     0
281
     0
  0
ENDSEC
  0
SECTION
  2
TABLES
  0
TABLE
  2
VPORT
  5
8
330
0
100
AcDbSymbolTable
 70
     2
  0
VPORT
  5
1FF3
330
8
100
AcDbSymbolTableRecord
100
AcDbViewportTableRecord
  2
*Active
 70
     0
 10
0.0
 20
0.0
 11
1.0
 21
1.0
 12
209.9919623896312
 22
296.9954804147159
 13
0.0
 23
0.0
 14
1.0
 24
1.0
 15
10.0
 25
10.0
 16
0.0
 26
0.0
 36
1.0
 17
0.0
 27
0.0
 37
0.0
 40
598.8789918249658
 41
1.336927223719676
 42
50.0
 43
0.0
 44
0.0
 50
0.0
 51
0.0
 71
     0
 72
  1500
 73
     1
 74
     0
 75
     0
 76
     0
 77
     0
 78
     0
281
     0
 65
     1
110
0.0
120
0.0
130
0.0
111
1.0
121
0.0
131
0.0
112
0.0
122
1.0
132
0.0
 79
     0
146
0.0
  0
ENDTAB
  0
TABLE
  2
LTYPE
  5
5
330
0
100
AcDbSymbolTable
 70
     2
  0
LTYPE
  5
13
330
5
100
AcDbSymbolTableRecord
100
AcDbLinetypeTableRecord
  2
ByBlock
 70
     0
  3

 72
    65
 73
     0
 40
0.0
  0
LTYPE
  5
14
330
5
100
AcDbSymbolTableRecord
100
AcDbLinetypeTableRecord
  2
ByLayer
 70
     0
  3

 72
    65
 73
     0
 40
0.0
  0
LTYPE
  5
15
330
5
100
AcDbSymbolTableRecord
100
AcDbLinetypeTableRecord
  2
Continuous
 70
     0
  3
Solid line
 72
    65
 73
     0
 40
0.0
  0
LTYPE
  5
32
330
5
100
AcDbSymbolTableRecord
100
AcDbLinetypeTableRecord
  2
STRICHPUNKT
 70
     0
  3
__ . __ . __ . __ . __ . __ . __ . __ . __ . __
 72
    65
 73
     4
 40
1.0
 49
0.5
 74
     0
 49
-0.25
 74
     0
 49
0.0
 74
     0
 49
-0.25
 74
     0
  0
ENDTAB
  0
TABLE
  2
LAYER
  5
2
330
0
100
AcDbSymbolTable
 70
     9
  0
LAYER
  5
10
330
2
100
AcDbSymbolTableRecord
100
AcDbLayerTableRecord
  2
0
 70
     0
 62
     7
  6
Continuous
370
    -3
390
F
  0
LAYER
  5
35
330
2
100
AcDbSymbolTableRecord
100
AcDbLayerTableRecord
  2
VOLL
 70
     0
 62
     1
  6
Continuous
370
    -3
390
F
  0
LAYER
  5
36
330
2
100
AcDbSymbolTableRecord
100
AcDbLayerTableRecord
  2
HILF
 70
     0
 62
     2
  6
Continuous
370
    -3
390
F
  0
LAYER
  5
37
330
2
100
AcDbSymbolTableRecord
100
AcDbLayerTableRecord
  2
MITTEL
 70
     0
 62
     2
  6
STRICHPUNKT
370
    -3
390
F
  0
LAYER
  5
38
330
2
100
AcDbSymbolTableRecord
100
AcDbLayerTableRecord
  2
BEM
 70
     0
 62
     7
  6
Continuous
370
    -3
390
F
  0
LAYER
  5
39
330
2
100
AcDbSymbolTableRecord
100
AcDbLayerTableRecord
  2
DEFPOINTS
 70
     0
 62
     7
  6
Continuous
290
     0
370
    -3
390
F
  0
LAYER
  5
3A
330
2
100
AcDbSymbolTableRecord
100
AcDbLayerTableRecord
  2
STEMPEL
 70
     0
 62
     3
  6
Continuous
370
    -3
390
F
  0
LAYER
  5
3B
330
2
100
AcDbSymbolTableRecord
100
AcDbLayerTableRecord
  2
TEXT
 70
     0
 62
     7
  6
Continuous
370
    -3
390
F
  0
LAYER
  5
3C
330
2
100
AcDbSymbolTableRecord
100
AcDbLayerTableRecord
  2
SCHRAFF
 70
     0
 62
     7
  6
Continuous
370
    -3
390
F
  0
ENDTAB
  0
TABLE
  2
STYLE
  5
3
330
0
100
AcDbSymbolTable
 70
     2
  0
STYLE
  5
11
330
3
100
AcDbSymbolTableRecord
100
AcDbTextStyleTableRecord
  2
STANDARD
 70
     0
 40
0.0
 41
0.8
 50
0.0
 71
     0
 42
3.5
  3
simplex.shx
  4

  0
STYLE
  5
31
330
3
100
AcDbSymbolTableRecord
100
AcDbTextStyleTableRecord
  2
GREEKS
 70
     0
 40
0.0
 41
0.8
 50
0.0
 71
     0
 42
2.5
  3
SIMPLEX.shx
  4

  0
ENDTAB
  0
TABLE
  2
VIEW
  5
6
330
0
100
AcDbSymbolTable
 70
     0
  0
ENDTAB
  0
TABLE
  2
UCS
  5
7
330
0
100
AcDbSymbolTable
 70
     0
  0
ENDTAB
  0
TABLE
  2
APPID
  5
9
330
0
100
AcDbSymbolTable
 70
     1
  0
APPID
  5
12
330
9
100
AcDbSymbolTableRecord
100
AcDbRegAppTableRecord
  2
ACAD
 70
     0
  0
ENDTAB
  0
TABLE
  2
DIMSTYLE
  5
A
330
0
100
AcDbSymbolTable
 70
     1
100
AcDbDimStyleTable
 71
     1
340
26B
  0
DIMSTYLE
105
26B
102
{ACAD_REACTORS
330
1D32
330
1D33
330
1D41
330
1FAF
102
}
330
A
100
AcDbSymbolTableRecord
100
AcDbDimStyleTableRecord
  2
Standard
 70
     0
340
11
  0
ENDTAB
  0
TABLE
  2
BLOCK_RECORD
  5
1
330
0
100
AcDbSymbolTable
 70
     6
  0
BLOCK_RECORD
  5
1E
330
1
100
AcDbSymbolTableRecord
100
AcDbBlockTableRecord
  2
*Model_Space
340
21
  0
BLOCK_RECORD
  5
1A
330
1
100
AcDbSymbolTableRecord
100
AcDbBlockTableRecord
  2
*Paper_Space
340
1D
  0
BLOCK_RECORD
  5
22
330
1
100
AcDbSymbolTableRecord
100
AcDbBlockTableRecord
  2
LOGO
340
0
102
{BLKREFS
331
1E2
102
}
  0
BLOCK_RECORD
  5
1C0F
330
1
100
AcDbSymbolTableRecord
100
AcDbBlockTableRecord
  2
*X1
340
0
102
{BLKREFS
331
1D37
102
}
  0
BLOCK_RECORD
  5
1DAF
330
1
100
AcDbSymbolTableRecord
100
AcDbBlockTableRecord
  2
*D2
340
0
  0
BLOCK_RECORD
  5
1DBB
330
1
100
AcDbSymbolTableRecord
100
AcDbBlockTableRecord
  2
*D3
340
0
  0
BLOCK_RECORD
  5
1DC7
330
1
100
AcDbSymbolTableRecord
100
AcDbBlockTableRecord
  2
*D4
340
0
  0
BLOCK_RECORD
  5
1FB0
330
1
100
AcDbSymbolTableRecord
100
AcDbBlockTableRecord
  2
*D5
340
0
  0
ENDTAB
  0
ENDSEC
  0
SECTION
  2
BLOCKS
  0
BLOCK
  5
40
330
1E
100
AcDbEntity
  8
0
100
AcDbBlockBegin
  2
*Model_Space
 70
     0
 10
0.0
 20
0.0
 30
0.0
  3
*Model_Space
  1

  0
ENDBLK
  5
41
330
1E
100
AcDbEntity
  8
0
100
AcDbBlockEnd
  0
BLOCK
  5
3E
330
1A
100
AcDbEntity
 67
     1
  8
0
100
AcDbBlockBegin
  2
*Paper_Space
 70
     0
 10
0.0
 20
0.0
 30
0.0
  3
*Paper_Space
  1

  0
ENDBLK
  5
3F
330
1A
100
AcDbEntity
 67
     1
  8
0
100
AcDbBlockEnd
  0
BLOCK
  5
42
330
22
100
AcDbEntity
  8
0
100
AcDbBlockBegin
  2
LOGO
 70
     0
 10
0.0
 20
0.0
 30
0.0
  3
LOGO
  1

  0
ARC
  5
43
330
22
100
AcDbEntity
  8
0
100
AcDbCircle
 10
11.59973089678112
 20
-9.271599258481501
 30
0.0
 40
4.5
100
AcDbArc
 50
270.0
 51
231.0575587310159
  0
LINE
  5
44
330
22
100
AcDbEntity
  8
0
100
AcDbLine
 10
3.599730896781125
 20
-4.771599258481529
 30
0.0
 11
3.599730896781153
 21
-11.77159925848133
 31
0.0
  0
LINE
  5
45
330
22
100
AcDbEntity
  8
0
100
AcDbLine
 10
2.599730896781125
 20
-4.771599258481529
 30
0.0
 11
2.599730896781153
 21
-11.77159925848133
 31
0.0
  0
CIRCLE
  5
46
330
22
100
AcDbEntity
  8
0
100
AcDbCircle
 10
11.59973089678112
 20
-9.271599258481501
 30
0.0
 40
3.5
  0
ARC
  5
47
330
22
100
AcDbEntity
  8
0
100
AcDbCircle
 10
31.59973089678115
 20
-9.271599258481472
 30
0.0
 40
4.5
100
AcDbArc
 50
270.0
 51
231.0575587310182
  0
LINE
  5
48
330
22
100
AcDbEntity
  8
0
100
AcDbLine
 10
17.59973089678112
 20
-4.771599258481472
 30
0.0
 11
17.59973089678115
 21
-13.77159925848147
 31
0.0
  0
ARC
  5
49
330
22
100
AcDbEntity
  8
0
100
AcDbCircle
 10
22.59973089678116
 20
-7.271599258481472
 30
0.0
 40
2.5
100
AcDbArc
 50
293.1161887722295
 51
90.0
  0
CIRCLE
  5
4A
330
22
100
AcDbEntity
  8
0
100
AcDbCircle
 10
31.59973089678115
 20
-9.271599258481472
 30
0.0
 40
3.5
  0
ARC
  5
4B
330
22
100
AcDbEntity
  8
0
100
AcDbCircle
 10
4.599730896781153
 20
-11.77159925848133
 30
0.0
 40
1.0
100
AcDbArc
 50
180.0
 51
270.0
  0
ARC
  5
4C
330
22
100
AcDbEntity
  8
0
100
AcDbCircle
 10
4.599730896781153
 20
-11.77159925848133
 30
0.0
 40
2.0
100
AcDbArc
 50
179.9999999999992
 51
270.0
  0
LINE
  5
4D
330
22
100
AcDbEntity
  8
0
100
AcDbLine
 10
11.59973089678115
 20
-13.77159925848144
 30
0.0
 11
4.599730896781153
 21
-13.77159925848147
 31
0.0
  0
LINE
  5
4E
330
22
100
AcDbEntity
  8
0
100
AcDbLine
 10
8.771303772034769
 20
-12.77159925848136
 30
0.0
 11
4.599730896781153
 21
-12.77159925848133
 31
0.0
  0
LINE
  5
4F
330
22
100
AcDbEntity
  8
0
100
AcDbLine
 10
31.59973089678115
 20
-13.77159925848147
 30
0.0
 11
23.6715276665056
 21
-13.77159925848144
 31
0.0
  0
LINE
  5
50
330
22
100
AcDbEntity
  8
0
100
AcDbLine
 10
23.56565672307022
 20
-9.51278021337896
 30
0.0
 11
24.4388546544846
 21
-12.77159925848144
 31
0.0
  0
LINE
  5
51
330
22
100
AcDbEntity
  8
0
100
AcDbLine
 10
22.59973089678116
 20
-9.771599258481472
 30
0.0
 11
18.59973089678112
 21
-9.771599258481472
 31
0.0
  0
LINE
  5
52
330
22
100
AcDbEntity
  8
0
100
AcDbLine
 10
18.59973089678115
 20
-13.77159925848144
 30
0.0
 11
17.59973089678115
 21
-13.77159925848144
 31
0.0
  0
LINE
  5
53
330
22
100
AcDbEntity
  8
0
100
AcDbLine
 10
18.59973089678115
 20
-9.771599258481472
 30
0.0
 11
18.59973089678115
 21
-13.77159925848144
 31
0.0
  0
LINE
  5
54
330
22
100
AcDbEntity
  8
0
100
AcDbLine
 10
22.59973089678116
 20
-9.771599258481472
 30
0.0
 11
23.67152766650562
 21
-13.77159925848147
 31
0.0
  0
ARC
  5
55
330
22
100
AcDbEntity
  8
0
100
AcDbCircle
 10
22.59973089678116
 20
-7.271599258481472
 30
0.0
 40
2.5
100
AcDbArc
 50
270.0
 51
270.0000000000007
  0
LINE
  5
56
330
22
100
AcDbEntity
  8
0
100
AcDbLine
 10
28.77130377203494
 20
-12.77159925848147
 30
0.0
 11
24.43885465448463
 21
-12.77159925848144
 31
0.0
  0
LINE
  5
57
330
22
100
AcDbEntity
  8
0
100
AcDbLine
 10
3.599730896781125
 20
-4.771599258481472
 30
0.0
 11
2.599730896781125
 21
-4.771599258481472
 31
0.0
  0
LINE
  5
58
330
22
100
AcDbEntity
  8
0
100
AcDbLine
 10
22.59973089678116
 20
-8.771599258481472
 30
0.0
 11
18.59973089678115
 21
-8.771599258481472
 31
0.0
  0
LINE
  5
59
330
22
100
AcDbEntity
  8
0
100
AcDbLine
 10
22.59973089678116
 20
-5.771599258481472
 30
0.0
 11
18.59973089678115
 21
-5.771599258481472
 31
0.0
  0
LINE
  5
5A
330
22
100
AcDbEntity
  8
0
100
AcDbLine
 10
22.59973089678116
 20
-4.771599258481472
 30
0.0
 11
17.59973089678115
 21
-4.771599258481472
 31
0.0
  0
LINE
  5
5B
330
22
100
AcDbEntity
  8
0
100
AcDbLine
 10
18.59973089678115
 20
-5.771599258481472
 30
0.0
 11
18.59973089678115
 21
-8.771599258481472
 31
0.0
  0
ARC
  5
5C
330
22
100
AcDbEntity
  8
0
100
AcDbCircle
 10
22.59973089678116
 20
-7.271599258481472
 30
0.0
 40
1.5
100
AcDbArc
 50
270.0
 51
90.0
  0
ENDBLK
  5
5D
330
22
100
AcDbEntity
  8
0
100
AcDbBlockEnd
  0
BLOCK
  5
1C10
330
1C0F
100
AcDbEntity
  8
0
100
AcDbBlockBegin
  2
*X1
 70
     1
 10
0.0
 20
0.0
 30
0.0
  3
*X1
  1

  0
LINE
  5
1C11
330
1C0F
100
AcDbEntity
  8
0
 62
     0
100
AcDbLine
 10
188.2403734890908
 20
415.4873962879834
 30
0.0
 11
188.2002008725107
 21
415.5275689045636
 31
0.0
  0
LINE
  5
1C12
330
1C0F
100
AcDbEntity
  8
0
 62
     0
100
AcDbLine
 10
188.2403734890908
 20
415.3459749317461
 30
0.0
 11
188.1267608688523
 21
415.4595875519846
 31
0.0
  0
LINE
  5
1C13
330
1C0F
100
AcDbEntity
  8
0
 62
     0
100
AcDbLine
 10
188.2403734890908
 20
415.2045535755087
 30
0.0
 11
188.0556802415955
 21
415.3892468230041
 31
0.0
  0
LINE
  5
1C14
330
1C0F
100
AcDbEntity
  8
0
 62
     0
100
AcDbLine
 10
188.2403734890908
 20
415.0631322192714
 30
0.0
 11
187.9869577551057
 21
415.3165479532566
 31
0.0
  0
LINE
  5
1C15
330
1C0F
100
AcDbEntity
  8
0
 62
     0
100
AcDbLine
 10
188.2403734890908
 20
414.9217108630341
 30
0.0
 11
187.9206000601375
 21
415.2414842919874
 31
0.0
  0
LINE
  5
1C16
330
1C0F
100
AcDbEntity
  8
0
 62
     0
100
AcDbLine
 10
188.2403734890908
 20
414.7802895067969
 30
0.0
 11
187.8566218056488
 21
415.1640411902389
 31
0.0
  0
LINE
  5
1C17
330
1C0F
100
AcDbEntity
  8
0
 62
     0
100
AcDbLine
 10
188.2403734890908
 20
414.6388681505595
 30
0.0
 11
187.7950458875679
 21
415.0841957520824
 31
0.0
  0
LINE
  5
1C18
330
1C0F
100
AcDbEntity
  8
0
 62
     0
100
AcDbLine
 10
188.2403734890908
 20
414.4974467943222
 30
0.0
 11
187.7359038444866
 21
415.0019164389264
 31
0.0
  0
LINE
  5
1C19
330
1C0F
100
AcDbEntity
  8
0
 62
     0
100
AcDbLine
 10
188.2403734890908
 20
414.3560254380849
 30
0.0
 11
187.6792364165311
 21
414.9171625106447
 31
0.0
  0
LINE
  5
1C1A
330
1C0F
100
AcDbEntity
  8
0
 62
     0
100
AcDbLine
 10
191.738679965376
 20
410.7162976055624
 30
0.0
 11
191.2752688104793
 21
411.1797087604591
 31
0.0
  0
LINE
  5
1C1B
330
1C0F
100
AcDbEntity
  8
0
 62
     0
100
AcDbLine
 10
188.2403734890908
 20
414.2146040818476
 30
0.0
 11
187.6250942911752
 21
414.8298832797632
 31
0.0
  0
LINE
  5
1C1C
330
1C0F
100
AcDbEntity
  8
0
 62
     0
100
AcDbLine
 10
191.6488138311744
 20
410.6647423835267
 30
0.0
 11
190.4267406730559
 21
411.8868155416453
 31
0.0
  0
LINE
  5
1C1D
330
1C0F
100
AcDbEntity
  8
0
 62
     0
100
AcDbLine
 10
188.2403734890908
 20
414.0731827256103
 30
0.0
 11
187.5735390691395
 21
414.7400171455617
 31
0.0
  0
LINE
  5
1C1E
330
1C0F
100
AcDbEntity
  8
0
 62
     0
100
AcDbLine
 10
191.5562870484147
 20
410.6158478100491
 30
0.0
 11
189.5782125356319
 21
412.5939223228319
 31
0.0
  0
LINE
  5
1C1F
330
1C0F
100
AcDbEntity
  8
0
 62
     0
100
AcDbLine
 10
188.2403734890908
 20
413.931761369373
 30
0.0
 11
187.5246444956619
 21
414.6474903628019
 31
0.0
  0
LINE
  5
1C20
330
1C0F
100
AcDbEntity
  8
0
 62
     0
100
AcDbLine
 10
191.4610121692526
 20
410.5697013329738
 30
0.0
 11
187.4784980185866
 21
414.5522154836398
 31
0.0
  0
LINE
  5
1C21
330
1C0F
100
AcDbEntity
  8
0
 62
     0
100
AcDbLine
 10
191.362886074855
 20
410.5264060711342
 30
0.0
 11
188.5971706177064
 21
413.2921215282828
 31
0.0
  0
LINE
  5
1C22
330
1C0F
100
AcDbEntity
  8
0
 62
     0
100
AcDbLine
 10
188.2403734890908
 20
413.6489186568984
 30
0.0
 11
187.435202756747
 21
414.4540893892422
 31
0.0
  0
LINE
  5
1C23
330
1C0F
100
AcDbEntity
  8
0
 62
     0
100
AcDbLine
 10
191.2617874825668
 20
410.4860833071851
 30
0.0
 11
188.455749261469
 21
413.2921215282828
 31
0.0
  0
LINE
  5
1C24
330
1C0F
100
AcDbEntity
  8
0
 62
     0
100
AcDbLine
 10
188.2403734890908
 20
413.507497300661
 30
0.0
 11
187.3948799927978
 21
414.3529907969541
 31
0.0
  0
LINE
  5
1C25
330
1C0F
100
AcDbEntity
  8
0
 62
     0
100
AcDbLine
 10
191.1575737708665
 20
410.4488756626481
 30
0.0
 11
188.3143279052318
 21
413.2921215282828
 31
0.0
  0
LINE
  5
1C26
330
1C0F
100
AcDbEntity
  8
0
 62
     0
100
AcDbLine
 10
188.2403734890908
 20
413.3660759444238
 30
0.0
 11
187.3576723482609
 21
414.2487770852537
 31
0.0
  0
LINE
  5
1C27
330
1C0F
100
AcDbEntity
  8
0
 62
     0
100
AcDbLine
 10
191.05007690106
 20
410.4149511762172
 30
0.0
 11
187.3237478618301
 21
414.1412802154472
 31
0.0
  0
LINE
  5
1C28
330
1C0F
100
AcDbEntity
  8
0
 62
     0
100
AcDbLine
 10
190.9390981208235
 20
410.3845086002164
 30
0.0
 11
187.2933052858291
 21
414.0303014352108
 31
0.0
  0
LINE
  5
1C29
330
1C0F
100
AcDbEntity
  8
0
 62
     0
100
AcDbLine
 10
190.8244009922089
 20
410.3577843725937
 30
0.0
 11
187.2665810582065
 21
413.9156043065961
 31
0.0
  0
LINE
  5
1C2A
330
1C0F
100
AcDbEntity
  8
0
 62
     0
100
AcDbLine
 10
190.7057020646916
 20
410.3350619438737
 30
0.0
 11
187.2438586294865
 21
413.7969053790788
 31
0.0
  0
LINE
  5
1C2B
330
1C0F
100
AcDbEntity
  8
0
 62
     0
100
AcDbLine
 10
190.582658157624
 20
410.3166844947041
 30
0.0
 11
187.2254811803168
 21
413.6738614720112
 31
0.0
  0
LINE
  5
1C2C
330
1C0F
100
AcDbEntity
  8
0
 62
     0
100
AcDbLine
 10
190.4548486257284
 20
410.3030726703623
 30
0.0
 11
187.2118693559751
 21
413.5460519401156
 31
0.0
  0
LINE
  5
1C2D
330
1C0F
100
AcDbEntity
  8
0
 62
     0
100
AcDbLine
 10
190.3217499636156
 20
410.2947499762378
 30
0.0
 11
187.2035466618506
 21
413.4129532780027
 31
0.0
  0
LINE
  5
1C2E
330
1C0F
100
AcDbEntity
  8
0
 62
     0
100
AcDbLine
 10
190.1826982725294
 20
410.2923803110867
 30
0.0
 11
187.2011769966995
 21
413.2739015869167
 31
0.0
  0
LINE
  5
1C2F
330
1C0F
100
AcDbEntity
  8
0
 62
     0
100
AcDbLine
 10
190.0368316334196
 20
410.2968255939591
 30
0.0
 11
187.205622279572
 21
413.1280349478068
 31
0.0
  0
LINE
  5
1C30
330
1C0F
100
AcDbEntity
  8
0
 62
     0
100
AcDbLine
 10
189.8829973938534
 20
410.3092384772881
 30
0.0
 11
187.2180351629009
 21
412.9742007082406
 31
0.0
  0
LINE
  5
1C31
330
1C0F
100
AcDbEntity
  8
0
 62
     0
100
AcDbLine
 10
189.7195939873926
 20
410.3312205275115
 30
0.0
 11
187.2400172131243
 21
412.8107973017799
 31
0.0
  0
LINE
  5
1C32
330
1C0F
100
AcDbEntity
  8
0
 62
     0
100
AcDbLine
 10
189.5442797382137
 20
410.3651134204531
 30
0.0
 11
187.2739101060659
 21
412.6354830526009
 31
0.0
  0
LINE
  5
1C33
330
1C0F
100
AcDbEntity
  8
0
 62
     0
100
AcDbLine
 10
189.3533787703202
 20
410.4145930321093
 30
0.0
 11
187.3233897177222
 21
412.4445820847074
 31
0.0
  0
LINE
  5
1C34
330
1C0F
100
AcDbEntity
  8
0
 62
     0
100
AcDbLine
 10
189.1404754965769
 20
410.4860749496153
 30
0.0
 11
187.3948716352281
 21
412.2316788109642
 31
0.0
  0
LINE
  5
1C35
330
1C0F
100
AcDbEntity
  8
0
 62
     0
100
AcDbLine
 10
188.8921984823568
 20
410.5929306075982
 30
0.0
 11
187.501727293211
 21
411.9834017967439
 31
0.0
  0
LINE
  5
1C36
330
1C0F
100
AcDbEntity
  8
0
 62
     0
100
AcDbLine
 10
188.5677517608916
 20
410.7759559728259
 30
0.0
 11
187.6847526584388
 21
411.6589550752788
 31
0.0
  0
LINE
  5
1C37
330
1C0F
100
AcDbEntity
  8
0
 62
     0
100
AcDbLine
 10
286.863255030903
 20
410.6268739315074
 30
0.0
 11
286.7172647318382
 21
410.7728642305723
 31
0.0
  0
LINE
  5
1C38
330
1C0F
100
AcDbEntity
  8
0
 62
     0
100
AcDbLine
 10
287.1239620573891
 20
410.5075882612586
 30
0.0
 11
286.7944036534222
 21
410.8371466652256
 31
0.0
  0
LINE
  5
1C39
330
1C0F
100
AcDbEntity
  8
0
 62
     0
100
AcDbLine
 10
287.3437171323068
 20
410.4292545425782
 30
0.0
 11
286.8715425750062
 21
410.901429099879
 31
0.0
  0
LINE
  5
1C3A
330
1C0F
100
AcDbEntity
  8
0
 62
     0
100
AcDbLine
 10
287.5391737965783
 20
410.375219234544
 30
0.0
 11
286.9486814965901
 21
410.9657115345322
 31
0.0
  0
LINE
  5
1C3B
330
1C0F
100
AcDbEntity
  8
0
 62
     0
100
AcDbLine
 10
287.7178345350062
 20
410.3379798523536
 30
0.0
 11
287.0258204181741
 21
411.0299939691856
 31
0.0
  0
LINE
  5
1C3C
330
1C0F
100
AcDbEntity
  8
0
 62
     0
100
AcDbLine
 10
287.8838546004502
 20
410.3133811431468
 30
0.0
 11
287.102959339758
 21
411.0942764038389
 31
0.0
  0
LINE
  5
1C3D
330
1C0F
100
AcDbEntity
  8
0
 62
     0
100
AcDbLine
 10
288.0398247674434
 20
410.2988323323909
 30
0.0
 11
287.1800982613421
 21
411.1585588384922
 31
0.0
  0
LINE
  5
1C3E
330
1C0F
100
AcDbEntity
  8
0
 62
     0
100
AcDbLine
 10
288.1874907950198
 20
410.2925876610519
 30
0.0
 11
287.257237182926
 21
411.2228412731456
 31
0.0
  0
LINE
  5
1C3F
330
1C0F
100
AcDbEntity
  8
0
 62
     0
100
AcDbLine
 10
288.3280954850024
 20
410.2934043273065
 30
0.0
 11
287.33437610451
 21
411.2871237077989
 31
0.0
  0
LINE
  5
1C40
330
1C0F
100
AcDbEntity
  8
0
 62
     0
100
AcDbLine
 10
288.4625604829383
 20
410.300360685608
 30
0.0
 11
287.411515026094
 21
411.3514061424522
 31
0.0
  0
LINE
  5
1C41
330
1C0F
100
AcDbEntity
  8
0
 62
     0
100
AcDbLine
 10
288.5915910964209
 20
410.3127514283626
 30
0.0
 11
287.488653947678
 21
411.4156885771055
 31
0.0
  0
LINE
  5
1C42
330
1C0F
100
AcDbEntity
  8
0
 62
     0
100
AcDbLine
 10
288.7157406121355
 20
410.3300232688853
 30
0.0
 11
287.565792869262
 21
411.4799710117589
 31
0.0
  0
LINE
  5
1C43
330
1C0F
100
AcDbEntity
  8
0
 62
     0
100
AcDbLine
 10
288.8354517544676
 20
410.3517334827905
 30
0.0
 11
287.642931790846
 21
411.5442534464121
 31
0.0
  0
LINE
  5
1C44
330
1C0F
100
AcDbEntity
  8
0
 62
     0
100
AcDbLine
 10
288.951084499132
 20
410.3775220943634
 30
0.0
 11
287.72007071243
 21
411.6085358810654
 31
0.0
  0
LINE
  5
1C45
330
1C0F
100
AcDbEntity
  8
0
 62
     0
100
AcDbLine
 10
289.0629353589552
 20
410.4070925907776
 30
0.0
 11
287.797209634014
 21
411.6728183157189
 31
0.0
  0
LINE
  5
1C46
330
1C0F
100
AcDbEntity
  8
0
 62
     0
100
AcDbLine
 10
289.1712511313463
 20
410.4401981746238
 30
0.0
 11
287.874348555598
 21
411.7371007503721
 31
0.0
  0
LINE
  5
1C47
330
1C0F
100
AcDbEntity
  8
0
 62
     0
100
AcDbLine
 10
289.2762389295485
 20
410.4766317326589
 30
0.0
 11
287.951487477182
 21
411.8013831850254
 31
0.0
  0
LINE
  5
1C48
330
1C0F
100
AcDbEntity
  8
0
 62
     0
100
AcDbLine
 10
289.3780736488585
 20
410.5162183695862
 30
0.0
 11
288.028626398766
 21
411.8656656196789
 31
0.0
  0
LINE
  5
1C49
330
1C0F
100
AcDbEntity
  8
0
 62
     0
100
AcDbLine
 10
289.4769036179402
 20
410.5588097567418
 30
0.0
 11
288.1057653203499
 21
411.9299480543321
 31
0.0
  0
LINE
  5
1C4A
330
1C0F
100
AcDbEntity
  8
0
 62
     0
100
AcDbLine
 10
289.5728549372473
 20
410.604279793672
 30
0.0
 11
288.182904241934
 21
411.9942304889854
 31
0.0
  0
LINE
  5
1C4B
330
1C0F
100
AcDbEntity
  8
0
 62
     0
100
AcDbLine
 10
289.6660348484127
 20
410.6525212387439
 30
0.0
 11
288.2600431635179
 21
412.0585129236387
 31
0.0
  0
LINE
  5
1C4C
330
1C0F
100
AcDbEntity
  8
0
 62
     0
100
AcDbLine
 10
289.75653437492
 20
410.7034430684739
 30
0.0
 11
288.3371820851019
 21
412.1227953582921
 31
0.0
  0
LINE
  5
1C4D
330
1C0F
100
AcDbEntity
  8
0
 62
     0
100
AcDbLine
 10
289.8444304049345
 20
410.7569683946968
 30
0.0
 11
288.4143210066859
 21
412.1870777929454
 31
0.0
  0
LINE
  5
1C4E
330
1C0F
100
AcDbEntity
  8
0
 62
     0
100
AcDbLine
 10
289.9297873395602
 20
410.8130328163084
 30
0.0
 11
288.4914599282699
 21
412.2513602275987
 31
0.0
  0
LINE
  5
1C4F
330
1C0F
100
AcDbEntity
  8
0
 62
     0
100
AcDbLine
 10
290.0126583964669
 20
410.871583115639
 30
0.0
 11
288.5685988498538
 21
412.315642662252
 31
0.0
  0
LINE
  5
1C50
330
1C0F
100
AcDbEntity
  8
0
 62
     0
100
AcDbLine
 10
290.0930866350119
 20
410.9325762333313
 30
0.0
 11
288.6457377714378
 21
412.3799250969053
 31
0.0
  0
LINE
  5
1C51
330
1C0F
100
AcDbEntity
  8
0
 62
     0
100
AcDbLine
 10
290.1711057516106
 20
410.9959784729698
 30
0.0
 11
288.7228766930218
 21
412.4442075315587
 31
0.0
  0
LINE
  5
1C52
330
1C0F
100
AcDbEntity
  8
0
 62
     0
100
AcDbLine
 10
290.2467406811286
 20
411.0617648996893
 30
0.0
 11
288.8000156146059
 21
412.508489966212
 31
0.0
  0
LINE
  5
1C53
330
1C0F
100
AcDbEntity
  8
0
 62
     0
100
AcDbLine
 10
290.3200080301191
 20
411.129918906936
 30
0.0
 11
288.8771545361898
 21
412.5727724008653
 31
0.0
  0
LINE
  5
1C54
330
1C0F
100
AcDbEntity
  8
0
 62
     0
100
AcDbLine
 10
290.3909163598335
 20
411.2004319334589
 30
0.0
 11
288.9542934577738
 21
412.6370548355186
 31
0.0
  0
LINE
  5
1C55
330
1C0F
100
AcDbEntity
  8
0
 62
     0
100
AcDbLine
 10
290.4594663304046
 20
411.2733033191251
 30
0.0
 11
289.0314323793578
 21
412.7013372701719
 31
0.0
  0
LINE
  5
1C56
330
1C0F
100
AcDbEntity
  8
0
 62
     0
100
AcDbLine
 10
290.5256507119157
 20
411.3485402938513
 30
0.0
 11
289.1085713009418
 21
412.7656197048253
 31
0.0
  0
LINE
  5
1C57
330
1C0F
100
AcDbEntity
  8
0
 62
     0
100
AcDbLine
 10
290.5894542627915
 20
411.4261580992129
 30
0.0
 11
289.1857102225257
 21
412.8299021394786
 31
0.0
  0
LINE
  5
1C58
330
1C0F
100
AcDbEntity
  8
0
 62
     0
100
AcDbLine
 10
290.6508534707003
 20
411.5061802475413
 30
0.0
 11
289.2628491441097
 21
412.8941845741319
 31
0.0
  0
LINE
  5
1C59
330
1C0F
100
AcDbEntity
  8
0
 62
     0
100
AcDbLine
 10
290.7098161455686
 20
411.5886389289104
 30
0.0
 11
289.3399880656938
 21
412.9584670087853
 31
0.0
  0
LINE
  5
1C5A
330
1C0F
100
AcDbEntity
  8
0
 62
     0
100
AcDbLine
 10
290.7663008479518
 20
411.6735755827644
 30
0.0
 11
289.4171269872777
 21
413.0227494434386
 31
0.0
  0
LINE
  5
1C5B
330
1C0F
100
AcDbEntity
  8
0
 62
     0
100
AcDbLine
 10
290.8202561283875
 20
411.7610416585661
 30
0.0
 11
289.4942659088617
 21
413.0870318780919
 31
0.0
  0
LINE
  5
1C5C
330
1C0F
100
AcDbEntity
  8
0
 62
     0
100
AcDbLine
 10
290.8716195438032
 20
411.8510995993877
 30
0.0
 11
289.5714048304457
 21
413.1513143127452
 31
0.0
  0
LINE
  5
1C5D
330
1C0F
100
AcDbEntity
  8
0
 62
     0
100
AcDbLine
 10
290.9203164046681
 20
411.9438240947601
 30
0.0
 11
289.6485437520297
 21
413.2155967473985
 31
0.0
  0
LINE
  5
1C5E
330
1C0F
100
AcDbEntity
  8
0
 62
     0
100
AcDbLine
 10
290.9662581900569
 20
412.0393036656087
 30
0.0
 11
289.7256826736137
 21
413.2798791820518
 31
0.0
  0
LINE
  5
1C5F
330
1C0F
100
AcDbEntity
  8
0
 62
     0
100
AcDbLine
 10
291.0093405452438
 20
412.137642666659
 30
0.0
 11
289.85486168362
 21
413.2921215282828
 31
0.0
  0
LINE
  5
1C60
330
1C0F
100
AcDbEntity
  8
0
 62
     0
100
AcDbLine
 10
291.0494407449837
 20
412.2389638231564
 30
0.0
 11
289.9962830398573
 21
413.2921215282828
 31
0.0
  0
LINE
  5
1C61
330
1C0F
100
AcDbEntity
  8
0
 62
     0
100
AcDbLine
 10
291.0864144608627
 20
412.3434114635148
 30
0.0
 11
290.1377043960946
 21
413.2921215282828
 31
0.0
  0
LINE
  5
1C62
330
1C0F
100
AcDbEntity
  8
0
 62
     0
100
AcDbLine
 10
291.1200916060142
 20
412.4511556746004
 30
0.0
 11
290.2403734890908
 21
413.3308737915239
 31
0.0
  0
LINE
  5
1C63
330
1C0F
100
AcDbEntity
  8
0
 62
     0
100
AcDbLine
 10
291.1502709338223
 20
412.5623977030298
 30
0.0
 11
290.2403734890908
 21
413.4722951477612
 31
0.0
  0
LINE
  5
1C64
330
1C0F
100
AcDbEntity
  8
0
 62
     0
100
AcDbLine
 10
291.1767129201821
 20
412.6773770729072
 30
0.0
 11
290.2403734890908
 21
413.6137165039985
 31
0.0
  0
LINE
  5
1C65
330
1C0F
100
AcDbEntity
  8
0
 62
     0
100
AcDbLine
 10
291.1991302292834
 20
412.7963811200433
 30
0.0
 11
290.2403734890908
 21
413.7551378602358
 31
0.0
  0
LINE
  5
1C66
330
1C0F
100
AcDbEntity
  8
0
 62
     0
100
AcDbLine
 10
291.2171746936813
 20
412.9197580118828
 30
0.0
 11
290.2403734890908
 21
413.8965592164732
 31
0.0
  0
LINE
  5
1C67
330
1C0F
100
AcDbEntity
  8
0
 62
     0
100
AcDbLine
 10
291.2304191255748
 20
413.0479349362265
 30
0.0
 11
290.2403734890908
 21
414.0379805727104
 31
0.0
  0
LINE
  5
1C68
330
1C0F
100
AcDbEntity
  8
0
 62
     0
100
AcDbLine
 10
291.2383312155364
 20
413.1814442025022
 30
0.0
 11
290.2403734890908
 21
414.1794019289478
 31
0.0
  0
LINE
  5
1C69
330
1C0F
100
AcDbEntity
  8
0
 62
     0
100
AcDbLine
 10
291.2402348578896
 20
413.3209619163863
 30
0.0
 11
290.2403734890908
 21
414.320823285185
 31
0.0
  0
LINE
  5
1C6A
330
1C0F
100
AcDbEntity
  8
0
 62
     0
100
AcDbLine
 10
291.2352505874543
 20
413.4673675430589
 30
0.0
 11
290.2403734890908
 21
414.4622446414223
 31
0.0
  0
LINE
  5
1C6B
330
1C0F
100
AcDbEntity
  8
0
 62
     0
100
AcDbLine
 10
291.2221993828871
 20
413.6218401038634
 30
0.0
 11
290.2403734890908
 21
414.6036659976597
 31
0.0
  0
LINE
  5
1C6C
330
1C0F
100
AcDbEntity
  8
0
 62
     0
100
AcDbLine
 10
291.19943773868
 20
413.7860231043077
 30
0.0
 11
290.2403734890908
 21
414.745087353897
 31
0.0
  0
LINE
  5
1C6D
330
1C0F
100
AcDbEntity
  8
0
 62
     0
100
AcDbLine
 10
291.1645520829044
 20
413.9623301163208
 30
0.0
 11
290.2403734890908
 21
414.8865087101343
 31
0.0
  0
LINE
  5
1C6E
330
1C0F
100
AcDbEntity
  8
0
 62
     0
100
AcDbLine
 10
291.1137297170494
 20
414.154573838413
 30
0.0
 11
290.2403734890908
 21
415.0279300663716
 31
0.0
  0
LINE
  5
1C6F
330
1C0F
100
AcDbEntity
  8
0
 62
     0
100
AcDbLine
 10
291.0402503514891
 20
414.3694745602107
 30
0.0
 11
290.2403734890908
 21
415.1693514226089
 31
0.0
  0
LINE
  5
1C70
330
1C0F
100
AcDbEntity
  8
0
 62
     0
100
AcDbLine
 10
290.9298538993921
 20
414.6212923685451
 30
0.0
 11
290.2403734890908
 21
415.3107727788462
 31
0.0
  0
LINE
  5
1C71
330
1C0F
100
AcDbEntity
  8
0
 62
     0
100
AcDbLine
 10
290.7368818522208
 20
414.9556857719536
 30
0.0
 11
290.2403734890908
 21
415.4521941350835
 31
0.0
  0
ENDBLK
  5
1C72
330
1C0F
100
AcDbEntity
  8
0
100
AcDbBlockEnd
  0
BLOCK
  5
1DB9
330
1DAF
100
AcDbEntity
  8
0
100
AcDbBlockBegin
  2
*D2
 70
     1
 10
0.0
 20
0.0
 30
0.0
  3
*D2
  1

  0
LINE
  5
1FCE
330
1DAF
100
AcDbEntity
  8
BEM
 62
     0
370
    -2
100
AcDbLine
 10
186.0691999529354
 20
264.210278490128
 30
0.0
 11
186.0691999529354
 21
233.6744049762296
 31
0.0
  0
LINE
  5
1FCF
330
1DAF
100
AcDbEntity
  8
BEM
 62
     0
370
    -2
100
AcDbLine
 10
275.0691999529354
 20
264.210278490128
 30
0.0
 11
275.0691999529354
 21
233.6744049762296
 31
0.0
  0
LINE
  5
1FD0
330
1DAF
100
AcDbEntity
  8
BEM
 62
     0
370
    -2
100
AcDbLine
 10
193.0691999529354
 20
235.6744049762296
 30
0.0
 11
268.0691999529354
 21
235.6744049762296
 31
0.0
  0
SOLID
  5
1FD1
330
1DAF
100
AcDbEntity
  8
BEM
 62
     0
100
AcDbTrace
 10
193.0691999529354
 20
236.8410716428963
 30
0.0
 11
193.0691999529354
 21
234.507738309563
 31
0.0
 12
186.0691999529354
 22
235.6744049762296
 32
0.0
 13
186.0691999529354
 23
235.6744049762296
 33
0.0
  0
SOLID
  5
1FD2
330
1DAF
100
AcDbEntity
  8
BEM
 62
     0
100
AcDbTrace
 10
268.0691999529354
 20
236.8410716428963
 30
0.0
 11
268.0691999529354
 21
234.507738309563
 31
0.0
 12
275.0691999529354
 22
235.6744049762296
 32
0.0
 13
275.0691999529354
 23
235.6744049762296
 33
0.0
  0
MTEXT
  5
1FD3
330
1DAF
100
AcDbEntity
  8
BEM
 62
     1
100
AcDbMText
 10
230.5691999529354
 20
242.1744049762296
 30
0.0
 40
7.0
 41
0.0
 71
     5
 72
     1
  1
\A1;%%c89
 73
     1
 44
1.0
  0
POINT
  5
1FD4
330
1DAF
100
AcDbEntity
  8
DEFPOINTS
 62
     0
100
AcDbPoint
 10
186.0691999529354
 20
266.210278490128
 30
0.0
  0
POINT
  5
1FD5
330
1DAF
100
AcDbEntity
  8
DEFPOINTS
 62
     0
100
AcDbPoint
 10
275.0691999529354
 20
266.210278490128
 30
0.0
  0
POINT
  5
1FD6
330
1DAF
100
AcDbEntity
  8
DEFPOINTS
 62
     0
100
AcDbPoint
 10
275.0691999529354
 20
235.6744049762296
 30
0.0
  0
ENDBLK
  5
1DBA
330
1DAF
100
AcDbEntity
  8
0
100
AcDbBlockEnd
  0
BLOCK
  5
1DC5
330
1DBB
100
AcDbEntity
  8
0
100
AcDbBlockBegin
  2
*D3
 70
     1
 10
0.0
 20
0.0
 30
0.0
  3
*D3
  1

  0
LINE
  5
1FC5
330
1DBB
100
AcDbEntity
  8
BEM
 62
     0
370
    -2
100
AcDbLine
 10
164.0691999529354
 20
468.210278490128
 30
0.0
 11
164.0691999529354
 21
482.7743777603923
 31
0.0
  0
LINE
  5
1FC6
330
1DBB
100
AcDbEntity
  8
BEM
 62
     0
370
    -2
100
AcDbLine
 10
297.0691999529354
 20
468.2102784901282
 30
0.0
 11
297.0691999529354
 21
482.7743777603923
 31
0.0
  0
LINE
  5
1FC7
330
1DBB
100
AcDbEntity
  8
BEM
 62
     0
370
    -2
100
AcDbLine
 10
171.0691999529354
 20
480.7743777603923
 30
0.0
 11
290.0691999529353
 21
480.7743777603923
 31
0.0
  0
SOLID
  5
1FC8
330
1DBB
100
AcDbEntity
  8
BEM
 62
     0
100
AcDbTrace
 10
171.0691999529354
 20
481.941044427059
 30
0.0
 11
171.0691999529354
 21
479.6077110937256
 31
0.0
 12
164.0691999529354
 22
480.7743777603923
 32
0.0
 13
164.0691999529354
 23
480.7743777603923
 33
0.0
  0
SOLID
  5
1FC9
330
1DBB
100
AcDbEntity
  8
BEM
 62
     0
100
AcDbTrace
 10
290.0691999529353
 20
481.941044427059
 30
0.0
 11
290.0691999529353
 21
479.6077110937256
 31
0.0
 12
297.0691999529354
 22
480.7743777603923
 32
0.0
 13
297.0691999529354
 23
480.7743777603923
 33
0.0
  0
MTEXT
  5
1FCA
330
1DBB
100
AcDbEntity
  8
BEM
 62
     1
100
AcDbMText
 10
230.5691999529354
 20
487.2743777603923
 30
0.0
 40
7.0
 41
0.0
 71
     5
 72
     1
  1
\A1;%%c133
 73
     1
 44
1.0
  0
POINT
  5
1FCB
330
1DBB
100
AcDbEntity
  8
DEFPOINTS
 62
     0
100
AcDbPoint
 10
164.0691999529354
 20
466.2102784901279
 30
0.0
  0
POINT
  5
1FCC
330
1DBB
100
AcDbEntity
  8
DEFPOINTS
 62
     0
100
AcDbPoint
 10
297.0691999529354
 20
466.2102784901281
 30
0.0
  0
POINT
  5
1FCD
330
1DBB
100
AcDbEntity
  8
DEFPOINTS
 62
     0
100
AcDbPoint
 10
297.0691999529354
 20
480.7743777603923
 30
0.0
  0
ENDBLK
  5
1DC6
330
1DBB
100
AcDbEntity
  8
0
100
AcDbBlockEnd
  0
BLOCK
  5
1DD1
330
1DC7
100
AcDbEntity
  8
0
100
AcDbBlockBegin
  2
*D4
 70
     1
 10
0.0
 20
0.0
 30
0.0
  3
*D4
  1

  0
LINE
  5
1FE0
330
1DC7
100
AcDbEntity
  8
BEM
 62
     0
370
    -2
100
AcDbLine
 10
162.0691999529354
 20
466.2102784901279
 30
0.0
 11
133.2475105315003
 21
466.2102784901279
 31
0.0
  0
LINE
  5
1FE1
330
1DC7
100
AcDbEntity
  8
BEM
 62
     0
370
    -2
100
AcDbLine
 10
184.9440865881945
 20
256.210278490128
 30
0.0
 11
133.2475105315002
 21
256.210278490128
 31
0.0
  0
LINE
  5
1FE2
330
1DC7
100
AcDbEntity
  8
BEM
 62
     0
370
    -2
100
AcDbLine
 10
135.2475105315003
 20
459.210278490128
 30
0.0
 11
135.2475105315002
 21
263.210278490128
 31
0.0
  0
SOLID
  5
1FE3
330
1DC7
100
AcDbEntity
  8
BEM
 62
     0
100
AcDbTrace
 10
134.0808438648336
 20
459.210278490128
 30
0.0
 11
136.4141771981669
 21
459.210278490128
 31
0.0
 12
135.2475105315003
 22
466.2102784901279
 32
0.0
 13
135.2475105315003
 23
466.2102784901279
 33
0.0
  0
SOLID
  5
1FE4
330
1DC7
100
AcDbEntity
  8
BEM
 62
     0
100
AcDbTrace
 10
134.0808438648335
 20
263.210278490128
 30
0.0
 11
136.4141771981668
 21
263.210278490128
 31
0.0
 12
135.2475105315002
 22
256.210278490128
 32
0.0
 13
135.2475105315002
 23
256.210278490128
 33
0.0
  0
MTEXT
  5
1FE5
330
1DC7
100
AcDbEntity
  8
BEM
 62
     1
100
AcDbMText
 10
128.7475105315001
 20
361.2102784901281
 30
0.0
 40
7.0
 41
0.0
 71
     5
 72
     1
  1
\A1;210
 11
0.0000000000000001
 21
1.0
 31
0.0
 73
     1
 44
1.0
  0
POINT
  5
1FE6
330
1DC7
100
AcDbEntity
  8
DEFPOINTS
 62
     0
100
AcDbPoint
 10
164.0691999529354
 20
466.2102784901279
 30
0.0
  0
POINT
  5
1FE7
330
1DC7
100
AcDbEntity
  8
DEFPOINTS
 62
     0
100
AcDbPoint
 10
186.9440865881945
 20
256.210278490128
 30
0.0
  0
POINT
  5
1FE8
330
1DC7
100
AcDbEntity
  8
DEFPOINTS
 62
     0
100
AcDbPoint
 10
135.2475105315002
 20
256.210278490128
 30
0.0
  0
ENDBLK
  5
1DD2
330
1DC7
100
AcDbEntity
  8
0
100
AcDbBlockEnd
  0
BLOCK
  5
1FBA
330
1FB0
100
AcDbEntity
  8
0
100
AcDbBlockBegin
  2
*D5
 70
     1
 10
0.0
 20
0.0
 30
0.0
  3
*D5
  1

  0
LINE
  5
1FD7
330
1FB0
100
AcDbEntity
  8
BEM
 62
     0
370
    -2
100
AcDbLine
 10
184.9440865881945
 20
256.210278490128
 30
0.0
 11
148.1049799671941
 21
256.210278490128
 31
0.0
  0
LINE
  5
1FD8
330
1FB0
100
AcDbEntity
  8
BEM
 62
     0
370
    -2
100
AcDbLine
 10
162.0691999529354
 20
306.210278490128
 30
0.0
 11
148.1049799671941
 21
306.210278490128
 31
0.0
  0
LINE
  5
1FD9
330
1FB0
100
AcDbEntity
  8
BEM
 62
     0
370
    -2
100
AcDbLine
 10
150.1049799671941
 20
263.210278490128
 30
0.0
 11
150.1049799671941
 21
299.210278490128
 31
0.0
  0
SOLID
  5
1FDA
330
1FB0
100
AcDbEntity
  8
BEM
 62
     0
100
AcDbTrace
 10
148.9383133005275
 20
263.210278490128
 30
0.0
 11
151.2716466338608
 21
263.210278490128
 31
0.0
 12
150.1049799671941
 22
256.210278490128
 32
0.0
 13
150.1049799671941
 23
256.210278490128
 33
0.0
  0
SOLID
  5
1FDB
330
1FB0
100
AcDbEntity
  8
BEM
 62
     0
100
AcDbTrace
 10
148.9383133005275
 20
299.210278490128
 30
0.0
 11
151.2716466338608
 21
299.210278490128
 31
0.0
 12
150.1049799671941
 22
306.210278490128
 32
0.0
 13
150.1049799671941
 23
306.210278490128
 33
0.0
  0
MTEXT
  5
1FDC
330
1FB0
100
AcDbEntity
  8
BEM
 62
     1
100
AcDbMText
 10
143.6049799671941
 20
281.2102784901281
 30
0.0
 40
7.0
 41
0.0
 71
     5
 72
     1
  1
\A1;50
 11
0.0000000000000001
 21
1.0
 31
0.0
 73
     1
 44
1.0
  0
POINT
  5
1FDD
330
1FB0
100
AcDbEntity
  8
DEFPOINTS
 62
     0
100
AcDbPoint
 10
186.9440865881945
 20
256.210278490128
 30
0.0
  0
POINT
  5
1FDE
330
1FB0
100
AcDbEntity
  8
DEFPOINTS
 62
     0
100
AcDbPoint
 10
164.0691999529354
 20
306.210278490128
 30
0.0
  0
POINT
  5
1FDF
330
1FB0
100
AcDbEntity
  8
DEFPOINTS
 62
     0
100
AcDbPoint
 10
150.1049799671941
 20
306.210278490128
 30
0.0
  0
ENDBLK
  5
1FBB
330
1FB0
100
AcDbEntity
  8
0
100
AcDbBlockEnd
  0
ENDSEC
  0
SECTION
  2
ENTITIES
  0
LINE
  5
19F
330
1E
100
AcDbEntity
  8
STEMPEL
100
AcDbLine
 10
409.9999999999999
 20
110.0
 30
0.0
 11
39.99999999999995
 21
110.0
 31
0.0
  0
LINE
  5
1A0
330
1E
100
AcDbEntity
  8
STEMPEL
100
AcDbLine
 10
136.0000000000001
 20
109.9999999999999
 30
0.0
 11
136.0
 21
9.999999999999971
 31
0.0
  0
LINE
  5
1A1
330
1E
100
AcDbEntity
  8
STEMPEL
100
AcDbLine
 10
220.0
 20
110.0
 30
0.0
 11
220.0
 21
9.999999999999971
 31
0.0
  0
LINE
  5
1A2
330
1E
100
AcDbEntity
  8
STEMPEL
100
AcDbLine
 10
331.9999999999999
 20
109.9999999999997
 30
0.0
 11
331.9999999999999
 21
40.0
 31
0.0
  0
LINE
  5
1A3
330
1E
100
AcDbEntity
  8
STEMPEL
100
AcDbLine
 10
135.9999999999999
 20
29.99999999999997
 30
0.0
 11
39.99999999999995
 21
29.99999999999997
 31
0.0
  0
LINE
  5
1A4
330
1E
100
AcDbEntity
  8
STEMPEL
100
AcDbLine
 10
409.9999999999999
 20
40.0
 30
0.0
 11
136.0000000000001
 21
39.99999999999997
 31
0.0
  0
LINE
  5
1A5
330
1E
100
AcDbEntity
  8
STEMPEL
100
AcDbLine
 10
409.9999999999999
 20
80.0
 30
0.0
 11
136.0000000000001
 21
79.99999999999994
 31
0.0
  0
LINE
  5
1A6
330
1E
100
AcDbEntity
  8
VOLL
100
AcDbLine
 10
54.00000000000005
 20
110.0
 30
0.0
 11
53.99999999999995
 21
9.999999999999971
 31
0.0
  0
LINE
  5
1A7
330
1E
100
AcDbEntity
  8
VOLL
100
AcDbLine
 10
94.00000000000011
 20
109.9999999999999
 30
0.0
 11
94.0
 21
9.999999999999971
 31
0.0
  0
LINE
  5
1A8
330
1E
100
AcDbEntity
  8
VOLL
100
AcDbLine
 10
114.0000000000001
 20
109.9999999999999
 30
0.0
 11
114.0
 21
9.999999999999971
 31
0.0
  0
LINE
  5
1A9
330
1E
100
AcDbEntity
  8
VOLL
100
AcDbLine
 10
154.0000000000001
 20
79.99999999999994
 30
0.0
 11
154.0000000000001
 21
39.99999999999997
 31
0.0
  0
LINE
  5
1AA
330
1E
100
AcDbEntity
  8
VOLL
100
AcDbLine
 10
180.0000000000001
 20
109.9999999999998
 30
0.0
 11
180.0
 21
39.99999999999997
 31
0.0
  0
LINE
  5
1AB
330
1E
100
AcDbEntity
  8
HILF
100
AcDbLine
 10
40.00000000000006
 20
100.0
 30
0.0
 11
136.0000000000001
 21
100.0
 31
0.0
  0
LINE
  5
1AC
330
1E
100
AcDbEntity
  8
HILF
100
AcDbLine
 10
40.00000000000006
 20
90.00000000000005
 30
0.0
 11
136.0000000000001
 21
90.00000000000005
 31
0.0
  0
LINE
  5
1AD
330
1E
100
AcDbEntity
  8
HILF
100
AcDbLine
 10
40.00000000000006
 20
79.99999999999994
 30
0.0
 11
136.0000000000001
 21
79.99999999999994
 31
0.0
  0
LINE
  5
1AE
330
1E
100
AcDbEntity
  8
HILF
100
AcDbLine
 10
40.00000000000006
 20
69.99999999999994
 30
0.0
 11
136.0000000000001
 21
69.99999999999994
 31
0.0
  0
LINE
  5
1AF
330
1E
100
AcDbEntity
  8
HILF
100
AcDbLine
 10
40.00000000000006
 20
59.99999999999997
 30
0.0
 11
136.0000000000001
 21
59.99999999999997
 31
0.0
  0
LINE
  5
1B0
330
1E
100
AcDbEntity
  8
HILF
100
AcDbLine
 10
40.00000000000006
 20
49.99999999999997
 30
0.0
 11
136.0000000000001
 21
49.99999999999997
 31
0.0
  0
LINE
  5
1B1
330
1E
100
AcDbEntity
  8
HILF
100
AcDbLine
 10
40.00000000000006
 20
39.99999999999997
 30
0.0
 11
136.0000000000001
 21
39.99999999999997
 31
0.0
  0
LINE
  5
1B2
330
1E
100
AcDbEntity
  8
HILF
100
AcDbLine
 10
136.0000000000001
 20
69.99999999999994
 30
0.0
 11
220.0
 21
69.99999999999994
 31
0.0
  0
LINE
  5
1B3
330
1E
100
AcDbEntity
  8
HILF
100
AcDbLine
 10
136.0000000000001
 20
59.99999999999997
 30
0.0
 11
220.0
 21
59.99999999999997
 31
0.0
  0
LINE
  5
1B4
330
1E
100
AcDbEntity
  8
HILF
100
AcDbLine
 10
136.0000000000001
 20
49.99999999999997
 30
0.0
 11
220.0
 21
49.99999999999997
 31
0.0
  0
LINE
  5
1B5
330
1E
100
AcDbEntity
  8
HILF
100
AcDbLine
 10
224.7736801096948
 20
84.03758247564139
 30
0.0
 11
324.8353916556311
 21
84.03758247564139
 31
0.0
  0
LINE
  5
1B6
330
1E
100
AcDbEntity
  8
HILF
100
AcDbLine
 10
224.7736801096948
 20
69.99999999999994
 30
0.0
 11
324.835391655631
 21
69.99999999999994
 31
0.0
  0
LINE
  5
1B7
330
1E
100
AcDbEntity
  8
HILF
100
AcDbLine
 10
224.7736801096948
 20
59.99999999999997
 30
0.0
 11
324.835391655631
 21
59.99999999999997
 31
0.0
  0
LINE
  5
1B8
330
1E
100
AcDbEntity
  8
HILF
100
AcDbLine
 10
224.7736801096948
 20
49.99999999999997
 30
0.0
 11
324.835391655631
 21
49.99999999999997
 31
0.0
  0
LINE
  5
1B9
330
1E
100
AcDbEntity
  8
VOLL
100
AcDbLine
 10
331.9999999999999
 20
60.0
 30
0.0
 11
409.9999999999999
 21
60.0
 31
0.0
  0
LINE
  5
1BA
330
1E
100
AcDbEntity
  8
HILF
100
AcDbLine
 10
336.7238616296992
 20
83.77983636955827
 30
0.0
 11
404.8588839326727
 21
83.77983636955827
 31
0.0
  0
LINE
  5
1BB
330
1E
100
AcDbEntity
  8
HILF
100
AcDbLine
 10
223.4909699289885
 20
14.89398258028314
 30
0.0
 11
404.8588839326727
 21
14.89398258028314
 31
0.0
  0
TEXT
  5
1BC
330
1E
100
AcDbEntity
  8
TEXT
100
AcDbText
 10
63.30818695982741
 20
18.59145467910836
 30
0.0
 40
4.0
  1
Änderung
 41
0.8
  7
GREEKS
 72
     4
 11
74.05104410268456
 21
20.30574039339407
 31
0.0
100
AcDbText
  0
TEXT
  5
1BD
330
1E
100
AcDbEntity
  8
TEXT
100
AcDbText
 10
143.5163572150377
 20
102.4620895087088
 30
0.0
 40
5.0
  1
Maßstab
 41
0.8
  7
GREEKS
100
AcDbText
  0
TEXT
  5
1BE
330
1E
100
AcDbEntity
  8
TEXT
100
AcDbText
 10
184.2858954734051
 20
102.4184168434819
 30
0.0
 40
5.0
  1
Zul. Abw.
 41
0.8
  7
GREEKS
100
AcDbText
  0
TEXT
  5
1BF
330
1E
100
AcDbEntity
  8
TEXT
100
AcDbText
 10
224.877940380901
 20
102.5489328011779
 30
0.0
 40
5.0
  1
Benennung
 41
0.8
  7
GREEKS
100
AcDbText
  0
TEXT
  5
1C0
330
1E
100
AcDbEntity
  8
TEXT
100
AcDbText
 10
336.178754957634
 20
102.3132034537136
 30
0.0
 40
5.0
  1
Zeichnungs Nr.
 41
0.8
  7
GREEKS
100
AcDbText
  0
TEXT
  5
1C1
330
1E
100
AcDbEntity
  8
TEXT
100
AcDbText
 10
224.742238391136
 20
30.84560570193057
 30
0.0
 40
5.0
  1
Bauvorhaben
 41
0.8
  7
GREEKS
100
AcDbText
  0
TEXT
  5
1C2
330
1E
100
AcDbEntity
  8
TEXT
100
AcDbText
 10
336.7238616296992
 20
73.1811823709997
 30
0.0
 40
5.0
  1
Ersatz für:
 41
0.8
  7
GREEKS
100
AcDbText
  0
TEXT
  5
1C3
330
1E
100
AcDbEntity
  8
TEXT
100
AcDbText
 10
48.26641107045753
 20
13.65465846027192
 30
0.0
 40
3.6
  1
Index
 50
90.0
 41
0.8
  7
GREEKS
100
AcDbText
  0
TEXT
  5
1C6
330
1E
100
AcDbEntity
  8
TEXT
100
AcDbText
 10
162.3311673153651
 20
73.31880501229926
 30
0.0
 40
3.6
  1
Tag
 41
0.8
  7
GREEKS
100
AcDbText
  0
TEXT
  5
1C7
330
1E
100
AcDbEntity
  8
TEXT
100
AcDbText
 10
192.4626584226295
 20
73.30961091915225
 30
0.0
 40
3.6
  1
Name
 41
0.8
  7
GREEKS
100
AcDbText
  0
TEXT
  5
1C8
330
1E
100
AcDbEntity
  8
TEXT
100
AcDbText
 10
137.5836127167615
 20
63.62990369617964
 30
0.0
 40
3.6
  1
Gez.
 41
0.8
  7
GREEKS
100
AcDbText
  0
TEXT
  5
1C9
330
1E
100
AcDbEntity
  8
TEXT
100
AcDbText
 10
137.5515086571672
 20
53.68926291428377
 30
0.0
 40
3.6
  1
Gepr.
 41
0.8
  7
GREEKS
100
AcDbText
  0
TEXT
  5
1CA
330
1E
100
AcDbEntity
  8
TEXT
100
AcDbText
 10
137.6006777387304
 20
43.52946389649807
 30
0.0
 40
3.6
  1
Norm.
 41
0.8
  7
GREEKS
100
AcDbText
  0
LINE
  5
1CB
330
1E
100
AcDbEntity
  8
STEMPEL
100
AcDbLine
 10
49.99999999999989
 20
10.0
 30
0.0
 11
409.9999999999999
 21
10.0
 31
0.0
  0
LINE
  5
1CC
330
1E
100
AcDbEntity
  8
STEMPEL
100
AcDbLine
 10
409.9999999999999
 20
110.0
 30
0.0
 11
409.9999999999999
 21
10.0
 31
0.0
  0
TEXT
  5
1CD
330
1E
100
AcDbEntity
  8
TEXT
100
AcDbText
 10
337.2400861497005
 20
52.07416177878602
 30
0.0
 40
5.0
  1
ersetzt durch:
 41
0.8
  7
GREEKS
100
AcDbText
  0
LINE
  5
1CE
330
1E
100
AcDbEntity
  8
STEMPEL
100
AcDbLine
 10
409.9999999999999
 20
10.0
 30
0.0
 11
39.99999999999989
 21
10.0
 31
0.0
  0
LINE
  5
1CF
330
1E
100
AcDbEntity
  8
STEMPEL
100
AcDbLine
 10
409.9999999999999
 20
110.0
 30
0.0
 11
409.9999999999999
 21
584.0
 31
0.0
  0
LINE
  5
1D0
330
1E
100
AcDbEntity
  8
STEMPEL
100
AcDbLine
 10
40.0
 20
10.0
 30
0.0
 11
39.99999999999989
 21
584.0
 31
0.0
  0
LINE
  5
1D1
330
1E
100
AcDbEntity
  8
STEMPEL
100
AcDbLine
 10
409.9999999999999
 20
584.0
 30
0.0
 11
39.99999999999989
 21
584.0
 31
0.0
  0
LINE
  5
1D2
330
1E
100
AcDbEntity
  8
HILF
100
AcDbLine
 10
0.0
 20
0.0
 30
0.0
 11
-0.0000000000001137
 21
594.0
 31
0.0
  0
LINE
  5
1D3
330
1E
100
AcDbEntity
  8
HILF
100
AcDbLine
 10
419.9999999999999
 20
594.0000000000002
 30
0.0
 11
0.0
 21
594.0
 31
0.0
  0
LINE
  5
1D4
330
1E
100
AcDbEntity
  8
HILF
100
AcDbLine
 10
419.9999999999999
 20
0.0
 30
0.0
 11
0.0
 21
0.0
 31
0.0
  0
LINE
  5
1D5
330
1E
100
AcDbEntity
  8
HILF
100
AcDbLine
 10
31.08767135713856
 20
297.0
 30
0.0
 11
0.0000000000001137
 21
297.0
 31
0.0
  0
TEXT
  5
1D6
330
1E
100
AcDbEntity
  8
TEXT
100
AcDbText
 10
139.8886662448949
 20
73.33699103545173
 30
0.0
 40
3.6
  1
2007
 41
0.8
  7
GREEKS
100
AcDbText
  0
LINE
  5
1D7
330
1E
100
AcDbEntity
  8
HILF
100
AcDbLine
 10
419.9999999999999
 20
-0.0000000000001137
 30
0.0
 11
419.9999999999999
 21
594.0
 31
0.0
  0
TEXT
  5
1D8
330
1E
100
AcDbEntity
  8
VOLL
100
AcDbText
 10
78.07675471698113
 20
31.02594776470585
 30
0.0
 40
1.8
  1

  7
GREEKS
100
AcDbText
  0
TEXT
  5
1D9
330
1E
100
AcDbEntity
  8
TEXT
100
AcDbText
 10
42.25669815425914
 20
111.6719999999999
 30
0.0
 40
5.0
  1
Erstellt mit AUTOCAD 2004
 41
0.8
  7
GREEKS
100
AcDbText
  0
TEXT
  5
1DA
330
1E
100
AcDbEntity
  8
TEXT
100
AcDbText
 10
194.4216048581257
 20
63.0896391972351
 30
0.0
 40
4.0
  1
Koeh
 41
0.8
  7
GREEKS
 72
     1
 11
199.6787477152685
 21
63.0896391972351
 31
0.0
100
AcDbText
  0
TEXT
  5
1DB
330
1E
100
AcDbEntity
  8
TEXT
 62
     1
100
AcDbText
 10
346.572909698401
 20
88.14901428913959
 30
0.0
 40
7.0
  1
58602DM0W
 41
0.8
  7
GREEKS
 72
     1
 11
371.2395763650676
 21
88.14901428913959
 31
0.0
100
AcDbText
  0
TEXT
  5
1DC
330
1E
100
AcDbEntity
  8
TEXT
 62
     1
100
AcDbText
 10
150.5006306481887
 20
88.14901428913959
 30
0.0
 40
7.0
  1
1:2
  7
GREEKS
100
AcDbText
  0
TEXT
  5
1DD
330
1E
100
AcDbEntity
  8
TEXT
100
AcDbText
 10
160.398997108236
 20
63.10765040825732
 30
0.0
 40
4.0
  1
25.09.
 41
0.8
  7
GREEKS
 72
     1
 11
167.4085209177598
 21
63.10765040825732
 31
0.0
100
AcDbText
  0
TEXT
  5
1DE
330
1E
100
AcDbEntity
  8
TEXT
 62
     1
100
AcDbText
 10
225.3291095064849
 20
87.41748789253779
 30
0.0
 40
7.0
  1
Verbundrohr
 41
0.8
  7
GREEKS
100
AcDbText
  0
TEXT
  5
1DF
330
1E
100
AcDbEntity
  8
TEXT
100
AcDbText
 10
225.1296391125315
 20
72.50168891988375
 30
0.0
 40
5.0
  1
Abgleichstück DN100/80
 41
0.8
  7
GREEKS
100
AcDbText
  0
TEXT
  5
1E0
330
1E
100
AcDbEntity
  8
TEXT
100
AcDbText
 10
225.1296391125315
 20
51.64011943042158
 30
0.0
 40
5.0
  1
EDV-Art.Nr. 58602.DM0X
 41
0.8
  7
GREEKS
100
AcDbText
  0
TEXT
  5
1E1
330
1E
100
AcDbEntity
  8
TEXT
100
AcDbText
 10
224.9837501577827
 20
42.62974153022634
 30
0.0
 40
3.6
  1
58602DM0W.DWG
 41
0.8
  7
GREEKS
100
AcDbText
  0
INSERT
  5
1E2
330
1E
100
AcDbEntity
  8
STEMPEL
100
AcDbBlockReference
  2
LOGO
 10
140.9955485457794
 20
45.02105276448321
 30
0.0
 41
2.0
 42
2.0
 43
2.0
  0
TEXT
  5
1E4
330
1E
100
AcDbEntity
  8
VOLL
100
AcDbText
 10
339.7958237333797
 20
71.91957633833147
 30
0.0
 40
1.8
  1

  7
GREEKS
100
AcDbText
  0
TEXT
  5
1E5
330
1E
100
AcDbEntity
  8
TEXT
100
AcDbText
 10
671.6280919369726
 20
77.47781187155701
 30
0.0
 40
2.5
  1
  
  7
GREEKS
 72
     1
 11
673.8899966988774
 21
77.47781187155701
 31
0.0
100
AcDbText
  0
TEXT
  5
1E6
330
1E
100
AcDbEntity
  8
BEM
100
AcDbText
 10
915.7478092494546
 20
213.0366939019592
 30
0.0
 40
2.5
  1
 
 72
     4
 11
916.878761630407
 21
213.0366939019592
 31
0.0
100
AcDbText
  0
TEXT
  5
1E8
330
1E
100
AcDbEntity
  8
BEM
100
AcDbText
 10
454.2848421115471
 20
134.8585024391051
 30
0.0
 40
2.5
  1

  7
GREEKS
100
AcDbText
  0
TEXT
  5
1E9
330
1E
100
AcDbEntity
  8
VOLL
100
AcDbText
 10
440.2186490918256
 20
114.67524178207
 30
0.0
 40
1.8
  1

  7
GREEKS
100
AcDbText
  0
TEXT
  5
1EA
330
1E
100
AcDbEntity
  8
BEM
100
AcDbText
 10
474.7067139311102
 20
119.4009661052905
 30
0.0
 40
2.5
  1

 41
0.8
  7
GREEKS
100
AcDbText
  0
TEXT
  5
1EB
330
1E
100
AcDbEntity
  8
BEM
100
AcDbText
 10
474.7067139311102
 20
114.7071975512384
 30
0.0
 40
2.5
  1

 41
0.8
  7
GREEKS
100
AcDbText
  0
TEXT
  5
1EC
330
1E
100
AcDbEntity
  8
BEM
100
AcDbText
 10
474.7067139311102
 20
109.4693537325749
 30
0.0
 40
2.5
  1

 41
0.8
  7
GREEKS
100
AcDbText
  0
TEXT
  5
1ED
330
1E
100
AcDbEntity
  8
BEM
100
AcDbText
 10
474.6337694537358
 20
104.9641647824773
 30
0.0
 40
1.8
  1

 41
0.8
  7
GREEKS
100
AcDbText
  0
TEXT
  5
1EE
330
1E
100
AcDbEntity
  8
BEM
100
AcDbText
 10
461.9501985741246
 20
130.5557538787025
 30
0.0
 40
2.0
  1

 41
0.8
  7
GREEKS
 72
     1
 11
461.9501985741246
 21
130.5557538787025
 31
0.0
100
AcDbText
  0
TEXT
  5
1EF
330
1E
100
AcDbEntity
  8
TEXT
100
AcDbText
 10
772.0509172954185
 20
120.2334773152955
 30
0.0
 40
2.5
  1
  
  7
GREEKS
 72
     1
 11
774.3128220573233
 21
120.2334773152955
 31
0.0
100
AcDbText
  0
TEXT
  5
1F0
330
1E
100
AcDbEntity
  8
BEM
100
AcDbText
 10
1016.1706346079
 20
255.7923593456977
 30
0.0
 40
2.5
  1
 
 72
     4
 11
1017.301586988853
 21
255.7923593456977
 31
0.0
100
AcDbText
  0
TEXT
  5
1F1
330
1E
100
AcDbEntity
  8
VOLL
100
AcDbText
 10
228.6383494536079
 20
31.18631511162239
 30
0.0
 40
1.8
  1

  7
GREEKS
100
AcDbText
  0
TEXT
  5
1F2
330
1E
100
AcDbEntity
  8
TEXT
100
AcDbText
 10
560.4706176572007
 20
36.74455064484793
 30
0.0
 40
2.5
  1
  
  7
GREEKS
 72
     1
 11
562.7325224191056
 21
36.74455064484793
 31
0.0
100
AcDbText
  0
TEXT
  5
1F3
330
1E
100
AcDbEntity
  8
BEM
100
AcDbText
 10
804.5903349696828
 20
172.3034326752502
 30
0.0
 40
2.5
  1
 
 72
     4
 11
805.7212873506353
 21
172.3034326752502
 31
0.0
100
AcDbText
  0
TEXT
  5
1F4
330
1E
100
AcDbEntity
  8
BEM
100
AcDbText
 10
393.9839625332579
 20
71.33954581020805
 30
0.0
 40
2.5
  1

  7
GREEKS
100
AcDbText
  0
TEXT
  5
1F5
330
1E
100
AcDbEntity
  8
VOLL
100
AcDbText
 10
379.9177695135364
 20
51.15628515317294
 30
0.0
 40
1.8
  1

  7
GREEKS
100
AcDbText
  0
TEXT
  5
1F6
330
1E
100
AcDbEntity
  8
BEM
100
AcDbText
 10
414.4058343528211
 20
55.88200947639354
 30
0.0
 40
2.5
  1

 41
0.8
  7
GREEKS
100
AcDbText
  0
TEXT
  5
1F7
330
1E
100
AcDbEntity
  8
BEM
100
AcDbText
 10
414.4058343528211
 20
51.18824092234138
 30
0.0
 40
2.5
  1

 41
0.8
  7
GREEKS
100
AcDbText
  0
TEXT
  5
1F8
330
1E
100
AcDbEntity
  8
BEM
100
AcDbText
 10
414.4058343528211
 20
45.95039710367788
 30
0.0
 40
2.5
  1

 41
0.8
  7
GREEKS
100
AcDbText
  0
TEXT
  5
1F9
330
1E
100
AcDbEntity
  8
BEM
100
AcDbText
 10
414.3328898754466
 20
41.44520815358026
 30
0.0
 40
1.8
  1

 41
0.8
  7
GREEKS
100
AcDbText
  0
TEXT
  5
1FA
330
1E
100
AcDbEntity
  8
BEM
100
AcDbText
 10
401.6493189958354
 20
67.03679724980554
 30
0.0
 40
2.0
  1

 41
0.8
  7
GREEKS
 72
     1
 11
401.6493189958354
 21
67.03679724980554
 31
0.0
100
AcDbText
  0
TEXT
  5
1FB
330
1E
100
AcDbEntity
  8
TEXT
100
AcDbText
 10
711.7500377171293
 20
56.71452068639848
 30
0.0
 40
2.5
  1
  
  7
GREEKS
 72
     1
 11
714.0119424790341
 21
56.71452068639848
 31
0.0
100
AcDbText
  0
TEXT
  5
1FC
330
1E
100
AcDbEntity
  8
BEM
100
AcDbText
 10
955.8697550296114
 20
192.2734027168007
 30
0.0
 40
2.5
  1
 
 72
     4
 11
957.0007074105637
 21
192.2734027168007
 31
0.0
100
AcDbText
  0
TEXT
  5
24B
330
1E
100
AcDbEntity
  8
TEXT
 62
     1
100
AcDbText
 10
78.53685804086016
 20
188.552964463262
 30
0.0
 40
7.0
  1
Rohrende leicht eingezogen
 41
0.8
  7
GREEKS
100
AcDbText
  0
TEXT
  5
26A
330
1E
100
AcDbEntity
  8
TEXT
100
AcDbText
 10
184.2858954734051
 20
90.23051188311759
 30
0.0
 40
4.0
  1
DIN EN1123-2
 41
0.8
  7
GREEKS
100
AcDbText
  0
TEXT
  5
2ED
330
1E
100
AcDbEntity
  8
TEXT
100
AcDbText
 10
99.98381106419387
 20
18.97240706006074
 30
0.0
 40
4.0
  1
Tag
 41
0.8
  7
GREEKS
 72
     4
 11
103.7171443975272
 21
20.30574039339407
 31
0.0
100
AcDbText
  0
TEXT
  5
2EE
330
1E
100
AcDbEntity
  8
TEXT
100
AcDbText
 10
118.0779538781902
 20
18.30574039339407
 30
0.0
 40
4.0
  1
Name
 41
0.8
  7
GREEKS
 72
     4
 11
124.4017634019997
 21
20.30574039339407
 31
0.0
100
AcDbText
  0
TEXT
  5
54A
330
1E
100
AcDbEntity
  8
VOLL
100
AcDbText
 10
305.2666505177693
 20
60.9917365573275
 30
0.0
 40
1.8
  1

  7
GREEKS
100
AcDbText
  0
TEXT
  5
558
330
1E
100
AcDbEntity
  8
BEM
100
AcDbText
 10
779.8708637178527
 20
75.83979991258411
 30
0.0
 40
2.5
  1

 41
0.8
  7
GREEKS
 72
     4
 11
779.8708637178527
 21
75.83979991258411
 31
0.0
100
AcDbText
  0
TEXT
  5
6F0
330
1E
100
AcDbEntity
  8
TEXT
100
AcDbText
 10
416.5811541437436
 20
12.14804815338303
 30
0.0
 40
4.0
  1
Diese Zeichnung ist urheberrechtlich geschützt und bleibt unser Eigentum. Sie darf weder ganz noch teilweise vervielfältigt und nicht an Dritte weitergegeben werden.
 50
90.0
 41
0.8
  7
GREEKS
100
AcDbText
  0
TEXT
  5
6FA
330
1E
100
AcDbEntity
  8
TEXT
 62
     1
100
AcDbText
 10
245.030129115258
 20
129.7422179729062
 30
0.0
 40
7.0
  1
und innenbeschichtet
 41
0.8
  7
GREEKS
100
AcDbText
  0
TEXT
  5
6FB
330
1E
100
AcDbEntity
  8
TEXT
 62
     1
100
AcDbText
 10
189.8811895945471
 20
117.1473825875242
 30
0.0
 40
7.0
  1
Dämmung: 2 K-PU-Schaum
 41
0.8
  7
GREEKS
100
AcDbText
  0
TEXT
  5
6FC
330
1E
100
AcDbEntity
  8
TEXT
 62
     1
100
AcDbText
 10
197.3756002392442
 20
141.011271812132
 30
0.0
 40
7.0
  1
Innenrohr: E195 EN10305 feuerverzinkt
 41
0.8
  7
GREEKS
100
AcDbText
  0
TEXT
  5
6FD
330
1E
100
AcDbEntity
  8
TEXT
 62
     1
100
AcDbText
 10
193.6033828683802
 20
152.364339848487
 30
0.0
 40
7.0
  1
Außenrohr: E195 EN10305 feuerverzinkt
 41
0.8
  7
GREEKS
100
AcDbText
  0
DIMENSION
  5
1D32
330
1E
100
AcDbEntity
  8
BEM
100
AcDbDimension
  2
*D2
 10
275.0691999529354
 20
235.6744049762296
 30
0.0
 11
230.5691999529354
 21
242.1744049762296
 31
0.0
 70
    32
  1
%%c<>
 71
     5
 42
89.0
  3
Standard
100
AcDbAlignedDimension
 13
186.0691999529354
 23
266.210278490128
 33
0.0
 14
275.0691999529354
 24
266.210278490128
 34
0.0
100
AcDbRotatedDimension
1001
ACAD
1000
DSTYLE
1002
{
1070
    40
1040
2.0
1070
    41
1040
3.5
1070
    42
1040
1.0
1070
    43
1040
7.0
1070
    44
1040
1.0
1070
    47
1040
0.15
1070
    48
1040
0.15
1070
    73
1070
     0
1070
    74
1070
     0
1070
    77
1070
     1
1070
    78
1070
     8
1070
    79
1070
     2
1070
   140
1040
3.5
1070
   141
1040
1.5
1070
   146
1040
0.5142857142857144
1070
   147
1040
1.5
1070
   172
1070
     1
1070
   178
1070
     1
1070
   179
1070
     2
1070
   271
1070
     2
1070
   272
1070
     2
1070
   284
1070
     8
1070
   285
1070
     8
1070
   286
1070
     8
1002
}
  0
DIMENSION
  5
1D33
330
1E
100
AcDbEntity
  8
BEM
100
AcDbDimension
  2
*D3
 10
297.0691999529354
 20
480.7743777603923
 30
0.0
 11
230.5691999529354
 21
487.2743777603923
 31
0.0
 70
    32
  1
%%c<>
 71
     5
 42
133.0
  3
Standard
100
AcDbAlignedDimension
 13
164.0691999529354
 23
466.2102784901279
 33
0.0
 14
297.0691999529354
 24
466.2102784901281
 34
0.0
100
AcDbRotatedDimension
1001
ACAD
1000
DSTYLE
1002
{
1070
    40
1040
2.0
1070
    41
1040
3.5
1070
    42
1040
1.0
1070
    43
1040
7.0
1070
    44
1040
1.0
1070
    47
1040
0.15
1070
    48
1040
0.15
1070
    73
1070
     0
1070
    74
1070
     0
1070
    77
1070
     1
1070
    78
1070
     8
1070
    79
1070
     2
1070
   140
1040
3.5
1070
   141
1040
1.5
1070
   146
1040
0.5142857142857144
1070
   147
1040
1.5
1070
   172
1070
     1
1070
   178
1070
     1
1070
   179
1070
     2
1070
   271
1070
     2
1070
   272
1070
     2
1070
   284
1070
     8
1070
   285
1070
     8
1070
   286
1070
     8
1002
}
  0
HATCH
  5
1D35
330
1E
100
AcDbEntity
  8
SCHRAFF
100
AcDbHatch
 10
0.0
 20
0.0
 30
0.0
210
0.0
220
0.0
230
1.0
  2
NET
 70
     0
 71
     0
 91
        2
 92
        7
 72
     1
 73
     1
 93
        6
 10
289.5691999529354
 20
453.6055270275569
 42
0.0
 10
289.5691999529354
 20
452.2102784901281
 42
0.0
 10
294.5691999529354
 20
452.2102784901282
 42
0.0
 10
294.5691999529354
 20
466.2102784901281
 42
0.0
 10
286.2759557908603
 20
466.2102784901281
 42
0.0
 10
287.2268946288516
 20
464.1709835710742
 42
-0.1095178116832391
 97
        0
 92
        7
 72
     1
 73
     1
 93
        6
 10
173.9115052770189
 20
464.1709835710744
 42
0.0
 10
174.8624441150102
 20
466.2102784901279
 42
0.0
 10
166.5691999529354
 20
466.2102784901281
 42
0.0
 10
166.5691999529354
 20
452.2102784901279
 42
0.0
 10
171.5691999529354
 20
452.2102784901279
 42
0.0
 10
171.5691999529354
 20
453.6055270275569
 42
-0.1095178116832409
 97
        0
 75
     0
 76
     1
 52
45.0
 41
15.0
 77
     0
 78
     2
 53
45.0
 43
13.18504387623306
 44
0.0
 45
-1.325825214724776
 46
1.325825214724776
 79
     0
 53
135.0
 43
13.18504387623306
 44
0.0
 45
-1.325825214724776
 46
-1.325825214724776
 79
     0
 47
0.3897200650310774
 98
        2
 10
290.5203027471785
 20
459.7437840424301
 10
170.0073036263975
 20
462.471824998282
  0
HATCH
  5
1D36
330
1E
100
AcDbEntity
  8
SCHRAFF
100
AcDbHatch
 10
0.0
 20
0.0
 30
0.0
210
0.0
220
0.0
230
1.0
  2
_USER
 70
     0
 71
     1
 91
        2
 92
        7
 72
     0
 73
     1
 93
        4
 10
297.0691999529354
 20
466.2102784901281
 10
294.5691999529354
 20
466.210278490128
 10
294.5691999529354
 20
306.2102784901281
 10
297.0691999529354
 20
306.2102784901281
 97
        4
330
1D40
330
1D81
330
1D8A
330
1D82
 92
        7
 72
     0
 73
     1
 93
        4
 10
166.5691999529353
 20
466.2102784901279
 10
164.0691999529354
 20
466.2102784901279
 10
164.0691999529354
 20
306.210278490128
 10
166.5691999529354
 20
306.210278490128
 97
        4
330
1D40
330
1D49
330
1D50
330
1D48
 75
     0
 76
     0
 52
135.0
 41
2.0
 77
     0
 78
     1
 53
135.0
 43
41.08868472976837
 44
-17.76110322718432
 45
-1.414213562373095
 46
-1.414213562373094
 79
     0
 47
0.3897200650310774
 98
        2
 10
296.3704483618272
 20
452.3391030474761
 10
165.3271887576174
 20
437.5297410575679
  0
INSERT
  5
1D37
330
1E
100
AcDbEntity
  8
SCHRAFF
100
AcDbBlockReference
  2
*X1
 10
-8.671173536155492
 20
-42.08184303815483
 30
0.0
1001
ACAD
1000
HATCH
1002
{
1070
    16
1000
_U,I
1040
0.1
1040
2.356194490192344
1070
     0
1002
}
  0
LINE
  5
1D3A
330
1E
100
AcDbEntity
  8
HILF
  6
Continuous
100
AcDbLine
 10
189.281423433074
 20
266.210278490128
 30
0.0
 11
271.8569764727965
 21
266.2102784901281
 31
0.0
  0
LINE
  5
1D3B
102
{ACAD_REACTORS
330
1EB9
102
}
330
1E
100
AcDbEntity
  8
STEMPEL
100
AcDbLine
 10
186.9440865881945
 20
256.210278490128
 30
0.0
 11
274.194313317676
 21
256.2102784901281
 31
0.0
  0
LINE
  5
1D3C
102
{ACAD_REACTORS
330
1EB9
330
1F6E
102
}
330
1E
100
AcDbEntity
  8
STEMPEL
100
AcDbLine
 10
179.5691999529354
 20
371.210278490128
 30
0.0
 11
281.5691999529354
 21
371.210278490128
 31
0.0
  0
LINE
  5
1D40
102
{ACAD_REACTORS
330
1D36
330
1F6E
102
}
330
1E
100
AcDbEntity
  8
STEMPEL
100
AcDbLine
 10
164.0691999529354
 20
466.2102784901279
 30
0.0
 11
297.0691999529354
 21
466.2102784901281
 31
0.0
  0
DIMENSION
  5
1D41
330
1E
100
AcDbEntity
  8
BEM
100
AcDbDimension
  2
*D4
 10
135.2475105315002
 20
256.210278490128
 30
0.0
 11
128.7475105315001
 21
361.2102784901281
 31
0.0
 70
    32
 71
     5
 42
210.0
  3
Standard
100
AcDbAlignedDimension
 13
164.0691999529354
 23
466.2102784901279
 33
0.0
 14
186.9440865881945
 24
256.210278490128
 34
0.0
 50
90.0
100
AcDbRotatedDimension
1001
ACAD
1000
DSTYLE
1002
{
1070
    40
1040
2.0
1070
    41
1040
3.5
1070
    42
1040
1.0
1070
    43
1040
7.0
1070
    44
1040
1.0
1070
    47
1040
0.15
1070
    48
1040
0.15
1070
    73
1070
     0
1070
    74
1070
     0
1070
    77
1070
     1
1070
    78
1070
     8
1070
    79
1070
     2
1070
   140
1040
3.5
1070
   141
1040
1.5
1070
   146
1040
0.5142857142857144
1070
   147
1040
1.5
1070
   172
1070
     1
1070
   178
1070
     1
1070
   179
1070
     2
1070
   271
1070
     2
1070
   272
1070
     2
1070
   284
1070
     8
1070
   285
1070
     8
1070
   286
1070
     8
1002
}
  0
LINE
  5
1D42
102
{ACAD_REACTORS
330
1EB9
102
}
330
1E
100
AcDbEntity
  8
STEMPEL
100
AcDbLine
 10
187.6691999529353
 20
363.4000288142214
 30
0.0
 11
187.6691999529353
 21
266.2801359987817
 31
0.0
  0
LINE
  5
1D43
102
{ACAD_REACTORS
330
1EB9
102
}
330
1E
100
AcDbEntity
  8
STEMPEL
100
AcDbLine
 10
186.0691999529354
 20
363.4000288142214
 30
0.0
 11
186.0691999529354
 21
266.210278490128
 31
0.0
  0
LINE
  5
1D44
330
1E
100
AcDbEntity
  8
MITTEL
100
AcDbLine
 10
230.5691999529354
 20
471.210278490128
 30
0.0
 11
230.5691999529354
 21
251.2102784901281
 31
0.0
  0
LINE
  5
1D45
102
{ACAD_REACTORS
330
1EB9
102
}
330
1E
100
AcDbEntity
  8
STEMPEL
100
AcDbLine
 10
187.6691999529353
 20
266.2801359987817
 30
0.0
 11
188.5501983282638
 21
256.210278490128
 31
0.0
  0
LINE
  5
1D46
102
{ACAD_REACTORS
330
1EB9
102
}
330
1E
100
AcDbEntity
  8
STEMPEL
100
AcDbLine
 10
186.0691999529354
 20
266.210278490128
 30
0.0
 11
186.9440865881945
 21
256.210278490128
 31
0.0
  0
LINE
  5
1D48
102
{ACAD_REACTORS
330
1D36
102
}
330
1E
100
AcDbEntity
  8
STEMPEL
100
AcDbLine
 10
166.5691999529354
 20
466.2102784901279
 30
0.0
 11
166.5691999529354
 21
306.210278490128
 31
0.0
  0
LINE
  5
1D49
102
{ACAD_REACTORS
330
1D36
102
}
330
1E
100
AcDbEntity
  8
STEMPEL
100
AcDbLine
 10
164.0691999529354
 20
466.2102784901279
 30
0.0
 11
164.0691999529354
 21
304.2102784901282
 31
0.0
  0
HATCH
  5
1D4D
330
1E
100
AcDbEntity
  8
SCHRAFF
100
AcDbHatch
 10
0.0
 20
0.0
 30
0.0
210
0.0
220
0.0
230
1.0
  2
HONEY
 70
     0
 71
     0
 91
        1
 92
       33
 93
       16
 72
     1
 10
179.5691999529354
 20
371.2102784901279
 11
180.0691999529352
 21
371.2102784901279
 72
     1
 10
186.0691999529354
 20
363.4000288142213
 11
186.0691999529354
 21
322.2102784901283
 72
     2
 10
163.5691999529353
 20
418.7102784901279
 40
12.0
 50
0.0
 51
26.88777065902
 73
     1
 72
     2
 10
196.5691999529354
 20
435.443278490128
 40
24.99990931069965
 50
180.0
 51
206.8877706590202
 73
     1
 72
     1
 10
171.5691999529354
 20
452.2102784901278
 11
171.5691999529354
 21
435.443278490128
 72
     1
 10
166.5691999529354
 20
452.2102784901278
 11
171.5691999529354
 21
452.2102784901278
 72
     2
 10
171.5691999529354
 20
390.1762859702598
 40
8.0
 50
0.0
 51
34.30115275679135
 73
     1
 72
     2
 10
190.5691999529354
 20
403.1377673670755
 40
15.0
 50
180.0
 51
214.3011527567915
 73
     1
 72
     1
 10
175.5691999529354
 20
418.7102784901279
 11
175.5691999529354
 21
403.1377673670755
 72
     1
 10
180.0691999529352
 20
371.2102784901279
 11
183.9103063509222
 21
368.0093564918057
 72
     1
 10
166.5691999529354
 20
306.2102784901282
 11
167.0581332713983
 21
320.2114968360899
 72
     1
 10
167.0581332713983
 20
320.2114968360899
 11
169.1279322648034
 21
322.2102784901283
 72
     1
 10
179.5691999529354
 20
390.1762859702598
 11
179.5691999529354
 21
371.2102784901279
 72
     2
 10
180.0691999529353
 20
363.4000288142213
 40
6.0
 50
0.0
 51
50.19442890773574
 73
     1
 72
     1
 10
186.0691999529354
 20
322.2102784901283
 11
169.1279322648034
 21
322.2102784901283
 72
     1
 10
166.5691999529354
 20
452.2102784901278
 11
166.5691999529354
 21
306.2102784901282
 97
        0
 75
     0
 76
     1
 52
0.0
 41
25.0
 77
     0
 78
     3
 53
0.0
 43
13.18504387623306
 44
0.0
 45
4.6875
 46
2.706329374999999
 79
     2
 49
3.125
 49
-6.25
 53
120.0
 43
13.18504387623306
 44
0.0
 45
-4.687499989758061
 46
2.706329392739557
 79
     2
 49
3.124999999999999
 49
-6.249999999999999
 53
60.0
 43
13.18504387623306
 44
0.0
 45
0.0000000102419385
 46
5.412658767739556
 79
     2
 49
-6.25
 49
3.125
 98
        1
 10
78.59775088412198
 20
-17.76110322718438
  0
LINE
  5
1D4E
330
1E
100
AcDbEntity
  8
STEMPEL
100
AcDbLine
 10
186.0691999529354
 20
312.2102784901282
 30
0.0
 11
181.5691999529354
 21
312.2102784901282
 31
0.0
  0
LINE
  5
1D4F
330
1E
100
AcDbEntity
  8
STEMPEL
100
AcDbLine
 10
186.0691999529354
 20
322.2102784901283
 30
0.0
 11
169.1279322648033
 21
322.2102784901283
 31
0.0
  0
LINE
  5
1D50
102
{ACAD_REACTORS
330
1D36
102
}
330
1E
100
AcDbEntity
  8
STEMPEL
100
AcDbLine
 10
164.0691999529354
 20
306.210278490128
 30
0.0
 11
166.5691999529353
 21
306.210278490128
 31
0.0
  0
ARC
  5
1D51
102
{ACAD_REACTORS
330
1EB9
102
}
330
1E
100
AcDbEntity
  8
STEMPEL
100
AcDbCircle
 10
180.0691999529353
 20
363.4000288142214
 30
0.0
 40
7.599999999999999
100
AcDbArc
 50
0.0
 51
50.19442890773585
  0
ARC
  5
1D52
102
{ACAD_REACTORS
330
1EB9
102
}
330
1E
100
AcDbEntity
  8
STEMPEL
100
AcDbCircle
 10
180.0691999529353
 20
363.4000288142214
 30
0.0
 40
6.0
100
AcDbArc
 50
0.0
 51
50.19442890773585
  0
ARC
  5
1D53
330
1E
100
AcDbEntity
  8
SCHRAFF
100
AcDbCircle
 10
181.529946897341
 20
371.2104807097289
 30
0.0
 40
3.0
100
AcDbArc
 50
130.8122407688286
 51
302.0286432046189
  0
LINE
  5
1D56
330
1E
100
AcDbEntity
  8
STEMPEL
100
AcDbLine
 10
167.0581332713983
 20
320.21149683609
 30
0.0
 11
169.1279322648033
 21
322.2102784901282
 31
0.0
  0
LINE
  5
1D57
330
1E
100
AcDbEntity
  8
STEMPEL
100
AcDbLine
 10
166.5691999529354
 20
306.2102784901282
 30
0.0
 11
167.0581332713983
 21
320.21149683609
 31
0.0
  0
POINT
  5
1D59
330
1E
100
AcDbEntity
  8
STEMPEL
100
AcDbPoint
 10
170.4256064134863
 20
322.2102784901282
 30
0.0
  0
POINT
  5
1D5F
330
1E
100
AcDbEntity
  8
STEMPEL
100
AcDbPoint
 10
181.5691999529354
 20
312.2102784901281
 30
0.0
  0
LINE
  5
1D62
102
{ACAD_REACTORS
330
1EB9
102
}
330
1E
100
AcDbEntity
  8
STEMPEL
100
AcDbLine
 10
180.0691999529353
 20
371.210278490128
 30
0.0
 11
183.9103063509221
 21
368.0093564918057
 31
0.0
  0
POINT
  5
1D63
330
1E
100
AcDbEntity
  8
STEMPEL
100
AcDbPoint
 10
180.0691999529353
 20
371.210278490128
 30
0.0
  0
POINT
  5
1D64
330
1E
100
AcDbEntity
  8
STEMPEL
100
AcDbPoint
 10
179.5691999529354
 20
371.210278490128
 30
0.0
  0
LINE
  5
1D65
102
{ACAD_REACTORS
330
1EB9
102
}
330
1E
100
AcDbEntity
  8
STEMPEL
100
AcDbLine
 10
182.5684798492254
 20
371.210278490128
 30
0.0
 11
184.9346013903853
 21
369.2385105391615
 31
0.0
  0
LINE
  5
1D6D
330
1E
100
AcDbEntity
  8
STEMPEL
100
AcDbLine
 10
166.5691999529354
 20
452.2102784901279
 30
0.0
 11
171.5691999529354
 21
452.2102784901279
 31
0.0
  0
TEXT
  5
1D76
330
1E
100
AcDbEntity
  8
TEXT
 62
     1
100
AcDbText
 10
225.3167485370844
 20
283.0533654236435
 30
0.0
 40
7.0
  1
DN80
 50
90.0
 41
0.8
  7
GREEKS
100
AcDbText
  0
TEXT
  5
1D77
330
1E
100
AcDbEntity
  8
TEXT
 62
     1
100
AcDbText
 10
225.3167485370844
 20
428.6667562658908
 30
0.0
 40
7.0
  1
DN100
 50
90.0
 41
0.8
  7
GREEKS
100
AcDbText
  0
LINE
  5
1D79
102
{ACAD_REACTORS
330
1EB9
102
}
330
1E
100
AcDbEntity
  8
STEMPEL
100
AcDbLine
 10
275.0691999529354
 20
363.4000288142214
 30
0.0
 11
275.0691999529354
 21
266.210278490128
 31
0.0
  0
LINE
  5
1D7A
102
{ACAD_REACTORS
330
1EB9
102
}
330
1E
100
AcDbEntity
  8
STEMPEL
100
AcDbLine
 10
273.4691999529355
 20
363.4000288142214
 30
0.0
 11
273.4691999529352
 21
266.2801359987817
 31
0.0
  0
LINE
  5
1D7F
102
{ACAD_REACTORS
330
1EB9
102
}
330
1E
100
AcDbEntity
  8
STEMPEL
100
AcDbLine
 10
273.4691999529352
 20
266.2801359987817
 30
0.0
 11
272.5882015776067
 21
256.210278490128
 31
0.0
  0
LINE
  5
1D80
102
{ACAD_REACTORS
330
1EB9
102
}
330
1E
100
AcDbEntity
  8
STEMPEL
100
AcDbLine
 10
275.0691999529354
 20
266.210278490128
 30
0.0
 11
274.194313317676
 21
256.210278490128
 31
0.0
  0
LINE
  5
1D81
102
{ACAD_REACTORS
330
1D36
102
}
330
1E
100
AcDbEntity
  8
STEMPEL
100
AcDbLine
 10
294.5691999529354
 20
466.2102784901281
 30
0.0
 11
294.5691999529354
 21
306.2102784901281
 31
0.0
  0
LINE
  5
1D82
102
{ACAD_REACTORS
330
1D36
102
}
330
1E
100
AcDbEntity
  8
STEMPEL
100
AcDbLine
 10
297.0691999529354
 20
466.2102784901281
 30
0.0
 11
297.0691999529354
 21
304.2102784901281
 31
0.0
  0
HATCH
  5
1D86
330
1E
100
AcDbEntity
  8
SCHRAFF
100
AcDbHatch
 10
0.0
 20
0.0
 30
0.0
210
0.0
220
0.0
230
1.0
  2
HONEY
 70
     0
 71
     0
 91
        1
 92
       33
 93
       16
 72
     1
 10
281.5691999529354
 20
371.2102784901279
 11
281.0691999529355
 21
371.2102784901279
 72
     1
 10
275.0691999529354
 20
363.4000288142213
 11
275.0691999529354
 21
322.2102784901283
 72
     2
 10
297.5691999529354
 20
418.7102784901279
 40
12.0
 50
-180.0
 51
-153.11222934098
 73
     0
 72
     2
 10
264.5691999529354
 20
435.443278490128
 40
24.99990931069965
 50
0.0
 51
26.88777065902024
 73
     0
 72
     1
 10
289.5691999529354
 20
452.2102784901278
 11
289.5691999529354
 21
435.443278490128
 72
     1
 10
294.5691999529354
 20
452.2102784901278
 11
289.5691999529354
 21
452.2102784901278
 72
     2
 10
289.5691999529354
 20
390.1762859702598
 40
8.0
 50
-180.0
 51
-145.6988472432087
 73
     0
 72
     2
 10
270.5691999529354
 20
403.1377673670755
 40
15.0
 50
0.0
 51
34.30115275679144
 73
     0
 72
     1
 10
285.5691999529354
 20
418.7102784901279
 11
285.5691999529354
 21
403.1377673670755
 72
     1
 10
281.0691999529355
 20
371.2102784901279
 11
277.2280935549486
 21
368.0093564918057
 72
     1
 10
294.5691999529354
 20
306.2102784901282
 11
294.0802666344724
 21
320.2114968360899
 72
     1
 10
294.0802666344724
 20
320.2114968360899
 11
292.0104676410673
 21
322.2102784901283
 72
     1
 10
281.5691999529354
 20
390.1762859702598
 11
281.5691999529354
 21
371.2102784901279
 72
     2
 10
281.0691999529354
 20
363.4000288142213
 40
6.0
 50
-180.0
 51
-129.8055710922642
 73
     0
 72
     1
 10
275.0691999529354
 20
322.2102784901283
 11
292.0104676410673
 21
322.2102784901283
 72
     1
 10
294.5691999529354
 20
452.2102784901278
 11
294.5691999529354
 21
306.2102784901282
 97
        0
 75
     0
 76
     1
 52
0.0
 41
25.0
 77
     0
 78
     3
 53
0.0
 43
13.18504387623306
 44
0.0
 45
4.6875
 46
2.706329374999999
 79
     2
 49
3.125
 49
-6.25
 53
120.0
 43
13.18504387623306
 44
0.0
 45
-4.687499989758061
 46
2.706329392739557
 79
     2
 49
3.124999999999999
 49
-6.249999999999999
 53
60.0
 43
13.18504387623306
 44
0.0
 45
0.0000000102419385
 46
5.412658767739556
 79
     2
 49
-6.25
 49
3.125
 98
        1
 10
382.5406490217488
 20
-17.76110322718438
  0
ARC
  5
1D87
330
1E
100
AcDbEntity
  8
SCHRAFF
100
AcDbCircle
 10
279.5691999529354
 20
371.210278490128
 30
0.0
 40
3.0
100
AcDbArc
 50
238.4740719221953
 51
48.18968510422037
  0
LINE
  5
1D8A
102
{ACAD_REACTORS
330
1D36
102
}
330
1E
100
AcDbEntity
  8
STEMPEL
100
AcDbLine
 10
294.5691999529353
 20
306.2102784901281
 30
0.0
 11
297.0691999529354
 21
306.2102784901281
 31
0.0
  0
LINE
  5
1D8C
330
1E
100
AcDbEntity
  8
STEMPEL
100
AcDbLine
 10
292.0104676410674
 20
322.2102784901282
 30
0.0
 11
275.0691999529354
 21
322.2102784901282
 31
0.0
  0
LINE
  5
1D8D
330
1E
100
AcDbEntity
  8
STEMPEL
100
AcDbLine
 10
279.5691999529354
 20
312.2102784901281
 30
0.0
 11
275.0691999529354
 21
312.2102784901281
 31
0.0
  0
POINT
  5
1D8F
330
1E
100
AcDbEntity
  8
STEMPEL
100
AcDbPoint
 10
283.033301568073
 20
306.2102784901281
 30
0.0
  0
ARC
  5
1D92
102
{ACAD_REACTORS
330
1EB9
102
}
330
1E
100
AcDbEntity
  8
STEMPEL
100
AcDbCircle
 10
281.0691999529353
 20
363.4000288142214
 30
0.0
 40
7.599999999999999
100
AcDbArc
 50
129.8055710922641
 51
180.0
  0
ARC
  5
1D93
102
{ACAD_REACTORS
330
1EB9
102
}
330
1E
100
AcDbEntity
  8
STEMPEL
100
AcDbCircle
 10
281.0691999529353
 20
363.4000288142214
 30
0.0
 40
6.0
100
AcDbArc
 50
129.8055710922641
 51
180.0
  0
LINE
  5
1D94
102
{ACAD_REACTORS
330
1EB9
102
}
330
1E
100
AcDbEntity
  8
STEMPEL
100
AcDbLine
 10
281.0691999529354
 20
371.210278490128
 30
0.0
 11
277.2280935549485
 21
368.0093564918057
 31
0.0
  0
LINE
  5
1D95
102
{ACAD_REACTORS
330
1EB9
102
}
330
1E
100
AcDbEntity
  8
STEMPEL
100
AcDbLine
 10
278.5699200566452
 20
371.210278490128
 30
0.0
 11
276.2037985154852
 21
369.2385105391614
 31
0.0
  0
POINT
  5
1D96
330
1E
100
AcDbEntity
  8
STEMPEL
100
AcDbPoint
 10
281.0691999529354
 20
371.210278490128
 30
0.0
  0
POINT
  5
1D97
330
1E
100
AcDbEntity
  8
STEMPEL
100
AcDbPoint
 10
281.5691999529354
 20
371.210278490128
 30
0.0
  0
LINE
  5
1D98
330
1E
100
AcDbEntity
  8
STEMPEL
100
AcDbLine
 10
294.0802666344723
 20
320.21149683609
 30
0.0
 11
292.0104676410674
 21
322.2102784901282
 31
0.0
  0
POINT
  5
1D9A
330
1E
100
AcDbEntity
  8
STEMPEL
100
AcDbPoint
 10
292.0104676410674
 20
322.2102784901282
 30
0.0
  0
POINT
  5
1D9B
330
1E
100
AcDbEntity
  8
STEMPEL
100
AcDbPoint
 10
292.0104676410674
 20
322.2102784901282
 30
0.0
  0
LINE
  5
1D9D
330
1E
100
AcDbEntity
  8
STEMPEL
100
AcDbLine
 10
294.5691999529354
 20
306.2102784901282
 30
0.0
 11
294.0802666344723
 21
320.21149683609
 31
0.0
  0
POINT
  5
1D9E
330
1E
100
AcDbEntity
  8
STEMPEL
100
AcDbPoint
 10
294.0802666344723
 20
320.21149683609
 30
0.0
  0
LINE
  5
1DAC
330
1E
100
AcDbEntity
  8
STEMPEL
100
AcDbLine
 10
289.5691999529354
 20
452.2102784901281
 30
0.0
 11
294.5691999529354
 21
452.2102784901282
 31
0.0
  0
LINE
  5
1E93
330
1E
100
AcDbEntity
  8
HILF
100
AcDbLine
 10
272.228197792888
 20
365.9449611917199
 30
0.0
 11
188.9102021129826
 21
365.9449611917198
 31
0.0
  0
HATCH
  5
1EB9
330
1E
100
AcDbEntity
  8
SCHRAFF
100
AcDbHatch
 10
0.0
 20
0.0
 30
0.0
210
0.0
220
0.0
230
1.0
  2
_USER
 70
     0
 71
     1
 91
        2
 92
        7
 72
     1
 73
     1
 93
       10
 10
273.4691999529352
 20
266.2801359987805
 42
0.0
 10
272.5882015776067
 20
256.210278490128
 42
0.0
 10
274.1943133176759
 20
256.2102784901281
 42
0.0
 10
275.0691999529354
 20
266.2102784901282
 42
0.0
 10
275.0691999529354
 20
363.4000288142214
 42
-0.2225848818878098
 10
277.2280935549485
 20
368.0093564918057
 42
0.0
 10
281.0691999529353
 20
371.210278490128
 42
0.0
 10
278.5699200566451
 20
371.210278490128
 42
0.0
 10
276.2037985154852
 20
369.2385105391614
 42
0.2225848818878023
 10
273.4691999529355
 20
363.4000288142213
 42
0.0
 97
       10
330
1D93
330
1D94
330
1D3C
330
1D95
330
1D92
330
1D7A
330
1D7F
330
1D3B
330
1D80
330
1D79
 92
        7
 72
     1
 73
     1
 93
       10
 10
187.6691999529353
 20
363.4000288142214
 42
0.222584881887807
 10
184.9346013903853
 20
369.2385105391615
 42
0.0
 10
182.5684798492255
 20
371.210278490128
 42
0.0
 10
180.0691999529354
 20
371.2102784901279
 42
0.0
 10
183.9103063509221
 20
368.0093564918057
 42
-0.2225848818878104
 10
186.0691999529354
 20
363.4000288142214
 42
0.0
 10
186.0691999529354
 20
266.2102784901281
 42
0.0
 10
186.9440865881945
 20
256.210278490128
 42
0.0
 10
188.5501983282638
 20
256.210278490128
 42
0.0
 10
187.6691999529352
 20
266.2801359987823
 42
0.0
 97
       10
330
1D51
330
1D65
330
1D3C
330
1D62
330
1D52
330
1D43
330
1D46
330
1D3B
330
1D45
330
1D42
 75
     0
 76
     0
 52
45.0
 41
2.0
 77
     0
 78
     1
 53
45.0
 43
13.18504387623306
 44
0.0
 45
-1.414213562373094
 46
1.414213562373095
 79
     0
 47
0.4611513583973942
 98
        2
 10
274.1070482146265
 20
304.2038759123609
 10
187.3492739013095
 20
313.4269029039885
  0
LINE
  5
1F1C
330
1E
100
AcDbEntity
  8
HILF
100
AcDbLine
 10
183.2012396634113
 20
393.1251250933578
 30
0.0
 11
277.9371602424595
 21
393.1251250933578
 31
0.0
  0
LINE
  5
1F1D
330
1E
100
AcDbEntity
  8
HILF
100
AcDbLine
 10
280.8795999367422
 20
399.3042765070483
 30
0.0
 11
180.2587999691284
 21
399.3042765070483
 31
0.0
  0
LINE
  5
1F1E
330
1E
100
AcDbEntity
  8
HILF
100
AcDbLine
 10
179.2306013480136
 20
421.9844969224018
 30
0.0
 11
281.9077985578572
 21
421.9844969224018
 31
0.0
  0
LINE
  5
1F22
102
{ACAD_REACTORS
330
1F6E
102
}
330
1E
100
AcDbEntity
  8
STEMPEL
100
AcDbLine
 10
279.5691999529354
 20
390.17628597026
 30
0.0
 11
279.5691999529354
 21
371.210278490128
 31
0.0
  0
LINE
  5
1F23
102
{ACAD_REACTORS
330
1F6E
102
}
330
1E
100
AcDbEntity
  8
STEMPEL
100
AcDbLine
 10
281.5691999529354
 20
390.17628597026
 30
0.0
 11
281.5691999529354
 21
371.210278490128
 31
0.0
  0
LINE
  5
1F24
102
{ACAD_REACTORS
330
1F6E
102
}
330
1E
100
AcDbEntity
  8
STEMPEL
100
AcDbLine
 10
283.5691999529354
 20
418.7100779594465
 30
0.0
 11
283.5691999529354
 21
403.1377673670756
 31
0.0
  0
LINE
  5
1F25
102
{ACAD_REACTORS
330
1F6E
102
}
330
1E
100
AcDbEntity
  8
STEMPEL
100
AcDbLine
 10
285.5691999529354
 20
418.7102784901281
 30
0.0
 11
285.5691999529354
 21
403.1377673670755
 31
0.0
  0
LINE
  5
1F26
102
{ACAD_REACTORS
330
1F6E
102
}
330
1E
100
AcDbEntity
  8
STEMPEL
100
AcDbLine
 10
287.5691999529354
 20
453.605527027557
 30
0.0
 11
287.5691999529354
 21
435.443278490128
 31
0.0
  0
LINE
  5
1F27
102
{ACAD_REACTORS
330
1F6E
102
}
330
1E
100
AcDbEntity
  8
STEMPEL
100
AcDbLine
 10
289.5691999529353
 20
453.605527027557
 30
0.0
 11
289.5691999529354
 21
435.4434790208096
 31
0.0
  0
LINE
  5
1F28
102
{ACAD_REACTORS
330
1F6E
102
}
330
1E
100
AcDbEntity
  8
STEMPEL
100
AcDbLine
 10
284.0691999529354
 20
466.210278490128
 30
0.0
 11
285.4142790547783
 21
463.3257470475932
 31
0.0
  0
LINE
  5
1F29
102
{ACAD_REACTORS
330
1F6E
102
}
330
1E
100
AcDbEntity
  8
STEMPEL
100
AcDbLine
 10
286.2759557908604
 20
466.2102784901281
 30
0.0
 11
287.2268946288517
 21
464.1709835710741
 31
0.0
  0
ARC
  5
1F2A
102
{ACAD_REACTORS
330
1F6E
102
}
330
1E
100
AcDbEntity
  8
STEMPEL
100
AcDbCircle
 10
289.5691999529354
 20
390.17628597026
 30
0.0
 40
8.0
100
AcDbArc
 50
145.6988472432076
 51
180.0
  0
ARC
  5
1F2B
102
{ACAD_REACTORS
330
1F6E
102
}
330
1E
100
AcDbEntity
  8
STEMPEL
100
AcDbCircle
 10
289.5691999529354
 20
390.17628597026
 30
0.0
 40
10.0
100
AcDbArc
 50
145.6988472432076
 51
180.0
  0
ARC
  5
1F2C
102
{ACAD_REACTORS
330
1F6E
102
}
330
1E
100
AcDbEntity
  8
STEMPEL
100
AcDbCircle
 10
270.5691999529354
 20
403.1377673670756
 30
0.0
 40
13.0
100
AcDbArc
 50
325.6988472432076
 51
0.0
  0
ARC
  5
1F2D
102
{ACAD_REACTORS
330
1F6E
102
}
330
1E
100
AcDbEntity
  8
STEMPEL
100
AcDbCircle
 10
270.5691999529354
 20
403.1377673670755
 30
0.0
 40
15.0
100
AcDbArc
 50
325.6988472432076
 51
0.0
  0
ARC
  5
1F2E
102
{ACAD_REACTORS
330
1F6E
102
}
330
1E
100
AcDbEntity
  8
STEMPEL
100
AcDbCircle
 10
297.5691999529353
 20
418.7102784901281
 30
0.0
 40
12.0
100
AcDbArc
 50
153.1119523822761
 51
180.0
  0
ARC
  5
1F2F
102
{ACAD_REACTORS
330
1F6E
102
}
330
1E
100
AcDbEntity
  8
STEMPEL
100
AcDbCircle
 10
297.5691999529354
 20
418.7100779594465
 30
0.0
 40
14.0
100
AcDbArc
 50
153.1119523822761
 51
180.0
  0
ARC
  5
1F30
102
{ACAD_REACTORS
330
1F6E
102
}
330
1E
100
AcDbEntity
  8
STEMPEL
100
AcDbCircle
 10
264.5691999529353
 20
435.443278490128
 30
0.0
 40
23.0
100
AcDbArc
 50
333.111952382276
 51
0.0
  0
ARC
  5
1F31
102
{ACAD_REACTORS
330
1F6E
102
}
330
1E
100
AcDbEntity
  8
STEMPEL
100
AcDbCircle
 10
264.5691999529354
 20
435.4434790208096
 30
0.0
 40
25.0
100
AcDbArc
 50
333.111952382276
 51
0.0
  0
ARC
  5
1F32
102
{ACAD_REACTORS
330
1F6E
102
}
330
1E
100
AcDbEntity
  8
STEMPEL
100
AcDbCircle
 10
264.5691999529353
 20
453.605527027557
 30
0.0
 40
25.0
100
AcDbArc
 50
0.0
 51
24.99999999999935
  0
ARC
  5
1F33
102
{ACAD_REACTORS
330
1F6E
102
}
330
1E
100
AcDbEntity
  8
STEMPEL
100
AcDbCircle
 10
264.5691999529354
 20
453.605527027557
 30
0.0
 40
23.0
100
AcDbArc
 50
0.0
 51
25.00000000000003
  0
ARC
  5
1F34
102
{ACAD_REACTORS
330
1F6E
102
}
330
1E
100
AcDbEntity
  8
STEMPEL
100
AcDbCircle
 10
196.5691999529353
 20
453.605527027557
 30
0.0
 40
23.0
100
AcDbArc
 50
154.9999999999999
 51
180.0
  0
ARC
  5
1F35
102
{ACAD_REACTORS
330
1F6E
102
}
330
1E
100
AcDbEntity
  8
STEMPEL
100
AcDbCircle
 10
196.5691999529354
 20
453.605527027557
 30
0.0
 40
25.0
100
AcDbArc
 50
155.0000000000006
 51
180.0
  0
ARC
  5
1F36
102
{ACAD_REACTORS
330
1F6E
102
}
330
1E
100
AcDbEntity
  8
STEMPEL
100
AcDbCircle
 10
196.5691999529353
 20
435.4434790208096
 30
0.0
 40
25.0
100
AcDbArc
 50
180.0
 51
206.8880476177239
  0
ARC
  5
1F37
102
{ACAD_REACTORS
330
1F6E
102
}
330
1E
100
AcDbEntity
  8
STEMPEL
100
AcDbCircle
 10
196.5691999529354
 20
435.443278490128
 30
0.0
 40
23.0
100
AcDbArc
 50
180.0
 51
206.8880476177239
  0
ARC
  5
1F38
102
{ACAD_REACTORS
330
1F6E
102
}
330
1E
100
AcDbEntity
  8
STEMPEL
100
AcDbCircle
 10
163.5691999529353
 20
418.7100779594465
 30
0.0
 40
14.0
100
AcDbArc
 50
0.0
 51
26.88804761772389
  0
ARC
  5
1F39
102
{ACAD_REACTORS
330
1F6E
102
}
330
1E
100
AcDbEntity
  8
STEMPEL
100
AcDbCircle
 10
163.5691999529353
 20
418.7102784901281
 30
0.0
 40
12.0
100
AcDbArc
 50
0.0
 51
26.88804761772389
  0
ARC
  5
1F3A
102
{ACAD_REACTORS
330
1F6E
102
}
330
1E
100
AcDbEntity
  8
STEMPEL
100
AcDbCircle
 10
190.5691999529353
 20
403.1377673670755
 30
0.0
 40
15.0
100
AcDbArc
 50
180.0
 51
214.3011527567924
  0
ARC
  5
1F3B
102
{ACAD_REACTORS
330
1F6E
102
}
330
1E
100
AcDbEntity
  8
STEMPEL
100
AcDbCircle
 10
190.5691999529353
 20
403.1377673670756
 30
0.0
 40
13.0
100
AcDbArc
 50
180.0
 51
214.3011527567924
  0
ARC
  5
1F3C
102
{ACAD_REACTORS
330
1F6E
102
}
330
1E
100
AcDbEntity
  8
STEMPEL
100
AcDbCircle
 10
171.5691999529353
 20
390.17628597026
 30
0.0
 40
10.0
100
AcDbArc
 50
0.0
 51
34.3011527567924
  0
ARC
  5
1F3D
102
{ACAD_REACTORS
330
1F6E
102
}
330
1E
100
AcDbEntity
  8
STEMPEL
100
AcDbCircle
 10
171.5691999529353
 20
390.17628597026
 30
0.0
 40
8.0
100
AcDbArc
 50
0.0
 51
34.3011527567924
  0
LINE
  5
1F3E
102
{ACAD_REACTORS
330
1F6E
102
}
330
1E
100
AcDbEntity
  8
STEMPEL
100
AcDbLine
 10
174.8624441150103
 20
466.2102784901281
 30
0.0
 11
173.9115052770189
 21
464.1709835710741
 31
0.0
  0
LINE
  5
1F3F
102
{ACAD_REACTORS
330
1F6E
102
}
330
1E
100
AcDbEntity
  8
STEMPEL
100
AcDbLine
 10
177.0691999529353
 20
466.210278490128
 30
0.0
 11
175.7241208510924
 21
463.3257470475932
 31
0.0
  0
LINE
  5
1F40
102
{ACAD_REACTORS
330
1F6E
102
}
330
1E
100
AcDbEntity
  8
STEMPEL
100
AcDbLine
 10
171.5691999529354
 20
453.605527027557
 30
0.0
 11
171.5691999529353
 21
435.4434790208096
 31
0.0
  0
LINE
  5
1F41
102
{ACAD_REACTORS
330
1F6E
102
}
330
1E
100
AcDbEntity
  8
STEMPEL
100
AcDbLine
 10
173.5691999529353
 20
453.605527027557
 30
0.0
 11
173.5691999529353
 21
435.443278490128
 31
0.0
  0
LINE
  5
1F42
102
{ACAD_REACTORS
330
1F6E
102
}
330
1E
100
AcDbEntity
  8
STEMPEL
100
AcDbLine
 10
175.5691999529353
 20
418.7102784901281
 30
0.0
 11
175.5691999529353
 21
403.1377673670755
 31
0.0
  0
LINE
  5
1F43
102
{ACAD_REACTORS
330
1F6E
102
}
330
1E
100
AcDbEntity
  8
STEMPEL
100
AcDbLine
 10
177.5691999529353
 20
418.7100779594465
 30
0.0
 11
177.5691999529353
 21
403.1377673670756
 31
0.0
  0
LINE
  5
1F44
102
{ACAD_REACTORS
330
1F6E
102
}
330
1E
100
AcDbEntity
  8
STEMPEL
100
AcDbLine
 10
179.5691999529353
 20
390.17628597026
 30
0.0
 11
179.5691999529353
 21
371.210278490128
 31
0.0
  0
LINE
  5
1F45
102
{ACAD_REACTORS
330
1F6E
102
}
330
1E
100
AcDbEntity
  8
STEMPEL
100
AcDbLine
 10
181.5691999529353
 20
390.17628597026
 30
0.0
 11
181.5691999529353
 21
371.210278490128
 31
0.0
  0
HATCH
  5
1F6E
330
1E
100
AcDbEntity
  8
SCHRAFF
100
AcDbHatch
 10
0.0
 20
0.0
 30
0.0
210
0.0
220
0.0
230
1.0
  2
_USER
 70
     0
 71
     1
 91
        2
 92
        7
 72
     1
 73
     1
 93
       20
 10
285.5691999529354
 20
418.7102784901281
 42
-0.1178625008509347
 10
286.8664972502326
 20
424.1372624460247
 42
0.117862500850937
 10
289.5691999529354
 20
435.4434790208096
 42
0.0
 10
289.5691999529353
 20
453.605527027557
 42
0.109517811683238
 10
287.2268946288517
 20
464.1709835710741
 42
0.0
 10
286.2759557908604
 20
466.210278490128
 42
0.0
 10
284.0691999529354
 20
466.2102784901281
 42
0.0
 10
285.4142790547783
 20
463.3257470475932
 42
-0.1095178116832436
 10
287.5691999529354
 20
453.6055270275569
 42
0.0
 10
287.5691999529354
 20
435.443278490128
 42
-0.1178625008509352
 10
285.0827134664489
 20
425.041559241326
 42
0.117862500850934
 10
283.5691999529354
 20
418.7100779594466
 42
0.0
 10
283.5691999529354
 20
403.1377673670756
 42
-0.1507946423587077
 10
281.3083303877179
 20
395.8117126645275
 42
0.1507946423586991
 10
279.5691999529354
 20
390.17628597026
 42
0.0
 10
279.5691999529354
 20
371.210278490128
 42
0.0
 10
281.5691999529354
 20
371.210278490128
 42
0.0
 10
281.5691999529354
 20
390.17628597026
 42
-0.1507946423587077
 10
282.9605043007616
 20
394.6846273256742
 42
0.1507946423587007
 10
285.5691999529354
 20
403.1377673670755
 42
0.0
 97
       20
330
1F2E
330
1F31
330
1F27
330
1F32
330
1F29
330
1D40
330
1F28
330
1F33
330
1F26
330
1F30
330
1F2F
330
1F24
330
1F2C
330
1F2B
330
1F22
330
1D3C
330
1F23
330
1F2A
330
1F2D
330
1F25
 92
        7
 72
     1
 73
     1
 93
       20
 10
177.5691999529353
 20
418.7100779594465
 42
0.1178625008509339
 10
176.0556864394218
 20
425.041559241326
 42
-0.1178625008509357
 10
173.5691999529353
 20
435.443278490128
 42
0.0
 10
173.5691999529353
 20
453.605527027557
 42
-0.109517811683243
 10
175.7241208510924
 20
463.3257470475932
 42
0.0
 10
177.0691999529353
 20
466.2102784901279
 42
0.0
 10
174.8624441150102
 20
466.2102784901279
 42
0.0
 10
173.9115052770189
 20
464.1709835710741
 42
0.1095178116832367
 10
171.5691999529354
 20
453.605527027557
 42
0.0
 10
171.5691999529353
 20
435.4434790208096
 42
0.1178625008509362
 10
174.2719026556381
 20
424.1372624460248
 42
-0.1178625008509361
 10
175.5691999529353
 20
418.7102784901281
 42
0.0
 10
175.5691999529353
 20
403.1377673670755
 42
0.1507946423587039
 10
178.1778956051092
 20
394.684627325674
 42
-0.1507946423587038
 10
179.5691999529353
 20
390.1762859702598
 42
0.0
 10
179.5691999529353
 20
371.2102784901279
 42
0.0
 10
181.5691999529353
 20
371.2102784901279
 42
0.0
 10
181.5691999529353
 20
390.17628597026
 42
0.1507946423587041
 10
179.8300695181527
 20
395.8117126645277
 42
-0.1507946423587038
 10
177.5691999529353
 20
403.1377673670756
 42
0.0
 97
       20
330
1F38
330
1F37
330
1F41
330
1F34
330
1F3F
330
1D40
330
1F3E
330
1F35
330
1F40
330
1F36
330
1F39
330
1F42
330
1F3A
330
1F3D
330
1F44
330
1D3C
330
1F45
330
1F3C
330
1F3B
330
1F43
 75
     0
 76
     0
 52
135.0
 41
2.0
 77
     0
 78
     1
 53
135.0
 43
13.18504387623306
 44
0.0
 45
-1.414213562373095
 46
-1.414213562373094
 79
     0
 47
0.2888018593674582
 98
        2
 10
284.6394543022875
 20
417.034570658722
 10
176.8401698235306
 20
411.2585333832128
  0
HATCH
  5
1F88
330
1E
100
AcDbEntity
  8
SCHRAFF
100
AcDbHatch
 10
0.0
 20
0.0
 30
0.0
210
0.0
220
0.0
230
1.0
  2
NET
 70
     0
 71
     0
 91
        2
 92
        7
 72
     0
 73
     1
 93
       11
 10
294.0802666344726
 20
320.21149683609
 10
292.0104676410675
 20
322.210278490128
 10
275.0691999529355
 20
322.2102784901281
 10
275.0691999529355
 20
312.2102784901281
 10
279.5691999529354
 20
312.210278490128
 10
283.0333015680731
 20
306.210278490128
 10
290.0691999529356
 20
306.2102784901279
 10
290.0691999529356
 20
304.2102784901281
 10
297.0691999529354
 20
304.210278490128
 10
297.0691999529354
 20
306.210278490128
 10
294.5691999529353
 20
306.210278490128
 97
        0
 92
        7
 72
     0
 73
     1
 93
       11
 10
186.0691999529354
 20
322.2102784901279
 10
169.1279322648033
 20
322.2102784901279
 10
167.0581332713984
 20
320.2114968360899
 10
166.5691999529356
 20
306.2102784901281
 10
164.0691999529353
 20
306.210278490128
 10
164.0691999529354
 20
304.2102784901281
 10
171.0691999529356
 20
304.2102784901281
 10
171.0691999529356
 20
306.210278490128
 10
178.1050983377978
 20
306.2102784901279
 10
181.5691999529356
 20
312.210278490128
 10
186.0691999529354
 20
312.210278490128
 97
        0
 75
     0
 76
     1
 52
45.0
 41
20.0
 77
     0
 78
     2
 53
45.0
 43
5.604564851831582
 44
39.24572232000441
 45
-1.767766952966368
 46
1.767766952966368
 79
     0
 53
135.0
 43
5.604564851831582
 44
39.24572232000441
 45
-1.767766952966368
 46
-1.767766952966368
 79
     0
 47
0.2159429178754844
 98
        2
 10
286.1756541026452
 20
313.2962801413677
 10
172.0890109750726
 20
313.5122230013141
  0
LINE
  5
1F89
330
1E
100
AcDbEntity
  8
STEMPEL
100
AcDbLine
 10
290.0691999529356
 20
306.210278490128
 30
0.0
 11
290.0691999529356
 21
304.210278490128
 31
0.0
  0
POINT
  5
1F8A
330
1E
100
AcDbEntity
  8
STEMPEL
100
AcDbPoint
 10
290.0691999529356
 20
304.210278490128
 30
0.0
  0
LINE
  5
1F8B
330
1E
100
AcDbEntity
  8
STEMPEL
100
AcDbLine
 10
297.0691999529354
 20
304.2102784901281
 30
0.0
 11
275.0691999529354
 21
304.2102784901281
 31
0.0
  0
LINE
  5
1F8C
330
1E
100
AcDbEntity
  8
STEMPEL
100
AcDbLine
 10
290.0691999529356
 20
306.210278490128
 30
0.0
 11
275.0691999529355
 21
306.210278490128
 31
0.0
  0
LINE
  5
1F8D
330
1E
100
AcDbEntity
  8
STEMPEL
100
AcDbLine
 10
279.5691999529354
 20
312.210278490128
 30
0.0
 11
283.033301568073
 21
306.210278490128
 31
0.0
  0
LINE
  5
1F8E
330
1E
100
AcDbEntity
  8
STEMPEL
100
AcDbLine
 10
186.0691999529354
 20
304.210278490128
 30
0.0
 11
164.0691999529354
 21
304.2102784901281
 31
0.0
  0
LINE
  5
1F8F
330
1E
100
AcDbEntity
  8
STEMPEL
100
AcDbLine
 10
186.0691999529354
 20
306.2102784901279
 30
0.0
 11
171.0691999529356
 21
306.210278490128
 31
0.0
  0
LINE
  5
1F90
330
1E
100
AcDbEntity
  8
STEMPEL
100
AcDbLine
 10
171.0691999529356
 20
306.210278490128
 30
0.0
 11
171.0691999529356
 21
304.210278490128
 31
0.0
  0
LINE
  5
1F91
330
1E
100
AcDbEntity
  8
STEMPEL
100
AcDbLine
 10
181.5691999529356
 20
312.210278490128
 30
0.0
 11
178.1050983377979
 21
306.210278490128
 31
0.0
  0
DIMENSION
  5
1FAF
330
1E
100
AcDbEntity
  8
BEM
100
AcDbDimension
  2
*D5
 10
150.1049799671941
 20
306.210278490128
 30
0.0
 11
143.6049799671941
 21
281.2102784901281
 31
0.0
 70
    32
 71
     5
 42
50.0
  3
Standard
100
AcDbAlignedDimension
 13
186.9440865881945
 23
256.210278490128
 33
0.0
 14
164.0691999529354
 24
306.210278490128
 34
0.0
 50
90.0
100
AcDbRotatedDimension
1001
ACAD
1000
DSTYLE
1002
{
1070
    40
1040
2.0
1070
    41
1040
3.5
1070
    42
1040
1.0
1070
    43
1040
7.0
1070
    44
1040
1.0
1070
    47
1040
0.15
1070
    48
1040
0.15
1070
    73
1070
     0
1070
    74
1070
     0
1070
    77
1070
     1
1070
    78
1070
     8
1070
    79
1070
     2
1070
   140
1040
3.5
1070
   141
1040
1.5
1070
   146
1040
0.5142857142857144
1070
   147
1040
1.5
1070
   172
1070
     1
1070
   178
1070
     1
1070
   179
1070
     2
1070
   271
1070
     2
1070
   272
1070
     2
1070
   284
1070
     8
1070
   285
1070
     8
1070
   286
1070
     8
1002
}
  0
ENDSEC
  0
SECTION
  2
OBJECTS
  0
DICTIONARY
  5
C
330
0
100
AcDbDictionary
281
     1
  3
ACAD_COLOR
350
39F
  3
ACAD_GROUP
350
D
  3
ACAD_LAYOUT
350
19
  3
ACAD_MATERIAL
350
39E
  3
ACAD_MLINESTYLE
350
16
  3
ACAD_PLOTSETTINGS
350
18
  3
ACAD_PLOTSTYLENAME
350
E
  3
AcDbVariableDictionary
350
31A
  0
DICTIONARY
  5
39F
102
{ACAD_REACTORS
330
C
102
}
330
C
100
AcDbDictionary
281
     1
  0
DICTIONARY
  5
D
102
{ACAD_REACTORS
330
C
102
}
330
C
100
AcDbDictionary
281
     1
  0
DICTIONARY
  5
19
102
{ACAD_REACTORS
330
C
102
}
330
C
100
AcDbDictionary
281
     1
  3
Layout1
350
1D
  3
Model
350
21
  0
DICTIONARY
  5
39E
102
{ACAD_REACTORS
330
C
102
}
330
C
100
AcDbDictionary
281
     1
  0
DICTIONARY
  5
16
102
{ACAD_REACTORS
330
C
102
}
330
C
100
AcDbDictionary
281
     1
  3
Standard
350
17
  0
DICTIONARY
  5
18
102
{ACAD_REACTORS
330
C
102
}
330
C
100
AcDbDictionary
281
     1
  0
ACDBDICTIONARYWDFLT
  5
E
102
{ACAD_REACTORS
330
C
102
}
330
C
100
AcDbDictionary
281
     1
  3
Normal
350
F
100
AcDbDictionaryWithDefault
340
F
  0
DICTIONARY
  5
31A
102
{ACAD_REACTORS
330
C
102
}
330
C
100
AcDbDictionary
281
     1
  3
DIMASSOC
350
696
  3
PROJECTNAME
350
697
  3
SORTENTS
350
31B
  0
LAYOUT
  5
1D
102
{ACAD_REACTORS
330
19
102
}
330
19
100
AcDbPlotSettings
  1

  2
Tektronix Phaser 740
  4

  6

 40
0.0
 41
0.0
 42
0.0
 43
0.0
 44
0.0
 45
0.0
 46
0.0
 47
0.0
 48
0.0
 49
0.0
140
0.0
141
0.0
142
1.0
143
1.0
 70
   688
 72
     0
 73
     0
 74
     5
  7
monochrome.ctb
 75
    16
147
1.0
 76
     0
 77
     2
 78
   300
148
0.0
149
0.0
100
AcDbLayout
  1
Layout1
 70
     0
 71
     1
 10
0.0
 20
0.0
 11
12.0
 21
9.0
 12
0.0
 22
0.0
 32
0.0
 14
1.000000000000000E+20
 24
1.000000000000000E+20
 34
1.000000000000000E+20
 15
-1.000000000000000E+20
 25
-1.000000000000000E+20
 35
-1.000000000000000E+20
146
0.0
 13
0.0
 23
0.0
 33
0.0
 16
1.0
 26
0.0
 36
0.0
 17
0.0
 27
1.0
 37
0.0
 76
     0
330
1A
  0
LAYOUT
  5
21
102
{ACAD_REACTORS
330
19
102
}
330
19
100
AcDbPlotSettings
  1

  2
none_device
  4
Letter_(8.50_x_11.00_Inches)
  6

 40
6.349999904632568
 41
6.349999904632568
 42
6.350006103515625
 43
6.350006103515625
 44
215.8999938964844
 45
279.3999938964844
 46
0.0
 47
0.0
 48
0.0
 49
0.0
140
0.0
141
0.0
142
1.0
143
1.0
 70
 11952
 72
     0
 73
     1
 74
     0
  7
monochrome.ctb
 75
     0
147
1.0
 76
     0
 77
     2
 78
   300
148
-427.6236799849804
149
44.87778572714498
100
AcDbLayout
  1
Model
 70
     1
 71
     0
 10
0.0
 20
0.0
 11
12.0
 21
9.0
 12
0.0
 22
0.0
 32
0.0
 14
0.0
 24
0.0
 34
0.0
 15
0.0
 25
0.0
 35
0.0
146
0.0
 13
0.0
 23
0.0
 33
0.0
 16
1.0
 26
0.0
 36
0.0
 17
0.0
 27
1.0
 37
0.0
 76
     0
330
1E
  0
MLINESTYLE
  5
17
102
{ACAD_REACTORS
330
16
102
}
330
16
100
AcDbMlineStyle
  2
STANDARD
 70
     0
  3

 62
   256
 51
90.0
 52
90.0
 71
     2
 49
0.5
 62
   256
  6
BYLAYER
 49
-0.5
 62
   256
  6
BYLAYER
  0
ACDBPLACEHOLDER
  5
F
102
{ACAD_REACTORS
330
E
102
}
330
E
  0
DICTIONARYVAR
  5
696
102
{ACAD_REACTORS
330
31A
102
}
330
31A
100
DictionaryVariables
280
     0
  1
1
  0
DICTIONARYVAR
  5
697
102
{ACAD_REACTORS
330
31A
102
}
330
31A
100
DictionaryVariables
280
     0
  1

  0
DICTIONARYVAR
  5
31B
102
{ACAD_REACTORS
330
31A
102
}
330
31A
100
DictionaryVariables
280
     0
  1
96
  0
ENDSEC
  0
EOF
