  0
SECTION
  2
HEADER
  9
$ACADVER
  1
AC1018
  9
$ACADMAINTVER
 70
   104
  9
$DWGCODEPAGE
  3
ANSI_1252
  9
$LASTSAVEDBY
  1
w.koehlhoff
  9
$INSBASE
 10
0.0
 20
0.0
 30
0.0
  9
$EXTMIN
 10
-0.0005068504623296
 20
-0.0181049657790027
 30
-0.0000000000000053
  9
$EXTMAX
 10
420.0164788275552
 20
594.009068561619
 30
0.0000000000000099
  9
$LIMMIN
 10
0.0
 20
0.0
  9
$LIMMAX
 10
419.9999999999999
 20
594.0000000000002
  9
$ORTHOMODE
 70
     0
  9
$REGENMODE
 70
     1
  9
$FILLMODE
 70
     1
  9
$QTEXTMODE
 70
     0
  9
$MIRRTEXT
 70
     1
  9
$LTSCALE
 40
20.0
  9
$ATTMODE
 70
     1
  9
$TEXTSIZE
 40
3.5
  9
$TRACEWID
 40
0.5
  9
$TEXTSTYLE
  7
STANDARD
  9
$CLAYER
  8
SCHRAFF
  9
$CELTYPE
  6
ByLayer
  9
$CECOLOR
 62
   256
  9
$CELTSCALE
 40
1.0
  9
$DISPSILH
 70
     0
  9
$DIMSCALE
 40
2.0
  9
$DIMASZ
 40
3.5
  9
$DIMEXO
 40
1.0
  9
$DIMDLI
 40
7.0
  9
$DIMRND
 40
0.0
  9
$DIMDLE
 40
0.0
  9
$DIMEXE
 40
1.0
  9
$DIMTP
 40
0.15
  9
$DIMTM
 40
0.15
  9
$DIMTXT
 40
3.5
  9
$DIMCEN
 40
1.5
  9
$DIMTSZ
 40
0.0
  9
$DIMTOL
 70
     0
  9
$DIMLIM
 70
     0
  9
$DIMTIH
 70
     0
  9
$DIMTOH
 70
     0
  9
$DIMSE1
 70
     0
  9
$DIMSE2
 70
     0
  9
$DIMTAD
 70
     1
  9
$DIMZIN
 70
     8
  9
$DIMBLK
  1

  9
$DIMASO
 70
     1
  9
$DIMSHO
 70
     0
  9
$DIMPOST
  1

  9
$DIMAPOST
  1

  9
$DIMALT
 70
     0
  9
$DIMALTD
 70
     2
  9
$DIMALTF
 40
25.4
  9
$DIMLFAC
 40
1.0
  9
$DIMTOFL
 70
     1
  9
$DIMTVP
 40
0.0
  9
$DIMTIX
 70
     0
  9
$DIMSOXD
 70
     0
  9
$DIMSAH
 70
     0
  9
$DIMBLK1
  1

  9
$DIMBLK2
  1

  9
$DIMSTYLE
  2
Standard
  9
$DIMCLRD
 70
     0
  9
$DIMCLRE
 70
     0
  9
$DIMCLRT
 70
     1
  9
$DIMTFAC
 40
0.5142857142857144
  9
$DIMGAP
 40
1.5
  9
$DIMJUST
 70
     0
  9
$DIMSD1
 70
     0
  9
$DIMSD2
 70
     0
  9
$DIMTOLJ
 70
     1
  9
$DIMTZIN
 70
     8
  9
$DIMALTZ
 70
     8
  9
$DIMALTTZ
 70
     8
  9
$DIMUPT
 70
     0
  9
$DIMDEC
 70
     2
  9
$DIMTDEC
 70
     2
  9
$DIMALTU
 70
     2
  9
$DIMALTTD
 70
     2
  9
$DIMTXSTY
  7
STANDARD
  9
$DIMAUNIT
 70
     0
  9
$DIMADEC
 70
     2
  9
$DIMALTRND
 40
0.0
  9
$DIMAZIN
 70
     2
  9
$DIMDSEP
 70
    46
  9
$DIMATFIT
 70
     3
  9
$DIMFRAC
 70
     0
  9
$DIMLDRBLK
  1

  9
$DIMLUNIT
 70
     2
  9
$DIMLWD
 70
    -2
  9
$DIMLWE
 70
    -2
  9
$DIMTMOVE
 70
     0
  9
$LUNITS
 70
     2
  9
$LUPREC
 70
     2
  9
$SKETCHINC
 40
1.0
  9
$FILLETRAD
 40
0.0
  9
$AUNITS
 70
     0
  9
$AUPREC
 70
     0
  9
$MENU
  1
ACAD
  9
$ELEVATION
 40
0.0
  9
$PELEVATION
 40
0.0
  9
$THICKNESS
 40
0.0
  9
$LIMCHECK
 70
     0
  9
$CHAMFERA
 40
0.0
  9
$CHAMFERB
 40
0.0
  9
$CHAMFERC
 40
0.0
  9
$CHAMFERD
 40
0.0
  9
$SKPOLY
 70
     0
  9
$TDCREATE
 40
2455573.065619792
  9
$TDUCREATE
 40
2455573.023953125
  9
$TDUPDATE
 40
2456603.356841030
  9
$TDUUPDATE
 40
2456603.315174364
  9
$TDINDWG
 40
0.1807059028
  9
$TDUSRTIMER
 40
0.1807059028
  9
$USRTIMER
 70
     1
  9
$ANGBASE
 50
0.0
  9
$ANGDIR
 70
     0
  9
$PDMODE
 70
     0
  9
$PDSIZE
 40
0.0
  9
$PLINEWID
 40
0.0
  9
$SPLFRAME
 70
     0
  9
$SPLINETYPE
 70
     6
  9
$SPLINESEGS
 70
     8
  9
$HANDSEED
  5
1DAB
  9
$SURFTAB1
 70
     6
  9
$SURFTAB2
 70
     6
  9
$SURFTYPE
 70
     6
  9
$SURFU
 70
     6
  9
$SURFV
 70
     6
  9
$UCSBASE
  2

  9
$UCSNAME
  2

  9
$UCSORG
 10
0.0
 20
0.0
 30
0.0
  9
$UCSXDIR
 10
1.0
 20
0.0
 30
0.0
  9
$UCSYDIR
 10
0.0
 20
1.0
 30
0.0
  9
$UCSORTHOREF
  2

  9
$UCSORTHOVIEW
 70
     0
  9
$UCSORGTOP
 10
0.0
 20
0.0
 30
0.0
  9
$UCSORGBOTTOM
 10
0.0
 20
0.0
 30
0.0
  9
$UCSORGLEFT
 10
0.0
 20
0.0
 30
0.0
  9
$UCSORGRIGHT
 10
0.0
 20
0.0
 30
0.0
  9
$UCSORGFRONT
 10
0.0
 20
0.0
 30
0.0
  9
$UCSORGBACK
 10
0.0
 20
0.0
 30
0.0
  9
$PUCSBASE
  2

  9
$PUCSNAME
  2

  9
$PUCSORG
 10
0.0
 20
0.0
 30
0.0
  9
$PUCSXDIR
 10
1.0
 20
0.0
 30
0.0
  9
$PUCSYDIR
 10
0.0
 20
1.0
 30
0.0
  9
$PUCSORTHOREF
  2

  9
$PUCSORTHOVIEW
 70
     0
  9
$PUCSORGTOP
 10
0.0
 20
0.0
 30
0.0
  9
$PUCSORGBOTTOM
 10
0.0
 20
0.0
 30
0.0
  9
$PUCSORGLEFT
 10
0.0
 20
0.0
 30
0.0
  9
$PUCSORGRIGHT
 10
0.0
 20
0.0
 30
0.0
  9
$PUCSORGFRONT
 10
0.0
 20
0.0
 30
0.0
  9
$PUCSORGBACK
 10
0.0
 20
0.0
 30
0.0
  9
$USERI1
 70
     0
  9
$USERI2
 70
     0
  9
$USERI3
 70
     0
  9
$USERI4
 70
     0
  9
$USERI5
 70
     0
  9
$USERR1
 40
0.0
  9
$USERR2
 40
0.0
  9
$USERR3
 40
0.0
  9
$USERR4
 40
0.0
  9
$USERR5
 40
0.0
  9
$WORLDVIEW
 70
     1
  9
$SHADEDGE
 70
     3
  9
$SHADEDIF
 70
    70
  9
$TILEMODE
 70
     1
  9
$MAXACTVP
 70
    16
  9
$PINSBASE
 10
0.0
 20
0.0
 30
0.0
  9
$PLIMCHECK
 70
     0
  9
$PEXTMIN
 10
1.000000000000000E+20
 20
1.000000000000000E+20
 30
1.000000000000000E+20
  9
$PEXTMAX
 10
-1.000000000000000E+20
 20
-1.000000000000000E+20
 30
-1.000000000000000E+20
  9
$PLIMMIN
 10
0.0
 20
0.0
  9
$PLIMMAX
 10
12.0
 20
9.0
  9
$UNITMODE
 70
     0
  9
$VISRETAIN
 70
     0
  9
$PLINEGEN
 70
     0
  9
$PSLTSCALE
 70
     0
  9
$TREEDEPTH
 70
  3020
  9
$CMLSTYLE
  2
Standard
  9
$CMLJUST
 70
     0
  9
$CMLSCALE
 40
1.0
  9
$PROXYGRAPHICS
 70
     1
  9
$MEASUREMENT
 70
     0
  9
$CELWEIGHT
370
    -1
  9
$ENDCAPS
280
     0
  9
$JOINSTYLE
280
     0
  9
$LWDISPLAY
290
     0
  9
$INSUNITS
 70
     0
  9
$HYPERLINKBASE
  1

  9
$STYLESHEET
  1
monochrome1.ctb
  9
$XEDIT
290
     1
  9
$CEPSNTYPE
380
     0
  9
$PSTYLEMODE
290
     1
  9
$FINGERPRINTGUID
  2
{CF47490D-A8B5-11D8-B772-000102183313}
  9
$VERSIONGUID
  2
{6790F472-A64C-4752-9D3F-356E866E49D3}
  9
$EXTNAMES
290
     1
  9
$PSVPSCALE
 40
0.0
  9
$OLESTARTUP
290
     0
  9
$SORTENTS
280
    96
  9
$INDEXCTL
280
     0
  9
$HIDETEXT
280
     0
  9
$XCLIPFRAME
290
     0
  9
$HALOGAP
280
     0
  9
$OBSCOLOR
 70
   257
  9
$OBSLTYPE
280
     0
  9
$INTERSECTIONDISPLAY
280
     0
  9
$INTERSECTIONCOLOR
 70
   257
  9
$DIMASSOC
280
     1
  9
$PROJECTNAME
  1

  0
ENDSEC
  0
SECTION
  2
CLASSES
  0
CLASS
  1
ACDBDICTIONARYWDFLT
  2
AcDbDictionaryWithDefault
  3
ObjectDBX Classes
 90
        0
 91
        1
280
     0
281
     0
  0
CLASS
  1
DICTIONARYVAR
  2
AcDbDictionaryVar
  3
ObjectDBX Classes
 90
        0
 91
       11
280
     0
281
     0
  0
CLASS
  1
MATERIAL
  2
AcDbMaterial
  3
ObjectDBX Classes
 90
     1153
 91
        3
280
     0
281
     0
  0
CLASS
  1
VISUALSTYLE
  2
AcDbVisualStyle
  3
ObjectDBX Classes
 90
     4095
 91
       24
280
     0
281
     0
  0
CLASS
  1
TABLESTYLE
  2
AcDbTableStyle
  3
ObjectDBX Classes
 90
     4095
 91
        1
280
     0
281
     0
  0
CLASS
  1
SCALE
  2
AcDbScale
  3
ObjectDBX Classes
 90
     1153
 91
       17
280
     0
281
     0
  0
CLASS
  1
MLEADERSTYLE
  2
AcDbMLeaderStyle
  3
ACDB_MLEADERSTYLE_CLASS
 90
     4095
 91
        1
280
     0
281
     0
  0
CLASS
  1
ACDBSECTIONVIEWSTYLE
  2
AcDbSectionViewStyle
  3
ObjectDBX Classes
 90
     1025
 91
        1
280
     0
281
     0
  0
CLASS
  1
ACDBDETAILVIEWSTYLE
  2
AcDbDetailViewStyle
  3
ObjectDBX Classes
 90
     1025
 91
        1
280
     0
281
     0
  0
CLASS
  1
SORTENTSTABLE
  2
AcDbSortentsTable
  3
ObjectDBX Classes
 90
        0
 91
        1
280
     0
281
     0
  0
CLASS
  1
CELLSTYLEMAP
  2
AcDbCellStyleMap
  3
ObjectDBX Classes
 90
     1152
 91
        3
280
     0
281
     0
  0
ENDSEC
  0
SECTION
  2
TABLES
  0
TABLE
  2
VPORT
  5
8
102
{ACAD_XDICTIONARY
360
1C78
102
}
330
0
100
AcDbSymbolTable
 70
     1
  0
VPORT
  5
1BDB
330
8
100
AcDbSymbolTableRecord
100
AcDbViewportTableRecord
  2
*Active
 70
     0
 10
0.0
 20
0.0
 11
1.0
 21
1.0
 12
210.0079859885465
 22
296.99548179792
 13
0.0
 23
0.0
 14
1.0
 24
1.0
 15
10.0
 25
10.0
 16
0.0
 26
0.0
 36
1.0
 17
0.0
 27
0.0
 37
0.0
 40
598.0363558009237
 41
1.70045045045045
 42
50.0
 43
0.0
 44
0.0
 50
0.0
 51
0.0
 71
     0
 72
  1500
 73
     1
 74
     0
 75
     0
 76
     0
 77
     0
 78
     0
281
     0
 65
     1
110
0.0
120
0.0
130
0.0
111
1.0
121
0.0
131
0.0
112
0.0
122
1.0
132
0.0
 79
     0
146
0.0
1001
ACAD_NAV_VCDISPLAY
1070
     3
  0
ENDTAB
  0
TABLE
  2
LTYPE
  5
5
330
0
100
AcDbSymbolTable
 70
     4
  0
LTYPE
  5
13
330
5
100
AcDbSymbolTableRecord
100
AcDbLinetypeTableRecord
  2
ByBlock
 70
     0
  3

 72
    65
 73
     0
 40
0.0
  0
LTYPE
  5
14
330
5
100
AcDbSymbolTableRecord
100
AcDbLinetypeTableRecord
  2
ByLayer
 70
     0
  3

 72
    65
 73
     0
 40
0.0
  0
LTYPE
  5
15
330
5
100
AcDbSymbolTableRecord
100
AcDbLinetypeTableRecord
  2
Continuous
 70
     0
  3
Solid line
 72
    65
 73
     0
 40
0.0
  0
LTYPE
  5
32
330
5
100
AcDbSymbolTableRecord
100
AcDbLinetypeTableRecord
  2
STRICHPUNKT
 70
     0
  3
__ . __ . __ . __ . __ . __ . __ . __ . __ . __
 72
    65
 73
     4
 40
1.0
 49
0.5
 74
     0
 49
-0.25
 74
     0
 49
0.0
 74
     0
 49
-0.25
 74
     0
  0
LTYPE
  5
1C2C
330
5
100
AcDbSymbolTableRecord
100
AcDbLinetypeTableRecord
  2
PHANTOM2
 70
     0
  3
Phantom (.5x) ___ _ _ ___ _ _ ___ _ _ ___ _ _
 72
    65
 73
     6
 40
1.25
 49
0.625
 74
     0
 49
-0.125
 74
     0
 49
0.125
 74
     0
 49
-0.125
 74
     0
 49
0.125
 74
     0
 49
-0.125
 74
     0
  0
ENDTAB
  0
TABLE
  2
LAYER
  5
2
102
{ACAD_XDICTIONARY
360
1CC1
102
}
330
0
100
AcDbSymbolTable
 70
     9
  0
LAYER
  5
10
102
{ACAD_XDICTIONARY
360
1C65
102
}
330
2
100
AcDbSymbolTableRecord
100
AcDbLayerTableRecord
  2
0
 70
     0
 62
     7
  6
Continuous
370
    -3
390
F
  0
LAYER
  5
35
102
{ACAD_XDICTIONARY
360
1C67
102
}
330
2
100
AcDbSymbolTableRecord
100
AcDbLayerTableRecord
  2
VOLL
 70
     0
 62
     1
  6
Continuous
370
    -3
390
F
  0
LAYER
  5
36
102
{ACAD_XDICTIONARY
360
1C69
102
}
330
2
100
AcDbSymbolTableRecord
100
AcDbLayerTableRecord
  2
HILF
 70
     0
 62
     2
  6
Continuous
370
    -3
390
F
  0
LAYER
  5
37
102
{ACAD_XDICTIONARY
360
1C6B
102
}
330
2
100
AcDbSymbolTableRecord
100
AcDbLayerTableRecord
  2
MITTEL
 70
     0
 62
     2
  6
STRICHPUNKT
370
    -3
390
F
  0
LAYER
  5
38
102
{ACAD_XDICTIONARY
360
1C6D
102
}
330
2
100
AcDbSymbolTableRecord
100
AcDbLayerTableRecord
  2
BEM
 70
     0
 62
     7
  6
Continuous
370
    -3
390
F
  0
LAYER
  5
39
330
2
100
AcDbSymbolTableRecord
100
AcDbLayerTableRecord
  2
DEFPOINTS
 70
     0
 62
     7
  6
Continuous
290
     0
370
    -3
390
F
  0
LAYER
  5
3A
102
{ACAD_XDICTIONARY
360
1C6F
102
}
330
2
100
AcDbSymbolTableRecord
100
AcDbLayerTableRecord
  2
STEMPEL
 70
     0
 62
     3
  6
Continuous
370
    -3
390
F
  0
LAYER
  5
3B
102
{ACAD_XDICTIONARY
360
1C71
102
}
330
2
100
AcDbSymbolTableRecord
100
AcDbLayerTableRecord
  2
TEXT
 70
     0
 62
     7
  6
Continuous
370
    -3
390
F
  0
LAYER
  5
3C
102
{ACAD_XDICTIONARY
360
1C73
102
}
330
2
100
AcDbSymbolTableRecord
100
AcDbLayerTableRecord
  2
SCHRAFF
 70
     0
 62
     7
  6
Continuous
370
    -3
390
F
  0
ENDTAB
  0
TABLE
  2
STYLE
  5
3
330
0
100
AcDbSymbolTable
 70
     3
  0
STYLE
  5
11
330
3
100
AcDbSymbolTableRecord
100
AcDbTextStyleTableRecord
  2
STANDARD
 70
     0
 40
0.0
 41
0.8
 50
0.0
 71
     0
 42
3.5
  3
simplex.shx
  4

  0
STYLE
  5
31
330
3
100
AcDbSymbolTableRecord
100
AcDbTextStyleTableRecord
  2
GREEKS
 70
     0
 40
0.0
 41
0.8
 50
0.0
 71
     0
 42
2.5
  3
SIMPLEX.shx
  4

  0
ENDTAB
  0
TABLE
  2
VIEW
  5
6
330
0
100
AcDbSymbolTable
 70
     1
  0
ENDTAB
  0
TABLE
  2
UCS
  5
7
330
0
100
AcDbSymbolTable
 70
     0
  0
ENDTAB
  0
TABLE
  2
APPID
  5
9
330
0
100
AcDbSymbolTable
 70
     5
  0
APPID
  5
12
330
9
100
AcDbSymbolTableRecord
100
AcDbRegAppTableRecord
  2
ACAD
 70
     0
  0
APPID
  5
1C32
330
9
100
AcDbSymbolTableRecord
100
AcDbRegAppTableRecord
  2
AcadAnnoMonitorAlertIconDisabled
 70
     0
  0
APPID
  5
1C33
330
9
100
AcDbSymbolTableRecord
100
AcDbRegAppTableRecord
  2
ACAD_EXEMPT_FROM_CAD_STANDARDS
 70
     0
  0
APPID
  5
1C50
330
9
100
AcDbSymbolTableRecord
100
AcDbRegAppTableRecord
  2
ACAD_NAV_VCDISPLAY
 70
     0
  0
APPID
  5
1C51
330
9
100
AcDbSymbolTableRecord
100
AcDbRegAppTableRecord
  2
ACAD_MLEADERVER
 70
     0
  0
ENDTAB
  0
TABLE
  2
DIMSTYLE
  5
A
330
0
100
AcDbSymbolTable
 70
     2
100
AcDbDimStyleTable
 71
     1
340
26B
  0
DIMSTYLE
105
26B
102
{ACAD_REACTORS
330
18B0
330
18B1
330
18B2
330
18C3
330
18CA
330
1A74
102
}
330
A
100
AcDbSymbolTableRecord
100
AcDbDimStyleTableRecord
  2
Standard
 70
     0
340
11
  0
ENDTAB
  0
TABLE
  2
BLOCK_RECORD
  5
1
330
0
100
AcDbSymbolTable
 70
    12
  0
BLOCK_RECORD
  5
1E
102
{ACAD_XDICTIONARY
360
1C63
102
}
330
1
100
AcDbSymbolTableRecord
100
AcDbBlockTableRecord
  2
*Model_Space
340
21
  0
BLOCK_RECORD
  5
1A
330
1
100
AcDbSymbolTableRecord
100
AcDbBlockTableRecord
  2
*Paper_Space
340
1D
  0
BLOCK_RECORD
  5
22
330
1
100
AcDbSymbolTableRecord
100
AcDbBlockTableRecord
  2
LOGO
340
0
102
{BLKREFS
331
1E2
102
}
  0
BLOCK_RECORD
  5
1709
330
1
100
AcDbSymbolTableRecord
100
AcDbBlockTableRecord
  2
*X1
340
0
102
{BLKREFS
331
18B9
102
}
  0
BLOCK_RECORD
  5
175F
330
1
100
AcDbSymbolTableRecord
100
AcDbBlockTableRecord
  2
*X2
340
0
102
{BLKREFS
331
18B8
102
}
  0
BLOCK_RECORD
  5
194C
330
1
100
AcDbSymbolTableRecord
100
AcDbBlockTableRecord
  2
*D3
340
0
  0
BLOCK_RECORD
  5
1958
330
1
100
AcDbSymbolTableRecord
100
AcDbBlockTableRecord
  2
*D4
340
0
  0
BLOCK_RECORD
  5
1964
330
1
100
AcDbSymbolTableRecord
100
AcDbBlockTableRecord
  2
*D5
340
0
  0
BLOCK_RECORD
  5
1970
330
1
100
AcDbSymbolTableRecord
100
AcDbBlockTableRecord
  2
*D6
340
0
  0
BLOCK_RECORD
  5
198A
330
1
100
AcDbSymbolTableRecord
100
AcDbBlockTableRecord
  2
*D8
340
0
  0
BLOCK_RECORD
  5
1A75
330
1
100
AcDbSymbolTableRecord
100
AcDbBlockTableRecord
  2
*D10
340
0
  0
ENDTAB
  0
ENDSEC
  0
SECTION
  2
BLOCKS
  0
BLOCK
  5
40
330
1E
100
AcDbEntity
  8
0
100
AcDbBlockBegin
  2
*Model_Space
 70
     0
 10
0.0
 20
0.0
 30
0.0
  3
*Model_Space
  1

  0
ENDBLK
  5
41
330
1E
100
AcDbEntity
  8
0
100
AcDbBlockEnd
  0
BLOCK
  5
3E
330
1A
100
AcDbEntity
 67
     1
  8
0
100
AcDbBlockBegin
  2
*Paper_Space
 70
     0
 10
0.0
 20
0.0
 30
0.0
  3
*Paper_Space
  1

  0
ENDBLK
  5
3F
330
1A
100
AcDbEntity
 67
     1
  8
0
100
AcDbBlockEnd
  0
BLOCK
  5
42
330
22
100
AcDbEntity
  8
0
100
AcDbBlockBegin
  2
LOGO
 70
     0
 10
0.0
 20
0.0
 30
0.0
  3
LOGO
  1

  0
ARC
  5
43
330
22
100
AcDbEntity
  8
0
100
AcDbCircle
 10
11.59973089678112
 20
-9.271599258481501
 30
0.0
 40
4.5
100
AcDbArc
 50
270.0
 51
231.0575587310159
  0
LINE
  5
44
330
22
100
AcDbEntity
  8
0
100
AcDbLine
 10
3.599730896781125
 20
-4.771599258481529
 30
0.0
 11
3.599730896781153
 21
-11.77159925848133
 31
0.0
  0
LINE
  5
45
330
22
100
AcDbEntity
  8
0
100
AcDbLine
 10
2.599730896781125
 20
-4.771599258481529
 30
0.0
 11
2.599730896781153
 21
-11.77159925848133
 31
0.0
  0
CIRCLE
  5
46
330
22
100
AcDbEntity
  8
0
100
AcDbCircle
 10
11.59973089678112
 20
-9.271599258481501
 30
0.0
 40
3.5
  0
ARC
  5
47
330
22
100
AcDbEntity
  8
0
100
AcDbCircle
 10
31.59973089678115
 20
-9.271599258481472
 30
0.0
 40
4.5
100
AcDbArc
 50
270.0
 51
231.0575587310182
  0
LINE
  5
48
330
22
100
AcDbEntity
  8
0
100
AcDbLine
 10
17.59973089678112
 20
-4.771599258481472
 30
0.0
 11
17.59973089678115
 21
-13.77159925848147
 31
0.0
  0
ARC
  5
49
330
22
100
AcDbEntity
  8
0
100
AcDbCircle
 10
22.59973089678116
 20
-7.271599258481472
 30
0.0
 40
2.5
100
AcDbArc
 50
293.1161887722295
 51
90.0
  0
CIRCLE
  5
4A
330
22
100
AcDbEntity
  8
0
100
AcDbCircle
 10
31.59973089678115
 20
-9.271599258481472
 30
0.0
 40
3.5
  0
ARC
  5
4B
330
22
100
AcDbEntity
  8
0
100
AcDbCircle
 10
4.599730896781153
 20
-11.77159925848133
 30
0.0
 40
1.0
100
AcDbArc
 50
180.0
 51
270.0
  0
ARC
  5
4C
330
22
100
AcDbEntity
  8
0
100
AcDbCircle
 10
4.599730896781153
 20
-11.77159925848133
 30
0.0
 40
2.0
100
AcDbArc
 50
179.9999999999992
 51
270.0
  0
LINE
  5
4D
330
22
100
AcDbEntity
  8
0
100
AcDbLine
 10
11.59973089678115
 20
-13.77159925848144
 30
0.0
 11
4.599730896781153
 21
-13.77159925848147
 31
0.0
  0
LINE
  5
4E
330
22
100
AcDbEntity
  8
0
100
AcDbLine
 10
8.771303772034769
 20
-12.77159925848136
 30
0.0
 11
4.599730896781153
 21
-12.77159925848133
 31
0.0
  0
LINE
  5
4F
330
22
100
AcDbEntity
  8
0
100
AcDbLine
 10
31.59973089678115
 20
-13.77159925848147
 30
0.0
 11
23.6715276665056
 21
-13.77159925848144
 31
0.0
  0
LINE
  5
50
330
22
100
AcDbEntity
  8
0
100
AcDbLine
 10
23.56565672307022
 20
-9.51278021337896
 30
0.0
 11
24.4388546544846
 21
-12.77159925848144
 31
0.0
  0
LINE
  5
51
330
22
100
AcDbEntity
  8
0
100
AcDbLine
 10
22.59973089678116
 20
-9.771599258481472
 30
0.0
 11
18.59973089678112
 21
-9.771599258481472
 31
0.0
  0
LINE
  5
52
330
22
100
AcDbEntity
  8
0
100
AcDbLine
 10
18.59973089678115
 20
-13.77159925848144
 30
0.0
 11
17.59973089678115
 21
-13.77159925848144
 31
0.0
  0
LINE
  5
53
330
22
100
AcDbEntity
  8
0
100
AcDbLine
 10
18.59973089678115
 20
-9.771599258481472
 30
0.0
 11
18.59973089678115
 21
-13.77159925848144
 31
0.0
  0
LINE
  5
54
330
22
100
AcDbEntity
  8
0
100
AcDbLine
 10
22.59973089678116
 20
-9.771599258481472
 30
0.0
 11
23.67152766650562
 21
-13.77159925848147
 31
0.0
  0
ARC
  5
55
330
22
100
AcDbEntity
  8
0
100
AcDbCircle
 10
22.59973089678116
 20
-7.271599258481472
 30
0.0
 40
2.5
100
AcDbArc
 50
270.0
 51
270.0000000000007
  0
LINE
  5
56
330
22
100
AcDbEntity
  8
0
100
AcDbLine
 10
28.77130377203494
 20
-12.77159925848147
 30
0.0
 11
24.43885465448463
 21
-12.77159925848144
 31
0.0
  0
LINE
  5
57
330
22
100
AcDbEntity
  8
0
100
AcDbLine
 10
3.599730896781125
 20
-4.771599258481472
 30
0.0
 11
2.599730896781125
 21
-4.771599258481472
 31
0.0
  0
LINE
  5
58
330
22
100
AcDbEntity
  8
0
100
AcDbLine
 10
22.59973089678116
 20
-8.771599258481472
 30
0.0
 11
18.59973089678115
 21
-8.771599258481472
 31
0.0
  0
LINE
  5
59
330
22
100
AcDbEntity
  8
0
100
AcDbLine
 10
22.59973089678116
 20
-5.771599258481472
 30
0.0
 11
18.59973089678115
 21
-5.771599258481472
 31
0.0
  0
LINE
  5
5A
330
22
100
AcDbEntity
  8
0
100
AcDbLine
 10
22.59973089678116
 20
-4.771599258481472
 30
0.0
 11
17.59973089678115
 21
-4.771599258481472
 31
0.0
  0
LINE
  5
5B
330
22
100
AcDbEntity
  8
0
100
AcDbLine
 10
18.59973089678115
 20
-5.771599258481472
 30
0.0
 11
18.59973089678115
 21
-8.771599258481472
 31
0.0
  0
ARC
  5
5C
330
22
100
AcDbEntity
  8
0
100
AcDbCircle
 10
22.59973089678116
 20
-7.271599258481472
 30
0.0
 40
1.5
100
AcDbArc
 50
270.0
 51
90.0
  0
ENDBLK
  5
5D
330
22
100
AcDbEntity
  8
0
100
AcDbBlockEnd
  0
BLOCK
  5
170A
330
1709
100
AcDbEntity
  8
0
100
AcDbBlockBegin
  2
*X1
 70
     1
 10
0.0
 20
0.0
 30
0.0
  3
*X1
  1

  0
LINE
  5
170B
330
1709
100
AcDbEntity
  8
0
 62
     0
100
AcDbLine
 10
265.0837722940077
 20
289.2879441562456
 30
0.0
 11
263.4837722940077
 21
290.8879441562456
 31
0.0
  0
LINE
  5
170C
330
1709
100
AcDbEntity
  8
0
 62
     0
100
AcDbLine
 10
193.6837722940077
 20
360.6879441562455
 30
0.0
 11
192.0837722940078
 21
362.2879441562454
 31
0.0
  0
LINE
  5
170D
330
1709
100
AcDbEntity
  8
0
 62
     0
100
AcDbLine
 10
265.0837722940077
 20
286.4595170314993
 30
0.0
 11
263.4837722940077
 21
288.0595170314994
 31
0.0
  0
LINE
  5
170E
330
1709
100
AcDbEntity
  8
0
 62
     0
100
AcDbLine
 10
193.6837722940077
 20
357.8595170314993
 30
0.0
 11
192.0837722940078
 21
359.4595170314992
 31
0.0
  0
LINE
  5
170F
330
1709
100
AcDbEntity
  8
0
 62
     0
100
AcDbLine
 10
265.0837722940077
 20
283.6310899067531
 30
0.0
 11
263.4837722940077
 21
285.2310899067532
 31
0.0
  0
LINE
  5
1710
330
1709
100
AcDbEntity
  8
0
 62
     0
100
AcDbLine
 10
193.6837722940077
 20
355.0310899067531
 30
0.0
 11
192.0837722940078
 21
356.6310899067531
 31
0.0
  0
LINE
  5
1711
330
1709
100
AcDbEntity
  8
0
 62
     0
100
AcDbLine
 10
265.0837722940077
 20
280.8026627820069
 30
0.0
 11
263.4837722940077
 21
282.402662782007
 31
0.0
  0
LINE
  5
1712
330
1709
100
AcDbEntity
  8
0
 62
     0
100
AcDbLine
 10
193.6837722940077
 20
352.2026627820069
 30
0.0
 11
192.0837722940078
 21
353.8026627820069
 31
0.0
  0
LINE
  5
1713
330
1709
100
AcDbEntity
  8
0
 62
     0
100
AcDbLine
 10
264.8945828796
 20
278.1634250716685
 30
0.0
 11
263.4176831252044
 21
279.6403248260641
 31
0.0
  0
LINE
  5
1714
330
1709
100
AcDbEntity
  8
0
 62
     0
100
AcDbLine
 10
193.6837722940077
 20
349.3742356572607
 30
0.0
 11
192.0837722940078
 21
350.9742356572607
 31
0.0
  0
LINE
  5
1715
330
1709
100
AcDbEntity
  8
0
 62
     0
100
AcDbLine
 10
264.6670353958201
 20
275.5625454307022
 30
0.0
 11
263.1901356414246
 21
277.0394451850977
 31
0.0
  0
LINE
  5
1716
330
1709
100
AcDbEntity
  8
0
 62
     0
100
AcDbLine
 10
193.6837722940077
 20
346.5458085325145
 30
0.0
 11
192.0837722940078
 21
348.1458085325145
 31
0.0
  0
LINE
  5
1717
330
1709
100
AcDbEntity
  8
0
 62
     0
100
AcDbLine
 10
264.4394879120402
 20
272.9616657897359
 30
0.0
 11
262.9625881576446
 21
274.4385655441314
 31
0.0
  0
LINE
  5
1718
330
1709
100
AcDbEntity
  8
0
 62
     0
100
AcDbLine
 10
193.6837722940077
 20
343.7173814077683
 30
0.0
 11
192.0837722940078
 21
345.3173814077683
 31
0.0
  0
LINE
  5
1719
330
1709
100
AcDbEntity
  8
0
 62
     0
100
AcDbLine
 10
264.1769990948989
 20
270.395727482131
 30
0.0
 11
262.7350406738647
 21
271.8376859031652
 31
0.0
  0
LINE
  5
171A
330
1709
100
AcDbEntity
  8
0
 62
     0
100
AcDbLine
 10
193.6837722940078
 20
340.8889542830221
 30
0.0
 11
192.0837722940078
 21
342.4889542830221
 31
0.0
  0
LINE
  5
171B
330
1709
100
AcDbEntity
  8
0
 62
     0
100
AcDbLine
 10
193.6837722940078
 20
338.0605271582759
 30
0.0
 11
192.0837722940078
 21
339.6605271582759
 31
0.0
  0
LINE
  5
171C
330
1709
100
AcDbEntity
  8
0
 62
     0
100
AcDbLine
 10
193.6837722940078
 20
335.2321000335297
 30
0.0
 11
192.0837722940078
 21
336.8321000335297
 31
0.0
  0
LINE
  5
171D
330
1709
100
AcDbEntity
  8
0
 62
     0
100
AcDbLine
 10
193.6837722940078
 20
332.4036729087836
 30
0.0
 11
192.0837722940078
 21
334.0036729087835
 31
0.0
  0
LINE
  5
171E
330
1709
100
AcDbEntity
  8
0
 62
     0
100
AcDbLine
 10
193.6837722940078
 20
329.5752457840373
 30
0.0
 11
192.0837722940078
 21
331.1752457840373
 31
0.0
  0
LINE
  5
171F
330
1709
100
AcDbEntity
  8
0
 62
     0
100
AcDbLine
 10
193.6837722940078
 20
326.7468186592911
 30
0.0
 11
192.0837722940078
 21
328.3468186592912
 31
0.0
  0
LINE
  5
1720
330
1709
100
AcDbEntity
  8
0
 62
     0
100
AcDbLine
 10
193.6837722940078
 20
323.918391534545
 30
0.0
 11
192.0837722940078
 21
325.5183915345449
 31
0.0
  0
LINE
  5
1721
330
1709
100
AcDbEntity
  8
0
 62
     0
100
AcDbLine
 10
193.6837722940078
 20
321.0899644097988
 30
0.0
 11
192.0837722940078
 21
322.6899644097988
 31
0.0
  0
LINE
  5
1722
330
1709
100
AcDbEntity
  8
0
 62
     0
100
AcDbLine
 10
193.6837722940078
 20
318.2615372850526
 30
0.0
 11
192.0837722940078
 21
319.8615372850526
 31
0.0
  0
LINE
  5
1723
330
1709
100
AcDbEntity
  8
0
 62
     0
100
AcDbLine
 10
193.6837722940078
 20
315.4331101603064
 30
0.0
 11
192.0837722940078
 21
317.0331101603064
 31
0.0
  0
LINE
  5
1724
330
1709
100
AcDbEntity
  8
0
 62
     0
100
AcDbLine
 10
193.6837722940078
 20
312.6046830355602
 30
0.0
 11
192.0837722940078
 21
314.2046830355602
 31
0.0
  0
LINE
  5
1725
330
1709
100
AcDbEntity
  8
0
 62
     0
100
AcDbLine
 10
193.6837722940078
 20
309.776255910814
 30
0.0
 11
192.0837722940078
 21
311.376255910814
 31
0.0
  0
LINE
  5
1726
330
1709
100
AcDbEntity
  8
0
 62
     0
100
AcDbLine
 10
193.6837722940078
 20
306.9478287860678
 30
0.0
 11
192.0837722940078
 21
308.5478287860679
 31
0.0
  0
LINE
  5
1727
330
1709
100
AcDbEntity
  8
0
 62
     0
100
AcDbLine
 10
193.6837722940078
 20
304.1194016613216
 30
0.0
 11
192.0837722940078
 21
305.7194016613216
 31
0.0
  0
LINE
  5
1728
330
1709
100
AcDbEntity
  8
0
 62
     0
100
AcDbLine
 10
193.6837722940078
 20
301.2909745365754
 30
0.0
 11
192.0837722940078
 21
302.8909745365754
 31
0.0
  0
LINE
  5
1729
330
1709
100
AcDbEntity
  8
0
 62
     0
100
AcDbLine
 10
193.6837722940078
 20
298.4625474118292
 30
0.0
 11
192.0837722940078
 21
300.0625474118292
 31
0.0
  0
LINE
  5
172A
330
1709
100
AcDbEntity
  8
0
 62
     0
100
AcDbLine
 10
193.6837722940078
 20
295.634120287083
 30
0.0
 11
192.0837722940078
 21
297.2341202870831
 31
0.0
  0
LINE
  5
172B
330
1709
100
AcDbEntity
  8
0
 62
     0
100
AcDbLine
 10
193.6837722940078
 20
292.8056931623368
 30
0.0
 11
192.0837722940078
 21
294.4056931623369
 31
0.0
  0
LINE
  5
172C
330
1709
100
AcDbEntity
  8
0
 62
     0
100
AcDbLine
 10
193.6837722940078
 20
289.9772660375906
 30
0.0
 11
192.0837722940078
 21
291.5772660375907
 31
0.0
  0
LINE
  5
172D
330
1709
100
AcDbEntity
  8
0
 62
     0
100
AcDbLine
 10
193.6837722940078
 20
287.1488389128444
 30
0.0
 11
192.0837722940078
 21
288.7488389128445
 31
0.0
  0
LINE
  5
172E
330
1709
100
AcDbEntity
  8
0
 62
     0
100
AcDbLine
 10
193.6837722940078
 20
284.3204117880982
 30
0.0
 11
192.0837722940078
 21
285.9204117880983
 31
0.0
  0
LINE
  5
172F
330
1709
100
AcDbEntity
  8
0
 62
     0
100
AcDbLine
 10
193.6837722940078
 20
281.4919846633521
 30
0.0
 11
192.0837722940078
 21
283.0919846633521
 31
0.0
  0
LINE
  5
1730
330
1709
100
AcDbEntity
  8
0
 62
     0
100
AcDbLine
 10
193.8498471988352
 20
278.4974826337785
 30
0.0
 11
192.0897466106328
 21
280.257583221981
 31
0.0
  0
LINE
  5
1731
330
1709
100
AcDbEntity
  8
0
 62
     0
100
AcDbLine
 10
194.1210277301156
 20
275.3978749777519
 30
0.0
 11
192.3609271419132
 21
277.1579755659542
 31
0.0
  0
LINE
  5
1732
330
1709
100
AcDbEntity
  8
0
 62
     0
100
AcDbLine
 10
194.3922082613961
 20
272.2982673217252
 30
0.0
 11
192.6321076731937
 21
274.0583679099276
 31
0.0
  0
LINE
  5
1733
330
1709
100
AcDbEntity
  8
0
 62
     0
100
AcDbLine
 10
193.4663209762441
 20
270.395727482131
 30
0.0
 11
192.9032882044742
 21
270.9587602539009
 31
0.0
  0
LINE
  5
1734
330
1709
100
AcDbEntity
  8
0
 62
     0
100
AcDbLine
 10
265.0837722940077
 20
292.1163712809917
 30
0.0
 11
263.4837722940077
 21
293.7163712809917
 31
0.0
  0
LINE
  5
1735
330
1709
100
AcDbEntity
  8
0
 62
     0
100
AcDbLine
 10
193.6837722940077
 20
363.5163712809917
 30
0.0
 11
192.0837722940078
 21
365.1163712809916
 31
0.0
  0
LINE
  5
1736
330
1709
100
AcDbEntity
  8
0
 62
     0
100
AcDbLine
 10
265.0837722940077
 20
294.9447984057379
 30
0.0
 11
263.4837722940077
 21
296.5447984057379
 31
0.0
  0
LINE
  5
1737
330
1709
100
AcDbEntity
  8
0
 62
     0
100
AcDbLine
 10
193.6837722940077
 20
366.3447984057379
 30
0.0
 11
192.0837722940078
 21
367.9447984057378
 31
0.0
  0
LINE
  5
1738
330
1709
100
AcDbEntity
  8
0
 62
     0
100
AcDbLine
 10
265.0837722940077
 20
297.7732255304841
 30
0.0
 11
263.4837722940077
 21
299.3732255304842
 31
0.0
  0
LINE
  5
1739
330
1709
100
AcDbEntity
  8
0
 62
     0
100
AcDbLine
 10
193.6828324484757
 20
369.174165376016
 30
0.0
 11
191.9304230280591
 21
370.9265747964327
 31
0.0
  0
LINE
  5
173A
330
1709
100
AcDbEntity
  8
0
 62
     0
100
AcDbLine
 10
265.0837722940077
 20
300.6016526552303
 30
0.0
 11
263.4837722940077
 21
302.2016526552303
 31
0.0
  0
LINE
  5
173B
330
1709
100
AcDbEntity
  8
0
 62
     0
100
AcDbLine
 10
193.2510711440382
 20
372.4343538051997
 30
0.0
 11
191.1080559369777
 21
374.5773690122603
 31
0.0
  0
LINE
  5
173C
330
1709
100
AcDbEntity
  8
0
 62
     0
100
AcDbLine
 10
265.0837722940077
 20
303.4300797799765
 30
0.0
 11
263.4837722940077
 21
305.0300797799765
 31
0.0
  0
LINE
  5
173D
330
1709
100
AcDbEntity
  8
0
 62
     0
100
AcDbLine
 10
192.3902454973763
 20
376.1236065766079
 30
0.0
 11
190.2472302903158
 21
378.2666217836684
 31
0.0
  0
LINE
  5
173E
330
1709
100
AcDbEntity
  8
0
 62
     0
100
AcDbLine
 10
265.0837722940077
 20
306.2585069047226
 30
0.0
 11
263.4837722940077
 21
307.8585069047227
 31
0.0
  0
LINE
  5
173F
330
1709
100
AcDbEntity
  8
0
 62
     0
100
AcDbLine
 10
191.5294198507144
 20
379.8128593480159
 30
0.0
 11
189.3864046436538
 21
381.9558745550765
 31
0.0
  0
LINE
  5
1740
330
1709
100
AcDbEntity
  8
0
 62
     0
100
AcDbLine
 10
265.0837722940077
 20
309.0869340294688
 30
0.0
 11
263.4837722940077
 21
310.6869340294689
 31
0.0
  0
LINE
  5
1741
330
1709
100
AcDbEntity
  8
0
 62
     0
100
AcDbLine
 10
190.6685942040525
 20
383.502112119424
 30
0.0
 11
188.7749788413462
 21
385.3957274821304
 31
0.0
  0
LINE
  5
1742
330
1709
100
AcDbEntity
  8
0
 62
     0
100
AcDbLine
 10
265.0837722940077
 20
311.915361154215
 30
0.0
 11
263.4837722940077
 21
313.5153611542151
 31
0.0
  0
LINE
  5
1743
330
1709
100
AcDbEntity
  8
0
 62
     0
100
AcDbLine
 10
265.0837722940077
 20
314.7437882789613
 30
0.0
 11
263.4837722940077
 21
316.3437882789613
 31
0.0
  0
LINE
  5
1744
330
1709
100
AcDbEntity
  8
0
 62
     0
100
AcDbLine
 10
265.0837722940077
 20
317.5722154037075
 30
0.0
 11
263.4837722940077
 21
319.1722154037075
 31
0.0
  0
LINE
  5
1745
330
1709
100
AcDbEntity
  8
0
 62
     0
100
AcDbLine
 10
265.0837722940077
 20
320.4006425284536
 30
0.0
 11
263.4837722940077
 21
322.0006425284536
 31
0.0
  0
LINE
  5
1746
330
1709
100
AcDbEntity
  8
0
 62
     0
100
AcDbLine
 10
265.0837722940077
 20
323.2290696531998
 30
0.0
 11
263.4837722940077
 21
324.8290696531999
 31
0.0
  0
LINE
  5
1747
330
1709
100
AcDbEntity
  8
0
 62
     0
100
AcDbLine
 10
265.0837722940077
 20
326.057496777946
 30
0.0
 11
263.4837722940077
 21
327.6574967779461
 31
0.0
  0
LINE
  5
1748
330
1709
100
AcDbEntity
  8
0
 62
     0
100
AcDbLine
 10
265.0837722940077
 20
328.8859239026922
 30
0.0
 11
263.4837722940077
 21
330.4859239026922
 31
0.0
  0
LINE
  5
1749
330
1709
100
AcDbEntity
  8
0
 62
     0
100
AcDbLine
 10
265.0837722940077
 20
331.7143510274384
 30
0.0
 11
263.4837722940077
 21
333.3143510274384
 31
0.0
  0
LINE
  5
174A
330
1709
100
AcDbEntity
  8
0
 62
     0
100
AcDbLine
 10
265.0837722940077
 20
334.5427781521845
 30
0.0
 11
263.4837722940077
 21
336.1427781521846
 31
0.0
  0
LINE
  5
174B
330
1709
100
AcDbEntity
  8
0
 62
     0
100
AcDbLine
 10
265.0837722940077
 20
337.3712052769308
 30
0.0
 11
263.4837722940077
 21
338.9712052769308
 31
0.0
  0
LINE
  5
174C
330
1709
100
AcDbEntity
  8
0
 62
     0
100
AcDbLine
 10
265.0837722940077
 20
340.199632401677
 30
0.0
 11
263.4837722940077
 21
341.799632401677
 31
0.0
  0
LINE
  5
174D
330
1709
100
AcDbEntity
  8
0
 62
     0
100
AcDbLine
 10
265.0837722940077
 20
343.0280595264231
 30
0.0
 11
263.4837722940077
 21
344.6280595264231
 31
0.0
  0
LINE
  5
174E
330
1709
100
AcDbEntity
  8
0
 62
     0
100
AcDbLine
 10
265.0837722940077
 20
345.8564866511693
 30
0.0
 11
263.4837722940077
 21
347.4564866511694
 31
0.0
  0
LINE
  5
174F
330
1709
100
AcDbEntity
  8
0
 62
     0
100
AcDbLine
 10
265.0837722940077
 20
348.6849137759155
 30
0.0
 11
263.4837722940077
 21
350.2849137759155
 31
0.0
  0
LINE
  5
1750
330
1709
100
AcDbEntity
  8
0
 62
     0
100
AcDbLine
 10
265.0837722940077
 20
351.5133409006617
 30
0.0
 11
263.4837722940077
 21
353.1133409006617
 31
0.0
  0
LINE
  5
1751
330
1709
100
AcDbEntity
  8
0
 62
     0
100
AcDbLine
 10
265.0837722940077
 20
354.3417680254079
 30
0.0
 11
263.4837722940077
 21
355.941768025408
 31
0.0
  0
LINE
  5
1752
330
1709
100
AcDbEntity
  8
0
 62
     0
100
AcDbLine
 10
265.0837722940077
 20
357.1701951501541
 30
0.0
 11
263.4837722940077
 21
358.7701951501541
 31
0.0
  0
LINE
  5
1753
330
1709
100
AcDbEntity
  8
0
 62
     0
100
AcDbLine
 10
265.0837722940077
 20
359.9986222749003
 30
0.0
 11
263.4837722940077
 21
361.5986222749003
 31
0.0
  0
LINE
  5
1754
330
1709
100
AcDbEntity
  8
0
 62
     0
100
AcDbLine
 10
265.0837722940077
 20
362.8270493996465
 30
0.0
 11
263.4837722940077
 21
364.4270493996465
 31
0.0
  0
LINE
  5
1755
330
1709
100
AcDbEntity
  8
0
 62
     0
100
AcDbLine
 10
265.0837722940077
 20
365.6554765243927
 30
0.0
 11
263.4837722940077
 21
367.2554765243927
 31
0.0
  0
LINE
  5
1756
330
1709
100
AcDbEntity
  8
0
 62
     0
100
AcDbLine
 10
265.0837722940077
 20
368.4839036491389
 30
0.0
 11
263.5228717836158
 21
370.0448041595308
 31
0.0
  0
LINE
  5
1757
330
1709
100
AcDbEntity
  8
0
 62
     0
100
AcDbLine
 10
265.2708979355614
 20
371.1252051323313
 30
0.0
 11
263.9250391394099
 21
372.4710639284828
 31
0.0
  0
LINE
  5
1758
330
1709
100
AcDbEntity
  8
0
 62
     0
100
AcDbLine
 10
265.7922915619941
 20
373.4322386306447
 30
0.0
 11
264.4601469738213
 21
374.7643832188176
 31
0.0
  0
LINE
  5
1759
330
1709
100
AcDbEntity
  8
0
 62
     0
100
AcDbLine
 10
266.3273993964056
 20
375.7255579209795
 30
0.0
 11
264.9952548082328
 21
377.0577025091523
 31
0.0
  0
LINE
  5
175A
330
1709
100
AcDbEntity
  8
0
 62
     0
100
AcDbLine
 10
266.862507230817
 20
378.0188772113143
 30
0.0
 11
265.5303626426442
 21
379.351021799487
 31
0.0
  0
LINE
  5
175B
330
1709
100
AcDbEntity
  8
0
 62
     0
100
AcDbLine
 10
267.3976150652284
 20
380.312196501649
 30
0.0
 11
266.0654704770557
 21
381.6443410898218
 31
0.0
  0
LINE
  5
175C
330
1709
100
AcDbEntity
  8
0
 62
     0
100
AcDbLine
 10
267.9327228996399
 20
382.6055157919838
 30
0.0
 11
266.6005783114671
 21
383.9376603801566
 31
0.0
  0
LINE
  5
175D
330
1709
100
AcDbEntity
  8
0
 62
     0
100
AcDbLine
 10
268.4678307340513
 20
384.8988350823185
 30
0.0
 11
267.970938334238
 21
385.3957274821318
 31
0.0
  0
ENDBLK
  5
175E
330
1709
100
AcDbEntity
  8
0
100
AcDbBlockEnd
  0
BLOCK
  5
1760
330
175F
100
AcDbEntity
  8
0
100
AcDbBlockBegin
  2
*X2
 70
     1
 10
0.0
 20
0.0
 30
0.0
  3
*X2
  1

  0
LINE
  5
1761
330
175F
100
AcDbEntity
  8
0
 62
     0
100
AcDbLine
 10
188.6116615616581
 20
385.2762020493439
 30
0.0
 11
187.5757744775099
 21
386.312089133492
 31
0.0
  0
LINE
  5
1762
330
175F
100
AcDbEntity
  8
0
 62
     0
100
AcDbLine
 10
188.6547028439911
 20
385.0917394107735
 30
0.0
 11
186.3491261975893
 21
387.3973160571753
 31
0.0
  0
LINE
  5
1763
330
175F
100
AcDbEntity
  8
0
 62
     0
100
AcDbLine
 10
188.6977441263242
 20
384.9072767722032
 30
0.0
 11
186.2834920622809
 21
387.3215288362465
 31
0.0
  0
LINE
  5
1764
330
175F
100
AcDbEntity
  8
0
 62
     0
100
AcDbLine
 10
188.7407854086573
 20
384.7228141336326
 30
0.0
 11
186.2202434592075
 21
387.2433560830825
 31
0.0
  0
LINE
  5
1765
330
175F
100
AcDbEntity
  8
0
 62
     0
100
AcDbLine
 10
188.7838266909904
 20
384.5383514950624
 30
0.0
 11
186.159405870353
 21
387.1627723156997
 31
0.0
  0
LINE
  5
1766
330
175F
100
AcDbEntity
  8
0
 62
     0
100
AcDbLine
 10
188.8268679733235
 20
384.3538888564919
 30
0.0
 11
186.1010135725367
 21
387.0797432572786
 31
0.0
  0
LINE
  5
1767
330
175F
100
AcDbEntity
  8
0
 62
     0
100
AcDbLine
 10
188.8699092556566
 20
384.1694262179215
 30
0.0
 11
186.0451102503759
 21
386.9942252232021
 31
0.0
  0
LINE
  5
1768
330
175F
100
AcDbEntity
  8
0
 62
     0
100
AcDbLine
 10
188.9129505379897
 20
383.9849635793511
 30
0.0
 11
185.9917498051937
 21
386.9061643121471
 31
0.0
  0
LINE
  5
1769
330
175F
100
AcDbEntity
  8
0
 62
     0
100
AcDbLine
 10
188.9559918203228
 20
383.8005009407806
 30
0.0
 11
185.9409973963782
 21
386.8154953647252
 31
0.0
  0
LINE
  5
176A
330
175F
100
AcDbEntity
  8
0
 62
     0
100
AcDbLine
 10
188.9990331026559
 20
383.6160383022103
 30
0.0
 11
185.8929307649077
 21
386.7221406399585
 31
0.0
  0
LINE
  5
176B
330
175F
100
AcDbEntity
  8
0
 62
     0
100
AcDbLine
 10
189.042074384989
 20
383.4315756636399
 30
0.0
 11
185.8476419064774
 21
386.6260081421514
 31
0.0
  0
LINE
  5
176C
330
175F
100
AcDbEntity
  8
0
 62
     0
100
AcDbLine
 10
189.0851156673221
 20
383.2471130250694
 30
0.0
 11
185.8052391859798
 21
386.5269895064117
 31
0.0
  0
LINE
  5
176D
330
175F
100
AcDbEntity
  8
0
 62
     0
100
AcDbLine
 10
189.1281569496552
 20
383.0626503864991
 30
0.0
 11
185.7658500191689
 21
386.4249573169853
 31
0.0
  0
LINE
  5
176E
330
175F
100
AcDbEntity
  8
0
 62
     0
100
AcDbLine
 10
189.1711982319883
 20
382.8781877479286
 30
0.0
 11
185.7296242960813
 21
386.3197616838356
 31
0.0
  0
LINE
  5
176F
330
175F
100
AcDbEntity
  8
0
 62
     0
100
AcDbLine
 10
189.2142395143214
 20
382.6937251093582
 30
0.0
 11
185.6967387919789
 21
386.2112258317007
 31
0.0
  0
LINE
  5
1770
330
175F
100
AcDbEntity
  8
0
 62
     0
100
AcDbLine
 10
189.2572807966545
 20
382.5092624707878
 30
0.0
 11
185.6674029178932
 21
386.0991403495491
 31
0.0
  0
LINE
  5
1771
330
175F
100
AcDbEntity
  8
0
 62
     0
100
AcDbLine
 10
189.1713003975763
 20
382.4538215136286
 30
0.0
 11
185.6418663255061
 21
385.9832555856989
 31
0.0
  0
LINE
  5
1772
330
175F
100
AcDbEntity
  8
0
 62
     0
100
AcDbLine
 10
189.051316230117
 20
382.4323843248507
 30
0.0
 11
185.6204291367281
 21
385.8632714182396
 31
0.0
  0
LINE
  5
1773
330
175F
100
AcDbEntity
  8
0
 62
     0
100
AcDbLine
 10
188.9268680281969
 20
382.4154111705335
 30
0.0
 11
185.6034559824109
 21
385.7388232163194
 31
0.0
  0
LINE
  5
1774
330
175F
100
AcDbEntity
  8
0
 62
     0
100
AcDbLine
 10
188.7975069254544
 20
382.4033509170387
 30
0.0
 11
185.5913957289162
 21
385.6094621135769
 31
0.0
  0
LINE
  5
1775
330
175F
100
AcDbEntity
  8
0
 62
     0
100
AcDbLine
 10
188.6626713153946
 20
382.3967651708611
 30
0.0
 11
185.5848099827386
 21
385.4746265035172
 31
0.0
  0
LINE
  5
1776
330
175F
100
AcDbEntity
  8
0
 62
     0
100
AcDbLine
 10
188.5216442635339
 20
382.3963708664845
 30
0.0
 11
185.584415678362
 21
385.3335994516565
 31
0.0
  0
LINE
  5
1777
330
175F
100
AcDbEntity
  8
0
 62
     0
100
AcDbLine
 10
188.3734872499829
 20
382.4031065237983
 30
0.0
 11
185.5911513356757
 21
385.1854424381055
 31
0.0
  0
LINE
  5
1778
330
175F
100
AcDbEntity
  8
0
 62
     0
100
AcDbLine
 10
188.2169318044356
 20
382.4182406131082
 30
0.0
 11
185.6062854249856
 21
385.0288869925582
 31
0.0
  0
LINE
  5
1779
330
175F
100
AcDbEntity
  8
0
 62
     0
100
AcDbLine
 10
188.0501906944703
 20
382.4435603668362
 30
0.0
 11
185.6316051787136
 21
384.8621458825929
 31
0.0
  0
LINE
  5
177A
330
175F
100
AcDbEntity
  8
0
 62
     0
100
AcDbLine
 10
187.870600507612
 20
382.4817291974572
 30
0.0
 11
185.6697740093346
 21
384.6825556957345
 31
0.0
  0
LINE
  5
177B
330
175F
100
AcDbEntity
  8
0
 62
     0
100
AcDbLine
 10
187.6738633944603
 20
382.5370449543715
 30
0.0
 11
185.725089766249
 21
384.4858185825828
 31
0.0
  0
LINE
  5
177C
330
175F
100
AcDbEntity
  8
0
 62
     0
100
AcDbLine
 10
187.4521430989849
 20
382.6173438936097
 30
0.0
 11
185.8053887054871
 21
384.2640982871074
 31
0.0
  0
LINE
  5
177D
330
175F
100
AcDbEntity
  8
0
 62
     0
100
AcDbLine
 10
187.1877141419046
 20
382.7403514944526
 30
0.0
 11
185.9283963063301
 21
383.9996693300272
 31
0.0
  0
LINE
  5
177E
330
175F
100
AcDbEntity
  8
0
 62
     0
100
AcDbLine
 10
186.8113672263348
 20
382.9752770537852
 30
0.0
 11
186.1633218656627
 21
383.6233224144574
 31
0.0
  0
LINE
  5
177F
330
175F
100
AcDbEntity
  8
0
 62
     0
100
AcDbLine
 10
267.9286954056353
 20
382.4681219297512
 30
0.0
 11
267.9059675079194
 21
382.4908498274671
 31
0.0
  0
LINE
  5
1780
330
175F
100
AcDbEntity
  8
0
 62
     0
100
AcDbLine
 10
268.1038796519747
 20
382.4343590396491
 30
0.0
 11
267.9327228996399
 21
382.6055157919837
 31
0.0
  0
LINE
  5
1781
330
175F
100
AcDbEntity
  8
0
 62
     0
100
AcDbLine
 10
268.2671807622473
 20
382.4124792856137
 30
0.0
 11
267.9594782913605
 21
382.7201817565006
 31
0.0
  0
LINE
  5
1782
330
175F
100
AcDbEntity
  8
0
 62
     0
100
AcDbLine
 10
268.4209311204732
 20
382.4001502836251
 30
0.0
 11
267.9862336830811
 21
382.8348477210172
 31
0.0
  0
LINE
  5
1783
330
175F
100
AcDbEntity
  8
0
 62
     0
100
AcDbLine
 10
268.5667268533069
 20
382.3957759070288
 30
0.0
 11
268.0129890748017
 21
382.949513685534
 31
0.0
  0
LINE
  5
1784
330
175F
100
AcDbEntity
  8
0
 62
     0
100
AcDbLine
 10
268.705717183806
 20
382.398206932767
 30
0.0
 11
268.0397444665223
 21
383.0641796500507
 31
0.0
  0
LINE
  5
1785
330
175F
100
AcDbEntity
  8
0
 62
     0
100
AcDbLine
 10
268.8387617443674
 20
382.4065837284428
 30
0.0
 11
268.0664998582428
 21
383.1788456145675
 31
0.0
  0
LINE
  5
1786
330
175F
100
AcDbEntity
  8
0
 62
     0
100
AcDbLine
 10
268.9665228402887
 20
382.4202439887589
 30
0.0
 11
268.0932552499634
 21
383.2935115790842
 31
0.0
  0
LINE
  5
1787
330
175F
100
AcDbEntity
  8
0
 62
     0
100
AcDbLine
 10
269.0895228261483
 20
382.4386653591366
 30
0.0
 11
268.120010641684
 21
383.4081775436009
 31
0.0
  0
LINE
  5
1788
330
175F
100
AcDbEntity
  8
0
 62
     0
100
AcDbLine
 10
269.2081814910535
 20
382.4614280504686
 30
0.0
 11
268.1467660334046
 21
383.5228435081177
 31
0.0
  0
LINE
  5
1789
330
175F
100
AcDbEntity
  8
0
 62
     0
100
AcDbLine
 10
269.3228413624329
 20
382.4881895353267
 30
0.0
 11
268.1735214251251
 21
383.6375094726345
 31
0.0
  0
LINE
  5
178A
330
175F
100
AcDbEntity
  8
0
 62
     0
100
AcDbLine
 10
269.4337853814455
 20
382.5186668725513
 30
0.0
 11
268.2002768168457
 21
383.7521754371512
 31
0.0
  0
LINE
  5
178B
330
175F
100
AcDbEntity
  8
0
 62
     0
100
AcDbLine
 10
269.5412495811356
 20
382.5526240290985
 30
0.0
 11
268.2270322085662
 21
383.8668414016679
 31
0.0
  0
LINE
  5
178C
330
175F
100
AcDbEntity
  8
0
 62
     0
100
AcDbLine
 10
269.6454323863513
 20
382.5898625801201
 30
0.0
 11
268.2537876002868
 21
383.9815073661847
 31
0.0
  0
LINE
  5
178D
330
175F
100
AcDbEntity
  8
0
 62
     0
100
AcDbLine
 10
269.7465015667117
 20
382.6302147559971
 30
0.0
 11
268.2805429920074
 21
384.0961733307014
 31
0.0
  0
LINE
  5
178E
330
175F
100
AcDbEntity
  8
0
 62
     0
100
AcDbLine
 10
269.8445995193657
 20
382.6735381595804
 30
0.0
 11
268.307298383728
 21
384.2108392952182
 31
0.0
  0
LINE
  5
178F
330
175F
100
AcDbEntity
  8
0
 62
     0
100
AcDbLine
 10
269.9398473372293
 20
382.7197116979541
 30
0.0
 11
268.3340537754485
 21
384.3255052597348
 31
0.0
  0
LINE
  5
1790
330
175F
100
AcDbEntity
  8
0
 62
     0
100
AcDbLine
 10
270.0323479764932
 20
382.7686324149275
 30
0.0
 11
268.3608091671691
 21
384.4401712242516
 31
0.0
  0
LINE
  5
1791
330
175F
100
AcDbEntity
  8
0
 62
     0
100
AcDbLine
 10
270.1221887437061
 20
382.8202130039518
 30
0.0
 11
268.3875645588897
 21
384.5548371887683
 31
0.0
  0
LINE
  5
1792
330
175F
100
AcDbEntity
  8
0
 62
     0
100
AcDbLine
 10
270.2094432596994
 20
382.8743798441959
 30
0.0
 11
268.4143199506102
 21
384.6695031532851
 31
0.0
  0
LINE
  5
1793
330
175F
100
AcDbEntity
  8
0
 62
     0
100
AcDbLine
 10
270.2941730141534
 20
382.9310714459792
 30
0.0
 11
268.4410753423308
 21
384.7841691178018
 31
0.0
  0
LINE
  5
1794
330
175F
100
AcDbEntity
  8
0
 62
     0
100
AcDbLine
 10
270.3764285940366
 20
382.9902372223333
 30
0.0
 11
268.4678307340514
 21
384.8988350823185
 31
0.0
  0
LINE
  5
1795
330
175F
100
AcDbEntity
  8
0
 62
     0
100
AcDbLine
 10
270.4562506471798
 20
383.0518365254274
 30
0.0
 11
268.494586125772
 21
385.0135010468353
 31
0.0
  0
LINE
  5
1796
330
175F
100
AcDbEntity
  8
0
 62
     0
100
AcDbLine
 10
270.5336706261383
 20
383.1158379027062
 30
0.0
 11
268.5213415174926
 21
385.128167011352
 31
0.0
  0
LINE
  5
1797
330
175F
100
AcDbEntity
  8
0
 62
     0
100
AcDbLine
 10
270.6087113453835
 20
383.1822185396983
 30
0.0
 11
268.5480969092131
 21
385.2428329758688
 31
0.0
  0
LINE
  5
1798
330
175F
100
AcDbEntity
  8
0
 62
     0
100
AcDbLine
 10
270.6813873755067
 20
383.2509638658124
 30
0.0
 11
268.5748523009337
 21
385.3574989403855
 31
0.0
  0
LINE
  5
1799
330
175F
100
AcDbEntity
  8
0
 62
     0
100
AcDbLine
 10
270.7517052906233
 20
383.3220673069331
 30
0.0
 11
268.6331532957031
 21
385.4406193018533
 31
0.0
  0
LINE
  5
179A
330
175F
100
AcDbEntity
  8
0
 62
     0
100
AcDbLine
 10
270.819663778891
 20
383.3955301749027
 30
0.0
 11
268.7072311489703
 21
385.5079628048235
 31
0.0
  0
LINE
  5
179B
330
175F
100
AcDbEntity
  8
0
 62
     0
100
AcDbLine
 10
270.8852536205113
 20
383.4713616895197
 30
0.0
 11
268.7813090022374
 21
385.5753063077937
 31
0.0
  0
LINE
  5
179C
330
175F
100
AcDbEntity
  8
0
 62
     0
100
AcDbLine
 10
270.9484575323471
 20
383.5495791339213
 30
0.0
 11
268.8553868555046
 21
385.6426498107638
 31
0.0
  0
LINE
  5
179D
330
175F
100
AcDbEntity
  8
0
 62
     0
100
AcDbLine
 10
271.0092498729941
 20
383.6302081495117
 30
0.0
 11
268.9294647087718
 21
385.709993313734
 31
0.0
  0
LINE
  5
179E
330
175F
100
AcDbEntity
  8
0
 62
     0
100
AcDbLine
 10
271.0675961964041
 20
383.7132831823389
 30
0.0
 11
269.0035425620389
 21
385.7773368167041
 31
0.0
  0
LINE
  5
179F
330
175F
100
AcDbEntity
  8
0
 62
     0
100
AcDbLine
 10
271.1234526355389
 20
383.7988480994415
 30
0.0
 11
269.0776204153061
 21
385.8446803196743
 31
0.0
  0
LINE
  5
17A0
330
175F
100
AcDbEntity
  8
0
 62
     0
100
AcDbLine
 10
271.1767650894972
 20
383.8869570017203
 30
0.0
 11
269.1516982685732
 21
385.9120238226444
 31
0.0
  0
LINE
  5
17A1
330
175F
100
AcDbEntity
  8
0
 62
     0
100
AcDbLine
 10
271.2274681773976
 20
383.9776752700574
 30
0.0
 11
269.2257761218404
 21
385.9793673256145
 31
0.0
  0
LINE
  5
17A2
330
175F
100
AcDbEntity
  8
0
 62
     0
100
AcDbLine
 10
271.2754839090152
 20
384.071080894677
 30
0.0
 11
269.2998539751076
 21
386.0467108285847
 31
0.0
  0
LINE
  5
17A3
330
175F
100
AcDbEntity
  8
0
 62
     0
100
AcDbLine
 10
271.320720004355
 20
384.1672661555746
 30
0.0
 11
269.3739318283747
 21
386.1140543315548
 31
0.0
  0
LINE
  5
17A4
330
175F
100
AcDbEntity
  8
0
 62
     0
100
AcDbLine
 10
271.3630677698725
 20
384.2663397462944
 30
0.0
 11
269.4480096816419
 21
386.181397834525
 31
0.0
  0
LINE
  5
17A5
330
175F
100
AcDbEntity
  8
0
 62
     0
100
AcDbLine
 10
271.4023994047579
 20
384.3684294676462
 30
0.0
 11
269.522087534909
 21
386.2487413374951
 31
0.0
  0
LINE
  5
17A6
330
175F
100
AcDbEntity
  8
0
 62
     0
100
AcDbLine
 10
271.4385645616189
 20
384.4736856670226
 30
0.0
 11
269.5961653881762
 21
386.3160848404653
 31
0.0
  0
LINE
  5
17A7
330
175F
100
AcDbEntity
  8
0
 62
     0
100
AcDbLine
 10
271.4713859141842
 20
384.5822856706947
 30
0.0
 11
269.6702432414434
 21
386.3834283434355
 31
0.0
  0
LINE
  5
17A8
330
175F
100
AcDbEntity
  8
0
 62
     0
100
AcDbLine
 10
271.5006533775182
 20
384.6944395635979
 30
0.0
 11
269.7443210947105
 21
386.4507718464056
 31
0.0
  0
LINE
  5
17A9
330
175F
100
AcDbEntity
  8
0
 62
     0
100
AcDbLine
 10
271.5261164622419
 20
384.8103978351115
 30
0.0
 11
269.8183989479777
 21
386.5181153493758
 31
0.0
  0
LINE
  5
17AA
330
175F
100
AcDbEntity
  8
0
 62
     0
100
AcDbLine
 10
271.5474739863973
 20
384.9304616671934
 30
0.0
 11
269.8924768012448
 21
386.5854588523459
 31
0.0
  0
LINE
  5
17AB
330
175F
100
AcDbEntity
  8
0
 62
     0
100
AcDbLine
 10
271.5643599506453
 20
385.0549970591828
 30
0.0
 11
269.966554654512
 21
386.652802355316
 31
0.0
  0
LINE
  5
17AC
330
175F
100
AcDbEntity
  8
0
 62
     0
100
AcDbLine
 10
271.5763236812268
 20
385.1844546848385
 30
0.0
 11
270.0406325077792
 21
386.7201458582862
 31
0.0
  0
LINE
  5
17AD
330
175F
100
AcDbEntity
  8
0
 62
     0
100
AcDbLine
 10
271.5828011204869
 20
385.3193986018158
 30
0.0
 11
270.1147103610463
 21
386.7874893612563
 31
0.0
  0
LINE
  5
17AE
330
175F
100
AcDbEntity
  8
0
 62
     0
100
AcDbLine
 10
271.5830719036109
 20
385.460549174929
 30
0.0
 11
270.1887882143135
 21
386.8548328642265
 31
0.0
  0
LINE
  5
17AF
330
175F
100
AcDbEntity
  8
0
 62
     0
100
AcDbLine
 10
271.5761925235618
 20
385.6088499112154
 30
0.0
 11
270.2628660675807
 21
386.9221763671967
 31
0.0
  0
LINE
  5
17B0
330
175F
100
AcDbEntity
  8
0
 62
     0
100
AcDbLine
 10
271.5608869072029
 20
385.7655768838117
 30
0.0
 11
270.3369439208478
 21
386.9895198701668
 31
0.0
  0
LINE
  5
17B1
330
175F
100
AcDbEntity
  8
0
 62
     0
100
AcDbLine
 10
271.5353555028263
 20
385.9325296444256
 30
0.0
 11
270.411021774115
 21
387.056863373137
 31
0.0
  0
LINE
  5
17B2
330
175F
100
AcDbEntity
  8
0
 62
     0
100
AcDbLine
 10
271.4969132369581
 20
386.112393266531
 30
0.0
 11
270.4850996273821
 21
387.1242068761071
 31
0.0
  0
LINE
  5
17B3
330
175F
100
AcDbEntity
  8
0
 62
     0
100
AcDbLine
 10
271.4412194929854
 20
386.3095083667412
 30
0.0
 11
270.5591774806493
 21
387.1915503790772
 31
0.0
  0
LINE
  5
17B4
330
175F
100
AcDbEntity
  8
0
 62
     0
100
AcDbLine
 10
271.3603369728781
 20
386.5318122430856
 30
0.0
 11
270.6332553339164
 21
387.2588938820474
 31
0.0
  0
LINE
  5
17B5
330
175F
100
AcDbEntity
  8
0
 62
     0
100
AcDbLine
 10
271.2362095589538
 20
386.7973610132473
 30
0.0
 11
270.7073331871836
 21
387.3262373850175
 31
0.0
  0
LINE
  5
17B6
330
175F
100
AcDbEntity
  8
0
 62
     0
100
AcDbLine
 10
270.9968933850364
 20
387.178098543402
 30
0.0
 11
270.7814110404508
 21
387.3935808879877
 31
0.0
  0
ENDBLK
  5
17B7
330
175F
100
AcDbEntity
  8
0
100
AcDbBlockEnd
  0
BLOCK
  5
1956
330
194C
100
AcDbEntity
  8
0
100
AcDbBlockBegin
  2
*D3
 70
     1
 10
0.0
 20
0.0
 30
0.0
  3
*D3
  1

  0
LINE
  5
1B72
330
194C
100
AcDbEntity
  8
BEM
 62
     0
440
 16777216
370
    -2
100
AcDbLine
 10
166.3841560767023
 20
297.2102784901288
 30
0.0
 11
166.3841560767023
 21
203.0692641281439
 31
0.0
  0
LINE
  5
1B73
330
194C
100
AcDbEntity
  8
BEM
 62
     0
440
 16777216
370
    -2
100
AcDbLine
 10
268.3841560767023
 20
297.2102784901288
 30
0.0
 11
268.3841560767023
 21
203.0692641281439
 31
0.0
  0
LINE
  5
1B74
330
194C
100
AcDbEntity
  8
BEM
 62
     0
440
 16777216
370
    -2
100
AcDbLine
 10
173.3841560767023
 20
205.0692641281439
 30
0.0
 11
261.3841560767023
 21
205.0692641281439
 31
0.0
  0
SOLID
  5
1B75
330
194C
100
AcDbEntity
  8
BEM
 62
     0
440
 16777216
100
AcDbTrace
 10
173.3841560767023
 20
206.2359307948105
 30
0.0
 11
173.3841560767023
 21
203.9025974614772
 31
0.0
 12
166.3841560767023
 22
205.0692641281439
 32
0.0
 13
166.3841560767023
 23
205.0692641281439
 33
0.0
  0
SOLID
  5
1B76
330
194C
100
AcDbEntity
  8
BEM
 62
     0
440
 16777216
100
AcDbTrace
 10
261.3841560767023
 20
206.2359307948105
 30
0.0
 11
261.3841560767023
 21
203.9025974614772
 31
0.0
 12
268.3841560767023
 22
205.0692641281439
 32
0.0
 13
268.3841560767023
 23
205.0692641281439
 33
0.0
  0
MTEXT
  5
1B77
330
194C
100
AcDbEntity
  8
BEM
 62
     1
440
 16777216
100
AcDbMText
 10
217.3841560767023
 20
211.5692641281439
 30
0.0
 40
7.0
 41
0.0
 71
     5
 72
     1
  1
\A1;%%c102
 73
     1
 44
1.0
  0
POINT
  5
1B78
330
194C
100
AcDbEntity
  8
DEFPOINTS
 62
     0
440
 16777216
100
AcDbPoint
 10
166.3841560767023
 20
299.2102784901288
 30
0.0
  0
POINT
  5
1B79
330
194C
100
AcDbEntity
  8
DEFPOINTS
 62
     0
440
 16777216
100
AcDbPoint
 10
268.3841560767023
 20
299.2102784901288
 30
0.0
  0
POINT
  5
1B7A
330
194C
100
AcDbEntity
  8
DEFPOINTS
 62
     0
440
 16777216
100
AcDbPoint
 10
268.3841560767023
 20
205.0692641281439
 30
0.0
  0
ENDBLK
  5
1957
330
194C
100
AcDbEntity
  8
0
100
AcDbBlockEnd
  0
BLOCK
  5
1962
330
1958
100
AcDbEntity
  8
0
100
AcDbBlockBegin
  2
*D4
 70
     1
 10
0.0
 20
0.0
 30
0.0
  3
*D4
  1

  0
LINE
  5
1A03
330
1958
100
AcDbEntity
  8
BEM
 62
     0
440
 16777216
370
    -2
100
AcDbLine
 10
180.8841560767023
 20
264.1404209814754
 30
0.0
 11
180.8841560767023
 21
234.3953568817323
 31
0.0
  0
LINE
  5
1A04
330
1958
100
AcDbEntity
  8
BEM
 62
     0
440
 16777216
370
    -2
100
AcDbLine
 10
253.8841560767023
 20
264.140420981475
 30
0.0
 11
253.8841560767023
 21
234.3953568817323
 31
0.0
  0
LINE
  5
1A05
330
1958
100
AcDbEntity
  8
BEM
 62
     0
440
 16777216
370
    -2
100
AcDbLine
 10
187.8841560767023
 20
236.3953568817323
 30
0.0
 11
246.8841560767023
 21
236.3953568817323
 31
0.0
  0
SOLID
  5
1A06
330
1958
100
AcDbEntity
  8
BEM
 62
     0
440
 16777216
100
AcDbTrace
 10
187.8841560767023
 20
237.562023548399
 30
0.0
 11
187.8841560767023
 21
235.2286902150657
 31
0.0
 12
180.8841560767023
 22
236.3953568817323
 32
0.0
 13
180.8841560767023
 23
236.3953568817323
 33
0.0
  0
SOLID
  5
1A07
330
1958
100
AcDbEntity
  8
BEM
 62
     0
440
 16777216
100
AcDbTrace
 10
246.8841560767023
 20
237.562023548399
 30
0.0
 11
246.8841560767023
 21
235.2286902150657
 31
0.0
 12
253.8841560767023
 22
236.3953568817323
 32
0.0
 13
253.8841560767023
 23
236.3953568817323
 33
0.0
  0
MTEXT
  5
1A08
330
1958
100
AcDbEntity
  8
BEM
 62
     1
440
 16777216
100
AcDbMText
 10
217.3841560767023
 20
242.8953568817323
 30
0.0
 40
7.0
 41
0.0
 71
     5
 72
     1
  1
\A1;%%c73
 73
     1
 44
1.0
  0
POINT
  5
1A09
330
1958
100
AcDbEntity
  8
DEFPOINTS
 62
     0
440
 16777216
100
AcDbPoint
 10
180.8841560767023
 20
266.1404209814754
 30
0.0
  0
POINT
  5
1A0A
330
1958
100
AcDbEntity
  8
DEFPOINTS
 62
     0
440
 16777216
100
AcDbPoint
 10
253.8841560767023
 20
266.140420981475
 30
0.0
  0
POINT
  5
1A0B
330
1958
100
AcDbEntity
  8
DEFPOINTS
 62
     0
440
 16777216
100
AcDbPoint
 10
253.8841560767023
 20
236.3953568817323
 30
0.0
  0
ENDBLK
  5
1963
330
1958
100
AcDbEntity
  8
0
100
AcDbBlockEnd
  0
BLOCK
  5
196E
330
1964
100
AcDbEntity
  8
0
100
AcDbBlockBegin
  2
*D5
 70
     1
 10
0.0
 20
0.0
 30
0.0
  3
*D5
  1

  0
LINE
  5
1D0E
330
1964
100
AcDbEntity
  8
BEM
 62
     0
440
 16777216
370
    -2
100
AcDbLine
 10
150.8841560767023
 20
468.210278490128
 30
0.0
 11
150.8841560767023
 21
496.2691784102903
 31
0.0
  0
LINE
  5
1D0F
330
1964
100
AcDbEntity
  8
BEM
 62
     0
440
 16777216
370
    -2
100
AcDbLine
 10
283.8841560767023
 20
468.2102784901281
 30
0.0
 11
283.8841560767023
 21
496.2691784102903
 31
0.0
  0
LINE
  5
1D10
330
1964
100
AcDbEntity
  8
BEM
 62
     0
440
 16777216
370
    -2
100
AcDbLine
 10
157.8841560767023
 20
494.2691784102903
 30
0.0
 11
276.8841560767023
 21
494.2691784102903
 31
0.0
  0
SOLID
  5
1D11
330
1964
100
AcDbEntity
  8
BEM
 62
     0
440
 16777216
100
AcDbTrace
 10
157.8841560767023
 20
495.435845076957
 30
0.0
 11
157.8841560767023
 21
493.1025117436235
 31
0.0
 12
150.8841560767023
 22
494.2691784102903
 32
0.0
 13
150.8841560767023
 23
494.2691784102903
 33
0.0
  0
SOLID
  5
1D12
330
1964
100
AcDbEntity
  8
BEM
 62
     0
440
 16777216
100
AcDbTrace
 10
276.8841560767023
 20
495.435845076957
 30
0.0
 11
276.8841560767023
 21
493.1025117436235
 31
0.0
 12
283.8841560767023
 22
494.2691784102903
 32
0.0
 13
283.8841560767023
 23
494.2691784102903
 33
0.0
  0
MTEXT
  5
1D13
330
1964
100
AcDbEntity
  8
BEM
 62
     1
440
 16777216
100
AcDbMText
 10
217.3841560767023
 20
500.7691784102902
 30
0.0
 40
7.0
 41
0.0
 71
     5
 72
     1
  1
\A1;%%c133
 73
     1
 44
1.0
  0
POINT
  5
1D14
330
1964
100
AcDbEntity
  8
DEFPOINTS
 62
     0
440
 16777216
100
AcDbPoint
 10
150.8841560767023
 20
466.2102784901279
 30
0.0
  0
POINT
  5
1D15
330
1964
100
AcDbEntity
  8
DEFPOINTS
 62
     0
440
 16777216
100
AcDbPoint
 10
283.8841560767023
 20
466.210278490128
 30
0.0
  0
POINT
  5
1D16
330
1964
100
AcDbEntity
  8
DEFPOINTS
 62
     0
440
 16777216
100
AcDbPoint
 10
283.8841560767023
 20
494.2691784102903
 30
0.0
  0
ENDBLK
  5
196F
330
1964
100
AcDbEntity
  8
0
100
AcDbBlockEnd
  0
BLOCK
  5
197A
330
1970
100
AcDbEntity
  8
0
100
AcDbBlockBegin
  2
*D6
 70
     1
 10
0.0
 20
0.0
 30
0.0
  3
*D6
  1

  0
LINE
  5
19F1
330
1970
100
AcDbEntity
  8
BEM
 62
     0
440
 16777216
370
    -2
100
AcDbLine
 10
148.8841560767023
 20
466.2102784901279
 30
0.0
 11
122.6463338605045
 21
466.210278490128
 31
0.0
  0
LINE
  5
19F2
330
1970
100
AcDbEntity
  8
BEM
 62
     0
440
 16777216
370
    -2
100
AcDbLine
 10
181.3590427119616
 20
256.2102784901288
 30
0.0
 11
122.6463338605044
 21
256.2102784901288
 31
0.0
  0
LINE
  5
19F3
330
1970
100
AcDbEntity
  8
BEM
 62
     0
440
 16777216
370
    -2
100
AcDbLine
 10
124.6463338605045
 20
459.210278490128
 30
0.0
 11
124.6463338605044
 21
263.2102784901288
 31
0.0
  0
SOLID
  5
19F4
330
1970
100
AcDbEntity
  8
BEM
 62
     0
440
 16777216
100
AcDbTrace
 10
123.4796671938378
 20
459.210278490128
 30
0.0
 11
125.8130005271711
 21
459.210278490128
 31
0.0
 12
124.6463338605045
 22
466.210278490128
 32
0.0
 13
124.6463338605045
 23
466.210278490128
 33
0.0
  0
SOLID
  5
19F5
330
1970
100
AcDbEntity
  8
BEM
 62
     0
440
 16777216
100
AcDbTrace
 10
123.4796671938378
 20
263.2102784901288
 30
0.0
 11
125.8130005271711
 21
263.2102784901288
 31
0.0
 12
124.6463338605044
 22
256.2102784901288
 32
0.0
 13
124.6463338605044
 23
256.2102784901288
 33
0.0
  0
MTEXT
  5
19F6
330
1970
100
AcDbEntity
  8
BEM
 62
     1
440
 16777216
100
AcDbMText
 10
118.1463338605044
 20
361.2102784901284
 30
0.0
 40
7.0
 41
0.0
 71
     5
 72
     1
  1
\A1;210
 11
0.0000000000000001
 21
1.0
 31
0.0
 73
     1
 44
1.0
  0
POINT
  5
19F7
330
1970
100
AcDbEntity
  8
DEFPOINTS
 62
     0
440
 16777216
100
AcDbPoint
 10
150.8841560767023
 20
466.2102784901279
 30
0.0
  0
POINT
  5
19F8
330
1970
100
AcDbEntity
  8
DEFPOINTS
 62
     0
440
 16777216
100
AcDbPoint
 10
183.3590427119616
 20
256.2102784901288
 30
0.0
  0
POINT
  5
19F9
330
1970
100
AcDbEntity
  8
DEFPOINTS
 62
     0
440
 16777216
100
AcDbPoint
 10
124.6463338605044
 20
256.2102784901288
 30
0.0
  0
ENDBLK
  5
197B
330
1970
100
AcDbEntity
  8
0
100
AcDbBlockEnd
  0
BLOCK
  5
1994
330
198A
100
AcDbEntity
  8
0
100
AcDbBlockBegin
  2
*D8
 70
     1
 10
0.0
 20
0.0
 30
0.0
  3
*D8
  1

  0
LINE
  5
19E8
330
198A
100
AcDbEntity
  8
BEM
 62
     0
440
 16777216
370
    -2
100
AcDbLine
 10
148.8841560767023
 20
466.2102784901279
 30
0.0
 11
136.6463338605045
 21
466.2102784901279
 31
0.0
  0
LINE
  5
19E9
330
198A
100
AcDbEntity
  8
BEM
 62
     0
440
 16777216
370
    -2
100
AcDbLine
 10
164.3841560767023
 20
299.2102784901288
 30
0.0
 11
136.6463338605044
 21
299.2102784901288
 31
0.0
  0
LINE
  5
19EA
330
198A
100
AcDbEntity
  8
BEM
 62
     0
440
 16777216
370
    -2
100
AcDbLine
 10
138.6463338605045
 20
459.210278490128
 30
0.0
 11
138.6463338605044
 21
306.2102784901288
 31
0.0
  0
SOLID
  5
19EB
330
198A
100
AcDbEntity
  8
BEM
 62
     0
440
 16777216
100
AcDbTrace
 10
137.4796671938378
 20
459.210278490128
 30
0.0
 11
139.8130005271712
 21
459.210278490128
 31
0.0
 12
138.6463338605045
 22
466.2102784901279
 32
0.0
 13
138.6463338605045
 23
466.2102784901279
 33
0.0
  0
SOLID
  5
19EC
330
198A
100
AcDbEntity
  8
BEM
 62
     0
440
 16777216
100
AcDbTrace
 10
137.4796671938378
 20
306.2102784901288
 30
0.0
 11
139.8130005271711
 21
306.2102784901288
 31
0.0
 12
138.6463338605044
 22
299.2102784901288
 32
0.0
 13
138.6463338605044
 23
299.2102784901288
 33
0.0
  0
MTEXT
  5
19ED
330
198A
100
AcDbEntity
  8
BEM
 62
     1
440
 16777216
100
AcDbMText
 10
132.1463338605044
 20
382.7102784901284
 30
0.0
 40
7.0
 41
0.0
 71
     5
 72
     1
  1
\A1;167
 11
0.0000000000000001
 21
1.0
 31
0.0
 73
     1
 44
1.0
  0
POINT
  5
19EE
330
198A
100
AcDbEntity
  8
DEFPOINTS
 62
     0
440
 16777216
100
AcDbPoint
 10
150.8841560767023
 20
466.2102784901279
 30
0.0
  0
POINT
  5
19EF
330
198A
100
AcDbEntity
  8
DEFPOINTS
 62
     0
440
 16777216
100
AcDbPoint
 10
166.3841560767023
 20
299.2102784901288
 30
0.0
  0
POINT
  5
19F0
330
198A
100
AcDbEntity
  8
DEFPOINTS
 62
     0
440
 16777216
100
AcDbPoint
 10
138.6463338605044
 20
299.2102784901288
 30
0.0
  0
ENDBLK
  5
1995
330
198A
100
AcDbEntity
  8
0
100
AcDbBlockEnd
  0
BLOCK
  5
1A7F
330
1A75
100
AcDbEntity
  8
0
100
AcDbBlockBegin
  2
*D10
 70
     1
 10
0.0
 20
0.0
 30
0.0
  3
*D10
  1

  0
LINE
  5
1A8A
330
1A75
100
AcDbEntity
  8
BEM
 62
     0
440
 16777216
370
    -2
100
AcDbLine
 10
163.8841560767023
 20
468.210278490128
 30
0.0
 11
163.8841560767023
 21
481.4223661919777
 31
0.0
  0
LINE
  5
1A8B
330
1A75
100
AcDbEntity
  8
BEM
 62
     0
440
 16777216
370
    -2
100
AcDbLine
 10
270.8841560767023
 20
468.2102784901281
 30
0.0
 11
270.8841560767023
 21
481.4223661919777
 31
0.0
  0
LINE
  5
1A8C
330
1A75
100
AcDbEntity
  8
BEM
 62
     0
440
 16777216
370
    -2
100
AcDbLine
 10
170.8841560767023
 20
479.4223661919777
 30
0.0
 11
263.8841560767023
 21
479.4223661919777
 31
0.0
  0
SOLID
  5
1A8D
330
1A75
100
AcDbEntity
  8
BEM
 62
     0
440
 16777216
100
AcDbTrace
 10
170.8841560767023
 20
480.5890328586444
 30
0.0
 11
170.8841560767023
 21
478.255699525311
 31
0.0
 12
163.8841560767023
 22
479.4223661919777
 32
0.0
 13
163.8841560767023
 23
479.4223661919777
 33
0.0
  0
SOLID
  5
1A8E
330
1A75
100
AcDbEntity
  8
BEM
 62
     0
440
 16777216
100
AcDbTrace
 10
263.8841560767023
 20
480.5890328586444
 30
0.0
 11
263.8841560767023
 21
478.255699525311
 31
0.0
 12
270.8841560767023
 22
479.4223661919777
 32
0.0
 13
270.8841560767023
 23
479.4223661919777
 33
0.0
  0
MTEXT
  5
1A8F
330
1A75
100
AcDbEntity
  8
BEM
 62
     1
440
 16777216
100
AcDbMText
 10
217.3841560767023
 20
485.9223661919777
 30
0.0
 40
7.0
 41
0.0
 71
     5
 72
     1
  1
\A1;%%c107
 73
     1
 44
1.0
  0
POINT
  5
1A90
330
1A75
100
AcDbEntity
  8
DEFPOINTS
 62
     0
440
 16777216
100
AcDbPoint
 10
163.8841560767023
 20
466.2102784901279
 30
0.0
  0
POINT
  5
1A91
330
1A75
100
AcDbEntity
  8
DEFPOINTS
 62
     0
440
 16777216
100
AcDbPoint
 10
270.8841560767023
 20
466.210278490128
 30
0.0
  0
POINT
  5
1A92
330
1A75
100
AcDbEntity
  8
DEFPOINTS
 62
     0
440
 16777216
100
AcDbPoint
 10
270.8841560767023
 20
479.4223661919777
 30
0.0
  0
ENDBLK
  5
1A80
330
1A75
100
AcDbEntity
  8
0
100
AcDbBlockEnd
  0
ENDSEC
  0
SECTION
  2
ENTITIES
  0
LINE
  5
19F
330
1E
100
AcDbEntity
  8
STEMPEL
100
AcDbLine
 10
409.9999999999999
 20
110.0
 30
0.0
 11
39.99999999999995
 21
110.0
 31
0.0
  0
LINE
  5
1A0
330
1E
100
AcDbEntity
  8
STEMPEL
100
AcDbLine
 10
136.0000000000001
 20
109.9999999999999
 30
0.0
 11
136.0
 21
9.999999999999971
 31
0.0
  0
LINE
  5
1A1
330
1E
100
AcDbEntity
  8
STEMPEL
100
AcDbLine
 10
220.0
 20
110.0
 30
0.0
 11
220.0
 21
9.999999999999971
 31
0.0
  0
LINE
  5
1A2
330
1E
100
AcDbEntity
  8
STEMPEL
100
AcDbLine
 10
331.9999999999999
 20
109.9999999999997
 30
0.0
 11
331.9999999999999
 21
40.0
 31
0.0
  0
LINE
  5
1A3
330
1E
100
AcDbEntity
  8
STEMPEL
100
AcDbLine
 10
135.9999999999999
 20
29.99999999999997
 30
0.0
 11
39.99999999999995
 21
29.99999999999997
 31
0.0
  0
LINE
  5
1A4
330
1E
100
AcDbEntity
  8
STEMPEL
100
AcDbLine
 10
409.9999999999999
 20
40.0
 30
0.0
 11
136.0000000000001
 21
39.99999999999997
 31
0.0
  0
LINE
  5
1A5
330
1E
100
AcDbEntity
  8
STEMPEL
100
AcDbLine
 10
409.9999999999999
 20
80.0
 30
0.0
 11
136.0000000000001
 21
79.99999999999994
 31
0.0
  0
LINE
  5
1A6
330
1E
100
AcDbEntity
  8
VOLL
100
AcDbLine
 10
54.00000000000005
 20
110.0
 30
0.0
 11
53.99999999999995
 21
9.999999999999971
 31
0.0
  0
LINE
  5
1A7
330
1E
100
AcDbEntity
  8
VOLL
100
AcDbLine
 10
94.00000000000011
 20
109.9999999999999
 30
0.0
 11
94.0
 21
9.999999999999971
 31
0.0
  0
LINE
  5
1A8
330
1E
100
AcDbEntity
  8
VOLL
100
AcDbLine
 10
114.0000000000001
 20
109.9999999999999
 30
0.0
 11
114.0
 21
9.999999999999971
 31
0.0
  0
LINE
  5
1A9
330
1E
100
AcDbEntity
  8
VOLL
100
AcDbLine
 10
154.0000000000001
 20
79.99999999999994
 30
0.0
 11
154.0000000000001
 21
39.99999999999997
 31
0.0
  0
LINE
  5
1AA
330
1E
100
AcDbEntity
  8
VOLL
100
AcDbLine
 10
180.0000000000001
 20
109.9999999999998
 30
0.0
 11
180.0
 21
39.99999999999997
 31
0.0
  0
LINE
  5
1AB
330
1E
100
AcDbEntity
  8
HILF
100
AcDbLine
 10
40.00000000000006
 20
100.0
 30
0.0
 11
136.0000000000001
 21
100.0
 31
0.0
  0
LINE
  5
1AC
330
1E
100
AcDbEntity
  8
HILF
100
AcDbLine
 10
40.00000000000006
 20
90.00000000000005
 30
0.0
 11
136.0000000000001
 21
90.00000000000005
 31
0.0
  0
LINE
  5
1AD
330
1E
100
AcDbEntity
  8
HILF
100
AcDbLine
 10
40.00000000000006
 20
79.99999999999994
 30
0.0
 11
136.0000000000001
 21
79.99999999999994
 31
0.0
  0
LINE
  5
1AE
330
1E
100
AcDbEntity
  8
HILF
100
AcDbLine
 10
40.00000000000006
 20
69.99999999999994
 30
0.0
 11
136.0000000000001
 21
69.99999999999994
 31
0.0
  0
LINE
  5
1AF
330
1E
100
AcDbEntity
  8
HILF
100
AcDbLine
 10
40.00000000000006
 20
59.99999999999997
 30
0.0
 11
136.0000000000001
 21
59.99999999999997
 31
0.0
  0
LINE
  5
1B0
330
1E
100
AcDbEntity
  8
HILF
100
AcDbLine
 10
40.00000000000006
 20
49.99999999999997
 30
0.0
 11
136.0000000000001
 21
49.99999999999997
 31
0.0
  0
LINE
  5
1B1
330
1E
100
AcDbEntity
  8
HILF
100
AcDbLine
 10
40.00000000000006
 20
39.99999999999997
 30
0.0
 11
136.0000000000001
 21
39.99999999999997
 31
0.0
  0
LINE
  5
1B2
330
1E
100
AcDbEntity
  8
HILF
100
AcDbLine
 10
136.0000000000001
 20
69.99999999999994
 30
0.0
 11
220.0
 21
69.99999999999994
 31
0.0
  0
LINE
  5
1B3
330
1E
100
AcDbEntity
  8
HILF
100
AcDbLine
 10
136.0000000000001
 20
59.99999999999997
 30
0.0
 11
220.0
 21
59.99999999999997
 31
0.0
  0
LINE
  5
1B4
330
1E
100
AcDbEntity
  8
HILF
100
AcDbLine
 10
136.0000000000001
 20
49.99999999999997
 30
0.0
 11
220.0
 21
49.99999999999997
 31
0.0
  0
LINE
  5
1B5
330
1E
100
AcDbEntity
  8
HILF
100
AcDbLine
 10
224.7736801096948
 20
84.03758247564139
 30
0.0
 11
324.8353916556311
 21
84.03758247564139
 31
0.0
  0
LINE
  5
1B6
330
1E
100
AcDbEntity
  8
HILF
100
AcDbLine
 10
224.7736801096948
 20
69.99999999999994
 30
0.0
 11
324.835391655631
 21
69.99999999999994
 31
0.0
  0
LINE
  5
1B7
330
1E
100
AcDbEntity
  8
HILF
100
AcDbLine
 10
224.7736801096948
 20
59.99999999999997
 30
0.0
 11
324.835391655631
 21
59.99999999999997
 31
0.0
  0
LINE
  5
1B8
330
1E
100
AcDbEntity
  8
HILF
100
AcDbLine
 10
224.7736801096948
 20
49.99999999999997
 30
0.0
 11
324.835391655631
 21
49.99999999999997
 31
0.0
  0
LINE
  5
1B9
330
1E
100
AcDbEntity
  8
VOLL
100
AcDbLine
 10
331.9999999999999
 20
60.0
 30
0.0
 11
409.9999999999999
 21
60.0
 31
0.0
  0
LINE
  5
1BA
330
1E
100
AcDbEntity
  8
HILF
100
AcDbLine
 10
336.7238616296992
 20
83.77983636955827
 30
0.0
 11
404.8588839326727
 21
83.77983636955827
 31
0.0
  0
LINE
  5
1BB
330
1E
100
AcDbEntity
  8
HILF
100
AcDbLine
 10
223.4909699289885
 20
14.89398258028314
 30
0.0
 11
404.8588839326727
 21
14.89398258028314
 31
0.0
  0
TEXT
  5
1BC
330
1E
100
AcDbEntity
  8
TEXT
100
AcDbText
 10
63.30818695982741
 20
18.59145467910836
 30
0.0
 40
4.0
  1
Änderung
 41
0.8
  7
GREEKS
 72
     4
 11
74.05104410268456
 21
20.30574039339407
 31
0.0
100
AcDbText
  0
TEXT
  5
1BD
330
1E
100
AcDbEntity
  8
TEXT
100
AcDbText
 10
143.5163572150377
 20
102.4620895087088
 30
0.0
 40
5.0
  1
Maßstab
 41
0.8
  7
GREEKS
100
AcDbText
  0
TEXT
  5
1BE
330
1E
100
AcDbEntity
  8
TEXT
100
AcDbText
 10
184.2858954734051
 20
102.4184168434819
 30
0.0
 40
5.0
  1
Zul. Abw.
 41
0.8
  7
GREEKS
100
AcDbText
  0
TEXT
  5
1BF
330
1E
100
AcDbEntity
  8
TEXT
100
AcDbText
 10
224.877940380901
 20
102.5489328011779
 30
0.0
 40
5.0
  1
Benennung
 41
0.8
  7
GREEKS
100
AcDbText
  0
TEXT
  5
1C0
330
1E
100
AcDbEntity
  8
TEXT
100
AcDbText
 10
336.178754957634
 20
102.3132034537136
 30
0.0
 40
5.0
  1
Zeichnungs Nr.
 41
0.8
  7
GREEKS
100
AcDbText
  0
TEXT
  5
1C1
330
1E
100
AcDbEntity
  8
TEXT
100
AcDbText
 10
224.742238391136
 20
30.84560570193057
 30
0.0
 40
5.0
  1
Bauvorhaben
 41
0.8
  7
GREEKS
100
AcDbText
  0
TEXT
  5
1C2
330
1E
100
AcDbEntity
  8
TEXT
100
AcDbText
 10
336.7238616296992
 20
73.1811823709997
 30
0.0
 40
5.0
  1
Ersatz für:
 41
0.8
  7
GREEKS
100
AcDbText
  0
TEXT
  5
1C3
330
1E
100
AcDbEntity
  8
TEXT
100
AcDbText
 10
48.26641107045753
 20
13.65465846027192
 30
0.0
 40
3.6
  1
Index
 50
90.0
 41
0.8
  7
GREEKS
100
AcDbText
  0
TEXT
  5
1C6
330
1E
100
AcDbEntity
  8
TEXT
100
AcDbText
 10
162.3311673153651
 20
73.31880501229926
 30
0.0
 40
3.6
  1
Tag
 41
0.8
  7
GREEKS
100
AcDbText
  0
TEXT
  5
1C7
330
1E
100
AcDbEntity
  8
TEXT
100
AcDbText
 10
192.4626584226295
 20
73.30961091915225
 30
0.0
 40
3.6
  1
Name
 41
0.8
  7
GREEKS
100
AcDbText
  0
TEXT
  5
1C8
330
1E
100
AcDbEntity
  8
TEXT
100
AcDbText
 10
137.5836127167615
 20
63.62990369617964
 30
0.0
 40
3.6
  1
Gez.
 41
0.8
  7
GREEKS
100
AcDbText
  0
TEXT
  5
1C9
330
1E
100
AcDbEntity
  8
TEXT
100
AcDbText
 10
137.5515086571672
 20
53.68926291428377
 30
0.0
 40
3.6
  1
Gepr.
 41
0.8
  7
GREEKS
100
AcDbText
  0
TEXT
  5
1CA
330
1E
100
AcDbEntity
  8
TEXT
100
AcDbText
 10
137.6006777387304
 20
43.52946389649807
 30
0.0
 40
3.6
  1
Norm.
 41
0.8
  7
GREEKS
100
AcDbText
  0
LINE
  5
1CB
330
1E
100
AcDbEntity
  8
STEMPEL
100
AcDbLine
 10
49.99999999999989
 20
10.0
 30
0.0
 11
409.9999999999999
 21
10.0
 31
0.0
  0
LINE
  5
1CC
330
1E
100
AcDbEntity
  8
STEMPEL
100
AcDbLine
 10
409.9999999999999
 20
110.0
 30
0.0
 11
409.9999999999999
 21
10.0
 31
0.0
  0
TEXT
  5
1CD
330
1E
100
AcDbEntity
  8
TEXT
100
AcDbText
 10
337.2400861497005
 20
52.07416177878602
 30
0.0
 40
5.0
  1
ersetzt durch:
 41
0.8
  7
GREEKS
100
AcDbText
  0
LINE
  5
1CE
330
1E
100
AcDbEntity
  8
STEMPEL
100
AcDbLine
 10
409.9999999999999
 20
10.0
 30
0.0
 11
39.99999999999989
 21
10.0
 31
0.0
  0
LINE
  5
1CF
330
1E
100
AcDbEntity
  8
STEMPEL
100
AcDbLine
 10
409.9999999999999
 20
110.0
 30
0.0
 11
409.9999999999999
 21
584.0
 31
0.0
  0
LINE
  5
1D0
330
1E
100
AcDbEntity
  8
STEMPEL
100
AcDbLine
 10
40.0
 20
10.0
 30
0.0
 11
39.99999999999989
 21
584.0
 31
0.0
  0
LINE
  5
1D1
330
1E
100
AcDbEntity
  8
STEMPEL
100
AcDbLine
 10
409.9999999999999
 20
584.0
 30
0.0
 11
39.99999999999989
 21
584.0
 31
0.0
  0
LINE
  5
1D2
330
1E
100
AcDbEntity
  8
HILF
100
AcDbLine
 10
0.0
 20
0.0
 30
0.0
 11
-0.0000000000001137
 21
594.0
 31
0.0
  0
LINE
  5
1D3
330
1E
100
AcDbEntity
  8
HILF
100
AcDbLine
 10
419.9999999999999
 20
594.0000000000002
 30
0.0
 11
0.0
 21
594.0
 31
0.0
  0
LINE
  5
1D4
330
1E
100
AcDbEntity
  8
HILF
100
AcDbLine
 10
419.9999999999999
 20
0.0
 30
0.0
 11
0.0
 21
0.0
 31
0.0
  0
LINE
  5
1D5
330
1E
100
AcDbEntity
  8
HILF
100
AcDbLine
 10
31.08767135713856
 20
297.0
 30
0.0
 11
0.0000000000001137
 21
297.0
 31
0.0
  0
TEXT
  5
1D6
330
1E
100
AcDbEntity
  8
TEXT
100
AcDbText
 10
139.8886662448949
 20
73.33699103545173
 30
0.0
 40
3.6
  1
2013
 41
0.8
  7
GREEKS
100
AcDbText
  0
LINE
  5
1D7
330
1E
100
AcDbEntity
  8
HILF
100
AcDbLine
 10
419.9999999999999
 20
-0.0000000000001137
 30
0.0
 11
419.9999999999999
 21
594.0
 31
0.0
  0
TEXT
  5
1D8
330
1E
100
AcDbEntity
  8
VOLL
100
AcDbText
 10
78.07675471698113
 20
31.02594776470585
 30
0.0
 40
1.8
  1

  7
GREEKS
100
AcDbText
  0
TEXT
  5
1D9
330
1E
100
AcDbEntity
  8
TEXT
100
AcDbText
 10
42.25669815425914
 20
111.6719999999999
 30
0.0
 40
5.0
  1
Erstellt mit AUTOCAD 2004
 41
0.8
  7
GREEKS
100
AcDbText
  0
TEXT
  5
1DA
330
1E
100
AcDbEntity
  8
TEXT
100
AcDbText
 10
194.4216048581257
 20
63.0896391972351
 30
0.0
 40
4.0
  1
Koeh
 41
0.8
  7
GREEKS
 72
     1
 11
199.6787477152685
 21
63.0896391972351
 31
0.0
100
AcDbText
  0
TEXT
  5
1DB
330
1E
100
AcDbEntity
  8
TEXT
 62
     1
100
AcDbText
 10
346.972909698401
 20
88.14901428913959
 30
0.0
 40
7.0
  1
58602DC0W
 41
0.8
  7
GREEKS
 72
     1
 11
371.2395763650676
 21
88.14901428913959
 31
0.0
100
AcDbText
  0
TEXT
  5
1DC
330
1E
100
AcDbEntity
  8
TEXT
 62
     1
100
AcDbText
 10
150.5006306481887
 20
88.14901428913959
 30
0.0
 40
7.0
  1
1:2
  7
GREEKS
100
AcDbText
  0
TEXT
  5
1DD
330
1E
100
AcDbEntity
  8
TEXT
100
AcDbText
 10
161.0085209177598
 20
63.10765040825732
 30
0.0
 40
4.0
  1
06.11.
 41
0.8
  7
GREEKS
 72
     1
 11
167.4085209177598
 21
63.10765040825732
 31
0.0
100
AcDbText
  0
TEXT
  5
1DE
330
1E
100
AcDbEntity
  8
TEXT
 62
     1
100
AcDbText
 10
225.3291095064849
 20
87.41748789253779
 30
0.0
 40
7.0
  1
Verbundrohr
 41
0.8
  7
GREEKS
100
AcDbText
  0
TEXT
  5
1DF
330
1E
100
AcDbEntity
  8
TEXT
100
AcDbText
 10
225.1296391125315
 20
72.50168891988375
 30
0.0
 40
5.0
  1
Abgleichstück DN100/70
 41
0.8
  7
GREEKS
100
AcDbText
  0
TEXT
  5
1E0
330
1E
100
AcDbEntity
  8
TEXT
100
AcDbText
 10
225.1296391125315
 20
51.64011943042158
 30
0.0
 40
5.0
  1
EDV-Art.Nr. 58602.DC0X
 41
0.8
  7
GREEKS
100
AcDbText
  0
TEXT
  5
1E1
330
1E
100
AcDbEntity
  8
TEXT
100
AcDbText
 10
224.9837501577827
 20
42.62974153022634
 30
0.0
 40
3.6
  1
58602DC0W.DWG
 41
0.8
  7
GREEKS
100
AcDbText
  0
INSERT
  5
1E2
330
1E
100
AcDbEntity
  8
STEMPEL
100
AcDbBlockReference
  2
LOGO
 10
140.9955485457794
 20
45.02105276448321
 30
0.0
 41
2.0
 42
2.0
 43
2.0
  0
TEXT
  5
1E4
330
1E
100
AcDbEntity
  8
VOLL
100
AcDbText
 10
339.7958237333797
 20
71.91957633833147
 30
0.0
 40
1.8
  1

  7
GREEKS
100
AcDbText
  0
TEXT
  5
1E5
330
1E
100
AcDbEntity
  8
TEXT
100
AcDbText
 10
671.6280919369726
 20
77.47781187155701
 30
0.0
 40
2.5
  1
  
  7
GREEKS
 72
     1
 11
673.8899966988774
 21
77.47781187155701
 31
0.0
100
AcDbText
  0
TEXT
  5
1E6
330
1E
100
AcDbEntity
  8
BEM
100
AcDbText
 10
915.7478092494546
 20
213.0366939019592
 30
0.0
 40
2.5
  1
 
 72
     4
 11
916.878761630407
 21
213.0366939019592
 31
0.0
100
AcDbText
  0
TEXT
  5
1E8
330
1E
100
AcDbEntity
  8
BEM
100
AcDbText
 10
454.2848421115471
 20
134.8585024391051
 30
0.0
 40
2.5
  1

  7
GREEKS
100
AcDbText
  0
TEXT
  5
1E9
330
1E
100
AcDbEntity
  8
VOLL
100
AcDbText
 10
440.2186490918256
 20
114.67524178207
 30
0.0
 40
1.8
  1

  7
GREEKS
100
AcDbText
  0
TEXT
  5
1EA
330
1E
100
AcDbEntity
  8
BEM
100
AcDbText
 10
474.7067139311102
 20
119.4009661052905
 30
0.0
 40
2.5
  1

 41
0.8
  7
GREEKS
100
AcDbText
  0
TEXT
  5
1EB
330
1E
100
AcDbEntity
  8
BEM
100
AcDbText
 10
474.7067139311102
 20
114.7071975512384
 30
0.0
 40
2.5
  1

 41
0.8
  7
GREEKS
100
AcDbText
  0
TEXT
  5
1EC
330
1E
100
AcDbEntity
  8
BEM
100
AcDbText
 10
474.7067139311102
 20
109.4693537325749
 30
0.0
 40
2.5
  1

 41
0.8
  7
GREEKS
100
AcDbText
  0
TEXT
  5
1ED
330
1E
100
AcDbEntity
  8
BEM
100
AcDbText
 10
474.6337694537358
 20
104.9641647824773
 30
0.0
 40
1.8
  1

 41
0.8
  7
GREEKS
100
AcDbText
  0
TEXT
  5
1EE
330
1E
100
AcDbEntity
  8
BEM
100
AcDbText
 10
461.9501985741246
 20
130.5557538787025
 30
0.0
 40
2.0
  1

 41
0.8
  7
GREEKS
 72
     1
 11
461.9501985741246
 21
130.5557538787025
 31
0.0
100
AcDbText
  0
TEXT
  5
1EF
330
1E
100
AcDbEntity
  8
TEXT
100
AcDbText
 10
772.0509172954185
 20
120.2334773152955
 30
0.0
 40
2.5
  1
  
  7
GREEKS
 72
     1
 11
774.3128220573233
 21
120.2334773152955
 31
0.0
100
AcDbText
  0
TEXT
  5
1F0
330
1E
100
AcDbEntity
  8
BEM
100
AcDbText
 10
1016.1706346079
 20
255.7923593456977
 30
0.0
 40
2.5
  1
 
 72
     4
 11
1017.301586988853
 21
255.7923593456977
 31
0.0
100
AcDbText
  0
TEXT
  5
1F1
330
1E
100
AcDbEntity
  8
VOLL
100
AcDbText
 10
228.6383494536079
 20
31.18631511162239
 30
0.0
 40
1.8
  1

  7
GREEKS
100
AcDbText
  0
TEXT
  5
1F2
330
1E
100
AcDbEntity
  8
TEXT
100
AcDbText
 10
560.4706176572007
 20
36.74455064484793
 30
0.0
 40
2.5
  1
  
  7
GREEKS
 72
     1
 11
562.7325224191056
 21
36.74455064484793
 31
0.0
100
AcDbText
  0
TEXT
  5
1F3
330
1E
100
AcDbEntity
  8
BEM
100
AcDbText
 10
804.5903349696828
 20
172.3034326752502
 30
0.0
 40
2.5
  1
 
 72
     4
 11
805.7212873506353
 21
172.3034326752502
 31
0.0
100
AcDbText
  0
TEXT
  5
1F4
330
1E
100
AcDbEntity
  8
BEM
100
AcDbText
 10
393.9839625332579
 20
71.33954581020805
 30
0.0
 40
2.5
  1

  7
GREEKS
100
AcDbText
  0
TEXT
  5
1F5
330
1E
100
AcDbEntity
  8
VOLL
100
AcDbText
 10
379.9177695135364
 20
51.15628515317294
 30
0.0
 40
1.8
  1

  7
GREEKS
100
AcDbText
  0
TEXT
  5
1F6
330
1E
100
AcDbEntity
  8
BEM
100
AcDbText
 10
414.4058343528211
 20
55.88200947639354
 30
0.0
 40
2.5
  1

 41
0.8
  7
GREEKS
100
AcDbText
  0
TEXT
  5
1F7
330
1E
100
AcDbEntity
  8
BEM
100
AcDbText
 10
414.4058343528211
 20
51.18824092234138
 30
0.0
 40
2.5
  1

 41
0.8
  7
GREEKS
100
AcDbText
  0
TEXT
  5
1F8
330
1E
100
AcDbEntity
  8
BEM
100
AcDbText
 10
414.4058343528211
 20
45.95039710367788
 30
0.0
 40
2.5
  1

 41
0.8
  7
GREEKS
100
AcDbText
  0
TEXT
  5
1F9
330
1E
100
AcDbEntity
  8
BEM
100
AcDbText
 10
414.3328898754466
 20
41.44520815358026
 30
0.0
 40
1.8
  1

 41
0.8
  7
GREEKS
100
AcDbText
  0
TEXT
  5
1FA
330
1E
100
AcDbEntity
  8
BEM
100
AcDbText
 10
401.6493189958354
 20
67.03679724980554
 30
0.0
 40
2.0
  1

 41
0.8
  7
GREEKS
 72
     1
 11
401.6493189958354
 21
67.03679724980554
 31
0.0
100
AcDbText
  0
TEXT
  5
1FB
330
1E
100
AcDbEntity
  8
TEXT
100
AcDbText
 10
711.7500377171293
 20
56.71452068639848
 30
0.0
 40
2.5
  1
  
  7
GREEKS
 72
     1
 11
714.0119424790341
 21
56.71452068639848
 31
0.0
100
AcDbText
  0
TEXT
  5
1FC
330
1E
100
AcDbEntity
  8
BEM
100
AcDbText
 10
955.8697550296114
 20
192.2734027168007
 30
0.0
 40
2.5
  1
 
 72
     4
 11
957.0007074105637
 21
192.2734027168007
 31
0.0
100
AcDbText
  0
TEXT
  5
24B
330
1E
100
AcDbEntity
  8
TEXT
 62
     1
100
AcDbText
 10
78.53685804086016
 20
188.552964463262
 30
0.0
 40
7.0
  1
Rohrende leicht eingezogen
 41
0.8
  7
GREEKS
100
AcDbText
  0
TEXT
  5
26A
330
1E
100
AcDbEntity
  8
TEXT
100
AcDbText
 10
184.2858954734051
 20
90.23051188311759
 30
0.0
 40
4.0
  1
DIN EN1123-2
 41
0.8
  7
GREEKS
100
AcDbText
  0
TEXT
  5
2ED
330
1E
100
AcDbEntity
  8
TEXT
100
AcDbText
 10
99.98381106419387
 20
18.97240706006074
 30
0.0
 40
4.0
  1
Tag
 41
0.8
  7
GREEKS
 72
     4
 11
103.7171443975272
 21
20.30574039339407
 31
0.0
100
AcDbText
  0
TEXT
  5
2EE
330
1E
100
AcDbEntity
  8
TEXT
100
AcDbText
 10
118.0779538781902
 20
18.30574039339407
 30
0.0
 40
4.0
  1
Name
 41
0.8
  7
GREEKS
 72
     4
 11
124.4017634019997
 21
20.30574039339407
 31
0.0
100
AcDbText
  0
TEXT
  5
54A
330
1E
100
AcDbEntity
  8
VOLL
100
AcDbText
 10
305.2666505177693
 20
60.9917365573275
 30
0.0
 40
1.8
  1

  7
GREEKS
100
AcDbText
  0
TEXT
  5
558
330
1E
100
AcDbEntity
  8
BEM
100
AcDbText
 10
779.8708637178527
 20
75.83979991258411
 30
0.0
 40
2.5
  1

 41
0.8
  7
GREEKS
 72
     4
 11
779.8708637178527
 21
75.83979991258411
 31
0.0
100
AcDbText
  0
TEXT
  5
6F0
330
1E
100
AcDbEntity
  8
TEXT
100
AcDbText
 10
416.5811541437436
 20
12.14804815338303
 30
0.0
 40
4.0
  1
Diese Zeichnung ist urheberrechtlich geschützt und bleibt unser Eigentum. Sie darf weder ganz noch teilweise vervielfältigt und nicht an Dritte weitergegeben werden.
 50
90.0
 41
0.8
  7
GREEKS
100
AcDbText
  0
TEXT
  5
6FA
330
1E
100
AcDbEntity
  8
TEXT
 62
     1
100
AcDbText
 10
245.030129115258
 20
129.7422179729062
 30
0.0
 40
7.0
  1
und innenbeschichtet
 41
0.8
  7
GREEKS
100
AcDbText
  0
TEXT
  5
6FB
330
1E
100
AcDbEntity
  8
TEXT
 62
     1
100
AcDbText
 10
189.8811895945471
 20
117.1473825875242
 30
0.0
 40
7.0
  1
Dämmung: 2 K-PU-Schaum
 41
0.8
  7
GREEKS
100
AcDbText
  0
TEXT
  5
6FC
330
1E
100
AcDbEntity
  8
TEXT
 62
     1
100
AcDbText
 10
197.3756002392442
 20
141.011271812132
 30
0.0
 40
7.0
  1
Innenrohr: E195 EN10305 feuerverzinkt
 41
0.8
  7
GREEKS
100
AcDbText
  0
TEXT
  5
6FD
330
1E
100
AcDbEntity
  8
TEXT
 62
     1
100
AcDbText
 10
193.6033828683802
 20
152.364339848487
 30
0.0
 40
7.0
  1
Außenrohr: E195 EN10305 feuerverzinkt
 41
0.8
  7
GREEKS
100
AcDbText
  0
DIMENSION
  5
18B0
330
1E
100
AcDbEntity
  8
BEM
100
AcDbDimension
  2
*D3
 10
268.3841560767023
 20
205.0692641281439
 30
0.0
 11
217.3841560767023
 21
211.5692641281439
 31
0.0
 70
    32
  1
%%c<>
 71
     5
 42
102.0
  3
Standard
100
AcDbAlignedDimension
 13
166.3841560767023
 23
299.2102784901288
 33
0.0
 14
268.3841560767023
 24
299.2102784901288
 34
0.0
100
AcDbRotatedDimension
1001
ACAD
1000
DSTYLE
1002
{
1070
    40
1040
2.0
1070
    41
1040
3.5
1070
    42
1040
1.0
1070
    43
1040
7.0
1070
    44
1040
1.0
1070
    47
1040
0.15
1070
    48
1040
0.15
1070
    73
1070
     0
1070
    74
1070
     0
1070
    77
1070
     1
1070
    78
1070
     8
1070
    79
1070
     2
1070
   140
1040
3.5
1070
   141
1040
1.5
1070
   146
1040
0.5142857142857144
1070
   147
1040
1.5
1070
   172
1070
     1
1070
   178
1070
     1
1070
   179
1070
     2
1070
   271
1070
     2
1070
   272
1070
     2
1070
   284
1070
     8
1070
   285
1070
     8
1070
   286
1070
     8
1002
}
  0
DIMENSION
  5
18B1
330
1E
100
AcDbEntity
  8
BEM
100
AcDbDimension
  2
*D4
 10
253.8841560767023
 20
236.3953568817323
 30
0.0
 11
217.3841560767023
 21
242.8953568817323
 31
0.0
 70
    32
  1
%%c<>
 71
     5
 42
73.0
  3
Standard
100
AcDbAlignedDimension
 13
180.8841560767023
 23
266.1404209814754
 33
0.0
 14
253.8841560767023
 24
266.140420981475
 34
0.0
100
AcDbRotatedDimension
1001
ACAD
1000
DSTYLE
1002
{
1070
    40
1040
2.0
1070
    41
1040
3.5
1070
    42
1040
1.0
1070
    43
1040
7.0
1070
    44
1040
1.0
1070
    47
1040
0.15
1070
    48
1040
0.15
1070
    73
1070
     0
1070
    74
1070
     0
1070
    77
1070
     1
1070
    78
1070
     8
1070
    79
1070
     2
1070
   140
1040
3.5
1070
   141
1040
1.5
1070
   146
1040
0.5142857142857144
1070
   147
1040
1.5
1070
   172
1070
     1
1070
   178
1070
     1
1070
   179
1070
     2
1070
   271
1070
     2
1070
   272
1070
     2
1070
   284
1070
     8
1070
   285
1070
     8
1070
   286
1070
     8
1002
}
  0
DIMENSION
  5
18B2
330
1E
100
AcDbEntity
  8
BEM
100
AcDbDimension
  2
*D5
 10
283.8841560767023
 20
494.2691784102903
 30
0.0
 11
217.3841560767023
 21
500.7691784102902
 31
0.0
 70
    32
  1
%%c<>
 71
     5
 42
133.0
  3
Standard
100
AcDbAlignedDimension
 13
150.8841560767023
 23
466.2102784901279
 33
0.0
 14
283.8841560767023
 24
466.210278490128
 34
0.0
100
AcDbRotatedDimension
1001
ACAD
1000
DSTYLE
1002
{
1070
    40
1040
2.0
1070
    41
1040
3.5
1070
    42
1040
1.0
1070
    43
1040
7.0
1070
    44
1040
1.0
1070
    47
1040
0.15
1070
    48
1040
0.15
1070
    73
1070
     0
1070
    74
1070
     0
1070
    77
1070
     1
1070
    78
1070
     8
1070
    79
1070
     2
1070
   140
1040
3.5
1070
   141
1040
1.5
1070
   146
1040
0.5142857142857144
1070
   147
1040
1.5
1070
   172
1070
     1
1070
   178
1070
     1
1070
   179
1070
     2
1070
   271
1070
     2
1070
   272
1070
     2
1070
   284
1070
     8
1070
   285
1070
     8
1070
   286
1070
     8
1002
}
  0
HATCH
  5
18B3
330
1E
100
AcDbEntity
  8
SCHRAFF
100
AcDbHatch
 10
0.0
 20
0.0
 30
0.0
210
0.0
220
0.0
230
1.0
  2
_USER
 70
     0
 71
     1
 91
        2
 92
        7
 72
     1
 73
     1
 93
        8
 10
150.8841560767023
 20
387.1193413032717
 42
0.1396462061370735
 10
154.2613455131739
 20
375.2631987538837
 42
0.0
 10
158.6341560767021
 20
368.2102784901289
 42
0.0
 10
161.5756692927186
 20
368.2102784901289
 42
0.0
 10
156.3861022424548
 20
376.5805479260379
 42
-0.1396462061370725
 10
153.3841560767023
 20
387.1193413032717
 42
0.0
 10
153.3841560767023
 20
466.2102784901279
 42
0.0
 10
150.8841560767023
 20
466.2102784901279
 42
0.0
 97
        8
330
18C2
330
18CC
330
18D6
330
18D3
330
18D4
330
18D2
330
18D7
330
18CB
 92
        7
 72
     1
 73
     1
 93
        8
 10
281.3841560767023
 20
387.1193413032717
 42
-0.1396462061370727
 10
278.3822099109498
 20
376.5805479260379
 42
0.0
 10
273.1926428606859
 20
368.2102784901288
 42
0.0
 10
276.1341560767025
 20
368.2102784901289
 42
0.0
 10
280.5069666402307
 20
375.2631987538837
 42
0.139646206137073
 10
283.8841560767023
 20
387.1193413032717
 42
0.0
 10
283.8841560767023
 20
466.2102784901279
 42
0.0
 10
281.3841560767023
 20
466.2102784901279
 42
0.0
 97
        8
330
18C2
330
1911
330
1941
330
1919
330
192D
330
1918
330
1942
330
1912
 75
     0
 76
     0
 52
135.0
 41
2.0
 77
     0
 78
     1
 53
135.0
 43
14.44950260000951
 44
-21.21364674109719
 45
-1.414213562373095
 46
-1.414213562373094
 79
     0
 47
0.4178989769218194
 98
        2
 10
152.1230180023585
 20
446.2088869441626
 10
282.1861906689396
 20
432.0003218892352
  0
HATCH
  5
18B4
330
1E
100
AcDbEntity
  8
SCHRAFF
100
AcDbHatch
 10
0.0
 20
0.0
 30
0.0
210
0.0
220
0.0
230
1.0
  2
_USER
 70
     0
 71
     1
 91
        2
 92
        7
 72
     1
 73
     1
 93
        8
 10
266.3841560767023
 20
301.2102784901287
 42
0.0
 10
268.3841560767023
 20
301.2102784901288
 42
0.0
 10
268.3841560767022
 20
350.0133337673345
 42
-0.139646206137073
 10
271.3861022424548
 20
360.5521271445683
 42
0.0
 10
276.1341560767025
 20
368.2102784901289
 42
0.0
 10
273.7809455038894
 20
368.2102784901289
 42
0.0
 10
269.6862968590301
 20
361.6060064822917
 42
0.139646206137074
 10
266.3841560767023
 20
350.0133337673344
 42
0.0
 97
        8
330
192F
330
1918
330
192D
330
192E
330
1930
330
1924
330
191D
330
1923
 92
        7
 72
     1
 73
     1
 93
        8
 10
168.3841560767023
 20
350.0133337673345
 42
0.1396462061370731
 10
165.0820152943744
 20
361.6060064822917
 42
0.0
 10
160.9873666495152
 20
368.2102784901287
 42
0.0
 10
158.6341560767021
 20
368.2102784901288
 42
0.0
 10
163.3822099109498
 20
360.5521271445683
 42
-0.1396462061370727
 10
166.3841560767023
 20
350.0133337673345
 42
0.0
 10
166.3841560767023
 20
301.2102784901287
 42
0.0
 10
168.3841560767023
 20
301.2102784901287
 42
0.0
 97
        8
330
18EB
330
18ED
330
18D4
330
18D3
330
18EC
330
18DE
330
18E2
330
18DD
 75
     0
 76
     0
 52
45.0
 41
2.0
 77
     0
 78
     1
 53
45.0
 43
14.44950260000951
 44
-21.21364674109719
 45
-1.414213562373094
 46
1.414213562373095
 79
     0
 47
0.4178989769218194
 98
        2
 10
267.1306456441853
 20
335.8835563066402
 10
167.5967715592933
 20
325.436081878063
  0
HATCH
  5
18B6
330
1E
100
AcDbEntity
  8
SCHRAFF
100
AcDbHatch
 10
0.0
 20
0.0
 30
0.0
210
0.0
220
0.0
230
1.0
  2
NET
 70
     0
 71
     0
 91
        2
 92
        7
 72
     1
 73
     1
 93
        6
 10
281.3841560767023
 20
452.210278490128
 42
0.0
 10
281.3841560767023
 20
466.2102784901279
 42
0.0
 10
273.0909119146273
 20
466.210278490128
 42
0.0
 10
274.0418507526185
 20
464.1709835710746
 42
-0.1095178116832418
 10
276.3841560767023
 20
453.605527027557
 42
0.0
 10
276.3841560767023
 20
452.2102784901279
 42
0.0
 97
        0
 92
        7
 72
     1
 73
     1
 93
        6
 10
161.6774002387773
 20
466.2102784901279
 42
0.0
 10
153.3841560767023
 20
466.2102784901281
 42
0.0
 10
153.3841560767023
 20
452.2102784901281
 42
0.0
 10
158.3841560767023
 20
452.210278490128
 42
0.0
 10
158.3841560767023
 20
453.6055270275569
 42
-0.1095178116832437
 10
160.7264614007861
 20
464.1709835710746
 42
0.0
 97
        0
 75
     0
 76
     1
 52
45.0
 41
15.0
 77
     0
 78
     2
 53
45.0
 43
14.44950260000951
 44
-21.21364674109719
 45
-1.325825214724776
 46
1.325825214724776
 79
     0
 53
135.0
 43
14.44950260000951
 44
-21.21364674109719
 45
-1.325825214724776
 46
-1.325825214724776
 79
     0
 47
0.4178989769218194
 98
        3
 10
267.1306456441853
 20
340.0625463579665
 10
278.4223030603844
 20
459.1637551236399
 10
156.7233226752741
 20
461.6711488745401
  0
INSERT
  5
18B8
330
1E
100
AcDbEntity
  8
SCHRAFF
100
AcDbBlockReference
  2
*X2
 10
-11.19961621730545
 20
-14.68544899200225
 30
0.0
1001
ACAD
1000
HATCH
1002
{
1070
    16
1000
_U,I
1040
0.1
1040
2.356194490192344
1070
     0
1002
}
  0
INSERT
  5
18B9
330
1E
100
AcDbEntity
  8
SCHRAFF
100
AcDbBlockReference
  2
*X1
 10
-11.19961621730545
 20
-14.68544899200225
 30
0.0
1001
ACAD
1000
HATCH
1002
{
1070
    16
1000
_U,I
1040
2.0
1040
2.356194490192344
1070
     0
1002
}
  0
LINE
  5
18BA
330
1E
100
AcDbEntity
  8
HILF
100
AcDbLine
 10
184.0212498026574
 20
355.7102784901287
 30
0.0
 11
250.7470623507472
 21
355.7102784901288
 31
0.0
  0
LINE
  5
18BB
330
1E
100
AcDbEntity
  8
HILF
100
AcDbLine
 10
184.0841560767023
 20
266.2102784901288
 30
0.0
 11
250.6841560767023
 21
266.2102784901288
 31
0.0
  0
LINE
  5
18BC
330
1E
100
AcDbEntity
  8
STEMPEL
100
AcDbLine
 10
181.7529309718923
 20
256.2102784901288
 30
0.0
 11
253.0153811815123
 21
256.2102784901288
 31
0.0
  0
LINE
  5
18C0
330
1E
100
AcDbEntity
  8
HILF
100
AcDbLine
 10
172.6937962141019
 20
380.7102784901281
 30
0.0
 11
262.074515939303
 21
380.7102784901281
 31
0.0
  0
LINE
  5
18C1
102
{ACAD_REACTORS
330
1B26
102
}
330
1E
100
AcDbEntity
  8
STEMPEL
100
AcDbLine
 10
177.3841560767023
 20
370.7102784901281
 30
0.0
 11
257.3841560767041
 21
370.7102784901296
 31
0.0
  0
LINE
  5
18C2
102
{ACAD_REACTORS
330
18B3
330
1B26
102
}
330
1E
100
AcDbEntity
  8
STEMPEL
100
AcDbLine
 10
150.8841560767023
 20
466.2102784901279
 30
0.0
 11
283.8841560767023
 21
466.210278490128
 31
0.0
  0
DIMENSION
  5
18C3
330
1E
100
AcDbEntity
  8
BEM
100
AcDbDimension
  2
*D6
 10
124.6463338605044
 20
256.2102784901288
 30
0.0
 11
118.1463338605044
 21
361.2102784901284
 31
0.0
 70
    32
 71
     5
 42
209.9999999999992
  3
Standard
100
AcDbAlignedDimension
 13
150.8841560767023
 23
466.2102784901279
 33
0.0
 14
183.3590427119616
 24
256.2102784901288
 34
0.0
 50
90.0
100
AcDbRotatedDimension
1001
ACAD
1000
DSTYLE
1002
{
1070
    40
1040
2.0
1070
    41
1040
3.5
1070
    42
1040
1.0
1070
    43
1040
7.0
1070
    44
1040
1.0
1070
    47
1040
0.15
1070
    48
1040
0.15
1070
    73
1070
     0
1070
    74
1070
     0
1070
    77
1070
     1
1070
    78
1070
     8
1070
    79
1070
     2
1070
   140
1040
3.5
1070
   141
1040
1.5
1070
   146
1040
0.5142857142857144
1070
   147
1040
1.5
1070
   172
1070
     1
1070
   178
1070
     1
1070
   179
1070
     2
1070
   271
1070
     2
1070
   272
1070
     2
1070
   284
1070
     8
1070
   285
1070
     8
1070
   286
1070
     8
1002
}
  0
LINE
  5
18C5
330
1E
100
AcDbEntity
  8
STEMPEL
100
AcDbLine
 10
182.4841560767022
 20
354.3288323161312
 30
0.0
 11
182.4841560767024
 21
266.2102784901292
 31
0.0
  0
LINE
  5
18C6
102
{ACAD_REACTORS
330
1BD0
102
}
330
1E
100
AcDbEntity
  8
STEMPEL
100
AcDbLine
 10
180.8841560767023
 20
354.3288323161312
 30
0.0
 11
180.8841560767023
 21
266.1404209814754
 31
0.0
  0
LINE
  5
18C7
330
1E
100
AcDbEntity
  8
MITTEL
100
AcDbLine
 10
217.3841560767023
 20
471.210278490128
 30
0.0
 11
217.3841560767023
 21
251.2102784901288
 31
0.0
  0
LINE
  5
18C8
330
1E
100
AcDbEntity
  8
STEMPEL
100
AcDbLine
 10
180.8841560767023
 20
266.1404209814754
 30
0.0
 11
181.7529309718923
 21
256.2102784901288
 31
0.0
  0
LINE
  5
18C9
330
1E
100
AcDbEntity
  8
STEMPEL
100
AcDbLine
 10
182.4841560767024
 20
266.2102784901292
 30
0.0
 11
183.3590427119616
 21
256.2102784901288
 31
0.0
  0
DIMENSION
  5
18CA
330
1E
100
AcDbEntity
  8
BEM
100
AcDbDimension
  2
*D8
 10
138.6463338605044
 20
299.2102784901288
 30
0.0
 11
132.1463338605044
 21
382.7102784901284
 31
0.0
 70
    32
 71
     5
 42
166.9999999999992
  3
Standard
100
AcDbAlignedDimension
 13
150.8841560767023
 23
466.2102784901279
 33
0.0
 14
166.3841560767023
 24
299.2102784901288
 34
0.0
 50
90.0
100
AcDbRotatedDimension
1001
ACAD
1000
DSTYLE
1002
{
1070
    40
1040
2.0
1070
    41
1040
3.5
1070
    42
1040
1.0
1070
    43
1040
7.0
1070
    44
1040
1.0
1070
    47
1040
0.15
1070
    48
1040
0.15
1070
    73
1070
     0
1070
    74
1070
     0
1070
    77
1070
     1
1070
    78
1070
     8
1070
    79
1070
     2
1070
   140
1040
3.5
1070
   141
1040
1.5
1070
   146
1040
0.5142857142857144
1070
   147
1040
1.5
1070
   172
1070
     1
1070
   178
1070
     1
1070
   179
1070
     2
1070
   271
1070
     2
1070
   272
1070
     2
1070
   284
1070
     8
1070
   285
1070
     8
1070
   286
1070
     8
1002
}
  0
LINE
  5
18CB
102
{ACAD_REACTORS
330
18B3
330
1BD0
102
}
330
1E
100
AcDbEntity
  8
STEMPEL
100
AcDbLine
 10
153.3841560767023
 20
466.2102784901279
 30
0.0
 11
153.3841560767023
 21
387.1193413032717
 31
0.0
  0
LINE
  5
18CC
102
{ACAD_REACTORS
330
18B3
102
}
330
1E
100
AcDbEntity
  8
STEMPEL
100
AcDbLine
 10
150.8841560767023
 20
466.2102784901279
 30
0.0
 11
150.8841560767023
 21
387.1193413032717
 31
0.0
  0
HATCH
  5
18D0
330
1E
100
AcDbEntity
  8
SCHRAFF
100
AcDbHatch
 10
0.0
 20
0.0
 30
0.0
210
0.0
220
0.0
230
1.0
  2
_USER
 70
     0
 71
     1
 91
        1
 92
        7
 72
     1
 73
     1
 93
        2
 10
160.4799826283604
 20
365.23313889068
 42
0.0
 10
156.774156076702
 20
371.2102784901289
 42
0.4932094657566826
 97
        2
330
18D1
330
18D3
 75
     0
 76
     0
 52
0.0
 41
0.1
 77
     0
 78
     1
 53
0.0
 43
14.44950260000951
 44
-21.21364674109719
 45
0.0
 46
0.1
 79
     0
 47
0.0546880141960758
 98
        1
 10
158.3016777730904
 20
366.9628581986937
  0
ARC
  5
18D1
102
{ACAD_REACTORS
330
18D0
102
}
330
1E
100
AcDbEntity
  8
SCHRAFF
100
AcDbCircle
 10
160.9197904835858
 20
369.6431957916583
 30
0.0
 40
4.43193330493417
100
AcDbArc
 50
159.2930100971831
 51
264.304815551408
  0
LINE
  5
18D2
102
{ACAD_REACTORS
330
18B3
330
1BD0
102
}
330
1E
100
AcDbEntity
  8
STEMPEL
100
AcDbLine
 10
161.5756692927186
 20
368.2102784901289
 30
0.0
 11
156.3861022424548
 21
376.5805479260379
 31
0.0
  0
LINE
  5
18D3
102
{ACAD_REACTORS
330
18B4
330
18B3
330
18D0
102
}
330
1E
100
AcDbEntity
  8
STEMPEL
100
AcDbLine
 10
163.3822099109498
 20
360.5521271445683
 30
0.0
 11
154.2613455131739
 21
375.2631987538837
 31
0.0
  0
LINE
  5
18D4
102
{ACAD_REACTORS
330
18B4
330
18B3
330
1BD0
102
}
330
1E
100
AcDbEntity
  8
STEMPEL
100
AcDbLine
 10
161.5756692927186
 20
368.2102784901288
 30
0.0
 11
158.634156076702
 21
368.2102784901289
 31
0.0
  0
ARC
  5
18D6
102
{ACAD_REACTORS
330
18B3
102
}
330
1E
100
AcDbEntity
  8
STEMPEL
100
AcDbCircle
 10
173.3841560767023
 20
387.1193413032717
 30
0.0
 40
22.5
100
AcDbArc
 50
180.0
 51
211.7989128242959
  0
ARC
  5
18D7
102
{ACAD_REACTORS
330
18B3
330
1BD0
102
}
330
1E
100
AcDbEntity
  8
STEMPEL
100
AcDbCircle
 10
173.3841560767023
 20
387.1193413032717
 30
0.0
 40
20.0
100
AcDbArc
 50
180.0
 51
211.7989128242959
  0
LINE
  5
18D9
102
{ACAD_REACTORS
330
1BD0
102
}
330
1E
100
AcDbEntity
  8
STEMPEL
100
AcDbLine
 10
153.3841560767023
 20
452.2102784901281
 30
0.0
 11
158.3841560767023
 21
452.2102784901281
 31
0.0
  0
LINE
  5
18DA
330
1E
100
AcDbEntity
  8
STEMPEL
100
AcDbLine
 10
182.1283965291904
 20
357.4191550883785
 30
0.0
 11
179.0271344021155
 21
370.7102784901289
 31
0.0
  0
LINE
  5
18DB
102
{ACAD_REACTORS
330
1BD0
102
}
330
1E
100
AcDbEntity
  8
STEMPEL
100
AcDbLine
 10
180.570250593604
 20
357.0555877034083
 30
0.0
 11
177.3841560767023
 21
370.7102784901289
 31
0.0
  0
ARC
  5
18DC
102
{ACAD_REACTORS
330
1BD0
102
}
330
1E
100
AcDbEntity
  8
SCHRAFF
100
AcDbCircle
 10
177.3841560767023
 20
370.7102784901281
 30
0.0
 40
3.0
100
AcDbArc
 50
137.726310993905
 51
283.1340223063989
  0
LINE
  5
18DD
102
{ACAD_REACTORS
330
18B4
330
1BD0
102
}
330
1E
100
AcDbEntity
  8
STEMPEL
100
AcDbLine
 10
168.3841560767023
 20
350.0133337673345
 30
0.0
 11
168.3841560767023
 21
301.2102784901287
 31
0.0
  0
LINE
  5
18DE
102
{ACAD_REACTORS
330
18B4
102
}
330
1E
100
AcDbEntity
  8
STEMPEL
100
AcDbLine
 10
166.3841560767023
 20
350.0133337673345
 30
0.0
 11
166.3841560767023
 21
299.2102784901288
 31
0.0
  0
LINE
  5
18E2
102
{ACAD_REACTORS
330
18B4
102
}
330
1E
100
AcDbEntity
  8
STEMPEL
100
AcDbLine
 10
166.3841560767023
 20
301.2102784901288
 30
0.0
 11
168.3841560767023
 21
301.2102784901287
 31
0.0
  0
ARC
  5
18EB
102
{ACAD_REACTORS
330
18B4
330
1BD0
102
}
330
1E
100
AcDbEntity
  8
STEMPEL
100
AcDbCircle
 10
146.3841560767023
 20
350.0133337673345
 30
0.0
 40
22.0
100
AcDbArc
 50
0.0
 51
31.79891282429586
  0
ARC
  5
18EC
102
{ACAD_REACTORS
330
18B4
102
}
330
1E
100
AcDbEntity
  8
STEMPEL
100
AcDbCircle
 10
146.3841560767023
 20
350.0133337673345
 30
0.0
 40
20.0
100
AcDbArc
 50
0.0
 51
31.79891282429586
  0
LINE
  5
18ED
102
{ACAD_REACTORS
330
18B4
330
1BD0
102
}
330
1E
100
AcDbEntity
  8
STEMPEL
100
AcDbLine
 10
165.0820152943744
 20
361.6060064822917
 30
0.0
 11
160.9873666495152
 21
368.2102784901288
 31
0.0
  0
ARC
  5
18EE
330
1E
100
AcDbEntity
  8
STEMPEL
100
AcDbCircle
 10
168.8841560767023
 20
354.3288323161312
 30
0.0
 40
13.6
100
AcDbArc
 50
0.0
 51
13.13402230639695
  0
ARC
  5
18EF
102
{ACAD_REACTORS
330
1BD0
102
}
330
1E
100
AcDbEntity
  8
STEMPEL
100
AcDbCircle
 10
168.8841560767023
 20
354.3288323161312
 30
0.0
 40
12.0
100
AcDbArc
 50
0.0
 51
13.13402230639695
  0
TEXT
  5
18F0
330
1E
100
AcDbEntity
  8
TEXT
 62
     1
100
AcDbText
 10
212.5150682812095
 20
295.5626561875112
 30
0.0
 40
7.0
  1
DN70
 50
90.0
 41
0.8
  7
GREEKS
100
AcDbText
  0
LINE
  5
18F3
102
{ACAD_REACTORS
330
1B26
102
}
330
1E
100
AcDbEntity
  8
STEMPEL
100
AcDbLine
 10
172.9667369607541
 20
377.4290356405026
 30
0.0
 11
180.3573698261662
 21
370.7102784901281
 31
0.0
  0
LINE
  5
18F4
102
{ACAD_REACTORS
330
1B26
330
1BD0
102
}
330
1E
100
AcDbEntity
  8
STEMPEL
100
AcDbLine
 10
171.6213913727613
 20
375.9491554937109
 30
0.0
 11
177.3841560767023
 21
370.7102784901281
 31
0.0
  0
ARC
  5
18F7
102
{ACAD_REACTORS
330
1B26
330
1BD0
102
}
330
1E
100
AcDbEntity
  8
STEMPEL
100
AcDbCircle
 10
182.3841560767023
 20
387.788196668046
 30
0.0
 40
16.0
100
AcDbArc
 50
180.0
 51
227.7263109939073
  0
POINT
  5
18F8
330
1E
100
AcDbEntity
  8
STEMPEL
100
AcDbPoint
 10
166.3841560767023
 20
387.7881966680456
 30
0.0
  0
LINE
  5
18F9
330
1E
100
AcDbEntity
  8
STEMPEL
100
AcDbLine
 10
166.3841560767023
 20
390.1762859702601
 30
0.0
 11
166.3841560767023
 21
387.7881966680456
 31
0.0
  0
ARC
  5
18FA
102
{ACAD_REACTORS
330
1B26
102
}
330
1E
100
AcDbEntity
  8
STEMPEL
100
AcDbCircle
 10
182.3841560767023
 20
387.788196668046
 30
0.0
 40
14.0
100
AcDbArc
 50
180.0
 51
227.7263109939073
  0
LINE
  5
18FB
330
1E
100
AcDbEntity
  8
STEMPEL
100
AcDbLine
 10
168.3841560767023
 20
390.1762859702602
 30
0.0
 11
168.3841560767023
 21
387.7881966680456
 31
0.0
  0
POINT
  5
18FF
330
1E
100
AcDbEntity
  8
STEMPEL
100
AcDbPoint
 10
178.3841560767023
 20
370.7102784901281
 30
0.0
  0
POINT
  5
1900
330
1E
100
AcDbEntity
  8
STEMPEL
100
AcDbPoint
 10
177.3841560767023
 20
370.7102784901281
 30
0.0
  0
LINE
  5
1909
330
1E
100
AcDbEntity
  8
STEMPEL
100
AcDbLine
 10
252.2841560767022
 20
354.3288323161311
 30
0.0
 11
252.2841560767022
 21
266.2102784901289
 31
0.0
  0
LINE
  5
190A
102
{ACAD_REACTORS
330
1BD0
102
}
330
1E
100
AcDbEntity
  8
STEMPEL
100
AcDbLine
 10
253.8841560767023
 20
354.3288323161311
 30
0.0
 11
253.8841560767023
 21
266.140420981475
 31
0.0
  0
LINE
  5
190F
330
1E
100
AcDbEntity
  8
STEMPEL
100
AcDbLine
 10
253.8841560767023
 20
266.140420981475
 30
0.0
 11
253.0153811815123
 21
256.2102784901288
 31
0.0
  0
LINE
  5
1910
330
1E
100
AcDbEntity
  8
STEMPEL
100
AcDbLine
 10
252.2841560767022
 20
266.2102784901289
 30
0.0
 11
251.409269441443
 21
256.2102784901288
 31
0.0
  0
LINE
  5
1911
102
{ACAD_REACTORS
330
18B3
330
1BD0
102
}
330
1E
100
AcDbEntity
  8
STEMPEL
100
AcDbLine
 10
281.3841560767023
 20
466.2102784901279
 30
0.0
 11
281.3841560767023
 21
387.1193413032717
 31
0.0
  0
LINE
  5
1912
102
{ACAD_REACTORS
330
18B3
102
}
330
1E
100
AcDbEntity
  8
STEMPEL
100
AcDbLine
 10
283.8841560767023
 20
466.2102784901279
 30
0.0
 11
283.8841560767023
 21
387.1193413032717
 31
0.0
  0
HATCH
  5
1916
330
1E
100
AcDbEntity
  8
SCHRAFF
100
AcDbHatch
 10
0.0
 20
0.0
 30
0.0
210
0.0
220
0.0
230
1.0
  2
_USER
 70
     0
 71
     0
 91
        1
 92
        7
 72
     1
 73
     1
 93
        2
 10
277.9941560767027
 20
371.2102784901289
 42
-0.4932094657566847
 10
274.2883295250441
 20
365.23313889068
 42
0.0
 97
        0
 75
     0
 76
     0
 52
0.0
 41
0.1
 77
     0
 78
     1
 53
180.0
 43
420.3188095533951
 44
-21.21364674109719
 45
0.0
 46
0.1
 79
     0
 47
0.0546880141960758
 98
        1
 10
276.4666343803142
 20
366.9628581986937
  0
ARC
  5
1917
330
1E
100
AcDbEntity
  8
SCHRAFF
100
AcDbCircle
 10
273.8485216698188
 20
369.6431957916583
 30
0.0
 40
4.43193330493417
100
AcDbArc
 50
275.695184448592
 51
20.7069899028169
  0
LINE
  5
1918
102
{ACAD_REACTORS
330
18B4
330
18B3
102
}
330
1E
100
AcDbEntity
  8
STEMPEL
100
AcDbLine
 10
271.3861022424548
 20
360.5521271445683
 30
0.0
 11
280.5069666402307
 21
375.2631987538837
 31
0.0
  0
LINE
  5
1919
102
{ACAD_REACTORS
330
18B3
330
1BD0
102
}
330
1E
100
AcDbEntity
  8
STEMPEL
100
AcDbLine
 10
273.192642860686
 20
368.2102784901289
 30
0.0
 11
278.3822099109498
 21
376.5805479260379
 31
0.0
  0
LINE
  5
191A
102
{ACAD_REACTORS
330
1BD0
102
}
330
1E
100
AcDbEntity
  8
STEMPEL
100
AcDbLine
 10
254.1980615598006
 20
357.0555877034081
 30
0.0
 11
257.3841560767021
 21
370.7102784901288
 31
0.0
  0
LINE
  5
191B
330
1E
100
AcDbEntity
  8
STEMPEL
100
AcDbLine
 10
252.6399156242139
 20
357.4191550883784
 30
0.0
 11
255.7411777512891
 21
370.7102784901288
 31
0.0
  0
ARC
  5
191C
102
{ACAD_REACTORS
330
1BD0
102
}
330
1E
100
AcDbEntity
  8
SCHRAFF
100
AcDbCircle
 10
257.3841560767041
 20
370.7102784901296
 30
0.0
 40
3.0
100
AcDbArc
 50
256.8659776935711
 51
42.27368900609493
  0
LINE
  5
191D
102
{ACAD_REACTORS
330
18B4
102
}
330
1E
100
AcDbEntity
  8
STEMPEL
100
AcDbLine
 10
266.3841560767023
 20
301.2102784901288
 30
0.0
 11
268.3841560767023
 21
301.2102784901288
 31
0.0
  0
ARC
  5
1921
330
1E
100
AcDbEntity
  8
STEMPEL
100
AcDbCircle
 10
265.8841560767023
 20
354.3288323161311
 30
0.0
 40
13.6
100
AcDbArc
 50
166.8659776936046
 51
180.0
  0
ARC
  5
1922
102
{ACAD_REACTORS
330
1BD0
102
}
330
1E
100
AcDbEntity
  8
STEMPEL
100
AcDbCircle
 10
265.8841560767023
 20
354.3288323161311
 30
0.0
 40
12.0
100
AcDbArc
 50
166.8659776936046
 51
180.0
  0
LINE
  5
1923
102
{ACAD_REACTORS
330
18B4
102
}
330
1E
100
AcDbEntity
  8
STEMPEL
100
AcDbLine
 10
268.3841560767022
 20
350.0133337673345
 30
0.0
 11
268.3841560767023
 21
299.2102784901284
 31
0.0
  0
LINE
  5
1924
102
{ACAD_REACTORS
330
18B4
330
1BD0
102
}
330
1E
100
AcDbEntity
  8
STEMPEL
100
AcDbLine
 10
266.3841560767023
 20
350.0133337673345
 30
0.0
 11
266.3841560767023
 21
301.2102784901287
 31
0.0
  0
LINE
  5
192D
102
{ACAD_REACTORS
330
18B4
330
18B3
330
1BD0
102
}
330
1E
100
AcDbEntity
  8
STEMPEL
100
AcDbLine
 10
273.192642860686
 20
368.2102784901288
 30
0.0
 11
276.1341560767025
 21
368.2102784901289
 31
0.0
  0
LINE
  5
192E
102
{ACAD_REACTORS
330
18B4
330
1BD0
102
}
330
1E
100
AcDbEntity
  8
STEMPEL
100
AcDbLine
 10
269.6862968590301
 20
361.6060064822917
 30
0.0
 11
273.7809455038894
 21
368.2102784901288
 31
0.0
  0
ARC
  5
192F
102
{ACAD_REACTORS
330
18B4
102
}
330
1E
100
AcDbEntity
  8
STEMPEL
100
AcDbCircle
 10
288.3841560767022
 20
350.0133337673345
 30
0.0
 40
20.0
100
AcDbArc
 50
148.2010871757041
 51
180.0
  0
ARC
  5
1930
102
{ACAD_REACTORS
330
18B4
330
1BD0
102
}
330
1E
100
AcDbEntity
  8
STEMPEL
100
AcDbCircle
 10
288.3841560767022
 20
350.0133337673345
 30
0.0
 40
22.0
100
AcDbArc
 50
148.2010871757041
 51
180.0
  0
LINE
  5
1931
102
{ACAD_REACTORS
330
1B26
102
}
330
1E
100
AcDbEntity
  8
STEMPEL
100
AcDbLine
 10
261.8015751926505
 20
377.4290356405026
 30
0.0
 11
254.4109423272387
 21
370.7102784901281
 31
0.0
  0
POINT
  5
1932
330
1E
100
AcDbEntity
  8
STEMPEL
100
AcDbPoint
 10
256.3841560767023
 20
370.7102784901296
 30
0.0
  0
ARC
  5
1937
102
{ACAD_REACTORS
330
1B26
330
1BD0
102
}
330
1E
100
AcDbEntity
  8
STEMPEL
100
AcDbCircle
 10
252.3841560767023
 20
387.788196668046
 30
0.0
 40
16.0
100
AcDbArc
 50
312.2736890060926
 51
0.0
  0
ARC
  5
1938
102
{ACAD_REACTORS
330
1B26
102
}
330
1E
100
AcDbEntity
  8
STEMPEL
100
AcDbCircle
 10
252.3841560767023
 20
387.788196668046
 30
0.0
 40
14.0
100
AcDbArc
 50
312.2736890060926
 51
0.0
  0
LINE
  5
1939
102
{ACAD_REACTORS
330
1B26
330
1BD0
102
}
330
1E
100
AcDbEntity
  8
STEMPEL
100
AcDbLine
 10
263.1469207806433
 20
375.9491554937109
 30
0.0
 11
257.3841560767023
 21
370.7102784901281
 31
0.0
  0
POINT
  5
193A
330
1E
100
AcDbEntity
  8
STEMPEL
100
AcDbPoint
 10
257.3841560767023
 20
370.7102784901281
 30
0.0
  0
POINT
  5
193B
330
1E
100
AcDbEntity
  8
STEMPEL
100
AcDbPoint
 10
268.3841560767023
 20
387.7881966680456
 30
0.0
  0
LINE
  5
193C
330
1E
100
AcDbEntity
  8
STEMPEL
100
AcDbLine
 10
268.3841560767023
 20
390.1762859702601
 30
0.0
 11
268.3841560767023
 21
387.7881966680456
 31
0.0
  0
LINE
  5
193D
330
1E
100
AcDbEntity
  8
STEMPEL
100
AcDbLine
 10
266.3841560767023
 20
390.1762859702602
 30
0.0
 11
266.3841560767023
 21
387.7881966680456
 31
0.0
  0
ARC
  5
1941
102
{ACAD_REACTORS
330
18B3
330
1BD0
102
}
330
1E
100
AcDbEntity
  8
STEMPEL
100
AcDbCircle
 10
261.3841560767023
 20
387.1193413032717
 30
0.0
 40
20.0
100
AcDbArc
 50
328.2010871757041
 51
0.0
  0
ARC
  5
1942
102
{ACAD_REACTORS
330
18B3
102
}
330
1E
100
AcDbEntity
  8
STEMPEL
100
AcDbCircle
 10
261.3841560767023
 20
387.1193413032717
 30
0.0
 40
22.5
100
AcDbArc
 50
328.2010871757041
 51
0.0
  0
LINE
  5
1949
102
{ACAD_REACTORS
330
1BD0
102
}
330
1E
100
AcDbEntity
  8
STEMPEL
100
AcDbLine
 10
276.3841560767023
 20
452.210278490128
 30
0.0
 11
281.3841560767023
 21
452.210278490128
 31
0.0
  0
DIMENSION
  5
1A74
330
1E
100
AcDbEntity
  8
BEM
100
AcDbDimension
  2
*D10
 10
270.8841560767023
 20
479.4223661919777
 30
0.0
 11
217.3841560767023
 21
485.9223661919777
 31
0.0
 70
    32
  1
%%c<>
 71
     5
 42
107.0
  3
Standard
100
AcDbAlignedDimension
 13
163.8841560767023
 23
466.2102784901279
 33
0.0
 14
270.8841560767023
 24
466.210278490128
 34
0.0
100
AcDbRotatedDimension
1001
ACAD
1000
DSTYLE
1002
{
1070
    40
1040
2.0
1070
    41
1040
3.5
1070
    42
1040
1.0
1070
    43
1040
7.0
1070
    44
1040
1.0
1070
    47
1040
0.15
1070
    48
1040
0.15
1070
    73
1070
     0
1070
    74
1070
     0
1070
    77
1070
     1
1070
    78
1070
     8
1070
    79
1070
     2
1070
   140
1040
3.5
1070
   141
1040
1.5
1070
   146
1040
0.5142857142857144
1070
   147
1040
1.5
1070
   172
1070
     1
1070
   178
1070
     1
1070
   179
1070
     2
1070
   271
1070
     2
1070
   272
1070
     2
1070
   284
1070
     8
1070
   285
1070
     8
1070
   286
1070
     8
1002
}
  0
LINE
  5
1AC4
330
1E
100
AcDbEntity
  8
HILF
100
AcDbLine
 10
170.0161957871782
 20
393.1251250933578
 30
0.0
 11
264.7521163662265
 21
393.1251250933578
 31
0.0
  0
LINE
  5
1AC5
330
1E
100
AcDbEntity
  8
HILF
100
AcDbLine
 10
267.6945560605092
 20
399.3042765070483
 30
0.0
 11
167.0737560928953
 21
399.3042765070483
 31
0.0
  0
LINE
  5
1AC6
330
1E
100
AcDbEntity
  8
HILF
100
AcDbLine
 10
166.0455574717805
 20
421.9844969224018
 30
0.0
 11
268.7227546816241
 21
421.9844969224018
 31
0.0
  0
LINE
  5
1ACA
102
{ACAD_REACTORS
330
1B26
102
}
330
1E
100
AcDbEntity
  8
STEMPEL
100
AcDbLine
 10
266.3841560767023
 20
390.17628597026
 30
0.0
 11
266.3841560767023
 21
387.788196668046
 31
0.0
  0
LINE
  5
1ACB
102
{ACAD_REACTORS
330
1B26
330
1BD0
102
}
330
1E
100
AcDbEntity
  8
STEMPEL
100
AcDbLine
 10
268.3841560767023
 20
390.17628597026
 30
0.0
 11
268.3841560767023
 21
387.788196668046
 31
0.0
  0
LINE
  5
1ACC
102
{ACAD_REACTORS
330
1B26
102
}
330
1E
100
AcDbEntity
  8
STEMPEL
100
AcDbLine
 10
270.3841560767023
 20
418.7100779594465
 30
0.0
 11
270.3841560767023
 21
403.1377673670756
 31
0.0
  0
LINE
  5
1ACD
102
{ACAD_REACTORS
330
1B26
330
1BD0
102
}
330
1E
100
AcDbEntity
  8
STEMPEL
100
AcDbLine
 10
272.3841560767023
 20
418.7102784901281
 30
0.0
 11
272.3841560767023
 21
403.1377673670755
 31
0.0
  0
LINE
  5
1ACE
102
{ACAD_REACTORS
330
1B26
102
}
330
1E
100
AcDbEntity
  8
STEMPEL
100
AcDbLine
 10
274.3841560767023
 20
453.605527027557
 30
0.0
 11
274.3841560767023
 21
435.443278490128
 31
0.0
  0
LINE
  5
1ACF
102
{ACAD_REACTORS
330
1B26
330
1BD0
102
}
330
1E
100
AcDbEntity
  8
STEMPEL
100
AcDbLine
 10
276.3841560767022
 20
453.605527027557
 30
0.0
 11
276.3841560767023
 21
435.4434790208096
 31
0.0
  0
LINE
  5
1AD0
102
{ACAD_REACTORS
330
1B26
102
}
330
1E
100
AcDbEntity
  8
STEMPEL
100
AcDbLine
 10
270.8841560767023
 20
466.210278490128
 30
0.0
 11
272.2292351785452
 21
463.3257470475932
 31
0.0
  0
LINE
  5
1AD1
102
{ACAD_REACTORS
330
1B26
102
}
330
1E
100
AcDbEntity
  8
STEMPEL
100
AcDbLine
 10
273.0909119146273
 20
466.2102784901281
 30
0.0
 11
274.0418507526186
 21
464.1709835710741
 31
0.0
  0
ARC
  5
1AD2
102
{ACAD_REACTORS
330
1B26
330
1BD0
102
}
330
1E
100
AcDbEntity
  8
STEMPEL
100
AcDbCircle
 10
276.3841560767023
 20
390.17628597026
 30
0.0
 40
8.0
100
AcDbArc
 50
145.6988472432076
 51
180.0
  0
ARC
  5
1AD3
102
{ACAD_REACTORS
330
1B26
102
}
330
1E
100
AcDbEntity
  8
STEMPEL
100
AcDbCircle
 10
276.3841560767023
 20
390.17628597026
 30
0.0
 40
10.0
100
AcDbArc
 50
145.6988472432076
 51
180.0
  0
ARC
  5
1AD4
102
{ACAD_REACTORS
330
1B26
102
}
330
1E
100
AcDbEntity
  8
STEMPEL
100
AcDbCircle
 10
257.3841560767023
 20
403.1377673670756
 30
0.0
 40
13.0
100
AcDbArc
 50
325.6988472432076
 51
0.0
  0
ARC
  5
1AD5
102
{ACAD_REACTORS
330
1B26
330
1BD0
102
}
330
1E
100
AcDbEntity
  8
STEMPEL
100
AcDbCircle
 10
257.3841560767023
 20
403.1377673670755
 30
0.0
 40
15.0
100
AcDbArc
 50
325.6988472432076
 51
0.0
  0
ARC
  5
1AD6
102
{ACAD_REACTORS
330
1B26
330
1BD0
102
}
330
1E
100
AcDbEntity
  8
STEMPEL
100
AcDbCircle
 10
284.3841560767022
 20
418.7102784901281
 30
0.0
 40
12.0
100
AcDbArc
 50
153.1119523822753
 51
180.0
  0
ARC
  5
1AD7
102
{ACAD_REACTORS
330
1B26
102
}
330
1E
100
AcDbEntity
  8
STEMPEL
100
AcDbCircle
 10
284.3841560767023
 20
418.7100779594465
 30
0.0
 40
14.0
100
AcDbArc
 50
153.1119523822753
 51
180.0
  0
ARC
  5
1AD8
102
{ACAD_REACTORS
330
1B26
102
}
330
1E
100
AcDbEntity
  8
STEMPEL
100
AcDbCircle
 10
251.3841560767023
 20
435.443278490128
 30
0.0
 40
23.0
100
AcDbArc
 50
333.1119523822754
 51
0.0
  0
ARC
  5
1AD9
102
{ACAD_REACTORS
330
1B26
330
1BD0
102
}
330
1E
100
AcDbEntity
  8
STEMPEL
100
AcDbCircle
 10
251.3841560767023
 20
435.4434790208096
 30
0.0
 40
25.0
100
AcDbArc
 50
333.1119523822754
 51
0.0
  0
ARC
  5
1ADA
102
{ACAD_REACTORS
330
1B26
102
}
330
1E
100
AcDbEntity
  8
STEMPEL
100
AcDbCircle
 10
251.3841560767022
 20
453.605527027557
 30
0.0
 40
25.0
100
AcDbArc
 50
0.0
 51
24.99999999999935
  0
ARC
  5
1ADB
102
{ACAD_REACTORS
330
1B26
102
}
330
1E
100
AcDbEntity
  8
STEMPEL
100
AcDbCircle
 10
251.3841560767023
 20
453.605527027557
 30
0.0
 40
23.0
100
AcDbArc
 50
0.0
 51
24.99999999999935
  0
ARC
  5
1ADC
102
{ACAD_REACTORS
330
1B26
102
}
330
1E
100
AcDbEntity
  8
STEMPEL
100
AcDbCircle
 10
183.3841560767023
 20
453.605527027557
 30
0.0
 40
23.0
100
AcDbArc
 50
155.0000000000006
 51
180.0
  0
ARC
  5
1ADD
102
{ACAD_REACTORS
330
1B26
102
}
330
1E
100
AcDbEntity
  8
STEMPEL
100
AcDbCircle
 10
183.3841560767023
 20
453.605527027557
 30
0.0
 40
25.0
100
AcDbArc
 50
155.0000000000006
 51
180.0
  0
ARC
  5
1ADE
102
{ACAD_REACTORS
330
1B26
330
1BD0
102
}
330
1E
100
AcDbEntity
  8
STEMPEL
100
AcDbCircle
 10
183.3841560767023
 20
435.4434790208096
 30
0.0
 40
25.0
100
AcDbArc
 50
180.0
 51
206.8880476177246
  0
ARC
  5
1ADF
102
{ACAD_REACTORS
330
1B26
102
}
330
1E
100
AcDbEntity
  8
STEMPEL
100
AcDbCircle
 10
183.3841560767023
 20
435.443278490128
 30
0.0
 40
23.0
100
AcDbArc
 50
180.0
 51
206.8880476177246
  0
ARC
  5
1AE0
102
{ACAD_REACTORS
330
1B26
102
}
330
1E
100
AcDbEntity
  8
STEMPEL
100
AcDbCircle
 10
150.3841560767022
 20
418.7100779594465
 30
0.0
 40
14.0
100
AcDbArc
 50
0.0
 51
26.88804761772463
  0
ARC
  5
1AE1
102
{ACAD_REACTORS
330
1B26
330
1BD0
102
}
330
1E
100
AcDbEntity
  8
STEMPEL
100
AcDbCircle
 10
150.3841560767023
 20
418.7102784901281
 30
0.0
 40
12.0
100
AcDbArc
 50
0.0
 51
26.88804761772463
  0
ARC
  5
1AE2
102
{ACAD_REACTORS
330
1B26
330
1BD0
102
}
330
1E
100
AcDbEntity
  8
STEMPEL
100
AcDbCircle
 10
177.3841560767023
 20
403.1377673670755
 30
0.0
 40
15.0
100
AcDbArc
 50
180.0
 51
214.3011527567924
  0
ARC
  5
1AE3
102
{ACAD_REACTORS
330
1B26
102
}
330
1E
100
AcDbEntity
  8
STEMPEL
100
AcDbCircle
 10
177.3841560767023
 20
403.1377673670756
 30
0.0
 40
13.0
100
AcDbArc
 50
180.0
 51
214.3011527567924
  0
ARC
  5
1AE4
102
{ACAD_REACTORS
330
1B26
102
}
330
1E
100
AcDbEntity
  8
STEMPEL
100
AcDbCircle
 10
158.3841560767023
 20
390.17628597026
 30
0.0
 40
10.0
100
AcDbArc
 50
0.0
 51
34.3011527567924
  0
ARC
  5
1AE5
102
{ACAD_REACTORS
330
1B26
330
1BD0
102
}
330
1E
100
AcDbEntity
  8
STEMPEL
100
AcDbCircle
 10
158.3841560767022
 20
390.17628597026
 30
0.0
 40
8.0
100
AcDbArc
 50
0.0
 51
34.3011527567924
  0
LINE
  5
1AE6
102
{ACAD_REACTORS
330
1B26
102
}
330
1E
100
AcDbEntity
  8
STEMPEL
100
AcDbLine
 10
161.6774002387773
 20
466.2102784901281
 30
0.0
 11
160.7264614007858
 21
464.1709835710741
 31
0.0
  0
LINE
  5
1AE7
102
{ACAD_REACTORS
330
1B26
102
}
330
1E
100
AcDbEntity
  8
STEMPEL
100
AcDbLine
 10
163.8841560767023
 20
466.210278490128
 30
0.0
 11
162.5390769748593
 21
463.3257470475932
 31
0.0
  0
LINE
  5
1AE8
102
{ACAD_REACTORS
330
1B26
330
1BD0
102
}
330
1E
100
AcDbEntity
  8
STEMPEL
100
AcDbLine
 10
158.3841560767023
 20
453.605527027557
 30
0.0
 11
158.3841560767023
 21
435.4434790208096
 31
0.0
  0
LINE
  5
1AE9
102
{ACAD_REACTORS
330
1B26
102
}
330
1E
100
AcDbEntity
  8
STEMPEL
100
AcDbLine
 10
160.3841560767023
 20
453.605527027557
 30
0.0
 11
160.3841560767023
 21
435.443278490128
 31
0.0
  0
LINE
  5
1AEA
102
{ACAD_REACTORS
330
1B26
330
1BD0
102
}
330
1E
100
AcDbEntity
  8
STEMPEL
100
AcDbLine
 10
162.3841560767023
 20
418.7102784901281
 30
0.0
 11
162.3841560767023
 21
403.1377673670755
 31
0.0
  0
LINE
  5
1AEB
102
{ACAD_REACTORS
330
1B26
102
}
330
1E
100
AcDbEntity
  8
STEMPEL
100
AcDbLine
 10
164.3841560767023
 20
418.7100779594465
 30
0.0
 11
164.3841560767023
 21
403.1377673670756
 31
0.0
  0
LINE
  5
1AEC
102
{ACAD_REACTORS
330
1B26
330
1BD0
102
}
330
1E
100
AcDbEntity
  8
STEMPEL
100
AcDbLine
 10
166.3841560767023
 20
390.17628597026
 30
0.0
 11
166.3841560767023
 21
387.788196668046
 31
0.0
  0
LINE
  5
1AED
102
{ACAD_REACTORS
330
1B26
102
}
330
1E
100
AcDbEntity
  8
STEMPEL
100
AcDbLine
 10
168.3841560767023
 20
390.17628597026
 30
0.0
 11
168.3841560767023
 21
387.788196668046
 31
0.0
  0
HATCH
  5
1B26
330
1E
100
AcDbEntity
  8
SCHRAFF
100
AcDbHatch
 10
0.0
 20
0.0
 30
0.0
210
0.0
220
0.0
230
1.0
  2
_USER
 70
     0
 71
     1
 91
        2
 92
        7
 72
     1
 73
     1
 93
       24
 10
274.3841560767023
 20
435.443278490128
 42
-0.1178625008509382
 10
271.8976695902157
 20
425.0415592413257
 42
0.1178625008509323
 10
270.3841560767023
 20
418.7100779594463
 42
0.0
 10
270.3841560767023
 20
403.1377673670756
 42
-0.1507946423587077
 10
268.1232865114848
 20
395.8117126645275
 42
0.1507946423586991
 10
266.3841560767023
 20
390.17628597026
 42
0.0
 10
266.3841560767023
 20
387.788196668046
 42
-0.2113087302336545
 10
261.8015751926507
 20
377.4290356405029
 42
0.0
 10
254.4109423272402
 20
370.7102784901295
 42
0.0
 10
257.384156076704
 20
370.7102784901295
 42
0.0
 10
263.1469207806433
 20
375.9491554937109
 42
0.2113087302336575
 10
268.3841560767023
 20
387.788196668046
 42
0.0
 10
268.3841560767023
 20
390.17628597026
 42
-0.1507946423587077
 10
269.7754604245285
 20
394.6846273256742
 42
0.1507946423587007
 10
272.3841560767023
 20
403.1377673670755
 42
0.0
 10
272.3841560767023
 20
418.7102784901281
 42
-0.1178625008509376
 10
273.6814533739996
 20
424.1372624460248
 42
0.1178625008509352
 10
276.3841560767023
 20
435.4434790208096
 42
0.0
 10
276.3841560767022
 20
453.605527027557
 42
0.1095178116832379
 10
274.0418507526186
 20
464.1709835710741
 42
0.0
 10
273.0909119146273
 20
466.210278490128
 42
0.0
 10
270.8841560767023
 20
466.2102784901281
 42
0.0
 10
272.2292351785452
 20
463.3257470475932
 42
-0.1095178116832433
 10
274.3841560767023
 20
453.6055270275569
 42
0.0
 97
       24
330
1ADA
330
1AD1
330
18C2
330
1AD0
330
1ADB
330
1ACE
330
1AD8
330
1AD7
330
1ACC
330
1AD4
330
1AD3
330
1ACA
330
1938
330
1931
330
18C1
330
1939
330
1937
330
1ACB
330
1AD2
330
1AD5
330
1ACD
330
1AD6
330
1AD9
330
1ACF
 92
        7
 72
     1
 73
     1
 93
       24
 10
160.3841560767023
 20
453.605527027557
 42
-0.1095178116832426
 10
162.5390769748593
 20
463.3257470475932
 42
0.0
 10
163.8841560767023
 20
466.2102784901279
 42
0.0
 10
161.6774002387772
 20
466.2102784901279
 42
0.0
 10
160.7264614007858
 20
464.1709835710741
 42
0.1095178116832367
 10
158.3841560767023
 20
453.605527027557
 42
0.0
 10
158.3841560767023
 20
435.4434790208096
 42
0.1178625008509361
 10
161.086858779405
 20
424.1372624460248
 42
-0.1178625008509355
 10
162.3841560767023
 20
418.7102784901281
 42
0.0
 10
162.3841560767023
 20
403.1377673670755
 42
0.1507946423587038
 10
164.9928517288761
 20
394.684627325674
 42
-0.150794642358704
 10
166.3841560767023
 20
390.1762859702598
 42
0.0
 10
166.3841560767023
 20
387.788196668046
 42
0.211308730233656
 10
171.6213913727612
 20
375.9491554937109
 42
0.0
 10
177.3841560767022
 20
370.710278490128
 42
0.0
 10
180.3573698261663
 20
370.7102784901281
 42
0.0
 10
172.9667369607541
 20
377.4290356405026
 42
-0.2113087302336606
 10
168.3841560767023
 20
387.788196668046
 42
0.0
 10
168.3841560767023
 20
390.17628597026
 42
0.1507946423587041
 10
166.6450256419197
 20
395.8117126645277
 42
-0.1507946423587038
 10
164.3841560767023
 20
403.1377673670756
 42
0.0
 10
164.3841560767023
 20
418.7100779594465
 42
0.117862500850934
 10
162.8706425631887
 20
425.041559241326
 42
-0.1178625008509353
 10
160.3841560767023
 20
435.443278490128
 42
0.0
 97
       24
330
1ADC
330
1AE7
330
18C2
330
1AE6
330
1ADD
330
1AE8
330
1ADE
330
1AE1
330
1AEA
330
1AE2
330
1AE5
330
1AEC
330
18F7
330
18F4
330
18C1
330
18F3
330
18FA
330
1AED
330
1AE4
330
1AE3
330
1AEB
330
1AE0
330
1ADF
330
1AE9
 75
     0
 76
     0
 52
45.0
 41
2.0
 77
     0
 78
     1
 53
45.0
 43
0.0
 44
0.0
 45
-1.414213562373094
 46
1.414213562373095
 79
     0
 47
0.4588223100335429
 98
        2
 10
275.1707024691941
 20
438.9217922675243
 10
159.4657026104341
 20
443.5100153017397
  0
TEXT
  5
1B67
330
1E
100
AcDbEntity
  8
TEXT
 62
     1
100
AcDbText
 10
212.5150682812095
 20
433.9919089629476
 30
0.0
 40
7.0
  1
DN100
 50
90.0
 41
0.8
  7
GREEKS
100
AcDbText
  0
HATCH
  5
1B94
330
1E
100
AcDbEntity
  8
SCHRAFF
100
AcDbHatch
 10
0.0
 20
0.0
 30
0.0
210
0.0
220
0.0
230
1.0
  2
NET
 70
     0
 71
     0
 91
        2
 92
        7
 72
     0
 73
     1
 93
        8
 10
266.3841560767022
 20
317.2102784901285
 10
253.8841560767024
 20
317.2102784901285
 10
253.8841560767024
 20
307.2102784901286
 10
256.7841560767024
 20
307.2102784901285
 10
261.4029582302194
 20
299.2102784901284
 10
268.3841560767022
 20
299.2102784901284
 10
268.3841560767023
 20
301.2102784901286
 10
266.3841560767023
 20
301.2102784901286
 97
        0
 92
        7
 72
     0
 73
     1
 93
        8
 10
180.8841560767022
 20
317.2102784901284
 10
168.3841560767023
 20
317.2102784901284
 10
168.3841560767023
 20
301.2102784901287
 10
166.3841560767023
 20
301.2102784901287
 10
166.3841560767023
 20
299.2102784901288
 10
173.3653539231854
 20
299.2102784901288
 10
177.9841560767022
 20
307.2102784901284
 10
180.8841560767023
 20
307.2102784901284
 97
        0
 75
     0
 76
     1
 52
45.0
 41
20.0
 77
     0
 78
     2
 53
45.0
 43
-7.61584392329766
 44
-20.66471556905714
 45
-1.767766952966368
 46
1.767766952966368
 79
     0
 53
135.0
 43
-7.61584392329766
 44
-20.66471556905714
 45
-1.767766952966368
 46
-1.767766952966368
 79
     0
 47
0.1839921830501558
 98
        2
 10
258.6839006870255
 20
310.9186548132992
 10
175.1010574839206
 20
312.5745841188209
  0
LINE
  5
1B95
330
1E
100
AcDbEntity
  8
STEMPEL
100
AcDbLine
 10
268.3841560767022
 20
299.2102784901284
 30
0.0
 11
253.8841560767024
 21
299.2102784901285
 31
0.0
  0
LINE
  5
1B96
330
1E
100
AcDbEntity
  8
STEMPEL
100
AcDbLine
 10
253.884156076702
 20
307.2102784901285
 30
0.0
 11
256.7841560767024
 21
307.2102784901285
 31
0.0
  0
LINE
  5
1B97
330
1E
100
AcDbEntity
  8
STEMPEL
100
AcDbLine
 10
256.7841560767024
 20
307.2102784901285
 30
0.0
 11
261.4029582302194
 21
299.2102784901284
 31
0.0
  0
LINE
  5
1B98
102
{ACAD_REACTORS
330
1BD0
102
}
330
1E
100
AcDbEntity
  8
STEMPEL
100
AcDbLine
 10
253.884156076702
 20
317.2102784901285
 30
0.0
 11
266.3841560767022
 21
317.2102784901285
 31
0.0
  0
LINE
  5
1B99
330
1E
100
AcDbEntity
  8
STEMPEL
100
AcDbLine
 10
180.8841560767023
 20
299.2102784901288
 30
0.0
 11
166.3841560767023
 21
299.2102784901288
 31
0.0
  0
LINE
  5
1B9A
330
1E
100
AcDbEntity
  8
STEMPEL
100
AcDbLine
 10
177.9841560767022
 20
307.2102784901284
 30
0.0
 11
180.8841560767025
 21
307.2102784901284
 31
0.0
  0
LINE
  5
1B9B
330
1E
100
AcDbEntity
  8
STEMPEL
100
AcDbLine
 10
177.9841560767023
 20
307.2102784901285
 30
0.0
 11
173.3653539231854
 21
299.2102784901287
 31
0.0
  0
LINE
  5
1B9C
102
{ACAD_REACTORS
330
1BD0
102
}
330
1E
100
AcDbEntity
  8
STEMPEL
100
AcDbLine
 10
168.3841560767023
 20
317.2102784901284
 30
0.0
 11
180.8841560767023
 21
317.2102784901284
 31
0.0
  0
HATCH
  5
1BD0
330
1E
100
AcDbEntity
  8
SCHRAFF
100
AcDbHatch
 10
0.0
 20
0.0
 30
0.0
210
0.0
220
0.0
230
1.0
  2
HONEY
 70
     0
 71
     1
 91
        2
 92
        7
 72
     1
 73
     1
 93
       22
 10
281.3841560767023
 20
452.2102784901279
 42
0.0
 10
276.3841560767023
 20
452.210278490128
 42
0.0
 10
276.3841560767023
 20
435.4434790208096
 42
-0.1178625008509382
 10
273.6814533739995
 20
424.1372624460246
 42
0.1178625008509338
 10
272.3841560767023
 20
418.7102784901279
 42
0.0
 10
272.3841560767023
 20
403.1377673670755
 42
-0.1507946423587077
 10
269.7754604245282
 20
394.6846273256738
 42
0.1507946423586964
 10
268.3841560767023
 20
390.1762859702598
 42
0.0
 10
268.3841560767023
 20
387.788196668046
 42
-0.2113087302336562
 10
263.1469207806434
 20
375.9491554937109
 42
0.0
 10
259.6039762968919
 20
372.7282968721187
 42
-0.7359693132214497
 10
256.7024672298832
 20
367.7887548609046
 42
0.0
 10
254.1980615598006
 20
357.0555877034081
 42
0.0573708028996809
 10
253.8841560767023
 20
354.3288323161316
 42
0.0
 10
253.8841560767023
 20
317.2102784901285
 42
0.0
 10
266.3841560767023
 20
317.2102784901285
 42
0.0
 10
266.3841560767023
 20
350.0133337673345
 42
-0.1396462061370765
 10
269.6862968590303
 20
361.6060064822919
 42
0.0
 10
273.7809455038894
 20
368.2102784901289
 42
0.0
 10
273.192642860686
 20
368.2102784901288
 42
0.0
 10
278.3822099109498
 20
376.5805479260379
 42
0.1396462061370727
 10
281.3841560767023
 20
387.1193413032717
 42
0.0
 97
       22
330
1949
330
1ACF
330
1AD9
330
1AD6
330
1ACD
330
1AD5
330
1AD2
330
1ACB
330
1937
330
1939
330
191C
330
191A
330
1922
330
190A
330
1B98
330
1924
330
1930
330
192E
330
192D
330
1919
330
1941
330
1911
 92
        7
 72
     1
 73
     1
 93
       22
 10
162.3841560767023
 20
403.1377673670755
 42
0.0
 10
162.3841560767023
 20
418.7102784901281
 42
0.1178625008509367
 10
161.086858779405
 20
424.1372624460248
 42
-0.1178625008509361
 10
158.3841560767023
 20
435.4434790208096
 42
0.0
 10
158.3841560767023
 20
452.2102784901281
 42
0.0
 10
153.3841560767023
 20
452.2102784901281
 42
0.0
 10
153.3841560767023
 20
387.1193413032717
 42
0.1396462061370725
 10
156.3861022424548
 20
376.5805479260379
 42
0.0
 10
161.5756692927187
 20
368.2102784901288
 42
0.0
 10
160.9873666495152
 20
368.2102784901288
 42
0.0
 10
165.0820152943744
 20
361.6060064822917
 42
-0.1396462061370757
 10
168.3841560767023
 20
350.0133337673343
 42
0.0
 10
168.3841560767023
 20
317.2102784901284
 42
0.0
 10
180.8841560767023
 20
317.2102784901284
 42
0.0
 10
180.8841560767023
 20
354.3288323161312
 42
0.0573708028996972
 10
180.5702505936039
 20
357.0555877034083
 42
0.0
 10
178.0658449235217
 20
367.7887548609027
 42
-0.735969313221224
 10
175.1643358565145
 20
372.728296872117
 42
0.0
 10
171.6213913727613
 20
375.9491554937109
 42
-0.2113087302336573
 10
166.3841560767023
 20
387.788196668046
 42
0.0
 10
166.3841560767023
 20
390.17628597026
 42
0.150794642358702
 10
164.9928517288762
 20
394.684627325674
 42
-0.1507946423587039
 97
       22
330
1AEA
330
1AE1
330
1ADE
330
1AE8
330
18D9
330
18CB
330
18D7
330
18D2
330
18D4
330
18ED
330
18EB
330
18DD
330
1B9C
330
18C6
330
18EF
330
18DB
330
18DC
330
18F4
330
18F7
330
1AEC
330
1AE5
330
1AE2
 75
     0
 76
     1
 52
0.0
 41
30.0
 77
     0
 78
     3
 53
0.0
 43
0.0
 44
0.0
 45
5.625
 46
3.247595249999999
 79
     2
 49
3.75
 49
-7.5
 53
120.0
 43
0.0
 44
0.0
 45
-5.624999987709673
 46
3.247595271287468
 79
     2
 49
3.75
 49
-7.5
 53
60.0
 43
0.0
 44
0.0
 45
0.0000000122903263
 46
6.495190521287468
 79
     2
 49
-7.5
 49
3.75
 47
0.3167675014732041
 98
        2
 10
278.5027351450281
 20
406.5653557276118
 10
157.1075945804214
 20
399.2797034783352
  0
TEXT
  5
1C5E
330
1E
100
AcDbEntity
  8
VOLL
100
AcDbText
 10
1870.648593592795
 20
67.57532600408513
 30
0.0
 40
3.6
  1

  7
GREEKS
100
AcDbText
  0
TEXT
  5
1C5F
330
1E
100
AcDbEntity
  8
VOLL
100
AcDbText
 10
2113.454130931157
 20
482.2161420946101
 30
0.0
 40
3.6
  1

  7
GREEKS
100
AcDbText
  0
TEXT
  5
1C60
330
1E
100
AcDbEntity
  8
VOLL
100
AcDbText
 10
2773.120552859996
 20
115.0372940264237
 30
0.0
 40
3.6
  1

  7
GREEKS
100
AcDbText
  0
TEXT
  5
1C61
330
1E
100
AcDbEntity
  8
VOLL
100
AcDbText
 10
2765.455999831321
 20
92.62964656950202
 30
0.0
 40
3.6
  1

  7
GREEKS
100
AcDbText
  0
ENDSEC
  0
SECTION
  2
OBJECTS
  0
DICTIONARY
  5
C
330
0
100
AcDbDictionary
281
     1
  3
ACAD_CIP_PREVIOUS_PRODUCT_INFO
350
1C31
  3
ACAD_COLOR
350
39F
  3
ACAD_DETAILVIEWSTYLE
350
1C2E
  3
ACAD_GROUP
350
D
  3
ACAD_LAYOUT
350
19
  3
ACAD_MATERIAL
350
39E
  3
ACAD_MLEADERSTYLE
350
1C29
  3
ACAD_MLINESTYLE
350
16
  3
ACAD_PLOTSETTINGS
350
18
  3
ACAD_PLOTSTYLENAME
350
E
  3
ACAD_SCALELIST
350
1C17
  3
ACAD_SECTIONVIEWSTYLE
350
1C2B
  3
ACAD_TABLESTYLE
350
1C15
  3
ACAD_VISUALSTYLE
350
1BFC
  3
ACDB_RECOMPOSE_DATA
350
1D6C
  3
AcDbVariableDictionary
350
31A
  3
AcDsDecomposeData
350
1D72
  0
DICTIONARY
  5
1C78
330
8
100
AcDbDictionary
280
     1
281
     1
  0
DICTIONARY
  5
1CC1
330
2
100
AcDbDictionary
280
     1
281
     1
  3
ACAD_LAYERSTATES
360
1CC2
  0
DICTIONARY
  5
1C65
330
10
100
AcDbDictionary
280
     1
281
     1
  3
ADSK_XREC_LAYER_RECONCILED
360
1C66
  0
DICTIONARY
  5
1C67
330
35
100
AcDbDictionary
280
     1
281
     1
  3
ADSK_XREC_LAYER_RECONCILED
360
1C68
  0
DICTIONARY
  5
1C69
330
36
100
AcDbDictionary
280
     1
281
     1
  3
ADSK_XREC_LAYER_RECONCILED
360
1C6A
  0
DICTIONARY
  5
1C6B
330
37
100
AcDbDictionary
280
     1
281
     1
  3
ADSK_XREC_LAYER_RECONCILED
360
1C6C
  0
DICTIONARY
  5
1C6D
330
38
100
AcDbDictionary
280
     1
281
     1
  3
ADSK_XREC_LAYER_RECONCILED
360
1C6E
  0
DICTIONARY
  5
1C6F
330
3A
100
AcDbDictionary
280
     1
281
     1
  3
ADSK_XREC_LAYER_RECONCILED
360
1C70
  0
DICTIONARY
  5
1C71
330
3B
100
AcDbDictionary
280
     1
281
     1
  3
ADSK_XREC_LAYER_RECONCILED
360
1C72
  0
DICTIONARY
  5
1C73
330
3C
100
AcDbDictionary
280
     1
281
     1
  3
ADSK_XREC_LAYER_RECONCILED
360
1C74
  0
DICTIONARY
  5
1C63
330
1E
100
AcDbDictionary
280
     1
281
     1
  3
ACAD_SORTENTS
360
1C64
  0
XRECORD
  5
1C31
102
{ACAD_REACTORS
330
C
102
}
330
C
100
AcDbXrecord
280
     1
300
ACD
300
2013
300
ACD_F_S
  0
DICTIONARY
  5
39F
102
{ACAD_REACTORS
330
C
102
}
330
C
100
AcDbDictionary
281
     1
  0
DICTIONARY
  5
1C2E
102
{ACAD_REACTORS
330
C
102
}
330
C
100
AcDbDictionary
281
     1
  3
Imperial24
350
1C2F
  0
DICTIONARY
  5
D
102
{ACAD_REACTORS
330
C
102
}
330
C
100
AcDbDictionary
281
     1
  0
DICTIONARY
  5
19
102
{ACAD_REACTORS
330
C
102
}
330
C
100
AcDbDictionary
281
     1
  3
Layout1
350
1D
  3
Model
350
21
  0
DICTIONARY
  5
39E
102
{ACAD_REACTORS
330
C
102
}
330
C
100
AcDbDictionary
281
     1
  3
ByBlock
350
1BEC
  3
ByLayer
350
1BE4
  3
Global
350
1BF4
  0
DICTIONARY
  5
1C29
102
{ACAD_REACTORS
330
C
102
}
330
C
100
AcDbDictionary
281
     1
  3
Standard
350
1C2A
  0
DICTIONARY
  5
16
102
{ACAD_REACTORS
330
C
102
}
330
C
100
AcDbDictionary
281
     1
  3
Standard
350
17
  0
DICTIONARY
  5
18
102
{ACAD_REACTORS
330
C
102
}
330
C
100
AcDbDictionary
281
     1
  0
ACDBDICTIONARYWDFLT
  5
E
102
{ACAD_REACTORS
330
C
102
}
330
C
100
AcDbDictionary
281
     1
  3
Normal
350
F
100
AcDbDictionaryWithDefault
340
F
  0
DICTIONARY
  5
1C17
102
{ACAD_REACTORS
330
C
102
}
330
C
100
AcDbDictionary
281
     1
  3
A0
350
1C18
  3
A1
350
1C19
  3
A2
350
1C1A
  3
A3
350
1C1B
  3
A4
350
1C1C
  3
A5
350
1C1D
  3
A6
350
1C1E
  3
A7
350
1C1F
  3
A8
350
1C20
  3
A9
350
1C21
  3
B0
350
1C22
  3
B1
350
1C23
  3
B2
350
1C24
  3
B3
350
1C25
  3
B4
350
1C26
  3
B5
350
1C27
  3
B6
350
1C28
  0
DICTIONARY
  5
1C2B
102
{ACAD_REACTORS
330
C
102
}
330
C
100
AcDbDictionary
281
     1
  3
Imperial24
350
1C2D
  0
DICTIONARY
  5
1C15
102
{ACAD_REACTORS
330
C
102
}
330
C
100
AcDbDictionary
281
     1
  3
Standard
350
1C16
  0
DICTIONARY
  5
1BFC
102
{ACAD_REACTORS
330
C
102
}
330
C
100
AcDbDictionary
281
     1
  3
2dWireframe
350
1C02
  3
Basic
350
1C01
  3
Brighten
350
1C08
  3
ColorChange
350
1C0C
  3
Conceptual
350
1C05
  3
Dim
350
1C07
  3
EdgeColorOff
350
1C14
  3
Facepattern
350
1C0B
  3
Flat
350
1BFD
  3
FlatWithEdges
350
1BFE
  3
Gouraud
350
1BFF
  3
GouraudWithEdges
350
1C00
  3
Hidden
350
1C04
  3
JitterOff
350
1C12
  3
Linepattern
350
1C0A
  3
OverhangOff
350
1C13
  3
Realistic
350
1C06
  3
Shaded
350
1C11
  3
Shaded with edges
350
1C10
  3
Shades of Gray
350
1C0D
  3
Sketchy
350
1C0E
  3
Thicken
350
1C09
  3
Wireframe
350
1C03
  3
X-Ray
350
1C0F
  0
XRECORD
  5
1D6C
102
{ACAD_REACTORS
330
C
102
}
330
C
100
AcDbXrecord
280
     1
 90
        1
330
1C16
  0
DICTIONARY
  5
31A
102
{ACAD_REACTORS
330
C
102
}
330
C
100
AcDbDictionary
281
     1
  3
CANNOSCALE
350
1CB4
  3
CMLEADERSTYLE
350
1CB1
  3
CTABLESTYLE
350
1CB0
  3
CVIEWDETAILSTYLE
350
1CB2
  3
CVIEWSECTIONSTYLE
350
1CB3
  3
DIMASSOC
350
696
  3
PROJECTNAME
350
697
  3
SORTENTS
350
31B
  3
XCLIPFRAME
350
1D6A
  0
DICTIONARY
  5
1D72
102
{ACAD_REACTORS
330
C
102
}
330
C
100
AcDbDictionary
281
     1
  3
AcDsRecords
350
1D74
  3
AcDsSchemas
350
1D73
1001
ACAD
1070
     2
  0
DICTIONARY
  5
1CC2
102
{ACAD_REACTORS
330
1CC1
102
}
330
1CC1
100
AcDbDictionary
281
     1
  0
XRECORD
  5
1C66
102
{ACAD_REACTORS
330
1C65
102
}
330
1C65
100
AcDbXrecord
280
     1
290
     1
  0
XRECORD
  5
1C68
102
{ACAD_REACTORS
330
1C67
102
}
330
1C67
100
AcDbXrecord
280
     1
290
     1
  0
XRECORD
  5
1C6A
102
{ACAD_REACTORS
330
1C69
102
}
330
1C69
100
AcDbXrecord
280
     1
290
     1
  0
XRECORD
  5
1C6C
102
{ACAD_REACTORS
330
1C6B
102
}
330
1C6B
100
AcDbXrecord
280
     1
290
     1
  0
XRECORD
  5
1C6E
102
{ACAD_REACTORS
330
1C6D
102
}
330
1C6D
100
AcDbXrecord
280
     1
290
     1
  0
XRECORD
  5
1C70
102
{ACAD_REACTORS
330
1C6F
102
}
330
1C6F
100
AcDbXrecord
280
     1
290
     1
  0
XRECORD
  5
1C72
102
{ACAD_REACTORS
330
1C71
102
}
330
1C71
100
AcDbXrecord
280
     1
290
     1
  0
XRECORD
  5
1C74
102
{ACAD_REACTORS
330
1C73
102
}
330
1C73
100
AcDbXrecord
280
     1
290
     1
  0
SORTENTSTABLE
  5
1C64
102
{ACAD_REACTORS
330
1C63
102
}
330
1C63
100
AcDbSortentsTable
330
1E
331
1F7
  5
1F7
331
1F3
  5
1F3
331
1EF
  5
1EF
331
1C61
  5
1C61
331
54A
  5
54A
331
1EB
  5
1EB
331
1909
  5
1909
331
18CA
  5
18CA
331
1AC5
  5
1AC5
331
1B4
  5
1B4
331
1B0
  5
1B0
331
1DF
  5
1DF
331
1DB
  5
1DB
331
18C6
  5
18C6
331
193C
  5
193C
331
18C2
  5
18C2
331
18F9
  5
18F9
331
1938
  5
1938
331
18BA
  5
18BA
331
1930
  5
1930
331
1AC
  5
1AC
331
1A8
  5
1A8
331
1A4
  5
1A4
331
1A0
  5
1A0
331
1AEC
  5
1AEC
331
1AE8
  5
1AE8
331
1B9B
  5
1B9B
331
2EE
  5
2EE
331
1D7
  5
1D7
331
1B97
  5
1B97
331
1D3
  5
1D3
331
6FD
  5
6FD
331
1CF
  5
1CF
331
26A
  5
26A
331
1CB
  5
1CB
331
18B6
  5
18B6
331
18ED
  5
18ED
331
18B2
  5
18B2
331
1924
  5
1924
331
1AE4
  5
1AE4
331
1AE0
  5
1AE0
331
1ADC
  5
1ADC
331
1AD8
  5
1AD8
331
1C7
  5
1C7
331
1C3
  5
1C3
331
1BF
  5
1BF
331
1FA
  5
1FA
331
1BB
  5
1BB
331
191C
  5
191C
331
18DD
  5
18DD
331
1918
  5
1918
331
18D9
  5
18D9
331
1910
  5
1910
331
18D1
  5
18D1
331
1AD4
  5
1AD4
331
1AD0
  5
1AD0
331
1ACC
  5
1ACC
331
1F6
  5
1F6
331
1F2
  5
1F2
331
1EE
  5
1EE
331
1C60
  5
1C60
331
1EA
  5
1EA
331
18C9
  5
18C9
331
1900
  5
1900
331
1B7
  5
1B7
331
1AC4
  5
1AC4
331
1B3
  5
1B3
331
1B67
  5
1B67
331
1E6
  5
1E6
331
1E2
  5
1E2
331
1DE
  5
1DE
331
1DA
  5
1DA
331
18C5
  5
18C5
331
193B
  5
193B
331
18C1
  5
18C1
331
18F8
  5
18F8
331
1937
  5
1937
331
18B9
  5
18B9
331
18F4
  5
18F4
331
1AF
  5
1AF
331
18F0
  5
18F0
331
1AB
  5
1AB
331
1A7
  5
1A7
331
1A3
  5
1A3
331
1AEB
  5
1AEB
331
1B9A
  5
1B9A
331
2ED
  5
2ED
331
1D6
  5
1D6
331
1B96
  5
1B96
331
1D2
  5
1D2
331
6FC
  5
6FC
331
1CE
  5
1CE
331
1CA
  5
1CA
331
6F0
  5
6F0
331
192F
  5
192F
331
18EC
  5
18EC
331
18B1
  5
18B1
331
1923
  5
1923
331
19F
  5
19F
331
1AE7
  5
1AE7
331
1AE3
  5
1AE3
331
1ADF
  5
1ADF
331
1ADB
  5
1ADB
331
1A74
  5
1A74
331
1C6
  5
1C6
331
1C2
  5
1C2
331
1BE
  5
1BE
331
1F9
  5
1F9
331
1BA
  5
1BA
331
558
  5
558
331
191B
  5
191B
331
18DC
  5
18DC
331
1917
  5
1917
331
18D4
  5
18D4
331
18D0
  5
18D0
331
1AD7
  5
1AD7
331
1AD3
  5
1AD3
331
1ACF
  5
1ACF
331
1ACB
  5
1ACB
331
1F5
  5
1F5
331
1F1
  5
1F1
331
1ED
  5
1ED
331
1E9
  5
1E9
331
190F
  5
190F
331
18CC
  5
18CC
331
1942
  5
1942
331
18C8
  5
18C8
331
1B6
  5
1B6
331
1B2
  5
1B2
331
1C5F
  5
1C5F
331
1E5
  5
1E5
331
1E1
  5
1E1
331
1DD
  5
1DD
331
1D9
  5
1D9
331
18FF
  5
18FF
331
193A
  5
193A
331
18FB
  5
18FB
331
18C0
  5
18C0
331
18F7
  5
18F7
331
18BC
  5
18BC
331
1932
  5
1932
331
18F3
  5
18F3
331
18B8
  5
18B8
331
1AE
  5
1AE
331
1AA
  5
1AA
331
1B26
  5
1B26
331
1A6
  5
1A6
331
1A2
  5
1A2
331
1AEA
  5
1AEA
331
1B99
  5
1B99
331
1D5
  5
1D5
331
1B95
  5
1B95
331
1D1
  5
1D1
331
6FB
  5
6FB
331
1CD
  5
1CD
331
1C9
  5
1C9
331
192E
  5
192E
331
18EF
  5
18EF
331
18B4
  5
18B4
331
18EB
  5
18EB
331
18B0
  5
18B0
331
1922
  5
1922
331
1AE6
  5
1AE6
331
1AE2
  5
1AE2
331
1ADE
  5
1ADE
331
1ADA
  5
1ADA
331
1C1
  5
1C1
331
1FC
  5
1FC
331
1BD
  5
1BD
331
1F8
  5
1F8
331
1B9
  5
1B9
331
191A
  5
191A
331
18DB
  5
18DB
331
18D7
  5
18D7
331
1916
  5
1916
331
1912
  5
1912
331
18D3
  5
18D3
331
1AD6
  5
1AD6
331
1AD2
  5
1AD2
331
1ACE
  5
1ACE
331
1ACA
  5
1ACA
331
1949
  5
1949
331
1F4
  5
1F4
331
1F0
  5
1F0
331
1EC
  5
1EC
331
1E8
  5
1E8
331
190A
  5
190A
331
18CB
  5
18CB
331
1941
  5
1941
331
1AC6
  5
1AC6
331
1B5
  5
1B5
331
1B1
  5
1B1
331
1C5E
  5
1C5E
331
1E4
  5
1E4
331
1E0
  5
1E0
331
1BD0
  5
1BD0
331
1DC
  5
1DC
331
1D8
  5
1D8
331
18C7
  5
18C7
331
193D
  5
193D
331
18C3
  5
18C3
331
18FA
  5
18FA
331
1939
  5
1939
331
18BB
  5
18BB
331
1931
  5
1931
331
1AD
  5
1AD
331
1A9
  5
1A9
331
1A5
  5
1A5
331
1A1
  5
1A1
331
1AED
  5
1AED
331
1AE9
  5
1AE9
331
1B9C
  5
1B9C
331
1B98
  5
1B98
331
1D4
  5
1D4
331
1B94
  5
1B94
331
1D0
  5
1D0
331
6FA
  5
6FA
331
1CC
  5
1CC
331
1C8
  5
1C8
331
192D
  5
192D
331
18EE
  5
18EE
331
18B3
  5
18B3
331
1921
  5
1921
331
18E2
  5
18E2
331
1AE5
  5
1AE5
331
1AE1
  5
1AE1
331
1ADD
  5
1ADD
331
1AD9
  5
1AD9
331
24B
  5
24B
331
1C0
  5
1C0
331
1FB
  5
1FB
331
1BC
  5
1BC
331
1B8
  5
1B8
331
191D
  5
191D
331
18DE
  5
18DE
331
1919
  5
1919
331
18DA
  5
18DA
331
18D6
  5
18D6
331
1911
  5
1911
331
18D2
  5
18D2
331
1AD5
  5
1AD5
331
1AD1
  5
1AD1
331
1ACD
  5
1ACD
  0
ACDBDETAILVIEWSTYLE
  5
1C2F
102
{ACAD_REACTORS
330
1C2E
102
}
330
1C2E
100
AcDbModelDocViewStyle
 70
     0
  3
Imperial24
290
     0
100
AcDbDetailViewStyle
 70
     0
 71
     0
 90
        3
 71
     1
340
11
 62
   256
 40
0.24
340
0
 62
   256
 40
0.24
300

 40
0.36
280
     3
 71
     2
340
15
 90
       25
 62
   256
 71
     3
340
11
 62
   256
 40
0.24
 90
        1
 40
0.75
 90
        1
300
%<\AcVar ViewType \f "%tc1">% %<\AcVar ViewDetailId>%\PVARIA %<\AcVar ViewScale \f "%sn">%
 71
     4
340
15
 90
       25
 62
   256
340
15
 90
       25
 62
   256
280
     0
  0
LAYOUT
  5
1D
102
{ACAD_REACTORS
330
19
102
}
330
19
100
AcDbPlotSettings
  1

  2
Tektronix Phaser 740
  4

  6

 40
0.0
 41
0.0
 42
0.0
 43
0.0
 44
0.0
 45
0.0
 46
0.0
 47
0.0
 48
0.0
 49
0.0
140
0.0
141
0.0
142
1.0
143
1.0
 70
   688
 72
     0
 73
     0
 74
     5
  7
monochrome.ctb
 75
    16
147
1.0
 76
     0
 77
     2
 78
   300
148
0.0
149
0.0
100
AcDbLayout
  1
Layout1
 70
     0
 71
     1
 10
0.0
 20
0.0
 11
12.0
 21
9.0
 12
0.0
 22
0.0
 32
0.0
 14
1.000000000000000E+20
 24
1.000000000000000E+20
 34
1.000000000000000E+20
 15
-1.000000000000000E+20
 25
-1.000000000000000E+20
 35
-1.000000000000000E+20
146
0.0
 13
0.0
 23
0.0
 33
0.0
 16
1.0
 26
0.0
 36
0.0
 17
0.0
 27
1.0
 37
0.0
 76
     0
330
1A
  0
LAYOUT
  5
21
102
{ACAD_XDICTIONARY
360
1CD2
102
}
102
{ACAD_REACTORS
330
19
102
}
330
19
100
AcDbPlotSettings
  1

  2
none_device
  4
Letter_(8.50_x_11.00_Inches)
  6

 40
6.349999904632568
 41
6.349999904632568
 42
6.350006103515625
 43
6.350006103515625
 44
215.8999938964844
 45
279.3999938964844
 46
0.0
 47
0.0
 48
0.0
 49
0.0
140
0.0
141
0.0
142
1.0
143
1.0
 70
 11952
 72
     0
 73
     1
 74
     0
  7
monochrome.ctb
 75
     0
147
1.0
 76
     0
 77
     2
 78
   300
148
-427.6236799849804
149
44.87778572714498
100
AcDbLayout
  1
Model
 70
     1
 71
     0
 10
0.0
 20
0.0
 11
12.0
 21
9.0
 12
0.0
 22
0.0
 32
0.0
 14
0.0
 24
0.0
 34
0.0
 15
0.0
 25
0.0
 35
0.0
146
0.0
 13
0.0
 23
0.0
 33
0.0
 16
1.0
 26
0.0
 36
0.0
 17
0.0
 27
1.0
 37
0.0
 76
     0
330
1E
331
1BDB
  0
MATERIAL
  5
1BEC
102
{ACAD_XDICTIONARY
360
1BED
102
}
102
{ACAD_REACTORS
330
39E
102
}
330
39E
100
AcDbMaterial
  1
ByBlock
 72
     0
 43
0.0208333333333333
 43
0.0
 43
0.0
 43
0.0
 43
0.0
 43
0.0208333333333333
 43
0.0
 43
0.0
 43
0.0
 43
0.0
 43
1.0
 43
0.0
 43
0.0
 43
0.0
 43
0.0
 43
1.0
 77
     0
 47
0.0208333333333333
 47
0.0
 47
0.0
 47
0.0
 47
0.0
 47
0.0208333333333333
 47
0.0
 47
0.0
 47
0.0
 47
0.0
 47
1.0
 47
0.0
 47
0.0
 47
0.0
 47
0.0
 47
1.0
171
     0
 49
0.0208333333333333
 49
0.0
 49
0.0
 49
0.0
 49
0.0
 49
0.0208333333333333
 49
0.0
 49
0.0
 49
0.0
 49
0.0
 49
1.0
 49
0.0
 49
0.0
 49
0.0
 49
0.0
 49
1.0
175
     0
142
0.0208333333333333
142
0.0
142
0.0
142
0.0
142
0.0
142
0.0208333333333333
142
0.0
142
0.0
142
0.0
142
0.0
142
1.0
142
0.0
142
0.0
142
0.0
142
0.0
142
1.0
179
     0
144
0.0208333333333333
144
0.0
144
0.0
144
0.0
144
0.0
144
0.0208333333333333
144
0.0
144
0.0
144
0.0
144
0.0
144
1.0
144
0.0
144
0.0
144
0.0
144
0.0
144
1.0
147
0.0208333333333333
147
0.0
147
0.0
147
0.0
147
0.0
147
0.0208333333333333
147
0.0
147
0.0
147
0.0
147
0.0
147
1.0
147
0.0
147
0.0
147
0.0
147
0.0
147
1.0
  0
MATERIAL
  5
1BE4
102
{ACAD_XDICTIONARY
360
1BE5
102
}
102
{ACAD_REACTORS
330
39E
102
}
330
39E
100
AcDbMaterial
  1
ByLayer
 72
     0
 43
0.0208333333333333
 43
0.0
 43
0.0
 43
0.0
 43
0.0
 43
0.0208333333333333
 43
0.0
 43
0.0
 43
0.0
 43
0.0
 43
1.0
 43
0.0
 43
0.0
 43
0.0
 43
0.0
 43
1.0
 77
     0
 47
0.0208333333333333
 47
0.0
 47
0.0
 47
0.0
 47
0.0
 47
0.0208333333333333
 47
0.0
 47
0.0
 47
0.0
 47
0.0
 47
1.0
 47
0.0
 47
0.0
 47
0.0
 47
0.0
 47
1.0
171
     0
 49
0.0208333333333333
 49
0.0
 49
0.0
 49
0.0
 49
0.0
 49
0.0208333333333333
 49
0.0
 49
0.0
 49
0.0
 49
0.0
 49
1.0
 49
0.0
 49
0.0
 49
0.0
 49
0.0
 49
1.0
175
     0
142
0.0208333333333333
142
0.0
142
0.0
142
0.0
142
0.0
142
0.0208333333333333
142
0.0
142
0.0
142
0.0
142
0.0
142
1.0
142
0.0
142
0.0
142
0.0
142
0.0
142
1.0
179
     0
144
0.0208333333333333
144
0.0
144
0.0
144
0.0
144
0.0
144
0.0208333333333333
144
0.0
144
0.0
144
0.0
144
0.0
144
1.0
144
0.0
144
0.0
144
0.0
144
0.0
144
1.0
147
0.0208333333333333
147
0.0
147
0.0
147
0.0
147
0.0
147
0.0208333333333333
147
0.0
147
0.0
147
0.0
147
0.0
147
1.0
147
0.0
147
0.0
147
0.0
147
0.0
147
1.0
  0
MATERIAL
  5
1BF4
102
{ACAD_XDICTIONARY
360
1BF5
102
}
102
{ACAD_REACTORS
330
39E
102
}
330
39E
100
AcDbMaterial
  1
Global
 72
     0
 43
0.0208333333333333
 43
0.0
 43
0.0
 43
0.0
 43
0.0
 43
0.0208333333333333
 43
0.0
 43
0.0
 43
0.0
 43
0.0
 43
1.0
 43
0.0
 43
0.0
 43
0.0
 43
0.0
 43
1.0
 77
     0
 47
0.0208333333333333
 47
0.0
 47
0.0
 47
0.0
 47
0.0
 47
0.0208333333333333
 47
0.0
 47
0.0
 47
0.0
 47
0.0
 47
1.0
 47
0.0
 47
0.0
 47
0.0
 47
0.0
 47
1.0
171
     0
 49
0.0208333333333333
 49
0.0
 49
0.0
 49
0.0
 49
0.0
 49
0.0208333333333333
 49
0.0
 49
0.0
 49
0.0
 49
0.0
 49
1.0
 49
0.0
 49
0.0
 49
0.0
 49
0.0
 49
1.0
175
     0
142
0.0208333333333333
142
0.0
142
0.0
142
0.0
142
0.0
142
0.0208333333333333
142
0.0
142
0.0
142
0.0
142
0.0
142
1.0
142
0.0
142
0.0
142
0.0
142
0.0
142
1.0
179
     0
144
0.0208333333333333
144
0.0
144
0.0
144
0.0
144
0.0
144
0.0208333333333333
144
0.0
144
0.0
144
0.0
144
0.0
144
1.0
144
0.0
144
0.0
144
0.0
144
0.0
144
1.0
147
0.0208333333333333
147
0.0
147
0.0
147
0.0
147
0.0
147
0.0208333333333333
147
0.0
147
0.0
147
0.0
147
0.0
147
1.0
147
0.0
147
0.0
147
0.0
147
0.0
147
1.0
  0
MLEADERSTYLE
  5
1C2A
102
{ACAD_XDICTIONARY
360
1DA9
102
}
102
{ACAD_REACTORS
330
1C29
102
}
330
1C29
100
AcDbMLeaderStyle
170
     2
171
     1
172
     0
 90
        2
 40
0.0
 41
0.0
173
     1
 91
-1056964608
340
13
 92
       -2
290
     1
 42
0.09
291
     1
 43
0.36
  3
Standard
 44
0.18
300

342
11
174
     1
178
     6
175
     1
176
     0
 93
-1056964608
 45
0.18
292
     0
297
     0
 46
0.18
 94
-1056964608
 47
1.0
 49
1.0
140
1.0
293
     1
141
0.0
294
     1
177
     0
142
1.0
295
     0
296
     0
143
0.125
1001
ACAD_MLEADERVER
1070
     2
  0
MLINESTYLE
  5
17
102
{ACAD_REACTORS
330
16
102
}
330
16
100
AcDbMlineStyle
  2
STANDARD
 70
     0
  3

 62
   256
 51
90.0
 52
90.0
 71
     2
 49
0.5
 62
   256
  6
BYLAYER
 49
-0.5
 62
   256
  6
BYLAYER
  0
ACDBPLACEHOLDER
  5
F
102
{ACAD_REACTORS
330
E
102
}
330
E
  0
SCALE
  5
1C18
102
{ACAD_REACTORS
330
1C17
102
}
330
1C17
100
AcDbScale
 70
     0
300
1:1
140
1.0
141
1.0
290
     1
  0
SCALE
  5
1C19
102
{ACAD_REACTORS
330
1C17
102
}
330
1C17
100
AcDbScale
 70
     0
300
1/128" = 1'-0"
140
0.0078125
141
12.0
290
     0
  0
SCALE
  5
1C1A
102
{ACAD_REACTORS
330
1C17
102
}
330
1C17
100
AcDbScale
 70
     0
300
1/64" = 1'-0"
140
0.015625
141
12.0
290
     0
  0
SCALE
  5
1C1B
102
{ACAD_REACTORS
330
1C17
102
}
330
1C17
100
AcDbScale
 70
     0
300
1/32" = 1'-0"
140
0.03125
141
12.0
290
     0
  0
SCALE
  5
1C1C
102
{ACAD_REACTORS
330
1C17
102
}
330
1C17
100
AcDbScale
 70
     0
300
1/16" = 1'-0"
140
0.0625
141
12.0
290
     0
  0
SCALE
  5
1C1D
102
{ACAD_REACTORS
330
1C17
102
}
330
1C17
100
AcDbScale
 70
     0
300
3/32" = 1'-0"
140
0.09375
141
12.0
290
     0
  0
SCALE
  5
1C1E
102
{ACAD_REACTORS
330
1C17
102
}
330
1C17
100
AcDbScale
 70
     0
300
1/8" = 1'-0"
140
0.125
141
12.0
290
     0
  0
SCALE
  5
1C1F
102
{ACAD_REACTORS
330
1C17
102
}
330
1C17
100
AcDbScale
 70
     0
300
3/16" = 1'-0"
140
0.1875
141
12.0
290
     0
  0
SCALE
  5
1C20
102
{ACAD_REACTORS
330
1C17
102
}
330
1C17
100
AcDbScale
 70
     0
300
1/4" = 1'-0"
140
0.25
141
12.0
290
     0
  0
SCALE
  5
1C21
102
{ACAD_REACTORS
330
1C17
102
}
330
1C17
100
AcDbScale
 70
     0
300
3/8" = 1'-0"
140
0.375
141
12.0
290
     0
  0
SCALE
  5
1C22
102
{ACAD_REACTORS
330
1C17
102
}
330
1C17
100
AcDbScale
 70
     0
300
1/2" = 1'-0"
140
0.5
141
12.0
290
     0
  0
SCALE
  5
1C23
102
{ACAD_REACTORS
330
1C17
102
}
330
1C17
100
AcDbScale
 70
     0
300
3/4" = 1'-0"
140
0.75
141
12.0
290
     0
  0
SCALE
  5
1C24
102
{ACAD_REACTORS
330
1C17
102
}
330
1C17
100
AcDbScale
 70
     0
300
1" = 1'-0"
140
1.0
141
12.0
290
     0
  0
SCALE
  5
1C25
102
{ACAD_REACTORS
330
1C17
102
}
330
1C17
100
AcDbScale
 70
     0
300
1-1/2" = 1'-0"
140
1.5
141
12.0
290
     0
  0
SCALE
  5
1C26
102
{ACAD_REACTORS
330
1C17
102
}
330
1C17
100
AcDbScale
 70
     0
300
3" = 1'-0"
140
3.0
141
12.0
290
     0
  0
SCALE
  5
1C27
102
{ACAD_REACTORS
330
1C17
102
}
330
1C17
100
AcDbScale
 70
     0
300
6" = 1'-0"
140
6.0
141
12.0
290
     0
  0
SCALE
  5
1C28
102
{ACAD_REACTORS
330
1C17
102
}
330
1C17
100
AcDbScale
 70
     0
300
1'-0" = 1'-0"
140
12.0
141
12.0
290
     0
  0
ACDBSECTIONVIEWSTYLE
  5
1C2D
102
{ACAD_REACTORS
330
1C2B
102
}
330
1C2B
100
AcDbModelDocViewStyle
 70
     0
  3
Imperial24
290
     0
100
AcDbSectionViewStyle
 70
     0
 71
     0
 90
       78
 71
     1
340
11
 62
   256
 40
0.24
340
0
340
0
 62
   256
 40
0.24
300
I, O, Q, S, X, Z
 40
0.48
 90
        3
 40
0.18
 90
        1
 71
     2
340
1C2C
 90
       25
 62
   256
340
15
 90
       50
 62
   256
 40
0.24
 40
0.0
 40
0.24
 71
     3
340
11
 62
   256
 40
0.24
 90
        1
 40
0.75
 90
        1
300
%<\AcVar ViewType \f "%tc1">% %<\AcVar ViewSectionStartId>%-%<\AcVar ViewSectionEndId>%\PVARIA %<\AcVar ViewScale \f "%sn">%
 71
     4
 62
   256
 62
   257
300
ANSI31
 40
1.0
 90
        0
290
     0
290
     0
 90
        6
 40
0.0
 40
1.570796326794896
 40
0.2617993877991494
 40
1.308996938995747
 40
-0.2617993877991494
 40
1.832595714594046
  0
TABLESTYLE
  5
1C16
102
{ACAD_XDICTIONARY
360
1C75
102
}
102
{ACAD_REACTORS
330
1C15
102
}
330
1C15
100
AcDbTableStyle
  3
Standard
 70
     0
 71
     0
 40
0.06
 41
0.06
280
     0
281
     0
  7
STANDARD
140
0.18
170
     2
 62
     0
 63
     7
283
     0
274
    -2
284
     1
 64
     0
275
    -2
285
     1
 65
     0
276
    -2
286
     1
 66
     0
277
    -2
287
     1
 67
     0
278
    -2
288
     1
 68
     0
279
    -2
289
     1
 69
     0
  7
STANDARD
140
0.25
170
     5
 62
     0
 63
     7
283
     0
274
    -2
284
     1
 64
     0
275
    -2
285
     1
 65
     0
276
    -2
286
     1
 66
     0
277
    -2
287
     1
 67
     0
278
    -2
288
     1
 68
     0
279
    -2
289
     1
 69
     0
  7
STANDARD
140
0.18
170
     5
 62
     0
 63
     7
283
     0
274
    -2
284
     1
 64
     0
275
    -2
285
     1
 65
     0
276
    -2
286
     1
 66
     0
277
    -2
287
     1
 67
     0
278
    -2
288
     1
 68
     0
279
    -2
289
     1
 69
     0
  0
VISUALSTYLE
  5
1C02
102
{ACAD_XDICTIONARY
360
1D82
102
}
102
{ACAD_REACTORS
330
1BFC
102
}
330
1BFC
100
AcDbVisualStyle
  2
2dWireframe
 70
     4
 71
     0
 72
     2
 73
     0
 90
        0
 40
-0.6
 41
-30.0
 62
     5
 63
     7
421
 16777215
 74
     1
 91
        4
 64
     7
 65
   257
 75
     1
175
     1
 42
1.0
 92
        0
 66
   257
 43
1.0
 76
     1
 77
     6
 78
     2
 67
     7
 79
     5
170
     0
171
     0
290
     0
174
     0
 93
        1
 44
0.0
173
     0
291
     0
 45
0.0
1001
ACAD
1000
AcDbSavedByObjectVersion
1070
     0
  0
VISUALSTYLE
  5
1C01
102
{ACAD_XDICTIONARY
360
1D80
102
}
102
{ACAD_REACTORS
330
1BFC
102
}
330
1BFC
100
AcDbVisualStyle
  2
Basic
 70
     7
 71
     1
 72
     0
 73
     1
 90
        0
 40
-0.6
 41
-30.0
 62
     5
 63
     7
421
 16777215
 74
     0
 91
        4
 64
     7
 65
   257
 75
     1
175
     1
 42
1.0
 92
        8
 66
     7
 43
1.0
 76
     1
 77
     6
 78
     2
 67
     7
 79
     5
170
     0
171
     0
290
     0
174
     0
 93
        1
 44
0.0
173
     0
291
     1
 45
0.0
1001
ACAD
1000
AcDbSavedByObjectVersion
1070
     0
  0
VISUALSTYLE
  5
1C08
102
{ACAD_XDICTIONARY
360
1D8E
102
}
102
{ACAD_REACTORS
330
1BFC
102
}
330
1BFC
100
AcDbVisualStyle
  2
Brighten
 70
    12
 71
     2
 72
     2
 73
     0
 90
        0
 40
-0.6
 41
-30.0
 62
     5
 63
     7
421
 16777215
 74
     1
 91
        4
 64
     7
 65
   257
 75
     1
175
     1
 42
1.0
 92
        8
 66
     7
 43
1.0
 76
     1
 77
     6
 78
     2
 67
     7
 79
     5
170
     0
171
     0
290
     0
174
     0
 93
        1
 44
50.0
173
     0
291
     1
 45
0.0
1001
ACAD
1000
AcDbSavedByObjectVersion
1070
     0
  0
VISUALSTYLE
  5
1C0C
102
{ACAD_XDICTIONARY
360
1D96
102
}
102
{ACAD_REACTORS
330
1BFC
102
}
330
1BFC
100
AcDbVisualStyle
  2
ColorChange
 70
    16
 71
     2
 72
     2
 73
     3
 90
        0
 40
-0.6
 41
-30.0
 62
     5
 63
     8
421
  8421504
 74
     1
 91
        4
 64
     7
 65
   257
 75
     1
175
     1
 42
1.0
 92
        8
 66
     8
424
  8421504
 43
1.0
 76
     1
 77
     6
 78
     2
 67
     7
 79
     5
170
     0
171
     0
290
     0
174
     0
 93
        1
 44
0.0
173
     0
291
     1
 45
0.0
1001
ACAD
1000
AcDbSavedByObjectVersion
1070
     0
  0
VISUALSTYLE
  5
1C05
102
{ACAD_XDICTIONARY
360
1D88
102
}
102
{ACAD_REACTORS
330
1BFC
102
}
330
1BFC
100
AcDbVisualStyle
  2
Conceptual
 70
     9
 71
     3
 72
     2
 73
     0
 90
        0
 40
-0.6
 41
-30.0
 62
     5
 63
     7
421
 16777215
 74
     2
 91
        2
 64
     7
 65
   257
 75
     1
175
     1
 42
179.0
 92
        8
 66
     7
 43
1.0
 76
     1
 77
     6
 78
     2
 67
     7
 79
     3
170
     0
171
     0
290
     0
174
     0
 93
        1
 44
0.0
173
     0
291
     0
 45
0.0
1001
ACAD
1000
AcDbSavedByObjectVersion
1070
     0
  0
VISUALSTYLE
  5
1C07
102
{ACAD_XDICTIONARY
360
1D8C
102
}
102
{ACAD_REACTORS
330
1BFC
102
}
330
1BFC
100
AcDbVisualStyle
  2
Dim
 70
    11
 71
     2
 72
     2
 73
     0
 90
        0
 40
-0.6
 41
-30.0
 62
     5
 63
     7
421
 16777215
 74
     1
 91
        4
 64
     7
 65
   257
 75
     1
175
     1
 42
1.0
 92
        8
 66
     7
 43
1.0
 76
     1
 77
     6
 78
     2
 67
     7
 79
     5
170
     0
171
     0
290
     0
174
     0
 93
        1
 44
-50.0
173
     0
291
     1
 45
0.0
1001
ACAD
1000
AcDbSavedByObjectVersion
1070
     0
  0
VISUALSTYLE
  5
1C14
102
{ACAD_XDICTIONARY
360
1DA6
102
}
102
{ACAD_REACTORS
330
1BFC
102
}
330
1BFC
100
AcDbVisualStyle
  2
EdgeColorOff
 70
    22
 71
     2
 72
     2
 73
     0
 90
        0
 40
-0.6
 41
-30.0
 62
     5
 63
     7
421
 16777215
 74
     1
 91
        4
 64
     7
 65
   257
 75
     1
175
     1
 42
1.0
 92
        8
 66
     7
 43
1.0
 76
     1
 77
     6
 78
     2
 67
     7
 79
     5
170
     0
171
     0
290
     0
174
     0
 93
        1
 44
0.0
173
     0
291
     1
 45
0.0
1001
ACAD
1000
AcDbSavedByObjectVersion
1070
     0
  0
VISUALSTYLE
  5
1C0B
102
{ACAD_XDICTIONARY
360
1D94
102
}
102
{ACAD_REACTORS
330
1BFC
102
}
330
1BFC
100
AcDbVisualStyle
  2
Facepattern
 70
    15
 71
     2
 72
     2
 73
     0
 90
        0
 40
-0.6
 41
-30.0
 62
     5
 63
     7
421
 16777215
 74
     1
 91
        4
 64
     7
 65
   257
 75
     1
175
     1
 42
1.0
 92
        8
 66
     7
 43
1.0
 76
     1
 77
     6
 78
     2
 67
     7
 79
     5
170
     0
171
     0
290
     0
174
     0
 93
        1
 44
0.0
173
     0
291
     1
 45
0.0
1001
ACAD
1000
AcDbSavedByObjectVersion
1070
     0
  0
VISUALSTYLE
  5
1BFD
102
{ACAD_XDICTIONARY
360
1D78
102
}
102
{ACAD_REACTORS
330
1BFC
102
}
330
1BFC
100
AcDbVisualStyle
  2
Flat
 70
     0
 71
     2
 72
     1
 73
     1
 90
        2
 40
-0.6
 41
30.0
 62
     5
 63
     7
421
 16777215
 74
     0
 91
        0
 64
     7
 65
   257
 75
     1
175
     1
 42
1.0
 92
        8
 66
     7
 43
1.0
 76
     1
 77
     6
 78
     2
 67
     7
 79
     5
170
     0
171
     0
290
     0
174
     0
 93
       13
 44
0.0
173
     0
291
     1
 45
0.0
1001
ACAD
1000
AcDbSavedByObjectVersion
1070
     0
  0
VISUALSTYLE
  5
1BFE
102
{ACAD_XDICTIONARY
360
1D7A
102
}
102
{ACAD_REACTORS
330
1BFC
102
}
330
1BFC
100
AcDbVisualStyle
  2
FlatWithEdges
 70
     1
 71
     2
 72
     1
 73
     1
 90
        2
 40
-0.6
 41
30.0
 62
     5
 63
     7
421
 16777215
 74
     1
 91
        0
 64
     7
 65
   257
 75
     1
175
     1
 42
1.0
 92
        0
 66
   257
 43
1.0
 76
     1
 77
     6
 78
     2
 67
     7
 79
     5
170
     0
171
     0
290
     0
174
     0
 93
       13
 44
0.0
173
     0
291
     1
 45
0.0
1001
ACAD
1000
AcDbSavedByObjectVersion
1070
     0
  0
VISUALSTYLE
  5
1BFF
102
{ACAD_XDICTIONARY
360
1D7C
102
}
102
{ACAD_REACTORS
330
1BFC
102
}
330
1BFC
100
AcDbVisualStyle
  2
Gouraud
 70
     2
 71
     2
 72
     2
 73
     1
 90
        2
 40
-0.6
 41
30.0
 62
     5
 63
     7
421
 16777215
 74
     0
 91
        0
 64
     7
 65
   257
 75
     1
175
     1
 42
1.0
 92
        0
 66
     7
 43
1.0
 76
     1
 77
     6
 78
     2
 67
     7
 79
     5
170
     0
171
     0
290
     0
174
     0
 93
       13
 44
0.0
173
     0
291
     1
 45
0.0
1001
ACAD
1000
AcDbSavedByObjectVersion
1070
     0
  0
VISUALSTYLE
  5
1C00
102
{ACAD_XDICTIONARY
360
1D7E
102
}
102
{ACAD_REACTORS
330
1BFC
102
}
330
1BFC
100
AcDbVisualStyle
  2
GouraudWithEdges
 70
     3
 71
     2
 72
     2
 73
     1
 90
        2
 40
-0.6
 41
30.0
 62
     5
 63
     7
421
 16777215
 74
     1
 91
        0
 64
     7
 65
   257
 75
     1
175
     1
 42
1.0
 92
        0
 66
   257
 43
1.0
 76
     1
 77
     6
 78
     2
 67
     7
 79
     5
170
     0
171
     0
290
     0
174
     0
 93
       13
 44
0.0
173
     0
291
     1
 45
0.0
1001
ACAD
1000
AcDbSavedByObjectVersion
1070
     0
  0
VISUALSTYLE
  5
1C04
102
{ACAD_XDICTIONARY
360
1D86
102
}
102
{ACAD_REACTORS
330
1BFC
102
}
330
1BFC
100
AcDbVisualStyle
  2
Hidden
 70
     6
 71
     1
 72
     2
 73
     2
 90
        0
 40
-0.6
 41
-30.0
 62
     5
 63
     7
421
 16777215
 74
     2
 91
        2
 64
     7
 65
   257
 75
     2
175
     1
 42
40.0
 92
        0
 66
   257
 43
1.0
 76
     1
 77
     6
 78
     2
 67
     7
 79
     3
170
     0
171
     0
290
     0
174
     0
 93
        1
 44
0.0
173
     0
291
     0
 45
0.0
1001
ACAD
1000
AcDbSavedByObjectVersion
1070
     0
  0
VISUALSTYLE
  5
1C12
102
{ACAD_XDICTIONARY
360
1DA2
102
}
102
{ACAD_REACTORS
330
1BFC
102
}
330
1BFC
100
AcDbVisualStyle
  2
JitterOff
 70
    20
 71
     2
 72
     2
 73
     0
 90
        0
 40
-0.6
 41
-30.0
 62
     5
 63
     7
421
 16777215
 74
     1
 91
        4
 64
     7
 65
   257
 75
     1
175
     1
 42
1.0
 92
       10
 66
     7
 43
1.0
 76
     1
 77
     6
 78
     2
 67
     7
 79
     5
170
     0
171
     0
290
     0
174
     0
 93
        1
 44
0.0
173
     0
291
     1
 45
0.0
1001
ACAD
1000
AcDbSavedByObjectVersion
1070
     0
  0
VISUALSTYLE
  5
1C0A
102
{ACAD_XDICTIONARY
360
1D92
102
}
102
{ACAD_REACTORS
330
1BFC
102
}
330
1BFC
100
AcDbVisualStyle
  2
Linepattern
 70
    14
 71
     2
 72
     2
 73
     0
 90
        0
 40
-0.6
 41
-30.0
 62
     5
 63
     7
421
 16777215
 74
     1
 91
        4
 64
     7
 65
   257
 75
     7
175
     7
 42
1.0
 92
        8
 66
     7
 43
1.0
 76
     1
 77
     6
 78
     2
 67
     7
 79
     5
170
     0
171
     0
290
     0
174
     0
 93
        1
 44
0.0
173
     0
291
     1
 45
0.0
1001
ACAD
1000
AcDbSavedByObjectVersion
1070
     0
  0
VISUALSTYLE
  5
1C13
102
{ACAD_XDICTIONARY
360
1DA4
102
}
102
{ACAD_REACTORS
330
1BFC
102
}
330
1BFC
100
AcDbVisualStyle
  2
OverhangOff
 70
    21
 71
     2
 72
     2
 73
     0
 90
        0
 40
-0.6
 41
-30.0
 62
     5
 63
     7
421
 16777215
 74
     1
 91
        4
 64
     7
 65
   257
 75
     1
175
     1
 42
1.0
 92
        9
 66
     7
 43
1.0
 76
     1
 77
     6
 78
     2
 67
     7
 79
     5
170
     0
171
     0
290
     0
174
     0
 93
        1
 44
0.0
173
     0
291
     1
 45
0.0
1001
ACAD
1000
AcDbSavedByObjectVersion
1070
     0
  0
VISUALSTYLE
  5
1C06
102
{ACAD_XDICTIONARY
360
1D8A
102
}
102
{ACAD_REACTORS
330
1BFC
102
}
330
1BFC
100
AcDbVisualStyle
  2
Realistic
 70
     8
 71
     2
 72
     2
 73
     0
 90
        2
 40
-0.6
 41
30.0
 62
     5
 63
     7
421
 16777215
 74
     0
 91
        0
 64
     7
 65
   257
 75
     1
175
     1
 42
1.0
 92
        8
 66
   257
 43
1.0
 76
     1
 77
     6
 78
     2
 67
     7
 79
     3
170
     0
171
     0
290
     0
174
     0
 93
       13
 44
0.0
173
     0
291
     0
 45
0.0
1001
ACAD
1000
AcDbSavedByObjectVersion
1070
     0
  0
VISUALSTYLE
  5
1C11
102
{ACAD_XDICTIONARY
360
1DA0
102
}
102
{ACAD_REACTORS
330
1BFC
102
}
330
1BFC
100
AcDbVisualStyle
  2
Shaded
 70
    27
 71
     2
 72
     2
 73
     1
 90
        2
 40
-0.6
 41
30.0
 62
     5
 63
     7
421
 16777215
 74
     0
 91
        4
 64
     7
 65
   257
 75
     1
175
     1
 42
1.0
 92
        8
 66
   257
 43
1.0
 76
     1
 77
     6
 78
     2
 67
     8
425
  7895160
 79
     3
170
     0
171
     0
290
     0
174
     0
 93
        5
 44
0.0
173
     0
291
     0
 45
0.0
1001
ACAD
1000
AcDbSavedByObjectVersion
1070
     0
  0
VISUALSTYLE
  5
1C10
102
{ACAD_XDICTIONARY
360
1D9E
102
}
102
{ACAD_REACTORS
330
1BFC
102
}
330
1BFC
100
AcDbVisualStyle
  2
Shaded with edges
 70
    26
 71
     2
 72
     2
 73
     1
 90
        2
 40
-0.6
 41
30.0
 62
     5
 63
     7
421
 16777215
 74
     1
 91
       10
 64
     7
 65
   257
 75
     2
175
     1
 42
1.0
 92
        8
 66
   257
 43
1.0
 76
     1
 77
     6
 78
     2
 67
     7
 79
     3
170
     0
171
     0
290
     0
174
     0
 93
        5
 44
0.0
173
     0
291
     0
 45
0.0
1001
ACAD
1000
AcDbSavedByObjectVersion
1070
     0
  0
VISUALSTYLE
  5
1C0D
102
{ACAD_XDICTIONARY
360
1D98
102
}
102
{ACAD_REACTORS
330
1BFC
102
}
330
1BFC
100
AcDbVisualStyle
  2
Shades of Gray
 70
    23
 71
     2
 72
     2
 73
     3
 90
        0
 40
-0.6
 41
-30.0
 62
     5
 63
     7
421
 16777215
 74
     2
 91
        2
 64
     7
 65
     7
 75
     1
175
     1
 42
40.0
 92
        8
 66
     7
 43
1.0
 76
     1
 77
     6
 78
     2
 67
     7
 79
     3
170
     0
171
     0
290
     0
174
     0
 93
        1
 44
0.0
173
     0
291
     0
 45
0.0
1001
ACAD
1000
AcDbSavedByObjectVersion
1070
     0
  0
VISUALSTYLE
  5
1C0E
102
{ACAD_XDICTIONARY
360
1D9A
102
}
102
{ACAD_REACTORS
330
1BFC
102
}
330
1BFC
100
AcDbVisualStyle
  2
Sketchy
 70
    24
 71
     1
 72
     2
 73
     2
 90
        0
 40
-0.6
 41
-30.0
 62
     5
 63
     7
421
 16777215
 74
     2
 91
        2
 64
     7
 65
     7
 75
     1
175
     1
 42
40.0
 92
       11
 66
     7
 43
1.0
 76
     1
 77
     6
 78
     2
 67
     7
 79
     6
170
     0
171
     0
290
     0
174
     0
 93
        1
 44
0.0
173
     0
291
     0
 45
0.0
1001
ACAD
1000
AcDbSavedByObjectVersion
1070
     0
  0
VISUALSTYLE
  5
1C09
102
{ACAD_XDICTIONARY
360
1D90
102
}
102
{ACAD_REACTORS
330
1BFC
102
}
330
1BFC
100
AcDbVisualStyle
  2
Thicken
 70
    13
 71
     2
 72
     2
 73
     0
 90
        0
 40
-0.6
 41
-30.0
 62
     5
 63
     7
421
 16777215
 74
     1
 91
        4
 64
     7
 65
   257
 75
     1
175
     1
 42
1.0
 92
       12
 66
     7
 43
1.0
 76
     1
 77
     6
 78
     2
 67
     7
 79
     5
170
     0
171
     0
290
     0
174
     0
 93
        1
 44
0.0
173
     0
291
     1
 45
0.0
1001
ACAD
1000
AcDbSavedByObjectVersion
1070
     0
  0
VISUALSTYLE
  5
1C03
102
{ACAD_XDICTIONARY
360
1D84
102
}
102
{ACAD_REACTORS
330
1BFC
102
}
330
1BFC
100
AcDbVisualStyle
  2
Wireframe
 70
     5
 71
     0
 72
     2
 73
     0
 90
        0
 40
-0.6
 41
-30.0
 62
     5
 63
     7
421
 16777215
 74
     1
 91
        4
 64
     7
 65
   257
 75
     1
175
     1
 42
1.0
 92
        0
 66
   257
 43
1.0
 76
     1
 77
     6
 78
     2
 67
     7
 79
     3
170
     0
171
     0
290
     0
174
     0
 93
        1
 44
0.0
173
     0
291
     0
 45
0.0
1001
ACAD
1000
AcDbSavedByObjectVersion
1070
     0
  0
VISUALSTYLE
  5
1C0F
102
{ACAD_XDICTIONARY
360
1D9C
102
}
102
{ACAD_REACTORS
330
1BFC
102
}
330
1BFC
100
AcDbVisualStyle
  2
X-Ray
 70
    25
 71
     2
 72
     2
 73
     1
 90
        1
 40
0.5
 41
-30.0
 62
     5
 63
     7
421
 16777215
 74
     1
 91
        0
 64
     7
 65
   257
 75
     1
175
     1
 42
1.0
 92
        8
 66
     7
 43
1.0
 76
     1
 77
     6
 78
     2
 67
     7
 79
     3
170
     0
171
     0
290
     0
174
     0
 93
       13
 44
0.0
173
     0
291
     0
 45
0.0
1001
ACAD
1000
AcDbSavedByObjectVersion
1070
     0
  0
DICTIONARYVAR
  5
1CB4
102
{ACAD_REACTORS
330
31A
102
}
330
31A
100
DictionaryVariables
280
     0
  1
1:1
  0
DICTIONARYVAR
  5
1CB1
102
{ACAD_REACTORS
330
31A
102
}
330
31A
100
DictionaryVariables
280
     0
  1
STANDARD
  0
DICTIONARYVAR
  5
1CB0
102
{ACAD_REACTORS
330
31A
102
}
330
31A
100
DictionaryVariables
280
     0
  1
STANDARD
  0
DICTIONARYVAR
  5
1CB2
102
{ACAD_REACTORS
330
31A
102
}
330
31A
100
DictionaryVariables
280
     0
  1
Imperial24
  0
DICTIONARYVAR
  5
1CB3
102
{ACAD_REACTORS
330
31A
102
}
330
31A
100
DictionaryVariables
280
     0
  1
Imperial24
  0
DICTIONARYVAR
  5
696
102
{ACAD_REACTORS
330
31A
102
}
330
31A
100
DictionaryVariables
280
     0
  1
1
  0
DICTIONARYVAR
  5
697
102
{ACAD_REACTORS
330
31A
102
}
330
31A
100
DictionaryVariables
280
     0
  1

  0
DICTIONARYVAR
  5
31B
102
{ACAD_REACTORS
330
31A
102
}
330
31A
100
DictionaryVariables
280
     0
  1
96
  0
DICTIONARYVAR
  5
1D6A
102
{ACAD_REACTORS
330
31A
102
}
330
31A
100
DictionaryVariables
280
     0
  1
2
  0
DICTIONARY
  5
1D74
102
{ACAD_REACTORS
330
1D72
102
}
330
1D72
100
AcDbDictionary
281
     1
  0
DICTIONARY
  5
1D73
102
{ACAD_REACTORS
330
1D72
102
}
330
1D72
100
AcDbDictionary
281
     1
  3
8796084713936
350
1D6D
  3
8796084713952
350
1D6E
  3
8796084713968
350
1D6F
  3
8796084713984
350
1D70
  3
8796084714000
350
1D71
  0
DICTIONARY
  5
1CD2
330
21
100
AcDbDictionary
280
     1
281
     1
  3
ADSK_XREC_LAYOUTTHUMBNAIL
360
1CD3
  0
DICTIONARY
  5
1BED
330
1BEC
100
AcDbDictionary
280
     1
281
     1
  3
ACAD_XREC_ROUNDTRIP
360
1D76
  3
BUMPTILE
360
1BEF
  3
DIFFUSETILE
360
1BEE
  3
OPACITYTILE
360
1BF2
  3
REFLECTIONTILE
360
1BF1
  3
REFRACTIONTILE
360
1BF3
  3
SPECULARTILE
360
1BF0
  0
DICTIONARY
  5
1BE5
330
1BE4
100
AcDbDictionary
280
     1
281
     1
  3
ACAD_XREC_ROUNDTRIP
360
1D75
  3
BUMPTILE
360
1BE7
  3
DIFFUSETILE
360
1BE6
  3
OPACITYTILE
360
1BEA
  3
REFLECTIONTILE
360
1BE9
  3
REFRACTIONTILE
360
1BEB
  3
SPECULARTILE
360
1BE8
  0
DICTIONARY
  5
1BF5
330
1BF4
100
AcDbDictionary
280
     1
281
     1
  3
ACAD_XREC_ROUNDTRIP
360
1D77
  3
BUMPTILE
360
1BF7
  3
DIFFUSETILE
360
1BF6
  3
OPACITYTILE
360
1BFA
  3
REFLECTIONTILE
360
1BF9
  3
REFRACTIONTILE
360
1BFB
  3
SPECULARTILE
360
1BF8
  0
DICTIONARY
  5
1DA9
330
1C2A
100
AcDbDictionary
280
     1
281
     1
  3
ACAD_XREC_ROUNDTRIP
360
1DAA
  0
DICTIONARY
  5
1C75
330
1C16
100
AcDbDictionary
280
     1
281
     1
  3
ACAD_ROUNDTRIP_2008_TABLESTYLE_CELLSTYLEMAP
360
1D6B
  3
ACAD_XREC_ROUNDTRIP
360
1DA8
  0
DICTIONARY
  5
1D82
330
1C02
100
AcDbDictionary
280
     1
281
     1
  3
ACAD_XREC_ROUNDTRIP
360
1D83
  0
DICTIONARY
  5
1D80
330
1C01
100
AcDbDictionary
280
     1
281
     1
  3
ACAD_XREC_ROUNDTRIP
360
1D81
  0
DICTIONARY
  5
1D8E
330
1C08
100
AcDbDictionary
280
     1
281
     1
  3
ACAD_XREC_ROUNDTRIP
360
1D8F
  0
DICTIONARY
  5
1D96
330
1C0C
100
AcDbDictionary
280
     1
281
     1
  3
ACAD_XREC_ROUNDTRIP
360
1D97
  0
DICTIONARY
  5
1D88
330
1C05
100
AcDbDictionary
280
     1
281
     1
  3
ACAD_XREC_ROUNDTRIP
360
1D89
  0
DICTIONARY
  5
1D8C
330
1C07
100
AcDbDictionary
280
     1
281
     1
  3
ACAD_XREC_ROUNDTRIP
360
1D8D
  0
DICTIONARY
  5
1DA6
330
1C14
100
AcDbDictionary
280
     1
281
     1
  3
ACAD_XREC_ROUNDTRIP
360
1DA7
  0
DICTIONARY
  5
1D94
330
1C0B
100
AcDbDictionary
280
     1
281
     1
  3
ACAD_XREC_ROUNDTRIP
360
1D95
  0
DICTIONARY
  5
1D78
330
1BFD
100
AcDbDictionary
280
     1
281
     1
  3
ACAD_XREC_ROUNDTRIP
360
1D79
  0
DICTIONARY
  5
1D7A
330
1BFE
100
AcDbDictionary
280
     1
281
     1
  3
ACAD_XREC_ROUNDTRIP
360
1D7B
  0
DICTIONARY
  5
1D7C
330
1BFF
100
AcDbDictionary
280
     1
281
     1
  3
ACAD_XREC_ROUNDTRIP
360
1D7D
  0
DICTIONARY
  5
1D7E
330
1C00
100
AcDbDictionary
280
     1
281
     1
  3
ACAD_XREC_ROUNDTRIP
360
1D7F
  0
DICTIONARY
  5
1D86
330
1C04
100
AcDbDictionary
280
     1
281
     1
  3
ACAD_XREC_ROUNDTRIP
360
1D87
  0
DICTIONARY
  5
1DA2
330
1C12
100
AcDbDictionary
280
     1
281
     1
  3
ACAD_XREC_ROUNDTRIP
360
1DA3
  0
DICTIONARY
  5
1D92
330
1C0A
100
AcDbDictionary
280
     1
281
     1
  3
ACAD_XREC_ROUNDTRIP
360
1D93
  0
DICTIONARY
  5
1DA4
330
1C13
100
AcDbDictionary
280
     1
281
     1
  3
ACAD_XREC_ROUNDTRIP
360
1DA5
  0
DICTIONARY
  5
1D8A
330
1C06
100
AcDbDictionary
280
     1
281
     1
  3
ACAD_XREC_ROUNDTRIP
360
1D8B
  0
DICTIONARY
  5
1DA0
330
1C11
100
AcDbDictionary
280
     1
281
     1
  3
ACAD_XREC_ROUNDTRIP
360
1DA1
  0
DICTIONARY
  5
1D9E
330
1C10
100
AcDbDictionary
280
     1
281
     1
  3
ACAD_XREC_ROUNDTRIP
360
1D9F
  0
DICTIONARY
  5
1D98
330
1C0D
100
AcDbDictionary
280
     1
281
     1
  3
ACAD_XREC_ROUNDTRIP
360
1D99
  0
DICTIONARY
  5
1D9A
330
1C0E
100
AcDbDictionary
280
     1
281
     1
  3
ACAD_XREC_ROUNDTRIP
360
1D9B
  0
DICTIONARY
  5
1D90
330
1C09
100
AcDbDictionary
280
     1
281
     1
  3
ACAD_XREC_ROUNDTRIP
360
1D91
  0
DICTIONARY
  5
1D84
330
1C03
100
AcDbDictionary
280
     1
281
     1
  3
ACAD_XREC_ROUNDTRIP
360
1D85
  0
DICTIONARY
  5
1D9C
330
1C0F
100
AcDbDictionary
280
     1
281
     1
  3
ACAD_XREC_ROUNDTRIP
360
1D9D
  0
XRECORD
  5
1D6D
102
{ACAD_REACTORS
330
1D73
102
}
330
1D73
100
AcDbXrecord
280
     1
  1
AcDb_Thumbnail_Schema
102
{ATTRRECORD
341
1D6E
  2
AcDbDs::TreatedAsObjectData
280
     1
291
     1
102
ATTRRECORD}
102
{ATTRRECORD
341
1D6F
  2
AcDbDs::Legacy
280
     1
291
     1
102
ATTRRECORD}
  2
AcDbDs::ID
280
    10
 91
        8
102
{ATTRRECORD
341
1D70
  2
AcDs:Indexable
280
     1
291
     1
102
ATTRRECORD}
102
{ATTRRECORD
341
1D71
  2
AcDbDs::HandleAttribute
280
     7
282
     1
102
ATTRRECORD}
  2
Thumbnail_Data
280
    15
 91
        0
  0
XRECORD
  5
1D6E
102
{ACAD_REACTORS
330
1D73
102
}
330
1D73
100
AcDbXrecord
280
     1
  1
AcDbDs::TreatedAsObjectDataSchema
  2
AcDbDs::TreatedAsObjectData
280
     1
 91
        0
  0
XRECORD
  5
1D6F
102
{ACAD_REACTORS
330
1D73
102
}
330
1D73
100
AcDbXrecord
280
     1
  1
AcDbDs::LegacySchema
  2
AcDbDs::Legacy
280
     1
 91
        0
  0
XRECORD
  5
1D70
102
{ACAD_REACTORS
330
1D73
102
}
330
1D73
100
AcDbXrecord
280
     1
  1
AcDbDs::IndexedPropertySchema
  2
AcDs:Indexable
280
     1
 91
        0
  0
XRECORD
  5
1D71
102
{ACAD_REACTORS
330
1D73
102
}
330
1D73
100
AcDbXrecord
280
     1
  1
AcDbDs::HandleAttributeSchema
  2
AcDbDs::HandleAttribute
280
     7
 91
        1
284
     1
  0
XRECORD
  5
1CD3
102
{ACAD_REACTORS
330
1CD2
102
}
330
1CD2
100
AcDbXrecord
280
     1
310
280000000001000096000000010008000000000000960000010000000100000000010000000000000000000000000000C8C8C8FF000000FF000000FF000000FF000000FF000000FF000000FF000000FF000000FF330000FF660000FF990000FFCC0000FFFF0000FF003300FF333300FF663300FF993300FFCC3300FFFF3300
310
FF006600FF336600FF666600FF996600FFCC6600FFFF6600FF009900FF339900FF669900FF999900FFCC9900FFFF9900FF00CC00FF33CC00FF66CC00FF99CC00FFCCCC00FFFFCC00FF00FF00FF33FF00FF66FF00FF99FF00FFCCFF00FFFFFF00FF000033FF330033FF660033FF990033FFCC0033FFFF0033FF003333FF3333
310
33FF663333FF993333FFCC3333FFFF3333FF006633FF336633FF666633FF996633FFCC6633FFFF6633FF009933FF339933FF669933FF999933FFCC9933FFFF9933FF00CC33FF33CC33FF66CC33FF99CC33FFCCCC33FFFFCC33FF00FF33FF33FF33FF66FF33FF99FF33FFCCFF33FFFFFF33FF000066FF330066FF660066FF99
310
0066FFCC0066FFFF0066FF003366FF333366FF663366FF993366FFCC3366FFFF3366FF006666FF336666FF666666FF996666FFCC6666FFFF6666FF009966FF339966FF669966FF999966FFCC9966FFFF9966FF00CC66FF33CC66FF66CC66FF99CC66FFCCCC66FFFFCC66FF00FF66FF33FF66FF66FF66FF99FF66FFCCFF66FF
310
FFFF66FF000099FF330099FF660099FF990099FFCC0099FFFF0099FF003399FF333399FF663399FF993399FFCC3399FFFF3399FF006699FF336699FF666699FF996699FFCC6699FFFF6699FF009999FF339999FF669999FF999999FFCC9999FFFF9999FF00CC99FF33CC99FF66CC99FF99CC99FFCCCC99FFFFCC99FF00FF99
310
FF33FF99FF66FF99FF99FF99FFCCFF99FFFFFF99FF0000CCFF3300CCFF6600CCFF9900CCFFCC00CCFFFF00CCFF0033CCFF3333CCFF6633CCFF9933CCFFCC33CCFFFF33CCFF0066CCFF3366CCFF6666CCFF9966CCFFCC66CCFFFF66CCFF0099CCFF3399CCFF6699CCFF9999CCFFCC99CCFFFF99CCFF00CCCCFF33CCCCFF66CC
310
CCFF99CCCCFFCCCCCCFFFFCCCCFF00FFCCFF33FFCCFF66FFCCFF99FFCCFFCCFFCCFFFFFFCCFF0000FFFF3300FFFF6600FFFF9900FFFFCC00FFFFFF00FFFF0033FFFF3333FFFF6633FFFF9933FFFFCC33FFFFFF33FFFF0066FFFF3366FFFF6666FFFF9966FFFFCC66FFFFFF66FFFF0099FFFF3399FFFF6699FFFF9999FFFFCC
310
99FFFFFF99FFFF00CCFFFF33CCFFFF66CCFFFF99CCFFFFCCCCFFFFFFCCFFFF00FFFFFF33FFFFFF66FFFFFF99FFFFFFCCFFFFFFFFFFFFFF000000FF0D0D0DFF1A1A1AFF282828FF353535FF434343FF505050FF5D5D5DFF6B6B6BFF787878FF868686FF939393FFA1A1A1FFAEAEAEFFBBBBBBFFC9C9C9FFD6D6D6FFE4E4E4FF
310
F1F1F1FFFFFFFFFF000000FF000000FF000000FF000000FF000000FF000000FF000000FF000000FF000000FF000000FF00000000000000000000000000000000000000000000000000000000000000000000000000000000000000000000000000000000000000000000000000000000000000000000000000000000000000
310
00000000000000000000000000000000000000000000000000000000000000000000000000000000000000000000000000000000000000000000000000000000000000000000000000000000000000000000000000000000000000000000000000000000000000000000000000000000000000000000000000000000000000
310
0000000000000000000000000000000000000000000000000000000000000000000000000000000000000000000000000000000000000000000000000000000000000000000000000000000000000000000000000000000000000000000000000000000000000000000000000000000000000000000000000000000000DCDC
310
DCDCDCDCDCDCDCDCDCDCDCDCDCDCDCDCDCDCDCDCDCDCDCDCDCDCDCDCDCDCDCDCDCDCDCDCDCDCDCDCDCDCDCDCDCDCDCDCDCDCDCDCDCDCDCDCDCDCDCDCDCDCDCDCDCDCDCDCDCDCDCDCDCDCDCDCDCDCDCDCDCDCDCDCDCDCDCDCDCDCDCDCDCDCDCDCDCDCDCDCDCDCDCDC0000000000000000000000000000000000000000000000
310
00000000000000000000000000000000000000000000000000000000000000000000000000000000000000000000000000000000000000000000000000000000000000000000000000000000000000000000000000000000000000000000000000000000000000000000000000000000000000000000000000000000000000
310
DC0000000000000000000000000000000000000000000000000000000000000000000000000000000000000000000000000000000000000000000000000000000000000000000000000000000000000000000000000000000000000000000000000000000000000000DC000000000000000000000000000000000000000000
310
00000000000000000000000000000000000000000000000000000000000000000000000000000000000000000000000000000000000000000000000000000000000000000000000000000000000000000000000000000000000000000000000000000000000000000000000000000000000000000000000000000000000000
310
0000DC0000000000000000002828282828282828282828282828282828282828282828282828282828282828282828282828282828282828282828282828282828282828282828282828282828282828282828282828282828282828282828282828282828282828282800DC00000000000000000000000000000000000000
310
00000000000000000000000000000000000000000000000000000000000000000000000000000000000000000000000000000000000000000000000000000000000000000000000000000000000000000000000000000000000000000000000000000000000000000000000000000000000000000000000000000000000000
310
00000000DC00000000000000000028F5F5BE000000000000000000BE00000000BE000000000028000000000000000000000000000000000000000028DCDCDCDCDCDCDCDCDCDCDCDCDCDCDCDCDCDCDCDCDCDCDCDCDCDCDCDCDCDCDCDCDCDCDCDCDCDCDCDCDCDCDCDCDCDC00F5F5DC0000000000000000000000000000000000
310
00000000000000000000000000000000000000000000000000000000000000000000000000000000000000000000000000000000000000000000000000000000000000000000000000000000000000000000000000000000000000000000000000000000000000000000000000000000000000000000000000000000000000
310
000000000000DC00000000000000000028F5F5BE0000F5F5F5F5F5F500BE00F5F5F5BEF5F5F5F5F528000028282828282800282800282828282828000028000000000000000000000000000000000000000000000000000000000000000000000000000000000000000000000028F5DC000000000000000000000000000000
310
00000000000000000000000000000000000000000000000000000000000000000000000000000000000000000000000000000000000000000000000000000000000000000000000000000000000000000000000000000000000000000000000000000000000000000000000000000000000000000000000000000000000000
310
0000000000000000DC00000000000000000028F5F5BE0000F5F5F5F5F5F500BE00F5F5F5BEF5F5F5F5F528000028002828002828282800280028280028280028000000000000000000000000000000000000000000000000000000000000000000000000000000000000000000000028F5DC00000000000000000000000000
310
00000000000000000000000000000000000000000000000000000000000000000000000000000000000000000000000000000000000000000000000000000000000000000000000000000000000000000000000000000000000000000000000000000000000000000000000000000000000000000000000000000000000000
310
00000000000000000000DC000000000000000000280000BE000000000000000000BE00000000BE0000000000280000280028000000282828282828280000002800280000000000000000000000000000000000000000000000000000000000000000000000000000000000000000000000F5F5DC0000000000000000000000
310
00000000000000000000000000000000000000000000000000000000000000000000000000000000000000000000000000000000000000000000000000000000000000000000000000000000000000000000000000000000000000000000000000000000000000000000000000000000000000000000000000000000000000
310
000000000000000000000000DC000000000000000000282828BE282828282828282828BE28282828BE282828282828000028002828002828282800282828280028280028F5F5F5F5F5F5F5F5F5F500000000000000000000000000000000000000000000000000000000000000000000000000F5F5DC000000000000000000
310
00000000000000000000000000000000000000000000000000000000000000000000000000000000000000000000000000000000000000000000000000000000000000000000000000000000000000000000000000000000000000000000000000000000000000000000000000000000000000000000000000000000000000
310
0000000000000000000000000000DC00000000000000000028F5F5BE0000F5F5F5F5F5F500BEF5F5F5F5F500F5F5F50028000028002828282828282828282828282828280028F5F5F5F5F5F5F5F5F5F500000000000000000000000000000000000000000000000000000000000000000000000000F5F5DC00000000000000
310
00000000000000000000000000000000000000000000000000000000000000000000000000000000000000000000000000000000000000000000000000000000000000000000000000000000000000000000000000000000000000000000000000000000000000000000000000000000000000000000000000000000000000
310
00000000000000000000000000000000DC00000000000000000028DCF5DCDCDCF5F5DCDCDCF5DCDCF5F5F5F5F5DCF5DCF5DCDC282828BE282828282828BE282828282828282828282828282828282828282828282828282828282828282828282828282828282828282828282828282828282828282828F5F5DC0000000000
310
00000000000000000000000000000000000000000000000000000000000000000000000000000000000000000000000000000000000000000000000000000000000000000000000000000000000000000000000000000000000000000000000000000000000000000000000000000000000000000000000000000000000000
310
000000000000000000000000000000000000DC000000000000000000280000BE000000000000000000BE00000000BE0000000000F5F5F5F5BE00F5F5F5F5F5BE0000F5F5F5F500000028F5F5F5F5F5F5F5F5F5F5F500000000000000000000000000000000280000000000000000000000000000000000000028F5DC000000
310
00000000000000000000000000000000000000000000000000000000000000000000000000000000000000000000000000000000000000000000000000000000000000000000000000000000000000000000000000000000000000000000000000000000000000000000000000000000000000000000000000000000000000
310
0000000000000000000000000000000000000000DC000000000000000000280000BE000000000000000000BE00000000BE0000000000F5F5F5F5BEF5F5F5F5F5F5BE0000F5F5F5F500000028F5F5F5F5F5F5F5F5F5F5F500000000000000000000000000000000280000000000000000000000000000000000000028F5DC00
310
00000000000000000000000000000000000000000000000000000000000000000000000000000000000000000000000000000000000000000000000000000000000000000000000000000000000000000000000000000000000000000000000000000000000000000000000000000000000000000000000000000000000000
310
00000000000000000000000000000000000000000000DC00000000000000000028DCDCDCDCDCDCDCDCDCDCDCDCDCDCDCDCDCDCDCDCDCDCDCDCDCDCDCDCDCDCDCDCDCDCDCDCDCDCDCDCDCDCDCDCDCF5F5F5F5F5F5F5F5F5F5F5F5F5F5F5F5F5F5F5F5DCDCDCDCDCDC002800F5F5F5F5F500F5F5F5F5F50000000000000028F5
310
F5000000000000000000000000000000000000000000000000000000000000000000000000000000000000000000000000000000000000000000000000000000000000000000000000000000000000000000000000000000000000000000000000000000000000000000000000000000000000000000000000000000000000
310
000000000000000000000000000000000000000000000000DC000000000000000000280000BE000000000000000000BE00000000BE0000000000F5F5F5F5BEF5F5F5F5F5F5BE000000F5F5F500000028F5F5F5F5F5F5F5F5F5F5F5F5F5F5F5F5F5F5F5F50000000000000028F5F5F5F5F5F500F5F5F5F5F500000000000000
310
F5F5DC00000000000000000000000000000000000000000000000000000000000000000000000000000000000000000000000000000000000000000000000000000000000000000000000000000000000000000000000000000000000000000000000000000000000000000000000000000000000000000000000000000000
310
0000000000000000000000000000000000000000000000000000DC00000000000000000028DCDCDCDCDCDCDCDCDCDCDCDCDCDCDCDCDCDCDCDCDCDCDCF5F5DCDCDCDCF5F5F5F5F5DCDCDCDCDCDCDCDCDCDCDCF5F5F5F5DCF5F5F5F5DCF5F5F5F5F5F5F5F5F5F5DCDCDCDCDCDC00BEBEBEBEBEF5F5BEF5BEBEF5BEBEBEBEBEBE
310
BEBEF5F5DC0000000000000000000000000000000000000000000000000000000000000000000000000000000000000000000000000000000000000000000000000000000000000000000000000000000000000000000000000000000000000000000000000000000000000000000000000000000000000000000000000000
310
00000000000000000000000000000000000000000000000000000000DC000000000000000000280000BE000000000000000000BE00000000BE0000000000F5F5F500BE00F5F5F5F500BE000000F5F5F50000002800000000000000000000000000000000000000000000000000000028000000BEBEBEBEBEBEBEBEBEBEBEBE
310
BE00000028F5DC000000000000000000000000000000000000000000000000000000000000000000000000000000000000000000000000000000000000000000000000000000000000000000000000000000000000000000000000000000000000000000000000000000000000000000000000000000000000000000000000
310
000000000000000000000000000000000000000000000000000000000000DC000000000000000000280000BE000000000000000000BE00000000BE0000000000F5F5F500BE00F5F5F5F500BE000000F5F5F50000002800000000000000000000000000000000000000000000000000000028000000BEBEBEBEBEBEBEBEBEBE
310
BE00BE00000028F5DC00000000000000000000000000000000000000000000000000000000000000000000000000000000000000000000000000000000000000000000000000000000000000000000000000000000000000000000000000000000000000000000000000000000000000000000000000000000000000000000
310
0000000000000000000000000000000000000000000000000000000000000000DC00000000000000000028DCDCDCDCDCDCDCDCDCDCDCDCDCDCDCDCDCDCDCDCDCDCDCDCDCDCDCDCDCDCDCF5DCDCDCDCDCDCDCDCDCDCDCDCDCDCDCF5F5DCDCDCDCDCDCDCDCDCDCDCDCF5DCDCDCDCDCDCDCDCDC0028000000BEBEBEBEBEBEBEBE
310
BEBEBEBEBE000000F5F5DC0000000000000000000000000000000000000000000000000000000000000000000000000000000000000000000000000000000000000000000000000000000000000000000000000000000000000000000000000000000000000000000000000000000000000000000000000000000000000000
310
00000000000000000000000000000000000000000000000000000000000000000000DC000000000000000000280000BE000000000000000000BE00000000BE000000000028F5F5F5BE0000F5F50000BE0000F5F5F5F500000028F5F5F5F5F5F5F5F5F5F5F500F5F5F5F5F5F5F5F50000000000000028F5F5F5F5F5F5F5F5F5
310
00000000000000000000F5F5DC000000000000000000000000000000000000000000000000000000000000000000000000000000000000000000000000000000000000000000000000000000000000000000000000000000000000000000000000000000000000000000000000000000000000000000000000000000000000
310
000000000000000000000000000000000000000000000000000000000000000000000000DC00000000000000000028DCDCDCDCDCDCDCDCDCDCDCDCDCDCDCDCDCDCDCDCDCDCDCDCF5F5F5BE2828F5282828BE2828F5F528282828282828F528F5F528F528F5F5F528F5F5F5F5F5F5F5F52828282828282828F5F5F5F5F5F5F5
310
F5F52828282828282828282828F5DC00000000000000000000000000000000000000000000000000000000000000000000000000000000000000000000000000000000000000000000000000000000000000000000000000000000000000000000000000000000000000000000000000000000000000000000000000000000
310
0000000000000000000000000000000000000000000000000000000000000000000000000000DC000000000000000000280000BE000000000000000000BE00000000BE00000000002800000000000000000000BE00000000000000000028DCDCDCDCDCDCDCDCDCDCDCDCDCDCDCDCDCDCDCDCDCDCDCDCDCDC0028DCDCDCDCDC
310
DCDCDCDCDCDCDCDCDCDCDCDCDC0028F5DC0000000000000000000000000000000000000000000000000000000000000000000000000000000000000000000000000000000000000000000000000000000000000000000000000000000000000000000000000000000000000000000000000000000000000000000000000000
310
00000000000000000000000000000000000000000000000000000000000000000000000000000000DC000000000000000000280000BE000000000000000000BE00000000BE000000000028000000BEBEBEBE000000BE0000000000000000002800BEBEBEBEBEBEBEBEBEBEBEBE0000000000000000000000000000280000BE
310
BEBEBEBEBEBEBEBE00BEBE00BEBE000028F5DC000000000000000000000000000000000000000000000000000000000000000000000000000000000000000000000000000000000000000000000000000000000000000000000000000000000000000000000000000000000000000000000000000000000000000000000000
310
000000000000000000000000000000000000000000000000000000000000000000000000000000000000DC00000000000000000028DCDCDCDCDCDCDCDCDCDCDCDCDCDCDCDCDCDCDCDCDCDCDCDC000000BEBE00BE000000BEF5F5F5F5F5F5F5F5F5F500BEBEBEBEBEBEBEBEBEBEBEBEBE000000000000000000000000002800
310
00BEBEBEBEBEBEBEBEBEBEBEBE00BEBE0000F5F5DC00000000000000000000000000000000000000000000000000000000000000000000000000000000000000000000000000000000000000000000000000000000000000000000000000000000000000000000000000000000000000000000000000000000000000000000
310
0000000000000000000000000000000000000000000000000000000000000000000000000000000000000000DC000000000000000000280000BE000000000000000000BE00000000BE000000000028000000BEBEBEBE000000BEF5F5F5F5F5F5F5F5F5F5BEBE0000BE000000BE0000BE000000000000000000000000000000
310
280000BEBEBEBEBEBEBEBEBEBEBEBE0000BE0000F5F5DC0000000000000000000000000000000000000000000000000000000000000000000000000000000000000000000000000000000000000000000000000000000000000000000000000000000000000000000000000000000000000000000000000000000000000000
310
00000000000000000000000000000000000000000000000000000000000000000000000000000000000000000000DC00000000000000000028DCDCDCDCDCDCDCDCDCDCDCDCDCDCDCDCDCDCDCDCDCDCDCDC00000000000000000000BE0000000000000000002800000000000000000000000000000000000000000000000000
310
00002800000000000000000000000000000000000000F5F5DC000000000000000000000000000000000000000000000000000000000000000000000000000000000000000000000000000000000000000000000000000000000000000000000000000000000000000000000000000000000000000000000000000000000000
310
000000000000000000000000000000000000000000000000000000000000000000000000000000000000000000000000DC000000000000000000280000BE000000000000000000BE00000000BE00000000002800F5F5F5F5F5F5F50000BEF5F5F500F5F5F5F50028F5F5F5F5F5F5F5F5F50000000000000000000000000000
310
0000000028F5F5F5F5F5F5F5F5F5F5F5F50000000000000028F5DC00000000000000000000000000000000000000000000000000000000000000000000000000000000000000000000000000000000000000000000000000000000000000000000000000000000000000000000000000000000000000000000000000000000
310
0000000000000000000000000000000000000000000000000000000000000000000000000000000000000000000000000000DC000000000000000000280000BE000000000000000000BE00000000BE00000000002800F5F5F5F5F5F5F50000BEF5F5F500F5F5F5000028F5F5F5F5F5F5F5F5F5000000000000000000000000
310
00000000000028F5F5F5F5F5F5F5F5F5F5F5F50000000000000028F5F50000000000000000000000000000000000000000000000000000000000000000000000000000000000000000000000000000000000000000000000000000000000000000000000000000000000000000000000000000000000000000000000000000
310
00000000000000000000000000000000000000000000000000000000000000000000000000000000000000000000000000000000DC000000000000000000F5F5F5F5F5F528F5F5F5F5F5F5F5F5F5F5F5F5F5F5F528282828282828282828282828BE2828282828282828282828282828282828282828282828282828282828
310
2828282828282828282828282828282828282828282828282828282828F5DC000000000000000000000000000000000000000000000000000000000000000000000000000000000000000000000000000000000000000000000000000000000000000000000000000000000000000000000000000000000000000000000000
310
000000000000000000000000000000000000000000000000000000000000000000000000000000000000000000000000000000000000DC000000000000000000F5F5F5F5F5F500F5F5F5F5F5F5F5F5F5F5F5F5F5F5F5F5000000000000000000000000000000000000000000000000BE000000000000000000000000000000
310
000000000000000000000000000000000000000000000000000000000000F5F5DC00000000000000000000000000000000000000000000000000000000000000000000000000000000000000000000000000000000000000000000000000000000000000000000000000000000000000000000000000000000000000000000
310
0000000000000000000000000000000000000000000000000000000000000000000000000000000000000000000000000000000000000000DC000000000000000000F5F500F5F5F50000F5F5F5F5F5F5F5F5F5F5F5F5F5F5000000000000000000000000000000BEBEBEBEBEBEBEBEBEBEBEBE00BEBE00BEBEBEBEBEBEBEBE
310
BEBEBEBEBEBEBEBE000000000000000000000000000000000000000000000000F5F5DC0000000000000000000000000000000000000000000000000000000000000000000000000000000000000000000000000000000000000000000000000000000000000000000000000000000000000000000000000000000000000000
310
00000000000000000000000000000000000000000000000000000000000000000000000000000000000000000000000000000000000000000000DC00000000000000000028000000000000000000000000000000000000000000000000000000000000000000000000BEBEBEBEBEBEBEBEBEBEBEBE00BEBE00BEBE00BEBEBE
310
0000BEBEBEBEBEBEBEBE000000000000000000000000000000000000000000000000F5F5DC000000000000000000000000000000000000000000000000000000000000000000000000000000000000000000000000000000000000000000000000000000000000000000000000000000000000000000000000000000000000
310
000000000000000000000000000000000000000000000000000000000000000000000000000000000000000000000000000000000000000000000000DC000000000000000000280000000000000000000000000000000000000000000000000000000000000000000000000000000000000000000000000000000000000000
310
000000000000000000000000000000000000000000000000000000000000000000000000F5F5DC00000000000000000000000000000000000000000000000000000000000000000000000000000000000000000000000000000000000000000000000000000000000000000000000000000000000000000000000000000000
310
0000000000000000000000000000000000000000000000000000000000000000000000000000000000000000000000000000000000000000000000000000DC000000000000000000280000000000000000000000000000000000000000000000000000000000000000000000000000000000000000000000000000BEBEBEBE
310
BEBEBEBEBEBEBEBEBEBEBEBEBEBEBEBEBEBEBEBE00000000000000000000000000000000000028F5DC0000000000000000000000000000000000000000000000000000000000000000000000000000000000000000000000000000000000000000000000000000000000000000000000000000000000000000000000000000
310
00000000000000000000000000000000000000000000000000000000000000000000000000000000000000000000000000000000000000000000000000000000DC000000000000000000280000000000000000000000000000000000000000000000000000000000000000000000000000000000000000000000000000BEBE
310
BEBEBEBEBEBEBEBEBEBEBEBEBEBEBEBEBEBEBEBEBEBE00000000000000000000000000000000000028F5DC000000000000000000000000000000000000000000000000000000000000000000000000000000000000000000000000000000000000000000000000000000000000000000000000000000000000000000000000
310
000000000000000000000000000000000000000000000000000000000000000000000000000000000000000000000000000000000000000000000000000000000000DC000000000000000000280000000000000000000000000000000000000000000000000000000000000000000000000000000000000000000000000000
310
00000000BEBE0000000000BE00000000BEBE00BEBE00BE00000000000000000000000000000000000000F5F5DC00000000000000000000000000000000000000000000000000000000000000000000000000000000000000000000000000000000000000000000000000000000000000000000000000000000000000000000
310
0000000000000000000000000000000000000000000000000000000000000000000000000000000000000000000000000000000000000000000000000000000000000000DC000000000000000000280000000000000000000000000000000000000000000000000000000000000000000000000000BEBEBEBEBEBEBEBEBEBE
310
BE00BEBEBEBEBEBE00BEBEBEBEBEBEBEBEBE00BEBEBEBEBEBEBEBEBEBEBEBEBEBE0000000000000000000000F5F5DC0000000000000000000000000000000000000000000000000000000000000000000000000000000000000000000000000000000000000000000000000000000000000000000000000000000000000000
310
00000000000000000000000000000000000000000000000000000000000000000000000000000000000000000000000000000000000000000000000000000000000000000000DC000000000000000000280000000000000000000000000000000000000000000000000000000000000000000000000000BEBEBEBEBEBEBEBE
310
BEBEBE00BEBEBEBEBEBE00BEBEBEBEBEBEBEBEBE00BEBEBEBEBEBEBEBEBEBEBEBEBEBE0000000000000000000000F5F5DC000000000000000000000000000000000000000000000000000000000000000000000000000000000000000000000000000000000000000000000000000000000000000000000000000000000000
310
000000000000000000000000000000000000000000000000000000000000000000000000000000000000000000000000000000000000000000000000000000000000000000000000DC0000000000000000002800000000000000000000000000000000000000000000000000000000000000000000000000BEBEBEBEBEBEBE
310
BEBEBEBEBE00BEBEBEBEBEBE00BEBEBEBEBEBE00BEBE00BEBEBEBEBEBEBEBEBEBEBEBEBEBE0000000000000000000000F5F5DC00000000000000000000000000000000000000000000000000000000000000000000000000000000000000000000000000000000000000000000000000000000000000000000000000000000
310
0000000000000000000000000000000000000000000000000000000000000000000000000000000000000000000000000000000000000000000000000000000000000000000000000000DC000000000000000000280000000000000000000000000000000000000000000000000000000000000000000000000000BEBEBEBE
310
BEBEBEBEBEBEBE00BEBEBEBEBEBE00BEBEBEBEBEBEBEBEBE00BEBEBEBEBEBEBEBEBEBEBEBEBEBE0000000000000000000000F5F5DC0000000000000000000000000000000000000000000000000000000000000000000000000000000000000000000000000000000000000000000000000000000000000000000000000000
310
00000000000000000000000000000000000000000000000000000000000000000000000000000000000000000000000000000000000000000000000000000000000000000000000000000000DC000000000000000000280000000000000000000000000000000000000000000000000000000000000000000000000000BEBE
310
BEBEBEBEBEBEBEBEBE00BEBEBEBEBEBE00BEBEBEBEBEBEBEBEBE00BEBEBEBEBEBEBEBEBEBEBEBEBEBE000000000000000000000028F5DC000000000000000000000000000000000000000000000000000000000000000000000000000000000000000000000000000000000000000000000000000000000000000000000000
310
000000000000000000000000000000000000000000000000000000000000000000000000000000000000000000000000000000000000000000000000000000000000000000000000000000000000DC000000000000000000280000000000000000000000000000000000000000000000000000000000000000000000000000
310
00000000000000000000000000000000000000000000000000000000000000000000000000000000000000000000000000000000000028F5DC00000000000000000000000000000000000000000000000000000000000000000000000000000000000000000000000000000000000000000000000000000000000000000000
310
0000000000000000000000000000000000000000000000000000000000000000000000000000000000000000000000000000000000000000000000000000000000000000000000000000000000000000DC00000000000000000028000000000000000000000000000000000000000000000000000000000000000000000000
310
000000000000000000000000000000000000000000000000000000000000000000000000000000000000000000000000000000000000000028F5DC0000000000000000000000000000000000000000000000000000000000000000000000000000000000000000000000000000000000000000000000000000000000000000
310
00000000000000000000000000000000000000000000000000000000000000000000000000000000000000000000000000000000000000000000000000000000000000000000000000000000000000000000DC0000000000000000002800000000000000000000000000000000000000000000000000000000000000000000
310
0000000000000000000000000000000000000000000000000000000000000000000000000000000000000000000000000000000000000000000028F5DC000000000000000000000000000000000000000000000000000000000000000000000000000000000000000000000000000000000000000000000000000000000000
310
000000000000000000000000000000000000000000000000000000000000000000000000000000000000000000000000000000000000000000000000000000000000000000000000000000000000000000000000DC000000000000000000280000000000000000000000000000000000000000000000000000000000000000
310
000000000000000000000000000000000000000000000000000000000000000000000000000000000000000000000000000000000000000000000000F5F5DC00000000000000000000000000000000000000000000000000000000000000000000000000000000000000000000000000000000000000000000000000000000
310
0000000000000000000000000000000000000000000000000000000000000000000000000000000000000000000000000000000000000000000000000000000000000000000000000000000000000000000000000000DC00000000000000000028000000000000000000000000000000000000000000000000000000000000
310
0000000000000000000000000000000000000000000000000000000000000000000000000000000000000000000000000000000000000000000000000000F5F5F50000000000000000000000000000000000000000000000000000000000000000000000000000000000000000000000000000000000000000000000000000
310
00000000000000000000000000000000000000000000000000000000000000000000000000000000000000000000000000000000000000000000000000000000000000000000000000000000000000000000000000000000DC0000000000000000002800000000000000000000000000000000000000000000000000000000
310
0000000000000000000000000000000000000000000000000000000000000000000000000000000000000000000000000000000000000000000000000000000028F5F5000000000000000000000000000000000000000000000000000000000000000000000000000000000000000000000000000000000000000000000000
310
000000000000000000000000000000000000000000000000000000000000000000000000000000000000000000000000000000000000000000000000000000000000000000000000000000000000000000000000000000000000DC00000000000000000028000000000000000000BEBEBEBE00BEBEBEBEBE00BEBEBEBEBEBE
310
00BEBEBEBEBEBEBEBEBEBEBEBE0000000000000000000000000000000000000000000000000000000000000000000000000000000000000000000000000000000000F5F5DC00000000000000000000000000000000000000000000000000000000000000000000000000000000000000000000000000000000000000000000
310
0000000000000000000000000000000000000000000000000000000000000000000000000000000000000000000000000000000000000000000000000000000000000000000000000000000000000000000000000000000000000000DC00000000000000000028000000000000000000BEBEBEBEBEBEBEBEBEBE00BEBEBEBE
310
BEBE00BEBEBEBEBEBEBEBEBEBEBEBE000000000000000000000000000000000000000000000000000000000000000000000000000000000000000000000000000000000028F5DC0000000000000000000000000000000000000000000000000000000000000000000000000000000000000000000000000000000000000000
310
00000000000000000000000000000000000000000000000000000000000000000000000000000000000000000000000000000000000000000000000000000000000000000000000000000000000000000000000000000000000000000000DC00000000000000000028000000000000000000BEBEBEBEBEBEBEBEBEBE00BEBE
310
BEBEBEBE00BEBEBEBEBEBEBEBEBEBEBEBE000000000000000000000000000000000000000000000000000000000000000000000000000000000000000000000000000000000028F5DC000000000000000000000000000000000000000000000000000000000000000000000000000000000000000000000000000000000000
310
000000000000000000000000000000000000000000000000000000000000000000000000000000000000000000000000000000000000000000000000000000000000000000000000000000000000000000000000000000000000000000000000DC000000000000000000280000000000000000000000000000000000000000
310
00000000000000000000000000000000000000000000000000000000000000000000000000000000000000000000000000000000000000000000000000000000000000000000000028F5DC00000000000000000000000000000000000000000000000000000000000000000000000000000000000000000000000000000000
310
0000000000000000000000000000000000000000000000000000000000000000000000000000000000000000000000000000000000000000000000000000000000000000000000000000000000000000000000000000000000000000000000000000DC00000000000000000028000000000000000000000000000000000000
310
00000000000000000000000000F5F5000000000000000000000000000000000000000000F500F50000000000000000000000000000000000000000000000000000000000000000000000F5F5DC0000000000000000000000000000000000000000000000000000000000000000000000000000000000000000000000000000
310
00000000000000000000000000000000000000000000000000000000000000000000000000000000000000000000000000000000000000000000000000000000000000000000000000000000000000000000000000000000000000000000000000000000DC0000000000000000002800000000000000000000000000000000
310
000000000000000000000000000000F5F5F5F5F5F5F5F5F5F5BEF5BEBEBEBEF5F5F5F5F5F5F5F5F5F50000000000000000000000000000000000000000000000000000000000000000000000F5F5DC000000000000000000000000000000000000000000000000000000000000000000000000000000000000000000000000
310
000000000000000000000000000000000000000000000000000000000000000000000000000000000000000000000000000000000000000000000000000000000000000000000000000000000000000000000000000000000000000000000000000000000000DC000000000000000000280000000000000000000000000000
310
0000000000000000000000000000000000F5000000000000000000BEBEBEBEBEBE000000000000000000F5000000000000000000000000000000000000000000000000000000000000000000000028F5DC00000000000000000000000000000000000000000000000000000000000000000000000000000000000000000000
310
0000000000000000000000000000000000000000000000000000000000000000000000000000000000000000000000000000000000000000000000000000000000000000000000000000000000000000000000000000000000000000000000000000000000000000DC00000000000000000028000000000000000000000000
310
00000000000000000000000000000000000000F5000000000000000000BEBEBEBEBEBE000000000000000000F50000000000000000000000000000000000000000000000000000000000000000000000F5F5DC0000000000000000000000000000000000000000000000000000000000000000000000000000000000000000
310
00000000000000000000000000000000000000000000000000000000000000000000000000000000000000000000000000000000000000000000000000000000000000000000000000000000000000000000000000000000000000000000000000000000000000000000DC0000000000000000002800000000000000000000
310
0000000000000000000000000000000000F5F5F5F5F5F5F5F5F5F5F5F5F500000000000000000000000000000000F50000000000000000000000000000000000000000000000000000000000000000000000F5F5DC000000000000000000000000000000000000000000000000000000000000000000000000000000000000
310
000000000000000000000000000000000000000000000000000000000000000000000000000000000000000000000000000000000000000000000000000000000000000000000000000000000000000000000000000000000000000000000000000000000000000000000000DC000000000000000000280000000000000000
310
0000000000000000000000000000000000000000000000F500000000BEBEBEF5F5F50000000000000000000000000000F50000000000000000000000000000000000000000000000000000000000000000000000F5F5DC00000000000000000000000000000000000000000000000000000000000000000000000000000000
310
0000000000000000000000000000000000000000000000000000000000000000000000000000000000000000000000000000000000000000000000000000000000000000000000000000000000000000000000000000000000000000000000000000000000000000000000000000DC00000000000000000028000000000000
310
00000000000000000000000000000000000000000000000000F5000000BEBEBEBEF5F5F50000000000000000000000000000F5000000000000000000000000000000000000000000000000000000000000000000000028F5DC0000000000000000000000000000000000000000000000000000000000000000000000000000
310
00000000000000000000000000000000000000000000000000000000000000000000000000000000000000000000000000000000000000000000000000000000000000000000000000000000000000000000000000000000000000000000000000000000000000000000000000000000DC0000000000000000002800000000
310
000000000000000000000000000000000000000000000000000000F500000000BEBEBEF5F5000000000000000000000000000000F50000000000000000000000000000000000000000000000000000000000000000000000F5F5DC000000000000000000000000000000000000000000000000000000000000000000000000
310
000000000000000000000000000000000000000000000000000000000000000000000000000000000000000000000000000000000000000000000000000000000000000000000000000000000000000000000000000000000000000000000000000000000000000000000000000000000000DC000000000000000000280000
310
0000000000000000000000000000000000000000000000000000000000F50000F5F5F5F5F5F5F5F5F5F5F5F5F5F5F5F5F5F5F5F50000F5000000000000000000000000000000000000000000000000000000000000000000000028F5DC00000000000000000000000000000000000000000000000000000000000000000000
310
0000000000000000000000000000000000000000000000000000000000000000000000000000000000000000000000000000000000000000000000000000000000000000000000000000000000000000000000000000000000000000000000000000000000000000000000000000000000000000DC00000000000000000028
310
00000000000000000000000000000000000000000000000000000000000000F50000F5F5F50000000000BEBEBEBE0000000000F5F5F50000F5000000000000000000000000000000000000000000000000000000000000000000000028F5DC0000000000000000000000000000000000000000000000000000000000000000
310
00000000000000000000000000000000000000000000000000000000000000000000000000000000000000000000000000000000000000000000000000000000000000000000000000000000000000000000000000000000000000000000000000000000000000000000000000000000000000000000DC0000000000000000
310
002800000000000000000000000000000000000000000000000000000000000000F50000F500000000000000BE00BEBE00000000000000F50000F5000000000000000000000000000000000000000000000000000000000000000000000028F5F5000000000000000000000000000000000000000000000000000000000000
310
000000000000000000000000000000000000000000000000000000000000000000000000000000000000000000000000000000000000000000000000000000000000000000000000000000000000000000000000000000000000000000000000000000000000000000000000000000000000000000000000DC000000000000
310
0000002800000000000000000000000000000000000000000000000000000000000000F50000F500000000000000BEBEBEBE00000000000000F50000F5000000000000000000000000000000000000000000000000000000000000000000000028F5DC00000000000000000000000000000000000000000000000000000000
310
0000000000000000000000000000000000000000000000000000000000000000000000000000000000000000000000000000000000000000000000000000000000000000000000000000000000000000000000000000000000000000000000000000000000000000000000000000000000000000000000000000DC00000000
310
00000000002800000000000000000000000000000000000000000000000000000000000000F50000F50000000000000000DC000000000000000000F50000F500000000BEBEBEBEBEBEBEBEBEBEBEBEBEBE00BEBEBEBEBEBEBEBEBEBEBEBEBE00000028F5DC0000000000000000000000000000000000000000000000000000
310
00000000000000000000000000000000000000000000000000000000000000000000000000000000000000000000000000000000000000000000000000000000000000000000000000000000000000000000000000000000000000000000000000000000000000000000000000000000000000000000000000000000DC0000
310
00000000000000280000000000000000000000000000000000000000F5F5F5F5F5F5F5F5F5F5F5F5F5F5282828282828282828DC282828282828282828F50000F500000000BEBEBEBEBE0000BEBEBEBEBEBE00BEBEBEBEBEBEBEBEBEBEBEBEBEBE00000028F5DC000000000000000000000000000000000000000000000000
310
000000000000000000000000000000000000000000000000000000000000000000000000000000000000000000000000000000000000000000000000000000000000000000000000000000000000000000000000000000000000000000000000000000000000000000000000000000000000000000000000000000000000DC
310
000000000000000000280000000000000000000000000000000000000000F500000000000000000000F5000028280000000000000000000000000000000028F50000F5000000DCDCDCDCDCDCDCDCDCDCDCDCDCDCDCDCDCDCDCDCDCDCDCDCDCDCDCDCDCDC000028F5DC00000000000000000000000000000000000000000000
310
00000000000000000000000000000000000000000000000000000000000000000000000000000000000000000000000000000000000000000000000000000000000000000000000000000000000000000000000000000000000000000000000000000000000000000000000000000000000000000000000000000000000000
310
00DC000000000000000000280000000000000000000000000000000000000000F500000000000000000000F50000282800000000000000DC000000000000000028280000F500DCDC00BEBEBEBEBEBEBEBEBEBEBEBEBEBEBE00BEBEBEBEBEBEBEBEBE00BE00000000F5F5DC0000000000000000000000000000000000000000
310
00000000000000000000000000000000000000000000000000000000000000000000000000000000000000000000000000000000000000000000000000000000000000000000000000000000000000000000000000000000000000000000000000000000000000000000000000000000000000000000000000000000000000
310
000000DC000000000000000000280000000000000000000000000000000000000000F500000000000000000000F500002828DCDCDCDCDCDCDCDCDCDCDCDCDCDCDCDC28280000DCDC00000000BEBEBEBEBEBEBEBEBEBEBEBEBEBE00BEBEBEBEBEBEBE00BEBEBE0000000028F5DC000000000000000000000000000000000000
310
00000000000000000000000000000000000000000000000000000000000000000000000000000000000000000000000000000000000000000000000000000000000000000000000000000000000000000000000000000000000000000000000000000000000000000000000000000000000000000000000000000000000000
310
0000000000DC000000000000000000280000000000000000000000000000000000000000F500000000000000000000F50000282800000000000000DC00000000000000002828DCDCF50000000000BEBE00BE00BE00BE00BEBEBE00BE00BEBEBEBEBEBEBE00BEBEBE00000000F5F5DC00000000000000000000000000000000
310
00000000000000000000000000000000000000000000000000000000000000000000000000000000000000000000000000000000000000000000000000000000000000000000000000000000000000000000000000000000000000000000000000000000000000000000000000000000000000000000000000000000000000
310
00000000000000DC000000000000000000280000000000000000000000000000000000000000F500000000000000000000F50000282800000000000000DC0000000000000000DCDC0000F50000000000000000000000000000000000000000000000000000000000000000000000F5F5DC0000000000000000000000000000
310
00000000000000000000000000000000000000000000000000000000000000000000000000000000000000000000000000000000000000000000000000000000000000000000000000000000000000000000000000000000000000000000000000000000000000000000000000000000000000000000000000000000000000
310
000000000000000000DC000000000000000000280000000000000000000000000000000000000000F500000000000000000000F5000028280000000000000000000000000000000028280000F5000000000000000000000000000000000000000000000000000000000000000000000028F5DC000000000000000000000000
310
00000000000000000000000000000000000000000000000000000000000000000000000000000000000000000000000000000000000000000000000000000000000000000000000000000000000000000000000000000000000000000000000000000000000000000000000000000000000000000000000000000000000000
310
0000000000000000000000DC000000000000000000280000000000000000000000000000000000000000F500000000000000000000F50000282800000000000000DC000000000000000028280000F50000000000000000000000000000000000000000000000000000000000000000000000F5F5DC00000000000000000000
310
00000000000000000000000000000000000000000000000000000000000000000000000000000000000000000000000000000000000000000000000000000000000000000000000000000000000000000000000000000000000000000000000000000000000000000000000000000000000000000000000000000000000000
310
00000000000000000000000000DC000000000000000000280000000000000000000000000000000000000000F500000000000000000000F50000282800000000000000DC000000000000000028280000F5000000000000000000000000000000000000000000000000000000000000000000000028F5DC0000000000000000
310
00000000000000000000000000000000000000000000000000000000000000000000000000000000000000000000000000000000000000000000000000000000000000000000000000000000000000000000000000000000000000000000000000000000000000000000000000000000000000000000000000000000000000
310
000000000000000000000000000000DC000000000000000000280000000000000000000000000000000000000000F500000000000000000000F50000282800000000000000DC000000000000000028280000F5000000000000000000000000000000000000000000000000000000000000000000000028F5DC000000000000
310
00000000000000000000000000000000000000000000000000000000000000000000000000000000000000000000000000000000000000000000000000000000000000000000000000000000000000000000000000000000000000000000000000000000000000000000000000000000000000000000000000000000000000
310
0000000000000000000000000000000000DC000000000000000000280000000000000000000000000000000000000000F500000000000000000000F50000282800000000BEBEBEDC000000000000000028280000F5000000000000000000000000000000000000000000000000000000000000000000000028F5DC00000000
310
00000000000000000000000000000000000000000000000000000000000000000000000000000000000000000000000000000000000000000000000000000000000000000000000000000000000000000000000000000000000000000000000000000000000000000000000000000000000000000000000000000000000000
310
00000000000000000000000000000000000000DCDCDCDCDCDCDCDCDC00280000000000000000000000000000000000000000F50000F5F5F5F5F5F5F5F5282828282800000000BEBEBE0000000000000000002828282828000000000000000000000000000000000000000000000000000000000000000000000028F5DC0000
310
00000000000000000000000000000000000000000000000000000000000000000000000000000000000000000000000000000000000000000000000000000000000000000000000000000000000000000000000000000000000000000000000000000000000000000000000000000000000000000000000000000000000000
310
000000000000000000000000000000000000000000DC000000000000000000280000000000000000000000000000000000000000F5000000F5000000000000F5F528282800000000BEBEBEDC0000000000000000282828F5F50000000000000000000000000000000000000000000000000000000000000000000000F5F5DC
310
00000000000000000000000000000000000000000000000000000000000000000000000000000000000000000000000000000000000000000000000000000000000000000000000000000000000000000000000000000000000000000000000000000000000000000000000000000000000000000000000000000000000000
310
0000000000000000000000000000000000000000000000DC000000000000000000280000000000000000000000000000000000000000F50000F5F5000000000000F5F528282800000000BE00BEDC00000000000000002828F5F5F50000000000000000000000000000000000000000000000000000000000000000000000F5
310
F5DC0000000000000000000000000000000000000000000000000000000000000000000000000000000000000000000000000000000000000000000000000000000000000000000000000000000000000000000000000000000000000000000000000000000000000000000000000000000000000000000000000000000000
310
00000000000000000000000000000000000000000000000000DC000000000000000000280000000000000000000000000000000000000000F5000000F5000000000000F5F5F5F52800000000BEBEBEDC000000000000000028F5F5F5F500000000000000000000000000000000000000000000000000000000000000000000
310
00F5F5DC000000000000000000000000000000000000000000000000000000000000000000000000000000000000000000000000000000000000000000000000000000000000000000000000000000000000000000000000000000000000000000000000000000000000000000000000000000000000000000000000000000
310
000000000000000000000000000000000000000000000000000000DC000000000000000000280000000000000000000000000000000000000000F5000000F5000000000000F5F5F5F52800000000BEBEBEDC000000000000000028F5F5F5F50000000000000000000000000000000000000000000000000000000000000000
310
000000F5F5F500000000000000000000000000000000000000000000000000000000000000000000000000000000000000000000000000000000000000000000000000000000000000000000000000000000000000000000000000000000000000000000000000000000000000000000000000000000000000000000000000
310
0000000000000000000000000000000000000000000000000000000000DC000000000000000000280000000000000000000000000000000000000000F5000000F5000000000000F5F528F528000000000000000000000000000000002828F5F528000000000000000000000000000000000000000000000000000000000000
310
0000000000F5F5F50000000000000000000000000000000000000000000000000000000000000000000000000000000000000000000000000000000000000000000000000000000000000000000000000000000000000000000000000000000000000000000000000000000000000000000000000000000000000000000000
310
00000000000000000000000000000000000000000000000000000000000000DC000000000000000000280000000000000000000000000000000000000000F5000000F5000000000000F5F5F5F52800000000000000DC000000000000000028F5F5F5F500000000000000000000000000000000000000000000000000000000
310
0000000000000028F5DC000000000000000000000000000000000000000000000000000000000000000000000000000000000000000000000000000000000000000000000000000000000000000000000000000000000000000000000000000000000000000000000000000000000000000000000000000000000000000000
310
000000000000000000000000000000000000000000000000000000000000000000DC000000000000000000280000000000000000000000000000000000000000F5000000F5000000000000F500F5F52800000000000000DC000000000000000028F500F5F50000000000000000000000000000000000000000000000000000
310
00000000000000000028F5DC00000000000000000000000000000000000000000000000000000000000000000000000000000000000000000000000000000000000000000000000000000000000000000000000000000000000000000000000000000000000000000000000000000000000000000000000000000000000000
310
0000000000000000000000000000000000000000000000000000000000000000000000DC000000000000000000280000000000000000000000000000000000000000F5000000F5000000000000F5F500F52800000000000000DC00000000000000002828F5F528000000000000000000000000000000000000000000000000
310
0000000000000000000000F5F5DC0000000000000000000000000000000000000000000000000000000000000000000000000000000000000000000000000000000000000000000000000000000000000000000000000000000000000000000000000000000000000000000000000000000000000000000000000000000000
310
00000000000000000000000000000000000000000000000000000000000000000000000000DC000000000000000000280000000000000000000000000000000000000000F5000000F5000000000000F500F5F52800000000000000DC000000000000000028F500F5F500000000000000000000000000000000000000000000
310
0000000000000000000000000028F5DC000000000000000000000000000000000000000000000000000000000000000000000000000000000000000000000000000000000000000000000000000000000000000000000000000000000000000000000000000000000000000000000000000000000000000000000000000000
310
000000000000000000000000000000000000000000000000000000000000000000000000000000DC000000000000000000280000000000000000000000000000000000000000F5000000F5000000000000F5F5F5F5280000000000000000000000000000000028F5F5F5F50000000000000000000000000000000000000000
310
000000000000000000000000000000F5F5DC00000000000000000000000000000000000000000000000000000000000000000000000000000000000000000000000000000000000000000000000000000000000000000000000000000000000000000000000000000000000000000000000000000000000000000000000000
310
0000000000000000000000000000000000000000000000000000000000000000000000000000000000DC000000000000000000280000000000000000000000000000000000000000F5000000F5000000000000F5F500F52800000000000000DC00000000000000002828F5F528000000000000000000000000000000000000
310
0000000000000000000000000000000000F5F5DC0000000000000000000000000000000000000000000000000000000000000000000000000000000000000000000000000000000000000000000000000000000000000000000000000000000000000000000000000000000000000000000000000000000000000000000000
310
00000000000000000000000000000000000000000000000000000000000000000000000000000000000000DC000000000000000000280000000000000000000000000000000000000000F5000000F50000000000002800F5F52800000000000000DC000000000000000028F500F5F500000000000000000000000000000000
310
00000000000000000000000000000000000000F5F5DC000000000000000000000000000000000000000000000000000000000000000000000000000000000000000000000000000000000000000000000000000000000000000000000000000000000000000000000000000000000000000000000000000000000000000000
310
000000000000000000000000000000000000000000000000000000000000000000000000000000000000000000DC000000000000000000280000000000000000000000000000000000000000F5000000F5000000000000F5F500F52800000000000000DC00000000000000002828F5F5280000000000000000000000000000
310
00000000000000000000000000000000000000000028F5DC00000000000000000000000000000000000000000000000000000000000000000000000000000000000000000000000000000000000000000000000000000000000000000000000000000000000000000000000000000000000000000000000000000000000000
310
0000000000000000000000000000000000000000000000000000000000000000000000000000000000000000000000DC00000000000000000028000000000000000000000000000000000000BEBEF5000000F5000000000028F500F5F528DCDCDCDCDCDCDCDCDCDCDCDCDCDCDCDC28F500F5F5000000000000000000000000
310
000000000000000000000000000000000000000000000028F5DC0000000000000000000000000000000000000000000000000000000000000000000000000000000000000000000000000000000000000000000000000000000000000000000000000000000000000000000000000000000000000000000000000000000000
310
00000000000000000000000000000000000000000000000000000000000000000000000000000000000000000000000000DC00000000000000000028000000000000000000000000000000000000BEBEF5000000F50000000000F5F5F5F5F52800000000000000DC000000000000000028F5F5F5F528000000000000000000
310
00000000000000000000000000000000000000000000000000F5F5DC000000000000000000000000000000000000000000000000000000000000000000000000000000000000000000000000000000000000000000000000000000000000000000000000000000000000000000000000000000000000000000000000000000
310
000000000000000000000000000000000000000000000000000000000000000000000000000000000000000000000000000000DC00000000000000000028000000000000000000000000000000000000BEBEF5000000F500000000F528F5F500F528000000000000000000000000000000002828F5F528F528000000000000
310
000000000000000000000000000000000000000000000000000000F5F5DC00000000000000000000000000000000000000000000000000000000000000000000000000000000000000000000000000000000000000000000000000000000000000000000000000000000000000000000000000000000000000000000000000
310
0000000000000000000000000000000000000000000000000000000000000000000000000000000000000000000000000000000000DC00000000000000000028000000000000000000000000000000000000BEBEF5000000F5000000F528F5F500F5F50000000000000000DC000000000000000000F5F5F5F52828F5000000
310
0000000000000000000000000000000000000000000000000000000000F5F5DC0000000000000000000000000000000000000000000000000000000000000000000000000000000000000000000000000000000000000000000000000000000000000000000000000000000000000000000000000000000000000000000000
310
00000000000000000000000000000000000000000000000000000000000000000000000000000000000000000000000000000000000000DC000000000000000000280000000000000000000000000000000000000000F5000000F5000000F5F500F5F5F5F52828282828282828DC282828282828282828F5F5F500F5F52800
310
0000000000000000000000000000000000000000000000000000000000000028F5DC000000000000000000000000000000000000000000000000000000000000000000000000000000000000000000000000000000000000000000000000000000000000000000000000000000000000000000000000000000000000000000
310
000000000000000000000000000000000000000000000000000000000000000000000000000000000000000000000000000000000000000000DC000000000000000000280000000000000000000000000000000000000000F5BE0000F5000028F5F5F5F5F5F5000000000000000000DC00000000000000000000F5F5F5F5F5
310
28000000000000000000000000000000000000000000000000000000000000000028F5DC00000000000000000000000000000000000000000000000000000000000000000000000000000000000000000000000000000000000000000000000000000000000000000000000000000000000000000000000000000000000000
310
0000000000000000000000000000000000000000000000000000000000000000000000000000000000000000000000000000000000000000000000DC000000000000000000280000000000000000000000000000000000000000F5BEBEBEF5000028F500F5F5F5DCDCDCDCDCDCDCDCDCDCDCDCDCDCDCDCDCDCDCDCDC28F5F5
310
00F5F5280000000000000000000000000000000000000000000000000000000000000028F5DC0000000000000000000000000000000000000000000000000000000000000000000000000000000000000000000000000000000000000000000000000000000000000000000000000000000000000000000000000000000000
310
00000000000000000000000000000000000000000000000000000000000000000000000000000000000000000000000000000000000000000000000000DC000000000000000000280000000000000000000000000000000000000000F5BEBEBEF5000028F5F500F50000000000000000000000000000000000000000000000
310
28F5F500F52800000000000000000000000000000000000000000000000000000000000000F5F5DC000000000000000000000000000000000000000000000000000000000000000000000000000000000000000000000000000000000000000000000000000000000000000000000000000000000000000000000000000000
310
000000000000000000000000000000000000000000000000000000000000000000000000000000000000000000000000000000000000000000000000000000DC000000000000000000280000000000000000000000000000000000000000F5BE00BEF50000F5F500F5F50000000000000000000000DC000000000000000000
310
000000F500F5F5280000000000000000000000000000000000000000000000000000000000000028F5DC00000000000000000000000000000000000000000000000000000000000000000000000000000000000000000000000000000000000000000000000000000000000000000000000000000000000000000000000000
310
0000000000000000000000000000000000000000000000000000000000000000000000000000000000000000000000000000000000000000000000000000000000DC000000000000000000280000000000000000000000000000000000000000F5BEBE00F50000F5F5F5F5F5DCDCDCDCDCDCDCDCDCDCDCDCDCDCDCDCDCDCDC
310
DCDCDCDCDCF5F5F5F5280000000000000000000000000000000000000000000000000000000000000028F5F50000000000000000000000000000000000000000000000000000000000000000000000000000000000000000000000000000000000000000000000000000000000000000000000000000000000000000000000
310
00000000000000000000000000000000000000000000000000000000000000000000000000000000000000000000000000000000000000000000000000000000000000DC000000000000000000280000000000000000000000000000000000000000F5000000F5000028F5F5F5F50000000000000000000000DC0000000000
310
00000000000000F5F500F5280000000000000000000000000000000000000000000000000000000000000028F5F5000000000000000000000000000000000000000000000000000000000000000000000000000000000000000000000000000000000000000000000000000000000000000000000000000000000000000000
310
000000000000000000000000000000000000000000000000000000000000000000000000000000000000000000000000000000000000000000000000000000000000000000DC000000000000000000280000000000000000000000000000000000000000F5000000F50000F5F500F5DCDCDCDCDCDCDCDCDCDCDCDCDCDCDCDC
310
DCDCDCDCDCDCDCDCDC28F5F5F52800000000000000000000000000000000000000000000000000000000000000F5F5DC00000000000000000000000000000000000000000000000000000000000000000000000000000000000000000000000000000000000000000000000000000000000000000000000000000000000000
310
0000000000000000000000000000000000000000000000000000000000000000000000000000000000000000000000000000000000000000000000000000000000000000000000DC000000000000000000280000000000000000000000000000000000000000F5000000F5000028F5F5F50000000000000000000000000000
310
000000000000000000000000F500F5280000000000000000000000000000000000000000000000000000000000000028F5DC0000000000000000000000000000000000000000000000000000000000000000000000000000000000000000000000000000000000000000000000000000000000000000000000000000000000
310
00000000000000000000000000000000000000000000000000000000000000000000000000000000000000000000000000000000000000000000000000000000000000000000000000DC000000000000000000280000000000000000000000000000000000000000F5000000F50000F5F5F5F5000000000000000000000000
310
DC00000000000000000000000000F5F5F5280000000000000000000000000000000000000000000000000000000000000028F5DC000000000000000000000000000000000000000000000000000000000000000000000000000000000000000000000000000000000000000000000000000000000000000000000000000000
310
000000000000000000000000000000000000000000000000000000000000000000000000000000000000000000000000000000000000000000000000000000000000000000000000000000DC000000000000000000280000000000000000000000000000000000000000F5000000F50000F5F500F500000000000000000000
310
0000DC00000000000000000000000000F5F5F5280000000000000000000000000000000000000000000000000000000000000028F5DC00000000000000000000000000000000000000000000000000000000000000000000000000000000000000000000000000000000000000000000000000000000000000000000000000
310
0000000000000000000000000000000000000000000000000000000000000000000000000000000000000000000000000000000000000000000000000000000000000000000000000000000000DC000000000000000000280000000000000000000000000000000000000000F5000000F5000028F5F5F50000000000000000
310
00000000DC00000000000000000000000000F500F5280000000000000000000000000000000000000000000000000000000000000028F5DC0000000000000000000000000000000000000000000000000000000000000000000000000000000000000000000000000000000000000000000000000000000000000000000000
310
00000000000000000000000000000000000000000000000000000000000000000000000000000000000000000000000000000000000000000000000000000000000000000000000000000000000000DC000000000000000000280000000000000000000000000000000000000000F5000000F50000F5F500F5000000000000
310
000000000000DC00000000000000000000000000F5F5F5280000000000000000000000000000000000000000000000000000000000000028F5DC000000000000000000000000000000000000000000000000000000000000000000000000000000000000000000000000000000000000000000000000000000000000000000
310
000000000000000000000000000000000000000000000000000000000000000000000000000000000000000000000000000000000000000000000000000000000000000000000000000000000000000000DC000000000000000000280000000000000000000000000000000000000000F5000000F50000F5F5F5F5DCDCDCDC
310
DCDCDCDCDCDCDCDCDCDCDCDCDCDCDCDCDCDCDCDCDCDCF5F5F52800000000000000000000000000000000000000000000000000000000000000F5F5DC00000000000000000000000000000000000000000000000000000000000000000000000000000000000000000000000000000000000000000000000000000000000000
310
0000000000000000000000000000000000000000000000000000000000000000000000000000000000000000000000000000000000000000000000000000000000000000000000000000000000000000000000DC000000000000000000280000000000000000000000000000000000000000F5000000F5000028F5F5F50000
310
00000000000000000000DC00000000000000000000000000F5F5F5280000000000000000000000000000000000000000000000000000000000000028F5DC0000000000000000000000000000000000000000000000000000000000000000000000000000000000000000000000000000000000000000000000000000000000
310
00000000000000000000000000000000000000000000000000000000000000000000000000000000000000000000000000000000000000000000000000000000000000000000000000000000000000000000000000DC000000000000000000280000000000000000000000000000000000000000F5000000F50000F5F5F500
310
000000000000000000000000DC0000000000000000000000000028F5F528000000000000000000000000000000000000000000000000000000000000002800DC000000000000000000000000000000000000000000000000000000000000000000000000000000000000000000000000000000000000000000000000000000
310
000000000000000000000000000000000000000000000000000000000000000000000000000000000000000000000000000000000000000000000000000000000000000000000000000000000000000000000000000000DC000000000000000000280000000000000000000000000000000000000000F5000000F5000028F5
310
F500000000000000000000BEBEBEDC0000000000000000000000000000F5F528000000000000000000000000000000000000000000000000000000000000002800DC00000000000000000000000000000000000000000000000000000000000000000000000000000000000000000000000000000000000000000000000000
310
0000000000000000000000000000000000000000000000000000000000000000000000000000000000000000000000000000000000000000000000000000000000000000000000000000000000000000000000000000000000DC000000000000000000280000000000000000000000000000000000000000F5000000F50000
310
F5F5F500000000000000000000BEBEBEDC0000000000000000000000000000F5F528000000000000000000000000000000000000000000000000000000000000002800DC0000000000000000000000000000000000000000000000000000000000000000000000000000000000000000000000000000000000000000000000
310
00000000000000000000000000000000000000000000000000000000000000000000000000000000000000000000000000000000000000000000000000000000000000000000000000000000000000000000000000000000000000DC000000000000000000280000000000000000000000000000000000000000F5000000F5
310
0000F5F5F500000000000000000000BEBEBE000000000000000000000000000000F5F528000000000000000000000000000000000000000000000000000000000000002800DC000000000000000000000000000000000000000000000000000000000000000000000000000000000000000000000000000000000000000000
310
000000000000000000000000000000000000000000000000000000000000000000000000000000000000000000000000000000000000000000000000000000000000000000000000000000000000000000000000000000000000000000DC000000000000000000280000000000000000000000000000000000000000F50000
310
00F5000028F5F500000000000000000000BEBEBEDC0000000000000000000000000000F5F528000000000000000000000000000000000000000000000000000000000000002800DC00000000000000000000000000000000000000000000000000000000000000000000000000000000000000000000000000000000000000
310
0000000000000000000000000000000000000000000000000000000000000000000000000000000000000000000000000000000000000000000000000000000000000000000000000000000000000000000000000000000000000000000000DC000000000000000000280000000000000000000000000000000000000000F5
310
000000F50000F5F5F500000000000000000000BEBEBEDC0000000000000000000000000000F5F528000000000000000000000000000000000000000000000000000000000000002800DC0000000000000000000000000000000000000000000000000000000000000000000000000000000000000000000000000000000000
310
00000000000000000000000000000000000000000000000000000000000000000000000000000000000000000000000000000000000000000000000000000000000000000000000000000000000000000000000000000000000000000000000000DC0000000000000000002800000000000000000000000000000000000000
310
00F5000000F5000028F5F500000000000000000000BEBEBEDC0000000000000000000000000000F52828000000000000000000000000000000000000000000000000000000000000002800DC000000000000000000000000000000000000000000000000000000000000000000000000000000000000000000000000000000
310
000000000000000000000000000000000000000000000000000000000000000000000000000000000000000000000000000000000000000000000000000000000000000000000000000000000000000000000000000000000000000000000000000000DC000000000000000000280000000000000000000000000000000000
310
000000F50000F5F5000028F5F500000000000000000000BEBEBEDC00000000000000000000000000F5F52828000000000000000000000000000000000000000000000000000000000000002800DC00000000000000000000000000000000000000000000000000000000000000000000000000000000000000000000000000
310
0000000000000000000000000000000000000000000000000000000000000000000000000000000000000000000000000000000000000000000000000000000000000000000000000000000000000000000000000000000000000000000000000000000000DC00000000000000000028000000000000000000000000000000
310
0000000000F5000000F5000028F5F5280000000000000000000000000000000000000000000000000000F5F52828000000000000000000000000000000000000000000000000000000000000002800DC0000000000000000000000000000000000000000000000000000000000000000000000000000000000000000000000
310
00000000000000000000000000000000000000000000000000000000000000000000000000000000000000000000000000000000000000000000000000000000000000000000000000000000000000000000000000000000000000000000000000000000000000DC0000000000000000002800000000000000000000000000
310
00000000000000F5F5F5F5F5F5F5F52828F5282828282828282828282828DC28282828282828282828282828F5282828000000000000000000000000000000000000000000000000000000000000002800DC000000000000000000000000000000000000000000000000000000000000000000000000000000000000000000
310
000000000000000000000000000000000000000000000000000000000000000000000000000000000000000000000000000000000000000000000000000000000000000000000000000000000000000000000000000000000000000000000000000000000000000000DC000000000000000000280000000000000000000000
310
00000000000000000000000000000000F50000F5000000000000000000000000DC00000000000000000000000000F50000F5000000000000000000000000000000000000000000000000000000000000002800DC00000000000000000000000000000000000000000000000000000000000000000000000000000000000000
310
0000000000000000000000000000000000000000000000000000000000000000000000000000000000000000000000000000000000000000000000000000000000000000000000000000000000000000000000000000000000000000000000000000000000000000000000DC00000000000000000028000000000000000000
310
000000000000000000000000000000000000F50000F50000000000000000000000000000000000000000000000000000F50000F5000000000000000000000000000000000000000000000000000000000000002800DC0000000000000000000000000000000000000000000000000000000000000000000000000000000000
310
00000000000000000000000000000000000000000000000000000000000000000000000000000000000000000000000000000000000000000000000000000000000000000000000000000000000000000000000000000000000000000000000000000000000000000000000000DC0000000000000000002800000000000000
310
0000000000000000000000000000000000000000F50000F5F5F5F5F5F5F5F5F5F5F5F5F5F5F5F5F5F5F5F5F5F5F5F5F5F5F5F50000F5000000000000000000000000000000000000000000000000000000000000002800DC000000000000000000000000000000000000000000000000000000000000000000000000000000
310
000000000000000000000000000000000000000000000000000000000000000000000000000000000000000000000000000000000000000000000000000000000000000000000000000000000000000000000000000000000000000000000000000000000000000000000000000000DC000000000000000000280000000000
310
00000000000000000000000000000000000000000000F500000000000000000000000000BEBEBEBEBE0000000000000000000000000000F5000000000000000000000000000000000000000000000000000000000000002800DC00000000000000000000000000000000000000000000000000000000000000000000000000
310
0000000000000000000000000000000000000000000000000000000000000000000000000000000000000000000000000000000000000000000000000000000000000000000000000000000000000000000000000000000000000000000000000000000000000000000000000000000000DC00000000000000000028000000
310
000000000000000000000000000000000000000000000000F500000000000000000000000000BEBEBEBEBEBE00000000000000000000000000F5000000000000000000000000000000000000000000000000000000000000002800DC0000000000000000000000000000000000000000000000000000000000000000000000
310
00000000000000000000000000000000000000000000000000000000000000000000000000000000000000000000000000000000000000000000000000000000000000000000000000000000000000000000000000000000000000000000000000000000000000000000000000000000000000DC0000000000000000002800
310
000000000000000000000000000000000000000000000000F500F500F5000000000000000000000000000000000000000000000000000000000000F5000000000000000000000000000000000000000000000000000000000000002800DC000000000000000000000000000000000000000000000000000000000000000000
310
000000000000000000000000000000000000000000000000000000000000000000000000000000000000000000000000000000000000000000000000000000000000000000000000000000000000000000000000000000000000000000000000000000000000000000000000000000000000000000DC000000000000000000
310
28000000000000000000000000000000000000F5F5F5F5F5F5F5F5F5F5F5F5F5F500000000000000000000000000000000000000000000000000000000F5000000000000000000000000000000000000000000000000000000000000002800DC00000000000000000000000000000000000000000000000000000000000000
310
0000000000000000000000000000000000000000000000000000000000000000000000000000000000000000000000000000000000000000000000000000000000000000000000000000000000000000000000000000000000000000000000000000000000000000000000000000000000000000000000DC00000000000000
310
00002800000000000000000000000000000000000000BEBEBEBE00000000F50000000000000000000000000000000000000000000000000000000000000000F5000000000000000000000000000000000000000000000000000000000000002800DC0000000000000000000000000000000000000000000000000000000000
310
00000000000000000000000000000000000000000000000000000000000000000000000000000000000000000000000000000000000000000000000000000000000000000000000000000000000000000000000000000000000000000000000000000000000000000000000000000000000000000000000000DC0000000000
310
000000002800000000000000000000000000000000000000BEBEBEBE00000000F50000000000000000000000000000000000000000000000000000000000000000F5000000000000000000000000000000000000000000000000000000000000002800DC000000000000000000000000000000000000000000000000000000
310
000000000000000000000000000000000000000000000000000000000000000000000000000000000000000000000000000000000000000000000000000000000000000000000000000000000000000000000000000000000000000000000000000000000000000000000000000000000000000000000000000000DC000000
310
00000000000028000000000000000000000000000000000000000000000000000000F50000000000000000000000000000000000000000000000000000000000000000F5000000000000000000000000000000000000000000000000000000000000002800DC00000000000000000000000000000000000000000000000000
310
0000000000000000000000000000000000000000000000000000000000000000000000000000000000000000000000000000000000000000000000000000000000000000000000000000000000000000000000000000000000000000000000000000000000000000000000000000000000000000000000000000000000DC00
310
000000000000000028000000000000000000000000000000000000000000000000000000F5F5F5F5F5F5F5F5F5F5F5F5F5F5F5F5F5F5F5F5F5F5F5F5F5F5F5F5F5F5F5F5F5F5000000000000000000000000000000000000000000000000000000000000002800DC0000000000000000000000000000000000000000000000
310
00000000000000000000000000000000000000000000000000000000000000000000000000000000000000000000000000000000000000000000000000000000000000000000000000000000000000000000000000000000000000000000000000000000000000000000000000000000000000000000000000000000000000
310
DC000000000000000000280000000000000000000000000000000000000000000000000000000000000000000000000000000000BEBEBEBEBEBE0000000000000000000000000000000000000000000000000000000000000000000000000000000000000000002800DC000000000000000000000000000000000000000000
310
00000000000000000000000000000000000000000000000000000000000000000000000000000000000000000000000000000000000000000000000000000000000000000000000000000000000000000000000000000000000000000000000000000000000000000000000000000000000000000000000000000000000000
310
0000DC000000000000000000280000000000000000000000000000000000000000000000000000000000000000000000000000000000BEBEBEBEBEBE0000000000000000000000000000000000000000000000000000000000000000000000000000000000000000002800DC00000000000000000000000000000000000000
310
00000000000000000000000000000000000000000000000000000000000000000000000000000000000000000000000000000000000000000000000000000000000000000000000000000000000000000000000000000000000000000000000000000000000000000000000000000000000000000000000000000000000000
310
00000000DC0000000000000000002800000000000000000000000000000000000000000000000000000000000000000000000000000000000000000000000000000000000000000000000000000000000000000000000000000000000000000000000000000000000000002800DC0000000000000000000000000000000000
310
00000000000000000000000000000000000000000000000000000000000000000000000000000000000000000000000000000000000000000000000000000000000000000000000000000000000000000000000000000000000000000000000000000000000000000000000000000000000000000000000000000000000000
310
000000000000DC0000000000000000002800000000000000000000000000000000000000000000000000000000000000000000000000000000000000000000000000000000000000000000000000000000000000000000000000000000000000000000000000000000000000002800DC000000000000000000000000000000
310
00000000000000000000000000000000000000000000000000000000000000000000000000000000000000000000000000000000000000000000000000000000000000000000000000000000000000000000000000000000000000000000000000000000000000000000000000000000000000000000000000000000000000
310
0000000000000000DC0000000000000000002800000000000000000000000000000000000000000000000000000000000000000000000000000000000000000000000000000000000000000000000000000000000000000000000000000000000000000000000000000000000000002800DC00000000000000000000000000
310
00000000000000000000000000000000000000000000000000000000000000000000000000000000000000000000000000000000000000000000000000000000000000000000000000000000000000000000000000000000000000000000000000000000000000000000000000000000000000000000000000000000000000
310
00000000000000000000DC0000000000000000002800000000000000000000000000000000000000000000000000000000000000000000000000000000000000000000000000000000000000000000000000000000000000000000000000000000000000000000000000000000000000002800DC0000000000000000000000
310
00000000000000000000000000000000000000000000000000000000000000000000000000000000000000000000000000000000000000000000000000000000000000000000000000000000000000000000000000000000000000000000000000000000000000000000000000000000000000000000000000000000000000
310
000000000000000000000000DC0000000000000000002800000000000000000000000000000000000000000000000000000000000000000000000000000000000000000000000000000000000000000000000000000000000000000000000000000000000000000000000000000000000000002800DC000000000000000000
310
00000000000000000000000000000000000000000000000000000000000000000000000000000000000000000000000000000000000000000000000000000000000000000000000000000000000000000000000000000000000000000000000000000000000000000000000000000000000000000000000000000000000000
310
0000000000000000000000000000DC0000000000000000002800000000000000000000000000000000000000000000000000000000000000000000000000000000000000000000000000000000000000000000000000000000000000000000000000000000000000000000000000000000000000002800DC00000000000000
310
00000000000000000000000000000000000000000000000000000000000000000000000000000000000000000000000000000000000000000000000000000000000000000000000000000000000000000000000000000000000000000000000000000000000000000000000000000000000000000000000000000000000000
310
00000000000000000000000000000000DC0000000000000000002800000000000000000000000000000000000000000000000000000000000000000000000000000000000000000000000000000000000000000000000000000000000000000000000000000000000000000000000000000000000000002800DC0000000000
310
00000000000000000000000000000000000000000000000000000000000000000000000000000000000000000000000000000000000000000000000000000000000000000000000000000000000000000000000000000000000000000000000000000000000000000000000000000000000000000000000000000000000000
310
000000000000000000000000000000000000DC0000000000000000002800000000000000000000000000000000000000000000000000000000000000000000000000000000000000000000000000000000000000000000000000000000000000000000000000000000000000000000000000000000000000002800DC000000
310
00000000000000000000000000000000000000000000000000000000000000000000000000000000000000000000000000000000000000000000000000000000000000000000000000000000000000000000000000000000000000000000000000000000000000000000000000000000000000000000000000000000000000
310
0000000000000000000000000000000000000000DC0000000000000000002800000000000000000000000000000000000000000000000000000000000000000000000000000000000000000000000000000000000000000000000000000000000000000000000000000000000000000000000000000000000000002800DC00
310
00000000000000000000000000000000000000000000000000000000000000000000000000000000000000000000000000000000000000000000000000000000000000000000000000000000000000000000000000000000000000000000000000000000000000000000000000000000000000000000000000000000000000
310
00000000000000000000000000000000000000000000DC0000000000000000002800000000000000000000000000000000000000000000000000000000000000000000000000000000000000000000000000000000000000000000000000000000000000000000000000000000000000000000000000000000000000002800
310
DC000000000000000000000000000000000000000000000000000000000000000000000000000000000000000000000000000000000000000000000000000000000000000000000000000000000000000000000000000000000000000000000000000000000000000000000000000000000000000000000000000000000000
310
000000000000000000000000000000000000000000000000DC000000000000000000280000000000000000000000000000000000000000000000000000000000000000000000000000000000000000000000000000000000000000000000000000000000000000000000000000000000000000000000000000000000000000
310
2800DC00000000000000000000000000000000000000000000000000000000000000000000000000000000000000000000000000000000000000000000000000000000000000000000000000000000000000000000000000000000000000000000000000000000000000000000000000000000000000000000000000000000
310
0000000000000000000000000000000000000000000000000000DC00000000000000000028000000000000000000000000000000000000000000000000000000000000000000000000000000000000000000000000000000000000000000000000000000000000000000000000000000000000000000000000000000000000
310
00002800DC0000000000000000000000000000000000000000000000000000000000000000000000000000000000000000000000000000000000000000000000000000000000000000000000000000000000000000000000000000000000000000000000000000000000000000000000000000000000000000000000000000
310
00000000000000000000000000000000000000000000000000000000DC0000000000000000002800000000000000000000000000000000000000000000000000000000000000000000000000000000000000000000000000000000000000000000000000000000000000000000000000000000000000000000000000000000
310
000000002800DC000000000000000000000000000000000000000000000000000000000000000000000000000000000000000000000000000000000000000000000000000000000000000000000000000000000000000000000000000000000000000000000000000000000000000000000000000000000000000000000000
310
000000000000000000000000000000000000000000000000000000000000DC000000000000000000280000000000000000000000000000000000000000000000000000000000000000000000000000000000000000000000000000000000000000000000000000000000000000000000000000000000000000000000000000
310
0000000000002800DC00000000000000000000000000000000000000000000000000000000000000000000000000000000000000000000000000000000000000000000000000000000000000000000000000000000000000000000000000000000000000000000000000000000000000000000000000000000000000000000
310
0000000000000000000000000000000000000000000000000000000000000000DC00000000000000000028000000000000000000000000000000000000000000000000000000000000000000000000000000000000000000000000000000000000000000000000000000000000000000000000000000000000000000000000
310
00000000000000002800DC0000000000000000000000000000000000000000000000000000000000000000000000000000000000000000000000000000000000000000000000000000000000000000000000000000000000000000000000000000000000000000000000000000000000000000000000000000000000000000
310
00000000000000000000000000000000000000000000000000000000000000000000DC0000000000000000002828282828282828282828282828282828282828282828282828282828282828282828282828282828282828282828282828282828282828282828282828282828282828282828282828282828282828282828
310
282828282828282828282800DC000000000000000000000000000000000000000000000000000000000000000000000000000000000000000000000000000000000000000000000000000000000000000000000000000000000000000000000000000000000000000000000000000000000000000000000000000000000000
310
000000000000000000000000000000000000000000000000000000000000000000000000DC000000000000000000000000000000000000000000000000000000000000000000000000000000000000000000000000000000000000000000000000000000000000000000000000000000000000000000000000000000000000
310
0000000000000000000000000000DC00000000000000000000000000000000000000000000000000000000000000000000000000000000000000000000000000000000000000000000000000000000000000000000000000000000000000000000000000000000000000000000000000000000000000000000000000000000
310
0000000000000000000000000000000000000000000000000000000000000000000000000000DCDCDCDCDCDCDCDCDCDCDCDCDCDCDCDCDCDCDCDCDCDCDCDCDCDCDCDCDCDCDCDCDCDCDCDCDCDCDCDCDCDCDCDCDCDCDCDCDCDCDCDCDCDCDCDCDCDCDCDCDCDCDCDCDCDCDCDCDCDCDCDCDCDCDCDCDCDCDCDCDCDCDCDCDCDCDCDCDC
310
DCDCDCDCDCDCDCDCDCDCDCDCDCDCDCDCDC0000000000000000000000000000000000000000000000000000000000000000000000000000000000000000000000000000000000000000000000000000000000000000000000000000000000000000000000000000000000000000000000000000000000000000000000000000
310
00000000000000000000000000000000000000000000000000000000000000000000000000000000000000000000000000000000000000000000000000000000000000000000000000000000000000000000000000000000000000000000000000000000000000000000000000000000000000000000000000000000000000
310
00000000000000000000000000000000000000000000000000000000000000000000000000000000000000000000000000000000000000000000000000000000000000000000000000000000000000000000000000000000000000000000
  0
XRECORD
  5
1D76
102
{ACAD_REACTORS
330
1BED
102
}
330
1BED
100
AcDbXrecord
280
     1
102
MATERIAL
148
0.0
149
0.0
149
0.0
 93
        0
 94
      127
282
     0
 72
     0
 77
     0
171
     0
175
     0
179
     0
273
     0
  0
XRECORD
  5
1BEF
102
{ACAD_REACTORS
330
1BED
102
}
330
1BED
100
AcDbXrecord
280
     1
270
     1
271
     1
  0
XRECORD
  5
1BEE
102
{ACAD_REACTORS
330
1BED
102
}
330
1BED
100
AcDbXrecord
280
     1
270
     1
271
     1
  0
XRECORD
  5
1BF2
102
{ACAD_REACTORS
330
1BED
102
}
330
1BED
100
AcDbXrecord
280
     1
270
     1
271
     1
  0
XRECORD
  5
1BF1
102
{ACAD_REACTORS
330
1BED
102
}
330
1BED
100
AcDbXrecord
280
     1
270
     1
271
     1
  0
XRECORD
  5
1BF3
102
{ACAD_REACTORS
330
1BED
102
}
330
1BED
100
AcDbXrecord
280
     1
270
     1
271
     1
  0
XRECORD
  5
1BF0
102
{ACAD_REACTORS
330
1BED
102
}
330
1BED
100
AcDbXrecord
280
     1
270
     1
271
     1
  0
XRECORD
  5
1D75
102
{ACAD_REACTORS
330
1BE5
102
}
330
1BE5
100
AcDbXrecord
280
     1
102
MATERIAL
148
0.0
149
0.0
149
0.0
 93
        0
 94
      127
282
     0
 72
     0
 77
     0
171
     0
175
     0
179
     0
273
     0
  0
XRECORD
  5
1BE7
102
{ACAD_REACTORS
330
1BE5
102
}
330
1BE5
100
AcDbXrecord
280
     1
270
     1
271
     1
  0
XRECORD
  5
1BE6
102
{ACAD_REACTORS
330
1BE5
102
}
330
1BE5
100
AcDbXrecord
280
     1
270
     1
271
     1
  0
XRECORD
  5
1BEA
102
{ACAD_REACTORS
330
1BE5
102
}
330
1BE5
100
AcDbXrecord
280
     1
270
     1
271
     1
  0
XRECORD
  5
1BE9
102
{ACAD_REACTORS
330
1BE5
102
}
330
1BE5
100
AcDbXrecord
280
     1
270
     1
271
     1
  0
XRECORD
  5
1BEB
102
{ACAD_REACTORS
330
1BE5
102
}
330
1BE5
100
AcDbXrecord
280
     1
270
     1
271
     1
  0
XRECORD
  5
1BE8
102
{ACAD_REACTORS
330
1BE5
102
}
330
1BE5
100
AcDbXrecord
280
     1
270
     1
271
     1
  0
XRECORD
  5
1D77
102
{ACAD_REACTORS
330
1BF5
102
}
330
1BF5
100
AcDbXrecord
280
     1
102
MATERIAL
148
0.0
149
0.0
149
0.0
 93
        0
 94
      127
282
     0
 72
     0
 77
     0
171
     0
175
     0
179
     0
273
     0
  0
XRECORD
  5
1BF7
102
{ACAD_REACTORS
330
1BF5
102
}
330
1BF5
100
AcDbXrecord
280
     1
270
     1
271
     1
  0
XRECORD
  5
1BF6
102
{ACAD_REACTORS
330
1BF5
102
}
330
1BF5
100
AcDbXrecord
280
     1
270
     1
271
     1
  0
XRECORD
  5
1BFA
102
{ACAD_REACTORS
330
1BF5
102
}
330
1BF5
100
AcDbXrecord
280
     1
270
     1
271
     1
  0
XRECORD
  5
1BF9
102
{ACAD_REACTORS
330
1BF5
102
}
330
1BF5
100
AcDbXrecord
280
     1
270
     1
271
     1
  0
XRECORD
  5
1BFB
102
{ACAD_REACTORS
330
1BF5
102
}
330
1BF5
100
AcDbXrecord
280
     1
270
     1
271
     1
  0
XRECORD
  5
1BF8
102
{ACAD_REACTORS
330
1BF5
102
}
330
1BF5
100
AcDbXrecord
280
     1
270
     1
271
     1
  0
XRECORD
  5
1DAA
102
{ACAD_REACTORS
330
1DA9
102
}
330
1DA9
100
AcDbXrecord
280
     1
102
ACAD_ROUNDTRIP_2012_MLEADER_STYLE
298
     1
  0
CELLSTYLEMAP
  5
1D6B
102
{ACAD_REACTORS
330
1C75
102
}
330
1C75
100
AcDbCellStyleMap
 90
        3
300
CELLSTYLE
  1
TABLEFORMAT_BEGIN
 90
        5
170
     1
 91
        0
 92
    32768
 62
   257
 93
        1
300
CONTENTFORMAT
  1
CONTENTFORMAT_BEGIN
 90
        0
 91
        0
 92
      512
 93
        0
300

 40
0.0
140
1.0
 94
        5
 62
     0
340
11
144
0.25
309
CONTENTFORMAT_END
171
     0
 94
        0
309
TABLEFORMAT_END
  1
CELLSTYLE_BEGIN
 90
        1
 91
        1
300
_TITLE
309
CELLSTYLE_END
300
CELLSTYLE
  1
TABLEFORMAT_BEGIN
 90
        5
170
     1
 91
        0
 92
        0
 62
   257
 93
        1
300
CONTENTFORMAT
  1
CONTENTFORMAT_BEGIN
 90
        0
 91
        0
 92
      512
 93
        0
300

 40
0.0
140
1.0
 94
        5
 62
     0
340
11
144
0.18
309
CONTENTFORMAT_END
171
     0
 94
        0
309
TABLEFORMAT_END
  1
CELLSTYLE_BEGIN
 90
        2
 91
        1
300
_HEADER
309
CELLSTYLE_END
300
CELLSTYLE
  1
TABLEFORMAT_BEGIN
 90
        5
170
     1
 91
        0
 92
        0
 62
   257
 93
        1
300
CONTENTFORMAT
  1
CONTENTFORMAT_BEGIN
 90
        0
 91
        0
 92
      512
 93
        0
300

 40
0.0
140
1.0
 94
        2
 62
     0
340
11
144
0.18
309
CONTENTFORMAT_END
171
     0
 94
        0
309
TABLEFORMAT_END
  1
CELLSTYLE_BEGIN
 90
        3
 91
        2
300
_DATA
309
CELLSTYLE_END
  0
XRECORD
  5
1DA8
102
{ACAD_REACTORS
330
1C75
102
}
330
1C75
100
AcDbXrecord
280
     1
102
ACAD_ROUNDTRIP_PRE2007_TABLESTYLE
 90
      512
 91
        0
  1

 92
      512
 93
        0
  2

 94
      512
 95
        0
  3

  0
XRECORD
  5
1D83
102
{ACAD_REACTORS
330
1D82
102
}
330
1D82
100
AcDbXrecord
280
     1
102
RTVSPost2010Prop28
280
     1
102
RTVSPost2010PropOp28
 70
     1
102
RTVSPost2010Prop29
280
     1
102
RTVSPost2010PropOp29
 70
     1
102
RTVSPost2010Prop30
280
     0
102
RTVSPost2010PropOp30
 70
     1
102
RTVSPost2010Prop31
280
     0
102
RTVSPost2010PropOp31
 70
     1
102
RTVSPost2010Prop32
280
     0
102
RTVSPost2010PropOp32
 70
     1
102
RTVSPost2010Prop33
280
     0
102
RTVSPost2010PropOp33
 70
     1
102
RTVSPost2010Prop34
280
     0
102
RTVSPost2010PropOp34
 70
     1
102
RTVSPost2010Prop35
280
     0
102
RTVSPost2010PropOp35
 70
     1
102
RTVSPost2010Prop36
280
     0
102
RTVSPost2010PropOp36
 70
     1
102
RTVSPost2010Prop37
 90
       50
102
RTVSPost2010PropOp37
 70
     1
102
RTVSPost2010Prop38
140
0.0
102
RTVSPost2010PropOp38
 70
     1
102
RTVSPost2010Prop39
140
1.0
102
RTVSPost2010PropOp39
 70
     1
102
RTVSPost2010Prop40
 90
        0
102
RTVSPost2010PropOp40
 70
     1
102
RTVSPost2010Prop41ColorIndex
 90
       18
102
RTVSPost2010Prop41ColorRGB
 90
        0
102
RTVSPost2010PropOp41
 70
     1
102
RTVSPost2010Prop42
 90
       50
102
RTVSPost2010PropOp42
 70
     1
102
RTVSPost2010Prop43
 90
        3
102
RTVSPost2010PropOp43
 70
     1
102
RTVSPost2010Prop44ColorIndex
 90
        5
102
RTVSPost2010Prop44ColorRGB
 90
      255
102
RTVSPost2010PropOp44
 70
     1
102
RTVSPost2010Prop45
280
     0
102
RTVSPost2010PropOp45
 70
     1
102
RTVSPost2010Prop46
 90
       50
102
RTVSPost2010PropOp46
 70
     1
102
RTVSPost2010Prop47
 90
       50
102
RTVSPost2010PropOp47
 70
     1
102
RTVSPost2010Prop48
 90
       50
102
RTVSPost2010PropOp48
 70
     1
102
RTVSPost2010Prop49
280
     0
102
RTVSPost2010PropOp49
 70
     1
102
RTVSPost2010Prop50
 90
       50
102
RTVSPost2010PropOp50
 70
     1
102
RTVSPost2010Prop51ColorIndex
 90
      256
102
RTVSPost2010Prop51ColorRGB
 90
-16777216
102
RTVSPost2010PropOp51
 70
     0
102
RTVSPost2010Prop52
140
1.0
102
RTVSPost2010PropOp52
 70
     0
102
RTVSPost2010Prop53
 90
        2
102
RTVSPost2010PropOp53
 70
     1
102
RTVSPost2010Prop54
  1
strokes_ogs.tif
102
RTVSPost2010PropOp54
 70
     1
102
RTVSPost2010Prop55
280
     0
102
RTVSPost2010PropOp55
 70
     1
102
RTVSPost2010Prop56
140
1.0
102
RTVSPost2010PropOp56
 70
     1
102
RTVSPost2010Prop57
140
1.0
102
RTVSPost2010PropOp57
 70
     1
102
RTVSPropertyOp0
 70
     1
102
RTVSPropertyOp1
 70
     1
102
RTVSPropertyOp2
 70
     1
102
RTVSPropertyOp3
 70
     1
102
RTVSPropertyOp4
 70
     1
102
RTVSPropertyOp5
 70
     1
102
RTVSPropertyOp6
 70
     1
102
RTVSPropertyOp7
 70
     1
102
RTVSPropertyOp8
 70
     1
102
RTVSPropertyOp9
 70
     1
102
RTVSPropertyOp10
 70
     1
102
RTVSPropertyOp11
 70
     1
102
RTVSPropertyOp12
 70
     1
102
RTVSPropertyOp13
 70
     1
102
RTVSPropertyOp14
 70
     1
102
RTVSPropertyOp15
 70
     1
102
RTVSPropertyOp16
 70
     1
102
RTVSPropertyOp17
 70
     1
102
RTVSPropertyOp18
 70
     1
102
RTVSPropertyOp19
 70
     1
102
RTVSPropertyOp20
 70
     1
102
RTVSPropertyOp21
 70
     1
102
RTVSPropertyOp22
 70
     1
102
RTVSPropertyOp23
 70
     1
102
RTVSPropertyOp24
 70
     1
102
RTVSPropertyOp25
 70
     1
102
RTVSPropertyOp26
 70
     1
102
RTVSPropertyOp27
 70
     1
102
RTVSPropertyOp28
 70
     1
102
RTVSPropertyOp29
 70
     1
102
RTVSPropertyOp30
 70
     1
102
RTVSPropertyOp31
 70
     1
102
RTVSPropertyOp32
 70
     1
102
RTVSPropertyOp33
 70
     1
102
RTVSPropertyOp34
 70
     1
102
RTVSPropertyOp35
 70
     1
102
RTVSPropertyOp36
 70
     1
102
RTVSPropertyOp37
 70
     1
102
RTVSPropertyOp38
 70
     1
102
RTVSPropertyOp39
 70
     1
102
RTVSPropertyOp40
 70
     1
102
RTVSPropertyOp41
 70
     1
102
RTVSPropertyOp42
 70
     1
102
RTVSPropertyOp43
 70
     1
102
RTVSPropertyOp44
 70
     1
102
RTVSPropertyOp45
 70
     1
102
RTVSPropertyOp46
 70
     1
102
RTVSPropertyOp47
 70
     1
102
RTVSPropertyOp48
 70
     1
102
RTVSPropertyOp49
 70
     1
102
RTVSPropertyOp50
 70
     1
102
RTVSPropertyOp51
 70
     0
102
RTVSPropertyOp52
 70
     0
102
RTVSPropertyOp53
 70
     1
102
RTVSPropertyOp54
 70
     1
102
RTVSPropertyOp55
 70
     1
102
RTVSPropertyOp56
 70
     1
102
RTVSPropertyOp57
 70
     1
102
RTVSPropertyOp58
 70
     1
102
RTVSPropertyOp59
 70
     1
102
RTVSPropertyOp60
 70
     1
102
RTVSPropertyOp61
 70
     1
102
RTVSPropertyOp62
 70
     1
  0
XRECORD
  5
1D81
102
{ACAD_REACTORS
330
1D80
102
}
330
1D80
100
AcDbXrecord
280
     1
102
RTVSPost2010Prop28
280
     0
102
RTVSPost2010PropOp28
 70
     1
102
RTVSPost2010Prop29
280
     1
102
RTVSPost2010PropOp29
 70
     1
102
RTVSPost2010Prop30
280
     1
102
RTVSPost2010PropOp30
 70
     1
102
RTVSPost2010Prop31
280
     0
102
RTVSPost2010PropOp31
 70
     1
102
RTVSPost2010Prop32
280
     0
102
RTVSPost2010PropOp32
 70
     1
102
RTVSPost2010Prop33
280
     0
102
RTVSPost2010PropOp33
 70
     1
102
RTVSPost2010Prop34
280
     0
102
RTVSPost2010PropOp34
 70
     1
102
RTVSPost2010Prop35
280
     0
102
RTVSPost2010PropOp35
 70
     1
102
RTVSPost2010Prop36
280
     0
102
RTVSPost2010PropOp36
 70
     1
102
RTVSPost2010Prop37
 90
       50
102
RTVSPost2010PropOp37
 70
     1
102
RTVSPost2010Prop38
140
0.0
102
RTVSPost2010PropOp38
 70
     1
102
RTVSPost2010Prop39
140
1.0
102
RTVSPost2010PropOp39
 70
     1
102
RTVSPost2010Prop40
 90
        0
102
RTVSPost2010PropOp40
 70
     1
102
RTVSPost2010Prop41ColorIndex
 90
       18
102
RTVSPost2010Prop41ColorRGB
 90
        0
102
RTVSPost2010PropOp41
 70
     1
102
RTVSPost2010Prop42
 90
       50
102
RTVSPost2010PropOp42
 70
     1
102
RTVSPost2010Prop43
 90
        3
102
RTVSPost2010PropOp43
 70
     1
102
RTVSPost2010Prop44ColorIndex
 90
        5
102
RTVSPost2010Prop44ColorRGB
 90
      255
102
RTVSPost2010PropOp44
 70
     1
102
RTVSPost2010Prop45
280
     0
102
RTVSPost2010PropOp45
 70
     1
102
RTVSPost2010Prop46
 90
       50
102
RTVSPost2010PropOp46
 70
     1
102
RTVSPost2010Prop47
 90
       50
102
RTVSPost2010PropOp47
 70
     1
102
RTVSPost2010Prop48
 90
       50
102
RTVSPost2010PropOp48
 70
     1
102
RTVSPost2010Prop49
280
     0
102
RTVSPost2010PropOp49
 70
     1
102
RTVSPost2010Prop50
 90
       50
102
RTVSPost2010PropOp50
 70
     1
102
RTVSPost2010Prop51ColorIndex
 90
      256
102
RTVSPost2010Prop51ColorRGB
 90
-16777216
102
RTVSPost2010PropOp51
 70
     0
102
RTVSPost2010Prop52
140
1.0
102
RTVSPost2010PropOp52
 70
     0
102
RTVSPost2010Prop53
 90
        2
102
RTVSPost2010PropOp53
 70
     1
102
RTVSPost2010Prop54
  1
strokes_ogs.tif
102
RTVSPost2010PropOp54
 70
     1
102
RTVSPost2010Prop55
280
     0
102
RTVSPost2010PropOp55
 70
     1
102
RTVSPost2010Prop56
140
1.0
102
RTVSPost2010PropOp56
 70
     1
102
RTVSPost2010Prop57
140
1.0
102
RTVSPost2010PropOp57
 70
     1
102
RTVSPropertyOp0
 70
     1
102
RTVSPropertyOp1
 70
     1
102
RTVSPropertyOp2
 70
     1
102
RTVSPropertyOp3
 70
     1
102
RTVSPropertyOp4
 70
     1
102
RTVSPropertyOp5
 70
     1
102
RTVSPropertyOp6
 70
     1
102
RTVSPropertyOp7
 70
     1
102
RTVSPropertyOp8
 70
     1
102
RTVSPropertyOp9
 70
     1
102
RTVSPropertyOp10
 70
     1
102
RTVSPropertyOp11
 70
     1
102
RTVSPropertyOp12
 70
     1
102
RTVSPropertyOp13
 70
     1
102
RTVSPropertyOp14
 70
     1
102
RTVSPropertyOp15
 70
     1
102
RTVSPropertyOp16
 70
     1
102
RTVSPropertyOp17
 70
     1
102
RTVSPropertyOp18
 70
     1
102
RTVSPropertyOp19
 70
     1
102
RTVSPropertyOp20
 70
     1
102
RTVSPropertyOp21
 70
     1
102
RTVSPropertyOp22
 70
     1
102
RTVSPropertyOp23
 70
     1
102
RTVSPropertyOp24
 70
     1
102
RTVSPropertyOp25
 70
     1
102
RTVSPropertyOp26
 70
     1
102
RTVSPropertyOp27
 70
     1
102
RTVSPropertyOp28
 70
     1
102
RTVSPropertyOp29
 70
     1
102
RTVSPropertyOp30
 70
     1
102
RTVSPropertyOp31
 70
     1
102
RTVSPropertyOp32
 70
     1
102
RTVSPropertyOp33
 70
     1
102
RTVSPropertyOp34
 70
     1
102
RTVSPropertyOp35
 70
     1
102
RTVSPropertyOp36
 70
     1
102
RTVSPropertyOp37
 70
     1
102
RTVSPropertyOp38
 70
     1
102
RTVSPropertyOp39
 70
     1
102
RTVSPropertyOp40
 70
     1
102
RTVSPropertyOp41
 70
     1
102
RTVSPropertyOp42
 70
     1
102
RTVSPropertyOp43
 70
     1
102
RTVSPropertyOp44
 70
     1
102
RTVSPropertyOp45
 70
     1
102
RTVSPropertyOp46
 70
     1
102
RTVSPropertyOp47
 70
     1
102
RTVSPropertyOp48
 70
     1
102
RTVSPropertyOp49
 70
     1
102
RTVSPropertyOp50
 70
     1
102
RTVSPropertyOp51
 70
     0
102
RTVSPropertyOp52
 70
     0
102
RTVSPropertyOp53
 70
     1
102
RTVSPropertyOp54
 70
     1
102
RTVSPropertyOp55
 70
     1
102
RTVSPropertyOp56
 70
     1
102
RTVSPropertyOp57
 70
     1
102
RTVSPropertyOp58
 70
     1
102
RTVSPropertyOp59
 70
     1
102
RTVSPropertyOp60
 70
     1
102
RTVSPropertyOp61
 70
     1
102
RTVSPropertyOp62
 70
     1
  0
XRECORD
  5
1D8F
102
{ACAD_REACTORS
330
1D8E
102
}
330
1D8E
100
AcDbXrecord
280
     1
102
RTVSPost2010Prop28
280
     0
102
RTVSPost2010PropOp28
 70
     1
102
RTVSPost2010Prop29
280
     1
102
RTVSPost2010PropOp29
 70
     1
102
RTVSPost2010Prop30
280
     1
102
RTVSPost2010PropOp30
 70
     1
102
RTVSPost2010Prop31
280
     0
102
RTVSPost2010PropOp31
 70
     1
102
RTVSPost2010Prop32
280
     0
102
RTVSPost2010PropOp32
 70
     1
102
RTVSPost2010Prop33
280
     0
102
RTVSPost2010PropOp33
 70
     1
102
RTVSPost2010Prop34
280
     0
102
RTVSPost2010PropOp34
 70
     1
102
RTVSPost2010Prop35
280
     0
102
RTVSPost2010PropOp35
 70
     1
102
RTVSPost2010Prop36
280
     0
102
RTVSPost2010PropOp36
 70
     1
102
RTVSPost2010Prop37
 90
       50
102
RTVSPost2010PropOp37
 70
     1
102
RTVSPost2010Prop38
140
0.0
102
RTVSPost2010PropOp38
 70
     1
102
RTVSPost2010Prop39
140
1.0
102
RTVSPost2010PropOp39
 70
     1
102
RTVSPost2010Prop40
 90
        0
102
RTVSPost2010PropOp40
 70
     1
102
RTVSPost2010Prop41ColorIndex
 90
       18
102
RTVSPost2010Prop41ColorRGB
 90
        0
102
RTVSPost2010PropOp41
 70
     1
102
RTVSPost2010Prop42
 90
       50
102
RTVSPost2010PropOp42
 70
     1
102
RTVSPost2010Prop43
 90
        3
102
RTVSPost2010PropOp43
 70
     1
102
RTVSPost2010Prop44ColorIndex
 90
        5
102
RTVSPost2010Prop44ColorRGB
 90
      255
102
RTVSPost2010PropOp44
 70
     1
102
RTVSPost2010Prop45
280
     0
102
RTVSPost2010PropOp45
 70
     1
102
RTVSPost2010Prop46
 90
       50
102
RTVSPost2010PropOp46
 70
     1
102
RTVSPost2010Prop47
 90
       50
102
RTVSPost2010PropOp47
 70
     1
102
RTVSPost2010Prop48
 90
       50
102
RTVSPost2010PropOp48
 70
     1
102
RTVSPost2010Prop49
280
     0
102
RTVSPost2010PropOp49
 70
     1
102
RTVSPost2010Prop50
 90
       50
102
RTVSPost2010PropOp50
 70
     1
102
RTVSPost2010Prop51ColorIndex
 90
      256
102
RTVSPost2010Prop51ColorRGB
 90
-16777216
102
RTVSPost2010PropOp51
 70
     0
102
RTVSPost2010Prop52
140
1.0
102
RTVSPost2010PropOp52
 70
     0
102
RTVSPost2010Prop53
 90
        2
102
RTVSPost2010PropOp53
 70
     1
102
RTVSPost2010Prop54
  1
strokes_ogs.tif
102
RTVSPost2010PropOp54
 70
     1
102
RTVSPost2010Prop55
280
     0
102
RTVSPost2010PropOp55
 70
     1
102
RTVSPost2010Prop56
140
1.0
102
RTVSPost2010PropOp56
 70
     1
102
RTVSPost2010Prop57
140
1.0
102
RTVSPost2010PropOp57
 70
     1
102
RTVSPropertyOp0
 70
     1
102
RTVSPropertyOp1
 70
     1
102
RTVSPropertyOp2
 70
     1
102
RTVSPropertyOp3
 70
     1
102
RTVSPropertyOp4
 70
     1
102
RTVSPropertyOp5
 70
     1
102
RTVSPropertyOp6
 70
     1
102
RTVSPropertyOp7
 70
     1
102
RTVSPropertyOp8
 70
     1
102
RTVSPropertyOp9
 70
     1
102
RTVSPropertyOp10
 70
     1
102
RTVSPropertyOp11
 70
     1
102
RTVSPropertyOp12
 70
     1
102
RTVSPropertyOp13
 70
     1
102
RTVSPropertyOp14
 70
     1
102
RTVSPropertyOp15
 70
     1
102
RTVSPropertyOp16
 70
     1
102
RTVSPropertyOp17
 70
     1
102
RTVSPropertyOp18
 70
     1
102
RTVSPropertyOp19
 70
     1
102
RTVSPropertyOp20
 70
     1
102
RTVSPropertyOp21
 70
     1
102
RTVSPropertyOp22
 70
     1
102
RTVSPropertyOp23
 70
     1
102
RTVSPropertyOp24
 70
     1
102
RTVSPropertyOp25
 70
     1
102
RTVSPropertyOp26
 70
     1
102
RTVSPropertyOp27
 70
     1
102
RTVSPropertyOp28
 70
     1
102
RTVSPropertyOp29
 70
     1
102
RTVSPropertyOp30
 70
     1
102
RTVSPropertyOp31
 70
     1
102
RTVSPropertyOp32
 70
     1
102
RTVSPropertyOp33
 70
     1
102
RTVSPropertyOp34
 70
     1
102
RTVSPropertyOp35
 70
     1
102
RTVSPropertyOp36
 70
     1
102
RTVSPropertyOp37
 70
     1
102
RTVSPropertyOp38
 70
     1
102
RTVSPropertyOp39
 70
     1
102
RTVSPropertyOp40
 70
     1
102
RTVSPropertyOp41
 70
     1
102
RTVSPropertyOp42
 70
     1
102
RTVSPropertyOp43
 70
     1
102
RTVSPropertyOp44
 70
     1
102
RTVSPropertyOp45
 70
     1
102
RTVSPropertyOp46
 70
     1
102
RTVSPropertyOp47
 70
     1
102
RTVSPropertyOp48
 70
     1
102
RTVSPropertyOp49
 70
     1
102
RTVSPropertyOp50
 70
     1
102
RTVSPropertyOp51
 70
     0
102
RTVSPropertyOp52
 70
     0
102
RTVSPropertyOp53
 70
     1
102
RTVSPropertyOp54
 70
     1
102
RTVSPropertyOp55
 70
     1
102
RTVSPropertyOp56
 70
     1
102
RTVSPropertyOp57
 70
     1
102
RTVSPropertyOp58
 70
     1
102
RTVSPropertyOp59
 70
     1
102
RTVSPropertyOp60
 70
     1
102
RTVSPropertyOp61
 70
     1
102
RTVSPropertyOp62
 70
     1
  0
XRECORD
  5
1D97
102
{ACAD_REACTORS
330
1D96
102
}
330
1D96
100
AcDbXrecord
280
     1
102
RTVSPost2010Prop28
280
     0
102
RTVSPost2010PropOp28
 70
     1
102
RTVSPost2010Prop29
280
     1
102
RTVSPost2010PropOp29
 70
     1
102
RTVSPost2010Prop30
280
     1
102
RTVSPost2010PropOp30
 70
     1
102
RTVSPost2010Prop31
280
     0
102
RTVSPost2010PropOp31
 70
     1
102
RTVSPost2010Prop32
280
     0
102
RTVSPost2010PropOp32
 70
     1
102
RTVSPost2010Prop33
280
     0
102
RTVSPost2010PropOp33
 70
     1
102
RTVSPost2010Prop34
280
     0
102
RTVSPost2010PropOp34
 70
     1
102
RTVSPost2010Prop35
280
     0
102
RTVSPost2010PropOp35
 70
     1
102
RTVSPost2010Prop36
280
     0
102
RTVSPost2010PropOp36
 70
     1
102
RTVSPost2010Prop37
 90
       50
102
RTVSPost2010PropOp37
 70
     1
102
RTVSPost2010Prop38
140
0.0
102
RTVSPost2010PropOp38
 70
     1
102
RTVSPost2010Prop39
140
1.0
102
RTVSPost2010PropOp39
 70
     1
102
RTVSPost2010Prop40
 90
        0
102
RTVSPost2010PropOp40
 70
     1
102
RTVSPost2010Prop41ColorIndex
 90
       18
102
RTVSPost2010Prop41ColorRGB
 90
        0
102
RTVSPost2010PropOp41
 70
     1
102
RTVSPost2010Prop42
 90
       50
102
RTVSPost2010PropOp42
 70
     1
102
RTVSPost2010Prop43
 90
        3
102
RTVSPost2010PropOp43
 70
     1
102
RTVSPost2010Prop44ColorIndex
 90
        5
102
RTVSPost2010Prop44ColorRGB
 90
      255
102
RTVSPost2010PropOp44
 70
     1
102
RTVSPost2010Prop45
280
     0
102
RTVSPost2010PropOp45
 70
     1
102
RTVSPost2010Prop46
 90
       50
102
RTVSPost2010PropOp46
 70
     1
102
RTVSPost2010Prop47
 90
       50
102
RTVSPost2010PropOp47
 70
     1
102
RTVSPost2010Prop48
 90
       50
102
RTVSPost2010PropOp48
 70
     1
102
RTVSPost2010Prop49
280
     0
102
RTVSPost2010PropOp49
 70
     1
102
RTVSPost2010Prop50
 90
       50
102
RTVSPost2010PropOp50
 70
     1
102
RTVSPost2010Prop51ColorIndex
 90
      256
102
RTVSPost2010Prop51ColorRGB
 90
-16777216
102
RTVSPost2010PropOp51
 70
     0
102
RTVSPost2010Prop52
140
1.0
102
RTVSPost2010PropOp52
 70
     0
102
RTVSPost2010Prop53
 90
        2
102
RTVSPost2010PropOp53
 70
     1
102
RTVSPost2010Prop54
  1
strokes_ogs.tif
102
RTVSPost2010PropOp54
 70
     1
102
RTVSPost2010Prop55
280
     0
102
RTVSPost2010PropOp55
 70
     1
102
RTVSPost2010Prop56
140
1.0
102
RTVSPost2010PropOp56
 70
     1
102
RTVSPost2010Prop57
140
1.0
102
RTVSPost2010PropOp57
 70
     1
102
RTVSPropertyOp0
 70
     1
102
RTVSPropertyOp1
 70
     1
102
RTVSPropertyOp2
 70
     1
102
RTVSPropertyOp3
 70
     1
102
RTVSPropertyOp4
 70
     1
102
RTVSPropertyOp5
 70
     1
102
RTVSPropertyOp6
 70
     1
102
RTVSPropertyOp7
 70
     1
102
RTVSPropertyOp8
 70
     1
102
RTVSPropertyOp9
 70
     1
102
RTVSPropertyOp10
 70
     1
102
RTVSPropertyOp11
 70
     1
102
RTVSPropertyOp12
 70
     1
102
RTVSPropertyOp13
 70
     1
102
RTVSPropertyOp14
 70
     1
102
RTVSPropertyOp15
 70
     1
102
RTVSPropertyOp16
 70
     1
102
RTVSPropertyOp17
 70
     1
102
RTVSPropertyOp18
 70
     1
102
RTVSPropertyOp19
 70
     1
102
RTVSPropertyOp20
 70
     1
102
RTVSPropertyOp21
 70
     1
102
RTVSPropertyOp22
 70
     1
102
RTVSPropertyOp23
 70
     1
102
RTVSPropertyOp24
 70
     1
102
RTVSPropertyOp25
 70
     1
102
RTVSPropertyOp26
 70
     1
102
RTVSPropertyOp27
 70
     1
102
RTVSPropertyOp28
 70
     1
102
RTVSPropertyOp29
 70
     1
102
RTVSPropertyOp30
 70
     1
102
RTVSPropertyOp31
 70
     1
102
RTVSPropertyOp32
 70
     1
102
RTVSPropertyOp33
 70
     1
102
RTVSPropertyOp34
 70
     1
102
RTVSPropertyOp35
 70
     1
102
RTVSPropertyOp36
 70
     1
102
RTVSPropertyOp37
 70
     1
102
RTVSPropertyOp38
 70
     1
102
RTVSPropertyOp39
 70
     1
102
RTVSPropertyOp40
 70
     1
102
RTVSPropertyOp41
 70
     1
102
RTVSPropertyOp42
 70
     1
102
RTVSPropertyOp43
 70
     1
102
RTVSPropertyOp44
 70
     1
102
RTVSPropertyOp45
 70
     1
102
RTVSPropertyOp46
 70
     1
102
RTVSPropertyOp47
 70
     1
102
RTVSPropertyOp48
 70
     1
102
RTVSPropertyOp49
 70
     1
102
RTVSPropertyOp50
 70
     1
102
RTVSPropertyOp51
 70
     0
102
RTVSPropertyOp52
 70
     0
102
RTVSPropertyOp53
 70
     1
102
RTVSPropertyOp54
 70
     1
102
RTVSPropertyOp55
 70
     1
102
RTVSPropertyOp56
 70
     1
102
RTVSPropertyOp57
 70
     1
102
RTVSPropertyOp58
 70
     1
102
RTVSPropertyOp59
 70
     1
102
RTVSPropertyOp60
 70
     1
102
RTVSPropertyOp61
 70
     1
102
RTVSPropertyOp62
 70
     1
  0
XRECORD
  5
1D89
102
{ACAD_REACTORS
330
1D88
102
}
330
1D88
100
AcDbXrecord
280
     1
102
RTVSPost2010Prop28
280
     0
102
RTVSPost2010PropOp28
 70
     1
102
RTVSPost2010Prop29
280
     1
102
RTVSPost2010PropOp29
 70
     1
102
RTVSPost2010Prop30
280
     1
102
RTVSPost2010PropOp30
 70
     1
102
RTVSPost2010Prop31
280
     0
102
RTVSPost2010PropOp31
 70
     1
102
RTVSPost2010Prop32
280
     0
102
RTVSPost2010PropOp32
 70
     1
102
RTVSPost2010Prop33
280
     0
102
RTVSPost2010PropOp33
 70
     1
102
RTVSPost2010Prop34
280
     0
102
RTVSPost2010PropOp34
 70
     1
102
RTVSPost2010Prop35
280
     0
102
RTVSPost2010PropOp35
 70
     1
102
RTVSPost2010Prop36
280
     0
102
RTVSPost2010PropOp36
 70
     1
102
RTVSPost2010Prop37
 90
       50
102
RTVSPost2010PropOp37
 70
     1
102
RTVSPost2010Prop38
140
0.0
102
RTVSPost2010PropOp38
 70
     1
102
RTVSPost2010Prop39
140
1.0
102
RTVSPost2010PropOp39
 70
     1
102
RTVSPost2010Prop40
 90
        0
102
RTVSPost2010PropOp40
 70
     1
102
RTVSPost2010Prop41ColorIndex
 90
       18
102
RTVSPost2010Prop41ColorRGB
 90
        0
102
RTVSPost2010PropOp41
 70
     1
102
RTVSPost2010Prop42
 90
       50
102
RTVSPost2010PropOp42
 70
     1
102
RTVSPost2010Prop43
 90
        3
102
RTVSPost2010PropOp43
 70
     1
102
RTVSPost2010Prop44ColorIndex
 90
        5
102
RTVSPost2010Prop44ColorRGB
 90
      255
102
RTVSPost2010PropOp44
 70
     1
102
RTVSPost2010Prop45
280
     0
102
RTVSPost2010PropOp45
 70
     1
102
RTVSPost2010Prop46
 90
       50
102
RTVSPost2010PropOp46
 70
     1
102
RTVSPost2010Prop47
 90
       50
102
RTVSPost2010PropOp47
 70
     1
102
RTVSPost2010Prop48
 90
       50
102
RTVSPost2010PropOp48
 70
     1
102
RTVSPost2010Prop49
280
     0
102
RTVSPost2010PropOp49
 70
     1
102
RTVSPost2010Prop50
 90
       50
102
RTVSPost2010PropOp50
 70
     1
102
RTVSPost2010Prop51ColorIndex
 90
      256
102
RTVSPost2010Prop51ColorRGB
 90
-16777216
102
RTVSPost2010PropOp51
 70
     0
102
RTVSPost2010Prop52
140
1.0
102
RTVSPost2010PropOp52
 70
     0
102
RTVSPost2010Prop53
 90
        2
102
RTVSPost2010PropOp53
 70
     1
102
RTVSPost2010Prop54
  1
strokes_ogs.tif
102
RTVSPost2010PropOp54
 70
     1
102
RTVSPost2010Prop55
280
     0
102
RTVSPost2010PropOp55
 70
     1
102
RTVSPost2010Prop56
140
1.0
102
RTVSPost2010PropOp56
 70
     1
102
RTVSPost2010Prop57
140
1.0
102
RTVSPost2010PropOp57
 70
     1
102
RTVSPropertyOp0
 70
     1
102
RTVSPropertyOp1
 70
     1
102
RTVSPropertyOp2
 70
     1
102
RTVSPropertyOp3
 70
     1
102
RTVSPropertyOp4
 70
     1
102
RTVSPropertyOp5
 70
     1
102
RTVSPropertyOp6
 70
     1
102
RTVSPropertyOp7
 70
     1
102
RTVSPropertyOp8
 70
     1
102
RTVSPropertyOp9
 70
     1
102
RTVSPropertyOp10
 70
     1
102
RTVSPropertyOp11
 70
     1
102
RTVSPropertyOp12
 70
     1
102
RTVSPropertyOp13
 70
     1
102
RTVSPropertyOp14
 70
     1
102
RTVSPropertyOp15
 70
     1
102
RTVSPropertyOp16
 70
     1
102
RTVSPropertyOp17
 70
     1
102
RTVSPropertyOp18
 70
     1
102
RTVSPropertyOp19
 70
     1
102
RTVSPropertyOp20
 70
     1
102
RTVSPropertyOp21
 70
     1
102
RTVSPropertyOp22
 70
     1
102
RTVSPropertyOp23
 70
     1
102
RTVSPropertyOp24
 70
     1
102
RTVSPropertyOp25
 70
     1
102
RTVSPropertyOp26
 70
     1
102
RTVSPropertyOp27
 70
     1
102
RTVSPropertyOp28
 70
     1
102
RTVSPropertyOp29
 70
     1
102
RTVSPropertyOp30
 70
     1
102
RTVSPropertyOp31
 70
     1
102
RTVSPropertyOp32
 70
     1
102
RTVSPropertyOp33
 70
     1
102
RTVSPropertyOp34
 70
     1
102
RTVSPropertyOp35
 70
     1
102
RTVSPropertyOp36
 70
     1
102
RTVSPropertyOp37
 70
     1
102
RTVSPropertyOp38
 70
     1
102
RTVSPropertyOp39
 70
     1
102
RTVSPropertyOp40
 70
     1
102
RTVSPropertyOp41
 70
     1
102
RTVSPropertyOp42
 70
     1
102
RTVSPropertyOp43
 70
     1
102
RTVSPropertyOp44
 70
     1
102
RTVSPropertyOp45
 70
     1
102
RTVSPropertyOp46
 70
     1
102
RTVSPropertyOp47
 70
     1
102
RTVSPropertyOp48
 70
     1
102
RTVSPropertyOp49
 70
     1
102
RTVSPropertyOp50
 70
     1
102
RTVSPropertyOp51
 70
     0
102
RTVSPropertyOp52
 70
     0
102
RTVSPropertyOp53
 70
     1
102
RTVSPropertyOp54
 70
     1
102
RTVSPropertyOp55
 70
     1
102
RTVSPropertyOp56
 70
     1
102
RTVSPropertyOp57
 70
     1
102
RTVSPropertyOp58
 70
     1
102
RTVSPropertyOp59
 70
     1
102
RTVSPropertyOp60
 70
     1
102
RTVSPropertyOp61
 70
     1
102
RTVSPropertyOp62
 70
     1
  0
XRECORD
  5
1D8D
102
{ACAD_REACTORS
330
1D8C
102
}
330
1D8C
100
AcDbXrecord
280
     1
102
RTVSPost2010Prop28
280
     0
102
RTVSPost2010PropOp28
 70
     1
102
RTVSPost2010Prop29
280
     1
102
RTVSPost2010PropOp29
 70
     1
102
RTVSPost2010Prop30
280
     1
102
RTVSPost2010PropOp30
 70
     1
102
RTVSPost2010Prop31
280
     0
102
RTVSPost2010PropOp31
 70
     1
102
RTVSPost2010Prop32
280
     0
102
RTVSPost2010PropOp32
 70
     1
102
RTVSPost2010Prop33
280
     0
102
RTVSPost2010PropOp33
 70
     1
102
RTVSPost2010Prop34
280
     0
102
RTVSPost2010PropOp34
 70
     1
102
RTVSPost2010Prop35
280
     0
102
RTVSPost2010PropOp35
 70
     1
102
RTVSPost2010Prop36
280
     0
102
RTVSPost2010PropOp36
 70
     1
102
RTVSPost2010Prop37
 90
       50
102
RTVSPost2010PropOp37
 70
     1
102
RTVSPost2010Prop38
140
0.0
102
RTVSPost2010PropOp38
 70
     1
102
RTVSPost2010Prop39
140
1.0
102
RTVSPost2010PropOp39
 70
     1
102
RTVSPost2010Prop40
 90
        0
102
RTVSPost2010PropOp40
 70
     1
102
RTVSPost2010Prop41ColorIndex
 90
       18
102
RTVSPost2010Prop41ColorRGB
 90
        0
102
RTVSPost2010PropOp41
 70
     1
102
RTVSPost2010Prop42
 90
       50
102
RTVSPost2010PropOp42
 70
     1
102
RTVSPost2010Prop43
 90
        3
102
RTVSPost2010PropOp43
 70
     1
102
RTVSPost2010Prop44ColorIndex
 90
        5
102
RTVSPost2010Prop44ColorRGB
 90
      255
102
RTVSPost2010PropOp44
 70
     1
102
RTVSPost2010Prop45
280
     0
102
RTVSPost2010PropOp45
 70
     1
102
RTVSPost2010Prop46
 90
       50
102
RTVSPost2010PropOp46
 70
     1
102
RTVSPost2010Prop47
 90
       50
102
RTVSPost2010PropOp47
 70
     1
102
RTVSPost2010Prop48
 90
       50
102
RTVSPost2010PropOp48
 70
     1
102
RTVSPost2010Prop49
280
     0
102
RTVSPost2010PropOp49
 70
     1
102
RTVSPost2010Prop50
 90
       50
102
RTVSPost2010PropOp50
 70
     1
102
RTVSPost2010Prop51ColorIndex
 90
      256
102
RTVSPost2010Prop51ColorRGB
 90
-16777216
102
RTVSPost2010PropOp51
 70
     0
102
RTVSPost2010Prop52
140
1.0
102
RTVSPost2010PropOp52
 70
     0
102
RTVSPost2010Prop53
 90
        2
102
RTVSPost2010PropOp53
 70
     1
102
RTVSPost2010Prop54
  1
strokes_ogs.tif
102
RTVSPost2010PropOp54
 70
     1
102
RTVSPost2010Prop55
280
     0
102
RTVSPost2010PropOp55
 70
     1
102
RTVSPost2010Prop56
140
1.0
102
RTVSPost2010PropOp56
 70
     1
102
RTVSPost2010Prop57
140
1.0
102
RTVSPost2010PropOp57
 70
     1
102
RTVSPropertyOp0
 70
     1
102
RTVSPropertyOp1
 70
     1
102
RTVSPropertyOp2
 70
     1
102
RTVSPropertyOp3
 70
     1
102
RTVSPropertyOp4
 70
     1
102
RTVSPropertyOp5
 70
     1
102
RTVSPropertyOp6
 70
     1
102
RTVSPropertyOp7
 70
     1
102
RTVSPropertyOp8
 70
     1
102
RTVSPropertyOp9
 70
     1
102
RTVSPropertyOp10
 70
     1
102
RTVSPropertyOp11
 70
     1
102
RTVSPropertyOp12
 70
     1
102
RTVSPropertyOp13
 70
     1
102
RTVSPropertyOp14
 70
     1
102
RTVSPropertyOp15
 70
     1
102
RTVSPropertyOp16
 70
     1
102
RTVSPropertyOp17
 70
     1
102
RTVSPropertyOp18
 70
     1
102
RTVSPropertyOp19
 70
     1
102
RTVSPropertyOp20
 70
     1
102
RTVSPropertyOp21
 70
     1
102
RTVSPropertyOp22
 70
     1
102
RTVSPropertyOp23
 70
     1
102
RTVSPropertyOp24
 70
     1
102
RTVSPropertyOp25
 70
     1
102
RTVSPropertyOp26
 70
     1
102
RTVSPropertyOp27
 70
     1
102
RTVSPropertyOp28
 70
     1
102
RTVSPropertyOp29
 70
     1
102
RTVSPropertyOp30
 70
     1
102
RTVSPropertyOp31
 70
     1
102
RTVSPropertyOp32
 70
     1
102
RTVSPropertyOp33
 70
     1
102
RTVSPropertyOp34
 70
     1
102
RTVSPropertyOp35
 70
     1
102
RTVSPropertyOp36
 70
     1
102
RTVSPropertyOp37
 70
     1
102
RTVSPropertyOp38
 70
     1
102
RTVSPropertyOp39
 70
     1
102
RTVSPropertyOp40
 70
     1
102
RTVSPropertyOp41
 70
     1
102
RTVSPropertyOp42
 70
     1
102
RTVSPropertyOp43
 70
     1
102
RTVSPropertyOp44
 70
     1
102
RTVSPropertyOp45
 70
     1
102
RTVSPropertyOp46
 70
     1
102
RTVSPropertyOp47
 70
     1
102
RTVSPropertyOp48
 70
     1
102
RTVSPropertyOp49
 70
     1
102
RTVSPropertyOp50
 70
     1
102
RTVSPropertyOp51
 70
     0
102
RTVSPropertyOp52
 70
     0
102
RTVSPropertyOp53
 70
     1
102
RTVSPropertyOp54
 70
     1
102
RTVSPropertyOp55
 70
     1
102
RTVSPropertyOp56
 70
     1
102
RTVSPropertyOp57
 70
     1
102
RTVSPropertyOp58
 70
     1
102
RTVSPropertyOp59
 70
     1
102
RTVSPropertyOp60
 70
     1
102
RTVSPropertyOp61
 70
     1
102
RTVSPropertyOp62
 70
     1
  0
XRECORD
  5
1DA7
102
{ACAD_REACTORS
330
1DA6
102
}
330
1DA6
100
AcDbXrecord
280
     1
102
RTVSPost2010Prop28
280
     0
102
RTVSPost2010PropOp28
 70
     0
102
RTVSPost2010Prop29
280
     1
102
RTVSPost2010PropOp29
 70
     0
102
RTVSPost2010Prop30
280
     1
102
RTVSPost2010PropOp30
 70
     0
102
RTVSPost2010Prop31
280
     0
102
RTVSPost2010PropOp31
 70
     0
102
RTVSPost2010Prop32
280
     0
102
RTVSPost2010PropOp32
 70
     0
102
RTVSPost2010Prop33
280
     0
102
RTVSPost2010PropOp33
 70
     0
102
RTVSPost2010Prop34
280
     0
102
RTVSPost2010PropOp34
 70
     0
102
RTVSPost2010Prop35
280
     0
102
RTVSPost2010PropOp35
 70
     0
102
RTVSPost2010Prop36
280
     0
102
RTVSPost2010PropOp36
 70
     0
102
RTVSPost2010Prop37
 90
       50
102
RTVSPost2010PropOp37
 70
     0
102
RTVSPost2010Prop38
140
0.0
102
RTVSPost2010PropOp38
 70
     0
102
RTVSPost2010Prop39
140
1.0
102
RTVSPost2010PropOp39
 70
     0
102
RTVSPost2010Prop40
 90
        0
102
RTVSPost2010PropOp40
 70
     0
102
RTVSPost2010Prop41ColorIndex
 90
       18
102
RTVSPost2010Prop41ColorRGB
 90
        0
102
RTVSPost2010PropOp41
 70
     0
102
RTVSPost2010Prop42
 90
       50
102
RTVSPost2010PropOp42
 70
     0
102
RTVSPost2010Prop43
 90
        3
102
RTVSPost2010PropOp43
 70
     0
102
RTVSPost2010Prop44ColorIndex
 90
        5
102
RTVSPost2010Prop44ColorRGB
 90
      255
102
RTVSPost2010PropOp44
 70
     0
102
RTVSPost2010Prop45
280
     0
102
RTVSPost2010PropOp45
 70
     0
102
RTVSPost2010Prop46
 90
       50
102
RTVSPost2010PropOp46
 70
     0
102
RTVSPost2010Prop47
 90
       50
102
RTVSPost2010PropOp47
 70
     0
102
RTVSPost2010Prop48
 90
       50
102
RTVSPost2010PropOp48
 70
     0
102
RTVSPost2010Prop49
280
     0
102
RTVSPost2010PropOp49
 70
     0
102
RTVSPost2010Prop50
 90
       50
102
RTVSPost2010PropOp50
 70
     0
102
RTVSPost2010Prop51ColorIndex
 90
      256
102
RTVSPost2010Prop51ColorRGB
 90
-16777216
102
RTVSPost2010PropOp51
 70
     0
102
RTVSPost2010Prop52
140
1.0
102
RTVSPost2010PropOp52
 70
     0
102
RTVSPost2010Prop53
 90
        2
102
RTVSPost2010PropOp53
 70
     0
102
RTVSPost2010Prop54
  1
strokes_ogs.tif
102
RTVSPost2010PropOp54
 70
     0
102
RTVSPost2010Prop55
280
     0
102
RTVSPost2010PropOp55
 70
     0
102
RTVSPost2010Prop56
140
1.0
102
RTVSPost2010PropOp56
 70
     0
102
RTVSPost2010Prop57
140
1.0
102
RTVSPost2010PropOp57
 70
     0
102
RTVSPropertyOp0
 70
     0
102
RTVSPropertyOp1
 70
     0
102
RTVSPropertyOp2
 70
     0
102
RTVSPropertyOp3
 70
     0
102
RTVSPropertyOp4
 70
     0
102
RTVSPropertyOp5
 70
     0
102
RTVSPropertyOp6
 70
     0
102
RTVSPropertyOp7
 70
     0
102
RTVSPropertyOp8
 70
     0
102
RTVSPropertyOp9
 70
     0
102
RTVSPropertyOp10
 70
     0
102
RTVSPropertyOp11
 70
     0
102
RTVSPropertyOp12
 70
     0
102
RTVSPropertyOp13
 70
     0
102
RTVSPropertyOp14
 70
     2
102
RTVSPropertyOp15
 70
     0
102
RTVSPropertyOp16
 70
     0
102
RTVSPropertyOp17
 70
     0
102
RTVSPropertyOp18
 70
     0
102
RTVSPropertyOp19
 70
     0
102
RTVSPropertyOp20
 70
     0
102
RTVSPropertyOp21
 70
     0
102
RTVSPropertyOp22
 70
     0
102
RTVSPropertyOp23
 70
     0
102
RTVSPropertyOp24
 70
     0
102
RTVSPropertyOp25
 70
     0
102
RTVSPropertyOp26
 70
     0
102
RTVSPropertyOp27
 70
     0
102
RTVSPropertyOp28
 70
     0
102
RTVSPropertyOp29
 70
     0
102
RTVSPropertyOp30
 70
     0
102
RTVSPropertyOp31
 70
     0
102
RTVSPropertyOp32
 70
     0
102
RTVSPropertyOp33
 70
     0
102
RTVSPropertyOp34
 70
     0
102
RTVSPropertyOp35
 70
     0
102
RTVSPropertyOp36
 70
     0
102
RTVSPropertyOp37
 70
     0
102
RTVSPropertyOp38
 70
     0
102
RTVSPropertyOp39
 70
     0
102
RTVSPropertyOp40
 70
     0
102
RTVSPropertyOp41
 70
     0
102
RTVSPropertyOp42
 70
     0
102
RTVSPropertyOp43
 70
     0
102
RTVSPropertyOp44
 70
     0
102
RTVSPropertyOp45
 70
     0
102
RTVSPropertyOp46
 70
     0
102
RTVSPropertyOp47
 70
     0
102
RTVSPropertyOp48
 70
     0
102
RTVSPropertyOp49
 70
     0
102
RTVSPropertyOp50
 70
     0
102
RTVSPropertyOp51
 70
     0
102
RTVSPropertyOp52
 70
     0
102
RTVSPropertyOp53
 70
     0
102
RTVSPropertyOp54
 70
     0
102
RTVSPropertyOp55
 70
     0
102
RTVSPropertyOp56
 70
     0
102
RTVSPropertyOp57
 70
     0
102
RTVSPropertyOp58
 70
     0
102
RTVSPropertyOp59
 70
     0
102
RTVSPropertyOp60
 70
     0
102
RTVSPropertyOp61
 70
     0
102
RTVSPropertyOp62
 70
     0
  0
XRECORD
  5
1D95
102
{ACAD_REACTORS
330
1D94
102
}
330
1D94
100
AcDbXrecord
280
     1
102
RTVSPost2010Prop28
280
     0
102
RTVSPost2010PropOp28
 70
     1
102
RTVSPost2010Prop29
280
     1
102
RTVSPost2010PropOp29
 70
     1
102
RTVSPost2010Prop30
280
     1
102
RTVSPost2010PropOp30
 70
     1
102
RTVSPost2010Prop31
280
     0
102
RTVSPost2010PropOp31
 70
     1
102
RTVSPost2010Prop32
280
     0
102
RTVSPost2010PropOp32
 70
     1
102
RTVSPost2010Prop33
280
     0
102
RTVSPost2010PropOp33
 70
     1
102
RTVSPost2010Prop34
280
     0
102
RTVSPost2010PropOp34
 70
     1
102
RTVSPost2010Prop35
280
     0
102
RTVSPost2010PropOp35
 70
     1
102
RTVSPost2010Prop36
280
     0
102
RTVSPost2010PropOp36
 70
     1
102
RTVSPost2010Prop37
 90
       50
102
RTVSPost2010PropOp37
 70
     1
102
RTVSPost2010Prop38
140
0.0
102
RTVSPost2010PropOp38
 70
     1
102
RTVSPost2010Prop39
140
1.0
102
RTVSPost2010PropOp39
 70
     1
102
RTVSPost2010Prop40
 90
        0
102
RTVSPost2010PropOp40
 70
     1
102
RTVSPost2010Prop41ColorIndex
 90
       18
102
RTVSPost2010Prop41ColorRGB
 90
        0
102
RTVSPost2010PropOp41
 70
     1
102
RTVSPost2010Prop42
 90
       50
102
RTVSPost2010PropOp42
 70
     1
102
RTVSPost2010Prop43
 90
        3
102
RTVSPost2010PropOp43
 70
     1
102
RTVSPost2010Prop44ColorIndex
 90
        5
102
RTVSPost2010Prop44ColorRGB
 90
      255
102
RTVSPost2010PropOp44
 70
     1
102
RTVSPost2010Prop45
280
     0
102
RTVSPost2010PropOp45
 70
     1
102
RTVSPost2010Prop46
 90
       50
102
RTVSPost2010PropOp46
 70
     1
102
RTVSPost2010Prop47
 90
       50
102
RTVSPost2010PropOp47
 70
     1
102
RTVSPost2010Prop48
 90
       50
102
RTVSPost2010PropOp48
 70
     1
102
RTVSPost2010Prop49
280
     0
102
RTVSPost2010PropOp49
 70
     1
102
RTVSPost2010Prop50
 90
       50
102
RTVSPost2010PropOp50
 70
     1
102
RTVSPost2010Prop51ColorIndex
 90
      256
102
RTVSPost2010Prop51ColorRGB
 90
-16777216
102
RTVSPost2010PropOp51
 70
     0
102
RTVSPost2010Prop52
140
1.0
102
RTVSPost2010PropOp52
 70
     0
102
RTVSPost2010Prop53
 90
        2
102
RTVSPost2010PropOp53
 70
     1
102
RTVSPost2010Prop54
  1
strokes_ogs.tif
102
RTVSPost2010PropOp54
 70
     1
102
RTVSPost2010Prop55
280
     0
102
RTVSPost2010PropOp55
 70
     1
102
RTVSPost2010Prop56
140
1.0
102
RTVSPost2010PropOp56
 70
     1
102
RTVSPost2010Prop57
140
1.0
102
RTVSPost2010PropOp57
 70
     1
102
RTVSPropertyOp0
 70
     1
102
RTVSPropertyOp1
 70
     1
102
RTVSPropertyOp2
 70
     1
102
RTVSPropertyOp3
 70
     1
102
RTVSPropertyOp4
 70
     1
102
RTVSPropertyOp5
 70
     1
102
RTVSPropertyOp6
 70
     1
102
RTVSPropertyOp7
 70
     1
102
RTVSPropertyOp8
 70
     1
102
RTVSPropertyOp9
 70
     1
102
RTVSPropertyOp10
 70
     1
102
RTVSPropertyOp11
 70
     1
102
RTVSPropertyOp12
 70
     1
102
RTVSPropertyOp13
 70
     1
102
RTVSPropertyOp14
 70
     1
102
RTVSPropertyOp15
 70
     1
102
RTVSPropertyOp16
 70
     1
102
RTVSPropertyOp17
 70
     1
102
RTVSPropertyOp18
 70
     1
102
RTVSPropertyOp19
 70
     1
102
RTVSPropertyOp20
 70
     1
102
RTVSPropertyOp21
 70
     1
102
RTVSPropertyOp22
 70
     1
102
RTVSPropertyOp23
 70
     1
102
RTVSPropertyOp24
 70
     1
102
RTVSPropertyOp25
 70
     1
102
RTVSPropertyOp26
 70
     1
102
RTVSPropertyOp27
 70
     1
102
RTVSPropertyOp28
 70
     1
102
RTVSPropertyOp29
 70
     1
102
RTVSPropertyOp30
 70
     1
102
RTVSPropertyOp31
 70
     1
102
RTVSPropertyOp32
 70
     1
102
RTVSPropertyOp33
 70
     1
102
RTVSPropertyOp34
 70
     1
102
RTVSPropertyOp35
 70
     1
102
RTVSPropertyOp36
 70
     1
102
RTVSPropertyOp37
 70
     1
102
RTVSPropertyOp38
 70
     1
102
RTVSPropertyOp39
 70
     1
102
RTVSPropertyOp40
 70
     1
102
RTVSPropertyOp41
 70
     1
102
RTVSPropertyOp42
 70
     1
102
RTVSPropertyOp43
 70
     1
102
RTVSPropertyOp44
 70
     1
102
RTVSPropertyOp45
 70
     1
102
RTVSPropertyOp46
 70
     1
102
RTVSPropertyOp47
 70
     1
102
RTVSPropertyOp48
 70
     1
102
RTVSPropertyOp49
 70
     1
102
RTVSPropertyOp50
 70
     1
102
RTVSPropertyOp51
 70
     0
102
RTVSPropertyOp52
 70
     0
102
RTVSPropertyOp53
 70
     1
102
RTVSPropertyOp54
 70
     1
102
RTVSPropertyOp55
 70
     1
102
RTVSPropertyOp56
 70
     1
102
RTVSPropertyOp57
 70
     1
102
RTVSPropertyOp58
 70
     1
102
RTVSPropertyOp59
 70
     1
102
RTVSPropertyOp60
 70
     1
102
RTVSPropertyOp61
 70
     1
102
RTVSPropertyOp62
 70
     1
  0
XRECORD
  5
1D79
102
{ACAD_REACTORS
330
1D78
102
}
330
1D78
100
AcDbXrecord
280
     1
102
RTVSPost2010Prop28
280
     0
102
RTVSPost2010PropOp28
 70
     1
102
RTVSPost2010Prop29
280
     1
102
RTVSPost2010PropOp29
 70
     1
102
RTVSPost2010Prop30
280
     1
102
RTVSPost2010PropOp30
 70
     1
102
RTVSPost2010Prop31
280
     0
102
RTVSPost2010PropOp31
 70
     1
102
RTVSPost2010Prop32
280
     0
102
RTVSPost2010PropOp32
 70
     1
102
RTVSPost2010Prop33
280
     0
102
RTVSPost2010PropOp33
 70
     1
102
RTVSPost2010Prop34
280
     0
102
RTVSPost2010PropOp34
 70
     1
102
RTVSPost2010Prop35
280
     0
102
RTVSPost2010PropOp35
 70
     1
102
RTVSPost2010Prop36
280
     0
102
RTVSPost2010PropOp36
 70
     1
102
RTVSPost2010Prop37
 90
       50
102
RTVSPost2010PropOp37
 70
     1
102
RTVSPost2010Prop38
140
0.0
102
RTVSPost2010PropOp38
 70
     1
102
RTVSPost2010Prop39
140
1.0
102
RTVSPost2010PropOp39
 70
     1
102
RTVSPost2010Prop40
 90
        0
102
RTVSPost2010PropOp40
 70
     1
102
RTVSPost2010Prop41ColorIndex
 90
       18
102
RTVSPost2010Prop41ColorRGB
 90
        0
102
RTVSPost2010PropOp41
 70
     1
102
RTVSPost2010Prop42
 90
       50
102
RTVSPost2010PropOp42
 70
     1
102
RTVSPost2010Prop43
 90
        3
102
RTVSPost2010PropOp43
 70
     1
102
RTVSPost2010Prop44ColorIndex
 90
        5
102
RTVSPost2010Prop44ColorRGB
 90
      255
102
RTVSPost2010PropOp44
 70
     1
102
RTVSPost2010Prop45
280
     0
102
RTVSPost2010PropOp45
 70
     1
102
RTVSPost2010Prop46
 90
       50
102
RTVSPost2010PropOp46
 70
     1
102
RTVSPost2010Prop47
 90
       50
102
RTVSPost2010PropOp47
 70
     1
102
RTVSPost2010Prop48
 90
       50
102
RTVSPost2010PropOp48
 70
     1
102
RTVSPost2010Prop49
280
     0
102
RTVSPost2010PropOp49
 70
     1
102
RTVSPost2010Prop50
 90
       50
102
RTVSPost2010PropOp50
 70
     1
102
RTVSPost2010Prop51ColorIndex
 90
      256
102
RTVSPost2010Prop51ColorRGB
 90
-16777216
102
RTVSPost2010PropOp51
 70
     0
102
RTVSPost2010Prop52
140
1.0
102
RTVSPost2010PropOp52
 70
     0
102
RTVSPost2010Prop53
 90
        2
102
RTVSPost2010PropOp53
 70
     1
102
RTVSPost2010Prop54
  1
strokes_ogs.tif
102
RTVSPost2010PropOp54
 70
     1
102
RTVSPost2010Prop55
280
     0
102
RTVSPost2010PropOp55
 70
     1
102
RTVSPost2010Prop56
140
1.0
102
RTVSPost2010PropOp56
 70
     1
102
RTVSPost2010Prop57
140
1.0
102
RTVSPost2010PropOp57
 70
     1
102
RTVSPropertyOp0
 70
     1
102
RTVSPropertyOp1
 70
     1
102
RTVSPropertyOp2
 70
     1
102
RTVSPropertyOp3
 70
     1
102
RTVSPropertyOp4
 70
     1
102
RTVSPropertyOp5
 70
     1
102
RTVSPropertyOp6
 70
     1
102
RTVSPropertyOp7
 70
     1
102
RTVSPropertyOp8
 70
     1
102
RTVSPropertyOp9
 70
     1
102
RTVSPropertyOp10
 70
     1
102
RTVSPropertyOp11
 70
     1
102
RTVSPropertyOp12
 70
     1
102
RTVSPropertyOp13
 70
     1
102
RTVSPropertyOp14
 70
     1
102
RTVSPropertyOp15
 70
     1
102
RTVSPropertyOp16
 70
     1
102
RTVSPropertyOp17
 70
     1
102
RTVSPropertyOp18
 70
     1
102
RTVSPropertyOp19
 70
     1
102
RTVSPropertyOp20
 70
     1
102
RTVSPropertyOp21
 70
     1
102
RTVSPropertyOp22
 70
     1
102
RTVSPropertyOp23
 70
     1
102
RTVSPropertyOp24
 70
     1
102
RTVSPropertyOp25
 70
     1
102
RTVSPropertyOp26
 70
     1
102
RTVSPropertyOp27
 70
     1
102
RTVSPropertyOp28
 70
     1
102
RTVSPropertyOp29
 70
     1
102
RTVSPropertyOp30
 70
     1
102
RTVSPropertyOp31
 70
     1
102
RTVSPropertyOp32
 70
     1
102
RTVSPropertyOp33
 70
     1
102
RTVSPropertyOp34
 70
     1
102
RTVSPropertyOp35
 70
     1
102
RTVSPropertyOp36
 70
     1
102
RTVSPropertyOp37
 70
     1
102
RTVSPropertyOp38
 70
     1
102
RTVSPropertyOp39
 70
     1
102
RTVSPropertyOp40
 70
     1
102
RTVSPropertyOp41
 70
     1
102
RTVSPropertyOp42
 70
     1
102
RTVSPropertyOp43
 70
     1
102
RTVSPropertyOp44
 70
     1
102
RTVSPropertyOp45
 70
     1
102
RTVSPropertyOp46
 70
     1
102
RTVSPropertyOp47
 70
     1
102
RTVSPropertyOp48
 70
     1
102
RTVSPropertyOp49
 70
     1
102
RTVSPropertyOp50
 70
     1
102
RTVSPropertyOp51
 70
     0
102
RTVSPropertyOp52
 70
     0
102
RTVSPropertyOp53
 70
     1
102
RTVSPropertyOp54
 70
     1
102
RTVSPropertyOp55
 70
     1
102
RTVSPropertyOp56
 70
     1
102
RTVSPropertyOp57
 70
     1
102
RTVSPropertyOp58
 70
     1
102
RTVSPropertyOp59
 70
     1
102
RTVSPropertyOp60
 70
     1
102
RTVSPropertyOp61
 70
     1
102
RTVSPropertyOp62
 70
     1
  0
XRECORD
  5
1D7B
102
{ACAD_REACTORS
330
1D7A
102
}
330
1D7A
100
AcDbXrecord
280
     1
102
RTVSPost2010Prop28
280
     0
102
RTVSPost2010PropOp28
 70
     1
102
RTVSPost2010Prop29
280
     1
102
RTVSPost2010PropOp29
 70
     1
102
RTVSPost2010Prop30
280
     1
102
RTVSPost2010PropOp30
 70
     1
102
RTVSPost2010Prop31
280
     0
102
RTVSPost2010PropOp31
 70
     1
102
RTVSPost2010Prop32
280
     0
102
RTVSPost2010PropOp32
 70
     1
102
RTVSPost2010Prop33
280
     0
102
RTVSPost2010PropOp33
 70
     1
102
RTVSPost2010Prop34
280
     0
102
RTVSPost2010PropOp34
 70
     1
102
RTVSPost2010Prop35
280
     0
102
RTVSPost2010PropOp35
 70
     1
102
RTVSPost2010Prop36
280
     0
102
RTVSPost2010PropOp36
 70
     1
102
RTVSPost2010Prop37
 90
       50
102
RTVSPost2010PropOp37
 70
     1
102
RTVSPost2010Prop38
140
0.0
102
RTVSPost2010PropOp38
 70
     1
102
RTVSPost2010Prop39
140
1.0
102
RTVSPost2010PropOp39
 70
     1
102
RTVSPost2010Prop40
 90
        0
102
RTVSPost2010PropOp40
 70
     1
102
RTVSPost2010Prop41ColorIndex
 90
       18
102
RTVSPost2010Prop41ColorRGB
 90
        0
102
RTVSPost2010PropOp41
 70
     1
102
RTVSPost2010Prop42
 90
       50
102
RTVSPost2010PropOp42
 70
     1
102
RTVSPost2010Prop43
 90
        3
102
RTVSPost2010PropOp43
 70
     1
102
RTVSPost2010Prop44ColorIndex
 90
        5
102
RTVSPost2010Prop44ColorRGB
 90
      255
102
RTVSPost2010PropOp44
 70
     1
102
RTVSPost2010Prop45
280
     0
102
RTVSPost2010PropOp45
 70
     1
102
RTVSPost2010Prop46
 90
       50
102
RTVSPost2010PropOp46
 70
     1
102
RTVSPost2010Prop47
 90
       50
102
RTVSPost2010PropOp47
 70
     1
102
RTVSPost2010Prop48
 90
       50
102
RTVSPost2010PropOp48
 70
     1
102
RTVSPost2010Prop49
280
     0
102
RTVSPost2010PropOp49
 70
     1
102
RTVSPost2010Prop50
 90
       50
102
RTVSPost2010PropOp50
 70
     1
102
RTVSPost2010Prop51ColorIndex
 90
      256
102
RTVSPost2010Prop51ColorRGB
 90
-16777216
102
RTVSPost2010PropOp51
 70
     0
102
RTVSPost2010Prop52
140
1.0
102
RTVSPost2010PropOp52
 70
     0
102
RTVSPost2010Prop53
 90
        2
102
RTVSPost2010PropOp53
 70
     1
102
RTVSPost2010Prop54
  1
strokes_ogs.tif
102
RTVSPost2010PropOp54
 70
     1
102
RTVSPost2010Prop55
280
     0
102
RTVSPost2010PropOp55
 70
     1
102
RTVSPost2010Prop56
140
1.0
102
RTVSPost2010PropOp56
 70
     1
102
RTVSPost2010Prop57
140
1.0
102
RTVSPost2010PropOp57
 70
     1
102
RTVSPropertyOp0
 70
     1
102
RTVSPropertyOp1
 70
     1
102
RTVSPropertyOp2
 70
     1
102
RTVSPropertyOp3
 70
     1
102
RTVSPropertyOp4
 70
     1
102
RTVSPropertyOp5
 70
     1
102
RTVSPropertyOp6
 70
     1
102
RTVSPropertyOp7
 70
     1
102
RTVSPropertyOp8
 70
     1
102
RTVSPropertyOp9
 70
     1
102
RTVSPropertyOp10
 70
     1
102
RTVSPropertyOp11
 70
     1
102
RTVSPropertyOp12
 70
     1
102
RTVSPropertyOp13
 70
     1
102
RTVSPropertyOp14
 70
     1
102
RTVSPropertyOp15
 70
     1
102
RTVSPropertyOp16
 70
     1
102
RTVSPropertyOp17
 70
     1
102
RTVSPropertyOp18
 70
     1
102
RTVSPropertyOp19
 70
     1
102
RTVSPropertyOp20
 70
     1
102
RTVSPropertyOp21
 70
     1
102
RTVSPropertyOp22
 70
     1
102
RTVSPropertyOp23
 70
     1
102
RTVSPropertyOp24
 70
     1
102
RTVSPropertyOp25
 70
     1
102
RTVSPropertyOp26
 70
     1
102
RTVSPropertyOp27
 70
     1
102
RTVSPropertyOp28
 70
     1
102
RTVSPropertyOp29
 70
     1
102
RTVSPropertyOp30
 70
     1
102
RTVSPropertyOp31
 70
     1
102
RTVSPropertyOp32
 70
     1
102
RTVSPropertyOp33
 70
     1
102
RTVSPropertyOp34
 70
     1
102
RTVSPropertyOp35
 70
     1
102
RTVSPropertyOp36
 70
     1
102
RTVSPropertyOp37
 70
     1
102
RTVSPropertyOp38
 70
     1
102
RTVSPropertyOp39
 70
     1
102
RTVSPropertyOp40
 70
     1
102
RTVSPropertyOp41
 70
     1
102
RTVSPropertyOp42
 70
     1
102
RTVSPropertyOp43
 70
     1
102
RTVSPropertyOp44
 70
     1
102
RTVSPropertyOp45
 70
     1
102
RTVSPropertyOp46
 70
     1
102
RTVSPropertyOp47
 70
     1
102
RTVSPropertyOp48
 70
     1
102
RTVSPropertyOp49
 70
     1
102
RTVSPropertyOp50
 70
     1
102
RTVSPropertyOp51
 70
     0
102
RTVSPropertyOp52
 70
     0
102
RTVSPropertyOp53
 70
     1
102
RTVSPropertyOp54
 70
     1
102
RTVSPropertyOp55
 70
     1
102
RTVSPropertyOp56
 70
     1
102
RTVSPropertyOp57
 70
     1
102
RTVSPropertyOp58
 70
     1
102
RTVSPropertyOp59
 70
     1
102
RTVSPropertyOp60
 70
     1
102
RTVSPropertyOp61
 70
     1
102
RTVSPropertyOp62
 70
     1
  0
XRECORD
  5
1D7D
102
{ACAD_REACTORS
330
1D7C
102
}
330
1D7C
100
AcDbXrecord
280
     1
102
RTVSPost2010Prop28
280
     0
102
RTVSPost2010PropOp28
 70
     1
102
RTVSPost2010Prop29
280
     1
102
RTVSPost2010PropOp29
 70
     1
102
RTVSPost2010Prop30
280
     1
102
RTVSPost2010PropOp30
 70
     1
102
RTVSPost2010Prop31
280
     0
102
RTVSPost2010PropOp31
 70
     1
102
RTVSPost2010Prop32
280
     0
102
RTVSPost2010PropOp32
 70
     1
102
RTVSPost2010Prop33
280
     0
102
RTVSPost2010PropOp33
 70
     1
102
RTVSPost2010Prop34
280
     0
102
RTVSPost2010PropOp34
 70
     1
102
RTVSPost2010Prop35
280
     0
102
RTVSPost2010PropOp35
 70
     1
102
RTVSPost2010Prop36
280
     0
102
RTVSPost2010PropOp36
 70
     1
102
RTVSPost2010Prop37
 90
       50
102
RTVSPost2010PropOp37
 70
     1
102
RTVSPost2010Prop38
140
0.0
102
RTVSPost2010PropOp38
 70
     1
102
RTVSPost2010Prop39
140
1.0
102
RTVSPost2010PropOp39
 70
     1
102
RTVSPost2010Prop40
 90
        0
102
RTVSPost2010PropOp40
 70
     1
102
RTVSPost2010Prop41ColorIndex
 90
       18
102
RTVSPost2010Prop41ColorRGB
 90
        0
102
RTVSPost2010PropOp41
 70
     1
102
RTVSPost2010Prop42
 90
       50
102
RTVSPost2010PropOp42
 70
     1
102
RTVSPost2010Prop43
 90
        3
102
RTVSPost2010PropOp43
 70
     1
102
RTVSPost2010Prop44ColorIndex
 90
        5
102
RTVSPost2010Prop44ColorRGB
 90
      255
102
RTVSPost2010PropOp44
 70
     1
102
RTVSPost2010Prop45
280
     0
102
RTVSPost2010PropOp45
 70
     1
102
RTVSPost2010Prop46
 90
       50
102
RTVSPost2010PropOp46
 70
     1
102
RTVSPost2010Prop47
 90
       50
102
RTVSPost2010PropOp47
 70
     1
102
RTVSPost2010Prop48
 90
       50
102
RTVSPost2010PropOp48
 70
     1
102
RTVSPost2010Prop49
280
     0
102
RTVSPost2010PropOp49
 70
     1
102
RTVSPost2010Prop50
 90
       50
102
RTVSPost2010PropOp50
 70
     1
102
RTVSPost2010Prop51ColorIndex
 90
      256
102
RTVSPost2010Prop51ColorRGB
 90
-16777216
102
RTVSPost2010PropOp51
 70
     0
102
RTVSPost2010Prop52
140
1.0
102
RTVSPost2010PropOp52
 70
     0
102
RTVSPost2010Prop53
 90
        2
102
RTVSPost2010PropOp53
 70
     1
102
RTVSPost2010Prop54
  1
strokes_ogs.tif
102
RTVSPost2010PropOp54
 70
     1
102
RTVSPost2010Prop55
280
     0
102
RTVSPost2010PropOp55
 70
     1
102
RTVSPost2010Prop56
140
1.0
102
RTVSPost2010PropOp56
 70
     1
102
RTVSPost2010Prop57
140
1.0
102
RTVSPost2010PropOp57
 70
     1
102
RTVSPropertyOp0
 70
     1
102
RTVSPropertyOp1
 70
     1
102
RTVSPropertyOp2
 70
     1
102
RTVSPropertyOp3
 70
     1
102
RTVSPropertyOp4
 70
     1
102
RTVSPropertyOp5
 70
     1
102
RTVSPropertyOp6
 70
     1
102
RTVSPropertyOp7
 70
     1
102
RTVSPropertyOp8
 70
     1
102
RTVSPropertyOp9
 70
     1
102
RTVSPropertyOp10
 70
     1
102
RTVSPropertyOp11
 70
     1
102
RTVSPropertyOp12
 70
     1
102
RTVSPropertyOp13
 70
     1
102
RTVSPropertyOp14
 70
     1
102
RTVSPropertyOp15
 70
     1
102
RTVSPropertyOp16
 70
     1
102
RTVSPropertyOp17
 70
     1
102
RTVSPropertyOp18
 70
     1
102
RTVSPropertyOp19
 70
     1
102
RTVSPropertyOp20
 70
     1
102
RTVSPropertyOp21
 70
     1
102
RTVSPropertyOp22
 70
     1
102
RTVSPropertyOp23
 70
     1
102
RTVSPropertyOp24
 70
     1
102
RTVSPropertyOp25
 70
     1
102
RTVSPropertyOp26
 70
     1
102
RTVSPropertyOp27
 70
     1
102
RTVSPropertyOp28
 70
     1
102
RTVSPropertyOp29
 70
     1
102
RTVSPropertyOp30
 70
     1
102
RTVSPropertyOp31
 70
     1
102
RTVSPropertyOp32
 70
     1
102
RTVSPropertyOp33
 70
     1
102
RTVSPropertyOp34
 70
     1
102
RTVSPropertyOp35
 70
     1
102
RTVSPropertyOp36
 70
     1
102
RTVSPropertyOp37
 70
     1
102
RTVSPropertyOp38
 70
     1
102
RTVSPropertyOp39
 70
     1
102
RTVSPropertyOp40
 70
     1
102
RTVSPropertyOp41
 70
     1
102
RTVSPropertyOp42
 70
     1
102
RTVSPropertyOp43
 70
     1
102
RTVSPropertyOp44
 70
     1
102
RTVSPropertyOp45
 70
     1
102
RTVSPropertyOp46
 70
     1
102
RTVSPropertyOp47
 70
     1
102
RTVSPropertyOp48
 70
     1
102
RTVSPropertyOp49
 70
     1
102
RTVSPropertyOp50
 70
     1
102
RTVSPropertyOp51
 70
     0
102
RTVSPropertyOp52
 70
     0
102
RTVSPropertyOp53
 70
     1
102
RTVSPropertyOp54
 70
     1
102
RTVSPropertyOp55
 70
     1
102
RTVSPropertyOp56
 70
     1
102
RTVSPropertyOp57
 70
     1
102
RTVSPropertyOp58
 70
     1
102
RTVSPropertyOp59
 70
     1
102
RTVSPropertyOp60
 70
     1
102
RTVSPropertyOp61
 70
     1
102
RTVSPropertyOp62
 70
     1
  0
XRECORD
  5
1D7F
102
{ACAD_REACTORS
330
1D7E
102
}
330
1D7E
100
AcDbXrecord
280
     1
102
RTVSPost2010Prop28
280
     0
102
RTVSPost2010PropOp28
 70
     1
102
RTVSPost2010Prop29
280
     1
102
RTVSPost2010PropOp29
 70
     1
102
RTVSPost2010Prop30
280
     1
102
RTVSPost2010PropOp30
 70
     1
102
RTVSPost2010Prop31
280
     0
102
RTVSPost2010PropOp31
 70
     1
102
RTVSPost2010Prop32
280
     0
102
RTVSPost2010PropOp32
 70
     1
102
RTVSPost2010Prop33
280
     0
102
RTVSPost2010PropOp33
 70
     1
102
RTVSPost2010Prop34
280
     0
102
RTVSPost2010PropOp34
 70
     1
102
RTVSPost2010Prop35
280
     0
102
RTVSPost2010PropOp35
 70
     1
102
RTVSPost2010Prop36
280
     0
102
RTVSPost2010PropOp36
 70
     1
102
RTVSPost2010Prop37
 90
       50
102
RTVSPost2010PropOp37
 70
     1
102
RTVSPost2010Prop38
140
0.0
102
RTVSPost2010PropOp38
 70
     1
102
RTVSPost2010Prop39
140
1.0
102
RTVSPost2010PropOp39
 70
     1
102
RTVSPost2010Prop40
 90
        0
102
RTVSPost2010PropOp40
 70
     1
102
RTVSPost2010Prop41ColorIndex
 90
       18
102
RTVSPost2010Prop41ColorRGB
 90
        0
102
RTVSPost2010PropOp41
 70
     1
102
RTVSPost2010Prop42
 90
       50
102
RTVSPost2010PropOp42
 70
     1
102
RTVSPost2010Prop43
 90
        3
102
RTVSPost2010PropOp43
 70
     1
102
RTVSPost2010Prop44ColorIndex
 90
        5
102
RTVSPost2010Prop44ColorRGB
 90
      255
102
RTVSPost2010PropOp44
 70
     1
102
RTVSPost2010Prop45
280
     0
102
RTVSPost2010PropOp45
 70
     1
102
RTVSPost2010Prop46
 90
       50
102
RTVSPost2010PropOp46
 70
     1
102
RTVSPost2010Prop47
 90
       50
102
RTVSPost2010PropOp47
 70
     1
102
RTVSPost2010Prop48
 90
       50
102
RTVSPost2010PropOp48
 70
     1
102
RTVSPost2010Prop49
280
     0
102
RTVSPost2010PropOp49
 70
     1
102
RTVSPost2010Prop50
 90
       50
102
RTVSPost2010PropOp50
 70
     1
102
RTVSPost2010Prop51ColorIndex
 90
      256
102
RTVSPost2010Prop51ColorRGB
 90
-16777216
102
RTVSPost2010PropOp51
 70
     0
102
RTVSPost2010Prop52
140
1.0
102
RTVSPost2010PropOp52
 70
     0
102
RTVSPost2010Prop53
 90
        2
102
RTVSPost2010PropOp53
 70
     1
102
RTVSPost2010Prop54
  1
strokes_ogs.tif
102
RTVSPost2010PropOp54
 70
     1
102
RTVSPost2010Prop55
280
     0
102
RTVSPost2010PropOp55
 70
     1
102
RTVSPost2010Prop56
140
1.0
102
RTVSPost2010PropOp56
 70
     1
102
RTVSPost2010Prop57
140
1.0
102
RTVSPost2010PropOp57
 70
     1
102
RTVSPropertyOp0
 70
     1
102
RTVSPropertyOp1
 70
     1
102
RTVSPropertyOp2
 70
     1
102
RTVSPropertyOp3
 70
     1
102
RTVSPropertyOp4
 70
     1
102
RTVSPropertyOp5
 70
     1
102
RTVSPropertyOp6
 70
     1
102
RTVSPropertyOp7
 70
     1
102
RTVSPropertyOp8
 70
     1
102
RTVSPropertyOp9
 70
     1
102
RTVSPropertyOp10
 70
     1
102
RTVSPropertyOp11
 70
     1
102
RTVSPropertyOp12
 70
     1
102
RTVSPropertyOp13
 70
     1
102
RTVSPropertyOp14
 70
     1
102
RTVSPropertyOp15
 70
     1
102
RTVSPropertyOp16
 70
     1
102
RTVSPropertyOp17
 70
     1
102
RTVSPropertyOp18
 70
     1
102
RTVSPropertyOp19
 70
     1
102
RTVSPropertyOp20
 70
     1
102
RTVSPropertyOp21
 70
     1
102
RTVSPropertyOp22
 70
     1
102
RTVSPropertyOp23
 70
     1
102
RTVSPropertyOp24
 70
     1
102
RTVSPropertyOp25
 70
     1
102
RTVSPropertyOp26
 70
     1
102
RTVSPropertyOp27
 70
     1
102
RTVSPropertyOp28
 70
     1
102
RTVSPropertyOp29
 70
     1
102
RTVSPropertyOp30
 70
     1
102
RTVSPropertyOp31
 70
     1
102
RTVSPropertyOp32
 70
     1
102
RTVSPropertyOp33
 70
     1
102
RTVSPropertyOp34
 70
     1
102
RTVSPropertyOp35
 70
     1
102
RTVSPropertyOp36
 70
     1
102
RTVSPropertyOp37
 70
     1
102
RTVSPropertyOp38
 70
     1
102
RTVSPropertyOp39
 70
     1
102
RTVSPropertyOp40
 70
     1
102
RTVSPropertyOp41
 70
     1
102
RTVSPropertyOp42
 70
     1
102
RTVSPropertyOp43
 70
     1
102
RTVSPropertyOp44
 70
     1
102
RTVSPropertyOp45
 70
     1
102
RTVSPropertyOp46
 70
     1
102
RTVSPropertyOp47
 70
     1
102
RTVSPropertyOp48
 70
     1
102
RTVSPropertyOp49
 70
     1
102
RTVSPropertyOp50
 70
     1
102
RTVSPropertyOp51
 70
     0
102
RTVSPropertyOp52
 70
     0
102
RTVSPropertyOp53
 70
     1
102
RTVSPropertyOp54
 70
     1
102
RTVSPropertyOp55
 70
     1
102
RTVSPropertyOp56
 70
     1
102
RTVSPropertyOp57
 70
     1
102
RTVSPropertyOp58
 70
     1
102
RTVSPropertyOp59
 70
     1
102
RTVSPropertyOp60
 70
     1
102
RTVSPropertyOp61
 70
     1
102
RTVSPropertyOp62
 70
     1
  0
XRECORD
  5
1D87
102
{ACAD_REACTORS
330
1D86
102
}
330
1D86
100
AcDbXrecord
280
     1
102
RTVSPost2010Prop28
280
     0
102
RTVSPost2010PropOp28
 70
     1
102
RTVSPost2010Prop29
280
     1
102
RTVSPost2010PropOp29
 70
     1
102
RTVSPost2010Prop30
280
     1
102
RTVSPost2010PropOp30
 70
     1
102
RTVSPost2010Prop31
280
     0
102
RTVSPost2010PropOp31
 70
     1
102
RTVSPost2010Prop32
280
     0
102
RTVSPost2010PropOp32
 70
     1
102
RTVSPost2010Prop33
280
     0
102
RTVSPost2010PropOp33
 70
     1
102
RTVSPost2010Prop34
280
     0
102
RTVSPost2010PropOp34
 70
     1
102
RTVSPost2010Prop35
280
     0
102
RTVSPost2010PropOp35
 70
     1
102
RTVSPost2010Prop36
280
     0
102
RTVSPost2010PropOp36
 70
     1
102
RTVSPost2010Prop37
 90
       50
102
RTVSPost2010PropOp37
 70
     1
102
RTVSPost2010Prop38
140
0.0
102
RTVSPost2010PropOp38
 70
     1
102
RTVSPost2010Prop39
140
1.0
102
RTVSPost2010PropOp39
 70
     1
102
RTVSPost2010Prop40
 90
        0
102
RTVSPost2010PropOp40
 70
     1
102
RTVSPost2010Prop41ColorIndex
 90
       18
102
RTVSPost2010Prop41ColorRGB
 90
        0
102
RTVSPost2010PropOp41
 70
     1
102
RTVSPost2010Prop42
 90
       50
102
RTVSPost2010PropOp42
 70
     1
102
RTVSPost2010Prop43
 90
        3
102
RTVSPost2010PropOp43
 70
     1
102
RTVSPost2010Prop44ColorIndex
 90
        5
102
RTVSPost2010Prop44ColorRGB
 90
      255
102
RTVSPost2010PropOp44
 70
     1
102
RTVSPost2010Prop45
280
     0
102
RTVSPost2010PropOp45
 70
     1
102
RTVSPost2010Prop46
 90
       50
102
RTVSPost2010PropOp46
 70
     1
102
RTVSPost2010Prop47
 90
       50
102
RTVSPost2010PropOp47
 70
     1
102
RTVSPost2010Prop48
 90
       50
102
RTVSPost2010PropOp48
 70
     1
102
RTVSPost2010Prop49
280
     0
102
RTVSPost2010PropOp49
 70
     1
102
RTVSPost2010Prop50
 90
       50
102
RTVSPost2010PropOp50
 70
     1
102
RTVSPost2010Prop51ColorIndex
 90
      256
102
RTVSPost2010Prop51ColorRGB
 90
-16777216
102
RTVSPost2010PropOp51
 70
     0
102
RTVSPost2010Prop52
140
1.0
102
RTVSPost2010PropOp52
 70
     0
102
RTVSPost2010Prop53
 90
        2
102
RTVSPost2010PropOp53
 70
     1
102
RTVSPost2010Prop54
  1
strokes_ogs.tif
102
RTVSPost2010PropOp54
 70
     1
102
RTVSPost2010Prop55
280
     0
102
RTVSPost2010PropOp55
 70
     1
102
RTVSPost2010Prop56
140
1.0
102
RTVSPost2010PropOp56
 70
     1
102
RTVSPost2010Prop57
140
1.0
102
RTVSPost2010PropOp57
 70
     1
102
RTVSPropertyOp0
 70
     1
102
RTVSPropertyOp1
 70
     1
102
RTVSPropertyOp2
 70
     1
102
RTVSPropertyOp3
 70
     1
102
RTVSPropertyOp4
 70
     1
102
RTVSPropertyOp5
 70
     1
102
RTVSPropertyOp6
 70
     1
102
RTVSPropertyOp7
 70
     1
102
RTVSPropertyOp8
 70
     1
102
RTVSPropertyOp9
 70
     1
102
RTVSPropertyOp10
 70
     1
102
RTVSPropertyOp11
 70
     1
102
RTVSPropertyOp12
 70
     1
102
RTVSPropertyOp13
 70
     1
102
RTVSPropertyOp14
 70
     1
102
RTVSPropertyOp15
 70
     1
102
RTVSPropertyOp16
 70
     1
102
RTVSPropertyOp17
 70
     1
102
RTVSPropertyOp18
 70
     1
102
RTVSPropertyOp19
 70
     1
102
RTVSPropertyOp20
 70
     1
102
RTVSPropertyOp21
 70
     1
102
RTVSPropertyOp22
 70
     1
102
RTVSPropertyOp23
 70
     1
102
RTVSPropertyOp24
 70
     1
102
RTVSPropertyOp25
 70
     1
102
RTVSPropertyOp26
 70
     1
102
RTVSPropertyOp27
 70
     1
102
RTVSPropertyOp28
 70
     1
102
RTVSPropertyOp29
 70
     1
102
RTVSPropertyOp30
 70
     1
102
RTVSPropertyOp31
 70
     1
102
RTVSPropertyOp32
 70
     1
102
RTVSPropertyOp33
 70
     1
102
RTVSPropertyOp34
 70
     1
102
RTVSPropertyOp35
 70
     1
102
RTVSPropertyOp36
 70
     1
102
RTVSPropertyOp37
 70
     1
102
RTVSPropertyOp38
 70
     1
102
RTVSPropertyOp39
 70
     1
102
RTVSPropertyOp40
 70
     1
102
RTVSPropertyOp41
 70
     1
102
RTVSPropertyOp42
 70
     1
102
RTVSPropertyOp43
 70
     1
102
RTVSPropertyOp44
 70
     1
102
RTVSPropertyOp45
 70
     1
102
RTVSPropertyOp46
 70
     1
102
RTVSPropertyOp47
 70
     1
102
RTVSPropertyOp48
 70
     1
102
RTVSPropertyOp49
 70
     1
102
RTVSPropertyOp50
 70
     1
102
RTVSPropertyOp51
 70
     0
102
RTVSPropertyOp52
 70
     0
102
RTVSPropertyOp53
 70
     1
102
RTVSPropertyOp54
 70
     1
102
RTVSPropertyOp55
 70
     1
102
RTVSPropertyOp56
 70
     1
102
RTVSPropertyOp57
 70
     1
102
RTVSPropertyOp58
 70
     1
102
RTVSPropertyOp59
 70
     1
102
RTVSPropertyOp60
 70
     1
102
RTVSPropertyOp61
 70
     1
102
RTVSPropertyOp62
 70
     1
  0
XRECORD
  5
1DA3
102
{ACAD_REACTORS
330
1DA2
102
}
330
1DA2
100
AcDbXrecord
280
     1
102
RTVSPost2010Prop28
280
     0
102
RTVSPost2010PropOp28
 70
     0
102
RTVSPost2010Prop29
280
     1
102
RTVSPost2010PropOp29
 70
     0
102
RTVSPost2010Prop30
280
     1
102
RTVSPost2010PropOp30
 70
     0
102
RTVSPost2010Prop31
280
     0
102
RTVSPost2010PropOp31
 70
     0
102
RTVSPost2010Prop32
280
     0
102
RTVSPost2010PropOp32
 70
     0
102
RTVSPost2010Prop33
280
     0
102
RTVSPost2010PropOp33
 70
     0
102
RTVSPost2010Prop34
280
     0
102
RTVSPost2010PropOp34
 70
     0
102
RTVSPost2010Prop35
280
     0
102
RTVSPost2010PropOp35
 70
     0
102
RTVSPost2010Prop36
280
     0
102
RTVSPost2010PropOp36
 70
     0
102
RTVSPost2010Prop37
 90
       50
102
RTVSPost2010PropOp37
 70
     0
102
RTVSPost2010Prop38
140
0.0
102
RTVSPost2010PropOp38
 70
     0
102
RTVSPost2010Prop39
140
1.0
102
RTVSPost2010PropOp39
 70
     0
102
RTVSPost2010Prop40
 90
        0
102
RTVSPost2010PropOp40
 70
     0
102
RTVSPost2010Prop41ColorIndex
 90
       18
102
RTVSPost2010Prop41ColorRGB
 90
        0
102
RTVSPost2010PropOp41
 70
     0
102
RTVSPost2010Prop42
 90
       50
102
RTVSPost2010PropOp42
 70
     0
102
RTVSPost2010Prop43
 90
        3
102
RTVSPost2010PropOp43
 70
     0
102
RTVSPost2010Prop44ColorIndex
 90
        5
102
RTVSPost2010Prop44ColorRGB
 90
      255
102
RTVSPost2010PropOp44
 70
     0
102
RTVSPost2010Prop45
280
     0
102
RTVSPost2010PropOp45
 70
     0
102
RTVSPost2010Prop46
 90
       50
102
RTVSPost2010PropOp46
 70
     0
102
RTVSPost2010Prop47
 90
       50
102
RTVSPost2010PropOp47
 70
     0
102
RTVSPost2010Prop48
 90
       50
102
RTVSPost2010PropOp48
 70
     0
102
RTVSPost2010Prop49
280
     0
102
RTVSPost2010PropOp49
 70
     0
102
RTVSPost2010Prop50
 90
       50
102
RTVSPost2010PropOp50
 70
     0
102
RTVSPost2010Prop51ColorIndex
 90
      256
102
RTVSPost2010Prop51ColorRGB
 90
-16777216
102
RTVSPost2010PropOp51
 70
     0
102
RTVSPost2010Prop52
140
1.0
102
RTVSPost2010PropOp52
 70
     0
102
RTVSPost2010Prop53
 90
        2
102
RTVSPost2010PropOp53
 70
     0
102
RTVSPost2010Prop54
  1
strokes_ogs.tif
102
RTVSPost2010PropOp54
 70
     0
102
RTVSPost2010Prop55
280
     0
102
RTVSPost2010PropOp55
 70
     0
102
RTVSPost2010Prop56
140
1.0
102
RTVSPost2010PropOp56
 70
     0
102
RTVSPost2010Prop57
140
1.0
102
RTVSPost2010PropOp57
 70
     0
102
RTVSPropertyOp0
 70
     0
102
RTVSPropertyOp1
 70
     0
102
RTVSPropertyOp2
 70
     0
102
RTVSPropertyOp3
 70
     0
102
RTVSPropertyOp4
 70
     0
102
RTVSPropertyOp5
 70
     0
102
RTVSPropertyOp6
 70
     0
102
RTVSPropertyOp7
 70
     0
102
RTVSPropertyOp8
 70
     0
102
RTVSPropertyOp9
 70
     0
102
RTVSPropertyOp10
 70
     0
102
RTVSPropertyOp11
 70
     0
102
RTVSPropertyOp12
 70
     0
102
RTVSPropertyOp13
 70
     0
102
RTVSPropertyOp14
 70
     2
102
RTVSPropertyOp15
 70
     0
102
RTVSPropertyOp16
 70
     0
102
RTVSPropertyOp17
 70
     0
102
RTVSPropertyOp18
 70
     0
102
RTVSPropertyOp19
 70
     0
102
RTVSPropertyOp20
 70
     0
102
RTVSPropertyOp21
 70
     0
102
RTVSPropertyOp22
 70
     0
102
RTVSPropertyOp23
 70
     0
102
RTVSPropertyOp24
 70
     0
102
RTVSPropertyOp25
 70
     0
102
RTVSPropertyOp26
 70
     0
102
RTVSPropertyOp27
 70
     0
102
RTVSPropertyOp28
 70
     0
102
RTVSPropertyOp29
 70
     0
102
RTVSPropertyOp30
 70
     0
102
RTVSPropertyOp31
 70
     0
102
RTVSPropertyOp32
 70
     0
102
RTVSPropertyOp33
 70
     0
102
RTVSPropertyOp34
 70
     0
102
RTVSPropertyOp35
 70
     0
102
RTVSPropertyOp36
 70
     0
102
RTVSPropertyOp37
 70
     0
102
RTVSPropertyOp38
 70
     0
102
RTVSPropertyOp39
 70
     0
102
RTVSPropertyOp40
 70
     0
102
RTVSPropertyOp41
 70
     0
102
RTVSPropertyOp42
 70
     0
102
RTVSPropertyOp43
 70
     0
102
RTVSPropertyOp44
 70
     0
102
RTVSPropertyOp45
 70
     0
102
RTVSPropertyOp46
 70
     0
102
RTVSPropertyOp47
 70
     0
102
RTVSPropertyOp48
 70
     0
102
RTVSPropertyOp49
 70
     0
102
RTVSPropertyOp50
 70
     0
102
RTVSPropertyOp51
 70
     0
102
RTVSPropertyOp52
 70
     0
102
RTVSPropertyOp53
 70
     0
102
RTVSPropertyOp54
 70
     0
102
RTVSPropertyOp55
 70
     0
102
RTVSPropertyOp56
 70
     0
102
RTVSPropertyOp57
 70
     0
102
RTVSPropertyOp58
 70
     0
102
RTVSPropertyOp59
 70
     0
102
RTVSPropertyOp60
 70
     0
102
RTVSPropertyOp61
 70
     0
102
RTVSPropertyOp62
 70
     0
  0
XRECORD
  5
1D93
102
{ACAD_REACTORS
330
1D92
102
}
330
1D92
100
AcDbXrecord
280
     1
102
RTVSPost2010Prop28
280
     0
102
RTVSPost2010PropOp28
 70
     1
102
RTVSPost2010Prop29
280
     1
102
RTVSPost2010PropOp29
 70
     1
102
RTVSPost2010Prop30
280
     1
102
RTVSPost2010PropOp30
 70
     1
102
RTVSPost2010Prop31
280
     0
102
RTVSPost2010PropOp31
 70
     1
102
RTVSPost2010Prop32
280
     0
102
RTVSPost2010PropOp32
 70
     1
102
RTVSPost2010Prop33
280
     0
102
RTVSPost2010PropOp33
 70
     1
102
RTVSPost2010Prop34
280
     0
102
RTVSPost2010PropOp34
 70
     1
102
RTVSPost2010Prop35
280
     0
102
RTVSPost2010PropOp35
 70
     1
102
RTVSPost2010Prop36
280
     0
102
RTVSPost2010PropOp36
 70
     1
102
RTVSPost2010Prop37
 90
       50
102
RTVSPost2010PropOp37
 70
     1
102
RTVSPost2010Prop38
140
0.0
102
RTVSPost2010PropOp38
 70
     1
102
RTVSPost2010Prop39
140
1.0
102
RTVSPost2010PropOp39
 70
     1
102
RTVSPost2010Prop40
 90
        0
102
RTVSPost2010PropOp40
 70
     1
102
RTVSPost2010Prop41ColorIndex
 90
       18
102
RTVSPost2010Prop41ColorRGB
 90
        0
102
RTVSPost2010PropOp41
 70
     1
102
RTVSPost2010Prop42
 90
       50
102
RTVSPost2010PropOp42
 70
     1
102
RTVSPost2010Prop43
 90
        3
102
RTVSPost2010PropOp43
 70
     1
102
RTVSPost2010Prop44ColorIndex
 90
        5
102
RTVSPost2010Prop44ColorRGB
 90
      255
102
RTVSPost2010PropOp44
 70
     1
102
RTVSPost2010Prop45
280
     0
102
RTVSPost2010PropOp45
 70
     1
102
RTVSPost2010Prop46
 90
       50
102
RTVSPost2010PropOp46
 70
     1
102
RTVSPost2010Prop47
 90
       50
102
RTVSPost2010PropOp47
 70
     1
102
RTVSPost2010Prop48
 90
       50
102
RTVSPost2010PropOp48
 70
     1
102
RTVSPost2010Prop49
280
     0
102
RTVSPost2010PropOp49
 70
     1
102
RTVSPost2010Prop50
 90
       50
102
RTVSPost2010PropOp50
 70
     1
102
RTVSPost2010Prop51ColorIndex
 90
      256
102
RTVSPost2010Prop51ColorRGB
 90
-16777216
102
RTVSPost2010PropOp51
 70
     0
102
RTVSPost2010Prop52
140
1.0
102
RTVSPost2010PropOp52
 70
     0
102
RTVSPost2010Prop53
 90
        2
102
RTVSPost2010PropOp53
 70
     1
102
RTVSPost2010Prop54
  1
strokes_ogs.tif
102
RTVSPost2010PropOp54
 70
     1
102
RTVSPost2010Prop55
280
     0
102
RTVSPost2010PropOp55
 70
     1
102
RTVSPost2010Prop56
140
1.0
102
RTVSPost2010PropOp56
 70
     1
102
RTVSPost2010Prop57
140
1.0
102
RTVSPost2010PropOp57
 70
     1
102
RTVSPropertyOp0
 70
     1
102
RTVSPropertyOp1
 70
     1
102
RTVSPropertyOp2
 70
     1
102
RTVSPropertyOp3
 70
     1
102
RTVSPropertyOp4
 70
     1
102
RTVSPropertyOp5
 70
     1
102
RTVSPropertyOp6
 70
     1
102
RTVSPropertyOp7
 70
     1
102
RTVSPropertyOp8
 70
     1
102
RTVSPropertyOp9
 70
     1
102
RTVSPropertyOp10
 70
     1
102
RTVSPropertyOp11
 70
     1
102
RTVSPropertyOp12
 70
     1
102
RTVSPropertyOp13
 70
     1
102
RTVSPropertyOp14
 70
     1
102
RTVSPropertyOp15
 70
     1
102
RTVSPropertyOp16
 70
     1
102
RTVSPropertyOp17
 70
     1
102
RTVSPropertyOp18
 70
     1
102
RTVSPropertyOp19
 70
     1
102
RTVSPropertyOp20
 70
     1
102
RTVSPropertyOp21
 70
     1
102
RTVSPropertyOp22
 70
     1
102
RTVSPropertyOp23
 70
     1
102
RTVSPropertyOp24
 70
     1
102
RTVSPropertyOp25
 70
     1
102
RTVSPropertyOp26
 70
     1
102
RTVSPropertyOp27
 70
     1
102
RTVSPropertyOp28
 70
     1
102
RTVSPropertyOp29
 70
     1
102
RTVSPropertyOp30
 70
     1
102
RTVSPropertyOp31
 70
     1
102
RTVSPropertyOp32
 70
     1
102
RTVSPropertyOp33
 70
     1
102
RTVSPropertyOp34
 70
     1
102
RTVSPropertyOp35
 70
     1
102
RTVSPropertyOp36
 70
     1
102
RTVSPropertyOp37
 70
     1
102
RTVSPropertyOp38
 70
     1
102
RTVSPropertyOp39
 70
     1
102
RTVSPropertyOp40
 70
     1
102
RTVSPropertyOp41
 70
     1
102
RTVSPropertyOp42
 70
     1
102
RTVSPropertyOp43
 70
     1
102
RTVSPropertyOp44
 70
     1
102
RTVSPropertyOp45
 70
     1
102
RTVSPropertyOp46
 70
     1
102
RTVSPropertyOp47
 70
     1
102
RTVSPropertyOp48
 70
     1
102
RTVSPropertyOp49
 70
     1
102
RTVSPropertyOp50
 70
     1
102
RTVSPropertyOp51
 70
     0
102
RTVSPropertyOp52
 70
     0
102
RTVSPropertyOp53
 70
     1
102
RTVSPropertyOp54
 70
     1
102
RTVSPropertyOp55
 70
     1
102
RTVSPropertyOp56
 70
     1
102
RTVSPropertyOp57
 70
     1
102
RTVSPropertyOp58
 70
     1
102
RTVSPropertyOp59
 70
     1
102
RTVSPropertyOp60
 70
     1
102
RTVSPropertyOp61
 70
     1
102
RTVSPropertyOp62
 70
     1
  0
XRECORD
  5
1DA5
102
{ACAD_REACTORS
330
1DA4
102
}
330
1DA4
100
AcDbXrecord
280
     1
102
RTVSPost2010Prop28
280
     0
102
RTVSPost2010PropOp28
 70
     0
102
RTVSPost2010Prop29
280
     1
102
RTVSPost2010PropOp29
 70
     0
102
RTVSPost2010Prop30
280
     1
102
RTVSPost2010PropOp30
 70
     0
102
RTVSPost2010Prop31
280
     0
102
RTVSPost2010PropOp31
 70
     0
102
RTVSPost2010Prop32
280
     0
102
RTVSPost2010PropOp32
 70
     0
102
RTVSPost2010Prop33
280
     0
102
RTVSPost2010PropOp33
 70
     0
102
RTVSPost2010Prop34
280
     0
102
RTVSPost2010PropOp34
 70
     0
102
RTVSPost2010Prop35
280
     0
102
RTVSPost2010PropOp35
 70
     0
102
RTVSPost2010Prop36
280
     0
102
RTVSPost2010PropOp36
 70
     0
102
RTVSPost2010Prop37
 90
       50
102
RTVSPost2010PropOp37
 70
     0
102
RTVSPost2010Prop38
140
0.0
102
RTVSPost2010PropOp38
 70
     0
102
RTVSPost2010Prop39
140
1.0
102
RTVSPost2010PropOp39
 70
     0
102
RTVSPost2010Prop40
 90
        0
102
RTVSPost2010PropOp40
 70
     0
102
RTVSPost2010Prop41ColorIndex
 90
       18
102
RTVSPost2010Prop41ColorRGB
 90
        0
102
RTVSPost2010PropOp41
 70
     0
102
RTVSPost2010Prop42
 90
       50
102
RTVSPost2010PropOp42
 70
     0
102
RTVSPost2010Prop43
 90
        3
102
RTVSPost2010PropOp43
 70
     0
102
RTVSPost2010Prop44ColorIndex
 90
        5
102
RTVSPost2010Prop44ColorRGB
 90
      255
102
RTVSPost2010PropOp44
 70
     0
102
RTVSPost2010Prop45
280
     0
102
RTVSPost2010PropOp45
 70
     0
102
RTVSPost2010Prop46
 90
       50
102
RTVSPost2010PropOp46
 70
     0
102
RTVSPost2010Prop47
 90
       50
102
RTVSPost2010PropOp47
 70
     0
102
RTVSPost2010Prop48
 90
       50
102
RTVSPost2010PropOp48
 70
     0
102
RTVSPost2010Prop49
280
     0
102
RTVSPost2010PropOp49
 70
     0
102
RTVSPost2010Prop50
 90
       50
102
RTVSPost2010PropOp50
 70
     0
102
RTVSPost2010Prop51ColorIndex
 90
      256
102
RTVSPost2010Prop51ColorRGB
 90
-16777216
102
RTVSPost2010PropOp51
 70
     0
102
RTVSPost2010Prop52
140
1.0
102
RTVSPost2010PropOp52
 70
     0
102
RTVSPost2010Prop53
 90
        2
102
RTVSPost2010PropOp53
 70
     0
102
RTVSPost2010Prop54
  1
strokes_ogs.tif
102
RTVSPost2010PropOp54
 70
     0
102
RTVSPost2010Prop55
280
     0
102
RTVSPost2010PropOp55
 70
     0
102
RTVSPost2010Prop56
140
1.0
102
RTVSPost2010PropOp56
 70
     0
102
RTVSPost2010Prop57
140
1.0
102
RTVSPost2010PropOp57
 70
     0
102
RTVSPropertyOp0
 70
     0
102
RTVSPropertyOp1
 70
     0
102
RTVSPropertyOp2
 70
     0
102
RTVSPropertyOp3
 70
     0
102
RTVSPropertyOp4
 70
     0
102
RTVSPropertyOp5
 70
     0
102
RTVSPropertyOp6
 70
     0
102
RTVSPropertyOp7
 70
     0
102
RTVSPropertyOp8
 70
     0
102
RTVSPropertyOp9
 70
     0
102
RTVSPropertyOp10
 70
     0
102
RTVSPropertyOp11
 70
     0
102
RTVSPropertyOp12
 70
     0
102
RTVSPropertyOp13
 70
     0
102
RTVSPropertyOp14
 70
     2
102
RTVSPropertyOp15
 70
     0
102
RTVSPropertyOp16
 70
     0
102
RTVSPropertyOp17
 70
     0
102
RTVSPropertyOp18
 70
     0
102
RTVSPropertyOp19
 70
     0
102
RTVSPropertyOp20
 70
     0
102
RTVSPropertyOp21
 70
     0
102
RTVSPropertyOp22
 70
     0
102
RTVSPropertyOp23
 70
     0
102
RTVSPropertyOp24
 70
     0
102
RTVSPropertyOp25
 70
     0
102
RTVSPropertyOp26
 70
     0
102
RTVSPropertyOp27
 70
     0
102
RTVSPropertyOp28
 70
     0
102
RTVSPropertyOp29
 70
     0
102
RTVSPropertyOp30
 70
     0
102
RTVSPropertyOp31
 70
     0
102
RTVSPropertyOp32
 70
     0
102
RTVSPropertyOp33
 70
     0
102
RTVSPropertyOp34
 70
     0
102
RTVSPropertyOp35
 70
     0
102
RTVSPropertyOp36
 70
     0
102
RTVSPropertyOp37
 70
     0
102
RTVSPropertyOp38
 70
     0
102
RTVSPropertyOp39
 70
     0
102
RTVSPropertyOp40
 70
     0
102
RTVSPropertyOp41
 70
     0
102
RTVSPropertyOp42
 70
     0
102
RTVSPropertyOp43
 70
     0
102
RTVSPropertyOp44
 70
     0
102
RTVSPropertyOp45
 70
     0
102
RTVSPropertyOp46
 70
     0
102
RTVSPropertyOp47
 70
     0
102
RTVSPropertyOp48
 70
     0
102
RTVSPropertyOp49
 70
     0
102
RTVSPropertyOp50
 70
     0
102
RTVSPropertyOp51
 70
     0
102
RTVSPropertyOp52
 70
     0
102
RTVSPropertyOp53
 70
     0
102
RTVSPropertyOp54
 70
     0
102
RTVSPropertyOp55
 70
     0
102
RTVSPropertyOp56
 70
     0
102
RTVSPropertyOp57
 70
     0
102
RTVSPropertyOp58
 70
     0
102
RTVSPropertyOp59
 70
     0
102
RTVSPropertyOp60
 70
     0
102
RTVSPropertyOp61
 70
     0
102
RTVSPropertyOp62
 70
     0
  0
XRECORD
  5
1D8B
102
{ACAD_REACTORS
330
1D8A
102
}
330
1D8A
100
AcDbXrecord
280
     1
102
RTVSPost2010Prop28
280
     0
102
RTVSPost2010PropOp28
 70
     1
102
RTVSPost2010Prop29
280
     1
102
RTVSPost2010PropOp29
 70
     1
102
RTVSPost2010Prop30
280
     1
102
RTVSPost2010PropOp30
 70
     1
102
RTVSPost2010Prop31
280
     0
102
RTVSPost2010PropOp31
 70
     1
102
RTVSPost2010Prop32
280
     0
102
RTVSPost2010PropOp32
 70
     1
102
RTVSPost2010Prop33
280
     0
102
RTVSPost2010PropOp33
 70
     1
102
RTVSPost2010Prop34
280
     0
102
RTVSPost2010PropOp34
 70
     1
102
RTVSPost2010Prop35
280
     0
102
RTVSPost2010PropOp35
 70
     1
102
RTVSPost2010Prop36
280
     0
102
RTVSPost2010PropOp36
 70
     1
102
RTVSPost2010Prop37
 90
       50
102
RTVSPost2010PropOp37
 70
     1
102
RTVSPost2010Prop38
140
0.0
102
RTVSPost2010PropOp38
 70
     1
102
RTVSPost2010Prop39
140
1.0
102
RTVSPost2010PropOp39
 70
     1
102
RTVSPost2010Prop40
 90
        0
102
RTVSPost2010PropOp40
 70
     1
102
RTVSPost2010Prop41ColorIndex
 90
       18
102
RTVSPost2010Prop41ColorRGB
 90
        0
102
RTVSPost2010PropOp41
 70
     1
102
RTVSPost2010Prop42
 90
       50
102
RTVSPost2010PropOp42
 70
     1
102
RTVSPost2010Prop43
 90
        3
102
RTVSPost2010PropOp43
 70
     1
102
RTVSPost2010Prop44ColorIndex
 90
        5
102
RTVSPost2010Prop44ColorRGB
 90
      255
102
RTVSPost2010PropOp44
 70
     1
102
RTVSPost2010Prop45
280
     0
102
RTVSPost2010PropOp45
 70
     1
102
RTVSPost2010Prop46
 90
       50
102
RTVSPost2010PropOp46
 70
     1
102
RTVSPost2010Prop47
 90
       50
102
RTVSPost2010PropOp47
 70
     1
102
RTVSPost2010Prop48
 90
       50
102
RTVSPost2010PropOp48
 70
     1
102
RTVSPost2010Prop49
280
     0
102
RTVSPost2010PropOp49
 70
     1
102
RTVSPost2010Prop50
 90
       50
102
RTVSPost2010PropOp50
 70
     1
102
RTVSPost2010Prop51ColorIndex
 90
      256
102
RTVSPost2010Prop51ColorRGB
 90
-16777216
102
RTVSPost2010PropOp51
 70
     0
102
RTVSPost2010Prop52
140
1.0
102
RTVSPost2010PropOp52
 70
     0
102
RTVSPost2010Prop53
 90
        2
102
RTVSPost2010PropOp53
 70
     1
102
RTVSPost2010Prop54
  1
strokes_ogs.tif
102
RTVSPost2010PropOp54
 70
     1
102
RTVSPost2010Prop55
280
     0
102
RTVSPost2010PropOp55
 70
     1
102
RTVSPost2010Prop56
140
1.0
102
RTVSPost2010PropOp56
 70
     1
102
RTVSPost2010Prop57
140
1.0
102
RTVSPost2010PropOp57
 70
     1
102
RTVSPropertyOp0
 70
     1
102
RTVSPropertyOp1
 70
     1
102
RTVSPropertyOp2
 70
     1
102
RTVSPropertyOp3
 70
     1
102
RTVSPropertyOp4
 70
     1
102
RTVSPropertyOp5
 70
     1
102
RTVSPropertyOp6
 70
     1
102
RTVSPropertyOp7
 70
     1
102
RTVSPropertyOp8
 70
     1
102
RTVSPropertyOp9
 70
     1
102
RTVSPropertyOp10
 70
     1
102
RTVSPropertyOp11
 70
     1
102
RTVSPropertyOp12
 70
     1
102
RTVSPropertyOp13
 70
     1
102
RTVSPropertyOp14
 70
     1
102
RTVSPropertyOp15
 70
     1
102
RTVSPropertyOp16
 70
     1
102
RTVSPropertyOp17
 70
     1
102
RTVSPropertyOp18
 70
     1
102
RTVSPropertyOp19
 70
     1
102
RTVSPropertyOp20
 70
     1
102
RTVSPropertyOp21
 70
     1
102
RTVSPropertyOp22
 70
     1
102
RTVSPropertyOp23
 70
     1
102
RTVSPropertyOp24
 70
     1
102
RTVSPropertyOp25
 70
     1
102
RTVSPropertyOp26
 70
     1
102
RTVSPropertyOp27
 70
     1
102
RTVSPropertyOp28
 70
     1
102
RTVSPropertyOp29
 70
     1
102
RTVSPropertyOp30
 70
     1
102
RTVSPropertyOp31
 70
     1
102
RTVSPropertyOp32
 70
     1
102
RTVSPropertyOp33
 70
     1
102
RTVSPropertyOp34
 70
     1
102
RTVSPropertyOp35
 70
     1
102
RTVSPropertyOp36
 70
     1
102
RTVSPropertyOp37
 70
     1
102
RTVSPropertyOp38
 70
     1
102
RTVSPropertyOp39
 70
     1
102
RTVSPropertyOp40
 70
     1
102
RTVSPropertyOp41
 70
     1
102
RTVSPropertyOp42
 70
     1
102
RTVSPropertyOp43
 70
     1
102
RTVSPropertyOp44
 70
     1
102
RTVSPropertyOp45
 70
     1
102
RTVSPropertyOp46
 70
     1
102
RTVSPropertyOp47
 70
     1
102
RTVSPropertyOp48
 70
     1
102
RTVSPropertyOp49
 70
     1
102
RTVSPropertyOp50
 70
     1
102
RTVSPropertyOp51
 70
     0
102
RTVSPropertyOp52
 70
     0
102
RTVSPropertyOp53
 70
     1
102
RTVSPropertyOp54
 70
     1
102
RTVSPropertyOp55
 70
     1
102
RTVSPropertyOp56
 70
     1
102
RTVSPropertyOp57
 70
     1
102
RTVSPropertyOp58
 70
     1
102
RTVSPropertyOp59
 70
     1
102
RTVSPropertyOp60
 70
     1
102
RTVSPropertyOp61
 70
     1
102
RTVSPropertyOp62
 70
     1
  0
XRECORD
  5
1DA1
102
{ACAD_REACTORS
330
1DA0
102
}
330
1DA0
100
AcDbXrecord
280
     1
102
RTVSPost2010Prop28
280
     0
102
RTVSPost2010PropOp28
 70
     1
102
RTVSPost2010Prop29
280
     1
102
RTVSPost2010PropOp29
 70
     1
102
RTVSPost2010Prop30
280
     1
102
RTVSPost2010PropOp30
 70
     1
102
RTVSPost2010Prop31
280
     0
102
RTVSPost2010PropOp31
 70
     1
102
RTVSPost2010Prop32
280
     0
102
RTVSPost2010PropOp32
 70
     1
102
RTVSPost2010Prop33
280
     0
102
RTVSPost2010PropOp33
 70
     1
102
RTVSPost2010Prop34
280
     0
102
RTVSPost2010PropOp34
 70
     1
102
RTVSPost2010Prop35
280
     0
102
RTVSPost2010PropOp35
 70
     1
102
RTVSPost2010Prop36
280
     0
102
RTVSPost2010PropOp36
 70
     1
102
RTVSPost2010Prop37
 90
       50
102
RTVSPost2010PropOp37
 70
     1
102
RTVSPost2010Prop38
140
0.0
102
RTVSPost2010PropOp38
 70
     1
102
RTVSPost2010Prop39
140
1.0
102
RTVSPost2010PropOp39
 70
     1
102
RTVSPost2010Prop40
 90
        0
102
RTVSPost2010PropOp40
 70
     1
102
RTVSPost2010Prop41ColorIndex
 90
       18
102
RTVSPost2010Prop41ColorRGB
 90
        0
102
RTVSPost2010PropOp41
 70
     1
102
RTVSPost2010Prop42
 90
       50
102
RTVSPost2010PropOp42
 70
     1
102
RTVSPost2010Prop43
 90
        3
102
RTVSPost2010PropOp43
 70
     1
102
RTVSPost2010Prop44ColorIndex
 90
        5
102
RTVSPost2010Prop44ColorRGB
 90
      255
102
RTVSPost2010PropOp44
 70
     1
102
RTVSPost2010Prop45
280
     0
102
RTVSPost2010PropOp45
 70
     1
102
RTVSPost2010Prop46
 90
       50
102
RTVSPost2010PropOp46
 70
     1
102
RTVSPost2010Prop47
 90
       50
102
RTVSPost2010PropOp47
 70
     1
102
RTVSPost2010Prop48
 90
       50
102
RTVSPost2010PropOp48
 70
     1
102
RTVSPost2010Prop49
280
     0
102
RTVSPost2010PropOp49
 70
     1
102
RTVSPost2010Prop50
 90
       50
102
RTVSPost2010PropOp50
 70
     1
102
RTVSPost2010Prop51ColorIndex
 90
      256
102
RTVSPost2010Prop51ColorRGB
 90
-16777216
102
RTVSPost2010PropOp51
 70
     0
102
RTVSPost2010Prop52
140
1.0
102
RTVSPost2010PropOp52
 70
     0
102
RTVSPost2010Prop53
 90
        2
102
RTVSPost2010PropOp53
 70
     1
102
RTVSPost2010Prop54
  1
strokes_ogs.tif
102
RTVSPost2010PropOp54
 70
     1
102
RTVSPost2010Prop55
280
     0
102
RTVSPost2010PropOp55
 70
     1
102
RTVSPost2010Prop56
140
1.0
102
RTVSPost2010PropOp56
 70
     1
102
RTVSPost2010Prop57
140
1.0
102
RTVSPost2010PropOp57
 70
     1
102
RTVSPropertyOp0
 70
     1
102
RTVSPropertyOp1
 70
     1
102
RTVSPropertyOp2
 70
     1
102
RTVSPropertyOp3
 70
     1
102
RTVSPropertyOp4
 70
     1
102
RTVSPropertyOp5
 70
     1
102
RTVSPropertyOp6
 70
     1
102
RTVSPropertyOp7
 70
     1
102
RTVSPropertyOp8
 70
     1
102
RTVSPropertyOp9
 70
     1
102
RTVSPropertyOp10
 70
     1
102
RTVSPropertyOp11
 70
     1
102
RTVSPropertyOp12
 70
     1
102
RTVSPropertyOp13
 70
     1
102
RTVSPropertyOp14
 70
     1
102
RTVSPropertyOp15
 70
     1
102
RTVSPropertyOp16
 70
     1
102
RTVSPropertyOp17
 70
     1
102
RTVSPropertyOp18
 70
     1
102
RTVSPropertyOp19
 70
     1
102
RTVSPropertyOp20
 70
     1
102
RTVSPropertyOp21
 70
     1
102
RTVSPropertyOp22
 70
     1
102
RTVSPropertyOp23
 70
     1
102
RTVSPropertyOp24
 70
     1
102
RTVSPropertyOp25
 70
     1
102
RTVSPropertyOp26
 70
     1
102
RTVSPropertyOp27
 70
     1
102
RTVSPropertyOp28
 70
     1
102
RTVSPropertyOp29
 70
     1
102
RTVSPropertyOp30
 70
     1
102
RTVSPropertyOp31
 70
     1
102
RTVSPropertyOp32
 70
     1
102
RTVSPropertyOp33
 70
     1
102
RTVSPropertyOp34
 70
     1
102
RTVSPropertyOp35
 70
     1
102
RTVSPropertyOp36
 70
     1
102
RTVSPropertyOp37
 70
     1
102
RTVSPropertyOp38
 70
     1
102
RTVSPropertyOp39
 70
     1
102
RTVSPropertyOp40
 70
     1
102
RTVSPropertyOp41
 70
     1
102
RTVSPropertyOp42
 70
     1
102
RTVSPropertyOp43
 70
     1
102
RTVSPropertyOp44
 70
     1
102
RTVSPropertyOp45
 70
     1
102
RTVSPropertyOp46
 70
     1
102
RTVSPropertyOp47
 70
     1
102
RTVSPropertyOp48
 70
     1
102
RTVSPropertyOp49
 70
     1
102
RTVSPropertyOp50
 70
     1
102
RTVSPropertyOp51
 70
     0
102
RTVSPropertyOp52
 70
     0
102
RTVSPropertyOp53
 70
     1
102
RTVSPropertyOp54
 70
     1
102
RTVSPropertyOp55
 70
     1
102
RTVSPropertyOp56
 70
     1
102
RTVSPropertyOp57
 70
     1
102
RTVSPropertyOp58
 70
     1
102
RTVSPropertyOp59
 70
     1
102
RTVSPropertyOp60
 70
     1
102
RTVSPropertyOp61
 70
     1
102
RTVSPropertyOp62
 70
     1
  0
XRECORD
  5
1D9F
102
{ACAD_REACTORS
330
1D9E
102
}
330
1D9E
100
AcDbXrecord
280
     1
102
RTVSPost2010Prop28
280
     0
102
RTVSPost2010PropOp28
 70
     1
102
RTVSPost2010Prop29
280
     1
102
RTVSPost2010PropOp29
 70
     1
102
RTVSPost2010Prop30
280
     1
102
RTVSPost2010PropOp30
 70
     1
102
RTVSPost2010Prop31
280
     0
102
RTVSPost2010PropOp31
 70
     1
102
RTVSPost2010Prop32
280
     0
102
RTVSPost2010PropOp32
 70
     1
102
RTVSPost2010Prop33
280
     0
102
RTVSPost2010PropOp33
 70
     1
102
RTVSPost2010Prop34
280
     0
102
RTVSPost2010PropOp34
 70
     1
102
RTVSPost2010Prop35
280
     0
102
RTVSPost2010PropOp35
 70
     1
102
RTVSPost2010Prop36
280
     0
102
RTVSPost2010PropOp36
 70
     1
102
RTVSPost2010Prop37
 90
       50
102
RTVSPost2010PropOp37
 70
     1
102
RTVSPost2010Prop38
140
0.0
102
RTVSPost2010PropOp38
 70
     1
102
RTVSPost2010Prop39
140
1.0
102
RTVSPost2010PropOp39
 70
     1
102
RTVSPost2010Prop40
 90
        0
102
RTVSPost2010PropOp40
 70
     1
102
RTVSPost2010Prop41ColorIndex
 90
       18
102
RTVSPost2010Prop41ColorRGB
 90
        0
102
RTVSPost2010PropOp41
 70
     1
102
RTVSPost2010Prop42
 90
       50
102
RTVSPost2010PropOp42
 70
     1
102
RTVSPost2010Prop43
 90
        3
102
RTVSPost2010PropOp43
 70
     1
102
RTVSPost2010Prop44ColorIndex
 90
        5
102
RTVSPost2010Prop44ColorRGB
 90
      255
102
RTVSPost2010PropOp44
 70
     1
102
RTVSPost2010Prop45
280
     0
102
RTVSPost2010PropOp45
 70
     1
102
RTVSPost2010Prop46
 90
       50
102
RTVSPost2010PropOp46
 70
     1
102
RTVSPost2010Prop47
 90
       50
102
RTVSPost2010PropOp47
 70
     1
102
RTVSPost2010Prop48
 90
       50
102
RTVSPost2010PropOp48
 70
     1
102
RTVSPost2010Prop49
280
     0
102
RTVSPost2010PropOp49
 70
     1
102
RTVSPost2010Prop50
 90
       50
102
RTVSPost2010PropOp50
 70
     1
102
RTVSPost2010Prop51ColorIndex
 90
      256
102
RTVSPost2010Prop51ColorRGB
 90
-16777216
102
RTVSPost2010PropOp51
 70
     0
102
RTVSPost2010Prop52
140
1.0
102
RTVSPost2010PropOp52
 70
     0
102
RTVSPost2010Prop53
 90
        2
102
RTVSPost2010PropOp53
 70
     1
102
RTVSPost2010Prop54
  1
strokes_ogs.tif
102
RTVSPost2010PropOp54
 70
     1
102
RTVSPost2010Prop55
280
     0
102
RTVSPost2010PropOp55
 70
     1
102
RTVSPost2010Prop56
140
1.0
102
RTVSPost2010PropOp56
 70
     1
102
RTVSPost2010Prop57
140
1.0
102
RTVSPost2010PropOp57
 70
     1
102
RTVSPropertyOp0
 70
     1
102
RTVSPropertyOp1
 70
     1
102
RTVSPropertyOp2
 70
     1
102
RTVSPropertyOp3
 70
     1
102
RTVSPropertyOp4
 70
     1
102
RTVSPropertyOp5
 70
     1
102
RTVSPropertyOp6
 70
     1
102
RTVSPropertyOp7
 70
     1
102
RTVSPropertyOp8
 70
     1
102
RTVSPropertyOp9
 70
     1
102
RTVSPropertyOp10
 70
     1
102
RTVSPropertyOp11
 70
     1
102
RTVSPropertyOp12
 70
     1
102
RTVSPropertyOp13
 70
     1
102
RTVSPropertyOp14
 70
     1
102
RTVSPropertyOp15
 70
     1
102
RTVSPropertyOp16
 70
     1
102
RTVSPropertyOp17
 70
     1
102
RTVSPropertyOp18
 70
     1
102
RTVSPropertyOp19
 70
     1
102
RTVSPropertyOp20
 70
     1
102
RTVSPropertyOp21
 70
     1
102
RTVSPropertyOp22
 70
     1
102
RTVSPropertyOp23
 70
     1
102
RTVSPropertyOp24
 70
     1
102
RTVSPropertyOp25
 70
     1
102
RTVSPropertyOp26
 70
     1
102
RTVSPropertyOp27
 70
     1
102
RTVSPropertyOp28
 70
     1
102
RTVSPropertyOp29
 70
     1
102
RTVSPropertyOp30
 70
     1
102
RTVSPropertyOp31
 70
     1
102
RTVSPropertyOp32
 70
     1
102
RTVSPropertyOp33
 70
     1
102
RTVSPropertyOp34
 70
     1
102
RTVSPropertyOp35
 70
     1
102
RTVSPropertyOp36
 70
     1
102
RTVSPropertyOp37
 70
     1
102
RTVSPropertyOp38
 70
     1
102
RTVSPropertyOp39
 70
     1
102
RTVSPropertyOp40
 70
     1
102
RTVSPropertyOp41
 70
     1
102
RTVSPropertyOp42
 70
     1
102
RTVSPropertyOp43
 70
     1
102
RTVSPropertyOp44
 70
     1
102
RTVSPropertyOp45
 70
     1
102
RTVSPropertyOp46
 70
     1
102
RTVSPropertyOp47
 70
     1
102
RTVSPropertyOp48
 70
     1
102
RTVSPropertyOp49
 70
     1
102
RTVSPropertyOp50
 70
     1
102
RTVSPropertyOp51
 70
     0
102
RTVSPropertyOp52
 70
     0
102
RTVSPropertyOp53
 70
     1
102
RTVSPropertyOp54
 70
     1
102
RTVSPropertyOp55
 70
     1
102
RTVSPropertyOp56
 70
     1
102
RTVSPropertyOp57
 70
     1
102
RTVSPropertyOp58
 70
     1
102
RTVSPropertyOp59
 70
     1
102
RTVSPropertyOp60
 70
     1
102
RTVSPropertyOp61
 70
     1
102
RTVSPropertyOp62
 70
     1
  0
XRECORD
  5
1D99
102
{ACAD_REACTORS
330
1D98
102
}
330
1D98
100
AcDbXrecord
280
     1
102
RTVSPost2010Prop28
280
     0
102
RTVSPost2010PropOp28
 70
     1
102
RTVSPost2010Prop29
280
     1
102
RTVSPost2010PropOp29
 70
     1
102
RTVSPost2010Prop30
280
     1
102
RTVSPost2010PropOp30
 70
     1
102
RTVSPost2010Prop31
280
     0
102
RTVSPost2010PropOp31
 70
     1
102
RTVSPost2010Prop32
280
     0
102
RTVSPost2010PropOp32
 70
     1
102
RTVSPost2010Prop33
280
     0
102
RTVSPost2010PropOp33
 70
     1
102
RTVSPost2010Prop34
280
     0
102
RTVSPost2010PropOp34
 70
     1
102
RTVSPost2010Prop35
280
     0
102
RTVSPost2010PropOp35
 70
     1
102
RTVSPost2010Prop36
280
     0
102
RTVSPost2010PropOp36
 70
     1
102
RTVSPost2010Prop37
 90
       50
102
RTVSPost2010PropOp37
 70
     1
102
RTVSPost2010Prop38
140
0.0
102
RTVSPost2010PropOp38
 70
     1
102
RTVSPost2010Prop39
140
1.0
102
RTVSPost2010PropOp39
 70
     1
102
RTVSPost2010Prop40
 90
        0
102
RTVSPost2010PropOp40
 70
     1
102
RTVSPost2010Prop41ColorIndex
 90
       18
102
RTVSPost2010Prop41ColorRGB
 90
        0
102
RTVSPost2010PropOp41
 70
     1
102
RTVSPost2010Prop42
 90
       50
102
RTVSPost2010PropOp42
 70
     1
102
RTVSPost2010Prop43
 90
        3
102
RTVSPost2010PropOp43
 70
     1
102
RTVSPost2010Prop44ColorIndex
 90
        5
102
RTVSPost2010Prop44ColorRGB
 90
      255
102
RTVSPost2010PropOp44
 70
     1
102
RTVSPost2010Prop45
280
     0
102
RTVSPost2010PropOp45
 70
     1
102
RTVSPost2010Prop46
 90
       50
102
RTVSPost2010PropOp46
 70
     1
102
RTVSPost2010Prop47
 90
       50
102
RTVSPost2010PropOp47
 70
     1
102
RTVSPost2010Prop48
 90
       50
102
RTVSPost2010PropOp48
 70
     1
102
RTVSPost2010Prop49
280
     0
102
RTVSPost2010PropOp49
 70
     1
102
RTVSPost2010Prop50
 90
       50
102
RTVSPost2010PropOp50
 70
     1
102
RTVSPost2010Prop51ColorIndex
 90
      256
102
RTVSPost2010Prop51ColorRGB
 90
-16777216
102
RTVSPost2010PropOp51
 70
     0
102
RTVSPost2010Prop52
140
1.0
102
RTVSPost2010PropOp52
 70
     0
102
RTVSPost2010Prop53
 90
        2
102
RTVSPost2010PropOp53
 70
     1
102
RTVSPost2010Prop54
  1
strokes_ogs.tif
102
RTVSPost2010PropOp54
 70
     1
102
RTVSPost2010Prop55
280
     0
102
RTVSPost2010PropOp55
 70
     1
102
RTVSPost2010Prop56
140
1.0
102
RTVSPost2010PropOp56
 70
     1
102
RTVSPost2010Prop57
140
1.0
102
RTVSPost2010PropOp57
 70
     1
102
RTVSPropertyOp0
 70
     1
102
RTVSPropertyOp1
 70
     1
102
RTVSPropertyOp2
 70
     1
102
RTVSPropertyOp3
 70
     1
102
RTVSPropertyOp4
 70
     1
102
RTVSPropertyOp5
 70
     1
102
RTVSPropertyOp6
 70
     1
102
RTVSPropertyOp7
 70
     1
102
RTVSPropertyOp8
 70
     1
102
RTVSPropertyOp9
 70
     1
102
RTVSPropertyOp10
 70
     1
102
RTVSPropertyOp11
 70
     1
102
RTVSPropertyOp12
 70
     1
102
RTVSPropertyOp13
 70
     1
102
RTVSPropertyOp14
 70
     1
102
RTVSPropertyOp15
 70
     1
102
RTVSPropertyOp16
 70
     1
102
RTVSPropertyOp17
 70
     1
102
RTVSPropertyOp18
 70
     1
102
RTVSPropertyOp19
 70
     1
102
RTVSPropertyOp20
 70
     1
102
RTVSPropertyOp21
 70
     1
102
RTVSPropertyOp22
 70
     1
102
RTVSPropertyOp23
 70
     1
102
RTVSPropertyOp24
 70
     1
102
RTVSPropertyOp25
 70
     1
102
RTVSPropertyOp26
 70
     1
102
RTVSPropertyOp27
 70
     1
102
RTVSPropertyOp28
 70
     1
102
RTVSPropertyOp29
 70
     1
102
RTVSPropertyOp30
 70
     1
102
RTVSPropertyOp31
 70
     1
102
RTVSPropertyOp32
 70
     1
102
RTVSPropertyOp33
 70
     1
102
RTVSPropertyOp34
 70
     1
102
RTVSPropertyOp35
 70
     1
102
RTVSPropertyOp36
 70
     1
102
RTVSPropertyOp37
 70
     1
102
RTVSPropertyOp38
 70
     1
102
RTVSPropertyOp39
 70
     1
102
RTVSPropertyOp40
 70
     1
102
RTVSPropertyOp41
 70
     1
102
RTVSPropertyOp42
 70
     1
102
RTVSPropertyOp43
 70
     1
102
RTVSPropertyOp44
 70
     1
102
RTVSPropertyOp45
 70
     1
102
RTVSPropertyOp46
 70
     1
102
RTVSPropertyOp47
 70
     1
102
RTVSPropertyOp48
 70
     1
102
RTVSPropertyOp49
 70
     1
102
RTVSPropertyOp50
 70
     1
102
RTVSPropertyOp51
 70
     0
102
RTVSPropertyOp52
 70
     0
102
RTVSPropertyOp53
 70
     1
102
RTVSPropertyOp54
 70
     1
102
RTVSPropertyOp55
 70
     1
102
RTVSPropertyOp56
 70
     1
102
RTVSPropertyOp57
 70
     1
102
RTVSPropertyOp58
 70
     1
102
RTVSPropertyOp59
 70
     1
102
RTVSPropertyOp60
 70
     1
102
RTVSPropertyOp61
 70
     1
102
RTVSPropertyOp62
 70
     1
  0
XRECORD
  5
1D9B
102
{ACAD_REACTORS
330
1D9A
102
}
330
1D9A
100
AcDbXrecord
280
     1
102
RTVSPost2010Prop28
280
     0
102
RTVSPost2010PropOp28
 70
     1
102
RTVSPost2010Prop29
280
     1
102
RTVSPost2010PropOp29
 70
     1
102
RTVSPost2010Prop30
280
     1
102
RTVSPost2010PropOp30
 70
     1
102
RTVSPost2010Prop31
280
     0
102
RTVSPost2010PropOp31
 70
     1
102
RTVSPost2010Prop32
280
     0
102
RTVSPost2010PropOp32
 70
     1
102
RTVSPost2010Prop33
280
     0
102
RTVSPost2010PropOp33
 70
     1
102
RTVSPost2010Prop34
280
     0
102
RTVSPost2010PropOp34
 70
     1
102
RTVSPost2010Prop35
280
     0
102
RTVSPost2010PropOp35
 70
     1
102
RTVSPost2010Prop36
280
     0
102
RTVSPost2010PropOp36
 70
     1
102
RTVSPost2010Prop37
 90
       50
102
RTVSPost2010PropOp37
 70
     1
102
RTVSPost2010Prop38
140
0.0
102
RTVSPost2010PropOp38
 70
     1
102
RTVSPost2010Prop39
140
1.0
102
RTVSPost2010PropOp39
 70
     1
102
RTVSPost2010Prop40
 90
        0
102
RTVSPost2010PropOp40
 70
     1
102
RTVSPost2010Prop41ColorIndex
 90
       18
102
RTVSPost2010Prop41ColorRGB
 90
        0
102
RTVSPost2010PropOp41
 70
     1
102
RTVSPost2010Prop42
 90
       50
102
RTVSPost2010PropOp42
 70
     1
102
RTVSPost2010Prop43
 90
        3
102
RTVSPost2010PropOp43
 70
     1
102
RTVSPost2010Prop44ColorIndex
 90
        5
102
RTVSPost2010Prop44ColorRGB
 90
      255
102
RTVSPost2010PropOp44
 70
     1
102
RTVSPost2010Prop45
280
     0
102
RTVSPost2010PropOp45
 70
     1
102
RTVSPost2010Prop46
 90
       50
102
RTVSPost2010PropOp46
 70
     1
102
RTVSPost2010Prop47
 90
       50
102
RTVSPost2010PropOp47
 70
     1
102
RTVSPost2010Prop48
 90
       50
102
RTVSPost2010PropOp48
 70
     1
102
RTVSPost2010Prop49
280
     0
102
RTVSPost2010PropOp49
 70
     1
102
RTVSPost2010Prop50
 90
       50
102
RTVSPost2010PropOp50
 70
     1
102
RTVSPost2010Prop51ColorIndex
 90
      256
102
RTVSPost2010Prop51ColorRGB
 90
-16777216
102
RTVSPost2010PropOp51
 70
     0
102
RTVSPost2010Prop52
140
1.0
102
RTVSPost2010PropOp52
 70
     0
102
RTVSPost2010Prop53
 90
        2
102
RTVSPost2010PropOp53
 70
     1
102
RTVSPost2010Prop54
  1
strokes_ogs.tif
102
RTVSPost2010PropOp54
 70
     1
102
RTVSPost2010Prop55
280
     0
102
RTVSPost2010PropOp55
 70
     1
102
RTVSPost2010Prop56
140
1.0
102
RTVSPost2010PropOp56
 70
     1
102
RTVSPost2010Prop57
140
1.0
102
RTVSPost2010PropOp57
 70
     1
102
RTVSPropertyOp0
 70
     1
102
RTVSPropertyOp1
 70
     1
102
RTVSPropertyOp2
 70
     1
102
RTVSPropertyOp3
 70
     1
102
RTVSPropertyOp4
 70
     1
102
RTVSPropertyOp5
 70
     1
102
RTVSPropertyOp6
 70
     1
102
RTVSPropertyOp7
 70
     1
102
RTVSPropertyOp8
 70
     1
102
RTVSPropertyOp9
 70
     1
102
RTVSPropertyOp10
 70
     1
102
RTVSPropertyOp11
 70
     1
102
RTVSPropertyOp12
 70
     1
102
RTVSPropertyOp13
 70
     1
102
RTVSPropertyOp14
 70
     1
102
RTVSPropertyOp15
 70
     1
102
RTVSPropertyOp16
 70
     1
102
RTVSPropertyOp17
 70
     1
102
RTVSPropertyOp18
 70
     1
102
RTVSPropertyOp19
 70
     1
102
RTVSPropertyOp20
 70
     1
102
RTVSPropertyOp21
 70
     1
102
RTVSPropertyOp22
 70
     1
102
RTVSPropertyOp23
 70
     1
102
RTVSPropertyOp24
 70
     1
102
RTVSPropertyOp25
 70
     1
102
RTVSPropertyOp26
 70
     1
102
RTVSPropertyOp27
 70
     1
102
RTVSPropertyOp28
 70
     1
102
RTVSPropertyOp29
 70
     1
102
RTVSPropertyOp30
 70
     1
102
RTVSPropertyOp31
 70
     1
102
RTVSPropertyOp32
 70
     1
102
RTVSPropertyOp33
 70
     1
102
RTVSPropertyOp34
 70
     1
102
RTVSPropertyOp35
 70
     1
102
RTVSPropertyOp36
 70
     1
102
RTVSPropertyOp37
 70
     1
102
RTVSPropertyOp38
 70
     1
102
RTVSPropertyOp39
 70
     1
102
RTVSPropertyOp40
 70
     1
102
RTVSPropertyOp41
 70
     1
102
RTVSPropertyOp42
 70
     1
102
RTVSPropertyOp43
 70
     1
102
RTVSPropertyOp44
 70
     1
102
RTVSPropertyOp45
 70
     1
102
RTVSPropertyOp46
 70
     1
102
RTVSPropertyOp47
 70
     1
102
RTVSPropertyOp48
 70
     1
102
RTVSPropertyOp49
 70
     1
102
RTVSPropertyOp50
 70
     1
102
RTVSPropertyOp51
 70
     0
102
RTVSPropertyOp52
 70
     0
102
RTVSPropertyOp53
 70
     1
102
RTVSPropertyOp54
 70
     1
102
RTVSPropertyOp55
 70
     1
102
RTVSPropertyOp56
 70
     1
102
RTVSPropertyOp57
 70
     1
102
RTVSPropertyOp58
 70
     1
102
RTVSPropertyOp59
 70
     1
102
RTVSPropertyOp60
 70
     1
102
RTVSPropertyOp61
 70
     1
102
RTVSPropertyOp62
 70
     1
  0
XRECORD
  5
1D91
102
{ACAD_REACTORS
330
1D90
102
}
330
1D90
100
AcDbXrecord
280
     1
102
RTVSPost2010Prop28
280
     0
102
RTVSPost2010PropOp28
 70
     1
102
RTVSPost2010Prop29
280
     1
102
RTVSPost2010PropOp29
 70
     1
102
RTVSPost2010Prop30
280
     1
102
RTVSPost2010PropOp30
 70
     1
102
RTVSPost2010Prop31
280
     0
102
RTVSPost2010PropOp31
 70
     1
102
RTVSPost2010Prop32
280
     0
102
RTVSPost2010PropOp32
 70
     1
102
RTVSPost2010Prop33
280
     0
102
RTVSPost2010PropOp33
 70
     1
102
RTVSPost2010Prop34
280
     0
102
RTVSPost2010PropOp34
 70
     1
102
RTVSPost2010Prop35
280
     0
102
RTVSPost2010PropOp35
 70
     1
102
RTVSPost2010Prop36
280
     0
102
RTVSPost2010PropOp36
 70
     1
102
RTVSPost2010Prop37
 90
       50
102
RTVSPost2010PropOp37
 70
     1
102
RTVSPost2010Prop38
140
0.0
102
RTVSPost2010PropOp38
 70
     1
102
RTVSPost2010Prop39
140
1.0
102
RTVSPost2010PropOp39
 70
     1
102
RTVSPost2010Prop40
 90
        0
102
RTVSPost2010PropOp40
 70
     1
102
RTVSPost2010Prop41ColorIndex
 90
       18
102
RTVSPost2010Prop41ColorRGB
 90
        0
102
RTVSPost2010PropOp41
 70
     1
102
RTVSPost2010Prop42
 90
       50
102
RTVSPost2010PropOp42
 70
     1
102
RTVSPost2010Prop43
 90
        3
102
RTVSPost2010PropOp43
 70
     1
102
RTVSPost2010Prop44ColorIndex
 90
        5
102
RTVSPost2010Prop44ColorRGB
 90
      255
102
RTVSPost2010PropOp44
 70
     1
102
RTVSPost2010Prop45
280
     0
102
RTVSPost2010PropOp45
 70
     1
102
RTVSPost2010Prop46
 90
       50
102
RTVSPost2010PropOp46
 70
     1
102
RTVSPost2010Prop47
 90
       50
102
RTVSPost2010PropOp47
 70
     1
102
RTVSPost2010Prop48
 90
       50
102
RTVSPost2010PropOp48
 70
     1
102
RTVSPost2010Prop49
280
     0
102
RTVSPost2010PropOp49
 70
     1
102
RTVSPost2010Prop50
 90
       50
102
RTVSPost2010PropOp50
 70
     1
102
RTVSPost2010Prop51ColorIndex
 90
      256
102
RTVSPost2010Prop51ColorRGB
 90
-16777216
102
RTVSPost2010PropOp51
 70
     0
102
RTVSPost2010Prop52
140
1.0
102
RTVSPost2010PropOp52
 70
     0
102
RTVSPost2010Prop53
 90
        2
102
RTVSPost2010PropOp53
 70
     1
102
RTVSPost2010Prop54
  1
strokes_ogs.tif
102
RTVSPost2010PropOp54
 70
     1
102
RTVSPost2010Prop55
280
     0
102
RTVSPost2010PropOp55
 70
     1
102
RTVSPost2010Prop56
140
1.0
102
RTVSPost2010PropOp56
 70
     1
102
RTVSPost2010Prop57
140
1.0
102
RTVSPost2010PropOp57
 70
     1
102
RTVSPropertyOp0
 70
     1
102
RTVSPropertyOp1
 70
     1
102
RTVSPropertyOp2
 70
     1
102
RTVSPropertyOp3
 70
     1
102
RTVSPropertyOp4
 70
     1
102
RTVSPropertyOp5
 70
     1
102
RTVSPropertyOp6
 70
     1
102
RTVSPropertyOp7
 70
     1
102
RTVSPropertyOp8
 70
     1
102
RTVSPropertyOp9
 70
     1
102
RTVSPropertyOp10
 70
     1
102
RTVSPropertyOp11
 70
     1
102
RTVSPropertyOp12
 70
     1
102
RTVSPropertyOp13
 70
     1
102
RTVSPropertyOp14
 70
     1
102
RTVSPropertyOp15
 70
     1
102
RTVSPropertyOp16
 70
     1
102
RTVSPropertyOp17
 70
     1
102
RTVSPropertyOp18
 70
     1
102
RTVSPropertyOp19
 70
     1
102
RTVSPropertyOp20
 70
     1
102
RTVSPropertyOp21
 70
     1
102
RTVSPropertyOp22
 70
     1
102
RTVSPropertyOp23
 70
     1
102
RTVSPropertyOp24
 70
     1
102
RTVSPropertyOp25
 70
     1
102
RTVSPropertyOp26
 70
     1
102
RTVSPropertyOp27
 70
     1
102
RTVSPropertyOp28
 70
     1
102
RTVSPropertyOp29
 70
     1
102
RTVSPropertyOp30
 70
     1
102
RTVSPropertyOp31
 70
     1
102
RTVSPropertyOp32
 70
     1
102
RTVSPropertyOp33
 70
     1
102
RTVSPropertyOp34
 70
     1
102
RTVSPropertyOp35
 70
     1
102
RTVSPropertyOp36
 70
     1
102
RTVSPropertyOp37
 70
     1
102
RTVSPropertyOp38
 70
     1
102
RTVSPropertyOp39
 70
     1
102
RTVSPropertyOp40
 70
     1
102
RTVSPropertyOp41
 70
     1
102
RTVSPropertyOp42
 70
     1
102
RTVSPropertyOp43
 70
     1
102
RTVSPropertyOp44
 70
     1
102
RTVSPropertyOp45
 70
     1
102
RTVSPropertyOp46
 70
     1
102
RTVSPropertyOp47
 70
     1
102
RTVSPropertyOp48
 70
     1
102
RTVSPropertyOp49
 70
     1
102
RTVSPropertyOp50
 70
     1
102
RTVSPropertyOp51
 70
     0
102
RTVSPropertyOp52
 70
     0
102
RTVSPropertyOp53
 70
     1
102
RTVSPropertyOp54
 70
     1
102
RTVSPropertyOp55
 70
     1
102
RTVSPropertyOp56
 70
     1
102
RTVSPropertyOp57
 70
     1
102
RTVSPropertyOp58
 70
     1
102
RTVSPropertyOp59
 70
     1
102
RTVSPropertyOp60
 70
     1
102
RTVSPropertyOp61
 70
     1
102
RTVSPropertyOp62
 70
     1
  0
XRECORD
  5
1D85
102
{ACAD_REACTORS
330
1D84
102
}
330
1D84
100
AcDbXrecord
280
     1
102
RTVSPost2010Prop28
280
     0
102
RTVSPost2010PropOp28
 70
     1
102
RTVSPost2010Prop29
280
     1
102
RTVSPost2010PropOp29
 70
     1
102
RTVSPost2010Prop30
280
     1
102
RTVSPost2010PropOp30
 70
     1
102
RTVSPost2010Prop31
280
     0
102
RTVSPost2010PropOp31
 70
     1
102
RTVSPost2010Prop32
280
     0
102
RTVSPost2010PropOp32
 70
     1
102
RTVSPost2010Prop33
280
     0
102
RTVSPost2010PropOp33
 70
     1
102
RTVSPost2010Prop34
280
     0
102
RTVSPost2010PropOp34
 70
     1
102
RTVSPost2010Prop35
280
     0
102
RTVSPost2010PropOp35
 70
     1
102
RTVSPost2010Prop36
280
     0
102
RTVSPost2010PropOp36
 70
     1
102
RTVSPost2010Prop37
 90
       50
102
RTVSPost2010PropOp37
 70
     1
102
RTVSPost2010Prop38
140
0.0
102
RTVSPost2010PropOp38
 70
     1
102
RTVSPost2010Prop39
140
1.0
102
RTVSPost2010PropOp39
 70
     1
102
RTVSPost2010Prop40
 90
        0
102
RTVSPost2010PropOp40
 70
     1
102
RTVSPost2010Prop41ColorIndex
 90
       18
102
RTVSPost2010Prop41ColorRGB
 90
        0
102
RTVSPost2010PropOp41
 70
     1
102
RTVSPost2010Prop42
 90
       50
102
RTVSPost2010PropOp42
 70
     1
102
RTVSPost2010Prop43
 90
        3
102
RTVSPost2010PropOp43
 70
     1
102
RTVSPost2010Prop44ColorIndex
 90
        5
102
RTVSPost2010Prop44ColorRGB
 90
      255
102
RTVSPost2010PropOp44
 70
     1
102
RTVSPost2010Prop45
280
     0
102
RTVSPost2010PropOp45
 70
     1
102
RTVSPost2010Prop46
 90
       50
102
RTVSPost2010PropOp46
 70
     1
102
RTVSPost2010Prop47
 90
       50
102
RTVSPost2010PropOp47
 70
     1
102
RTVSPost2010Prop48
 90
       50
102
RTVSPost2010PropOp48
 70
     1
102
RTVSPost2010Prop49
280
     0
102
RTVSPost2010PropOp49
 70
     1
102
RTVSPost2010Prop50
 90
       50
102
RTVSPost2010PropOp50
 70
     1
102
RTVSPost2010Prop51ColorIndex
 90
      256
102
RTVSPost2010Prop51ColorRGB
 90
-16777216
102
RTVSPost2010PropOp51
 70
     0
102
RTVSPost2010Prop52
140
1.0
102
RTVSPost2010PropOp52
 70
     0
102
RTVSPost2010Prop53
 90
        2
102
RTVSPost2010PropOp53
 70
     1
102
RTVSPost2010Prop54
  1
strokes_ogs.tif
102
RTVSPost2010PropOp54
 70
     1
102
RTVSPost2010Prop55
280
     0
102
RTVSPost2010PropOp55
 70
     1
102
RTVSPost2010Prop56
140
1.0
102
RTVSPost2010PropOp56
 70
     1
102
RTVSPost2010Prop57
140
1.0
102
RTVSPost2010PropOp57
 70
     1
102
RTVSPropertyOp0
 70
     1
102
RTVSPropertyOp1
 70
     1
102
RTVSPropertyOp2
 70
     1
102
RTVSPropertyOp3
 70
     1
102
RTVSPropertyOp4
 70
     1
102
RTVSPropertyOp5
 70
     1
102
RTVSPropertyOp6
 70
     1
102
RTVSPropertyOp7
 70
     1
102
RTVSPropertyOp8
 70
     1
102
RTVSPropertyOp9
 70
     1
102
RTVSPropertyOp10
 70
     1
102
RTVSPropertyOp11
 70
     1
102
RTVSPropertyOp12
 70
     1
102
RTVSPropertyOp13
 70
     1
102
RTVSPropertyOp14
 70
     1
102
RTVSPropertyOp15
 70
     1
102
RTVSPropertyOp16
 70
     1
102
RTVSPropertyOp17
 70
     1
102
RTVSPropertyOp18
 70
     1
102
RTVSPropertyOp19
 70
     1
102
RTVSPropertyOp20
 70
     1
102
RTVSPropertyOp21
 70
     1
102
RTVSPropertyOp22
 70
     1
102
RTVSPropertyOp23
 70
     1
102
RTVSPropertyOp24
 70
     1
102
RTVSPropertyOp25
 70
     1
102
RTVSPropertyOp26
 70
     1
102
RTVSPropertyOp27
 70
     1
102
RTVSPropertyOp28
 70
     1
102
RTVSPropertyOp29
 70
     1
102
RTVSPropertyOp30
 70
     1
102
RTVSPropertyOp31
 70
     1
102
RTVSPropertyOp32
 70
     1
102
RTVSPropertyOp33
 70
     1
102
RTVSPropertyOp34
 70
     1
102
RTVSPropertyOp35
 70
     1
102
RTVSPropertyOp36
 70
     1
102
RTVSPropertyOp37
 70
     1
102
RTVSPropertyOp38
 70
     1
102
RTVSPropertyOp39
 70
     1
102
RTVSPropertyOp40
 70
     1
102
RTVSPropertyOp41
 70
     1
102
RTVSPropertyOp42
 70
     1
102
RTVSPropertyOp43
 70
     1
102
RTVSPropertyOp44
 70
     1
102
RTVSPropertyOp45
 70
     1
102
RTVSPropertyOp46
 70
     1
102
RTVSPropertyOp47
 70
     1
102
RTVSPropertyOp48
 70
     1
102
RTVSPropertyOp49
 70
     1
102
RTVSPropertyOp50
 70
     1
102
RTVSPropertyOp51
 70
     0
102
RTVSPropertyOp52
 70
     0
102
RTVSPropertyOp53
 70
     1
102
RTVSPropertyOp54
 70
     1
102
RTVSPropertyOp55
 70
     1
102
RTVSPropertyOp56
 70
     1
102
RTVSPropertyOp57
 70
     1
102
RTVSPropertyOp58
 70
     1
102
RTVSPropertyOp59
 70
     1
102
RTVSPropertyOp60
 70
     1
102
RTVSPropertyOp61
 70
     1
102
RTVSPropertyOp62
 70
     1
  0
XRECORD
  5
1D9D
102
{ACAD_REACTORS
330
1D9C
102
}
330
1D9C
100
AcDbXrecord
280
     1
102
RTVSPost2010Prop28
280
     0
102
RTVSPost2010PropOp28
 70
     1
102
RTVSPost2010Prop29
280
     1
102
RTVSPost2010PropOp29
 70
     1
102
RTVSPost2010Prop30
280
     1
102
RTVSPost2010PropOp30
 70
     1
102
RTVSPost2010Prop31
280
     0
102
RTVSPost2010PropOp31
 70
     1
102
RTVSPost2010Prop32
280
     0
102
RTVSPost2010PropOp32
 70
     1
102
RTVSPost2010Prop33
280
     0
102
RTVSPost2010PropOp33
 70
     1
102
RTVSPost2010Prop34
280
     0
102
RTVSPost2010PropOp34
 70
     1
102
RTVSPost2010Prop35
280
     0
102
RTVSPost2010PropOp35
 70
     1
102
RTVSPost2010Prop36
280
     0
102
RTVSPost2010PropOp36
 70
     1
102
RTVSPost2010Prop37
 90
       50
102
RTVSPost2010PropOp37
 70
     1
102
RTVSPost2010Prop38
140
0.0
102
RTVSPost2010PropOp38
 70
     1
102
RTVSPost2010Prop39
140
1.0
102
RTVSPost2010PropOp39
 70
     1
102
RTVSPost2010Prop40
 90
        0
102
RTVSPost2010PropOp40
 70
     1
102
RTVSPost2010Prop41ColorIndex
 90
       18
102
RTVSPost2010Prop41ColorRGB
 90
        0
102
RTVSPost2010PropOp41
 70
     1
102
RTVSPost2010Prop42
 90
       50
102
RTVSPost2010PropOp42
 70
     1
102
RTVSPost2010Prop43
 90
        3
102
RTVSPost2010PropOp43
 70
     1
102
RTVSPost2010Prop44ColorIndex
 90
        5
102
RTVSPost2010Prop44ColorRGB
 90
      255
102
RTVSPost2010PropOp44
 70
     1
102
RTVSPost2010Prop45
280
     0
102
RTVSPost2010PropOp45
 70
     1
102
RTVSPost2010Prop46
 90
       50
102
RTVSPost2010PropOp46
 70
     1
102
RTVSPost2010Prop47
 90
       50
102
RTVSPost2010PropOp47
 70
     1
102
RTVSPost2010Prop48
 90
       50
102
RTVSPost2010PropOp48
 70
     1
102
RTVSPost2010Prop49
280
     0
102
RTVSPost2010PropOp49
 70
     1
102
RTVSPost2010Prop50
 90
       50
102
RTVSPost2010PropOp50
 70
     1
102
RTVSPost2010Prop51ColorIndex
 90
      256
102
RTVSPost2010Prop51ColorRGB
 90
-16777216
102
RTVSPost2010PropOp51
 70
     0
102
RTVSPost2010Prop52
140
1.0
102
RTVSPost2010PropOp52
 70
     0
102
RTVSPost2010Prop53
 90
        2
102
RTVSPost2010PropOp53
 70
     1
102
RTVSPost2010Prop54
  1
strokes_ogs.tif
102
RTVSPost2010PropOp54
 70
     1
102
RTVSPost2010Prop55
280
     0
102
RTVSPost2010PropOp55
 70
     1
102
RTVSPost2010Prop56
140
1.0
102
RTVSPost2010PropOp56
 70
     1
102
RTVSPost2010Prop57
140
1.0
102
RTVSPost2010PropOp57
 70
     1
102
RTVSPropertyOp0
 70
     1
102
RTVSPropertyOp1
 70
     1
102
RTVSPropertyOp2
 70
     1
102
RTVSPropertyOp3
 70
     1
102
RTVSPropertyOp4
 70
     1
102
RTVSPropertyOp5
 70
     1
102
RTVSPropertyOp6
 70
     1
102
RTVSPropertyOp7
 70
     1
102
RTVSPropertyOp8
 70
     1
102
RTVSPropertyOp9
 70
     1
102
RTVSPropertyOp10
 70
     1
102
RTVSPropertyOp11
 70
     1
102
RTVSPropertyOp12
 70
     1
102
RTVSPropertyOp13
 70
     1
102
RTVSPropertyOp14
 70
     1
102
RTVSPropertyOp15
 70
     1
102
RTVSPropertyOp16
 70
     1
102
RTVSPropertyOp17
 70
     1
102
RTVSPropertyOp18
 70
     1
102
RTVSPropertyOp19
 70
     1
102
RTVSPropertyOp20
 70
     1
102
RTVSPropertyOp21
 70
     1
102
RTVSPropertyOp22
 70
     1
102
RTVSPropertyOp23
 70
     1
102
RTVSPropertyOp24
 70
     1
102
RTVSPropertyOp25
 70
     1
102
RTVSPropertyOp26
 70
     1
102
RTVSPropertyOp27
 70
     1
102
RTVSPropertyOp28
 70
     1
102
RTVSPropertyOp29
 70
     1
102
RTVSPropertyOp30
 70
     1
102
RTVSPropertyOp31
 70
     1
102
RTVSPropertyOp32
 70
     1
102
RTVSPropertyOp33
 70
     1
102
RTVSPropertyOp34
 70
     1
102
RTVSPropertyOp35
 70
     1
102
RTVSPropertyOp36
 70
     1
102
RTVSPropertyOp37
 70
     1
102
RTVSPropertyOp38
 70
     1
102
RTVSPropertyOp39
 70
     1
102
RTVSPropertyOp40
 70
     1
102
RTVSPropertyOp41
 70
     1
102
RTVSPropertyOp42
 70
     1
102
RTVSPropertyOp43
 70
     1
102
RTVSPropertyOp44
 70
     1
102
RTVSPropertyOp45
 70
     1
102
RTVSPropertyOp46
 70
     1
102
RTVSPropertyOp47
 70
     1
102
RTVSPropertyOp48
 70
     1
102
RTVSPropertyOp49
 70
     1
102
RTVSPropertyOp50
 70
     1
102
RTVSPropertyOp51
 70
     0
102
RTVSPropertyOp52
 70
     0
102
RTVSPropertyOp53
 70
     1
102
RTVSPropertyOp54
 70
     1
102
RTVSPropertyOp55
 70
     1
102
RTVSPropertyOp56
 70
     1
102
RTVSPropertyOp57
 70
     1
102
RTVSPropertyOp58
 70
     1
102
RTVSPropertyOp59
 70
     1
102
RTVSPropertyOp60
 70
     1
102
RTVSPropertyOp61
 70
     1
102
RTVSPropertyOp62
 70
     1
  0
ENDSEC
  0
EOF
