  0
SECTION
  2
HEADER
  9
$ACADVER
  1
AC1018
  9
$ACADMAINTVER
 70
     2
  9
$DWGCODEPAGE
  3
ANSI_1252
  9
$INSBASE
 10
0.0
 20
0.0
 30
0.0
  9
$EXTMIN
 10
-0.0069176591607629
 20
-0.0271738038693457
 30
-0.0000000000000053
  9
$EXTMAX
 10
420.0228862134305
 20
594.0181318670623
 30
0.0000000000000099
  9
$LIMMIN
 10
0.0
 20
0.0
  9
$LIMMAX
 10
419.9999999999999
 20
594.0000000000002
  9
$ORTHOMODE
 70
     1
  9
$REGENMODE
 70
     1
  9
$FILLMODE
 70
     1
  9
$QTEXTMODE
 70
     0
  9
$MIRRTEXT
 70
     1
  9
$LTSCALE
 40
20.0
  9
$ATTMODE
 70
     1
  9
$TEXTSIZE
 40
3.5
  9
$TRACEWID
 40
0.5
  9
$TEXTSTYLE
  7
STANDARD
  9
$CLAYER
  8
SCHRAFF
  9
$CELTYPE
  6
ByLayer
  9
$CECOLOR
 62
   256
  9
$CELTSCALE
 40
1.0
  9
$DISPSILH
 70
     0
  9
$DIMSCALE
 40
2.0
  9
$DIMASZ
 40
3.5
  9
$DIMEXO
 40
1.0
  9
$DIMDLI
 40
7.0
  9
$DIMRND
 40
0.0
  9
$DIMDLE
 40
0.0
  9
$DIMEXE
 40
1.0
  9
$DIMTP
 40
0.15
  9
$DIMTM
 40
0.15
  9
$DIMTXT
 40
3.5
  9
$DIMCEN
 40
1.5
  9
$DIMTSZ
 40
0.0
  9
$DIMTOL
 70
     0
  9
$DIMLIM
 70
     0
  9
$DIMTIH
 70
     0
  9
$DIMTOH
 70
     0
  9
$DIMSE1
 70
     0
  9
$DIMSE2
 70
     0
  9
$DIMTAD
 70
     1
  9
$DIMZIN
 70
     8
  9
$DIMBLK
  1

  9
$DIMASO
 70
     1
  9
$DIMSHO
 70
     0
  9
$DIMPOST
  1

  9
$DIMAPOST
  1

  9
$DIMALT
 70
     0
  9
$DIMALTD
 70
     2
  9
$DIMALTF
 40
25.4
  9
$DIMLFAC
 40
1.0
  9
$DIMTOFL
 70
     1
  9
$DIMTVP
 40
0.0
  9
$DIMTIX
 70
     0
  9
$DIMSOXD
 70
     0
  9
$DIMSAH
 70
     0
  9
$DIMBLK1
  1

  9
$DIMBLK2
  1

  9
$DIMSTYLE
  2
Standard
  9
$DIMCLRD
 70
     0
  9
$DIMCLRE
 70
     0
  9
$DIMCLRT
 70
     1
  9
$DIMTFAC
 40
0.5142857142857144
  9
$DIMGAP
 40
1.5
  9
$DIMJUST
 70
     0
  9
$DIMSD1
 70
     0
  9
$DIMSD2
 70
     0
  9
$DIMTOLJ
 70
     1
  9
$DIMTZIN
 70
     8
  9
$DIMALTZ
 70
     8
  9
$DIMALTTZ
 70
     8
  9
$DIMUPT
 70
     0
  9
$DIMDEC
 70
     2
  9
$DIMTDEC
 70
     2
  9
$DIMALTU
 70
     2
  9
$DIMALTTD
 70
     2
  9
$DIMTXSTY
  7
STANDARD
  9
$DIMAUNIT
 70
     0
  9
$DIMADEC
 70
     2
  9
$DIMALTRND
 40
0.0
  9
$DIMAZIN
 70
     2
  9
$DIMDSEP
 70
    46
  9
$DIMATFIT
 70
     3
  9
$DIMFRAC
 70
     0
  9
$DIMLDRBLK
  1

  9
$DIMLUNIT
 70
     2
  9
$DIMLWD
 70
    -2
  9
$DIMLWE
 70
    -2
  9
$DIMTMOVE
 70
     0
  9
$LUNITS
 70
     2
  9
$LUPREC
 70
     2
  9
$SKETCHINC
 40
1.0
  9
$FILLETRAD
 40
0.0
  9
$AUNITS
 70
     0
  9
$AUPREC
 70
     0
  9
$MENU
  1
ACAD
  9
$ELEVATION
 40
0.0
  9
$PELEVATION
 40
0.0
  9
$THICKNESS
 40
0.0
  9
$LIMCHECK
 70
     0
  9
$CHAMFERA
 40
0.0
  9
$CHAMFERB
 40
0.0
  9
$CHAMFERC
 40
0.0
  9
$CHAMFERD
 40
0.0
  9
$SKPOLY
 70
     0
  9
$TDCREATE
 40
2455573.065619792
  9
$TDUCREATE
 40
2455573.023953125
  9
$TDUPDATE
 40
2455532.597278195
  9
$TDUUPDATE
 40
2455532.555611528
  9
$TDINDWG
 40
0.1969264815
  9
$TDUSRTIMER
 40
0.1969264815
  9
$USRTIMER
 70
     1
  9
$ANGBASE
 50
0.0
  9
$ANGDIR
 70
     0
  9
$PDMODE
 70
     0
  9
$PDSIZE
 40
0.0
  9
$PLINEWID
 40
0.0
  9
$SPLFRAME
 70
     0
  9
$SPLINETYPE
 70
     6
  9
$SPLINESEGS
 70
     8
  9
$HANDSEED
  5
1770
  9
$SURFTAB1
 70
     6
  9
$SURFTAB2
 70
     6
  9
$SURFTYPE
 70
     6
  9
$SURFU
 70
     6
  9
$SURFV
 70
     6
  9
$UCSBASE
  2

  9
$UCSNAME
  2

  9
$UCSORG
 10
0.0
 20
0.0
 30
0.0
  9
$UCSXDIR
 10
1.0
 20
0.0
 30
0.0
  9
$UCSYDIR
 10
0.0
 20
1.0
 30
0.0
  9
$UCSORTHOREF
  2

  9
$UCSORTHOVIEW
 70
     0
  9
$UCSORGTOP
 10
0.0
 20
0.0
 30
0.0
  9
$UCSORGBOTTOM
 10
0.0
 20
0.0
 30
0.0
  9
$UCSORGLEFT
 10
0.0
 20
0.0
 30
0.0
  9
$UCSORGRIGHT
 10
0.0
 20
0.0
 30
0.0
  9
$UCSORGFRONT
 10
0.0
 20
0.0
 30
0.0
  9
$UCSORGBACK
 10
0.0
 20
0.0
 30
0.0
  9
$PUCSBASE
  2

  9
$PUCSNAME
  2

  9
$PUCSORG
 10
0.0
 20
0.0
 30
0.0
  9
$PUCSXDIR
 10
1.0
 20
0.0
 30
0.0
  9
$PUCSYDIR
 10
0.0
 20
1.0
 30
0.0
  9
$PUCSORTHOREF
  2

  9
$PUCSORTHOVIEW
 70
     0
  9
$PUCSORGTOP
 10
0.0
 20
0.0
 30
0.0
  9
$PUCSORGBOTTOM
 10
0.0
 20
0.0
 30
0.0
  9
$PUCSORGLEFT
 10
0.0
 20
0.0
 30
0.0
  9
$PUCSORGRIGHT
 10
0.0
 20
0.0
 30
0.0
  9
$PUCSORGFRONT
 10
0.0
 20
0.0
 30
0.0
  9
$PUCSORGBACK
 10
0.0
 20
0.0
 30
0.0
  9
$USERI1
 70
     0
  9
$USERI2
 70
     0
  9
$USERI3
 70
     0
  9
$USERI4
 70
     0
  9
$USERI5
 70
     0
  9
$USERR1
 40
0.0
  9
$USERR2
 40
0.0
  9
$USERR3
 40
0.0
  9
$USERR4
 40
0.0
  9
$USERR5
 40
0.0
  9
$WORLDVIEW
 70
     1
  9
$SHADEDGE
 70
     3
  9
$SHADEDIF
 70
    70
  9
$TILEMODE
 70
     1
  9
$MAXACTVP
 70
    16
  9
$PINSBASE
 10
0.0
 20
0.0
 30
0.0
  9
$PLIMCHECK
 70
     0
  9
$PEXTMIN
 10
1.000000000000000E+20
 20
1.000000000000000E+20
 30
1.000000000000000E+20
  9
$PEXTMAX
 10
-1.000000000000000E+20
 20
-1.000000000000000E+20
 30
-1.000000000000000E+20
  9
$PLIMMIN
 10
0.0
 20
0.0
  9
$PLIMMAX
 10
12.0
 20
9.0
  9
$UNITMODE
 70
     0
  9
$VISRETAIN
 70
     0
  9
$PLINEGEN
 70
     0
  9
$PSLTSCALE
 70
     0
  9
$TREEDEPTH
 70
  3020
  9
$CMLSTYLE
  2
Standard
  9
$CMLJUST
 70
     0
  9
$CMLSCALE
 40
1.0
  9
$PROXYGRAPHICS
 70
     1
  9
$MEASUREMENT
 70
     0
  9
$CELWEIGHT
370
    -1
  9
$ENDCAPS
280
     0
  9
$JOINSTYLE
280
     0
  9
$LWDISPLAY
290
     0
  9
$INSUNITS
 70
     0
  9
$HYPERLINKBASE
  1

  9
$STYLESHEET
  1
monochrome 1.ctb
  9
$XEDIT
290
     1
  9
$CEPSNTYPE
380
     0
  9
$PSTYLEMODE
290
     1
  9
$FINGERPRINTGUID
  2
{CF47490D-A8B5-11D8-B772-000102183313}
  9
$VERSIONGUID
  2
{8A4EFC5C-7DDF-402F-899F-96D81F4589F7}
  9
$EXTNAMES
290
     1
  9
$PSVPSCALE
 40
0.0
  9
$OLESTARTUP
290
     0
  9
$SORTENTS
280
    96
  9
$INDEXCTL
280
     0
  9
$HIDETEXT
280
     0
  9
$XCLIPFRAME
290
     0
  9
$HALOGAP
280
     0
  9
$OBSCOLOR
 70
   257
  9
$OBSLTYPE
280
     0
  9
$INTERSECTIONDISPLAY
280
     0
  9
$INTERSECTIONCOLOR
 70
   257
  9
$DIMASSOC
280
     1
  9
$PROJECTNAME
  1

  0
ENDSEC
  0
SECTION
  2
CLASSES
  0
CLASS
  1
ACDBDICTIONARYWDFLT
  2
AcDbDictionaryWithDefault
  3
ObjectDBX Classes
 90
        0
 91
        1
280
     0
281
     0
  0
CLASS
  1
DICTIONARYVAR
  2
AcDbDictionaryVar
  3
ObjectDBX Classes
 90
        0
 91
        3
280
     0
281
     0
  0
ENDSEC
  0
SECTION
  2
TABLES
  0
TABLE
  2
VPORT
  5
8
330
0
100
AcDbSymbolTable
 70
     2
  0
VPORT
  5
176F
330
8
100
AcDbSymbolTableRecord
100
AcDbViewportTableRecord
  2
*Active
 70
     0
 10
0.0
 20
0.0
 11
1.0
 21
1.0
 12
210.0079842771348
 22
296.9954790315965
 13
0.0
 23
0.0
 14
1.0
 24
1.0
 15
10.0
 25
10.0
 16
0.0
 26
0.0
 36
1.0
 17
0.0
 27
0.0
 37
0.0
 40
598.8424413829445
 41
1.336927223719676
 42
50.0
 43
0.0
 44
0.0
 50
0.0
 51
0.0
 71
     0
 72
  1500
 73
     1
 74
     0
 75
     0
 76
     0
 77
     0
 78
     0
281
     0
 65
     1
110
0.0
120
0.0
130
0.0
111
1.0
121
0.0
131
0.0
112
0.0
122
1.0
132
0.0
 79
     0
146
0.0
  0
ENDTAB
  0
TABLE
  2
LTYPE
  5
5
330
0
100
AcDbSymbolTable
 70
     2
  0
LTYPE
  5
13
330
5
100
AcDbSymbolTableRecord
100
AcDbLinetypeTableRecord
  2
ByBlock
 70
     0
  3

 72
    65
 73
     0
 40
0.0
  0
LTYPE
  5
14
330
5
100
AcDbSymbolTableRecord
100
AcDbLinetypeTableRecord
  2
ByLayer
 70
     0
  3

 72
    65
 73
     0
 40
0.0
  0
LTYPE
  5
15
330
5
100
AcDbSymbolTableRecord
100
AcDbLinetypeTableRecord
  2
Continuous
 70
     0
  3
Solid line
 72
    65
 73
     0
 40
0.0
  0
LTYPE
  5
32
330
5
100
AcDbSymbolTableRecord
100
AcDbLinetypeTableRecord
  2
STRICHPUNKT
 70
     0
  3
__ . __ . __ . __ . __ . __ . __ . __ . __ . __
 72
    65
 73
     4
 40
1.0
 49
0.5
 74
     0
 49
-0.25
 74
     0
 49
0.0
 74
     0
 49
-0.25
 74
     0
  0
ENDTAB
  0
TABLE
  2
LAYER
  5
2
330
0
100
AcDbSymbolTable
 70
     9
  0
LAYER
  5
10
330
2
100
AcDbSymbolTableRecord
100
AcDbLayerTableRecord
  2
0
 70
     0
 62
     7
  6
Continuous
370
    -3
390
F
  0
LAYER
  5
35
330
2
100
AcDbSymbolTableRecord
100
AcDbLayerTableRecord
  2
VOLL
 70
     0
 62
     1
  6
Continuous
370
    -3
390
F
  0
LAYER
  5
36
330
2
100
AcDbSymbolTableRecord
100
AcDbLayerTableRecord
  2
HILF
 70
     0
 62
     2
  6
Continuous
370
    -3
390
F
  0
LAYER
  5
37
330
2
100
AcDbSymbolTableRecord
100
AcDbLayerTableRecord
  2
MITTEL
 70
     0
 62
     2
  6
STRICHPUNKT
370
    -3
390
F
  0
LAYER
  5
38
330
2
100
AcDbSymbolTableRecord
100
AcDbLayerTableRecord
  2
BEM
 70
     0
 62
     7
  6
Continuous
370
    -3
390
F
  0
LAYER
  5
39
330
2
100
AcDbSymbolTableRecord
100
AcDbLayerTableRecord
  2
DEFPOINTS
 70
     0
 62
     7
  6
Continuous
290
     0
370
    -3
390
F
  0
LAYER
  5
3A
330
2
100
AcDbSymbolTableRecord
100
AcDbLayerTableRecord
  2
STEMPEL
 70
     0
 62
     3
  6
Continuous
370
    -3
390
F
  0
LAYER
  5
3B
330
2
100
AcDbSymbolTableRecord
100
AcDbLayerTableRecord
  2
TEXT
 70
     0
 62
     7
  6
Continuous
370
    -3
390
F
  0
LAYER
  5
3C
330
2
100
AcDbSymbolTableRecord
100
AcDbLayerTableRecord
  2
SCHRAFF
 70
     0
 62
     7
  6
Continuous
370
    -3
390
F
  0
ENDTAB
  0
TABLE
  2
STYLE
  5
3
330
0
100
AcDbSymbolTable
 70
     2
  0
STYLE
  5
11
330
3
100
AcDbSymbolTableRecord
100
AcDbTextStyleTableRecord
  2
STANDARD
 70
     0
 40
0.0
 41
0.8
 50
0.0
 71
     0
 42
3.5
  3
simplex.shx
  4

  0
STYLE
  5
31
330
3
100
AcDbSymbolTableRecord
100
AcDbTextStyleTableRecord
  2
GREEKS
 70
     0
 40
0.0
 41
0.8
 50
0.0
 71
     0
 42
2.5
  3
SIMPLEX.shx
  4

  0
ENDTAB
  0
TABLE
  2
VIEW
  5
6
330
0
100
AcDbSymbolTable
 70
     0
  0
ENDTAB
  0
TABLE
  2
UCS
  5
7
330
0
100
AcDbSymbolTable
 70
     0
  0
ENDTAB
  0
TABLE
  2
APPID
  5
9
330
0
100
AcDbSymbolTable
 70
     1
  0
APPID
  5
12
330
9
100
AcDbSymbolTableRecord
100
AcDbRegAppTableRecord
  2
ACAD
 70
     0
  0
ENDTAB
  0
TABLE
  2
DIMSTYLE
  5
A
330
0
100
AcDbSymbolTable
 70
     1
100
AcDbDimStyleTable
 71
     1
340
26B
  0
DIMSTYLE
105
26B
102
{ACAD_REACTORS
330
13D7
330
13C3
330
13C4
330
13C5
330
1707
102
}
330
A
100
AcDbSymbolTableRecord
100
AcDbDimStyleTableRecord
  2
Standard
 70
     0
340
11
  0
ENDTAB
  0
TABLE
  2
BLOCK_RECORD
  5
1
330
0
100
AcDbSymbolTable
 70
     7
  0
BLOCK_RECORD
  5
1E
330
1
100
AcDbSymbolTableRecord
100
AcDbBlockTableRecord
  2
*Model_Space
340
21
  0
BLOCK_RECORD
  5
1A
330
1
100
AcDbSymbolTableRecord
100
AcDbBlockTableRecord
  2
*Paper_Space
340
1D
  0
BLOCK_RECORD
  5
22
330
1
100
AcDbSymbolTableRecord
100
AcDbBlockTableRecord
  2
LOGO
340
0
102
{BLKREFS
331
1E2
102
}
  0
BLOCK_RECORD
  5
1263
330
1
100
AcDbSymbolTableRecord
100
AcDbBlockTableRecord
  2
*X1
340
0
102
{BLKREFS
331
13CB
102
}
  0
BLOCK_RECORD
  5
1471
330
1
100
AcDbSymbolTableRecord
100
AcDbBlockTableRecord
  2
*D2
340
0
  0
BLOCK_RECORD
  5
1497
330
1
100
AcDbSymbolTableRecord
100
AcDbBlockTableRecord
  2
*D3
340
0
  0
BLOCK_RECORD
  5
14A3
330
1
100
AcDbSymbolTableRecord
100
AcDbBlockTableRecord
  2
*D4
340
0
  0
BLOCK_RECORD
  5
14AF
330
1
100
AcDbSymbolTableRecord
100
AcDbBlockTableRecord
  2
*D5
340
0
  0
BLOCK_RECORD
  5
1708
330
1
100
AcDbSymbolTableRecord
100
AcDbBlockTableRecord
  2
*D6
340
0
  0
ENDTAB
  0
ENDSEC
  0
SECTION
  2
BLOCKS
  0
BLOCK
  5
40
330
1E
100
AcDbEntity
  8
0
100
AcDbBlockBegin
  2
*Model_Space
 70
     0
 10
0.0
 20
0.0
 30
0.0
  3
*Model_Space
  1

  0
ENDBLK
  5
41
330
1E
100
AcDbEntity
  8
0
100
AcDbBlockEnd
  0
BLOCK
  5
3E
330
1A
100
AcDbEntity
 67
     1
  8
0
100
AcDbBlockBegin
  2
*Paper_Space
 70
     0
 10
0.0
 20
0.0
 30
0.0
  3
*Paper_Space
  1

  0
ENDBLK
  5
3F
330
1A
100
AcDbEntity
 67
     1
  8
0
100
AcDbBlockEnd
  0
BLOCK
  5
42
330
22
100
AcDbEntity
  8
0
100
AcDbBlockBegin
  2
LOGO
 70
     0
 10
0.0
 20
0.0
 30
0.0
  3
LOGO
  1

  0
ARC
  5
43
330
22
100
AcDbEntity
  8
0
100
AcDbCircle
 10
11.59973089678112
 20
-9.271599258481501
 30
0.0
 40
4.5
100
AcDbArc
 50
270.0
 51
231.0575587310159
  0
LINE
  5
44
330
22
100
AcDbEntity
  8
0
100
AcDbLine
 10
3.599730896781125
 20
-4.771599258481529
 30
0.0
 11
3.599730896781153
 21
-11.77159925848133
 31
0.0
  0
LINE
  5
45
330
22
100
AcDbEntity
  8
0
100
AcDbLine
 10
2.599730896781125
 20
-4.771599258481529
 30
0.0
 11
2.599730896781153
 21
-11.77159925848133
 31
0.0
  0
CIRCLE
  5
46
330
22
100
AcDbEntity
  8
0
100
AcDbCircle
 10
11.59973089678112
 20
-9.271599258481501
 30
0.0
 40
3.5
  0
ARC
  5
47
330
22
100
AcDbEntity
  8
0
100
AcDbCircle
 10
31.59973089678115
 20
-9.271599258481472
 30
0.0
 40
4.5
100
AcDbArc
 50
270.0
 51
231.0575587310182
  0
LINE
  5
48
330
22
100
AcDbEntity
  8
0
100
AcDbLine
 10
17.59973089678112
 20
-4.771599258481472
 30
0.0
 11
17.59973089678115
 21
-13.77159925848147
 31
0.0
  0
ARC
  5
49
330
22
100
AcDbEntity
  8
0
100
AcDbCircle
 10
22.59973089678116
 20
-7.271599258481472
 30
0.0
 40
2.5
100
AcDbArc
 50
293.1161887722295
 51
90.0
  0
CIRCLE
  5
4A
330
22
100
AcDbEntity
  8
0
100
AcDbCircle
 10
31.59973089678115
 20
-9.271599258481472
 30
0.0
 40
3.5
  0
ARC
  5
4B
330
22
100
AcDbEntity
  8
0
100
AcDbCircle
 10
4.599730896781153
 20
-11.77159925848133
 30
0.0
 40
1.0
100
AcDbArc
 50
180.0
 51
270.0
  0
ARC
  5
4C
330
22
100
AcDbEntity
  8
0
100
AcDbCircle
 10
4.599730896781153
 20
-11.77159925848133
 30
0.0
 40
2.0
100
AcDbArc
 50
179.9999999999992
 51
270.0
  0
LINE
  5
4D
330
22
100
AcDbEntity
  8
0
100
AcDbLine
 10
11.59973089678115
 20
-13.77159925848144
 30
0.0
 11
4.599730896781153
 21
-13.77159925848147
 31
0.0
  0
LINE
  5
4E
330
22
100
AcDbEntity
  8
0
100
AcDbLine
 10
8.771303772034769
 20
-12.77159925848136
 30
0.0
 11
4.599730896781153
 21
-12.77159925848133
 31
0.0
  0
LINE
  5
4F
330
22
100
AcDbEntity
  8
0
100
AcDbLine
 10
31.59973089678115
 20
-13.77159925848147
 30
0.0
 11
23.6715276665056
 21
-13.77159925848144
 31
0.0
  0
LINE
  5
50
330
22
100
AcDbEntity
  8
0
100
AcDbLine
 10
23.56565672307022
 20
-9.51278021337896
 30
0.0
 11
24.4388546544846
 21
-12.77159925848144
 31
0.0
  0
LINE
  5
51
330
22
100
AcDbEntity
  8
0
100
AcDbLine
 10
22.59973089678116
 20
-9.771599258481472
 30
0.0
 11
18.59973089678112
 21
-9.771599258481472
 31
0.0
  0
LINE
  5
52
330
22
100
AcDbEntity
  8
0
100
AcDbLine
 10
18.59973089678115
 20
-13.77159925848144
 30
0.0
 11
17.59973089678115
 21
-13.77159925848144
 31
0.0
  0
LINE
  5
53
330
22
100
AcDbEntity
  8
0
100
AcDbLine
 10
18.59973089678115
 20
-9.771599258481472
 30
0.0
 11
18.59973089678115
 21
-13.77159925848144
 31
0.0
  0
LINE
  5
54
330
22
100
AcDbEntity
  8
0
100
AcDbLine
 10
22.59973089678116
 20
-9.771599258481472
 30
0.0
 11
23.67152766650562
 21
-13.77159925848147
 31
0.0
  0
ARC
  5
55
330
22
100
AcDbEntity
  8
0
100
AcDbCircle
 10
22.59973089678116
 20
-7.271599258481472
 30
0.0
 40
2.5
100
AcDbArc
 50
270.0
 51
270.0000000000007
  0
LINE
  5
56
330
22
100
AcDbEntity
  8
0
100
AcDbLine
 10
28.77130377203494
 20
-12.77159925848147
 30
0.0
 11
24.43885465448463
 21
-12.77159925848144
 31
0.0
  0
LINE
  5
57
330
22
100
AcDbEntity
  8
0
100
AcDbLine
 10
3.599730896781125
 20
-4.771599258481472
 30
0.0
 11
2.599730896781125
 21
-4.771599258481472
 31
0.0
  0
LINE
  5
58
330
22
100
AcDbEntity
  8
0
100
AcDbLine
 10
22.59973089678116
 20
-8.771599258481472
 30
0.0
 11
18.59973089678115
 21
-8.771599258481472
 31
0.0
  0
LINE
  5
59
330
22
100
AcDbEntity
  8
0
100
AcDbLine
 10
22.59973089678116
 20
-5.771599258481472
 30
0.0
 11
18.59973089678115
 21
-5.771599258481472
 31
0.0
  0
LINE
  5
5A
330
22
100
AcDbEntity
  8
0
100
AcDbLine
 10
22.59973089678116
 20
-4.771599258481472
 30
0.0
 11
17.59973089678115
 21
-4.771599258481472
 31
0.0
  0
LINE
  5
5B
330
22
100
AcDbEntity
  8
0
100
AcDbLine
 10
18.59973089678115
 20
-5.771599258481472
 30
0.0
 11
18.59973089678115
 21
-8.771599258481472
 31
0.0
  0
ARC
  5
5C
330
22
100
AcDbEntity
  8
0
100
AcDbCircle
 10
22.59973089678116
 20
-7.271599258481472
 30
0.0
 40
1.5
100
AcDbArc
 50
270.0
 51
90.0
  0
ENDBLK
  5
5D
330
22
100
AcDbEntity
  8
0
100
AcDbBlockEnd
  0
BLOCK
  5
1264
330
1263
100
AcDbEntity
  8
0
100
AcDbBlockBegin
  2
*X1
 70
     1
 10
0.0
 20
0.0
 30
0.0
  3
*X1
  1

  0
LINE
  5
1265
330
1263
100
AcDbEntity
  8
0
 62
     0
100
AcDbLine
 10
555.2615300335535
 20
385.3319103007919
 30
0.0
 11
555.1977128522151
 21
385.3957274821303
 31
0.0
  0
LINE
  5
1266
330
1263
100
AcDbEntity
  8
0
 62
     0
100
AcDbLine
 10
555.5334941801638
 20
384.9185247979443
 30
0.0
 11
555.0562914959778
 21
385.3957274821303
 31
0.0
  0
LINE
  5
1267
330
1263
100
AcDbEntity
  8
0
 62
     0
100
AcDbLine
 10
555.8054583267739
 20
384.5051392950971
 30
0.0
 11
554.9148701397406
 21
385.3957274821303
 31
0.0
  0
LINE
  5
1268
330
1263
100
AcDbEntity
  8
0
 62
     0
100
AcDbLine
 10
556.077422473384
 20
384.0917537922495
 30
0.0
 11
554.7734487835033
 21
385.3957274821303
 31
0.0
  0
LINE
  5
1269
330
1263
100
AcDbEntity
  8
0
 62
     0
100
AcDbLine
 10
556.3493866199944
 20
383.6783682894019
 30
0.0
 11
554.6320274272659
 21
385.3957274821303
 31
0.0
  0
LINE
  5
126A
330
1263
100
AcDbEntity
  8
0
 62
     0
100
AcDbLine
 10
556.4720619731612
 20
383.4142715799977
 30
0.0
 11
554.4906060710286
 21
385.3957274821303
 31
0.0
  0
LINE
  5
126B
330
1263
100
AcDbEntity
  8
0
 62
     0
100
AcDbLine
 10
556.4046946634016
 20
383.34021753352
 30
0.0
 11
554.3491847147912
 21
385.3957274821303
 31
0.0
  0
LINE
  5
126C
330
1263
100
AcDbEntity
  8
0
 62
     0
100
AcDbLine
 10
556.3349663663879
 20
383.2685244742965
 30
0.0
 11
554.0899464857846
 21
385.5135443548998
 31
0.0
  0
LINE
  5
126D
330
1263
100
AcDbEntity
  8
0
 62
     0
100
AcDbLine
 10
556.262880364375
 20
383.1991891200719
 30
0.0
 11
552.5343115671743
 21
386.9277579172729
 31
0.0
  0
LINE
  5
126E
330
1263
100
AcDbEntity
  8
0
 62
     0
100
AcDbLine
 10
556.1884320605305
 20
383.1322160676791
 30
0.0
 11
551.9560336313795
 21
387.3646144968302
 31
0.0
  0
LINE
  5
126F
330
1263
100
AcDbEntity
  8
0
 62
     0
100
AcDbLine
 10
556.1116089017582
 20
383.0676178702141
 30
0.0
 11
551.8914354339146
 21
387.2877913380579
 31
0.0
  0
LINE
  5
1270
330
1263
100
AcDbEntity
  8
0
 62
     0
100
AcDbLine
 10
556.0323901662311
 20
383.0054152495039
 30
0.0
 11
551.8292328132043
 21
387.2085726025308
 31
0.0
  0
LINE
  5
1271
330
1263
100
AcDbEntity
  8
0
 62
     0
100
AcDbLine
 10
555.9507466071558
 20
382.945637452342
 30
0.0
 11
551.7694550160424
 21
387.1269290434554
 31
0.0
  0
LINE
  5
1272
330
1263
100
AcDbEntity
  8
0
 62
     0
100
AcDbLine
 10
555.866639938242
 20
382.8883227650185
 30
0.0
 11
551.7121403287188
 21
387.0428223745416
 31
0.0
  0
LINE
  5
1273
330
1263
100
AcDbEntity
  8
0
 62
     0
100
AcDbLine
 10
555.7800221392174
 20
382.8335192078058
 30
0.0
 11
551.6573367715061
 21
386.956204575517
 31
0.0
  0
LINE
  5
1274
330
1263
100
AcDbEntity
  8
0
 62
     0
100
AcDbLine
 10
555.6908345509022
 20
382.7812854398836
 30
0.0
 11
551.6051030035839
 21
386.8670169872018
 31
0.0
  0
LINE
  5
1275
330
1263
100
AcDbEntity
  8
0
 62
     0
100
AcDbLine
 10
555.599006718041
 20
382.7316919165075
 30
0.0
 11
551.5555094802079
 21
386.7751891543406
 31
0.0
  0
LINE
  5
1276
330
1263
100
AcDbEntity
  8
0
 62
     0
100
AcDbLine
 10
555.5044549231174
 20
382.6848223551938
 30
0.0
 11
551.5086399188942
 21
386.6806373594171
 31
0.0
  0
LINE
  5
1277
330
1263
100
AcDbEntity
  8
0
 62
     0
100
AcDbLine
 10
555.4070803340998
 20
382.6407755879742
 30
0.0
 11
551.4645931516745
 21
386.5832627703994
 31
0.0
  0
LINE
  5
1278
330
1263
100
AcDbEntity
  8
0
 62
     0
100
AcDbLine
 10
555.3067666609654
 20
382.5996679048712
 30
0.0
 11
551.4234854685716
 21
386.482949097265
 31
0.0
  0
LINE
  5
1279
330
1263
100
AcDbEntity
  8
0
 62
     0
100
AcDbLine
 10
555.203377176132
 20
382.5616360334673
 30
0.0
 11
551.3854535971677
 21
386.3795596124316
 31
0.0
  0
LINE
  5
127A
330
1263
100
AcDbEntity
  8
0
 62
     0
100
AcDbLine
 10
555.096750896591
 20
382.5268409567708
 30
0.0
 11
551.3506585204712
 21
386.2729333328907
 31
0.0
  0
LINE
  5
127B
330
1263
100
AcDbEntity
  8
0
 62
     0
100
AcDbLine
 10
554.9866976410075
 20
382.4954728561173
 30
0.0
 11
551.3192904198176
 21
386.1628800773072
 31
0.0
  0
LINE
  5
127C
330
1263
100
AcDbEntity
  8
0
 62
     0
100
AcDbLine
 10
554.8729915475093
 20
382.467757593378
 30
0.0
 11
551.2915751570784
 21
386.049173983809
 31
0.0
  0
LINE
  5
127D
330
1263
100
AcDbEntity
  8
0
 62
     0
100
AcDbLine
 10
554.7553624405504
 20
382.4439653440996
 30
0.0
 11
551.2677829078
 21
385.93154487685
 31
0.0
  0
LINE
  5
127E
330
1263
100
AcDbEntity
  8
0
 62
     0
100
AcDbLine
 10
554.6334841211092
 20
382.4244223073035
 30
0.0
 11
551.2482398710038
 21
385.8096665574088
 31
0.0
  0
LINE
  5
127F
330
1263
100
AcDbEntity
  8
0
 62
     0
100
AcDbLine
 10
554.5069581382807
 20
382.4095269338947
 30
0.0
 11
551.2333444975951
 21
385.6831405745803
 31
0.0
  0
LINE
  5
1280
330
1263
100
AcDbEntity
  8
0
 62
     0
100
AcDbLine
 10
554.3752907202597
 20
382.3997729956785
 30
0.0
 11
551.2235905593789
 21
385.5514731565593
 31
0.0
  0
LINE
  5
1281
330
1263
100
AcDbEntity
  8
0
 62
     0
100
AcDbLine
 10
554.2378589770359
 20
382.395783382665
 30
0.0
 11
551.2196009463653
 21
385.4140414133356
 31
0.0
  0
LINE
  5
1282
330
1263
100
AcDbEntity
  8
0
 62
     0
100
AcDbLine
 10
554.0938595580658
 20
382.3983614453977
 30
0.0
 11
551.2221790090981
 21
385.2700419943654
 31
0.0
  0
LINE
  5
1283
330
1263
100
AcDbEntity
  8
0
 62
     0
100
AcDbLine
 10
553.9422271280073
 20
382.4085725192189
 30
0.0
 11
551.2323900829193
 21
385.1184095643069
 31
0.0
  0
LINE
  5
1284
330
1263
100
AcDbEntity
  8
0
 62
     0
100
AcDbLine
 10
553.7814975722318
 20
382.427880718757
 30
0.0
 11
551.2516982824575
 21
384.9576800085314
 31
0.0
  0
LINE
  5
1285
330
1263
100
AcDbEntity
  8
0
 62
     0
100
AcDbLine
 10
553.6095616111241
 20
382.4583953236275
 30
0.0
 11
551.2822128873279
 21
384.7857440474237
 31
0.0
  0
LINE
  5
1286
330
1263
100
AcDbEntity
  8
0
 62
     0
100
AcDbLine
 10
553.4231770145432
 20
382.5033585639711
 30
0.0
 11
551.3271761276715
 21
384.5993594508429
 31
0.0
  0
LINE
  5
1287
330
1263
100
AcDbEntity
  8
0
 62
     0
100
AcDbLine
 10
553.2168648399109
 20
382.5682493823661
 30
0.0
 11
551.3920669460665
 21
384.3930472762105
 31
0.0
  0
LINE
  5
1288
330
1263
100
AcDbEntity
  8
0
 62
     0
100
AcDbLine
 10
552.9798374806073
 20
382.6638553854323
 30
0.0
 11
551.4876729491327
 21
384.1560199169069
 31
0.0
  0
LINE
  5
1289
330
1263
100
AcDbEntity
  8
0
 62
     0
100
AcDbLine
 10
552.6834344445615
 20
382.8188370652408
 30
0.0
 11
551.6426546289412
 21
383.8596168808611
 31
0.0
  0
LINE
  5
128A
330
1263
100
AcDbEntity
  8
0
 62
     0
100
AcDbLine
 10
632.3774699761379
 20
383.0278678077442
 30
0.0
 11
631.9457614172275
 21
383.4595763666546
 31
0.0
  0
LINE
  5
128B
330
1263
100
AcDbEntity
  8
0
 62
     0
100
AcDbLine
 10
632.7867862348844
 20
382.7599729052352
 30
0.0
 11
632.001881003036
 21
383.5448781370835
 31
0.0
  0
LINE
  5
128C
330
1263
100
AcDbEntity
  8
0
 62
     0
100
AcDbLine
 10
633.0587985341467
 20
382.6293819622101
 30
0.0
 11
632.0580005888444
 21
383.6301799075124
 31
0.0
  0
LINE
  5
128D
330
1263
100
AcDbEntity
  8
0
 62
     0
100
AcDbLine
 10
633.2844019261389
 20
382.5451999264553
 30
0.0
 11
632.1141201746529
 21
383.7154816779412
 31
0.0
  0
LINE
  5
128E
330
1263
100
AcDbEntity
  8
0
 62
     0
100
AcDbLine
 10
633.4836347872895
 20
382.4873884215419
 30
0.0
 11
632.1702397604614
 21
383.80078344837
 31
0.0
  0
LINE
  5
128F
330
1263
100
AcDbEntity
  8
0
 62
     0
100
AcDbLine
 10
633.6650224820078
 20
382.4474220830608
 30
0.0
 11
632.2263593462698
 21
383.8860852187988
 31
0.0
  0
LINE
  5
1290
330
1263
100
AcDbEntity
  8
0
 62
     0
100
AcDbLine
 10
633.8331509815067
 20
382.4207149397993
 30
0.0
 11
632.2824789320782
 21
383.9713869892277
 31
0.0
  0
LINE
  5
1291
330
1263
100
AcDbEntity
  8
0
 62
     0
100
AcDbLine
 10
633.9908285504233
 20
382.40445872712
 30
0.0
 11
632.3385985178866
 21
384.0566887596566
 31
0.0
  0
LINE
  5
1292
330
1263
100
AcDbEntity
  8
0
 62
     0
100
AcDbLine
 10
634.1399243907357
 20
382.3967842430451
 30
0.0
 11
632.3947181036952
 21
384.1419905300855
 31
0.0
  0
LINE
  5
1293
330
1263
100
AcDbEntity
  8
0
 62
     0
100
AcDbLine
 10
634.2817573761763
 20
382.3963726138418
 30
0.0
 11
632.4508376895037
 21
384.2272923005144
 31
0.0
  0
LINE
  5
1294
330
1263
100
AcDbEntity
  8
0
 62
     0
100
AcDbLine
 10
634.4172989975686
 20
382.4022523486866
 30
0.0
 11
632.506957275312
 21
384.3125940709431
 31
0.0
  0
LINE
  5
1295
330
1263
100
AcDbEntity
  8
0
 62
     0
100
AcDbLine
 10
634.5472888182366
 20
382.4136838842559
 30
0.0
 11
632.5630768611205
 21
384.397895841372
 31
0.0
  0
LINE
  5
1296
330
1263
100
AcDbEntity
  8
0
 62
     0
100
AcDbLine
 10
634.6723045854091
 20
382.4300894733208
 30
0.0
 11
632.6191964469289
 21
384.4831976118009
 31
0.0
  0
LINE
  5
1297
330
1263
100
AcDbEntity
  8
0
 62
     0
100
AcDbLine
 10
634.7928070493698
 20
382.4510083655975
 30
0.0
 11
632.6753160327374
 21
384.5684993822297
 31
0.0
  0
LINE
  5
1298
330
1263
100
AcDbEntity
  8
0
 62
     0
100
AcDbLine
 10
634.9091698276168
 20
382.4760669435878
 30
0.0
 11
632.7314356185459
 21
384.6538011526586
 31
0.0
  0
LINE
  5
1299
330
1263
100
AcDbEntity
  8
0
 62
     0
100
AcDbLine
 10
635.0216999955959
 20
382.5049581318459
 30
0.0
 11
632.7875552043543
 21
384.7391029230874
 31
0.0
  0
LINE
  5
129A
330
1263
100
AcDbEntity
  8
0
 62
     0
100
AcDbLine
 10
635.1306526946577
 20
382.5374267890215
 30
0.0
 11
632.8436747901628
 21
384.8244046935162
 31
0.0
  0
LINE
  5
129B
330
1263
100
AcDbEntity
  8
0
 62
     0
100
AcDbLine
 10
635.236241748263
 20
382.5732590916535
 30
0.0
 11
632.8997943759713
 21
384.9097064639451
 31
0.0
  0
LINE
  5
129C
330
1263
100
AcDbEntity
  8
0
 62
     0
100
AcDbLine
 10
635.3386475365518
 20
382.6122746596021
 30
0.0
 11
632.9559139617797
 21
384.995008234374
 31
0.0
  0
LINE
  5
129D
330
1263
100
AcDbEntity
  8
0
 62
     0
100
AcDbLine
 10
635.4380229394881
 20
382.6543206129029
 30
0.0
 11
633.0120335475882
 21
385.0803100048029
 31
0.0
  0
LINE
  5
129E
330
1263
100
AcDbEntity
  8
0
 62
     0
100
AcDbLine
 10
635.5344978883
 20
382.6992670203284
 30
0.0
 11
633.0681531333966
 21
385.1656117752317
 31
0.0
  0
LINE
  5
129F
330
1263
100
AcDbEntity
  8
0
 62
     0
100
AcDbLine
 10
635.6281828933949
 20
382.7470033714707
 30
0.0
 11
633.1242727192051
 21
385.2509135456605
 31
0.0
  0
LINE
  5
12A0
330
1263
100
AcDbEntity
  8
0
 62
     0
100
AcDbLine
 10
635.7191718051729
 20
382.7974358159302
 30
0.0
 11
633.1803923050135
 21
385.3362153160894
 31
0.0
  0
LINE
  5
12A1
330
1263
100
AcDbEntity
  8
0
 62
     0
100
AcDbLine
 10
635.8075439895177
 20
382.8504849878226
 30
0.0
 11
633.2623014952085
 21
385.3957274821319
 31
0.0
  0
LINE
  5
12A2
330
1263
100
AcDbEntity
  8
0
 62
     0
100
AcDbLine
 10
635.8933660487852
 20
382.9060842847926
 30
0.0
 11
633.4037228514459
 21
385.3957274821319
 31
0.0
  0
LINE
  5
12A3
330
1263
100
AcDbEntity
  8
0
 62
     0
100
AcDbLine
 10
635.9766931835571
 20
382.9641785062578
 30
0.0
 11
633.5451442076831
 21
385.3957274821319
 31
0.0
  0
LINE
  5
12A4
330
1263
100
AcDbEntity
  8
0
 62
     0
100
AcDbLine
 10
636.0575702651361
 20
383.0247227809161
 30
0.0
 11
633.6865655639204
 21
385.3957274821319
 31
0.0
  0
LINE
  5
12A5
330
1263
100
AcDbEntity
  8
0
 62
     0
100
AcDbLine
 10
636.1360326703588
 20
383.0876817319309
 30
0.0
 11
633.8279869201577
 21
385.3957274821319
 31
0.0
  0
LINE
  5
12A6
330
1263
100
AcDbEntity
  8
0
 62
     0
100
AcDbLine
 10
636.2121069166436
 20
383.1530288418833
 30
0.0
 11
633.969408276395
 21
385.3957274821319
 31
0.0
  0
LINE
  5
12A7
330
1263
100
AcDbEntity
  8
0
 62
     0
100
AcDbLine
 10
636.2858111247552
 20
383.220745990009
 30
0.0
 11
634.1108296326324
 21
385.3957274821319
 31
0.0
  0
LINE
  5
12A8
330
1263
100
AcDbEntity
  8
0
 62
     0
100
AcDbLine
 10
636.3571553285498
 20
383.2908231424516
 30
0.0
 11
634.2366767302806
 21
385.4113017407209
 31
0.0
  0
LINE
  5
12A9
330
1263
100
AcDbEntity
  8
0
 62
     0
100
AcDbLine
 10
636.4261416442355
 20
383.3632581830033
 30
0.0
 11
634.3107545835477
 21
385.4786452436911
 31
0.0
  0
LINE
  5
12AA
330
1263
100
AcDbEntity
  8
0
 62
     0
100
AcDbLine
 10
636.4927643058645
 20
383.4380568776116
 30
0.0
 11
634.3848324368149
 21
385.5459887466612
 31
0.0
  0
LINE
  5
12AB
330
1263
100
AcDbEntity
  8
0
 62
     0
100
AcDbLine
 10
636.5570095684597
 20
383.5152329712538
 30
0.0
 11
634.4589102900821
 21
385.6133322496313
 31
0.0
  0
LINE
  5
12AC
330
1263
100
AcDbEntity
  8
0
 62
     0
100
AcDbLine
 10
636.618855474946
 20
383.5948084210048
 30
0.0
 11
634.5329881433492
 21
385.6806757526015
 31
0.0
  0
LINE
  5
12AD
330
1263
100
AcDbEntity
  8
0
 62
     0
100
AcDbLine
 10
636.6782714775675
 20
383.6768137746204
 30
0.0
 11
634.6070659966163
 21
385.7480192555716
 31
0.0
  0
LINE
  5
12AE
330
1263
100
AcDbEntity
  8
0
 62
     0
100
AcDbLine
 10
636.7352178982883
 20
383.761288710137
 30
0.0
 11
634.6811438498836
 21
385.8153627585418
 31
0.0
  0
LINE
  5
12AF
330
1263
100
AcDbEntity
  8
0
 62
     0
100
AcDbLine
 10
636.7896452053319
 20
383.8482827593308
 30
0.0
 11
634.7552217031506
 21
385.8827062615119
 31
0.0
  0
LINE
  5
12B0
330
1263
100
AcDbEntity
  8
0
 62
     0
100
AcDbLine
 10
636.8414930738842
 20
383.9378562470157
 30
0.0
 11
634.8292995564179
 21
385.9500497644821
 31
0.0
  0
LINE
  5
12B1
330
1263
100
AcDbEntity
  8
0
 62
     0
100
AcDbLine
 10
636.890689187203
 20
384.0300814899343
 30
0.0
 11
634.903377409685
 21
386.0173932674523
 31
0.0
  0
LINE
  5
12B2
330
1263
100
AcDbEntity
  8
0
 62
     0
100
AcDbLine
 10
636.9371477187436
 20
384.1250443146309
 30
0.0
 11
634.9774552629521
 21
386.0847367704224
 31
0.0
  0
LINE
  5
12B3
330
1263
100
AcDbEntity
  8
0
 62
     0
100
AcDbLine
 10
636.9807674146581
 20
384.2228459749537
 30
0.0
 11
635.0515331162194
 21
386.1520802733925
 31
0.0
  0
LINE
  5
12B4
330
1263
100
AcDbEntity
  8
0
 62
     0
100
AcDbLine
 10
637.0214291664882
 20
384.323605579361
 30
0.0
 11
635.1256109694864
 21
386.2194237763627
 31
0.0
  0
LINE
  5
12B5
330
1263
100
AcDbEntity
  8
0
 62
     0
100
AcDbLine
 10
637.0589929219863
 20
384.4274631801002
 30
0.0
 11
635.1996888227537
 21
386.2867672793328
 31
0.0
  0
LINE
  5
12B6
330
1263
100
AcDbEntity
  8
0
 62
     0
100
AcDbLine
 10
637.0932937213662
 20
384.5345837369578
 30
0.0
 11
635.273766676021
 21
386.354110782303
 31
0.0
  0
LINE
  5
12B7
330
1263
100
AcDbEntity
  8
0
 62
     0
100
AcDbLine
 10
637.1241365565763
 20
384.6451622579848
 30
0.0
 11
635.3478445292879
 21
386.4214542852731
 31
0.0
  0
LINE
  5
12B8
330
1263
100
AcDbEntity
  8
0
 62
     0
100
AcDbLine
 10
637.1512896153754
 20
384.759430555423
 30
0.0
 11
635.4219223825552
 21
386.4887977882432
 31
0.0
  0
LINE
  5
12B9
330
1263
100
AcDbEntity
  8
0
 62
     0
100
AcDbLine
 10
637.1744752609786
 20
384.8776662660572
 30
0.0
 11
635.4960002358224
 21
386.5561412912134
 31
0.0
  0
LINE
  5
12BA
330
1263
100
AcDbEntity
  8
0
 62
     0
100
AcDbLine
 10
637.1933577606949
 20
385.0002051225783
 30
0.0
 11
635.5700780890895
 21
386.6234847941836
 31
0.0
  0
LINE
  5
12BB
330
1263
100
AcDbEntity
  8
0
 62
     0
100
AcDbLine
 10
637.2075262197281
 20
385.1274580197824
 30
0.0
 11
635.6441559423567
 21
386.6908282971538
 31
0.0
  0
LINE
  5
12BC
330
1263
100
AcDbEntity
  8
0
 62
     0
100
AcDbLine
 10
637.2164702206813
 20
385.2599353750663
 30
0.0
 11
635.7182337956238
 21
386.7581718001238
 31
0.0
  0
LINE
  5
12BD
330
1263
100
AcDbEntity
  8
0
 62
     0
100
AcDbLine
 10
637.2195439573889
 20
385.398282994596
 30
0.0
 11
635.7923116488909
 21
386.825515303094
 31
0.0
  0
LINE
  5
12BE
330
1263
100
AcDbEntity
  8
0
 62
     0
100
AcDbLine
 10
637.2159114226285
 20
385.5433368855938
 30
0.0
 11
635.8663895021582
 21
386.8928588060642
 31
0.0
  0
LINE
  5
12BF
330
1263
100
AcDbEntity
  8
0
 62
     0
100
AcDbLine
 10
637.2044587286833
 20
385.6962109357764
 30
0.0
 11
635.9404673554252
 21
386.9602023090343
 31
0.0
  0
LINE
  5
12C0
330
1263
100
AcDbEntity
  8
0
 62
     0
100
AcDbLine
 10
637.183645602818
 20
385.858445417879
 30
0.0
 11
636.0145452086925
 21
387.0275458120045
 31
0.0
  0
LINE
  5
12C1
330
1263
100
AcDbEntity
  8
0
 62
     0
100
AcDbLine
 10
637.1512346174621
 20
386.0322777594721
 30
0.0
 11
636.0886230619597
 21
387.0948893149746
 31
0.0
  0
LINE
  5
12C2
330
1263
100
AcDbEntity
  8
0
 62
     0
100
AcDbLine
 10
637.103746055839
 20
386.2211876773324
 30
0.0
 11
636.1627009152267
 21
387.1622328179448
 31
0.0
  0
LINE
  5
12C3
330
1263
100
AcDbEntity
  8
0
 62
     0
100
AcDbLine
 10
637.0351934977573
 20
386.4311615916514
 30
0.0
 11
636.236778768494
 21
387.2295763209149
 31
0.0
  0
LINE
  5
12C4
330
1263
100
AcDbEntity
  8
0
 62
     0
100
AcDbLine
 10
636.9334167624948
 20
386.6743596831514
 30
0.0
 11
636.3108566217611
 21
387.296919823885
 31
0.0
  0
LINE
  5
12C5
330
1263
100
AcDbEntity
  8
0
 62
     0
100
AcDbLine
 10
636.7636506984644
 20
386.9855471034192
 30
0.0
 11
636.3849344750283
 21
387.3642633268552
 31
0.0
  0
ENDBLK
  5
12C6
330
1263
100
AcDbEntity
  8
0
100
AcDbBlockEnd
  0
BLOCK
  5
147B
330
1471
100
AcDbEntity
  8
0
100
AcDbBlockBegin
  2
*D2
 70
     1
 10
0.0
 20
0.0
 30
0.0
  3
*D2
  1

  0
LINE
  5
175C
330
1471
100
AcDbEntity
  8
BEM
 62
     0
370
    -2
100
AcDbLine
 10
158.0117054987858
 20
466.2102784901279
 30
0.0
 11
141.7325367821645
 21
466.2102784901279
 31
0.0
  0
LINE
  5
175D
330
1471
100
AcDbEntity
  8
BEM
 62
     0
370
    -2
100
AcDbLine
 10
198.7058850506782
 20
271.2102784901281
 30
0.0
 11
141.7325367821645
 21
271.2102784901281
 31
0.0
  0
LINE
  5
175E
330
1471
100
AcDbEntity
  8
BEM
 62
     0
370
    -2
100
AcDbLine
 10
143.7325367821645
 20
459.2102784901279
 30
0.0
 11
143.7325367821645
 21
278.2102784901281
 31
0.0
  0
SOLID
  5
175F
330
1471
100
AcDbEntity
  8
BEM
 62
     0
100
AcDbTrace
 10
142.5658701154979
 20
459.2102784901279
 30
0.0
 11
144.8992034488312
 21
459.2102784901279
 31
0.0
 12
143.7325367821645
 22
466.2102784901279
 32
0.0
 13
143.7325367821645
 23
466.2102784901279
 33
0.0
  0
SOLID
  5
1760
330
1471
100
AcDbEntity
  8
BEM
 62
     0
100
AcDbTrace
 10
142.5658701154978
 20
278.2102784901281
 30
0.0
 11
144.8992034488312
 21
278.2102784901281
 31
0.0
 12
143.7325367821645
 22
271.2102784901281
 32
0.0
 13
143.7325367821645
 23
271.2102784901281
 33
0.0
  0
MTEXT
  5
1761
330
1471
100
AcDbEntity
  8
BEM
 62
     1
100
AcDbMText
 10
137.2325367821645
 20
368.7102784901281
 30
0.0
 40
7.0
 41
0.0
 71
     5
 72
     1
  1
\A1;195
 11
0.0000000000000001
 21
1.0
 31
0.0
 73
     1
 44
1.0
  0
POINT
  5
1762
330
1471
100
AcDbEntity
  8
DEFPOINTS
 62
     0
100
AcDbPoint
 10
160.0117054987858
 20
466.2102784901279
 30
0.0
  0
POINT
  5
1763
330
1471
100
AcDbEntity
  8
DEFPOINTS
 62
     0
100
AcDbPoint
 10
200.7058850506783
 20
271.2102784901281
 30
0.0
  0
POINT
  5
1764
330
1471
100
AcDbEntity
  8
DEFPOINTS
 62
     0
100
AcDbPoint
 10
143.7325367821645
 20
271.2102784901281
 30
0.0
  0
ENDBLK
  5
147C
330
1471
100
AcDbEntity
  8
0
100
AcDbBlockEnd
  0
BLOCK
  5
14A1
330
1497
100
AcDbEntity
  8
0
100
AcDbBlockBegin
  2
*D3
 70
     1
 10
0.0
 20
0.0
 30
0.0
  3
*D3
  1

  0
LINE
  5
174A
330
1497
100
AcDbEntity
  8
BEM
 62
     0
370
    -2
100
AcDbLine
 10
182.0117054987859
 20
297.2102784901281
 30
0.0
 11
182.0117054987859
 21
231.6792325291794
 31
0.0
  0
LINE
  5
174B
330
1497
100
AcDbEntity
  8
BEM
 62
     0
370
    -2
100
AcDbLine
 10
271.0117054987859
 20
297.2102784901281
 30
0.0
 11
271.0117054987859
 21
231.6792325291794
 31
0.0
  0
LINE
  5
174C
330
1497
100
AcDbEntity
  8
BEM
 62
     0
370
    -2
100
AcDbLine
 10
189.0117054987859
 20
233.6792325291794
 30
0.0
 11
264.0117054987859
 21
233.6792325291794
 31
0.0
  0
SOLID
  5
174D
330
1497
100
AcDbEntity
  8
BEM
 62
     0
100
AcDbTrace
 10
189.0117054987859
 20
234.8458991958461
 30
0.0
 11
189.0117054987859
 21
232.5125658625128
 31
0.0
 12
182.0117054987859
 22
233.6792325291794
 32
0.0
 13
182.0117054987859
 23
233.6792325291794
 33
0.0
  0
SOLID
  5
174E
330
1497
100
AcDbEntity
  8
BEM
 62
     0
100
AcDbTrace
 10
264.0117054987859
 20
234.8458991958461
 30
0.0
 11
264.0117054987859
 21
232.5125658625128
 31
0.0
 12
271.0117054987859
 22
233.6792325291794
 32
0.0
 13
271.0117054987859
 23
233.6792325291794
 33
0.0
  0
MTEXT
  5
174F
330
1497
100
AcDbEntity
  8
BEM
 62
     1
100
AcDbMText
 10
226.5117054987859
 20
240.1792325291794
 30
0.0
 40
7.0
 41
0.0
 71
     5
 72
     1
  1
\A1;%%c89
 73
     1
 44
1.0
  0
POINT
  5
1750
330
1497
100
AcDbEntity
  8
DEFPOINTS
 62
     0
100
AcDbPoint
 10
182.0117054987859
 20
299.2102784901281
 30
0.0
  0
POINT
  5
1751
330
1497
100
AcDbEntity
  8
DEFPOINTS
 62
     0
100
AcDbPoint
 10
271.0117054987859
 20
299.2102784901281
 30
0.0
  0
POINT
  5
1752
330
1497
100
AcDbEntity
  8
DEFPOINTS
 62
     0
100
AcDbPoint
 10
271.0117054987859
 20
233.6792325291794
 30
0.0
  0
ENDBLK
  5
14A2
330
1497
100
AcDbEntity
  8
0
100
AcDbBlockEnd
  0
BLOCK
  5
14AD
330
14A3
100
AcDbEntity
  8
0
100
AcDbBlockBegin
  2
*D4
 70
     1
 10
0.0
 20
0.0
 30
0.0
  3
*D4
  1

  0
LINE
  5
1741
330
14A3
100
AcDbEntity
  8
BEM
 62
     0
370
    -2
100
AcDbLine
 10
253.0117054987859
 20
277.1447870757656
 30
0.0
 11
253.0117054987859
 21
249.3152284158259
 31
0.0
  0
LINE
  5
1742
330
14A3
100
AcDbEntity
  8
BEM
 62
     0
370
    -2
100
AcDbLine
 10
200.0117054987859
 20
277.1447870757659
 30
0.0
 11
200.0117054987859
 21
249.3152284158259
 31
0.0
  0
LINE
  5
1743
330
14A3
100
AcDbEntity
  8
BEM
 62
     0
370
    -2
100
AcDbLine
 10
246.0117054987859
 20
251.3152284158259
 30
0.0
 11
207.0117054987859
 21
251.3152284158259
 31
0.0
  0
SOLID
  5
1744
330
14A3
100
AcDbEntity
  8
BEM
 62
     0
100
AcDbTrace
 10
246.0117054987859
 20
252.4818950824926
 30
0.0
 11
246.0117054987859
 21
250.1485617491593
 31
0.0
 12
253.0117054987859
 22
251.3152284158259
 32
0.0
 13
253.0117054987859
 23
251.3152284158259
 33
0.0
  0
SOLID
  5
1745
330
14A3
100
AcDbEntity
  8
BEM
 62
     0
100
AcDbTrace
 10
207.0117054987859
 20
252.4818950824926
 30
0.0
 11
207.0117054987859
 21
250.1485617491593
 31
0.0
 12
200.0117054987859
 22
251.3152284158259
 32
0.0
 13
200.0117054987859
 23
251.3152284158259
 33
0.0
  0
MTEXT
  5
1746
330
14A3
100
AcDbEntity
  8
BEM
 62
     1
100
AcDbMText
 10
226.5117054987859
 20
257.8152284158259
 30
0.0
 40
7.0
 41
0.0
 71
     5
 72
     1
  1
\A1;%%c53
 73
     1
 44
1.0
  0
POINT
  5
1747
330
14A3
100
AcDbEntity
  8
DEFPOINTS
 62
     0
100
AcDbPoint
 10
253.0117054987859
 20
279.1447870757656
 30
0.0
  0
POINT
  5
1748
330
14A3
100
AcDbEntity
  8
DEFPOINTS
 62
     0
100
AcDbPoint
 10
200.0117054987859
 20
279.1447870757659
 30
0.0
  0
POINT
  5
1749
330
14A3
100
AcDbEntity
  8
DEFPOINTS
 62
     0
100
AcDbPoint
 10
200.0117054987859
 20
251.3152284158259
 30
0.0
  0
ENDBLK
  5
14AE
330
14A3
100
AcDbEntity
  8
0
100
AcDbBlockEnd
  0
BLOCK
  5
14B9
330
14AF
100
AcDbEntity
  8
0
100
AcDbBlockBegin
  2
*D5
 70
     1
 10
0.0
 20
0.0
 30
0.0
  3
*D5
  1

  0
LINE
  5
1738
330
14AF
100
AcDbEntity
  8
BEM
 62
     0
370
    -2
100
AcDbLine
 10
160.0117054987858
 20
468.2102784901279
 30
0.0
 11
160.0117054987858
 21
485.5800258827978
 31
0.0
  0
LINE
  5
1739
330
14AF
100
AcDbEntity
  8
BEM
 62
     0
370
    -2
100
AcDbLine
 10
293.0117054987859
 20
468.2102784901279
 30
0.0
 11
293.0117054987859
 21
485.5800258827978
 31
0.0
  0
LINE
  5
173A
330
14AF
100
AcDbEntity
  8
BEM
 62
     0
370
    -2
100
AcDbLine
 10
167.0117054987858
 20
483.5800258827978
 30
0.0
 11
286.0117054987859
 21
483.5800258827978
 31
0.0
  0
SOLID
  5
173B
330
14AF
100
AcDbEntity
  8
BEM
 62
     0
100
AcDbTrace
 10
167.0117054987858
 20
484.7466925494645
 30
0.0
 11
167.0117054987858
 21
482.4133592161311
 31
0.0
 12
160.0117054987858
 22
483.5800258827978
 32
0.0
 13
160.0117054987858
 23
483.5800258827978
 33
0.0
  0
SOLID
  5
173C
330
14AF
100
AcDbEntity
  8
BEM
 62
     0
100
AcDbTrace
 10
286.0117054987859
 20
484.7466925494645
 30
0.0
 11
286.0117054987859
 21
482.4133592161311
 31
0.0
 12
293.0117054987859
 22
483.5800258827978
 32
0.0
 13
293.0117054987859
 23
483.5800258827978
 33
0.0
  0
MTEXT
  5
173D
330
14AF
100
AcDbEntity
  8
BEM
 62
     1
100
AcDbMText
 10
226.5117054987859
 20
490.0800258827977
 30
0.0
 40
7.0
 41
0.0
 71
     5
 72
     1
  1
\A1;%%c133
 73
     1
 44
1.0
  0
POINT
  5
173E
330
14AF
100
AcDbEntity
  8
DEFPOINTS
 62
     0
100
AcDbPoint
 10
160.0117054987858
 20
466.2102784901279
 30
0.0
  0
POINT
  5
173F
330
14AF
100
AcDbEntity
  8
DEFPOINTS
 62
     0
100
AcDbPoint
 10
293.0117054987859
 20
466.2102784901279
 30
0.0
  0
POINT
  5
1740
330
14AF
100
AcDbEntity
  8
DEFPOINTS
 62
     0
100
AcDbPoint
 10
293.0117054987859
 20
483.5800258827978
 30
0.0
  0
ENDBLK
  5
14BA
330
14AF
100
AcDbEntity
  8
0
100
AcDbBlockEnd
  0
BLOCK
  5
1712
330
1708
100
AcDbEntity
  8
0
100
AcDbBlockBegin
  2
*D6
 70
     1
 10
0.0
 20
0.0
 30
0.0
  3
*D6
  1

  0
LINE
  5
1753
330
1708
100
AcDbEntity
  8
SCHRAFF
 62
     0
370
    -2
100
AcDbLine
 10
198.7058850506782
 20
271.2102784901281
 30
0.0
 11
156.649491053537
 21
271.2102784901281
 31
0.0
  0
LINE
  5
1754
330
1708
100
AcDbEntity
  8
SCHRAFF
 62
     0
370
    -2
100
AcDbLine
 10
180.0117054987859
 20
301.2102784901281
 30
0.0
 11
156.649491053537
 21
301.2102784901281
 31
0.0
  0
LINE
  5
1755
330
1708
100
AcDbEntity
  8
SCHRAFF
 62
     0
370
    -2
100
AcDbLine
 10
158.649491053537
 20
278.2102784901281
 30
0.0
 11
158.649491053537
 21
294.2102784901281
 31
0.0
  0
SOLID
  5
1756
330
1708
100
AcDbEntity
  8
SCHRAFF
 62
     0
100
AcDbTrace
 10
157.4828243868704
 20
278.2102784901281
 30
0.0
 11
159.8161577202037
 21
278.2102784901281
 31
0.0
 12
158.649491053537
 22
271.2102784901281
 32
0.0
 13
158.649491053537
 23
271.2102784901281
 33
0.0
  0
SOLID
  5
1757
330
1708
100
AcDbEntity
  8
SCHRAFF
 62
     0
100
AcDbTrace
 10
157.4828243868704
 20
294.2102784901281
 30
0.0
 11
159.8161577202037
 21
294.2102784901281
 31
0.0
 12
158.649491053537
 22
301.2102784901281
 32
0.0
 13
158.649491053537
 23
301.2102784901281
 33
0.0
  0
MTEXT
  5
1758
330
1708
100
AcDbEntity
  8
SCHRAFF
 62
     1
100
AcDbMText
 10
152.149491053537
 20
286.2102784901282
 30
0.0
 40
7.0
 41
0.0
 71
     5
 72
     1
  1
\A1;30
 11
0.0000000000000001
 21
1.0
 31
0.0
 73
     1
 44
1.0
  0
POINT
  5
1759
330
1708
100
AcDbEntity
  8
DEFPOINTS
 62
     0
100
AcDbPoint
 10
200.7058850506783
 20
271.2102784901281
 30
0.0
  0
POINT
  5
175A
330
1708
100
AcDbEntity
  8
DEFPOINTS
 62
     0
100
AcDbPoint
 10
182.0117054987859
 20
301.2102784901281
 30
0.0
  0
POINT
  5
175B
330
1708
100
AcDbEntity
  8
DEFPOINTS
 62
     0
100
AcDbPoint
 10
158.649491053537
 20
301.2102784901281
 30
0.0
  0
ENDBLK
  5
1713
330
1708
100
AcDbEntity
  8
0
100
AcDbBlockEnd
  0
ENDSEC
  0
SECTION
  2
ENTITIES
  0
LINE
  5
19F
330
1E
100
AcDbEntity
  8
STEMPEL
100
AcDbLine
 10
409.9999999999999
 20
110.0
 30
0.0
 11
39.99999999999995
 21
110.0
 31
0.0
  0
LINE
  5
1A0
330
1E
100
AcDbEntity
  8
STEMPEL
100
AcDbLine
 10
136.0000000000001
 20
109.9999999999999
 30
0.0
 11
136.0
 21
9.999999999999971
 31
0.0
  0
LINE
  5
1A1
330
1E
100
AcDbEntity
  8
STEMPEL
100
AcDbLine
 10
220.0
 20
110.0
 30
0.0
 11
220.0
 21
9.999999999999971
 31
0.0
  0
LINE
  5
1A2
330
1E
100
AcDbEntity
  8
STEMPEL
100
AcDbLine
 10
331.9999999999999
 20
109.9999999999997
 30
0.0
 11
331.9999999999999
 21
40.0
 31
0.0
  0
LINE
  5
1A3
330
1E
100
AcDbEntity
  8
STEMPEL
100
AcDbLine
 10
135.9999999999999
 20
29.99999999999997
 30
0.0
 11
39.99999999999995
 21
29.99999999999997
 31
0.0
  0
LINE
  5
1A4
330
1E
100
AcDbEntity
  8
STEMPEL
100
AcDbLine
 10
409.9999999999999
 20
40.0
 30
0.0
 11
136.0000000000001
 21
39.99999999999997
 31
0.0
  0
LINE
  5
1A5
330
1E
100
AcDbEntity
  8
STEMPEL
100
AcDbLine
 10
409.9999999999999
 20
80.0
 30
0.0
 11
136.0000000000001
 21
79.99999999999994
 31
0.0
  0
LINE
  5
1A6
330
1E
100
AcDbEntity
  8
VOLL
100
AcDbLine
 10
54.00000000000005
 20
110.0
 30
0.0
 11
53.99999999999995
 21
9.999999999999971
 31
0.0
  0
LINE
  5
1A7
330
1E
100
AcDbEntity
  8
VOLL
100
AcDbLine
 10
94.00000000000011
 20
109.9999999999999
 30
0.0
 11
94.0
 21
9.999999999999971
 31
0.0
  0
LINE
  5
1A8
330
1E
100
AcDbEntity
  8
VOLL
100
AcDbLine
 10
114.0000000000001
 20
109.9999999999999
 30
0.0
 11
114.0
 21
9.999999999999971
 31
0.0
  0
LINE
  5
1A9
330
1E
100
AcDbEntity
  8
VOLL
100
AcDbLine
 10
154.0000000000001
 20
79.99999999999994
 30
0.0
 11
154.0000000000001
 21
39.99999999999997
 31
0.0
  0
LINE
  5
1AA
330
1E
100
AcDbEntity
  8
VOLL
100
AcDbLine
 10
180.0000000000001
 20
109.9999999999998
 30
0.0
 11
180.0
 21
39.99999999999997
 31
0.0
  0
LINE
  5
1AB
330
1E
100
AcDbEntity
  8
HILF
100
AcDbLine
 10
40.00000000000006
 20
100.0
 30
0.0
 11
136.0000000000001
 21
100.0
 31
0.0
  0
LINE
  5
1AC
330
1E
100
AcDbEntity
  8
HILF
100
AcDbLine
 10
40.00000000000006
 20
90.00000000000005
 30
0.0
 11
136.0000000000001
 21
90.00000000000005
 31
0.0
  0
LINE
  5
1AD
330
1E
100
AcDbEntity
  8
HILF
100
AcDbLine
 10
40.00000000000006
 20
79.99999999999994
 30
0.0
 11
136.0000000000001
 21
79.99999999999994
 31
0.0
  0
LINE
  5
1AE
330
1E
100
AcDbEntity
  8
HILF
100
AcDbLine
 10
40.00000000000006
 20
69.99999999999994
 30
0.0
 11
136.0000000000001
 21
69.99999999999994
 31
0.0
  0
LINE
  5
1AF
330
1E
100
AcDbEntity
  8
HILF
100
AcDbLine
 10
40.00000000000006
 20
59.99999999999997
 30
0.0
 11
136.0000000000001
 21
59.99999999999997
 31
0.0
  0
LINE
  5
1B0
330
1E
100
AcDbEntity
  8
HILF
100
AcDbLine
 10
40.00000000000006
 20
49.99999999999997
 30
0.0
 11
136.0000000000001
 21
49.99999999999997
 31
0.0
  0
LINE
  5
1B1
330
1E
100
AcDbEntity
  8
HILF
100
AcDbLine
 10
40.00000000000006
 20
39.99999999999997
 30
0.0
 11
136.0000000000001
 21
39.99999999999997
 31
0.0
  0
LINE
  5
1B2
330
1E
100
AcDbEntity
  8
HILF
100
AcDbLine
 10
136.0000000000001
 20
69.99999999999994
 30
0.0
 11
220.0
 21
69.99999999999994
 31
0.0
  0
LINE
  5
1B3
330
1E
100
AcDbEntity
  8
HILF
100
AcDbLine
 10
136.0000000000001
 20
59.99999999999997
 30
0.0
 11
220.0
 21
59.99999999999997
 31
0.0
  0
LINE
  5
1B4
330
1E
100
AcDbEntity
  8
HILF
100
AcDbLine
 10
136.0000000000001
 20
49.99999999999997
 30
0.0
 11
220.0
 21
49.99999999999997
 31
0.0
  0
LINE
  5
1B5
330
1E
100
AcDbEntity
  8
HILF
100
AcDbLine
 10
224.7736801096948
 20
84.03758247564139
 30
0.0
 11
324.8353916556311
 21
84.03758247564139
 31
0.0
  0
LINE
  5
1B6
330
1E
100
AcDbEntity
  8
HILF
100
AcDbLine
 10
224.7736801096948
 20
69.99999999999994
 30
0.0
 11
324.835391655631
 21
69.99999999999994
 31
0.0
  0
LINE
  5
1B7
330
1E
100
AcDbEntity
  8
HILF
100
AcDbLine
 10
224.7736801096948
 20
59.99999999999997
 30
0.0
 11
324.835391655631
 21
59.99999999999997
 31
0.0
  0
LINE
  5
1B8
330
1E
100
AcDbEntity
  8
HILF
100
AcDbLine
 10
224.7736801096948
 20
49.99999999999997
 30
0.0
 11
324.835391655631
 21
49.99999999999997
 31
0.0
  0
LINE
  5
1B9
330
1E
100
AcDbEntity
  8
VOLL
100
AcDbLine
 10
331.9999999999999
 20
60.0
 30
0.0
 11
409.9999999999999
 21
60.0
 31
0.0
  0
LINE
  5
1BA
330
1E
100
AcDbEntity
  8
HILF
100
AcDbLine
 10
336.7238616296992
 20
83.77983636955827
 30
0.0
 11
404.8588839326727
 21
83.77983636955827
 31
0.0
  0
LINE
  5
1BB
330
1E
100
AcDbEntity
  8
HILF
100
AcDbLine
 10
223.4909699289885
 20
14.89398258028314
 30
0.0
 11
404.8588839326727
 21
14.89398258028314
 31
0.0
  0
TEXT
  5
1BC
330
1E
100
AcDbEntity
  8
TEXT
100
AcDbText
 10
63.30818695982741
 20
18.59145467910836
 30
0.0
 40
4.0
  1
Änderung
 41
0.8
  7
GREEKS
 72
     4
 11
74.05104410268456
 21
20.30574039339407
 31
0.0
100
AcDbText
  0
TEXT
  5
1BD
330
1E
100
AcDbEntity
  8
TEXT
100
AcDbText
 10
143.5163572150377
 20
102.4620895087088
 30
0.0
 40
5.0
  1
Maßstab
 41
0.8
  7
GREEKS
100
AcDbText
  0
TEXT
  5
1BE
330
1E
100
AcDbEntity
  8
TEXT
100
AcDbText
 10
184.2858954734051
 20
102.4184168434819
 30
0.0
 40
5.0
  1
Zul. Abw.
 41
0.8
  7
GREEKS
100
AcDbText
  0
TEXT
  5
1BF
330
1E
100
AcDbEntity
  8
TEXT
100
AcDbText
 10
224.877940380901
 20
102.5489328011779
 30
0.0
 40
5.0
  1
Benennung
 41
0.8
  7
GREEKS
100
AcDbText
  0
TEXT
  5
1C0
330
1E
100
AcDbEntity
  8
TEXT
100
AcDbText
 10
336.178754957634
 20
102.3132034537136
 30
0.0
 40
5.0
  1
Zeichnungs Nr.
 41
0.8
  7
GREEKS
100
AcDbText
  0
TEXT
  5
1C1
330
1E
100
AcDbEntity
  8
TEXT
100
AcDbText
 10
224.742238391136
 20
30.84560570193057
 30
0.0
 40
5.0
  1
Bauvorhaben
 41
0.8
  7
GREEKS
100
AcDbText
  0
TEXT
  5
1C2
330
1E
100
AcDbEntity
  8
TEXT
100
AcDbText
 10
336.7238616296992
 20
73.1811823709997
 30
0.0
 40
5.0
  1
Ersatz für:
 41
0.8
  7
GREEKS
100
AcDbText
  0
TEXT
  5
1C3
330
1E
100
AcDbEntity
  8
TEXT
100
AcDbText
 10
48.26641107045753
 20
13.65465846027192
 30
0.0
 40
3.6
  1
Index
 50
90.0
 41
0.8
  7
GREEKS
100
AcDbText
  0
TEXT
  5
1C6
330
1E
100
AcDbEntity
  8
TEXT
100
AcDbText
 10
162.3311673153651
 20
73.31880501229926
 30
0.0
 40
3.6
  1
Tag
 41
0.8
  7
GREEKS
100
AcDbText
  0
TEXT
  5
1C7
330
1E
100
AcDbEntity
  8
TEXT
100
AcDbText
 10
192.4626584226295
 20
73.30961091915225
 30
0.0
 40
3.6
  1
Name
 41
0.8
  7
GREEKS
100
AcDbText
  0
TEXT
  5
1C8
330
1E
100
AcDbEntity
  8
TEXT
100
AcDbText
 10
137.5836127167615
 20
63.62990369617964
 30
0.0
 40
3.6
  1
Gez.
 41
0.8
  7
GREEKS
100
AcDbText
  0
TEXT
  5
1C9
330
1E
100
AcDbEntity
  8
TEXT
100
AcDbText
 10
137.5515086571672
 20
53.68926291428377
 30
0.0
 40
3.6
  1
Gepr.
 41
0.8
  7
GREEKS
100
AcDbText
  0
TEXT
  5
1CA
330
1E
100
AcDbEntity
  8
TEXT
100
AcDbText
 10
137.6006777387304
 20
43.52946389649807
 30
0.0
 40
3.6
  1
Norm.
 41
0.8
  7
GREEKS
100
AcDbText
  0
LINE
  5
1CB
330
1E
100
AcDbEntity
  8
STEMPEL
100
AcDbLine
 10
49.99999999999989
 20
10.0
 30
0.0
 11
409.9999999999999
 21
10.0
 31
0.0
  0
LINE
  5
1CC
330
1E
100
AcDbEntity
  8
STEMPEL
100
AcDbLine
 10
409.9999999999999
 20
110.0
 30
0.0
 11
409.9999999999999
 21
10.0
 31
0.0
  0
TEXT
  5
1CD
330
1E
100
AcDbEntity
  8
TEXT
100
AcDbText
 10
337.2400861497005
 20
52.07416177878602
 30
0.0
 40
5.0
  1
ersetzt durch:
 41
0.8
  7
GREEKS
100
AcDbText
  0
LINE
  5
1CE
330
1E
100
AcDbEntity
  8
STEMPEL
100
AcDbLine
 10
409.9999999999999
 20
10.0
 30
0.0
 11
39.99999999999989
 21
10.0
 31
0.0
  0
LINE
  5
1CF
330
1E
100
AcDbEntity
  8
STEMPEL
100
AcDbLine
 10
409.9999999999999
 20
110.0
 30
0.0
 11
409.9999999999999
 21
584.0
 31
0.0
  0
LINE
  5
1D0
330
1E
100
AcDbEntity
  8
STEMPEL
100
AcDbLine
 10
40.0
 20
10.0
 30
0.0
 11
39.99999999999989
 21
584.0
 31
0.0
  0
LINE
  5
1D1
330
1E
100
AcDbEntity
  8
STEMPEL
100
AcDbLine
 10
409.9999999999999
 20
584.0
 30
0.0
 11
39.99999999999989
 21
584.0
 31
0.0
  0
LINE
  5
1D2
330
1E
100
AcDbEntity
  8
HILF
100
AcDbLine
 10
0.0
 20
0.0
 30
0.0
 11
-0.0000000000001137
 21
594.0
 31
0.0
  0
LINE
  5
1D3
330
1E
100
AcDbEntity
  8
HILF
100
AcDbLine
 10
419.9999999999999
 20
594.0000000000002
 30
0.0
 11
0.0
 21
594.0
 31
0.0
  0
LINE
  5
1D4
330
1E
100
AcDbEntity
  8
HILF
100
AcDbLine
 10
419.9999999999999
 20
0.0
 30
0.0
 11
0.0
 21
0.0
 31
0.0
  0
LINE
  5
1D5
330
1E
100
AcDbEntity
  8
HILF
100
AcDbLine
 10
31.08767135713856
 20
297.0
 30
0.0
 11
0.0000000000001137
 21
297.0
 31
0.0
  0
TEXT
  5
1D6
330
1E
100
AcDbEntity
  8
TEXT
100
AcDbText
 10
139.8886662448949
 20
73.33699103545173
 30
0.0
 40
3.6
  1
2007
 41
0.8
  7
GREEKS
100
AcDbText
  0
LINE
  5
1D7
330
1E
100
AcDbEntity
  8
HILF
100
AcDbLine
 10
419.9999999999999
 20
-0.0000000000001137
 30
0.0
 11
419.9999999999999
 21
594.0
 31
0.0
  0
TEXT
  5
1D8
330
1E
100
AcDbEntity
  8
VOLL
100
AcDbText
 10
78.07675471698113
 20
31.02594776470585
 30
0.0
 40
1.8
  1

  7
GREEKS
100
AcDbText
  0
TEXT
  5
1D9
330
1E
100
AcDbEntity
  8
TEXT
100
AcDbText
 10
42.25669815425914
 20
111.6719999999999
 30
0.0
 40
5.0
  1
Erstellt mit AUTOCAD 2004
 41
0.8
  7
GREEKS
100
AcDbText
  0
TEXT
  5
1DA
330
1E
100
AcDbEntity
  8
TEXT
100
AcDbText
 10
194.4216048581257
 20
63.0896391972351
 30
0.0
 40
4.0
  1
Koeh
 41
0.8
  7
GREEKS
 72
     1
 11
199.6787477152685
 21
63.0896391972351
 31
0.0
100
AcDbText
  0
TEXT
  5
1DB
330
1E
100
AcDbEntity
  8
TEXT
 62
     1
100
AcDbText
 10
346.972909698401
 20
88.14901428913959
 30
0.0
 40
7.0
  1
58602DB0W
 41
0.8
  7
GREEKS
 72
     1
 11
371.2395763650676
 21
88.14901428913959
 31
0.0
100
AcDbText
  0
TEXT
  5
1DC
330
1E
100
AcDbEntity
  8
TEXT
 62
     1
100
AcDbText
 10
150.5006306481887
 20
88.14901428913959
 30
0.0
 40
7.0
  1
1:2
  7
GREEKS
100
AcDbText
  0
TEXT
  5
1DD
330
1E
100
AcDbEntity
  8
TEXT
100
AcDbText
 10
160.398997108236
 20
63.10765040825732
 30
0.0
 40
4.0
  1
25.09.
 41
0.8
  7
GREEKS
 72
     1
 11
167.4085209177598
 21
63.10765040825732
 31
0.0
100
AcDbText
  0
TEXT
  5
1DE
330
1E
100
AcDbEntity
  8
TEXT
 62
     1
100
AcDbText
 10
225.3291095064849
 20
87.41748789253779
 30
0.0
 40
7.0
  1
Verbundrohr
 41
0.8
  7
GREEKS
100
AcDbText
  0
TEXT
  5
1DF
330
1E
100
AcDbEntity
  8
TEXT
100
AcDbText
 10
225.1296391125315
 20
72.50168891988375
 30
0.0
 40
5.0
  1
Abgleichstück DN100/50
 41
0.8
  7
GREEKS
100
AcDbText
  0
TEXT
  5
1E0
330
1E
100
AcDbEntity
  8
TEXT
100
AcDbText
 10
225.1296391125315
 20
51.64011943042158
 30
0.0
 40
5.0
  1
EDV-Art.Nr. 58602.DB0X
 41
0.8
  7
GREEKS
100
AcDbText
  0
TEXT
  5
1E1
330
1E
100
AcDbEntity
  8
TEXT
100
AcDbText
 10
224.9837501577827
 20
42.62974153022634
 30
0.0
 40
3.6
  1
58602DB0W.DWG
 41
0.8
  7
GREEKS
100
AcDbText
  0
INSERT
  5
1E2
330
1E
100
AcDbEntity
  8
STEMPEL
100
AcDbBlockReference
  2
LOGO
 10
140.9955485457794
 20
45.02105276448321
 30
0.0
 41
2.0
 42
2.0
 43
2.0
  0
TEXT
  5
1E4
330
1E
100
AcDbEntity
  8
VOLL
100
AcDbText
 10
339.7958237333797
 20
71.91957633833147
 30
0.0
 40
1.8
  1

  7
GREEKS
100
AcDbText
  0
TEXT
  5
1E5
330
1E
100
AcDbEntity
  8
TEXT
100
AcDbText
 10
671.6280919369726
 20
77.47781187155701
 30
0.0
 40
2.5
  1
  
  7
GREEKS
 72
     1
 11
673.8899966988774
 21
77.47781187155701
 31
0.0
100
AcDbText
  0
TEXT
  5
1E6
330
1E
100
AcDbEntity
  8
BEM
100
AcDbText
 10
915.7478092494546
 20
213.0366939019592
 30
0.0
 40
2.5
  1
 
 72
     4
 11
916.878761630407
 21
213.0366939019592
 31
0.0
100
AcDbText
  0
TEXT
  5
1E8
330
1E
100
AcDbEntity
  8
BEM
100
AcDbText
 10
454.2848421115471
 20
134.8585024391051
 30
0.0
 40
2.5
  1

  7
GREEKS
100
AcDbText
  0
TEXT
  5
1E9
330
1E
100
AcDbEntity
  8
VOLL
100
AcDbText
 10
440.2186490918256
 20
114.67524178207
 30
0.0
 40
1.8
  1

  7
GREEKS
100
AcDbText
  0
TEXT
  5
1EA
330
1E
100
AcDbEntity
  8
BEM
100
AcDbText
 10
474.7067139311102
 20
119.4009661052905
 30
0.0
 40
2.5
  1

 41
0.8
  7
GREEKS
100
AcDbText
  0
TEXT
  5
1EB
330
1E
100
AcDbEntity
  8
BEM
100
AcDbText
 10
474.7067139311102
 20
114.7071975512384
 30
0.0
 40
2.5
  1

 41
0.8
  7
GREEKS
100
AcDbText
  0
TEXT
  5
1EC
330
1E
100
AcDbEntity
  8
BEM
100
AcDbText
 10
474.7067139311102
 20
109.4693537325749
 30
0.0
 40
2.5
  1

 41
0.8
  7
GREEKS
100
AcDbText
  0
TEXT
  5
1ED
330
1E
100
AcDbEntity
  8
BEM
100
AcDbText
 10
474.6337694537358
 20
104.9641647824773
 30
0.0
 40
1.8
  1

 41
0.8
  7
GREEKS
100
AcDbText
  0
TEXT
  5
1EE
330
1E
100
AcDbEntity
  8
BEM
100
AcDbText
 10
461.9501985741246
 20
130.5557538787025
 30
0.0
 40
2.0
  1

 41
0.8
  7
GREEKS
 72
     1
 11
461.9501985741246
 21
130.5557538787025
 31
0.0
100
AcDbText
  0
TEXT
  5
1EF
330
1E
100
AcDbEntity
  8
TEXT
100
AcDbText
 10
772.0509172954185
 20
120.2334773152955
 30
0.0
 40
2.5
  1
  
  7
GREEKS
 72
     1
 11
774.3128220573233
 21
120.2334773152955
 31
0.0
100
AcDbText
  0
TEXT
  5
1F0
330
1E
100
AcDbEntity
  8
BEM
100
AcDbText
 10
1016.1706346079
 20
255.7923593456977
 30
0.0
 40
2.5
  1
 
 72
     4
 11
1017.301586988853
 21
255.7923593456977
 31
0.0
100
AcDbText
  0
TEXT
  5
1F1
330
1E
100
AcDbEntity
  8
VOLL
100
AcDbText
 10
228.6383494536079
 20
31.18631511162239
 30
0.0
 40
1.8
  1

  7
GREEKS
100
AcDbText
  0
TEXT
  5
1F2
330
1E
100
AcDbEntity
  8
TEXT
100
AcDbText
 10
560.4706176572007
 20
36.74455064484793
 30
0.0
 40
2.5
  1
  
  7
GREEKS
 72
     1
 11
562.7325224191056
 21
36.74455064484793
 31
0.0
100
AcDbText
  0
TEXT
  5
1F3
330
1E
100
AcDbEntity
  8
BEM
100
AcDbText
 10
804.5903349696828
 20
172.3034326752502
 30
0.0
 40
2.5
  1
 
 72
     4
 11
805.7212873506353
 21
172.3034326752502
 31
0.0
100
AcDbText
  0
TEXT
  5
1F4
330
1E
100
AcDbEntity
  8
BEM
100
AcDbText
 10
393.9839625332579
 20
71.33954581020805
 30
0.0
 40
2.5
  1

  7
GREEKS
100
AcDbText
  0
TEXT
  5
1F5
330
1E
100
AcDbEntity
  8
VOLL
100
AcDbText
 10
379.9177695135364
 20
51.15628515317294
 30
0.0
 40
1.8
  1

  7
GREEKS
100
AcDbText
  0
TEXT
  5
1F6
330
1E
100
AcDbEntity
  8
BEM
100
AcDbText
 10
414.4058343528211
 20
55.88200947639354
 30
0.0
 40
2.5
  1

 41
0.8
  7
GREEKS
100
AcDbText
  0
TEXT
  5
1F7
330
1E
100
AcDbEntity
  8
BEM
100
AcDbText
 10
414.4058343528211
 20
51.18824092234138
 30
0.0
 40
2.5
  1

 41
0.8
  7
GREEKS
100
AcDbText
  0
TEXT
  5
1F8
330
1E
100
AcDbEntity
  8
BEM
100
AcDbText
 10
414.4058343528211
 20
45.95039710367788
 30
0.0
 40
2.5
  1

 41
0.8
  7
GREEKS
100
AcDbText
  0
TEXT
  5
1F9
330
1E
100
AcDbEntity
  8
BEM
100
AcDbText
 10
414.3328898754466
 20
41.44520815358026
 30
0.0
 40
1.8
  1

 41
0.8
  7
GREEKS
100
AcDbText
  0
TEXT
  5
1FA
330
1E
100
AcDbEntity
  8
BEM
100
AcDbText
 10
401.6493189958354
 20
67.03679724980554
 30
0.0
 40
2.0
  1

 41
0.8
  7
GREEKS
 72
     1
 11
401.6493189958354
 21
67.03679724980554
 31
0.0
100
AcDbText
  0
TEXT
  5
1FB
330
1E
100
AcDbEntity
  8
TEXT
100
AcDbText
 10
711.7500377171293
 20
56.71452068639848
 30
0.0
 40
2.5
  1
  
  7
GREEKS
 72
     1
 11
714.0119424790341
 21
56.71452068639848
 31
0.0
100
AcDbText
  0
TEXT
  5
1FC
330
1E
100
AcDbEntity
  8
BEM
100
AcDbText
 10
955.8697550296114
 20
192.2734027168007
 30
0.0
 40
2.5
  1
 
 72
     4
 11
957.0007074105637
 21
192.2734027168007
 31
0.0
100
AcDbText
  0
TEXT
  5
24B
330
1E
100
AcDbEntity
  8
TEXT
 62
     1
100
AcDbText
 10
79.72085016327972
 20
219.3150212575995
 30
0.0
 40
7.0
  1
Rohrende leicht eingezogen
 41
0.8
  7
GREEKS
100
AcDbText
  0
TEXT
  5
26A
330
1E
100
AcDbEntity
  8
TEXT
100
AcDbText
 10
184.2858954734051
 20
90.23051188311759
 30
0.0
 40
4.0
  1
DIN EN1123-2
 41
0.8
  7
GREEKS
100
AcDbText
  0
TEXT
  5
2ED
330
1E
100
AcDbEntity
  8
TEXT
100
AcDbText
 10
99.98381106419387
 20
18.97240706006074
 30
0.0
 40
4.0
  1
Tag
 41
0.8
  7
GREEKS
 72
     4
 11
103.7171443975272
 21
20.30574039339407
 31
0.0
100
AcDbText
  0
TEXT
  5
2EE
330
1E
100
AcDbEntity
  8
TEXT
100
AcDbText
 10
118.0779538781902
 20
18.30574039339407
 30
0.0
 40
4.0
  1
Name
 41
0.8
  7
GREEKS
 72
     4
 11
124.4017634019997
 21
20.30574039339407
 31
0.0
100
AcDbText
  0
TEXT
  5
54A
330
1E
100
AcDbEntity
  8
VOLL
100
AcDbText
 10
305.2666505177693
 20
60.9917365573275
 30
0.0
 40
1.8
  1

  7
GREEKS
100
AcDbText
  0
TEXT
  5
558
330
1E
100
AcDbEntity
  8
BEM
100
AcDbText
 10
779.8708637178527
 20
75.83979991258411
 30
0.0
 40
2.5
  1

 41
0.8
  7
GREEKS
 72
     4
 11
779.8708637178527
 21
75.83979991258411
 31
0.0
100
AcDbText
  0
TEXT
  5
6F0
330
1E
100
AcDbEntity
  8
TEXT
100
AcDbText
 10
416.5811541437436
 20
12.14804815338303
 30
0.0
 40
4.0
  1
Diese Zeichnung ist urheberrechtlich geschützt und bleibt unser Eigentum. Sie darf weder ganz noch teilweise vervielfältigt und nicht an Dritte weitergegeben werden.
 50
90.0
 41
0.8
  7
GREEKS
100
AcDbText
  0
TEXT
  5
6FA
330
1E
100
AcDbEntity
  8
TEXT
 62
     1
100
AcDbText
 10
245.030129115258
 20
129.7422179729062
 30
0.0
 40
7.0
  1
und innenbeschichtet
 41
0.8
  7
GREEKS
100
AcDbText
  0
TEXT
  5
6FB
330
1E
100
AcDbEntity
  8
TEXT
 62
     1
100
AcDbText
 10
189.8811895945471
 20
117.1473825875242
 30
0.0
 40
7.0
  1
Dämmung: 2 K-PU-Schaum
 41
0.8
  7
GREEKS
100
AcDbText
  0
TEXT
  5
6FC
330
1E
100
AcDbEntity
  8
TEXT
 62
     1
100
AcDbText
 10
197.3756002392442
 20
141.011271812132
 30
0.0
 40
7.0
  1
Innenrohr: E195 EN10305 feuerverzinkt
 41
0.8
  7
GREEKS
100
AcDbText
  0
TEXT
  5
6FD
330
1E
100
AcDbEntity
  8
TEXT
 62
     1
100
AcDbText
 10
193.6033828683802
 20
152.364339848487
 30
0.0
 40
7.0
  1
Außenrohr: E195 EN10305 feuerverzinkt
 41
0.8
  7
GREEKS
100
AcDbText
  0
DIMENSION
  5
13C3
330
1E
100
AcDbEntity
  8
BEM
100
AcDbDimension
  2
*D3
 10
271.0117054987859
 20
233.6792325291794
 30
0.0
 11
226.5117054987859
 21
240.1792325291794
 31
0.0
 70
    32
  1
%%c<>
 71
     5
 42
89.0
  3
Standard
100
AcDbAlignedDimension
 13
182.0117054987859
 23
299.2102784901281
 33
0.0
 14
271.0117054987859
 24
299.2102784901281
 34
0.0
100
AcDbRotatedDimension
1001
ACAD
1000
DSTYLE
1002
{
1070
    40
1040
2.0
1070
    41
1040
3.5
1070
    42
1040
1.0
1070
    43
1040
7.0
1070
    44
1040
1.0
1070
    47
1040
0.15
1070
    48
1040
0.15
1070
    73
1070
     0
1070
    74
1070
     0
1070
    77
1070
     1
1070
    78
1070
     8
1070
    79
1070
     2
1070
   140
1040
3.5
1070
   141
1040
1.5
1070
   146
1040
0.5142857142857144
1070
   147
1040
1.5
1070
   172
1070
     1
1070
   178
1070
     1
1070
   179
1070
     2
1070
   271
1070
     2
1070
   272
1070
     2
1070
   284
1070
     8
1070
   285
1070
     8
1070
   286
1070
     8
1002
}
  0
DIMENSION
  5
13C4
330
1E
100
AcDbEntity
  8
BEM
100
AcDbDimension
  2
*D4
 10
200.0117054987859
 20
251.3152284158259
 30
0.0
 11
226.5117054987859
 21
257.8152284158259
 31
0.0
 70
    32
  1
%%c<>
 71
     5
 42
53.0
  3
Standard
100
AcDbAlignedDimension
 13
253.0117054987859
 23
279.1447870757656
 33
0.0
 14
200.0117054987859
 24
279.1447870757659
 34
0.0
100
AcDbRotatedDimension
1001
ACAD
1000
DSTYLE
1002
{
1070
    40
1040
2.0
1070
    41
1040
3.5
1070
    42
1040
1.0
1070
    43
1040
7.0
1070
    44
1040
1.0
1070
    47
1040
0.15
1070
    48
1040
0.15
1070
    73
1070
     0
1070
    74
1070
     0
1070
    77
1070
     1
1070
    78
1070
     8
1070
    79
1070
     2
1070
   140
1040
3.5
1070
   141
1040
1.5
1070
   146
1040
0.5142857142857144
1070
   147
1040
1.5
1070
   172
1070
     1
1070
   178
1070
     1
1070
   179
1070
     2
1070
   271
1070
     2
1070
   272
1070
     2
1070
   284
1070
     8
1070
   285
1070
     8
1070
   286
1070
     8
1002
}
  0
DIMENSION
  5
13C5
330
1E
100
AcDbEntity
  8
BEM
100
AcDbDimension
  2
*D5
 10
293.0117054987859
 20
483.5800258827978
 30
0.0
 11
226.5117054987859
 21
490.0800258827977
 31
0.0
 70
    32
  1
%%c<>
 71
     5
 42
133.0
  3
Standard
100
AcDbAlignedDimension
 13
160.0117054987858
 23
466.2102784901279
 33
0.0
 14
293.0117054987859
 24
466.2102784901279
 34
0.0
100
AcDbRotatedDimension
1001
ACAD
1000
DSTYLE
1002
{
1070
    40
1040
2.0
1070
    41
1040
3.5
1070
    42
1040
1.0
1070
    43
1040
7.0
1070
    44
1040
1.0
1070
    47
1040
0.15
1070
    48
1040
0.15
1070
    73
1070
     0
1070
    74
1070
     0
1070
    77
1070
     1
1070
    78
1070
     8
1070
    79
1070
     2
1070
   140
1040
3.5
1070
   141
1040
1.5
1070
   146
1040
0.5142857142857144
1070
   147
1040
1.5
1070
   172
1070
     1
1070
   178
1070
     1
1070
   179
1070
     2
1070
   271
1070
     2
1070
   272
1070
     2
1070
   284
1070
     8
1070
   285
1070
     8
1070
   286
1070
     8
1002
}
  0
HATCH
  5
13C8
330
1E
100
AcDbEntity
  8
SCHRAFF
100
AcDbHatch
 10
0.0
 20
0.0
 30
0.0
210
0.0
220
0.0
230
1.0
  2
NET
 70
     0
 71
     0
 91
        2
 92
        7
 72
     1
 73
     1
 93
        6
 10
285.5117054987859
 20
453.6055270275569
 42
0.0
 10
285.5117054987859
 20
452.2102784901282
 42
0.0
 10
290.5117054987859
 20
452.2102784901281
 42
0.0
 10
290.5117054987859
 20
466.2102784901281
 42
0.0
 10
282.2184613367107
 20
466.2102784901281
 42
0.0
 10
283.1694001747021
 20
464.1709835710746
 42
-0.109517811683244
 97
        0
 92
        7
 72
     1
 73
     1
 93
        6
 10
169.8540108228696
 20
464.1709835710746
 42
0.0
 10
170.8049496608609
 20
466.2102784901279
 42
0.0
 10
162.5117054987858
 20
466.2102784901279
 42
0.0
 10
162.5117054987858
 20
452.2102784901281
 42
0.0
 10
167.5117054987859
 20
452.2102784901279
 42
0.0
 10
167.5117054987859
 20
453.6055270275569
 42
-0.109517811683244
 97
        0
 75
     0
 76
     1
 52
45.0
 41
15.0
 77
     0
 78
     2
 53
45.0
 43
13.02295908597398
 44
-11.52469620425245
 45
-1.325825214724776
 46
1.325825214724776
 79
     0
 53
135.0
 43
13.02295908597398
 44
-11.52469620425245
 45
-1.325825214724776
 46
-1.325825214724776
 79
     0
 47
0.4132034832030908
 98
        2
 10
286.873025488233
 20
461.0041872085077
 10
166.5414472497946
 20
461.0041872085077
  0
INSERT
  5
13CB
330
1E
100
AcDbEntity
  8
SCHRAFF
100
AcDbBlockReference
  2
*X1
 10
-367.7078395470451
 20
-14.68544899200219
 30
0.0
1001
ACAD
1000
HATCH
1002
{
1070
    16
1000
_U,I
1040
0.1
1040
2.356194490192344
1070
     0
1002
}
  0
LINE
  5
13CD
330
1E
100
AcDbEntity
  8
HILF
  6
Continuous
100
AcDbLine
 10
202.5749275395769
 20
351.7102784901281
 30
0.0
 11
250.4484834579948
 21
351.7102784901282
 31
0.0
  0
LINE
  5
13D1
330
1E
100
AcDbEntity
  8
HILF
  6
Continuous
100
AcDbLine
 10
181.8213456361855
 20
380.7102784901281
 30
0.0
 11
271.2020653613866
 21
380.7102784901281
 31
0.0
  0
LINE
  5
13D2
330
1E
100
AcDbEntity
  8
HILF
  6
Continuous
100
AcDbLine
 10
203.0117054987859
 20
279.2102784901281
 30
0.0
 11
250.0117054987859
 21
279.2102784901282
 31
0.0
  0
LINE
  5
13D3
102
{ACAD_REACTORS
330
160A
102
}
330
1E
100
AcDbEntity
  8
STEMPEL
  6
Continuous
100
AcDbLine
 10
200.7058850506783
 20
271.2102784901281
 30
0.0
 11
252.3175259468935
 21
271.2102784901282
 31
0.0
  0
LINE
  5
13D4
102
{ACAD_REACTORS
330
160A
330
1675
102
}
330
1E
100
AcDbEntity
  8
STEMPEL
  6
Continuous
100
AcDbLine
 10
186.5117054987859
 20
370.7102784901281
 30
0.0
 11
266.5117054987877
 21
370.7102784901297
 31
0.0
  0
LINE
  5
13D5
102
{ACAD_REACTORS
330
1623
330
1675
102
}
330
1E
100
AcDbEntity
  8
STEMPEL
  6
Continuous
100
AcDbLine
 10
160.0117054987858
 20
466.2102784901279
 30
0.0
 11
293.011705498786
 21
466.2102784901281
 31
0.0
  0
DIMENSION
  5
13D7
330
1E
100
AcDbEntity
  8
BEM
100
AcDbDimension
  2
*D2
 10
143.7325367821645
 20
271.2102784901281
 30
0.0
 11
137.2325367821645
 21
368.7102784901281
 31
0.0
 70
    32
 71
     5
 42
194.9999999999998
  3
Standard
100
AcDbAlignedDimension
 13
160.0117054987858
 23
466.2102784901279
 33
0.0
 14
200.7058850506783
 24
271.2102784901281
 34
0.0
 50
90.0
100
AcDbRotatedDimension
1001
ACAD
1000
DSTYLE
1002
{
1070
    40
1040
2.0
1070
    41
1040
3.5
1070
    42
1040
1.0
1070
    43
1040
7.0
1070
    44
1040
1.0
1070
    47
1040
0.15
1070
    48
1040
0.15
1070
    73
1070
     0
1070
    74
1070
     0
1070
    77
1070
     1
1070
    78
1070
     8
1070
    79
1070
     2
1070
   140
1040
3.5
1070
   141
1040
1.5
1070
   146
1040
0.5142857142857144
1070
   147
1040
1.5
1070
   172
1070
     1
1070
   178
1070
     1
1070
   179
1070
     2
1070
   271
1070
     2
1070
   272
1070
     2
1070
   284
1070
     8
1070
   285
1070
     8
1070
   286
1070
     8
1002
}
  0
LINE
  5
13D8
102
{ACAD_REACTORS
330
160A
102
}
330
1E
100
AcDbEntity
  8
STEMPEL
100
AcDbLine
 10
201.5117054987859
 20
348.1168728922834
 30
0.0
 11
201.5117054987859
 21
279.2102784901282
 31
0.0
  0
LINE
  5
13D9
102
{ACAD_REACTORS
330
160A
330
16AB
102
}
330
1E
100
AcDbEntity
  8
STEMPEL
100
AcDbLine
 10
200.0117054987859
 20
348.1168728922834
 30
0.0
 11
200.0117054987859
 21
279.1447870757659
 31
0.0
  0
LINE
  5
13DA
102
{ACAD_REACTORS
330
160A
102
}
330
1E
100
AcDbEntity
  8
STEMPEL
100
AcDbLine
 10
200.0117054987859
 20
279.1447870757659
 30
0.0
 11
200.7058850506783
 21
271.2102784901281
 31
0.0
  0
LINE
  5
13DB
102
{ACAD_REACTORS
330
160A
102
}
330
1E
100
AcDbEntity
  8
STEMPEL
100
AcDbLine
 10
201.5117054987859
 20
279.2102784901282
 30
0.0
 11
202.2116148069933
 21
271.2102784901281
 31
0.0
  0
ARC
  5
13DE
102
{ACAD_REACTORS
330
1623
102
}
330
1E
100
AcDbEntity
  8
STEMPEL
100
AcDbCircle
 10
182.5117054987858
 20
388.2790222421308
 30
0.0
 40
22.5
100
AcDbArc
 50
180.0
 51
217.1847064532318
  0
ARC
  5
13DF
102
{ACAD_REACTORS
330
1623
330
16AB
102
}
330
1E
100
AcDbEntity
  8
STEMPEL
100
AcDbCircle
 10
182.5117054987858
 20
388.2790222421308
 30
0.0
 40
20.0
100
AcDbArc
 50
180.0
 51
217.1847064532318
  0
ARC
  5
13E1
102
{ACAD_REACTORS
330
1675
102
}
330
1E
100
AcDbEntity
  8
STEMPEL
100
AcDbCircle
 10
191.5117054987859
 20
387.788196668046
 30
0.0
 40
14.0
100
AcDbArc
 50
180.0
 51
227.7263109939063
  0
ARC
  5
13E2
102
{ACAD_REACTORS
330
1675
330
16AB
102
}
330
1E
100
AcDbEntity
  8
STEMPEL
100
AcDbCircle
 10
191.5117054987859
 20
387.788196668046
 30
0.0
 40
16.0
100
AcDbArc
 50
180.0
 51
227.7263109939063
  0
LINE
  5
13E3
102
{ACAD_REACTORS
330
16AB
102
}
330
1E
100
AcDbEntity
  8
STEMPEL
100
AcDbLine
 10
200.0117054987859
 20
317.210278490128
 30
0.0
 11
184.170437810654
 21
317.2102784901281
 31
0.0
  0
LINE
  5
13E5
102
{ACAD_REACTORS
330
163C
102
}
330
1E
100
AcDbEntity
  8
STEMPEL
  6
Continuous
100
AcDbLine
 10
182.0117054987859
 20
301.2102784901281
 30
0.0
 11
183.6117054987859
 21
301.2102784901282
 31
0.0
  0
LINE
  5
13E6
102
{ACAD_REACTORS
330
160A
102
}
330
1E
100
AcDbEntity
  8
STEMPEL
100
AcDbLine
 10
199.2898361090792
 20
355.5366956622131
 30
0.0
 11
189.3072158275561
 21
370.7102784901282
 31
0.0
  0
LINE
  5
13E7
102
{ACAD_REACTORS
330
160A
330
16AB
102
}
330
1E
100
AcDbEntity
  8
STEMPEL
100
AcDbLine
 10
198.0367104857132
 20
354.7122709099987
 30
0.0
 11
187.5117054987859
 21
370.7102784901281
 31
0.0
  0
LINE
  5
13E8
102
{ACAD_REACTORS
330
163C
330
16AB
102
}
330
1E
100
AcDbEntity
  8
STEMPEL
100
AcDbLine
 10
183.6117054987859
 20
344.9825062661258
 30
0.0
 11
183.6117054987859
 21
301.2102784901281
 31
0.0
  0
LINE
  5
13E9
102
{ACAD_REACTORS
330
163C
102
}
330
1E
100
AcDbEntity
  8
STEMPEL
100
AcDbLine
 10
182.0117054987859
 20
344.9825062661258
 30
0.0
 11
182.0117054987859
 21
299.2102784901281
 31
0.0
  0
LINE
  5
13EA
102
{ACAD_REACTORS
330
16AB
102
}
330
1E
100
AcDbEntity
  8
STEMPEL
100
AcDbLine
 10
183.6117054987859
 20
301.2102784901281
 30
0.0
 11
184.1704378106538
 21
317.2102784901282
 31
0.0
  0
POINT
  5
13EB
330
1E
100
AcDbEntity
  8
STEMPEL
100
AcDbPoint
 10
184.1704378106538
 20
317.2102784901282
 30
0.0
  0
POINT
  5
13EC
330
1E
100
AcDbEntity
  8
STEMPEL
100
AcDbPoint
 10
189.0117054987859
 20
317.2102784901282
 30
0.0
  0
LINE
  5
13EE
102
{ACAD_REACTORS
330
163C
330
16AB
102
}
330
1E
100
AcDbEntity
  8
STEMPEL
100
AcDbLine
 10
179.2202369502776
 20
358.0372542638092
 30
0.0
 11
173.0200116751391
 21
366.2102784901281
 31
0.0
  0
LINE
  5
13EF
102
{ACAD_REACTORS
330
1623
330
16AB
102
}
330
1E
100
AcDbEntity
  8
STEMPEL
100
AcDbLine
 10
174.1496838993379
 20
366.2102784901281
 30
0.0
 11
166.577880080738
 21
376.1912926146461
 31
0.0
  0
LINE
  5
13F0
102
{ACAD_REACTORS
330
163C
102
}
330
1E
100
AcDbEntity
  8
STEMPEL
100
AcDbLine
 10
177.9455309168338
 20
357.0702358936104
 30
0.0
 11
171.0117054987859
 21
366.2102784901282
 31
0.0
  0
LINE
  5
13F1
102
{ACAD_REACTORS
330
1623
330
163C
330
16AB
102
}
330
1E
100
AcDbEntity
  8
STEMPEL
100
AcDbLine
 10
174.1496838993378
 20
366.2102784901281
 30
0.0
 11
171.0117054987859
 21
366.2102784901281
 31
0.0
  0
LINE
  5
13F2
102
{ACAD_REACTORS
330
1623
102
}
330
1E
100
AcDbEntity
  8
STEMPEL
100
AcDbLine
 10
171.0117054987859
 20
366.2102784901282
 30
0.0
 11
164.586151903482
 21
374.6803264112106
 31
0.0
  0
HATCH
  5
13F3
330
1E
100
AcDbEntity
  8
SCHRAFF
100
AcDbHatch
 10
0.0
 20
0.0
 30
0.0
210
0.0
220
0.0
230
1.0
  2
_USER
 70
     0
 71
     0
 91
        1
 92
        7
 72
     1
 73
     1
 93
        3
 10
171.0117054987859
 20
366.2102784901282
 42
0.0
 10
168.7358434298204
 20
369.2102784901281
 42
0.4493362276241506
 10
173.2875675677515
 20
363.210278490128
 42
0.0
 97
        0
 75
     0
 76
     0
 52
0.0
 41
0.1
 77
     0
 78
     1
 53
0.0
 43
13.02295908597398
 44
-11.52469620425245
 45
0.0
 46
0.1
 79
     0
 47
0.037238850535134
 98
        1
 10
171.3346291427406
 20
365.3180129138311
  0
ARC
  5
13F4
330
1E
100
AcDbEntity
  8
SCHRAFF
100
AcDbCircle
 10
173.6759585863828
 20
368.2314360048567
 30
0.0
 40
5.036156309237244
100
AcDbArc
 50
168.7924853409079
 51
265.5769275655559
  0
ARC
  5
13F5
102
{ACAD_REACTORS
330
163C
330
16AB
102
}
330
1E
100
AcDbEntity
  8
STEMPEL
100
AcDbCircle
 10
162.0117054987859
 20
344.9825062661258
 30
0.0
 40
21.6
100
AcDbArc
 50
0.0
 51
37.18470645323183
  0
ARC
  5
13F6
102
{ACAD_REACTORS
330
163C
102
}
330
1E
100
AcDbEntity
  8
STEMPEL
100
AcDbCircle
 10
162.0117054987859
 20
344.9825062661258
 30
0.0
 40
20.0
100
AcDbArc
 50
0.0
 51
37.18470645323183
  0
LINE
  5
13F7
102
{ACAD_REACTORS
330
1675
330
16AB
102
}
330
1E
100
AcDbEntity
  8
STEMPEL
100
AcDbLine
 10
180.7489407948449
 20
375.9491554937109
 30
0.0
 11
186.5117054987859
 21
370.7102784901281
 31
0.0
  0
ARC
  5
13F8
102
{ACAD_REACTORS
330
16AB
102
}
330
1E
100
AcDbEntity
  8
SCHRAFF
100
AcDbCircle
 10
186.5117054987859
 20
370.7102784901281
 30
0.0
 40
3.0
100
AcDbArc
 50
137.7263109939038
 51
319.5097589128943
  0
LINE
  5
13F9
102
{ACAD_REACTORS
330
1675
102
}
330
1E
100
AcDbEntity
  8
STEMPEL
100
AcDbLine
 10
182.0942863828377
 20
377.4290356405027
 30
0.0
 11
189.4849192482497
 21
370.7102784901282
 31
0.0
  0
POINT
  5
13FA
330
1E
100
AcDbEntity
  8
DEFPOINTS
  6
ByBlock
 62
     0
100
AcDbPoint
 10
187.5117054987859
 20
370.7102784901281
 30
0.0
  0
POINT
  5
13FB
330
1E
100
AcDbEntity
  8
DEFPOINTS
  6
ByBlock
 62
     0
100
AcDbPoint
 10
186.5117054987859
 20
370.7102784901281
 30
0.0
  0
LINE
  5
13FC
330
1E
100
AcDbEntity
  8
STEMPEL
100
AcDbLine
 10
200.0117054987859
 20
307.2102784901281
 30
0.0
 11
196.0117054987859
 21
307.2102784901281
 31
0.0
  0
POINT
  5
13FF
330
1E
100
AcDbEntity
  8
STEMPEL
100
AcDbPoint
 10
196.0117054987859
 20
307.2102784901281
 30
0.0
  0
POINT
  5
1400
330
1E
100
AcDbEntity
  8
STEMPEL
100
AcDbPoint
 10
196.0117054987859
 20
307.2102784901281
 30
0.0
  0
POINT
  5
1402
330
1E
100
AcDbEntity
  8
STEMPEL
100
AcDbPoint
 10
195.0117054987859
 20
317.2102784901281
 30
0.0
  0
TEXT
  5
1404
330
1E
100
AcDbEntity
  8
TEXT
 62
     1
100
AcDbText
 10
221.6426177032931
 20
294.5626561875112
 30
0.0
 40
7.0
  1
DN50
 50
90.0
 41
0.8
  7
GREEKS
100
AcDbText
  0
ARC
  5
1405
102
{ACAD_REACTORS
330
160A
102
}
330
1E
100
AcDbEntity
  8
STEMPEL
100
AcDbCircle
 10
188.0117054987859
 20
348.1168728922834
 30
0.0
 40
13.5
100
AcDbArc
 50
0.0
 51
33.3407073464748
  0
ARC
  5
1406
102
{ACAD_REACTORS
330
160A
330
16AB
102
}
330
1E
100
AcDbEntity
  8
STEMPEL
100
AcDbCircle
 10
188.0117054987859
 20
348.1168728922834
 30
0.0
 40
12.0
100
AcDbArc
 50
0.0
 51
33.3407073464748
  0
LINE
  5
1407
102
{ACAD_REACTORS
330
1623
330
16AB
102
}
330
1E
100
AcDbEntity
  8
STEMPEL
100
AcDbLine
 10
162.5117054987858
 20
466.2102784901279
 30
0.0
 11
162.5117054987858
 21
388.2790222421308
 31
0.0
  0
LINE
  5
1408
102
{ACAD_REACTORS
330
1623
102
}
330
1E
100
AcDbEntity
  8
STEMPEL
100
AcDbLine
 10
160.0117054987858
 20
466.2102784901279
 30
0.0
 11
160.0117054987858
 21
388.2790222421308
 31
0.0
  0
LINE
  5
1411
330
1E
100
AcDbEntity
  8
STEMPEL
  6
Continuous
100
AcDbLine
 10
177.5117054987859
 20
390.1762859702602
 30
0.0
 11
177.5117054987859
 21
387.7881966680456
 31
0.0
  0
LINE
  5
1412
330
1E
100
AcDbEntity
  8
STEMPEL
  6
Continuous
100
AcDbLine
 10
175.5117054987859
 20
390.1762859702602
 30
0.0
 11
175.5117054987859
 21
387.7881966680456
 31
0.0
  0
POINT
  5
1413
330
1E
100
AcDbEntity
  8
DEFPOINTS
  6
ByBlock
 62
     0
100
AcDbPoint
 10
175.5117054987859
 20
387.7881966680456
 30
0.0
  0
LINE
  5
1419
102
{ACAD_REACTORS
330
16AB
102
}
330
1E
100
AcDbEntity
  8
STEMPEL
  6
Continuous
100
AcDbLine
 10
162.5117054987858
 20
452.210278490128
 30
0.0
 11
167.5117054987859
 21
452.2102784901279
 31
0.0
  0
TEXT
  5
141E
330
1E
100
AcDbEntity
  8
TEXT
 62
     1
100
AcDbText
 10
221.6426177032931
 20
427.2624227548695
 30
0.0
 40
7.0
  1
DN100
 50
90.0
 41
0.8
  7
GREEKS
100
AcDbText
  0
LINE
  5
141F
102
{ACAD_REACTORS
330
160A
102
}
330
1E
100
AcDbEntity
  8
STEMPEL
100
AcDbLine
 10
251.5117054987859
 20
348.1168728922836
 30
0.0
 11
251.5117054987859
 21
279.2102784901277
 31
0.0
  0
LINE
  5
1420
102
{ACAD_REACTORS
330
160A
330
16AB
102
}
330
1E
100
AcDbEntity
  8
STEMPEL
100
AcDbLine
 10
253.0117054987859
 20
348.1168728922836
 30
0.0
 11
253.0117054987859
 21
279.1447870757656
 31
0.0
  0
LINE
  5
1421
330
1E
100
AcDbEntity
  8
MITTEL
100
AcDbLine
 10
226.5117054987859
 20
471.210278490128
 30
0.0
 11
226.5117054987859
 21
266.2102784901281
 31
0.0
  0
LINE
  5
1426
102
{ACAD_REACTORS
330
160A
102
}
330
1E
100
AcDbEntity
  8
STEMPEL
100
AcDbLine
 10
251.5117054987859
 20
279.2102784901277
 30
0.0
 11
250.8117961905784
 21
271.2102784901282
 31
0.0
  0
LINE
  5
1427
102
{ACAD_REACTORS
330
160A
102
}
330
1E
100
AcDbEntity
  8
STEMPEL
100
AcDbLine
 10
253.0117054987859
 20
279.1447870757656
 30
0.0
 11
252.3175259468935
 21
271.2102784901282
 31
0.0
  0
LINE
  5
1428
102
{ACAD_REACTORS
330
16AB
102
}
330
1E
100
AcDbEntity
  8
STEMPEL
  6
Continuous
100
AcDbLine
 10
285.5117054987859
 20
452.2102784901281
 30
0.0
 11
290.5117054987859
 21
452.2102784901281
 31
0.0
  0
ARC
  5
1429
102
{ACAD_REACTORS
330
1623
330
16AB
102
}
330
1E
100
AcDbEntity
  8
STEMPEL
100
AcDbCircle
 10
270.5117054987859
 20
388.2790222421308
 30
0.0
 40
20.0
100
AcDbArc
 50
322.8152935467682
 51
0.0
  0
ARC
  5
142A
102
{ACAD_REACTORS
330
1623
102
}
330
1E
100
AcDbEntity
  8
STEMPEL
100
AcDbCircle
 10
270.5117054987859
 20
388.2790222421308
 30
0.0
 40
22.5
100
AcDbArc
 50
322.8152935467682
 51
0.0
  0
ARC
  5
142C
102
{ACAD_REACTORS
330
1675
330
16AB
102
}
330
1E
100
AcDbEntity
  8
STEMPEL
100
AcDbCircle
 10
261.5117054987859
 20
387.788196668046
 30
0.0
 40
16.0
100
AcDbArc
 50
312.2736890060937
 51
0.0
  0
ARC
  5
142D
102
{ACAD_REACTORS
330
1675
102
}
330
1E
100
AcDbEntity
  8
STEMPEL
100
AcDbCircle
 10
261.5117054987859
 20
387.788196668046
 30
0.0
 40
14.0
100
AcDbArc
 50
312.2736890060937
 51
0.0
  0
LINE
  5
142E
102
{ACAD_REACTORS
330
163C
102
}
330
1E
100
AcDbEntity
  8
STEMPEL
  6
Continuous
100
AcDbLine
 10
269.4117054987859
 20
301.2102784901283
 30
0.0
 11
271.0117054987859
 21
301.2102784901283
 31
0.0
  0
LINE
  5
142F
330
1E
100
AcDbEntity
  8
STEMPEL
100
AcDbLine
 10
257.0117054987859
 20
307.2102784901281
 30
0.0
 11
253.0117054987859
 21
307.2102784901282
 31
0.0
  0
LINE
  5
1430
102
{ACAD_REACTORS
330
16AB
102
}
330
1E
100
AcDbEntity
  8
STEMPEL
100
AcDbLine
 10
268.852973186918
 20
317.2102784901282
 30
0.0
 11
253.0117054987858
 21
317.2102784901281
 31
0.0
  0
LINE
  5
1431
102
{ACAD_REACTORS
330
160A
102
}
330
1E
100
AcDbEntity
  8
STEMPEL
100
AcDbLine
 10
253.7335748884925
 20
355.536695662213
 30
0.0
 11
263.7161951700159
 21
370.7102784901297
 31
0.0
  0
LINE
  5
1432
102
{ACAD_REACTORS
330
160A
330
16AB
102
}
330
1E
100
AcDbEntity
  8
STEMPEL
100
AcDbLine
 10
254.9867005118583
 20
354.7122709099986
 30
0.0
 11
265.5117054987859
 21
370.7102784901297
 31
0.0
  0
ARC
  5
1433
102
{ACAD_REACTORS
330
160A
102
}
330
1E
100
AcDbEntity
  8
STEMPEL
100
AcDbCircle
 10
265.0117054987859
 20
348.1168728922836
 30
0.0
 40
13.5
100
AcDbArc
 50
146.6592926535256
 51
180.0
  0
ARC
  5
1434
102
{ACAD_REACTORS
330
160A
330
16AB
102
}
330
1E
100
AcDbEntity
  8
STEMPEL
100
AcDbCircle
 10
265.0117054987859
 20
348.1168728922836
 30
0.0
 40
12.0
100
AcDbArc
 50
146.6592926535256
 51
180.0
  0
LINE
  5
1435
102
{ACAD_REACTORS
330
163C
102
}
330
1E
100
AcDbEntity
  8
STEMPEL
100
AcDbLine
 10
271.0117054987859
 20
344.9825062661258
 30
0.0
 11
271.0117054987858
 21
299.2102784901276
 31
0.0
  0
LINE
  5
1436
102
{ACAD_REACTORS
330
163C
330
16AB
102
}
330
1E
100
AcDbEntity
  8
STEMPEL
100
AcDbLine
 10
269.4117054987859
 20
344.9825062661258
 30
0.0
 11
269.4117054987859
 21
301.2102784901281
 31
0.0
  0
LINE
  5
1437
102
{ACAD_REACTORS
330
16AB
102
}
330
1E
100
AcDbEntity
  8
STEMPEL
100
AcDbLine
 10
269.411705498786
 20
301.2102784901281
 30
0.0
 11
268.852973186918
 21
317.2102784901282
 31
0.0
  0
POINT
  5
1439
330
1E
100
AcDbEntity
  8
STEMPEL
100
AcDbPoint
 10
257.0117054987859
 20
307.2102784901281
 30
0.0
  0
POINT
  5
143C
330
1E
100
AcDbEntity
  8
STEMPEL
100
AcDbPoint
 10
261.0117054987859
 20
317.2102784901282
 30
0.0
  0
POINT
  5
143E
330
1E
100
AcDbEntity
  8
STEMPEL
100
AcDbPoint
 10
268.852973186918
 20
317.2102784901282
 30
0.0
  0
ARC
  5
143F
102
{ACAD_REACTORS
330
163C
102
}
330
1E
100
AcDbEntity
  8
STEMPEL
100
AcDbCircle
 10
291.0117054987859
 20
344.9825062661258
 30
0.0
 40
20.0
100
AcDbArc
 50
142.8152935467682
 51
180.0
  0
ARC
  5
1440
102
{ACAD_REACTORS
330
163C
330
16AB
102
}
330
1E
100
AcDbEntity
  8
STEMPEL
100
AcDbCircle
 10
291.0117054987859
 20
344.9825062661258
 30
0.0
 40
21.6
100
AcDbArc
 50
142.8152935467682
 51
180.0
  0
LINE
  5
1441
102
{ACAD_REACTORS
330
1675
330
16AB
102
}
330
1E
100
AcDbEntity
  8
STEMPEL
100
AcDbLine
 10
272.2744702027269
 20
375.9491554937109
 30
0.0
 11
266.5117054987859
 21
370.7102784901281
 31
0.0
  0
ARC
  5
1442
102
{ACAD_REACTORS
330
16AB
102
}
330
1E
100
AcDbEntity
  8
SCHRAFF
100
AcDbCircle
 10
266.5117054987877
 20
370.7102784901297
 30
0.0
 40
3.0
100
AcDbArc
 50
220.4902410870758
 51
42.27368900609614
  0
LINE
  5
1443
102
{ACAD_REACTORS
330
1675
102
}
330
1E
100
AcDbEntity
  8
STEMPEL
100
AcDbLine
 10
270.9291246147341
 20
377.4290356405027
 30
0.0
 11
263.5384917493222
 21
370.7102784901282
 31
0.0
  0
POINT
  5
1444
330
1E
100
AcDbEntity
  8
DEFPOINTS
  6
ByBlock
 62
     0
100
AcDbPoint
 10
265.5117054987859
 20
370.7102784901297
 30
0.0
  0
POINT
  5
1445
330
1E
100
AcDbEntity
  8
DEFPOINTS
  6
ByBlock
 62
     0
100
AcDbPoint
 10
266.5117054987859
 20
370.7102784901281
 30
0.0
  0
LINE
  5
1446
102
{ACAD_REACTORS
330
1623
330
163C
330
16AB
102
}
330
1E
100
AcDbEntity
  8
STEMPEL
100
AcDbLine
 10
278.8737270982339
 20
366.2102784901281
 30
0.0
 11
282.0117054987857
 21
366.2102784901281
 31
0.0
  0
LINE
  5
1447
102
{ACAD_REACTORS
330
163C
102
}
330
1E
100
AcDbEntity
  8
STEMPEL
100
AcDbLine
 10
275.0778800807379
 20
357.0702358936104
 30
0.0
 11
282.0117054987859
 21
366.2102784901282
 31
0.0
  0
HATCH
  5
1448
330
1E
100
AcDbEntity
  8
SCHRAFF
100
AcDbHatch
 10
0.0
 20
0.0
 30
0.0
210
0.0
220
0.0
230
1.0
  2
_USER
 70
     0
 71
     0
 91
        1
 92
        7
 72
     1
 73
     1
 93
        3
 10
279.7358434298203
 20
363.210278490128
 42
0.4493362276241436
 10
284.2875675677513
 20
369.2102784901281
 42
0.0
 10
282.0117054987859
 20
366.2102784901282
 42
0.0
 97
        0
 75
     0
 76
     0
 52
0.0
 41
0.1
 77
     0
 78
     1
 53
180.0
 43
440.0004519115977
 44
-11.52469620425245
 45
0.0
 46
0.1
 79
     0
 47
0.037238850535134
 98
        1
 10
281.6887818548312
 20
365.3180129138311
  0
ARC
  5
1449
330
1E
100
AcDbEntity
  8
SCHRAFF
100
AcDbCircle
 10
279.3474524111889
 20
368.2314360048567
 30
0.0
 40
5.036156309237244
100
AcDbArc
 50
274.4230724344441
 51
11.20751465909211
  0
LINE
  5
144A
102
{ACAD_REACTORS
330
1623
330
16AB
102
}
330
1E
100
AcDbEntity
  8
STEMPEL
100
AcDbLine
 10
278.8737270982338
 20
366.2102784901281
 30
0.0
 11
286.4455309168337
 21
376.1912926146461
 31
0.0
  0
LINE
  5
144B
102
{ACAD_REACTORS
330
163C
330
16AB
102
}
330
1E
100
AcDbEntity
  8
STEMPEL
100
AcDbLine
 10
273.8031740472941
 20
358.0372542638092
 30
0.0
 11
280.0033993224326
 21
366.2102784901281
 31
0.0
  0
LINE
  5
144C
102
{ACAD_REACTORS
330
1623
102
}
330
1E
100
AcDbEntity
  8
STEMPEL
100
AcDbLine
 10
282.0117054987859
 20
366.2102784901282
 30
0.0
 11
288.4372590940898
 21
374.6803264112106
 31
0.0
  0
ARC
  5
145E
102
{ACAD_REACTORS
330
1675
102
}
330
1E
100
AcDbEntity
  8
STEMPEL
100
AcDbCircle
 10
260.5117054987859
 20
453.6055270275569
 30
0.0
 40
25.0
100
AcDbArc
 50
0.0
 51
24.99999999998912
  0
LINE
  5
1461
102
{ACAD_REACTORS
330
1623
330
16AB
102
}
330
1E
100
AcDbEntity
  8
STEMPEL
100
AcDbLine
 10
290.5117054987859
 20
466.2102784901279
 30
0.0
 11
290.5117054987859
 21
388.2790222421308
 31
0.0
  0
LINE
  5
1462
102
{ACAD_REACTORS
330
1623
102
}
330
1E
100
AcDbEntity
  8
STEMPEL
100
AcDbLine
 10
293.0117054987859
 20
466.2102784901279
 30
0.0
 11
293.0117054987859
 21
388.2790222421308
 31
0.0
  0
LINE
  5
15C4
330
1E
100
AcDbEntity
  8
HILF
100
AcDbLine
 10
179.1437452092618
 20
393.1251250933578
 30
0.0
 11
273.87966578831
 21
393.1251250933578
 31
0.0
  0
LINE
  5
15C5
330
1E
100
AcDbEntity
  8
HILF
100
AcDbLine
 10
276.8221054825927
 20
399.3042765070482
 30
0.0
 11
176.2013055149789
 21
399.3042765070482
 31
0.0
  0
LINE
  5
15C6
330
1E
100
AcDbEntity
  8
HILF
100
AcDbLine
 10
175.1731068938641
 20
421.9844969224018
 30
0.0
 11
277.8503041037077
 21
421.9844969224018
 31
0.0
  0
LINE
  5
15CA
102
{ACAD_REACTORS
330
1675
102
}
330
1E
100
AcDbEntity
  8
STEMPEL
100
AcDbLine
 10
275.5117054987859
 20
390.1762859702598
 30
0.0
 11
275.5117054987859
 21
387.788196668046
 31
0.0
  0
LINE
  5
15CB
102
{ACAD_REACTORS
330
1675
330
16AB
102
}
330
1E
100
AcDbEntity
  8
STEMPEL
100
AcDbLine
 10
277.5117054987859
 20
390.1762859702598
 30
0.0
 11
277.5117054987859
 21
387.788196668046
 31
0.0
  0
LINE
  5
15CC
102
{ACAD_REACTORS
330
1675
102
}
330
1E
100
AcDbEntity
  8
STEMPEL
100
AcDbLine
 10
279.5117054987859
 20
418.7100779594464
 30
0.0
 11
279.5117054987859
 21
403.1377673670755
 31
0.0
  0
LINE
  5
15CD
102
{ACAD_REACTORS
330
1675
330
16AB
102
}
330
1E
100
AcDbEntity
  8
STEMPEL
100
AcDbLine
 10
281.5117054987859
 20
418.710278490128
 30
0.0
 11
281.5117054987859
 21
403.1377673670755
 31
0.0
  0
LINE
  5
15CE
102
{ACAD_REACTORS
330
1675
102
}
330
1E
100
AcDbEntity
  8
STEMPEL
100
AcDbLine
 10
283.5117054987859
 20
453.6055270275569
 30
0.0
 11
283.5117054987859
 21
435.4432784901279
 31
0.0
  0
LINE
  5
15CF
102
{ACAD_REACTORS
330
1675
330
16AB
102
}
330
1E
100
AcDbEntity
  8
STEMPEL
100
AcDbLine
 10
285.5117054987858
 20
453.6055270275569
 30
0.0
 11
285.5117054987859
 21
435.4434790208095
 31
0.0
  0
LINE
  5
15D0
102
{ACAD_REACTORS
330
1675
102
}
330
1E
100
AcDbEntity
  8
STEMPEL
100
AcDbLine
 10
280.0117054987859
 20
466.2102784901279
 30
0.0
 11
281.3567846006288
 21
463.3257470475931
 31
0.0
  0
LINE
  5
15D1
102
{ACAD_REACTORS
330
1675
102
}
330
1E
100
AcDbEntity
  8
STEMPEL
100
AcDbLine
 10
282.2184613367109
 20
466.210278490128
 30
0.0
 11
283.1694001747022
 21
464.1709835710741
 31
0.0
  0
ARC
  5
15D2
102
{ACAD_REACTORS
330
1675
330
16AB
102
}
330
1E
100
AcDbEntity
  8
STEMPEL
100
AcDbCircle
 10
285.5117054987859
 20
390.1762859702598
 30
0.0
 40
8.0
100
AcDbArc
 50
145.6988472432076
 51
180.0
  0
ARC
  5
15D3
102
{ACAD_REACTORS
330
1675
102
}
330
1E
100
AcDbEntity
  8
STEMPEL
100
AcDbCircle
 10
285.5117054987859
 20
390.1762859702598
 30
0.0
 40
10.0
100
AcDbArc
 50
145.6988472432076
 51
180.0
  0
ARC
  5
15D4
102
{ACAD_REACTORS
330
1675
102
}
330
1E
100
AcDbEntity
  8
STEMPEL
100
AcDbCircle
 10
266.5117054987859
 20
403.1377673670755
 30
0.0
 40
13.0
100
AcDbArc
 50
325.6988472432076
 51
0.0
  0
ARC
  5
15D5
102
{ACAD_REACTORS
330
1675
330
16AB
102
}
330
1E
100
AcDbEntity
  8
STEMPEL
100
AcDbCircle
 10
266.5117054987859
 20
403.1377673670755
 30
0.0
 40
15.0
100
AcDbArc
 50
325.6988472432076
 51
0.0
  0
ARC
  5
15D6
102
{ACAD_REACTORS
330
1675
330
16AB
102
}
330
1E
100
AcDbEntity
  8
STEMPEL
100
AcDbCircle
 10
293.5117054987858
 20
418.710278490128
 30
0.0
 40
12.0
100
AcDbArc
 50
153.1119523822753
 51
180.0
  0
ARC
  5
15D7
102
{ACAD_REACTORS
330
1675
102
}
330
1E
100
AcDbEntity
  8
STEMPEL
100
AcDbCircle
 10
293.5117054987859
 20
418.7100779594464
 30
0.0
 40
14.0
100
AcDbArc
 50
153.1119523822753
 51
180.0
  0
ARC
  5
15D8
102
{ACAD_REACTORS
330
1675
102
}
330
1E
100
AcDbEntity
  8
STEMPEL
100
AcDbCircle
 10
260.5117054987859
 20
435.4432784901279
 30
0.0
 40
23.0
100
AcDbArc
 50
333.1119523822754
 51
0.0
  0
ARC
  5
15D9
102
{ACAD_REACTORS
330
1675
330
16AB
102
}
330
1E
100
AcDbEntity
  8
STEMPEL
100
AcDbCircle
 10
260.5117054987859
 20
435.4434790208095
 30
0.0
 40
25.0
100
AcDbArc
 50
333.1119523822754
 51
0.0
  0
ARC
  5
15DA
330
1E
100
AcDbEntity
  8
STEMPEL
100
AcDbCircle
 10
260.5117054987858
 20
453.6055270275569
 30
0.0
 40
25.0
100
AcDbArc
 50
0.0
 51
24.99999999999935
  0
ARC
  5
15DB
102
{ACAD_REACTORS
330
1675
102
}
330
1E
100
AcDbEntity
  8
STEMPEL
100
AcDbCircle
 10
260.5117054987859
 20
453.6055270275569
 30
0.0
 40
23.0
100
AcDbArc
 50
0.0
 51
24.99999999999935
  0
ARC
  5
15DC
102
{ACAD_REACTORS
330
1675
102
}
330
1E
100
AcDbEntity
  8
STEMPEL
100
AcDbCircle
 10
192.5117054987859
 20
453.6055270275569
 30
0.0
 40
23.0
100
AcDbArc
 50
155.0000000000006
 51
180.0
  0
ARC
  5
15DD
102
{ACAD_REACTORS
330
1675
102
}
330
1E
100
AcDbEntity
  8
STEMPEL
100
AcDbCircle
 10
192.5117054987859
 20
453.6055270275569
 30
0.0
 40
25.0
100
AcDbArc
 50
155.0000000000006
 51
180.0
  0
ARC
  5
15DE
102
{ACAD_REACTORS
330
1675
330
16AB
102
}
330
1E
100
AcDbEntity
  8
STEMPEL
100
AcDbCircle
 10
192.5117054987859
 20
435.4434790208095
 30
0.0
 40
25.0
100
AcDbArc
 50
180.0
 51
206.8880476177246
  0
ARC
  5
15DF
102
{ACAD_REACTORS
330
1675
102
}
330
1E
100
AcDbEntity
  8
STEMPEL
100
AcDbCircle
 10
192.5117054987859
 20
435.4432784901279
 30
0.0
 40
23.0
100
AcDbArc
 50
180.0
 51
206.8880476177246
  0
ARC
  5
15E0
102
{ACAD_REACTORS
330
1675
102
}
330
1E
100
AcDbEntity
  8
STEMPEL
100
AcDbCircle
 10
159.5117054987858
 20
418.7100779594464
 30
0.0
 40
14.0
100
AcDbArc
 50
0.0
 51
26.88804761772463
  0
ARC
  5
15E1
102
{ACAD_REACTORS
330
1675
330
16AB
102
}
330
1E
100
AcDbEntity
  8
STEMPEL
100
AcDbCircle
 10
159.5117054987859
 20
418.710278490128
 30
0.0
 40
12.0
100
AcDbArc
 50
0.0
 51
26.88804761772463
  0
ARC
  5
15E2
102
{ACAD_REACTORS
330
1675
330
16AB
102
}
330
1E
100
AcDbEntity
  8
STEMPEL
100
AcDbCircle
 10
186.5117054987859
 20
403.1377673670755
 30
0.0
 40
15.0
100
AcDbArc
 50
180.0
 51
214.3011527567924
  0
ARC
  5
15E3
102
{ACAD_REACTORS
330
1675
102
}
330
1E
100
AcDbEntity
  8
STEMPEL
100
AcDbCircle
 10
186.5117054987859
 20
403.1377673670755
 30
0.0
 40
13.0
100
AcDbArc
 50
180.0
 51
214.3011527567924
  0
ARC
  5
15E4
102
{ACAD_REACTORS
330
1675
102
}
330
1E
100
AcDbEntity
  8
STEMPEL
100
AcDbCircle
 10
167.5117054987859
 20
390.1762859702598
 30
0.0
 40
10.0
100
AcDbArc
 50
0.0
 51
34.3011527567924
  0
ARC
  5
15E5
102
{ACAD_REACTORS
330
1675
330
16AB
102
}
330
1E
100
AcDbEntity
  8
STEMPEL
100
AcDbCircle
 10
167.5117054987858
 20
390.1762859702598
 30
0.0
 40
8.0
100
AcDbArc
 50
0.0
 51
34.3011527567924
  0
LINE
  5
15E6
102
{ACAD_REACTORS
330
1675
102
}
330
1E
100
AcDbEntity
  8
STEMPEL
100
AcDbLine
 10
170.8049496608609
 20
466.210278490128
 30
0.0
 11
169.8540108228694
 21
464.1709835710741
 31
0.0
  0
LINE
  5
15E7
102
{ACAD_REACTORS
330
1675
102
}
330
1E
100
AcDbEntity
  8
STEMPEL
100
AcDbLine
 10
173.0117054987859
 20
466.2102784901279
 30
0.0
 11
171.6666263969429
 21
463.3257470475931
 31
0.0
  0
LINE
  5
15E8
102
{ACAD_REACTORS
330
1675
330
16AB
102
}
330
1E
100
AcDbEntity
  8
STEMPEL
100
AcDbLine
 10
167.5117054987859
 20
453.6055270275569
 30
0.0
 11
167.5117054987859
 21
435.4434790208095
 31
0.0
  0
LINE
  5
15E9
102
{ACAD_REACTORS
330
1675
102
}
330
1E
100
AcDbEntity
  8
STEMPEL
100
AcDbLine
 10
169.5117054987859
 20
453.6055270275569
 30
0.0
 11
169.5117054987859
 21
435.4432784901279
 31
0.0
  0
LINE
  5
15EA
102
{ACAD_REACTORS
330
1675
330
16AB
102
}
330
1E
100
AcDbEntity
  8
STEMPEL
100
AcDbLine
 10
171.5117054987859
 20
418.710278490128
 30
0.0
 11
171.5117054987859
 21
403.1377673670755
 31
0.0
  0
LINE
  5
15EB
102
{ACAD_REACTORS
330
1675
102
}
330
1E
100
AcDbEntity
  8
STEMPEL
100
AcDbLine
 10
173.5117054987859
 20
418.7100779594464
 30
0.0
 11
173.5117054987859
 21
403.1377673670755
 31
0.0
  0
LINE
  5
15EC
102
{ACAD_REACTORS
330
1675
330
16AB
102
}
330
1E
100
AcDbEntity
  8
STEMPEL
100
AcDbLine
 10
175.5117054987859
 20
390.1762859702598
 30
0.0
 11
175.5117054987859
 21
387.788196668046
 31
0.0
  0
LINE
  5
15ED
102
{ACAD_REACTORS
330
1675
102
}
330
1E
100
AcDbEntity
  8
STEMPEL
100
AcDbLine
 10
177.5117054987859
 20
390.1762859702598
 30
0.0
 11
177.5117054987859
 21
387.788196668046
 31
0.0
  0
HATCH
  5
160A
330
1E
100
AcDbEntity
  8
SCHRAFF
100
AcDbHatch
 10
0.0
 20
0.0
 30
0.0
210
0.0
220
0.0
230
1.0
  2
_USER
 70
     0
 71
     1
 91
        2
 92
        7
 72
     1
 73
     1
 93
       10
 10
251.5117054987859
 20
279.2102784901278
 42
0.0
 10
250.8117961905785
 20
271.2102784901282
 42
0.0
 10
252.3175259468935
 20
271.2102784901282
 42
0.0
 10
253.0117054987859
 20
279.1447870757655
 42
0.0
 10
253.0117054987859
 20
348.1168728922836
 42
-0.1465112972333318
 10
254.9867005118583
 20
354.7122709099986
 42
0.0
 10
265.5117054987859
 20
370.7102784901297
 42
0.0
 10
263.7161951700159
 20
370.7102784901296
 42
0.0
 10
253.7335748884925
 20
355.536695662213
 42
0.1465112972333333
 10
251.5117054987859
 20
348.1168728922835
 42
0.0
 97
       10
330
1434
330
1432
330
13D4
330
1431
330
1433
330
141F
330
1426
330
13D3
330
1427
330
1420
 92
        7
 72
     1
 73
     1
 93
       10
 10
201.5117054987859
 20
348.1168728922834
 42
0.1465112972333419
 10
199.2898361090792
 20
355.5366956622132
 42
0.0
 10
189.307215827556
 20
370.7102784901282
 42
0.0
 10
187.5117054987858
 20
370.7102784901283
 42
0.0
 10
198.0367104857132
 20
354.7122709099987
 42
-0.1465112972333374
 10
200.0117054987859
 20
348.1168728922835
 42
0.0
 10
200.0117054987859
 20
279.1447870757662
 42
0.0
 10
200.7058850506783
 20
271.2102784901281
 42
0.0
 10
202.2116148069933
 20
271.2102784901281
 42
0.0
 10
201.5117054987859
 20
279.2102784901282
 42
0.0
 97
       10
330
1405
330
13E6
330
13D4
330
13E7
330
1406
330
13D9
330
13DA
330
13D3
330
13DB
330
13D8
 75
     0
 76
     0
 52
45.0
 41
2.0
 77
     0
 78
     1
 53
45.0
 43
9.127549422083575
 44
0.0
 45
-1.414213562373094
 46
1.414213562373095
 79
     0
 47
0.4262546730356392
 98
        2
 10
252.2218950753322
 20
332.0683124559867
 10
201.035159107239
 20
330.3632941385015
  0
HATCH
  5
1623
330
1E
100
AcDbEntity
  8
SCHRAFF
100
AcDbHatch
 10
0.0
 20
0.0
 30
0.0
210
0.0
220
0.0
230
1.0
  2
_USER
 70
     0
 71
     1
 91
        2
 92
        7
 72
     1
 73
     1
 93
        8
 10
293.0117054987858
 20
466.210278490128
 42
0.0
 10
290.5117054987859
 20
466.2102784901281
 42
0.0
 10
290.5117054987859
 20
388.2790222421308
 42
-0.1636877606932757
 10
286.4455309168337
 20
376.1912926146461
 42
0.0
 10
278.8737270982337
 20
366.2102784901279
 42
0.0
 10
282.0117054987857
 20
366.2102784901281
 42
0.0
 10
288.4372590940898
 20
374.6803264112106
 42
0.1636877606932756
 10
293.0117054987859
 20
388.2790222421308
 42
0.0
 97
        8
330
13D5
330
1461
330
1429
330
144A
330
1446
330
144C
330
142A
330
1462
 92
        7
 72
     1
 73
     1
 93
        8
 10
160.0117054987858
 20
388.2790222421308
 42
0.1636877606932762
 10
164.586151903482
 20
374.6803264112106
 42
0.0
 10
171.0117054987859
 20
366.2102784901281
 42
0.0
 10
174.1496838993379
 20
366.2102784901281
 42
0.0
 10
166.577880080738
 20
376.1912926146461
 42
-0.1636877606932756
 10
162.5117054987858
 20
388.2790222421308
 42
0.0
 10
162.5117054987858
 20
466.2102784901279
 42
0.0
 10
160.0117054987858
 20
466.2102784901279
 42
0.0
 97
        8
330
13D5
330
1408
330
13DE
330
13F2
330
13F1
330
13EF
330
13DF
330
1407
 75
     0
 76
     0
 52
45.0
 41
2.0
 77
     0
 78
     1
 53
45.0
 43
9.127549422083575
 44
0.0
 45
-1.414213562373094
 46
1.414213562373095
 79
     0
 47
0.4262546730356392
 98
        2
 10
291.8916184813784
 20
432.6644169783557
 10
160.9388805783837
 20
434.7956898752122
  0
HATCH
  5
163C
330
1E
100
AcDbEntity
  8
SCHRAFF
100
AcDbHatch
 10
0.0
 20
0.0
 30
0.0
210
0.0
220
0.0
230
1.0
  2
_USER
 70
     0
 71
     1
 91
        2
 92
        7
 72
     1
 73
     1
 93
        8
 10
269.4117054987859
 20
301.2102784901283
 42
0.0
 10
271.0117054987858
 20
301.2102784901282
 42
0.0
 10
271.0117054987859
 20
344.9825062661258
 42
-0.1636877606932753
 10
275.077880080738
 20
357.0702358936105
 42
0.0
 10
282.0117054987859
 20
366.2102784901281
 42
0.0
 10
280.0033993224326
 20
366.2102784901281
 42
0.0
 10
273.8031740472941
 20
358.0372542638092
 42
0.1636877606932746
 10
269.4117054987859
 20
344.9825062661258
 42
0.0
 97
        8
330
143F
330
1447
330
1446
330
144B
330
1440
330
1436
330
142E
330
1435
 92
        7
 72
     1
 73
     1
 93
        8
 10
182.0117054987859
 20
301.2102784901281
 42
0.0
 10
183.6117054987859
 20
301.2102784901283
 42
0.0
 10
183.6117054987859
 20
344.9825062661258
 42
0.1636877606932765
 10
179.2202369502776
 20
358.0372542638094
 42
0.0
 10
173.0200116751391
 20
366.2102784901281
 42
0.0
 10
171.011705498786
 20
366.2102784901281
 42
0.0
 10
177.9455309168338
 20
357.0702358936104
 42
-0.1636877606932736
 10
182.0117054987859
 20
344.9825062661258
 42
0.0
 97
        8
330
13F5
330
13EE
330
13F1
330
13F0
330
13F6
330
13E9
330
13E5
330
13E8
 75
     0
 76
     0
 52
135.0
 41
2.0
 77
     0
 78
     1
 53
135.0
 43
9.127549422083575
 44
0.0
 45
-1.414213562373095
 46
-1.414213562373094
 79
     0
 47
0.4262546730356392
 98
        2
 10
270.1372560316913
 20
331.6420578766154
 10
182.6932430280708
 20
326.5270015247042
  0
HATCH
  5
1675
330
1E
100
AcDbEntity
  8
SCHRAFF
100
AcDbHatch
 10
0.0
 20
0.0
 30
0.0
210
0.0
220
0.0
230
1.0
  2
_USER
 70
     0
 71
     1
 91
        2
 92
        7
 72
     1
 73
     1
 93
       24
 10
285.5117054987858
 20
453.6055270275569
 42
0.1095178116832377
 10
283.1694001747022
 20
464.1709835710741
 42
0.0
 10
282.2184613367109
 20
466.210278490128
 42
0.0
 10
280.0117054987859
 20
466.2102784901281
 42
0.0
 10
281.3567846006288
 20
463.3257470475931
 42
-0.1095178116832427
 10
283.5117054987859
 20
453.6055270275569
 42
0.0
 10
283.5117054987859
 20
435.4432784901279
 42
-0.1178625008509382
 10
281.0252190122993
 20
425.0415592413256
 42
0.1178625008509323
 10
279.5117054987859
 20
418.7100779594463
 42
0.0
 10
279.5117054987859
 20
403.1377673670755
 42
-0.1507946423587077
 10
277.2508359335684
 20
395.8117126645274
 42
0.1507946423586991
 10
275.5117054987859
 20
390.1762859702598
 42
0.0
 10
275.5117054987859
 20
387.788196668046
 42
-0.2113087302336542
 10
270.9291246147343
 20
377.429035640503
 42
0.0
 10
263.5384917493237
 20
370.7102784901296
 42
0.0
 10
266.5117054987876
 20
370.7102784901297
 42
0.0
 10
272.2744702027269
 20
375.9491554937109
 42
0.2113087302336579
 10
277.5117054987859
 20
387.788196668046
 42
0.0
 10
277.5117054987859
 20
390.1762859702598
 42
-0.1507946423587077
 10
278.903009846612
 20
394.6846273256741
 42
0.1507946423587007
 10
281.5117054987859
 20
403.1377673670755
 42
0.0
 10
281.5117054987859
 20
418.710278490128
 42
-0.1178625008509376
 10
282.8090027960831
 20
424.1372624460248
 42
0.1178625008509352
 10
285.5117054987859
 20
435.4434790208095
 42
0.0
 97
       24
330
145E
330
15D1
330
13D5
330
15D0
330
15DB
330
15CE
330
15D8
330
15D7
330
15CC
330
15D4
330
15D3
330
15CA
330
142D
330
1443
330
13D4
330
1441
330
142C
330
15CB
330
15D2
330
15D5
330
15CD
330
15D6
330
15D9
330
15CF
 92
        7
 72
     1
 73
     1
 93
       24
 10
169.5117054987859
 20
453.6055270275569
 42
-0.1095178116832426
 10
171.6666263969429
 20
463.3257470475931
 42
0.0
 10
173.0117054987858
 20
466.2102784901279
 42
0.0
 10
170.8049496608608
 20
466.2102784901279
 42
0.0
 10
169.8540108228694
 20
464.1709835710741
 42
0.1095178116832367
 10
167.5117054987859
 20
453.605527027557
 42
0.0
 10
167.5117054987859
 20
435.4434790208095
 42
0.1178625008509361
 10
170.2144082014886
 20
424.1372624460247
 42
-0.1178625008509355
 10
171.5117054987859
 20
418.7102784901281
 42
0.0
 10
171.5117054987859
 20
403.1377673670755
 42
0.150794642358703
 10
174.1204011509597
 20
394.684627325674
 42
-0.1507946423587037
 10
175.5117054987859
 20
390.1762859702598
 42
0.0
 10
175.5117054987859
 20
387.788196668046
 42
0.2113087302336564
 10
180.7489407948448
 20
375.949155493711
 42
0.0
 10
186.5117054987858
 20
370.7102784901281
 42
0.0
 10
189.4849192482498
 20
370.7102784901282
 42
0.0
 10
182.0942863828377
 20
377.4290356405027
 42
-0.2113087302336604
 10
177.5117054987859
 20
387.788196668046
 42
0.0
 10
177.5117054987859
 20
390.1762859702598
 42
0.1507946423587041
 10
175.7725750640033
 20
395.8117126645276
 42
-0.1507946423587038
 10
173.5117054987859
 20
403.1377673670755
 42
0.0
 10
173.5117054987859
 20
418.7100779594464
 42
0.1178625008509339
 10
171.9981919852723
 20
425.0415592413259
 42
-0.1178625008509353
 10
169.5117054987859
 20
435.4432784901279
 42
0.0
 97
       24
330
15DC
330
15E7
330
13D5
330
15E6
330
15DD
330
15E8
330
15DE
330
15E1
330
15EA
330
15E2
330
15E5
330
15EC
330
13E2
330
13F7
330
13D4
330
13F9
330
13E1
330
15ED
330
15E4
330
15E3
330
15EB
330
15E0
330
15DF
330
15E9
 75
     0
 76
     0
 52
135.0
 41
2.0
 77
     0
 78
     1
 53
135.0
 43
9.127549422083575
 44
0.0
 45
-1.414213562373095
 46
-1.414213562373094
 79
     0
 47
0.4262546730356392
 98
        2
 10
284.6401652294894
 20
439.0582370683808
 10
168.6168889530818
 20
440.3370008064946
  0
HATCH
  5
16AB
330
1E
100
AcDbEntity
  8
SCHRAFF
100
AcDbHatch
 10
0.0
 20
0.0
 30
0.0
210
0.0
220
0.0
230
1.0
  2
HONEY
 70
     0
 71
     1
 91
        2
 92
        7
 72
     1
 73
     1
 93
       23
 10
290.5117054987859
 20
452.2102784901281
 42
0.0
 10
285.5117054987858
 20
452.2102784901282
 42
0.0
 10
285.5117054987859
 20
435.4434790208095
 42
-0.1178625008509382
 10
282.8090027960831
 20
424.1372624460245
 42
0.117862500850935
 10
281.5117054987859
 20
418.7102784901278
 42
0.0
 10
281.5117054987859
 20
403.1377673670755
 42
-0.1507946423587077
 10
278.9030098466118
 20
394.6846273256738
 42
0.1507946423586964
 10
277.5117054987859
 20
390.1762859702598
 42
0.0
 10
277.5117054987859
 20
387.788196668046
 42
-0.2113087302336566
 10
272.274470202727
 20
375.949155493711
 42
0.0
 10
268.7315257189755
 20
372.7282968721187
 42
-1.015685899636501
 10
264.230155783047
 20
368.7623229222063
 42
0.0
 10
254.9867005118583
 20
354.7122709099986
 42
0.1465112972333294
 10
253.0117054987859
 20
348.1168728922837
 42
0.0
 10
253.0117054987859
 20
317.2102784901281
 42
0.0
 10
268.852973186918
 20
317.2102784901282
 42
0.0
 10
269.4117054987859
 20
301.2102784901324
 42
0.0
 10
269.4117054987859
 20
344.9825062661258
 42
-0.1636877606932762
 10
273.8031740472941
 20
358.0372542638094
 42
0.0
 10
280.0033993224325
 20
366.210278490128
 42
0.0
 10
278.8737270982338
 20
366.2102784901281
 42
0.0
 10
286.4455309168337
 20
376.1912926146461
 42
0.1636877606932757
 10
290.5117054987859
 20
388.2790222421308
 42
0.0
 97
       23
330
1428
330
15CF
330
15D9
330
15D6
330
15CD
330
15D5
330
15D2
330
15CB
330
142C
330
1441
330
1442
330
1432
330
1434
330
1420
330
1430
330
1437
330
1436
330
1440
330
144B
330
1446
330
144A
330
1429
330
1461
 92
        7
 72
     1
 73
     1
 93
       23
 10
171.5117054987859
 20
403.1377673670755
 42
0.0
 10
171.5117054987859
 20
418.710278490128
 42
0.1178625008509367
 10
170.2144082014886
 20
424.1372624460247
 42
-0.1178625008509361
 10
167.5117054987859
 20
435.4434790208095
 42
0.0
 10
167.5117054987859
 20
452.2102784901279
 42
0.0
 10
162.5117054987858
 20
452.2102784901279
 42
0.0
 10
162.5117054987858
 20
388.2790222421308
 42
0.1636877606932756
 10
166.577880080738
 20
376.1912926146461
 42
0.0
 10
174.1496838993379
 20
366.2102784901281
 42
0.0
 10
173.0200116751391
 20
366.2102784901281
 42
0.0
 10
179.2202369502776
 20
358.0372542638092
 42
-0.1636877606932742
 10
183.6117054987859
 20
344.9825062661259
 42
0.0
 10
183.6117054987859
 20
301.2102784901267
 42
0.0
 10
184.1704378106538
 20
317.210278490128
 42
0.0
 10
200.0117054987859
 20
317.210278490128
 42
0.0
 10
200.0117054987859
 20
348.1168728922834
 42
0.1465112972333412
 10
198.0367104857132
 20
354.7122709099988
 42
0.0
 10
188.7932552145256
 20
368.7623229222037
 42
-1.015685899636379
 10
184.2918852785981
 20
372.7282968721171
 42
0.0
 10
180.7489407948449
 20
375.9491554937109
 42
-0.2113087302336578
 10
175.5117054987859
 20
387.788196668046
 42
0.0
 10
175.5117054987859
 20
390.1762859702598
 42
0.1507946423587017
 10
174.1204011509598
 20
394.6846273256739
 42
-0.1507946423587041
 97
       23
330
15EA
330
15E1
330
15DE
330
15E8
330
1419
330
1407
330
13DF
330
13EF
330
13F1
330
13EE
330
13F5
330
13E8
330
13EA
330
13E3
330
13D9
330
1406
330
13E7
330
13F8
330
13F7
330
13E2
330
15EC
330
15E5
330
15E2
 75
     0
 76
     1
 52
0.0
 41
25.0
 77
     0
 78
     3
 53
0.0
 43
9.127549422083575
 44
0.0
 45
4.6875
 46
2.706329374999999
 79
     2
 49
3.125
 49
-6.25
 53
120.0
 43
9.127549422083575
 44
0.0
 45
-4.687499989758061
 46
2.706329392739557
 79
     2
 49
3.124999999999999
 49
-6.249999999999999
 53
60.0
 43
9.127549422083575
 44
0.0
 45
0.0000000102419385
 46
5.412658767739556
 79
     2
 49
-6.25
 49
3.125
 47
0.4192668910136916
 98
        2
 10
286.9815631366346
 20
403.5078975840706
 10
168.2451113594957
 20
402.2500976906473
  0
HATCH
  5
16D1
330
1E
100
AcDbEntity
  8
SCHRAFF
100
AcDbHatch
 10
0.0
 20
0.0
 30
0.0
210
0.0
220
0.0
230
1.0
  2
NET
 70
     0
 71
     0
 91
        2
 92
        7
 72
     0
 73
     1
 93
       10
 10
268.8529731869179
 20
317.210278490128
 10
253.0117054987855
 20
317.210278490128
 10
253.0117054987855
 20
307.210278490128
 10
257.0117054987859
 20
307.210278490128
 10
260.4758071139238
 20
301.2102784901279
 10
265.0117054987849
 20
301.2102784901279
 10
265.0117054987849
 20
299.2102784901277
 10
271.0117054987857
 20
299.2102784901276
 10
271.0117054987857
 20
301.2102784901278
 10
269.4117054987859
 20
301.2102784901279
 97
        0
 92
        7
 72
     0
 73
     1
 93
       10
 10
200.0117054987912
 20
317.2102784901281
 10
184.1704378106539
 20
317.2102784901281
 10
183.6117054987859
 20
301.2102784901281
 10
182.0117054987859
 20
301.2102784901282
 10
182.0117054987859
 20
299.2102784901281
 10
188.0117054987849
 20
299.2102784901281
 10
188.0117054987849
 20
301.2102784901281
 10
192.5476038836481
 20
301.2102784901281
 10
196.0117054987859
 20
307.210278490128
 10
200.0117054987918
 20
307.210278490128
 97
        0
 75
     0
 76
     1
 52
45.0
 41
20.0
 77
     0
 78
     2
 53
45.0
 43
1.511705498785602
 44
-20.66471556905782
 45
-1.767766952966368
 46
1.767766952966368
 79
     0
 53
135.0
 43
1.511705498785602
 44
-20.66471556905782
 45
-1.767766952966368
 46
-1.767766952966368
 79
     0
 47
0.1255994509103582
 98
        2
 10
260.5900861034349
 20
312.4936045112713
 10
194.7362681799665
 20
313.4984004235036
  0
LINE
  5
16D2
330
1E
100
AcDbEntity
  8
STEMPEL
100
AcDbLine
 10
265.0117054987849
 20
301.2102784901279
 30
0.0
 11
253.0117054987855
 21
301.2102784901279
 31
0.0
  0
POINT
  5
16D3
330
1E
100
AcDbEntity
  8
STEMPEL
100
AcDbPoint
 10
265.0117054987849
 20
299.2102784901279
 30
0.0
  0
LINE
  5
16D4
330
1E
100
AcDbEntity
  8
STEMPEL
100
AcDbLine
 10
265.0117054987849
 20
301.2102784901279
 30
0.0
 11
265.0117054987849
 21
299.2102784901279
 31
0.0
  0
LINE
  5
16D5
330
1E
100
AcDbEntity
  8
STEMPEL
100
AcDbLine
 10
271.0117054987857
 20
299.2102784901276
 30
0.0
 11
253.0117054987855
 21
299.2102784901277
 31
0.0
  0
LINE
  5
16D6
330
1E
100
AcDbEntity
  8
STEMPEL
100
AcDbLine
 10
257.0117054987859
 20
307.210278490128
 30
0.0
 11
260.4758071139237
 21
301.210278490128
 31
0.0
  0
LINE
  5
16D7
330
1E
100
AcDbEntity
  8
STEMPEL
100
AcDbLine
 10
257.0117054987859
 20
307.210278490128
 30
0.0
 11
260.4758071139237
 21
301.210278490128
 31
0.0
  0
LINE
  5
16D8
330
1E
100
AcDbEntity
  8
STEMPEL
100
AcDbLine
 10
200.0117054987923
 20
299.2102784901281
 30
0.0
 11
182.0117054987859
 21
299.2102784901281
 31
0.0
  0
POINT
  5
16D9
330
1E
100
AcDbEntity
  8
STEMPEL
100
AcDbPoint
 10
188.0117054987849
 20
299.2102784901279
 30
0.0
  0
LINE
  5
16DA
330
1E
100
AcDbEntity
  8
STEMPEL
100
AcDbLine
 10
188.0117054987849
 20
301.2102784901279
 30
0.0
 11
188.0117054987849
 21
299.2102784901279
 31
0.0
  0
LINE
  5
16DB
330
1E
100
AcDbEntity
  8
STEMPEL
100
AcDbLine
 10
200.0117054987921
 20
301.210278490128
 30
0.0
 11
188.0117054987849
 21
301.2102784901281
 31
0.0
  0
LINE
  5
16DC
330
1E
100
AcDbEntity
  8
STEMPEL
100
AcDbLine
 10
196.0117054987859
 20
307.210278490128
 30
0.0
 11
192.5476038836481
 21
301.210278490128
 31
0.0
  0
LINE
  5
16DD
330
1E
100
AcDbEntity
  8
STEMPEL
100
AcDbLine
 10
200.0117054987921
 20
301.210278490128
 30
0.0
 11
188.0117054987849
 21
301.2102784901281
 31
0.0
  0
LINE
  5
16DE
330
1E
100
AcDbEntity
  8
STEMPEL
100
AcDbLine
 10
196.0117054987859
 20
307.210278490128
 30
0.0
 11
192.5476038836481
 21
301.210278490128
 31
0.0
  0
DIMENSION
  5
1707
330
1E
100
AcDbEntity
  8
SCHRAFF
100
AcDbDimension
  2
*D6
 10
158.649491053537
 20
301.2102784901281
 30
0.0
 11
152.149491053537
 21
286.2102784901282
 31
0.0
 70
    32
 71
     5
 42
30.0
  3
Standard
100
AcDbAlignedDimension
 13
200.7058850506783
 23
271.2102784901281
 33
0.0
 14
182.0117054987859
 24
301.2102784901281
 34
0.0
 50
90.0
100
AcDbRotatedDimension
1001
ACAD
1000
DSTYLE
1002
{
1070
    40
1040
2.0
1070
    41
1040
3.5
1070
    42
1040
1.0
1070
    43
1040
7.0
1070
    44
1040
1.0
1070
    47
1040
0.15
1070
    48
1040
0.15
1070
    73
1070
     0
1070
    74
1070
     0
1070
    77
1070
     1
1070
    78
1070
     8
1070
    79
1070
     2
1070
   140
1040
3.5
1070
   141
1040
1.5
1070
   146
1040
0.5142857142857144
1070
   147
1040
1.5
1070
   172
1070
     1
1070
   178
1070
     1
1070
   179
1070
     2
1070
   271
1070
     2
1070
   272
1070
     2
1070
   284
1070
     8
1070
   285
1070
     8
1070
   286
1070
     8
1002
}
  0
ENDSEC
  0
SECTION
  2
OBJECTS
  0
DICTIONARY
  5
C
330
0
100
AcDbDictionary
281
     1
  3
ACAD_COLOR
350
39F
  3
ACAD_GROUP
350
D
  3
ACAD_LAYOUT
350
19
  3
ACAD_MATERIAL
350
39E
  3
ACAD_MLINESTYLE
350
16
  3
ACAD_PLOTSETTINGS
350
18
  3
ACAD_PLOTSTYLENAME
350
E
  3
AcDbVariableDictionary
350
31A
  0
DICTIONARY
  5
39F
102
{ACAD_REACTORS
330
C
102
}
330
C
100
AcDbDictionary
281
     1
  0
DICTIONARY
  5
D
102
{ACAD_REACTORS
330
C
102
}
330
C
100
AcDbDictionary
281
     1
  0
DICTIONARY
  5
19
102
{ACAD_REACTORS
330
C
102
}
330
C
100
AcDbDictionary
281
     1
  3
Layout1
350
1D
  3
Model
350
21
  0
DICTIONARY
  5
39E
102
{ACAD_REACTORS
330
C
102
}
330
C
100
AcDbDictionary
281
     1
  0
DICTIONARY
  5
16
102
{ACAD_REACTORS
330
C
102
}
330
C
100
AcDbDictionary
281
     1
  3
Standard
350
17
  0
DICTIONARY
  5
18
102
{ACAD_REACTORS
330
C
102
}
330
C
100
AcDbDictionary
281
     1
  0
ACDBDICTIONARYWDFLT
  5
E
102
{ACAD_REACTORS
330
C
102
}
330
C
100
AcDbDictionary
281
     1
  3
Normal
350
F
100
AcDbDictionaryWithDefault
340
F
  0
DICTIONARY
  5
31A
102
{ACAD_REACTORS
330
C
102
}
330
C
100
AcDbDictionary
281
     1
  3
DIMASSOC
350
696
  3
PROJECTNAME
350
697
  3
SORTENTS
350
31B
  0
LAYOUT
  5
1D
102
{ACAD_REACTORS
330
19
102
}
330
19
100
AcDbPlotSettings
  1

  2
Tektronix Phaser 740
  4

  6

 40
0.0
 41
0.0
 42
0.0
 43
0.0
 44
0.0
 45
0.0
 46
0.0
 47
0.0
 48
0.0
 49
0.0
140
0.0
141
0.0
142
1.0
143
1.0
 70
   688
 72
     0
 73
     0
 74
     5
  7
monochrome.ctb
 75
    16
147
1.0
 76
     0
 77
     2
 78
   300
148
0.0
149
0.0
100
AcDbLayout
  1
Layout1
 70
     0
 71
     1
 10
0.0
 20
0.0
 11
12.0
 21
9.0
 12
0.0
 22
0.0
 32
0.0
 14
1.000000000000000E+20
 24
1.000000000000000E+20
 34
1.000000000000000E+20
 15
-1.000000000000000E+20
 25
-1.000000000000000E+20
 35
-1.000000000000000E+20
146
0.0
 13
0.0
 23
0.0
 33
0.0
 16
1.0
 26
0.0
 36
0.0
 17
0.0
 27
1.0
 37
0.0
 76
     0
330
1A
  0
LAYOUT
  5
21
102
{ACAD_REACTORS
330
19
102
}
330
19
100
AcDbPlotSettings
  1

  2
none_device
  4
Letter_(8.50_x_11.00_Inches)
  6

 40
6.349999904632568
 41
6.349999904632568
 42
6.350006103515625
 43
6.350006103515625
 44
215.8999938964844
 45
279.3999938964844
 46
0.0
 47
0.0
 48
0.0
 49
0.0
140
0.0
141
0.0
142
1.0
143
1.0
 70
 11952
 72
     0
 73
     1
 74
     0
  7
monochrome.ctb
 75
     0
147
1.0
 76
     0
 77
     2
 78
   300
148
-427.6236799849804
149
44.87778572714498
100
AcDbLayout
  1
Model
 70
     1
 71
     0
 10
0.0
 20
0.0
 11
12.0
 21
9.0
 12
0.0
 22
0.0
 32
0.0
 14
0.0
 24
0.0
 34
0.0
 15
0.0
 25
0.0
 35
0.0
146
0.0
 13
0.0
 23
0.0
 33
0.0
 16
1.0
 26
0.0
 36
0.0
 17
0.0
 27
1.0
 37
0.0
 76
     0
330
1E
  0
MLINESTYLE
  5
17
102
{ACAD_REACTORS
330
16
102
}
330
16
100
AcDbMlineStyle
  2
STANDARD
 70
     0
  3

 62
   256
 51
90.0
 52
90.0
 71
     2
 49
0.5
 62
   256
  6
BYLAYER
 49
-0.5
 62
   256
  6
BYLAYER
  0
ACDBPLACEHOLDER
  5
F
102
{ACAD_REACTORS
330
E
102
}
330
E
  0
DICTIONARYVAR
  5
696
102
{ACAD_REACTORS
330
31A
102
}
330
31A
100
DictionaryVariables
280
     0
  1
1
  0
DICTIONARYVAR
  5
697
102
{ACAD_REACTORS
330
31A
102
}
330
31A
100
DictionaryVariables
280
     0
  1

  0
DICTIONARYVAR
  5
31B
102
{ACAD_REACTORS
330
31A
102
}
330
31A
100
DictionaryVariables
280
     0
  1
96
  0
ENDSEC
  0
EOF
