  0
SECTION
  2
HEADER
  9
$ACADVER
  1
AC1018
  9
$ACADMAINTVER
 70
     2
  9
$DWGCODEPAGE
  3
ANSI_1252
  9
$INSBASE
 10
0.0
 20
0.0
 30
0.0
  9
$EXTMIN
 10
-0.0160161050885677
 20
-0.0226513486255726
 30
-0.0000000000000053
  9
$EXTMAX
 10
210.0000024450054
 20
297.000003457936
 30
0.0000000000000099
  9
$LIMMIN
 10
0.0
 20
0.0
  9
$LIMMAX
 10
210.0
 20
297.0000000000001
  9
$ORTHOMODE
 70
     1
  9
$REGENMODE
 70
     1
  9
$FILLMODE
 70
     1
  9
$QTEXTMODE
 70
     0
  9
$MIRRTEXT
 70
     1
  9
$LTSCALE
 40
10.0
  9
$ATTMODE
 70
     1
  9
$TEXTSIZE
 40
3.5
  9
$TRACEWID
 40
0.5
  9
$TEXTSTYLE
  7
STANDARD
  9
$CLAYER
  8
BEM
  9
$CELTYPE
  6
ByLayer
  9
$CECOLOR
 62
   256
  9
$CELTSCALE
 40
1.0
  9
$DISPSILH
 70
     0
  9
$DIMSCALE
 40
1.0
  9
$DIMASZ
 40
3.5
  9
$DIMEXO
 40
1.0
  9
$DIMDLI
 40
7.0
  9
$DIMRND
 40
0.0
  9
$DIMDLE
 40
0.0
  9
$DIMEXE
 40
1.0
  9
$DIMTP
 40
0.15
  9
$DIMTM
 40
0.15
  9
$DIMTXT
 40
3.5
  9
$DIMCEN
 40
1.5
  9
$DIMTSZ
 40
0.0
  9
$DIMTOL
 70
     0
  9
$DIMLIM
 70
     0
  9
$DIMTIH
 70
     0
  9
$DIMTOH
 70
     0
  9
$DIMSE1
 70
     0
  9
$DIMSE2
 70
     0
  9
$DIMTAD
 70
     1
  9
$DIMZIN
 70
     8
  9
$DIMBLK
  1

  9
$DIMASO
 70
     1
  9
$DIMSHO
 70
     0
  9
$DIMPOST
  1

  9
$DIMAPOST
  1

  9
$DIMALT
 70
     0
  9
$DIMALTD
 70
     2
  9
$DIMALTF
 40
25.4
  9
$DIMLFAC
 40
1.0
  9
$DIMTOFL
 70
     1
  9
$DIMTVP
 40
0.0
  9
$DIMTIX
 70
     0
  9
$DIMSOXD
 70
     0
  9
$DIMSAH
 70
     0
  9
$DIMBLK1
  1

  9
$DIMBLK2
  1

  9
$DIMSTYLE
  2
Standard
  9
$DIMCLRD
 70
     0
  9
$DIMCLRE
 70
     0
  9
$DIMCLRT
 70
     1
  9
$DIMTFAC
 40
0.5142857142857144
  9
$DIMGAP
 40
1.5
  9
$DIMJUST
 70
     0
  9
$DIMSD1
 70
     0
  9
$DIMSD2
 70
     0
  9
$DIMTOLJ
 70
     1
  9
$DIMTZIN
 70
     8
  9
$DIMALTZ
 70
     8
  9
$DIMALTTZ
 70
     8
  9
$DIMUPT
 70
     0
  9
$DIMDEC
 70
     2
  9
$DIMTDEC
 70
     2
  9
$DIMALTU
 70
     2
  9
$DIMALTTD
 70
     2
  9
$DIMTXSTY
  7
STANDARD
  9
$DIMAUNIT
 70
     0
  9
$DIMADEC
 70
     2
  9
$DIMALTRND
 40
0.0
  9
$DIMAZIN
 70
     2
  9
$DIMDSEP
 70
    46
  9
$DIMATFIT
 70
     3
  9
$DIMFRAC
 70
     0
  9
$DIMLDRBLK
  1

  9
$DIMLUNIT
 70
     2
  9
$DIMLWD
 70
    -2
  9
$DIMLWE
 70
    -2
  9
$DIMTMOVE
 70
     0
  9
$LUNITS
 70
     2
  9
$LUPREC
 70
     2
  9
$SKETCHINC
 40
1.0
  9
$FILLETRAD
 40
0.0
  9
$AUNITS
 70
     0
  9
$AUPREC
 70
     0
  9
$MENU
  1
ACAD
  9
$ELEVATION
 40
0.0
  9
$PELEVATION
 40
0.0
  9
$THICKNESS
 40
0.0
  9
$LIMCHECK
 70
     0
  9
$CHAMFERA
 40
0.0
  9
$CHAMFERB
 40
0.0
  9
$CHAMFERC
 40
0.0
  9
$CHAMFERD
 40
0.0
  9
$SKPOLY
 70
     0
  9
$TDCREATE
 40
2455573.065619792
  9
$TDUCREATE
 40
2455573.023953125
  9
$TDUPDATE
 40
2455532.597372303
  9
$TDUUPDATE
 40
2455532.555705637
  9
$TDINDWG
 40
0.1436908681
  9
$TDUSRTIMER
 40
0.1436908681
  9
$USRTIMER
 70
     1
  9
$ANGBASE
 50
0.0
  9
$ANGDIR
 70
     0
  9
$PDMODE
 70
     0
  9
$PDSIZE
 40
0.0
  9
$PLINEWID
 40
0.0
  9
$SPLFRAME
 70
     0
  9
$SPLINETYPE
 70
     6
  9
$SPLINESEGS
 70
     8
  9
$HANDSEED
  5
7D8
  9
$SURFTAB1
 70
     6
  9
$SURFTAB2
 70
     6
  9
$SURFTYPE
 70
     6
  9
$SURFU
 70
     6
  9
$SURFV
 70
     6
  9
$UCSBASE
  2

  9
$UCSNAME
  2

  9
$UCSORG
 10
0.0
 20
0.0
 30
0.0
  9
$UCSXDIR
 10
1.0
 20
0.0
 30
0.0
  9
$UCSYDIR
 10
0.0
 20
1.0
 30
0.0
  9
$UCSORTHOREF
  2

  9
$UCSORTHOVIEW
 70
     0
  9
$UCSORGTOP
 10
0.0
 20
0.0
 30
0.0
  9
$UCSORGBOTTOM
 10
0.0
 20
0.0
 30
0.0
  9
$UCSORGLEFT
 10
0.0
 20
0.0
 30
0.0
  9
$UCSORGRIGHT
 10
0.0
 20
0.0
 30
0.0
  9
$UCSORGFRONT
 10
0.0
 20
0.0
 30
0.0
  9
$UCSORGBACK
 10
0.0
 20
0.0
 30
0.0
  9
$PUCSBASE
  2

  9
$PUCSNAME
  2

  9
$PUCSORG
 10
0.0
 20
0.0
 30
0.0
  9
$PUCSXDIR
 10
1.0
 20
0.0
 30
0.0
  9
$PUCSYDIR
 10
0.0
 20
1.0
 30
0.0
  9
$PUCSORTHOREF
  2

  9
$PUCSORTHOVIEW
 70
     0
  9
$PUCSORGTOP
 10
0.0
 20
0.0
 30
0.0
  9
$PUCSORGBOTTOM
 10
0.0
 20
0.0
 30
0.0
  9
$PUCSORGLEFT
 10
0.0
 20
0.0
 30
0.0
  9
$PUCSORGRIGHT
 10
0.0
 20
0.0
 30
0.0
  9
$PUCSORGFRONT
 10
0.0
 20
0.0
 30
0.0
  9
$PUCSORGBACK
 10
0.0
 20
0.0
 30
0.0
  9
$USERI1
 70
     0
  9
$USERI2
 70
     0
  9
$USERI3
 70
     0
  9
$USERI4
 70
     0
  9
$USERI5
 70
     0
  9
$USERR1
 40
0.0
  9
$USERR2
 40
0.0
  9
$USERR3
 40
0.0
  9
$USERR4
 40
0.0
  9
$USERR5
 40
0.0
  9
$WORLDVIEW
 70
     1
  9
$SHADEDGE
 70
     3
  9
$SHADEDIF
 70
    70
  9
$TILEMODE
 70
     1
  9
$MAXACTVP
 70
    16
  9
$PINSBASE
 10
0.0
 20
0.0
 30
0.0
  9
$PLIMCHECK
 70
     0
  9
$PEXTMIN
 10
1.000000000000000E+20
 20
1.000000000000000E+20
 30
1.000000000000000E+20
  9
$PEXTMAX
 10
-1.000000000000000E+20
 20
-1.000000000000000E+20
 30
-1.000000000000000E+20
  9
$PLIMMIN
 10
0.0
 20
0.0
  9
$PLIMMAX
 10
12.0
 20
9.0
  9
$UNITMODE
 70
     0
  9
$VISRETAIN
 70
     0
  9
$PLINEGEN
 70
     0
  9
$PSLTSCALE
 70
     0
  9
$TREEDEPTH
 70
  3020
  9
$CMLSTYLE
  2
Standard
  9
$CMLJUST
 70
     0
  9
$CMLSCALE
 40
1.0
  9
$PROXYGRAPHICS
 70
     1
  9
$MEASUREMENT
 70
     0
  9
$CELWEIGHT
370
    -1
  9
$ENDCAPS
280
     0
  9
$JOINSTYLE
280
     0
  9
$LWDISPLAY
290
     0
  9
$INSUNITS
 70
     0
  9
$HYPERLINKBASE
  1

  9
$STYLESHEET
  1
monochrome 1.ctb
  9
$XEDIT
290
     1
  9
$CEPSNTYPE
380
     0
  9
$PSTYLEMODE
290
     1
  9
$FINGERPRINTGUID
  2
{CF47490D-A8B5-11D8-B772-000102183313}
  9
$VERSIONGUID
  2
{980486C6-D05F-4670-8450-67A858D018BB}
  9
$EXTNAMES
290
     1
  9
$PSVPSCALE
 40
0.0
  9
$OLESTARTUP
290
     0
  9
$SORTENTS
280
    96
  9
$INDEXCTL
280
     0
  9
$HIDETEXT
280
     0
  9
$XCLIPFRAME
290
     0
  9
$HALOGAP
280
     0
  9
$OBSCOLOR
 70
   257
  9
$OBSLTYPE
280
     0
  9
$INTERSECTIONDISPLAY
280
     0
  9
$INTERSECTIONCOLOR
 70
   257
  9
$DIMASSOC
280
     1
  9
$PROJECTNAME
  1

  0
ENDSEC
  0
SECTION
  2
CLASSES
  0
CLASS
  1
ACDBDICTIONARYWDFLT
  2
AcDbDictionaryWithDefault
  3
ObjectDBX Classes
 90
        0
 91
        1
280
     0
281
     0
  0
CLASS
  1
DICTIONARYVAR
  2
AcDbDictionaryVar
  3
ObjectDBX Classes
 90
        0
 91
        3
280
     0
281
     0
  0
ENDSEC
  0
SECTION
  2
TABLES
  0
TABLE
  2
VPORT
  5
8
330
0
100
AcDbSymbolTable
 70
     2
  0
VPORT
  5
7D7
330
8
100
AcDbSymbolTableRecord
100
AcDbViewportTableRecord
  2
*Active
 70
     0
 10
0.0
 20
0.0
 11
1.0
 21
1.0
 12
104.9919931699584
 22
148.4886760546552
 13
0.0
 23
0.0
 14
1.0
 24
1.0
 15
10.0
 25
10.0
 16
0.0
 26
0.0
 36
1.0
 17
0.0
 27
0.0
 37
0.0
 40
299.4212226784854
 41
1.336927223719676
 42
50.0
 43
0.0
 44
0.0
 50
0.0
 51
0.0
 71
     0
 72
  1500
 73
     1
 74
     0
 75
     0
 76
     0
 77
     0
 78
     0
281
     0
 65
     1
110
0.0
120
0.0
130
0.0
111
1.0
121
0.0
131
0.0
112
0.0
122
1.0
132
0.0
 79
     0
146
0.0
  0
ENDTAB
  0
TABLE
  2
LTYPE
  5
5
330
0
100
AcDbSymbolTable
 70
     2
  0
LTYPE
  5
13
330
5
100
AcDbSymbolTableRecord
100
AcDbLinetypeTableRecord
  2
ByBlock
 70
     0
  3

 72
    65
 73
     0
 40
0.0
  0
LTYPE
  5
14
330
5
100
AcDbSymbolTableRecord
100
AcDbLinetypeTableRecord
  2
ByLayer
 70
     0
  3

 72
    65
 73
     0
 40
0.0
  0
LTYPE
  5
15
330
5
100
AcDbSymbolTableRecord
100
AcDbLinetypeTableRecord
  2
Continuous
 70
     0
  3
Solid line
 72
    65
 73
     0
 40
0.0
  0
LTYPE
  5
32
330
5
100
AcDbSymbolTableRecord
100
AcDbLinetypeTableRecord
  2
STRICHPUNKT
 70
     0
  3
__ . __ . __ . __ . __ . __ . __ . __ . __ . __
 72
    65
 73
     4
 40
1.0
 49
0.5
 74
     0
 49
-0.25
 74
     0
 49
0.0
 74
     0
 49
-0.25
 74
     0
  0
ENDTAB
  0
TABLE
  2
LAYER
  5
2
330
0
100
AcDbSymbolTable
 70
     9
  0
LAYER
  5
10
330
2
100
AcDbSymbolTableRecord
100
AcDbLayerTableRecord
  2
0
 70
     0
 62
     7
  6
Continuous
370
    -3
390
F
  0
LAYER
  5
35
330
2
100
AcDbSymbolTableRecord
100
AcDbLayerTableRecord
  2
VOLL
 70
     0
 62
     1
  6
Continuous
370
    -3
390
F
  0
LAYER
  5
36
330
2
100
AcDbSymbolTableRecord
100
AcDbLayerTableRecord
  2
HILF
 70
     0
 62
     2
  6
Continuous
370
    -3
390
F
  0
LAYER
  5
37
330
2
100
AcDbSymbolTableRecord
100
AcDbLayerTableRecord
  2
MITTEL
 70
     0
 62
     2
  6
STRICHPUNKT
370
    -3
390
F
  0
LAYER
  5
38
330
2
100
AcDbSymbolTableRecord
100
AcDbLayerTableRecord
  2
BEM
 70
     0
 62
     7
  6
Continuous
370
    -3
390
F
  0
LAYER
  5
39
330
2
100
AcDbSymbolTableRecord
100
AcDbLayerTableRecord
  2
DEFPOINTS
 70
     0
 62
     7
  6
Continuous
290
     0
370
    -3
390
F
  0
LAYER
  5
3A
330
2
100
AcDbSymbolTableRecord
100
AcDbLayerTableRecord
  2
STEMPEL
 70
     0
 62
     3
  6
Continuous
370
    -3
390
F
  0
LAYER
  5
3B
330
2
100
AcDbSymbolTableRecord
100
AcDbLayerTableRecord
  2
TEXT
 70
     0
 62
     7
  6
Continuous
370
    -3
390
F
  0
LAYER
  5
3C
330
2
100
AcDbSymbolTableRecord
100
AcDbLayerTableRecord
  2
SCHRAFF
 70
     0
 62
     7
  6
Continuous
370
    -3
390
F
  0
ENDTAB
  0
TABLE
  2
STYLE
  5
3
330
0
100
AcDbSymbolTable
 70
     2
  0
STYLE
  5
11
330
3
100
AcDbSymbolTableRecord
100
AcDbTextStyleTableRecord
  2
STANDARD
 70
     0
 40
0.0
 41
0.8
 50
0.0
 71
     0
 42
3.5
  3
simplex.shx
  4

  0
STYLE
  5
31
330
3
100
AcDbSymbolTableRecord
100
AcDbTextStyleTableRecord
  2
GREEKS
 70
     0
 40
0.0
 41
0.8
 50
0.0
 71
     0
 42
2.5
  3
SIMPLEX.shx
  4

  0
ENDTAB
  0
TABLE
  2
VIEW
  5
6
330
0
100
AcDbSymbolTable
 70
     0
  0
ENDTAB
  0
TABLE
  2
UCS
  5
7
330
0
100
AcDbSymbolTable
 70
     0
  0
ENDTAB
  0
TABLE
  2
APPID
  5
9
330
0
100
AcDbSymbolTable
 70
     1
  0
APPID
  5
12
330
9
100
AcDbSymbolTableRecord
100
AcDbRegAppTableRecord
  2
ACAD
 70
     0
  0
ENDTAB
  0
TABLE
  2
DIMSTYLE
  5
A
330
0
100
AcDbSymbolTable
 70
     1
100
AcDbDimStyleTable
 71
     1
340
26B
  0
DIMSTYLE
105
26B
102
{ACAD_REACTORS
330
243
330
621
330
644
330
793
102
}
330
A
100
AcDbSymbolTableRecord
100
AcDbDimStyleTableRecord
  2
Standard
 70
     0
340
11
  0
ENDTAB
  0
TABLE
  2
BLOCK_RECORD
  5
1
330
0
100
AcDbSymbolTable
 70
     6
  0
BLOCK_RECORD
  5
1E
330
1
100
AcDbSymbolTableRecord
100
AcDbBlockTableRecord
  2
*Model_Space
340
21
  0
BLOCK_RECORD
  5
1A
330
1
100
AcDbSymbolTableRecord
100
AcDbBlockTableRecord
  2
*Paper_Space
340
1D
  0
BLOCK_RECORD
  5
22
330
1
100
AcDbSymbolTableRecord
100
AcDbBlockTableRecord
  2
LOGO
340
0
102
{BLKREFS
331
1E2
102
}
  0
BLOCK_RECORD
  5
2E
330
1
100
AcDbSymbolTableRecord
100
AcDbBlockTableRecord
  2
*X1
340
0
102
{BLKREFS
331
24A
102
}
  0
BLOCK_RECORD
  5
2D7
330
1
100
AcDbSymbolTableRecord
100
AcDbBlockTableRecord
  2
*D2
340
0
  0
BLOCK_RECORD
  5
622
330
1
100
AcDbSymbolTableRecord
100
AcDbBlockTableRecord
  2
*D3
340
0
  0
BLOCK_RECORD
  5
645
330
1
100
AcDbSymbolTableRecord
100
AcDbBlockTableRecord
  2
*D4
340
0
  0
BLOCK_RECORD
  5
794
330
1
100
AcDbSymbolTableRecord
100
AcDbBlockTableRecord
  2
*D5
340
0
  0
ENDTAB
  0
ENDSEC
  0
SECTION
  2
BLOCKS
  0
BLOCK
  5
40
330
1E
100
AcDbEntity
  8
0
100
AcDbBlockBegin
  2
*Model_Space
 70
     0
 10
0.0
 20
0.0
 30
0.0
  3
*Model_Space
  1

  0
ENDBLK
  5
41
330
1E
100
AcDbEntity
  8
0
100
AcDbBlockEnd
  0
BLOCK
  5
3E
330
1A
100
AcDbEntity
 67
     1
  8
0
100
AcDbBlockBegin
  2
*Paper_Space
 70
     0
 10
0.0
 20
0.0
 30
0.0
  3
*Paper_Space
  1

  0
ENDBLK
  5
3F
330
1A
100
AcDbEntity
 67
     1
  8
0
100
AcDbBlockEnd
  0
BLOCK
  5
42
330
22
100
AcDbEntity
  8
0
100
AcDbBlockBegin
  2
LOGO
 70
     0
 10
0.0
 20
0.0
 30
0.0
  3
LOGO
  1

  0
ARC
  5
43
330
22
100
AcDbEntity
  8
0
100
AcDbCircle
 10
11.59973089678112
 20
-9.271599258481501
 30
0.0
 40
4.5
100
AcDbArc
 50
270.0
 51
231.0575587310159
  0
LINE
  5
44
330
22
100
AcDbEntity
  8
0
100
AcDbLine
 10
3.599730896781125
 20
-4.771599258481529
 30
0.0
 11
3.599730896781153
 21
-11.77159925848133
 31
0.0
  0
LINE
  5
45
330
22
100
AcDbEntity
  8
0
100
AcDbLine
 10
2.599730896781125
 20
-4.771599258481529
 30
0.0
 11
2.599730896781153
 21
-11.77159925848133
 31
0.0
  0
CIRCLE
  5
46
330
22
100
AcDbEntity
  8
0
100
AcDbCircle
 10
11.59973089678112
 20
-9.271599258481501
 30
0.0
 40
3.5
  0
ARC
  5
47
330
22
100
AcDbEntity
  8
0
100
AcDbCircle
 10
31.59973089678115
 20
-9.271599258481472
 30
0.0
 40
4.5
100
AcDbArc
 50
270.0
 51
231.0575587310182
  0
LINE
  5
48
330
22
100
AcDbEntity
  8
0
100
AcDbLine
 10
17.59973089678112
 20
-4.771599258481472
 30
0.0
 11
17.59973089678115
 21
-13.77159925848147
 31
0.0
  0
ARC
  5
49
330
22
100
AcDbEntity
  8
0
100
AcDbCircle
 10
22.59973089678116
 20
-7.271599258481472
 30
0.0
 40
2.5
100
AcDbArc
 50
293.1161887722295
 51
90.0
  0
CIRCLE
  5
4A
330
22
100
AcDbEntity
  8
0
100
AcDbCircle
 10
31.59973089678115
 20
-9.271599258481472
 30
0.0
 40
3.5
  0
ARC
  5
4B
330
22
100
AcDbEntity
  8
0
100
AcDbCircle
 10
4.599730896781153
 20
-11.77159925848133
 30
0.0
 40
1.0
100
AcDbArc
 50
180.0
 51
270.0
  0
ARC
  5
4C
330
22
100
AcDbEntity
  8
0
100
AcDbCircle
 10
4.599730896781153
 20
-11.77159925848133
 30
0.0
 40
2.0
100
AcDbArc
 50
179.9999999999992
 51
270.0
  0
LINE
  5
4D
330
22
100
AcDbEntity
  8
0
100
AcDbLine
 10
11.59973089678115
 20
-13.77159925848144
 30
0.0
 11
4.599730896781153
 21
-13.77159925848147
 31
0.0
  0
LINE
  5
4E
330
22
100
AcDbEntity
  8
0
100
AcDbLine
 10
8.771303772034769
 20
-12.77159925848136
 30
0.0
 11
4.599730896781153
 21
-12.77159925848133
 31
0.0
  0
LINE
  5
4F
330
22
100
AcDbEntity
  8
0
100
AcDbLine
 10
31.59973089678115
 20
-13.77159925848147
 30
0.0
 11
23.6715276665056
 21
-13.77159925848144
 31
0.0
  0
LINE
  5
50
330
22
100
AcDbEntity
  8
0
100
AcDbLine
 10
23.56565672307022
 20
-9.51278021337896
 30
0.0
 11
24.4388546544846
 21
-12.77159925848144
 31
0.0
  0
LINE
  5
51
330
22
100
AcDbEntity
  8
0
100
AcDbLine
 10
22.59973089678116
 20
-9.771599258481472
 30
0.0
 11
18.59973089678112
 21
-9.771599258481472
 31
0.0
  0
LINE
  5
52
330
22
100
AcDbEntity
  8
0
100
AcDbLine
 10
18.59973089678115
 20
-13.77159925848144
 30
0.0
 11
17.59973089678115
 21
-13.77159925848144
 31
0.0
  0
LINE
  5
53
330
22
100
AcDbEntity
  8
0
100
AcDbLine
 10
18.59973089678115
 20
-9.771599258481472
 30
0.0
 11
18.59973089678115
 21
-13.77159925848144
 31
0.0
  0
LINE
  5
54
330
22
100
AcDbEntity
  8
0
100
AcDbLine
 10
22.59973089678116
 20
-9.771599258481472
 30
0.0
 11
23.67152766650562
 21
-13.77159925848147
 31
0.0
  0
ARC
  5
55
330
22
100
AcDbEntity
  8
0
100
AcDbCircle
 10
22.59973089678116
 20
-7.271599258481472
 30
0.0
 40
2.5
100
AcDbArc
 50
270.0
 51
270.0000000000007
  0
LINE
  5
56
330
22
100
AcDbEntity
  8
0
100
AcDbLine
 10
28.77130377203494
 20
-12.77159925848147
 30
0.0
 11
24.43885465448463
 21
-12.77159925848144
 31
0.0
  0
LINE
  5
57
330
22
100
AcDbEntity
  8
0
100
AcDbLine
 10
3.599730896781125
 20
-4.771599258481472
 30
0.0
 11
2.599730896781125
 21
-4.771599258481472
 31
0.0
  0
LINE
  5
58
330
22
100
AcDbEntity
  8
0
100
AcDbLine
 10
22.59973089678116
 20
-8.771599258481472
 30
0.0
 11
18.59973089678115
 21
-8.771599258481472
 31
0.0
  0
LINE
  5
59
330
22
100
AcDbEntity
  8
0
100
AcDbLine
 10
22.59973089678116
 20
-5.771599258481472
 30
0.0
 11
18.59973089678115
 21
-5.771599258481472
 31
0.0
  0
LINE
  5
5A
330
22
100
AcDbEntity
  8
0
100
AcDbLine
 10
22.59973089678116
 20
-4.771599258481472
 30
0.0
 11
17.59973089678115
 21
-4.771599258481472
 31
0.0
  0
LINE
  5
5B
330
22
100
AcDbEntity
  8
0
100
AcDbLine
 10
18.59973089678115
 20
-5.771599258481472
 30
0.0
 11
18.59973089678115
 21
-8.771599258481472
 31
0.0
  0
ARC
  5
5C
330
22
100
AcDbEntity
  8
0
100
AcDbCircle
 10
22.59973089678116
 20
-7.271599258481472
 30
0.0
 40
1.5
100
AcDbArc
 50
270.0
 51
90.0
  0
ENDBLK
  5
5D
330
22
100
AcDbEntity
  8
0
100
AcDbBlockEnd
  0
BLOCK
  5
126
330
2E
100
AcDbEntity
  8
0
100
AcDbBlockBegin
  2
*X1
 70
     1
 10
0.0
 20
0.0
 30
0.0
  3
*X1
  1

  0
LINE
  5
127
330
2E
100
AcDbEntity
  8
0
 62
     0
100
AcDbLine
 10
92.63588786594938
 20
200.9548476827051
 30
0.0
 11
92.59648702996921
 21
200.9942485186853
 31
0.0
  0
LINE
  5
128
330
2E
100
AcDbEntity
  8
0
 62
     0
100
AcDbLine
 10
92.63588786594938
 20
200.8134263264678
 30
0.0
 11
92.52918043022589
 21
200.9201337621913
 31
0.0
  0
LINE
  5
129
330
2E
100
AcDbEntity
  8
0
 62
     0
100
AcDbLine
 10
92.63588786594938
 20
200.6720049702305
 30
0.0
 11
92.46386379467431
 21
200.8440290415056
 31
0.0
  0
LINE
  5
12A
330
2E
100
AcDbEntity
  8
0
 62
     0
100
AcDbLine
 10
92.63588786594938
 20
200.5305836139932
 30
0.0
 11
92.40054995250494
 21
200.7659215274376
 31
0.0
  0
LINE
  5
12B
330
2E
100
AcDbEntity
  8
0
 62
     0
100
AcDbLine
 10
92.63588786594938
 20
200.3891622577559
 30
0.0
 11
92.3392566764344
 21
200.6857934472709
 31
0.0
  0
LINE
  5
12C
330
2E
100
AcDbEntity
  8
0
 62
     0
100
AcDbLine
 10
92.63588786594938
 20
200.2477409015186
 30
0.0
 11
92.28000689996797
 21
200.6036218675
 31
0.0
  0
LINE
  5
12D
330
2E
100
AcDbEntity
  8
0
 62
     0
100
AcDbLine
 10
92.63588786594938
 20
200.1063195452813
 30
0.0
 11
92.22282900403973
 21
200.5193784071909
 31
0.0
  0
LINE
  5
12E
330
2E
100
AcDbEntity
  8
0
 62
     0
100
AcDbLine
 10
92.63588786594938
 20
199.9648981890439
 30
0.0
 11
92.16775718161857
 21
200.4330288733748
 31
0.0
  0
LINE
  5
12F
330
2E
100
AcDbEntity
  8
0
 62
     0
100
AcDbLine
 10
92.63588786594938
 20
199.8234768328067
 30
0.0
 11
92.11483189161842
 21
200.3445328071376
 31
0.0
  0
LINE
  5
130
330
2E
100
AcDbEntity
  8
0
 62
     0
100
AcDbLine
 10
92.63588786594938
 20
199.6820554765693
 30
0.0
 11
92.06410041685977
 21
200.253842925659
 31
0.0
  0
LINE
  5
131
330
2E
100
AcDbEntity
  8
0
 62
     0
100
AcDbLine
 10
92.63588786594938
 20
199.540634120332
 30
0.0
 11
92.01561754513759
 21
200.1609044411438
 31
0.0
  0
LINE
  5
132
330
2E
100
AcDbEntity
  8
0
 62
     0
100
AcDbLine
 10
92.63588786594938
 20
199.3992127640947
 30
0.0
 11
91.96944639799841
 21
200.0656542320457
 31
0.0
  0
LINE
  5
133
330
2E
100
AcDbEntity
  8
0
 62
     0
100
AcDbLine
 10
92.63588786594938
 20
199.2577914078574
 30
0.0
 11
91.9256594390754
 21
199.9680198347314
 31
0.0
  0
LINE
  5
134
330
2E
100
AcDbEntity
  8
0
 62
     0
100
AcDbLine
 10
92.63588786594938
 20
199.1163700516201
 30
0.0
 11
91.88433970344396
 21
199.8679182141255
 31
0.0
  0
LINE
  5
135
330
2E
100
AcDbEntity
  8
0
 62
     0
100
AcDbLine
 10
92.63588786594938
 20
198.9749486953828
 30
0.0
 11
91.84558230238849
 21
199.7652542589437
 31
0.0
  0
LINE
  5
136
330
2E
100
AcDbEntity
  8
0
 62
     0
100
AcDbLine
 10
92.63588786594938
 20
198.8335273391455
 30
0.0
 11
91.80949627561812
 21
199.6599189294767
 31
0.0
  0
LINE
  5
137
330
2E
100
AcDbEntity
  8
0
 62
     0
100
AcDbLine
 10
92.63588786594938
 20
198.6921059829082
 30
0.0
 11
91.77620688741372
 21
199.5517869614438
 31
0.0
  0
LINE
  5
138
330
2E
100
AcDbEntity
  8
0
 62
     0
100
AcDbLine
 10
92.63588786594938
 20
198.5506846266709
 30
0.0
 11
91.74585849760266
 21
199.4407139950176
 31
0.0
  0
LINE
  5
139
330
2E
100
AcDbEntity
  8
0
 62
     0
100
AcDbLine
 10
92.63588786594938
 20
198.4092632704335
 30
0.0
 11
91.71861818754214
 21
199.3265329488408
 31
0.0
  0
LINE
  5
13A
330
2E
100
AcDbEntity
  8
0
 62
     0
100
AcDbLine
 10
92.63588786594938
 20
198.2678419141963
 30
0.0
 11
91.6946803932209
 21
199.2090493869247
 31
0.0
  0
LINE
  5
13B
330
2E
100
AcDbEntity
  8
0
 62
     0
100
AcDbLine
 10
92.63588786594938
 20
198.1264205579589
 30
0.0
 11
91.67427290476695
 21
199.0880355191413
 31
0.0
  0
LINE
  5
13C
330
2E
100
AcDbEntity
  8
0
 62
     0
100
AcDbLine
 10
92.72895159269108
 20
197.8919354749799
 30
0.0
 11
91.65766475508737
 21
198.9632223125836
 31
0.0
  0
LINE
  5
13D
330
2E
100
AcDbEntity
  8
0
 62
     0
100
AcDbLine
 10
92.98822407912613
 20
197.4912416323076
 30
0.0
 11
91.6451767761492
 21
198.8342889352845
 31
0.0
  0
LINE
  5
13E
330
2E
100
AcDbEntity
  8
0
 62
     0
100
AcDbLine
 10
93.2474965655612
 20
197.0905477896352
 30
0.0
 11
91.63719601364295
 21
198.7008483415534
 31
0.0
  0
LINE
  5
13F
330
2E
100
AcDbEntity
  8
0
 62
     0
100
AcDbLine
 10
93.50676905199625
 20
196.6898539469628
 30
0.0
 11
91.63419587782346
 21
198.5624271211356
 31
0.0
  0
LINE
  5
140
330
2E
100
AcDbEntity
  8
0
 62
     0
100
AcDbLine
 10
93.76604153843137
 20
196.2891601042904
 30
0.0
 11
91.63676509866183
 21
198.4184365440599
 31
0.0
  0
LINE
  5
141
330
2E
100
AcDbEntity
  8
0
 62
     0
100
AcDbLine
 10
94.02531402486642
 20
195.888466261618
 30
0.0
 11
91.64565071138166
 21
198.2681295751028
 31
0.0
  0
LINE
  5
142
330
2E
100
AcDbEntity
  8
0
 62
     0
100
AcDbLine
 10
94.28458651130148
 20
195.4877724189456
 30
0.0
 11
91.66182442679897
 21
198.1105345034482
 31
0.0
  0
LINE
  5
143
330
2E
100
AcDbEntity
  8
0
 62
     0
100
AcDbLine
 10
94.54385899773654
 20
195.0870785762733
 30
0.0
 11
91.68659016960843
 21
197.9443474044014
 31
0.0
  0
LINE
  5
144
330
2E
100
AcDbEntity
  8
0
 62
     0
100
AcDbLine
 10
94.42245402993592
 20
195.0670621878366
 30
0.0
 11
91.72176921827503
 21
197.7677469994975
 31
0.0
  0
LINE
  5
145
330
2E
100
AcDbEntity
  8
0
 62
     0
100
AcDbLine
 10
94.23275678485117
 20
195.115338076684
 30
0.0
 11
91.77004510712245
 21
197.5780497544127
 31
0.0
  0
LINE
  5
146
330
2E
100
AcDbEntity
  8
0
 62
     0
100
AcDbLine
 10
94.02570158782188
 20
195.180971917476
 30
0.0
 11
91.83567894791442
 21
197.3709945573835
 31
0.0
  0
LINE
  5
147
330
2E
100
AcDbEntity
  8
0
 62
     0
100
AcDbLine
 10
93.79371530168745
 20
195.2715368473731
 30
0.0
 11
91.92624387781155
 21
197.139008271249
 31
0.0
  0
LINE
  5
148
330
2E
100
AcDbEntity
  8
0
 62
     0
100
AcDbLine
 10
93.5204836329472
 20
195.4033471598761
 30
0.0
 11
92.05805419031449
 21
196.8657766025088
 31
0.0
  0
LINE
  5
149
330
2E
100
AcDbEntity
  8
0
 62
     0
100
AcDbLine
 10
93.15155656790995
 20
195.630852868676
 30
0.0
 11
92.28555989911445
 21
196.4968495374716
 31
0.0
  0
LINE
  5
14A
330
2E
100
AcDbEntity
  8
0
 62
     0
100
AcDbLine
 10
143.7911240839973
 20
195.0544454605962
 30
0.0
 11
143.7399280404386
 21
195.1056415041549
 31
0.0
  0
LINE
  5
14B
330
2E
100
AcDbEntity
  8
0
 62
     0
100
AcDbLine
 10
143.9065313207787
 20
195.0804595800521
 30
0.0
 11
143.795486430389
 21
195.1915044704418
 31
0.0
  0
LINE
  5
14C
330
2E
100
AcDbEntity
  8
0
 62
     0
100
AcDbLine
 10
144.0187603495467
 20
195.1096519075214
 30
0.0
 11
143.8510448203394
 21
195.2773674367288
 31
0.0
  0
LINE
  5
14D
330
2E
100
AcDbEntity
  8
0
 62
     0
100
AcDbLine
 10
144.1279880016546
 20
195.1418456116508
 30
0.0
 11
143.9066032102898
 21
195.3632304030157
 31
0.0
  0
LINE
  5
14E
330
2E
100
AcDbEntity
  8
0
 62
     0
100
AcDbLine
 10
144.2343667673829
 20
195.1768882021599
 30
0.0
 11
143.9621616002401
 21
195.4490933693026
 31
0.0
  0
LINE
  5
14F
330
2E
100
AcDbEntity
  8
0
 62
     0
100
AcDbLine
 10
144.3380287688238
 20
195.2146475569563
 30
0.0
 11
144.0177199901905
 21
195.5349563355896
 31
0.0
  0
LINE
  5
150
330
2E
100
AcDbEntity
  8
0
 62
     0
100
AcDbLine
 10
144.4390888923051
 20
195.2550087897123
 30
0.0
 11
144.0732783801409
 21
195.6208193018765
 31
0.0
  0
LINE
  5
151
330
2E
100
AcDbEntity
  8
0
 62
     0
100
AcDbLine
 10
144.5376472845603
 20
195.2978717536944
 30
0.0
 11
144.1288367700912
 21
195.7066822681635
 31
0.0
  0
LINE
  5
152
330
2E
100
AcDbEntity
  8
0
 62
     0
100
AcDbLine
 10
144.6337913601179
 20
195.3431490343741
 30
0.0
 11
144.1843951600416
 21
195.7925452344504
 31
0.0
  0
LINE
  5
153
330
2E
100
AcDbEntity
  8
0
 62
     0
100
AcDbLine
 10
144.7275974280321
 20
195.3907643226972
 30
0.0
 11
144.2399535499919
 21
195.8784082007373
 31
0.0
  0
LINE
  5
154
330
2E
100
AcDbEntity
  8
0
 62
     0
100
AcDbLine
 10
144.81913201831
 20
195.4406510886567
 30
0.0
 11
144.2955119399423
 21
195.9642711670242
 31
0.0
  0
LINE
  5
155
330
2E
100
AcDbEntity
  8
0
 62
     0
100
AcDbLine
 10
144.908452968459
 20
195.492751494745
 30
0.0
 11
144.3510703298927
 21
196.0501341333112
 31
0.0
  0
LINE
  5
156
330
2E
100
AcDbEntity
  8
0
 62
     0
100
AcDbLine
 10
144.9956103160589
 20
195.5470155033824
 30
0.0
 11
144.4066287198431
 21
196.1359970995981
 31
0.0
  0
LINE
  5
157
330
2E
100
AcDbEntity
  8
0
 62
     0
100
AcDbLine
 10
145.0806470325271
 20
195.6034001431515
 30
0.0
 11
144.4621871097935
 21
196.2218600658851
 31
0.0
  0
LINE
  5
158
330
2E
100
AcDbEntity
  8
0
 62
     0
100
AcDbLine
 10
145.163599625192
 20
195.6618689067239
 30
0.0
 11
144.5177454997438
 21
196.307723032172
 31
0.0
  0
LINE
  5
159
330
2E
100
AcDbEntity
  8
0
 62
     0
100
AcDbLine
 10
145.2444986286642
 20
195.722391259489
 30
0.0
 11
144.5733038896942
 21
196.3935859984589
 31
0.0
  0
LINE
  5
15A
330
2E
100
AcDbEntity
  8
0
 62
     0
100
AcDbLine
 10
145.3233690017621
 20
195.7849422426284
 30
0.0
 11
144.6288622796446
 21
196.4794489647459
 31
0.0
  0
LINE
  5
15B
330
2E
100
AcDbEntity
  8
0
 62
     0
100
AcDbLine
 10
145.4002304425319
 20
195.8495021580959
 30
0.0
 11
144.6844206695949
 21
196.5653119310328
 31
0.0
  0
LINE
  5
15C
330
2E
100
AcDbEntity
  8
0
 62
     0
100
AcDbLine
 10
145.4750976309278
 20
195.9160563259373
 30
0.0
 11
144.7399790595453
 21
196.6511748973197
 31
0.0
  0
LINE
  5
15D
330
2E
100
AcDbEntity
  8
0
 62
     0
100
AcDbLine
 10
145.5479804062808
 20
195.9845949068216
 30
0.0
 11
144.7955374494957
 21
196.7370378636067
 31
0.0
  0
LINE
  5
15E
330
2E
100
AcDbEntity
  8
0
 62
     0
100
AcDbLine
 10
145.6188838846364
 20
196.0551127847033
 30
0.0
 11
144.8510958394461
 21
196.8229008298936
 31
0.0
  0
LINE
  5
15F
330
2E
100
AcDbEntity
  8
0
 62
     0
100
AcDbLine
 10
145.6878085192555
 20
196.1276095063216
 30
0.0
 11
144.9066542293964
 21
196.9087637961806
 31
0.0
  0
LINE
  5
160
330
2E
100
AcDbEntity
  8
0
 62
     0
100
AcDbLine
 10
145.7547501059574
 20
196.2020892758569
 30
0.0
 11
144.9622126193468
 21
196.9946267624675
 31
0.0
  0
LINE
  5
161
330
2E
100
AcDbEntity
  8
0
 62
     0
100
AcDbLine
 10
145.8196997334539
 20
196.2785610045978
 30
0.0
 11
145.0177710092972
 21
197.0804897287545
 31
0.0
  0
LINE
  5
162
330
2E
100
AcDbEntity
  8
0
 62
     0
100
AcDbLine
 10
145.8826436772958
 20
196.3570384169932
 30
0.0
 11
145.0733293992476
 21
197.1663526950414
 31
0.0
  0
LINE
  5
163
330
2E
100
AcDbEntity
  8
0
 62
     0
100
AcDbLine
 10
145.9435632344643
 20
196.4375402160619
 30
0.0
 11
145.1288877891979
 21
197.2522156613283
 31
0.0
  0
LINE
  5
164
330
2E
100
AcDbEntity
  8
0
 62
     0
100
AcDbLine
 10
146.0024344938927
 20
196.5200903128708
 30
0.0
 11
145.1844461791483
 21
197.3380786276153
 31
0.0
  0
LINE
  5
165
330
2E
100
AcDbEntity
  8
0
 62
     0
100
AcDbLine
 10
146.0592280362142
 20
196.6047181267867
 30
0.0
 11
145.2400045690987
 21
197.4239415939022
 31
0.0
  0
LINE
  5
166
330
2E
100
AcDbEntity
  8
0
 62
     0
100
AcDbLine
 10
146.1139085536831
 20
196.6914589655551
 30
0.0
 11
145.295562959049
 21
197.5098045601891
 31
0.0
  0
LINE
  5
167
330
2E
100
AcDbEntity
  8
0
 62
     0
100
AcDbLine
 10
146.1664343783596
 20
196.7803544971158
 30
0.0
 11
145.3511213489994
 21
197.5956675264761
 31
0.0
  0
LINE
  5
168
330
2E
100
AcDbEntity
  8
0
 62
     0
100
AcDbLine
 10
146.2167569030963
 20
196.8714533286165
 30
0.0
 11
145.4066797389498
 21
197.681530492763
 31
0.0
  0
LINE
  5
169
330
2E
100
AcDbEntity
  8
0
 62
     0
100
AcDbLine
 10
146.2648198753544
 20
196.9648117125957
 30
0.0
 11
145.4622381289002
 21
197.7673934590499
 31
0.0
  0
LINE
  5
16A
330
2E
100
AcDbEntity
  8
0
 62
     0
100
AcDbLine
 10
146.3105585380617
 20
197.0604944061258
 30
0.0
 11
145.5177965188505
 21
197.8532564253369
 31
0.0
  0
LINE
  5
16B
330
2E
100
AcDbEntity
  8
0
 62
     0
100
AcDbLine
 10
146.3538985840943
 20
197.1585757163305
 30
0.0
 11
145.5733549088009
 21
197.9391193916238
 31
0.0
  0
LINE
  5
16C
330
2E
100
AcDbEntity
  8
0
 62
     0
100
AcDbLine
 10
146.3947548808299
 20
197.2591407758321
 30
0.0
 11
145.6289132987513
 21
198.0249823579107
 31
0.0
  0
LINE
  5
16D
330
2E
100
AcDbEntity
  8
0
 62
     0
100
AcDbLine
 10
146.4330299075399
 20
197.3622871053594
 30
0.0
 11
145.6358878659494
 21
198.15942914695
 31
0.0
  0
LINE
  5
16E
330
2E
100
AcDbEntity
  8
0
 62
     0
100
AcDbLine
 10
146.468611829678
 20
197.4681265394587
 30
0.0
 11
145.6358878659494
 21
198.3008505031873
 31
0.0
  0
LINE
  5
16F
330
2E
100
AcDbEntity
  8
0
 62
     0
100
AcDbLine
 10
146.5013721081206
 20
197.5767876172534
 30
0.0
 11
145.6358878659494
 21
198.4422718594246
 31
0.0
  0
LINE
  5
170
330
2E
100
AcDbEntity
  8
0
 62
     0
100
AcDbLine
 10
146.5311625047039
 20
197.6884185769073
 30
0.0
 11
145.6358878659494
 21
198.5836932156619
 31
0.0
  0
LINE
  5
171
330
2E
100
AcDbEntity
  8
0
 62
     0
100
AcDbLine
 10
146.5578112926466
 20
197.803191145202
 30
0.0
 11
145.6358878659494
 21
198.7251145718992
 31
0.0
  0
LINE
  5
172
330
2E
100
AcDbEntity
  8
0
 62
     0
100
AcDbLine
 10
146.581118403174
 20
197.9213053909119
 30
0.0
 11
145.6358878659494
 21
198.8665359281365
 31
0.0
  0
LINE
  5
173
330
2E
100
AcDbEntity
  8
0
 62
     0
100
AcDbLine
 10
146.6008491240494
 20
198.0429960262738
 30
0.0
 11
145.6358878659494
 21
199.0079572843738
 31
0.0
  0
LINE
  5
174
330
2E
100
AcDbEntity
  8
0
 62
     0
100
AcDbLine
 10
146.616725788615
 20
198.1685407179455
 30
0.0
 11
145.6358878659494
 21
199.1493786406111
 31
0.0
  0
LINE
  5
175
330
2E
100
AcDbEntity
  8
0
 62
     0
100
AcDbLine
 10
146.628416615359
 20
198.2982712474388
 30
0.0
 11
145.6358878659494
 21
199.2907999968484
 31
0.0
  0
LINE
  5
176
330
2E
100
AcDbEntity
  8
0
 62
     0
100
AcDbLine
 10
146.6355204064121
 20
198.432588812623
 30
0.0
 11
145.6358878659494
 21
199.4322213530857
 31
0.0
  0
LINE
  5
177
330
2E
100
AcDbEntity
  8
0
 62
     0
100
AcDbLine
 10
146.6375450556379
 20
198.5719855196346
 30
0.0
 11
145.6358878659494
 21
199.573642709323
 31
0.0
  0
LINE
  5
178
330
2E
100
AcDbEntity
  8
0
 62
     0
100
AcDbLine
 10
146.6338764938953
 20
198.7170754376145
 30
0.0
 11
145.6358878659494
 21
199.7150640655604
 31
0.0
  0
LINE
  5
179
330
2E
100
AcDbEntity
  8
0
 62
     0
100
AcDbLine
 10
146.6237322783404
 20
198.8686410094067
 30
0.0
 11
145.6358878659494
 21
199.8564854217977
 31
0.0
  0
LINE
  5
17A
330
2E
100
AcDbEntity
  8
0
 62
     0
100
AcDbLine
 10
146.6060893502828
 20
199.0277052937016
 30
0.0
 11
145.6358878659494
 21
199.997906778035
 31
0.0
  0
LINE
  5
17B
330
2E
100
AcDbEntity
  8
0
 62
     0
100
AcDbLine
 10
146.5795657965928
 20
199.1956502036288
 30
0.0
 11
145.6358878659494
 21
200.1393281342723
 31
0.0
  0
LINE
  5
17C
330
2E
100
AcDbEntity
  8
0
 62
     0
100
AcDbLine
 10
146.5422146430921
 20
199.3744227133668
 30
0.0
 11
145.6358878659494
 21
200.2807494905096
 31
0.0
  0
LINE
  5
17D
330
2E
100
AcDbEntity
  8
0
 62
     0
100
AcDbLine
 10
146.491133050737
 20
199.5669256619593
 30
0.0
 11
145.6358878659494
 21
200.4221708467469
 31
0.0
  0
LINE
  5
17E
330
2E
100
AcDbEntity
  8
0
 62
     0
100
AcDbLine
 10
146.4216319735255
 20
199.7778480954081
 30
0.0
 11
145.6358878659494
 21
200.5635922029842
 31
0.0
  0
LINE
  5
17F
330
2E
100
AcDbEntity
  8
0
 62
     0
100
AcDbLine
 10
146.3251467706873
 20
200.0157546544836
 30
0.0
 11
145.6358878659494
 21
200.7050135592216
 31
0.0
  0
LINE
  5
180
330
2E
100
AcDbEntity
  8
0
 62
     0
100
AcDbLine
 10
146.182243501617
 20
200.3000792797912
 30
0.0
 11
145.6358878659494
 21
200.8464349154588
 31
0.0
  0
LINE
  5
181
330
2E
100
AcDbEntity
  8
0
 62
     0
100
AcDbLine
 10
145.9163376325821
 20
200.7074065050635
 30
0.0
 11
145.6358878659494
 21
200.9878562716961
 31
0.0
  0
ENDBLK
  5
182
330
2E
100
AcDbEntity
  8
0
100
AcDbBlockEnd
  0
BLOCK
  5
2E1
330
2D7
100
AcDbEntity
  8
0
100
AcDbBlockBegin
  2
*D2
 70
     1
 10
0.0
 20
0.0
 30
0.0
  3
*D2
  1

  0
LINE
  5
7B2
330
2D7
100
AcDbEntity
  8
BEM
 62
     0
370
    -2
100
AcDbLine
 10
89.37836730683267
 20
128.0957002628627
 30
0.0
 11
89.37836730683267
 21
107.3549121128718
 31
0.0
  0
LINE
  5
7B3
330
2D7
100
AcDbEntity
  8
BEM
 62
     0
370
    -2
100
AcDbLine
 10
131.3783673068326
 20
128.0957002628631
 30
0.0
 11
131.3783673068326
 21
107.3549121128718
 31
0.0
  0
LINE
  5
7B4
330
2D7
100
AcDbEntity
  8
BEM
 62
     0
370
    -2
100
AcDbLine
 10
92.87836730683267
 20
108.3549121128718
 30
0.0
 11
127.8783673068327
 21
108.3549121128718
 31
0.0
  0
SOLID
  5
7B5
330
2D7
100
AcDbEntity
  8
BEM
 62
     0
100
AcDbTrace
 10
92.87836730683267
 20
108.9382454462052
 30
0.0
 11
92.87836730683267
 21
107.7715787795385
 31
0.0
 12
89.37836730683267
 22
108.3549121128718
 32
0.0
 13
89.37836730683267
 23
108.3549121128718
 33
0.0
  0
SOLID
  5
7B6
330
2D7
100
AcDbEntity
  8
BEM
 62
     0
100
AcDbTrace
 10
127.8783673068327
 20
108.9382454462052
 30
0.0
 11
127.8783673068327
 21
107.7715787795385
 31
0.0
 12
131.3783673068326
 22
108.3549121128718
 32
0.0
 13
131.3783673068326
 23
108.3549121128718
 33
0.0
  0
MTEXT
  5
7B7
330
2D7
100
AcDbEntity
  8
BEM
 62
     1
100
AcDbMText
 10
110.3783673068327
 20
111.6049121128718
 30
0.0
 40
3.5
 41
0.0
 71
     5
 72
     1
  1
\A1;%%C42
 73
     1
 44
1.0
  0
POINT
  5
7B8
330
2D7
100
AcDbEntity
  8
DEFPOINTS
 62
     0
100
AcDbPoint
 10
89.37836730683267
 20
129.0957002628627
 30
0.0
  0
POINT
  5
7B9
330
2D7
100
AcDbEntity
  8
DEFPOINTS
 62
     0
100
AcDbPoint
 10
131.3783673068326
 20
129.0957002628631
 30
0.0
  0
POINT
  5
7BA
330
2D7
100
AcDbEntity
  8
DEFPOINTS
 62
     0
100
AcDbPoint
 10
131.3783673068326
 20
108.3549121128718
 30
0.0
  0
ENDBLK
  5
2E2
330
2D7
100
AcDbEntity
  8
0
100
AcDbBlockEnd
  0
BLOCK
  5
62C
330
622
100
AcDbEntity
  8
0
100
AcDbBlockBegin
  2
*D3
 70
     1
 10
0.0
 20
0.0
 30
0.0
  3
*D3
  1

  0
LINE
  5
7A9
330
622
100
AcDbEntity
  8
BEM
 62
     0
370
    -2
100
AcDbLine
 10
65.87836730683266
 20
255.1611916772257
 30
0.0
 11
65.87836730683266
 21
266.7486589235177
 31
0.0
  0
LINE
  5
7AA
330
622
100
AcDbEntity
  8
BEM
 62
     0
370
    -2
100
AcDbLine
 10
154.8783673068326
 20
255.1611916772253
 30
0.0
 11
154.8783673068326
 21
266.7486589235177
 31
0.0
  0
LINE
  5
7AB
330
622
100
AcDbEntity
  8
BEM
 62
     0
370
    -2
100
AcDbLine
 10
69.37836730683265
 20
265.7486589235177
 30
0.0
 11
151.3783673068326
 21
265.7486589235177
 31
0.0
  0
SOLID
  5
7AC
330
622
100
AcDbEntity
  8
BEM
 62
     0
100
AcDbTrace
 10
69.37836730683265
 20
266.331992256851
 30
0.0
 11
69.37836730683265
 21
265.1653255901844
 31
0.0
 12
65.87836730683266
 22
265.7486589235177
 32
0.0
 13
65.87836730683266
 23
265.7486589235177
 33
0.0
  0
SOLID
  5
7AD
330
622
100
AcDbEntity
  8
BEM
 62
     0
100
AcDbTrace
 10
151.3783673068326
 20
266.331992256851
 30
0.0
 11
151.3783673068326
 21
265.1653255901844
 31
0.0
 12
154.8783673068326
 22
265.7486589235177
 32
0.0
 13
154.8783673068326
 23
265.7486589235177
 33
0.0
  0
MTEXT
  5
7AE
330
622
100
AcDbEntity
  8
BEM
 62
     1
100
AcDbMText
 10
110.3783673068327
 20
268.9986589235177
 30
0.0
 40
3.5
 41
0.0
 71
     5
 72
     1
  1
\A1;%%c89
 73
     1
 44
1.0
  0
POINT
  5
7AF
330
622
100
AcDbEntity
  8
DEFPOINTS
 62
     0
100
AcDbPoint
 10
65.87836730683266
 20
254.1611916772256
 30
0.0
  0
POINT
  5
7B0
330
622
100
AcDbEntity
  8
DEFPOINTS
 62
     0
100
AcDbPoint
 10
154.8783673068326
 20
254.1611916772254
 30
0.0
  0
POINT
  5
7B1
330
622
100
AcDbEntity
  8
DEFPOINTS
 62
     0
100
AcDbPoint
 10
154.8783673068326
 20
265.7486589235177
 30
0.0
  0
ENDBLK
  5
62D
330
622
100
AcDbEntity
  8
0
100
AcDbBlockEnd
  0
BLOCK
  5
64F
330
645
100
AcDbEntity
  8
0
100
AcDbBlockBegin
  2
*D4
 70
     1
 10
0.0
 20
0.0
 30
0.0
  3
*D4
  1

  0
LINE
  5
7BB
330
645
100
AcDbEntity
  8
BEM
 62
     0
370
    -2
100
AcDbLine
 10
64.87836730683266
 20
254.1611916772256
 30
0.0
 11
48.77051141397853
 21
254.1611916772257
 31
0.0
  0
LINE
  5
7BC
330
645
100
AcDbEntity
  8
BEM
 62
     0
370
    -2
100
AcDbLine
 10
88.98505819519909
 20
122.1611916772255
 30
0.0
 11
48.7705114139785
 21
122.1611916772255
 31
0.0
  0
LINE
  5
7BD
330
645
100
AcDbEntity
  8
BEM
 62
     0
370
    -2
100
AcDbLine
 10
49.77051141397853
 20
250.6611916772257
 30
0.0
 11
49.77051141397851
 21
125.6611916772255
 31
0.0
  0
SOLID
  5
7BE
330
645
100
AcDbEntity
  8
BEM
 62
     0
100
AcDbTrace
 10
49.1871780806452
 20
250.6611916772257
 30
0.0
 11
50.35384474731187
 21
250.6611916772257
 31
0.0
 12
49.77051141397853
 22
254.1611916772257
 32
0.0
 13
49.77051141397853
 23
254.1611916772257
 33
0.0
  0
SOLID
  5
7BF
330
645
100
AcDbEntity
  8
BEM
 62
     0
100
AcDbTrace
 10
49.18717808064517
 20
125.6611916772255
 30
0.0
 11
50.35384474731184
 21
125.6611916772255
 31
0.0
 12
49.77051141397851
 22
122.1611916772255
 32
0.0
 13
49.77051141397851
 23
122.1611916772255
 33
0.0
  0
MTEXT
  5
7C0
330
645
100
AcDbEntity
  8
BEM
 62
     1
100
AcDbMText
 10
46.52051141397849
 20
188.1611916772256
 30
0.0
 40
3.5
 41
0.0
 71
     5
 72
     1
  1
\A1;132
 11
0.0000000000000001
 21
1.0
 31
0.0
 73
     1
 44
1.0
  0
POINT
  5
7C1
330
645
100
AcDbEntity
  8
DEFPOINTS
 62
     0
100
AcDbPoint
 10
65.87836730683266
 20
254.1611916772256
 30
0.0
  0
POINT
  5
7C2
330
645
100
AcDbEntity
  8
DEFPOINTS
 62
     0
100
AcDbPoint
 10
89.98505819519911
 20
122.1611916772255
 30
0.0
  0
POINT
  5
7C3
330
645
100
AcDbEntity
  8
DEFPOINTS
 62
     0
100
AcDbPoint
 10
49.77051141397851
 20
122.1611916772255
 30
0.0
  0
ENDBLK
  5
650
330
645
100
AcDbEntity
  8
0
100
AcDbBlockEnd
  0
BLOCK
  5
79E
330
794
100
AcDbEntity
  8
0
100
AcDbBlockBegin
  2
*D5
 70
     1
 10
0.0
 20
0.0
 30
0.0
  3
*D5
  1

  0
LINE
  5
7C4
330
794
100
AcDbEntity
  8
BEM
 62
     0
370
    -2
100
AcDbLine
 10
88.98505819519909
 20
122.1611916772255
 30
0.0
 11
55.7705114139785
 21
122.1611916772255
 31
0.0
  0
LINE
  5
7C5
330
794
100
AcDbEntity
  8
BEM
 62
     0
370
    -2
100
AcDbLine
 10
64.87836730683266
 20
147.1611916772255
 30
0.0
 11
55.77051141397851
 21
147.1611916772256
 31
0.0
  0
LINE
  5
7C6
330
794
100
AcDbEntity
  8
BEM
 62
     0
370
    -2
100
AcDbLine
 10
56.7705114139785
 20
125.6611916772255
 30
0.0
 11
56.7705114139785
 21
143.6611916772256
 31
0.0
  0
SOLID
  5
7C7
330
794
100
AcDbEntity
  8
BEM
 62
     0
100
AcDbTrace
 10
56.18717808064516
 20
125.6611916772255
 30
0.0
 11
57.35384474731183
 21
125.6611916772255
 31
0.0
 12
56.7705114139785
 22
122.1611916772255
 32
0.0
 13
56.7705114139785
 23
122.1611916772255
 33
0.0
  0
SOLID
  5
7C8
330
794
100
AcDbEntity
  8
BEM
 62
     0
100
AcDbTrace
 10
56.18717808064516
 20
143.6611916772256
 30
0.0
 11
57.35384474731183
 21
143.6611916772256
 31
0.0
 12
56.77051141397851
 22
147.1611916772256
 32
0.0
 13
56.77051141397851
 23
147.1611916772256
 33
0.0
  0
MTEXT
  5
7C9
330
794
100
AcDbEntity
  8
BEM
 62
     1
100
AcDbMText
 10
53.52051141397848
 20
134.6611916772255
 30
0.0
 40
3.5
 41
0.0
 71
     5
 72
     1
  1
\A1;25
 11
0.0000000000000001
 21
1.0
 31
0.0
 73
     1
 44
1.0
  0
POINT
  5
7CA
330
794
100
AcDbEntity
  8
DEFPOINTS
 62
     0
100
AcDbPoint
 10
89.98505819519911
 20
122.1611916772255
 30
0.0
  0
POINT
  5
7CB
330
794
100
AcDbEntity
  8
DEFPOINTS
 62
     0
100
AcDbPoint
 10
65.87836730683266
 20
147.1611916772255
 30
0.0
  0
POINT
  5
7CC
330
794
100
AcDbEntity
  8
DEFPOINTS
 62
     0
100
AcDbPoint
 10
56.77051141397851
 20
147.1611916772256
 30
0.0
  0
ENDBLK
  5
79F
330
794
100
AcDbEntity
  8
0
100
AcDbBlockEnd
  0
ENDSEC
  0
SECTION
  2
ENTITIES
  0
LINE
  5
19F
330
1E
100
AcDbEntity
  8
STEMPEL
100
AcDbLine
 10
205.0
 20
55.00000000000003
 30
0.0
 11
19.99999999999997
 21
55.0
 31
0.0
  0
LINE
  5
1A0
330
1E
100
AcDbEntity
  8
STEMPEL
100
AcDbLine
 10
68.00000000000006
 20
54.99999999999997
 30
0.0
 11
68.0
 21
4.999999999999985
 31
0.0
  0
LINE
  5
1A1
330
1E
100
AcDbEntity
  8
STEMPEL
100
AcDbLine
 10
110.0
 20
55.00000000000003
 30
0.0
 11
110.0
 21
4.999999999999985
 31
0.0
  0
LINE
  5
1A2
330
1E
100
AcDbEntity
  8
STEMPEL
100
AcDbLine
 10
165.9999999999999
 20
54.99999999999989
 30
0.0
 11
165.9999999999999
 21
20.0
 31
0.0
  0
LINE
  5
1A3
330
1E
100
AcDbEntity
  8
STEMPEL
100
AcDbLine
 10
67.99999999999994
 20
14.99999999999998
 30
0.0
 11
19.99999999999997
 21
14.99999999999998
 31
0.0
  0
LINE
  5
1A4
330
1E
100
AcDbEntity
  8
STEMPEL
100
AcDbLine
 10
205.0
 20
20.0
 30
0.0
 11
68.00000000000006
 21
19.99999999999998
 31
0.0
  0
LINE
  5
1A5
330
1E
100
AcDbEntity
  8
STEMPEL
100
AcDbLine
 10
205.0
 20
40.0
 30
0.0
 11
68.00000000000006
 21
39.99999999999997
 31
0.0
  0
LINE
  5
1A6
330
1E
100
AcDbEntity
  8
VOLL
100
AcDbLine
 10
27.00000000000003
 20
55.00000000000003
 30
0.0
 11
26.99999999999997
 21
4.999999999999985
 31
0.0
  0
LINE
  5
1A7
330
1E
100
AcDbEntity
  8
VOLL
100
AcDbLine
 10
47.00000000000005
 20
54.99999999999997
 30
0.0
 11
47.0
 21
4.999999999999985
 31
0.0
  0
LINE
  5
1A8
330
1E
100
AcDbEntity
  8
VOLL
100
AcDbLine
 10
57.00000000000006
 20
54.99999999999997
 30
0.0
 11
57.0
 21
4.999999999999985
 31
0.0
  0
LINE
  5
1A9
330
1E
100
AcDbEntity
  8
VOLL
100
AcDbLine
 10
77.00000000000006
 20
39.99999999999997
 30
0.0
 11
77.00000000000006
 21
19.99999999999998
 31
0.0
  0
LINE
  5
1AA
330
1E
100
AcDbEntity
  8
VOLL
100
AcDbLine
 10
90.00000000000005
 20
54.99999999999992
 30
0.0
 11
90.0
 21
19.99999999999998
 31
0.0
  0
LINE
  5
1AB
330
1E
100
AcDbEntity
  8
HILF
100
AcDbLine
 10
20.00000000000003
 20
50.00000000000003
 30
0.0
 11
68.00000000000006
 21
50.00000000000003
 31
0.0
  0
LINE
  5
1AC
330
1E
100
AcDbEntity
  8
HILF
100
AcDbLine
 10
20.00000000000003
 20
45.00000000000002
 30
0.0
 11
68.00000000000006
 21
45.00000000000002
 31
0.0
  0
LINE
  5
1AD
330
1E
100
AcDbEntity
  8
HILF
100
AcDbLine
 10
20.00000000000003
 20
39.99999999999997
 30
0.0
 11
68.00000000000006
 21
39.99999999999997
 31
0.0
  0
LINE
  5
1AE
330
1E
100
AcDbEntity
  8
HILF
100
AcDbLine
 10
20.00000000000003
 20
34.99999999999997
 30
0.0
 11
68.00000000000006
 21
34.99999999999997
 31
0.0
  0
LINE
  5
1AF
330
1E
100
AcDbEntity
  8
HILF
100
AcDbLine
 10
20.00000000000003
 20
29.99999999999999
 30
0.0
 11
68.00000000000006
 21
29.99999999999999
 31
0.0
  0
LINE
  5
1B0
330
1E
100
AcDbEntity
  8
HILF
100
AcDbLine
 10
20.00000000000003
 20
24.99999999999999
 30
0.0
 11
68.00000000000006
 21
24.99999999999999
 31
0.0
  0
LINE
  5
1B1
330
1E
100
AcDbEntity
  8
HILF
100
AcDbLine
 10
20.00000000000003
 20
19.99999999999998
 30
0.0
 11
68.00000000000006
 21
19.99999999999998
 31
0.0
  0
LINE
  5
1B2
330
1E
100
AcDbEntity
  8
HILF
100
AcDbLine
 10
68.00000000000006
 20
34.99999999999997
 30
0.0
 11
110.0
 21
34.99999999999997
 31
0.0
  0
LINE
  5
1B3
330
1E
100
AcDbEntity
  8
HILF
100
AcDbLine
 10
68.00000000000006
 20
29.99999999999999
 30
0.0
 11
110.0
 21
29.99999999999999
 31
0.0
  0
LINE
  5
1B4
330
1E
100
AcDbEntity
  8
HILF
100
AcDbLine
 10
68.00000000000006
 20
24.99999999999999
 30
0.0
 11
110.0
 21
24.99999999999999
 31
0.0
  0
LINE
  5
1B5
330
1E
100
AcDbEntity
  8
HILF
100
AcDbLine
 10
112.3868400548474
 20
42.01879123782069
 30
0.0
 11
162.4176958278155
 21
42.01879123782069
 31
0.0
  0
LINE
  5
1B6
330
1E
100
AcDbEntity
  8
HILF
100
AcDbLine
 10
112.3868400548474
 20
34.99999999999997
 30
0.0
 11
162.4176958278155
 21
34.99999999999997
 31
0.0
  0
LINE
  5
1B7
330
1E
100
AcDbEntity
  8
HILF
100
AcDbLine
 10
112.3868400548474
 20
29.99999999999999
 30
0.0
 11
162.4176958278155
 21
29.99999999999999
 31
0.0
  0
LINE
  5
1B8
330
1E
100
AcDbEntity
  8
HILF
100
AcDbLine
 10
112.3868400548474
 20
24.99999999999999
 30
0.0
 11
162.4176958278155
 21
24.99999999999999
 31
0.0
  0
LINE
  5
1B9
330
1E
100
AcDbEntity
  8
VOLL
100
AcDbLine
 10
165.9999999999999
 20
30.0
 30
0.0
 11
205.0
 21
30.0
 31
0.0
  0
LINE
  5
1BA
330
1E
100
AcDbEntity
  8
HILF
100
AcDbLine
 10
168.3619308148496
 20
41.88991818477913
 30
0.0
 11
202.4294419663364
 21
41.88991818477913
 31
0.0
  0
LINE
  5
1BB
330
1E
100
AcDbEntity
  8
HILF
100
AcDbLine
 10
111.7454849644942
 20
7.446991290141568
 30
0.0
 11
202.4294419663364
 21
7.446991290141568
 31
0.0
  0
TEXT
  5
1BC
330
1E
100
AcDbEntity
  8
TEXT
100
AcDbText
 10
31.65409347991371
 20
9.295727339554179
 30
0.0
 40
2.0
  1
Änderung
 41
0.8
  7
GREEKS
 72
     4
 11
37.02552205134228
 21
10.15287019669703
 31
0.0
100
AcDbText
  0
TEXT
  5
1BD
330
1E
100
AcDbEntity
  8
TEXT
100
AcDbText
 10
71.75817860751886
 20
51.23104475435443
 30
0.0
 40
2.5
  1
Maßstab
 41
0.8
  7
GREEKS
100
AcDbText
  0
TEXT
  5
1BE
330
1E
100
AcDbEntity
  8
TEXT
100
AcDbText
 10
92.14294773670255
 20
51.20920842174095
 30
0.0
 40
2.5
  1
Zul. Abw.
 41
0.8
  7
GREEKS
100
AcDbText
  0
TEXT
  5
1BF
330
1E
100
AcDbEntity
  8
TEXT
100
AcDbText
 10
112.4389701904505
 20
51.27446640058898
 30
0.0
 40
2.5
  1
Benennung
 41
0.8
  7
GREEKS
100
AcDbText
  0
TEXT
  5
1C0
330
1E
100
AcDbEntity
  8
TEXT
100
AcDbText
 10
168.089377478817
 20
51.15660172685682
 30
0.0
 40
2.5
  1
Zeichnungs Nr.
 41
0.8
  7
GREEKS
100
AcDbText
  0
TEXT
  5
1C1
330
1E
100
AcDbEntity
  8
TEXT
100
AcDbText
 10
112.371119195568
 20
15.42280285096528
 30
0.0
 40
2.5
  1
Bauvorhaben
 41
0.8
  7
GREEKS
100
AcDbText
  0
TEXT
  5
1C2
330
1E
100
AcDbEntity
  8
TEXT
100
AcDbText
 10
168.3619308148496
 20
36.59059118549985
 30
0.0
 40
2.5
  1
Ersatz für:
 41
0.8
  7
GREEKS
100
AcDbText
  0
TEXT
  5
1C3
330
1E
100
AcDbEntity
  8
TEXT
100
AcDbText
 10
24.13320553522877
 20
6.827329230135958
 30
0.0
 40
1.8
  1
Index
 50
90.0
 41
0.8
  7
GREEKS
100
AcDbText
  0
TEXT
  5
1C6
330
1E
100
AcDbEntity
  8
TEXT
100
AcDbText
 10
81.16558365768254
 20
36.65940250614963
 30
0.0
 40
1.8
  1
Tag
 41
0.8
  7
GREEKS
100
AcDbText
  0
TEXT
  5
1C7
330
1E
100
AcDbEntity
  8
TEXT
100
AcDbText
 10
96.23132921131475
 20
36.65480545957612
 30
0.0
 40
1.8
  1
Name
 41
0.8
  7
GREEKS
100
AcDbText
  0
TEXT
  5
1C8
330
1E
100
AcDbEntity
  8
TEXT
100
AcDbText
 10
68.79180635838077
 20
31.81495184808982
 30
0.0
 40
1.8
  1
Gez.
 41
0.8
  7
GREEKS
100
AcDbText
  0
TEXT
  5
1C9
330
1E
100
AcDbEntity
  8
TEXT
100
AcDbText
 10
68.77575432858361
 20
26.84463145714189
 30
0.0
 40
1.8
  1
Gepr.
 41
0.8
  7
GREEKS
100
AcDbText
  0
TEXT
  5
1CA
330
1E
100
AcDbEntity
  8
TEXT
100
AcDbText
 10
68.80033886936519
 20
21.76473194824904
 30
0.0
 40
1.8
  1
Norm.
 41
0.8
  7
GREEKS
100
AcDbText
  0
LINE
  5
1CB
330
1E
100
AcDbEntity
  8
STEMPEL
100
AcDbLine
 10
24.99999999999995
 20
5.0
 30
0.0
 11
205.0
 21
5.0
 31
0.0
  0
LINE
  5
1CC
330
1E
100
AcDbEntity
  8
STEMPEL
100
AcDbLine
 10
205.0
 20
55.00000000000003
 30
0.0
 11
205.0
 21
5.0
 31
0.0
  0
TEXT
  5
1CD
330
1E
100
AcDbEntity
  8
TEXT
100
AcDbText
 10
168.6200430748502
 20
26.03708088939301
 30
0.0
 40
2.5
  1
ersetzt durch:
 41
0.8
  7
GREEKS
100
AcDbText
  0
LINE
  5
1CE
330
1E
100
AcDbEntity
  8
STEMPEL
100
AcDbLine
 10
205.0
 20
5.0
 30
0.0
 11
19.99999999999994
 21
5.0
 31
0.0
  0
LINE
  5
1CF
330
1E
100
AcDbEntity
  8
STEMPEL
100
AcDbLine
 10
205.0
 20
55.00000000000003
 30
0.0
 11
205.0
 21
292.0
 31
0.0
  0
LINE
  5
1D0
330
1E
100
AcDbEntity
  8
STEMPEL
100
AcDbLine
 10
20.0
 20
5.0
 30
0.0
 11
19.99999999999994
 21
292.0
 31
0.0
  0
LINE
  5
1D1
330
1E
100
AcDbEntity
  8
STEMPEL
100
AcDbLine
 10
205.0
 20
292.0
 30
0.0
 11
19.99999999999994
 21
292.0
 31
0.0
  0
LINE
  5
1D2
330
1E
100
AcDbEntity
  8
HILF
100
AcDbLine
 10
0.0
 20
0.0
 30
0.0
 11
-0.0000000000000568
 21
297.0
 31
0.0
  0
LINE
  5
1D3
330
1E
100
AcDbEntity
  8
HILF
100
AcDbLine
 10
210.0
 20
297.0000000000001
 30
0.0
 11
0.0
 21
297.0
 31
0.0
  0
LINE
  5
1D4
330
1E
100
AcDbEntity
  8
HILF
100
AcDbLine
 10
210.0
 20
0.0
 30
0.0
 11
0.0
 21
0.0
 31
0.0
  0
LINE
  5
1D5
330
1E
100
AcDbEntity
  8
HILF
100
AcDbLine
 10
15.54383567856928
 20
148.5
 30
0.0
 11
0.0000000000000568
 21
148.5
 31
0.0
  0
TEXT
  5
1D6
330
1E
100
AcDbEntity
  8
TEXT
100
AcDbText
 10
69.94433312244749
 20
36.66849551772587
 30
0.0
 40
1.8
  1
2007
 41
0.8
  7
GREEKS
100
AcDbText
  0
LINE
  5
1D7
330
1E
100
AcDbEntity
  8
HILF
100
AcDbLine
 10
210.0
 20
-0.0000000000000568
 30
0.0
 11
210.0
 21
297.0
 31
0.0
  0
TEXT
  5
1D8
330
1E
100
AcDbEntity
  8
VOLL
100
AcDbText
 10
78.07675471698113
 20
31.02594776470585
 30
0.0
 40
1.8
  1

  7
GREEKS
100
AcDbText
  0
TEXT
  5
1D9
330
1E
100
AcDbEntity
  8
TEXT
100
AcDbText
 10
21.12834907712957
 20
55.83599999999998
 30
0.0
 40
2.5
  1
Erstellt mit AUTOCAD 2004
 41
0.8
  7
GREEKS
100
AcDbText
  0
TEXT
  5
1DA
330
1E
100
AcDbEntity
  8
TEXT
100
AcDbText
 10
97.21080242906285
 20
31.54481959861755
 30
0.0
 40
2.0
  1
Koeh
 41
0.8
  7
GREEKS
 72
     1
 11
99.83937385763429
 21
31.54481959861755
 31
0.0
100
AcDbText
  0
TEXT
  5
1DB
330
1E
100
AcDbEntity
  8
TEXT
 62
     1
100
AcDbText
 10
173.4197881825338
 20
44.07450714456979
 30
0.0
 40
3.5
  1
58602BA0W
 41
0.8
  7
GREEKS
 72
     1
 11
185.6197881825338
 21
44.07450714456979
 31
0.0
100
AcDbText
  0
TEXT
  5
1DC
330
1E
100
AcDbEntity
  8
TEXT
 62
     1
100
AcDbText
 10
75.25031532409435
 20
44.07450714456979
 30
0.0
 40
3.5
  1
1:1
  7
GREEKS
100
AcDbText
  0
TEXT
  5
1DD
330
1E
100
AcDbEntity
  8
TEXT
100
AcDbText
 10
80.19949855411802
 20
31.55382520412866
 30
0.0
 40
2.0
  1
25.09.
 41
0.8
  7
GREEKS
 72
     1
 11
83.70426045887993
 21
31.55382520412866
 31
0.0
100
AcDbText
  0
TEXT
  5
1DE
330
1E
100
AcDbEntity
  8
TEXT
 62
     1
100
AcDbText
 10
112.6645547532424
 20
43.70874394626889
 30
0.0
 40
3.5
  1
Verbundrohr
 41
0.8
  7
GREEKS
100
AcDbText
  0
TEXT
  5
1DF
330
1E
100
AcDbEntity
  8
TEXT
100
AcDbText
 10
112.5648195562657
 20
36.25084445994187
 30
0.0
 40
2.5
  1
Abgleichstück DN50/40
 41
0.8
  7
GREEKS
100
AcDbText
  0
TEXT
  5
1E0
330
1E
100
AcDbEntity
  8
TEXT
100
AcDbText
 10
112.5648195562657
 20
25.82005971521079
 30
0.0
 40
2.5
  1
EDV-Art.Nr. 58602.BA0X
 41
0.8
  7
GREEKS
100
AcDbText
  0
TEXT
  5
1E1
330
1E
100
AcDbEntity
  8
TEXT
100
AcDbText
 10
112.4918750788913
 20
21.31487076511317
 30
0.0
 40
1.8
  1
58602BA0W.DWG
 41
0.8
  7
GREEKS
100
AcDbText
  0
INSERT
  5
1E2
330
1E
100
AcDbEntity
  8
STEMPEL
100
AcDbBlockReference
  2
LOGO
 10
70.4977742728897
 20
22.51052638224161
 30
0.0
  0
TEXT
  5
1E4
330
1E
100
AcDbEntity
  8
VOLL
100
AcDbText
 10
339.7958237333797
 20
71.91957633833147
 30
0.0
 40
1.8
  1

  7
GREEKS
100
AcDbText
  0
TEXT
  5
1E5
330
1E
100
AcDbEntity
  8
TEXT
100
AcDbText
 10
671.6280919369726
 20
77.47781187155701
 30
0.0
 40
2.5
  1
  
  7
GREEKS
 72
     1
 11
673.8899966988774
 21
77.47781187155701
 31
0.0
100
AcDbText
  0
TEXT
  5
1E6
330
1E
100
AcDbEntity
  8
BEM
100
AcDbText
 10
915.7478092494546
 20
213.0366939019592
 30
0.0
 40
2.5
  1
 
 72
     4
 11
916.878761630407
 21
213.0366939019592
 31
0.0
100
AcDbText
  0
TEXT
  5
1E8
330
1E
100
AcDbEntity
  8
BEM
100
AcDbText
 10
454.2848421115471
 20
134.8585024391051
 30
0.0
 40
2.5
  1

  7
GREEKS
100
AcDbText
  0
TEXT
  5
1E9
330
1E
100
AcDbEntity
  8
VOLL
100
AcDbText
 10
440.2186490918256
 20
114.67524178207
 30
0.0
 40
1.8
  1

  7
GREEKS
100
AcDbText
  0
TEXT
  5
1EA
330
1E
100
AcDbEntity
  8
BEM
100
AcDbText
 10
474.7067139311102
 20
119.4009661052905
 30
0.0
 40
2.5
  1

 41
0.8
  7
GREEKS
100
AcDbText
  0
TEXT
  5
1EB
330
1E
100
AcDbEntity
  8
BEM
100
AcDbText
 10
474.7067139311102
 20
114.7071975512384
 30
0.0
 40
2.5
  1

 41
0.8
  7
GREEKS
100
AcDbText
  0
TEXT
  5
1EC
330
1E
100
AcDbEntity
  8
BEM
100
AcDbText
 10
474.7067139311102
 20
109.4693537325749
 30
0.0
 40
2.5
  1

 41
0.8
  7
GREEKS
100
AcDbText
  0
TEXT
  5
1ED
330
1E
100
AcDbEntity
  8
BEM
100
AcDbText
 10
474.6337694537358
 20
104.9641647824773
 30
0.0
 40
1.8
  1

 41
0.8
  7
GREEKS
100
AcDbText
  0
TEXT
  5
1EE
330
1E
100
AcDbEntity
  8
BEM
100
AcDbText
 10
461.9501985741246
 20
130.5557538787025
 30
0.0
 40
2.0
  1

 41
0.8
  7
GREEKS
 72
     1
 11
461.9501985741246
 21
130.5557538787025
 31
0.0
100
AcDbText
  0
TEXT
  5
1EF
330
1E
100
AcDbEntity
  8
TEXT
100
AcDbText
 10
772.0509172954185
 20
120.2334773152955
 30
0.0
 40
2.5
  1
  
  7
GREEKS
 72
     1
 11
774.3128220573233
 21
120.2334773152955
 31
0.0
100
AcDbText
  0
TEXT
  5
1F0
330
1E
100
AcDbEntity
  8
BEM
100
AcDbText
 10
1016.1706346079
 20
255.7923593456977
 30
0.0
 40
2.5
  1
 
 72
     4
 11
1017.301586988853
 21
255.7923593456977
 31
0.0
100
AcDbText
  0
TEXT
  5
1F1
330
1E
100
AcDbEntity
  8
VOLL
100
AcDbText
 10
228.6383494536079
 20
31.18631511162239
 30
0.0
 40
1.8
  1

  7
GREEKS
100
AcDbText
  0
TEXT
  5
1F2
330
1E
100
AcDbEntity
  8
TEXT
100
AcDbText
 10
560.4706176572007
 20
36.74455064484793
 30
0.0
 40
2.5
  1
  
  7
GREEKS
 72
     1
 11
562.7325224191056
 21
36.74455064484793
 31
0.0
100
AcDbText
  0
TEXT
  5
1F3
330
1E
100
AcDbEntity
  8
BEM
100
AcDbText
 10
804.5903349696828
 20
172.3034326752502
 30
0.0
 40
2.5
  1
 
 72
     4
 11
805.7212873506353
 21
172.3034326752502
 31
0.0
100
AcDbText
  0
TEXT
  5
1F4
330
1E
100
AcDbEntity
  8
BEM
100
AcDbText
 10
393.9839625332579
 20
71.33954581020805
 30
0.0
 40
2.5
  1

  7
GREEKS
100
AcDbText
  0
TEXT
  5
1F5
330
1E
100
AcDbEntity
  8
VOLL
100
AcDbText
 10
379.9177695135364
 20
51.15628515317294
 30
0.0
 40
1.8
  1

  7
GREEKS
100
AcDbText
  0
TEXT
  5
1F6
330
1E
100
AcDbEntity
  8
BEM
100
AcDbText
 10
414.4058343528211
 20
55.88200947639354
 30
0.0
 40
2.5
  1

 41
0.8
  7
GREEKS
100
AcDbText
  0
TEXT
  5
1F7
330
1E
100
AcDbEntity
  8
BEM
100
AcDbText
 10
414.4058343528211
 20
51.18824092234138
 30
0.0
 40
2.5
  1

 41
0.8
  7
GREEKS
100
AcDbText
  0
TEXT
  5
1F8
330
1E
100
AcDbEntity
  8
BEM
100
AcDbText
 10
414.4058343528211
 20
45.95039710367788
 30
0.0
 40
2.5
  1

 41
0.8
  7
GREEKS
100
AcDbText
  0
TEXT
  5
1F9
330
1E
100
AcDbEntity
  8
BEM
100
AcDbText
 10
414.3328898754466
 20
41.44520815358026
 30
0.0
 40
1.8
  1

 41
0.8
  7
GREEKS
100
AcDbText
  0
TEXT
  5
1FA
330
1E
100
AcDbEntity
  8
BEM
100
AcDbText
 10
401.6493189958354
 20
67.03679724980554
 30
0.0
 40
2.0
  1

 41
0.8
  7
GREEKS
 72
     1
 11
401.6493189958354
 21
67.03679724980554
 31
0.0
100
AcDbText
  0
TEXT
  5
1FB
330
1E
100
AcDbEntity
  8
TEXT
100
AcDbText
 10
711.7500377171293
 20
56.71452068639848
 30
0.0
 40
2.5
  1
  
  7
GREEKS
 72
     1
 11
714.0119424790341
 21
56.71452068639848
 31
0.0
100
AcDbText
  0
TEXT
  5
1FC
330
1E
100
AcDbEntity
  8
BEM
100
AcDbText
 10
955.8697550296114
 20
192.2734027168007
 30
0.0
 40
2.5
  1
 
 72
     4
 11
957.0007074105637
 21
192.2734027168007
 31
0.0
100
AcDbText
  0
LINE
  5
1FD
102
{ACAD_REACTORS
330
5DB
102
}
330
1E
100
AcDbEntity
  8
STEMPEL
  6
Continuous
100
AcDbLine
 10
154.8783673068326
 20
254.1611916772254
 30
0.0
 11
65.87836730683266
 21
254.1611916772256
 31
0.0
  0
LINE
  5
1FE
330
1E
100
AcDbEntity
  8
STEMPEL
  6
Continuous
100
AcDbLine
 10
82.37836730683262
 20
229.6611916772255
 30
0.0
 11
82.37836730683261
 21
221.5695185904215
 31
0.0
  0
LINE
  5
1FF
102
{ACAD_REACTORS
330
77E
102
}
330
1E
100
AcDbEntity
  8
STEMPEL
  6
Continuous
100
AcDbLine
 10
80.87836730683269
 20
229.6611916772255
 30
0.0
 11
80.87836730683266
 21
221.5695185904215
 31
0.0
  0
LINE
  5
200
330
1E
100
AcDbEntity
  8
STEMPEL
100
AcDbLine
 10
85.37836730683263
 20
211.0338648375687
 30
0.0
 11
85.37836730683263
 21
206.1611916772255
 31
0.0
  0
LINE
  5
201
102
{ACAD_REACTORS
330
77E
102
}
330
1E
100
AcDbEntity
  8
STEMPEL
100
AcDbLine
 10
83.87836730683263
 20
211.0338648375687
 30
0.0
 11
83.87836730683263
 21
206.1611916772255
 31
0.0
  0
ARC
  5
202
330
1E
100
AcDbEntity
  8
STEMPEL
  6
Continuous
100
AcDbCircle
 10
75.8783673068326
 20
211.0338648375687
 30
0.0
 40
9.5
100
AcDbArc
 50
0.0
 51
31.78833061705157
  0
ARC
  5
203
102
{ACAD_REACTORS
330
77E
102
}
330
1E
100
AcDbEntity
  8
STEMPEL
  6
Continuous
100
AcDbCircle
 10
75.87836730683263
 20
211.0338648375687
 30
0.0
 40
8.0
100
AcDbArc
 50
0.0
 51
31.78833061705163
  0
ARC
  5
204
330
1E
100
AcDbEntity
  8
STEMPEL
  6
Continuous
100
AcDbCircle
 10
92.87836730683265
 20
221.5695185904215
 30
0.0
 40
10.5
100
AcDbArc
 50
179.9999999999998
 51
211.7883306170516
  0
ARC
  5
205
102
{ACAD_REACTORS
330
77E
102
}
330
1E
100
AcDbEntity
  8
STEMPEL
  6
Continuous
100
AcDbCircle
 10
92.87836730683265
 20
221.5695185904215
 30
0.0
 40
12.0
100
AcDbArc
 50
179.9999999999998
 51
211.7883306170515
  0
LINE
  5
206
330
1E
100
AcDbEntity
  8
STEMPEL
100
AcDbLine
 10
83.87836730683263
 20
216.1611916772255
 30
0.0
 11
83.87836730683263
 21
216.1573402205484
 31
0.0
  0
ARC
  5
207
102
{ACAD_REACTORS
330
5DB
102
}
330
1E
100
AcDbEntity
  8
STEMPEL
  6
Continuous
100
AcDbCircle
 10
98.37836730683269
 20
245.7786903345647
 30
0.0
 40
19.5
100
AcDbArc
 50
155.0000000000067
 51
180.0
  0
ARC
  5
208
330
1E
100
AcDbEntity
  8
STEMPEL
  6
Continuous
100
AcDbCircle
 10
98.37836730683269
 20
245.7786903345647
 30
0.0
 40
18.0
100
AcDbArc
 50
155.0000000000063
 51
180.0
  0
ARC
  5
209
102
{ACAD_REACTORS
330
5DB
330
77E
102
}
330
1E
100
AcDbEntity
  8
STEMPEL
  6
Continuous
100
AcDbCircle
 10
103.8783673068326
 20
241.3231916772255
 30
0.0
 40
25.00003205712822
100
AcDbArc
 50
179.9082450081868
 51
199.4630994446888
  0
ARC
  5
20A
330
1E
100
AcDbEntity
  8
STEMPEL
  6
Continuous
100
AcDbCircle
 10
103.8783673068326
 20
241.3231916772255
 30
0.0
 40
23.5000320571282
100
AcDbArc
 50
179.9053619552649
 51
199.4630994446887
  0
ARC
  5
20B
102
{ACAD_REACTORS
330
77E
102
}
330
1E
100
AcDbEntity
  8
STEMPEL
  6
Continuous
100
AcDbCircle
 10
70.87836730683263
 20
229.6611916772255
 30
0.0
 40
10.0
100
AcDbArc
 50
359.9999999999998
 51
19.46309944468871
  0
ARC
  5
20C
330
1E
100
AcDbEntity
  8
STEMPEL
  6
Continuous
100
AcDbCircle
 10
70.87836730683263
 20
229.6611916772255
 30
0.0
 40
11.5
100
AcDbArc
 50
359.9999999999998
 51
19.46309944468882
  0
LINE
  5
20D
330
1E
100
AcDbEntity
  8
STEMPEL
  6
Continuous
100
AcDbLine
 10
80.37836730683268
 20
245.7786903345647
 30
0.0
 11
80.37836730683268
 21
241.3620077312652
 31
0.0
  0
LINE
  5
20E
102
{ACAD_REACTORS
330
5DB
102
}
330
1E
100
AcDbEntity
  8
STEMPEL
  6
Continuous
100
AcDbLine
 10
78.87836730683263
 20
245.7786903345647
 30
0.0
 11
78.87836730683263
 21
241.3632273792573
 31
0.0
  0
LINE
  5
20F
330
1E
100
AcDbEntity
  8
STEMPEL
  6
Continuous
100
AcDbLine
 10
80.37836730683265
 20
241.3231916772256
 30
0.0
 11
80.37833524970444
 21
241.3231916772256
 31
0.0
  0
LINE
  5
210
102
{ACAD_REACTORS
330
5DB
102
}
330
1E
100
AcDbEntity
  8
STEMPEL
  6
Continuous
100
AcDbLine
 10
80.77132245764142
 20
254.1611916772256
 30
0.0
 11
80.70536545961797
 21
254.0197464385083
 31
0.0
  0
LINE
  5
211
330
1E
100
AcDbEntity
  8
STEMPEL
  6
Continuous
100
AcDbLine
 10
82.42638933608514
 20
254.1611916772255
 30
0.0
 11
82.06482714017299
 21
253.3858190458973
 31
0.0
  0
LINE
  5
212
330
1E
100
AcDbEntity
  8
MITTEL
100
AcDbLine
 10
110.3783673068326
 20
259.1611916772255
 30
0.0
 11
110.3783673068326
 21
117.1611916772256
 31
0.0
  0
LINE
  5
213
102
{ACAD_REACTORS
330
373
102
}
330
1E
100
AcDbEntity
  8
STEMPEL
  6
Continuous
100
AcDbLine
 10
136.8783673068326
 20
206.1611916772255
 30
0.0
 11
83.87836730683263
 21
206.1611916772255
 31
0.0
  0
ARC
  5
214
102
{ACAD_REACTORS
330
5DB
102
}
330
1E
100
AcDbEntity
  8
STEMPEL
  6
Continuous
100
AcDbCircle
 10
122.3783673068326
 20
245.7786903345647
 30
0.0
 40
19.5
100
AcDbArc
 50
0.0
 51
24.99999999999007
  0
ARC
  5
215
330
1E
100
AcDbEntity
  8
STEMPEL
  6
Continuous
100
AcDbCircle
 10
122.3783673068326
 20
245.7786903345647
 30
0.0
 40
18.0
100
AcDbArc
 50
0.0
 51
24.9999999999905
  0
ARC
  5
216
330
1E
100
AcDbEntity
  8
STEMPEL
  6
Continuous
100
AcDbCircle
 10
144.8783673068327
 20
211.0338648375687
 30
0.0
 40
9.5
100
AcDbArc
 50
148.2116693829484
 51
180.0
  0
LINE
  5
217
102
{ACAD_REACTORS
330
77E
102
}
330
1E
100
AcDbEntity
  8
STEMPEL
  6
Continuous
100
AcDbLine
 10
139.8783673068326
 20
229.6611916772255
 30
0.0
 11
139.8783673068326
 21
221.5695185904215
 31
0.0
  0
LINE
  5
218
330
1E
100
AcDbEntity
  8
STEMPEL
  6
Continuous
100
AcDbLine
 10
138.3783673068327
 20
229.6611916772255
 30
0.0
 11
138.3783673068327
 21
221.5695185904215
 31
0.0
  0
ARC
  5
219
102
{ACAD_REACTORS
330
77E
102
}
330
1E
100
AcDbEntity
  8
STEMPEL
  6
Continuous
100
AcDbCircle
 10
144.8783673068327
 20
211.0338648375687
 30
0.0
 40
8.0
100
AcDbArc
 50
148.2116693829484
 51
180.0
  0
LINE
  5
21A
102
{ACAD_REACTORS
330
77E
102
}
330
1E
100
AcDbEntity
  8
STEMPEL
100
AcDbLine
 10
136.8783673068326
 20
211.0338648375687
 30
0.0
 11
136.8783673068326
 21
206.1611916772255
 31
0.0
  0
ARC
  5
21B
102
{ACAD_REACTORS
330
77E
102
}
330
1E
100
AcDbEntity
  8
STEMPEL
  6
Continuous
100
AcDbCircle
 10
127.8783673068327
 20
221.5695185904215
 30
0.0
 40
12.0
100
AcDbArc
 50
328.2116693829486
 51
0.0000000000001272
  0
ARC
  5
21C
330
1E
100
AcDbEntity
  8
STEMPEL
  6
Continuous
100
AcDbCircle
 10
127.8783673068327
 20
221.5695185904215
 30
0.0
 40
10.5
100
AcDbArc
 50
328.2116693829483
 51
0.0000000000001527
  0
LINE
  5
21D
330
1E
100
AcDbEntity
  8
STEMPEL
100
AcDbLine
 10
136.8783673068326
 20
216.1611916772255
 30
0.0
 11
136.8783673068326
 21
216.1573402205484
 31
0.0
  0
ARC
  5
21E
102
{ACAD_REACTORS
330
5DB
330
77E
102
}
330
1E
100
AcDbEntity
  8
STEMPEL
  6
Continuous
100
AcDbCircle
 10
116.8783673068326
 20
241.3231916772255
 30
0.0
 40
25.00003205712822
100
AcDbArc
 50
340.5369005553112
 51
0.0917549918132142
  0
ARC
  5
21F
330
1E
100
AcDbEntity
  8
STEMPEL
  6
Continuous
100
AcDbCircle
 10
116.8783673068326
 20
241.3231916772255
 30
0.0
 40
23.5000320571282
100
AcDbArc
 50
340.5369005553112
 51
0.0946380447350745
  0
ARC
  5
220
102
{ACAD_REACTORS
330
77E
102
}
330
1E
100
AcDbEntity
  8
STEMPEL
  6
Continuous
100
AcDbCircle
 10
149.8783673068327
 20
229.6611916772255
 30
0.0
 40
10.0
100
AcDbArc
 50
160.5369005553113
 51
180.0000000000001
  0
ARC
  5
221
330
1E
100
AcDbEntity
  8
STEMPEL
  6
Continuous
100
AcDbCircle
 10
149.8783673068327
 20
229.6611916772255
 30
0.0
 40
11.5
100
AcDbArc
 50
160.5369005553112
 51
180.0000000000001
  0
LINE
  5
222
102
{ACAD_REACTORS
330
5DB
102
}
330
1E
100
AcDbEntity
  8
STEMPEL
  6
Continuous
100
AcDbLine
 10
141.8783673068326
 20
245.7786903345647
 30
0.0
 11
141.8783673068326
 21
241.3632273792573
 31
0.0
  0
LINE
  5
223
330
1E
100
AcDbEntity
  8
STEMPEL
  6
Continuous
100
AcDbLine
 10
140.3783673068326
 20
245.7786903345647
 30
0.0
 11
140.3783673068326
 21
241.3620077312652
 31
0.0
  0
LINE
  5
224
330
1E
100
AcDbEntity
  8
STEMPEL
  6
Continuous
100
AcDbLine
 10
140.3783673068327
 20
241.3231916772256
 30
0.0
 11
140.3783993639608
 21
241.3231916772256
 31
0.0
  0
LINE
  5
225
330
1E
100
AcDbEntity
  8
STEMPEL
100
AcDbLine
 10
135.3783673068327
 20
211.0338648375687
 30
0.0
 11
135.3783673068327
 21
206.1611916772255
 31
0.0
  0
LINE
  5
226
102
{ACAD_REACTORS
330
5DB
102
}
330
1E
100
AcDbEntity
  8
STEMPEL
  6
Continuous
100
AcDbLine
 10
139.9854121560239
 20
254.1611916772256
 30
0.0
 11
140.0513691540473
 21
254.0197464385083
 31
0.0
  0
LINE
  5
227
330
1E
100
AcDbEntity
  8
STEMPEL
  6
Continuous
100
AcDbLine
 10
138.3303452775802
 20
254.1611916772255
 30
0.0
 11
138.6919074734923
 21
253.3858190458973
 31
0.0
  0
LINE
  5
228
102
{ACAD_REACTORS
330
373
102
}
330
1E
100
AcDbEntity
  8
STEMPEL
  6
Continuous
100
AcDbLine
 10
130.7716764184662
 20
122.1611916772254
 30
0.0
 11
89.98505819519911
 21
122.1611916772255
 31
0.0
  0
LINE
  5
229
102
{ACAD_REACTORS
330
373
330
77E
102
}
330
1E
100
AcDbEntity
  8
STEMPEL
100
AcDbLine
 10
89.37836730683264
 20
194.7080491942104
 30
0.0
 11
89.37836730683267
 21
129.0957002628627
 31
0.0
  0
LINE
  5
22A
102
{ACAD_REACTORS
330
373
330
77E
102
}
330
1E
100
AcDbEntity
  8
STEMPEL
100
AcDbLine
 10
131.3783673068326
 20
194.7080491942103
 30
0.0
 11
131.3783673068326
 21
129.0957002628631
 31
0.0
  0
LINE
  5
22B
330
1E
100
AcDbEntity
  8
HILF
  6
Continuous
100
AcDbLine
 10
128.7182350217808
 20
197.6611916772254
 30
0.0
 11
92.03849959188449
 21
197.6611916772255
 31
0.0
  0
LINE
  5
22C
102
{ACAD_REACTORS
330
373
330
77E
102
}
330
1E
100
AcDbEntity
  8
STEMPEL
100
AcDbLine
 10
136.8783673068326
 20
206.1611916772255
 30
0.0
 11
132.9826657353111
 21
200.1405619757831
 31
0.0
  0
LINE
  5
22D
102
{ACAD_REACTORS
330
373
330
77E
102
}
330
1E
100
AcDbEntity
  8
STEMPEL
100
AcDbLine
 10
87.77406887835415
 20
200.1405619757832
 30
0.0
 11
83.87836730683263
 21
206.1611916772255
 31
0.0
  0
LINE
  5
22E
102
{ACAD_REACTORS
330
373
102
}
330
1E
100
AcDbEntity
  8
STEMPEL
100
AcDbLine
 10
129.8783673068326
 20
194.7080491942103
 30
0.0
 11
129.8783673068326
 21
129.1611916772255
 31
0.0
  0
LINE
  5
22F
102
{ACAD_REACTORS
330
373
102
}
330
1E
100
AcDbEntity
  8
STEMPEL
100
AcDbLine
 10
135.0917387717165
 20
206.1611916772255
 30
0.0
 11
131.7233104995829
 21
200.955438893019
 31
0.0
  0
LINE
  5
230
102
{ACAD_REACTORS
330
373
102
}
330
1E
100
AcDbEntity
  8
STEMPEL
100
AcDbLine
 10
89.03342411408241
 20
200.9554388930192
 30
0.0
 11
85.66499584194881
 21
206.1611916772256
 31
0.0
  0
LINE
  5
231
102
{ACAD_REACTORS
330
373
102
}
330
1E
100
AcDbEntity
  8
STEMPEL
100
AcDbLine
 10
90.87836730683266
 20
194.7080491942104
 30
0.0
 11
90.87836730683266
 21
129.1611916772255
 31
0.0
  0
LINE
  5
232
330
1E
100
AcDbEntity
  8
HILF
  6
Continuous
100
AcDbLine
 10
128.3783673068326
 20
129.1611916772254
 30
0.0
 11
92.37836730683266
 21
129.1611916772255
 31
0.0
  0
LINE
  5
233
102
{ACAD_REACTORS
330
373
102
}
330
1E
100
AcDbEntity
  8
STEMPEL
100
AcDbLine
 10
90.87836730683266
 20
129.1611916772255
 30
0.0
 11
91.49078795151412
 21
122.1611916772255
 31
0.0
  0
LINE
  5
234
102
{ACAD_REACTORS
330
373
102
}
330
1E
100
AcDbEntity
  8
STEMPEL
100
AcDbLine
 10
89.37836730683267
 20
129.0957002628627
 30
0.0
 11
89.98505819519911
 21
122.1611916772255
 31
0.0
  0
LINE
  5
235
102
{ACAD_REACTORS
330
373
102
}
330
1E
100
AcDbEntity
  8
STEMPEL
100
AcDbLine
 10
131.3783673068326
 20
129.0957002628631
 30
0.0
 11
130.7716764184662
 21
122.1611916772254
 31
0.0
  0
LINE
  5
236
102
{ACAD_REACTORS
330
373
102
}
330
1E
100
AcDbEntity
  8
STEMPEL
100
AcDbLine
 10
129.8783673068326
 20
129.1611916772255
 30
0.0
 11
129.2659466621512
 21
122.1611916772255
 31
0.0
  0
ARC
  5
237
102
{ACAD_REACTORS
330
373
330
77E
102
}
330
1E
100
AcDbEntity
  8
STEMPEL
100
AcDbCircle
 10
141.3783673068326
 20
194.7080491942103
 30
0.0
 40
10.0
100
AcDbArc
 50
147.0947570770122
 51
180.0
  0
ARC
  5
238
102
{ACAD_REACTORS
330
373
330
77E
102
}
330
1E
100
AcDbEntity
  8
STEMPEL
100
AcDbCircle
 10
79.37836730683264
 20
194.7080491942104
 30
0.0
 40
10.0
100
AcDbArc
 50
0.0
 51
32.90524292298805
  0
ARC
  5
239
102
{ACAD_REACTORS
330
373
102
}
330
1E
100
AcDbEntity
  8
STEMPEL
100
AcDbCircle
 10
141.3783673068326
 20
194.7080491942103
 30
0.0
 40
11.5
100
AcDbArc
 50
147.0947570770122
 51
180.0
  0
ARC
  5
23A
102
{ACAD_REACTORS
330
373
102
}
330
1E
100
AcDbEntity
  8
STEMPEL
100
AcDbCircle
 10
79.37836730683264
 20
194.7080491942104
 30
0.0
 40
11.5
100
AcDbArc
 50
0.0
 51
32.90524292298805
  0
DIMENSION
  5
243
330
1E
100
AcDbEntity
  8
BEM
100
AcDbDimension
  2
*D2
 10
131.3783673068326
 20
108.3549121128718
 30
0.0
 11
110.3783673068327
 21
111.6049121128718
 31
0.0
 70
    32
  1
%%C<>
 71
     5
 42
42.0
  3
Standard
100
AcDbAlignedDimension
 13
89.37836730683267
 23
129.0957002628627
 33
0.0
 14
131.3783673068326
 24
129.0957002628631
 34
0.0
100
AcDbRotatedDimension
1001
ACAD
1000
DSTYLE
1002
{
1070
    41
1040
3.5
1070
    42
1040
1.0
1070
    43
1040
7.0
1070
    44
1040
1.0
1070
    47
1040
0.15
1070
    48
1040
0.15
1070
    73
1070
     0
1070
    74
1070
     0
1070
    77
1070
     1
1070
    78
1070
     8
1070
    79
1070
     2
1070
   140
1040
3.5
1070
   141
1040
1.5
1070
   146
1040
0.5142857142857144
1070
   147
1040
1.5
1070
   172
1070
     1
1070
   178
1070
     1
1070
   179
1070
     2
1070
   271
1070
     2
1070
   272
1070
     2
1070
   284
1070
     8
1070
   285
1070
     8
1070
   286
1070
     8
1002
}
  0
ARC
  5
248
102
{ACAD_REACTORS
330
77E
102
}
330
1E
100
AcDbEntity
  8
SCHRAFF
100
AcDbCircle
 10
86.45137874061717
 20
206.6796227120313
 30
0.0
 40
3.574712906990063
100
AcDbArc
 50
136.0364255071374
 51
259.8194140168768
  0
ARC
  5
249
102
{ACAD_REACTORS
330
77E
102
}
330
1E
100
AcDbEntity
  8
SCHRAFF
100
AcDbCircle
 10
134.3053558730481
 20
206.6796227120313
 30
0.0
 40
3.574712906990063
100
AcDbArc
 50
280.1805859831232
 51
43.96357449286259
  0
INSERT
  5
24A
330
1E
100
AcDbEntity
  8
SCHRAFF
100
AcDbBlockReference
  2
*X1
 10
-8.757520559116755
 20
8.125430442735734
 30
0.0
1001
ACAD
1000
HATCH
1002
{
1070
    16
1000
_U,I
1040
0.1
1040
2.356194490192344
1070
     0
1002
}
  0
TEXT
  5
24B
330
1E
100
AcDbEntity
  8
TEXT
 62
     1
100
AcDbText
 10
31.57222238395765
 20
96.64239642081135
 30
0.0
 40
3.5
  1
Rohrende leicht eingezogen
 41
0.8
  7
GREEKS
100
AcDbText
  0
TEXT
  5
24C
330
1E
100
AcDbEntity
  8
TEXT
 62
     1
100
AcDbText
 10
104.8184390486094
 20
137.571757671187
 30
0.0
 40
3.5
  1
DN40
 50
90.0
 41
0.8
  7
GREEKS
100
AcDbText
  0
TEXT
  5
24D
330
1E
100
AcDbEntity
  8
TEXT
 62
     1
100
AcDbText
 10
104.8184390486094
 20
234.9335286719771
 30
0.0
 40
3.5
  1
DN50
 50
90.0
 41
0.8
  7
GREEKS
100
AcDbText
  0
POINT
  5
257
330
1E
100
AcDbEntity
  8
DEFPOINTS
  6
ByBlock
 62
     0
100
AcDbPoint
 10
80.87836730683266
 20
221.5695185904215
 30
0.0
  0
POINT
  5
258
330
1E
100
AcDbEntity
  8
DEFPOINTS
  6
ByBlock
 62
     0
100
AcDbPoint
 10
139.8783673068326
 20
221.5695185904215
 30
0.0
  0
POINT
  5
263
330
1E
100
AcDbEntity
  8
DEFPOINTS
  6
ByBlock
 62
     0
100
AcDbPoint
 10
83.87836730683263
 20
211.0338648375687
 30
0.0
  0
POINT
  5
264
330
1E
100
AcDbEntity
  8
DEFPOINTS
  6
ByBlock
 62
     0
100
AcDbPoint
 10
136.8783673068326
 20
211.0338648375687
 30
0.0
  0
TEXT
  5
26A
330
1E
100
AcDbEntity
  8
TEXT
100
AcDbText
 10
92.14294773670255
 20
45.11525594155879
 30
0.0
 40
2.0
  1
DIN EN1123-2
 41
0.8
  7
GREEKS
100
AcDbText
  0
TEXT
  5
2ED
330
1E
100
AcDbEntity
  8
TEXT
100
AcDbText
 10
49.99190553209693
 20
9.486203530030371
 30
0.0
 40
2.0
  1
Tag
 41
0.8
  7
GREEKS
 72
     4
 11
51.8585721987636
 21
10.15287019669703
 31
0.0
100
AcDbText
  0
TEXT
  5
2EE
330
1E
100
AcDbEntity
  8
TEXT
100
AcDbText
 10
59.0389769390951
 20
9.152870196697037
 30
0.0
 40
2.0
  1
Name
 41
0.8
  7
GREEKS
 72
     4
 11
62.20088170099987
 21
10.15287019669703
 31
0.0
100
AcDbText
  0
HATCH
  5
352
330
1E
100
AcDbEntity
  8
SCHRAFF
100
AcDbHatch
 10
0.0
 20
0.0
 30
0.0
210
0.0
220
0.0
230
1.0
  2
_USER
 70
     0
 71
     0
 91
        2
 92
        7
 72
     1
 73
     1
 93
       21
 10
141.8783673068326
 20
241.2831559751979
 42
0.0
 10
141.8783673068326
 20
245.7786903345647
 42
0.1095178116832225
 10
140.0513691540479
 20
254.019746438507
 42
0.0
 10
139.9854121560239
 20
254.1611916772255
 42
0.0
 10
138.3303452775802
 20
254.1611916772255
 42
0.0
 10
138.6919074734926
 20
253.3858190458965
 42
-0.1095178116832295
 10
140.3783673068326
 20
245.7786903345648
 42
0.0
 10
140.3783673068326
 20
241.3620077313052
 42
-0.0855444844069739
 10
139.0355200951339
 20
233.4929881676143
 42
0.0851285408962519
 10
138.3783673068327
 20
229.6611916772254
 42
0.0
 10
138.3783673068327
 20
221.5695185904216
 42
-0.1361061113099553
 10
136.8783673068326
 20
216.1611916772255
 42
0.0
 10
136.8783673068326
 20
216.1573402205484
 42
0.1433758286905685
 10
135.3783673068327
 20
211.0338648375687
 42
0.0
 10
135.3783673068327
 20
206.1611916772254
 42
0.0
 10
136.8783673068326
 20
206.1611916772255
 42
0.0
 10
136.8783673068326
 20
211.0338648375688
 42
-0.1395991324168605
 10
138.0783673068327
 20
215.2481263387099
 42
0.1395991324168622
 10
139.8783673068326
 20
221.5695185904216
 42
0.0
 10
139.8783673068326
 20
229.6611916772255
 42
-0.0851285408962481
 10
140.4498045140511
 20
232.9931886253896
 42
0.084725296607772
 97
        0
 92
        7
 72
     1
 73
     1
 93
       21
 10
80.37836730683268
 20
241.3620077313059
 42
0.0
 10
80.37836730683268
 20
245.7786903345647
 42
-0.1095178116832378
 10
82.06482714017285
 20
253.385819045897
 42
0.0
 10
82.42638933608514
 20
254.1611916772256
 42
0.0
 10
80.77132245764142
 20
254.1611916772256
 42
0.0
 10
80.70536545961813
 20
254.0197464385086
 42
0.1095178116832449
 10
78.87836730683263
 20
245.7786903345647
 42
0.0
 10
78.87836730683263
 20
241.2831559752019
 42
0.0847252966078111
 10
80.30693009961417
 20
232.9931886253898
 42
-0.0851285408962511
 10
80.87836730683269
 20
229.6611916772255
 42
0.0
 10
80.87836730683266
 20
221.5695185904215
 42
0.1395991324168609
 10
82.67836730683264
 20
215.2481263387099
 42
-0.1395991324168601
 10
83.87836730683263
 20
211.0338648375688
 42
0.0
 10
83.87836730683263
 20
206.1611916772255
 42
0.0
 10
85.37836730683263
 20
206.1611916772255
 42
0.0
 10
85.37836730683263
 20
211.0338648375687
 42
0.1433758286905692
 10
83.87836730683263
 20
216.1573402205484
 42
0.0
 10
83.87836730683263
 20
216.1611916772255
 42
-0.1361061113099516
 10
82.37836730683261
 20
221.5695185904215
 42
0.0
 10
82.37836730683262
 20
229.6611916772255
 42
0.0851285408962502
 10
81.7212145185314
 20
233.4929881676143
 42
-0.0855444844069817
 97
        0
 75
     0
 76
     0
 52
45.0
 41
2.0
 77
     0
 78
     1
 53
45.0
 43
-8.757520559116755
 44
-5.345411881877453
 45
-1.414213562373094
 46
1.414213562373095
 79
     0
 47
0.2944900451059944
 98
        2
 10
140.9708420087295
 20
240.7412285989077
 10
79.67654470331194
 20
241.3302089762158
  0
HATCH
  5
373
330
1E
100
AcDbEntity
  8
SCHRAFF
100
AcDbHatch
 10
0.0
 20
0.0
 30
0.0
210
0.0
220
0.0
230
1.0
  2
_USER
 70
     0
 71
     1
 91
        2
 92
        7
 72
     1
 73
     1
 93
       10
 10
89.37836730683269
 20
129.0957002628625
 42
0.0
 10
89.98505819519911
 20
122.1611916772255
 42
0.0
 10
91.49078795151412
 20
122.1611916772255
 42
0.0
 10
90.87836730683266
 20
129.1611916772255
 42
0.0
 10
90.87836730683266
 20
194.7080491942104
 42
0.1445709769475347
 10
89.03342411408241
 20
200.9554388930192
 42
0.0
 10
85.66499584194881
 20
206.1611916772255
 42
0.0
 10
83.87836730683261
 20
206.1611916772255
 42
0.0
 10
87.77406887835415
 20
200.1405619757832
 42
-0.1445709769475348
 10
89.37836730683264
 20
194.7080491942104
 42
0.0
 97
       10
330
23A
330
230
330
213
330
22D
330
238
330
229
330
234
330
228
330
233
330
231
 92
        7
 72
     1
 73
     1
 93
       10
 10
131.3783673068326
 20
194.7080491942103
 42
-0.1445709769475338
 10
132.9826657353111
 20
200.1405619757831
 42
0.0
 10
136.8783673068327
 20
206.1611916772255
 42
0.0
 10
135.0917387717164
 20
206.1611916772255
 42
0.0
 10
131.7233104995829
 20
200.955438893019
 42
0.1445709769475336
 10
129.8783673068326
 20
194.7080491942104
 42
0.0
 10
129.8783673068327
 20
129.1611916772255
 42
0.0
 10
129.2659466621512
 20
122.1611916772254
 42
0.0
 10
130.7716764184662
 20
122.1611916772254
 42
0.0
 10
131.3783673068326
 20
129.0957002628634
 42
0.0
 97
       10
330
237
330
22C
330
213
330
22F
330
239
330
22E
330
236
330
228
330
235
330
22A
 75
     0
 76
     0
 52
135.0
 41
2.0
 77
     0
 78
     1
 53
135.0
 43
-8.757520559116755
 44
-5.345411881877453
 45
-1.414213562373095
 46
-1.414213562373094
 79
     0
 47
0.2944900451059944
 98
        2
 10
89.99048858331617
 20
189.7944507955707
 10
130.6568970659045
 20
190.0889406344528
  0
LINE
  5
3CB
330
1E
100
AcDbEntity
  8
STEMPEL
100
AcDbLine
 10
65.87836730683266
 20
254.1611916772256
 30
0.0
 11
65.87836730683264
 21
145.1611916772255
 31
0.0
  0
LINE
  5
3CC
330
1E
100
AcDbEntity
  8
STEMPEL
100
AcDbLine
 10
154.8783673068326
 20
254.1611916772254
 30
0.0
 11
154.8783673068326
 21
145.1611916772256
 31
0.0
  0
LINE
  5
3CD
330
1E
100
AcDbEntity
  8
STEMPEL
  6
Continuous
100
AcDbLine
 10
154.8783673068326
 20
147.1611916772254
 30
0.0
 11
153.2783673068327
 21
147.1611916772254
 31
0.0
  0
LINE
  5
3CE
102
{ACAD_REACTORS
330
5DB
330
77E
102
}
330
1E
100
AcDbEntity
  8
STEMPEL
100
AcDbLine
 10
153.2783673068327
 20
254.1611916772254
 30
0.0
 11
153.2783673068327
 21
147.1611916772254
 31
0.0
  0
LINE
  5
3CF
102
{ACAD_REACTORS
330
5DB
330
77E
102
}
330
1E
100
AcDbEntity
  8
STEMPEL
100
AcDbLine
 10
67.47836730683265
 20
254.1611916772256
 30
0.0
 11
67.47836730683265
 21
147.1611916772255
 31
0.0
  0
LINE
  5
471
102
{ACAD_REACTORS
330
5DB
330
77E
102
}
330
1E
100
AcDbEntity
  8
STEMPEL
  6
Continuous
100
AcDbLine
 10
153.2783673068327
 20
240.1611916772254
 30
0.0
 11
141.8513799175978
 21
240.1611916772254
 31
0.0
  0
LINE
  5
472
102
{ACAD_REACTORS
330
5DB
330
77E
102
}
330
1E
100
AcDbEntity
  8
STEMPEL
  6
Continuous
100
AcDbLine
 10
78.90535469606743
 20
240.1611916772256
 30
0.0
 11
67.47836730683267
 21
240.1611916772256
 31
0.0
  0
TEXT
  5
54A
330
1E
100
AcDbEntity
  8
VOLL
100
AcDbText
 10
305.2666505177693
 20
60.9917365573275
 30
0.0
 40
1.8
  1

  7
GREEKS
100
AcDbText
  0
TEXT
  5
558
330
1E
100
AcDbEntity
  8
BEM
100
AcDbText
 10
779.8708637178527
 20
75.83979991258411
 30
0.0
 40
2.5
  1

 41
0.8
  7
GREEKS
 72
     4
 11
779.8708637178527
 21
75.83979991258411
 31
0.0
100
AcDbText
  0
LINE
  5
55A
330
1E
100
AcDbEntity
  8
STEMPEL
100
AcDbLine
 10
153.2783673068327
 20
163.1611916772271
 30
0.0
 11
131.3783673068326
 21
163.1611916772271
 31
0.0
  0
LINE
  5
560
330
1E
100
AcDbEntity
  8
STEMPEL
100
AcDbLine
 10
134.8783673068327
 20
153.1611916772271
 30
0.0
 11
131.3783673068327
 21
153.1611916772272
 31
0.0
  0
POINT
  5
57F
330
1E
100
AcDbEntity
  8
STEMPEL
100
AcDbPoint
 10
134.8783673068327
 20
153.1611916772271
 30
0.0
  0
POINT
  5
580
330
1E
100
AcDbEntity
  8
STEMPEL
100
AcDbPoint
 10
85.87836730683273
 20
153.1611916772271
 30
0.0
  0
POINT
  5
581
330
1E
100
AcDbEntity
  8
STEMPEL
100
AcDbPoint
 10
134.8783673068327
 20
153.1611916772271
 30
0.0
  0
POINT
  5
582
330
1E
100
AcDbEntity
  8
STEMPEL
100
AcDbPoint
 10
134.8783673068327
 20
153.1611916772271
 30
0.0
  0
POINT
  5
583
330
1E
100
AcDbEntity
  8
STEMPEL
100
AcDbPoint
 10
138.3424689219704
 20
147.1611916772271
 30
0.0
  0
POINT
  5
58D
330
1E
100
AcDbEntity
  8
STEMPEL
100
AcDbPoint
 10
85.87836730683273
 20
153.1611916772271
 30
0.0
  0
LINE
  5
5A1
330
1E
100
AcDbEntity
  8
STEMPEL
  6
Continuous
100
AcDbLine
 10
67.47836730683265
 20
147.1611916772255
 30
0.0
 11
65.87836730683266
 21
147.1611916772255
 31
0.0
  0
LINE
  5
5A2
330
1E
100
AcDbEntity
  8
STEMPEL
100
AcDbLine
 10
89.37836730683265
 20
153.1611916772272
 30
0.0
 11
85.87836730683273
 21
153.1611916772272
 31
0.0
  0
LINE
  5
5A3
330
1E
100
AcDbEntity
  8
STEMPEL
100
AcDbLine
 10
89.37836730683267
 20
163.1611916772271
 30
0.0
 11
67.47836730683267
 21
163.1611916772271
 31
0.0
  0
HATCH
  5
5CB
330
1E
100
AcDbEntity
  8
SCHRAFF
100
AcDbHatch
 10
0.0
 20
0.0
 30
0.0
210
0.0
220
0.0
230
1.0
  2
_USER
 70
     0
 71
     0
 91
        2
 92
        7
 72
     0
 73
     1
 93
        5
 10
154.8783673068326
 20
254.1611916772254
 10
153.2783673068326
 20
254.1611916772253
 10
153.2783673068327
 20
149.451568232071
 10
153.3783673068328
 20
147.1611916772254
 10
154.8783673068326
 20
147.1611916772254
 97
        0
 92
        7
 72
     0
 73
     1
 93
        5
 10
65.87836730683267
 20
147.1611916772255
 10
67.37836730683266
 20
147.1611916772255
 10
67.47836730683265
 20
149.4515682320684
 10
67.47836730683264
 20
254.1611916772256
 10
65.87836730683267
 20
254.1611916772257
 97
        0
 75
     0
 76
     0
 52
45.0
 41
2.0
 77
     0
 78
     1
 53
45.0
 43
-8.757520559116755
 44
-5.345411881877453
 45
-1.414213562373094
 46
1.414213562373095
 79
     0
 47
0.2359305446002264
 98
        2
 10
154.1747609206363
 20
227.0725027220152
 10
66.34337009611499
 20
221.4101696682007
  0
HATCH
  5
5DB
330
1E
100
AcDbEntity
  8
SCHRAFF
100
AcDbHatch
 10
0.0
 20
0.0
 30
0.0
210
0.0
220
0.0
230
1.0
  2
NET
 70
     0
 71
     1
 91
        2
 92
        7
 72
     1
 73
     1
 93
        7
 10
78.87836730683263
 20
245.7786903345647
 42
-0.1095178116832408
 10
80.70536545961797
 20
254.0197464385083
 42
0.0
 10
80.77132245764138
 20
254.1611916772255
 42
0.0
 10
67.47836730683265
 20
254.1611916772256
 42
0.0
 10
67.47836730683265
 20
240.1611916772256
 42
0.0
 10
78.90535469606745
 20
240.1611916772256
 42
-0.0120251093637033
 10
78.87836730683263
 20
241.3632273792573
 42
0.0
 97
        7
330
210
330
1FD
330
3CF
330
472
330
209
330
20E
330
207
 92
        7
 72
     1
 73
     1
 93
        7
 10
141.8783673068326
 20
241.3632273792573
 42
-0.0120251093637052
 10
141.8513799175978
 20
240.1611916772254
 42
0.0
 10
153.2783673068327
 20
240.1611916772254
 42
0.0
 10
153.2783673068327
 20
254.1611916772254
 42
0.0
 10
139.985412156024
 20
254.1611916772254
 42
0.0
 10
140.0513691540473
 20
254.0197464385083
 42
-0.1095178116832405
 10
141.8783673068326
 20
245.7786903345647
 42
0.0
 97
        7
330
1FD
330
226
330
214
330
222
330
21E
330
471
330
3CE
 75
     0
 76
     1
 52
45.0
 41
15.0
 77
     0
 78
     2
 53
45.0
 43
-8.757520559116755
 44
-5.345411881877453
 45
-1.325825214724776
 46
1.325825214724776
 79
     0
 53
135.0
 43
-8.757520559116755
 44
-5.345411881877453
 45
-1.325825214724776
 46
-1.325825214724776
 79
     0
 47
0.2359305446002264
 98
        2
 10
74.60707644742342
 20
245.9469462347299
 10
146.3832658972635
 20
245.4750854967055
  0
DIMENSION
  5
621
330
1E
100
AcDbEntity
  8
BEM
100
AcDbDimension
  2
*D3
 10
154.8783673068326
 20
265.7486589235177
 30
0.0
 11
110.3783673068327
 21
268.9986589235177
 31
0.0
 70
    32
  1
%%c<>
 71
     5
 42
89.00000000000002
  3
Standard
100
AcDbAlignedDimension
 13
65.87836730683266
 23
254.1611916772256
 33
0.0
 14
154.8783673068326
 24
254.1611916772254
 34
0.0
100
AcDbRotatedDimension
1001
ACAD
1000
DSTYLE
1002
{
1070
    41
1040
3.5
1070
    42
1040
1.0
1070
    43
1040
7.0
1070
    44
1040
1.0
1070
    47
1040
0.15
1070
    48
1040
0.15
1070
    73
1070
     0
1070
    74
1070
     0
1070
    77
1070
     1
1070
    78
1070
     8
1070
    79
1070
     2
1070
   140
1040
3.5
1070
   141
1040
1.5
1070
   146
1040
0.5142857142857144
1070
   147
1040
1.5
1070
   172
1070
     1
1070
   178
1070
     1
1070
   179
1070
     2
1070
   271
1070
     2
1070
   272
1070
     2
1070
   284
1070
     8
1070
   285
1070
     8
1070
   286
1070
     8
1002
}
  0
DIMENSION
  5
644
330
1E
100
AcDbEntity
  8
BEM
100
AcDbDimension
  2
*D4
 10
49.77051141397851
 20
122.1611916772255
 30
0.0
 11
46.52051141397849
 21
188.1611916772256
 31
0.0
 70
    32
 71
     5
 42
132.0000000000001
  3
Standard
100
AcDbAlignedDimension
 13
65.87836730683266
 23
254.1611916772256
 33
0.0
 14
89.98505819519911
 24
122.1611916772255
 34
0.0
 50
90.0
100
AcDbRotatedDimension
1001
ACAD
1000
DSTYLE
1002
{
1070
    41
1040
3.5
1070
    42
1040
1.0
1070
    43
1040
7.0
1070
    44
1040
1.0
1070
    47
1040
0.15
1070
    48
1040
0.15
1070
    73
1070
     0
1070
    74
1070
     0
1070
    77
1070
     1
1070
    78
1070
     8
1070
    79
1070
     2
1070
   140
1040
3.5
1070
   141
1040
1.5
1070
   146
1040
0.5142857142857144
1070
   147
1040
1.5
1070
   172
1070
     1
1070
   178
1070
     1
1070
   179
1070
     2
1070
   271
1070
     2
1070
   272
1070
     2
1070
   284
1070
     8
1070
   285
1070
     8
1070
   286
1070
     8
1002
}
  0
LINE
  5
6D1
330
1E
100
AcDbEntity
  8
HILF
100
AcDbLine
 10
136.256911333094
 20
218.2831832453905
 30
0.0
 11
84.4998232805713
 21
218.2831832453905
 31
0.0
  0
LINE
  5
6D2
330
1E
100
AcDbEntity
  8
HILF
100
AcDbLine
 10
134.0987569242632
 20
213.2247550675894
 30
0.0
 11
86.65797768940207
 21
213.2247550675894
 31
0.0
  0
LINE
  5
6D3
330
1E
100
AcDbEntity
  8
HILF
100
AcDbLine
 10
136.9887275149724
 20
231.3515129591398
 30
0.0
 11
83.76800709869291
 21
231.3515129591398
 31
0.0
  0
LINE
  5
6DB
330
1E
100
AcDbEntity
  8
STEMPEL
100
AcDbLine
 10
89.37836730683265
 20
163.1611916772271
 30
0.0
 11
67.47836730683267
 21
163.1611916772271
 31
0.0
  0
TEXT
  5
6F0
330
1E
100
AcDbEntity
  8
TEXT
100
AcDbText
 10
208.2905770718718
 20
6.074024076691515
 30
0.0
 40
2.0
  1
Diese Zeichnung ist urheberrechtlich geschützt und bleibt unser Eigentum. Sie darf weder ganz noch teilweise vervielfältigt und nicht an Dritte weitergegeben werden.
 50
90.0
 41
0.8
  7
GREEKS
100
AcDbText
  0
TEXT
  5
6FA
330
1E
100
AcDbEntity
  8
TEXT
 62
     1
100
AcDbText
 10
122.515064557629
 20
64.87110898645312
 30
0.0
 40
3.5
  1
und innenbeschichtet
 41
0.8
  7
GREEKS
100
AcDbText
  0
TEXT
  5
6FB
330
1E
100
AcDbEntity
  8
TEXT
 62
     1
100
AcDbText
 10
94.94059479727354
 20
58.57369129376209
 30
0.0
 40
3.5
  1
Dämmung: 2 K-PU-Schaum
 41
0.8
  7
GREEKS
100
AcDbText
  0
TEXT
  5
6FC
330
1E
100
AcDbEntity
  8
TEXT
 62
     1
100
AcDbText
 10
98.68780011962213
 20
70.505635906066
 30
0.0
 40
3.5
  1
Innenrohr: E195 EN10305 feuerverzinkt
 41
0.8
  7
GREEKS
100
AcDbText
  0
TEXT
  5
6FD
330
1E
100
AcDbEntity
  8
TEXT
 62
     1
100
AcDbText
 10
96.80169143419011
 20
76.18216992424351
 30
0.0
 40
3.5
  1
Außenrohr: E195 EN10305 feuerverzinkt
 41
0.8
  7
GREEKS
100
AcDbText
  0
HATCH
  5
732
330
1E
100
AcDbEntity
  8
SCHRAFF
100
AcDbHatch
 10
0.0
 20
0.0
 30
0.0
210
0.0
220
0.0
230
1.0
  2
NET
 70
     0
 71
     0
 91
        2
 92
        7
 72
     0
 73
     1
 93
       10
 10
153.2783673068324
 20
163.1611916772254
 10
131.3783673068326
 20
163.1611916772254
 10
131.3783673068326
 20
153.1611916772256
 10
134.8783673068325
 20
153.1611916772256
 10
138.3424689219703
 20
147.1611916772255
 10
148.8783673068326
 20
147.1611916772255
 10
148.8783673068326
 20
145.1611916772256
 10
154.8783673068325
 20
145.1611916772257
 10
154.8783673068324
 20
147.1611916772257
 10
153.2783673068325
 20
147.1611916772257
 97
        0
 92
        7
 72
     0
 73
     1
 93
       10
 10
89.37836730683264
 20
163.1611916772254
 10
67.47836730683265
 20
163.1611916772255
 10
67.47836730683265
 20
147.1611916772256
 10
65.8783673068326
 20
147.1611916772255
 10
65.87836730683266
 20
145.1611916772255
 10
71.87836730683265
 20
145.1611916772255
 10
71.8783673068326
 20
147.1611916772255
 10
82.41426569169483
 20
147.1611916772256
 10
85.87836730683266
 20
153.1611916772256
 10
89.37836730683264
 20
153.1611916772255
 97
        0
 75
     0
 76
     1
 52
45.0
 41
20.0
 77
     0
 78
     2
 53
45.0
 43
-114.6216326931673
 44
-100.9746899996056
 45
-1.767766952966368
 46
1.767766952966368
 79
     0
 53
135.0
 43
-114.6216326931673
 44
-100.9746899996056
 45
-1.767766952966368
 46
-1.767766952966368
 79
     0
 47
0.1322099502765182
 98
        2
 10
146.7508692212594
 20
153.299462246387
 10
82.98722909996362
 20
156.2080818580902
  0
LINE
  5
733
330
1E
100
AcDbEntity
  8
STEMPEL
100
AcDbLine
 10
154.8783673068325
 20
145.1611916772256
 30
0.0
 11
131.3783673068327
 21
145.1611916772256
 31
0.0
  0
POINT
  5
734
330
1E
100
AcDbEntity
  8
STEMPEL
100
AcDbPoint
 10
148.8783673068326
 20
145.1611916772255
 30
0.0
  0
POINT
  5
735
330
1E
100
AcDbEntity
  8
STEMPEL
100
AcDbPoint
 10
138.3424689219703
 20
147.1611916772255
 30
0.0
  0
LINE
  5
736
330
1E
100
AcDbEntity
  8
STEMPEL
100
AcDbLine
 10
148.8783673068326
 20
147.1611916772255
 30
0.0
 11
131.3783673068326
 21
147.1611916772255
 31
0.0
  0
LINE
  5
737
330
1E
100
AcDbEntity
  8
STEMPEL
100
AcDbLine
 10
148.8783673068326
 20
145.1611916772255
 30
0.0
 11
148.8783673068326
 21
147.1611916772255
 31
0.0
  0
LINE
  5
738
330
1E
100
AcDbEntity
  8
STEMPEL
100
AcDbLine
 10
134.8783673068326
 20
153.1611916772255
 30
0.0
 11
138.3424689219703
 21
147.1611916772255
 31
0.0
  0
LINE
  5
739
330
1E
100
AcDbEntity
  8
STEMPEL
100
AcDbLine
 10
89.37836730683269
 20
147.1611916772256
 30
0.0
 11
71.87836730683263
 21
147.1611916772255
 31
0.0
  0
LINE
  5
73A
330
1E
100
AcDbEntity
  8
STEMPEL
100
AcDbLine
 10
89.37836730683264
 20
145.1611916772256
 30
0.0
 11
65.87836730683266
 21
145.1611916772255
 31
0.0
  0
POINT
  5
73B
330
1E
100
AcDbEntity
  8
STEMPEL
100
AcDbPoint
 10
73.37836730683263
 20
147.1611916772255
 30
0.0
  0
POINT
  5
73C
330
1E
100
AcDbEntity
  8
STEMPEL
100
AcDbPoint
 10
73.37836730683263
 20
147.1611916772255
 30
0.0
  0
POINT
  5
73D
330
1E
100
AcDbEntity
  8
STEMPEL
100
AcDbPoint
 10
73.37836730683263
 20
147.1611916772255
 30
0.0
  0
POINT
  5
73E
330
1E
100
AcDbEntity
  8
STEMPEL
100
AcDbPoint
 10
77.37836730683262
 20
147.1611916772255
 30
0.0
  0
POINT
  5
73F
330
1E
100
AcDbEntity
  8
STEMPEL
100
AcDbPoint
 10
71.87836730683263
 20
145.1611916772255
 30
0.0
  0
LINE
  5
740
330
1E
100
AcDbEntity
  8
STEMPEL
100
AcDbLine
 10
71.87836730683263
 20
145.1611916772255
 30
0.0
 11
71.87836730683263
 21
147.1611916772255
 31
0.0
  0
LINE
  5
741
330
1E
100
AcDbEntity
  8
STEMPEL
100
AcDbLine
 10
85.87836730683262
 20
153.1611916772255
 30
0.0
 11
82.41426569169483
 21
147.1611916772255
 31
0.0
  0
LINE
  5
742
102
{ACAD_REACTORS
330
77E
102
}
330
1E
100
AcDbEntity
  8
STEMPEL
100
AcDbLine
 10
67.47836730683265
 20
163.1611916772254
 30
0.0
 11
89.37836730683251
 21
163.1611916772254
 31
0.0
  0
LINE
  5
743
102
{ACAD_REACTORS
330
77E
102
}
330
1E
100
AcDbEntity
  8
STEMPEL
100
AcDbLine
 10
131.3783673068327
 20
163.1611916772254
 30
0.0
 11
153.2783673068325
 21
163.1611916772254
 31
0.0
  0
HATCH
  5
77E
330
1E
100
AcDbEntity
  8
SCHRAFF
100
AcDbHatch
 10
0.0
 20
0.0
 30
0.0
210
0.0
220
0.0
230
1.0
  2
HONEY
 70
     0
 71
     1
 91
        2
 92
        7
 72
     1
 73
     1
 93
       13
 10
134.9371908362445
 20
203.1611916772256
 42
0.0
 10
132.9826657353111
 20
200.1405619757831
 42
0.1445709769475331
 10
131.3783673068326
 20
194.7080491942104
 42
0.0
 10
131.3783673068326
 20
163.1611916772254
 42
0.0
 10
153.2783673068327
 20
163.1611916772254
 42
0.0
 10
153.2783673068326
 20
240.1611916772253
 42
0.0
 10
141.8513799175978
 20
240.1611916772254
 42
-0.0734311771838528
 10
140.4498045140511
 20
232.9931886253897
 42
0.0851285408962534
 10
139.8783673068326
 20
229.6611916772254
 42
0.0
 10
139.8783673068326
 20
221.5695185904215
 42
-0.139599132416861
 10
138.0783673068327
 20
215.2481263387099
 42
0.1395991324168623
 10
136.8783673068326
 20
211.0338648375687
 42
0.0
 10
136.8783673068326
 20
209.1611916772256
 42
-0.599572600756993
 97
       13
330
471
330
21E
330
220
330
217
330
21B
330
219
330
21A
330
249
330
22C
330
237
330
22A
330
743
330
3CE
 92
        7
 72
     1
 73
     1
 93
       13
 10
83.87836730683263
 20
209.1611916772256
 42
0.0
 10
83.87836730683263
 20
211.0338648375687
 42
0.139599132416861
 10
82.67836730683264
 20
215.2481263387099
 42
-0.1395991324168609
 10
80.87836730683266
 20
221.5695185904215
 42
0.0
 10
80.87836730683269
 20
229.6611916772255
 42
0.0851285408962474
 10
80.30693009961421
 20
232.9931886253896
 42
-0.073431177183856
 10
78.90535469606743
 20
240.1611916772256
 42
0.0
 10
67.47836730683265
 20
240.1611916772257
 42
0.0
 10
67.47836730683265
 20
163.1611916772254
 42
0.0
 10
89.37836730683265
 20
163.1611916772254
 42
0.0
 10
89.37836730683264
 20
194.7080491942104
 42
0.1445709769475348
 10
87.77406887835415
 20
200.1405619757832
 42
0.0
 10
85.81954377742087
 20
203.1611916772256
 42
-0.5995726007569928
 97
       13
330
22D
330
248
330
201
330
203
330
205
330
1FF
330
20B
330
209
330
472
330
3CF
330
742
330
229
330
238
 75
     0
 76
     1
 52
0.0
 41
30.0
 77
     0
 78
     3
 53
0.0
 43
2.535623257722363
 44
0.0
 45
5.625
 46
3.247595249999999
 79
     2
 49
3.75
 49
-7.5
 53
120.0
 43
2.535623257722363
 44
0.0
 45
-5.624999987709673
 46
3.247595271287468
 79
     2
 49
3.749999999999999
 49
-7.499999999999999
 53
60.0
 43
2.535623257722363
 44
0.0
 45
0.0000000122903263
 46
6.495190521287468
 79
     2
 49
-7.5
 49
3.75
 47
0.506835736720637
 98
        2
 10
142.2748183483875
 20
200.9575034054204
 10
81.41784021242324
 20
197.9164887328104
  0
DIMENSION
  5
793
330
1E
100
AcDbEntity
  8
BEM
100
AcDbDimension
  2
*D5
 10
56.77051141397851
 20
147.1611916772256
 30
0.0
 11
53.52051141397848
 21
134.6611916772255
 31
0.0
 70
    32
 71
     5
 42
25.00000000000004
  3
Standard
100
AcDbAlignedDimension
 13
89.98505819519911
 23
122.1611916772255
 33
0.0
 14
65.87836730683266
 24
147.1611916772255
 34
0.0
 50
90.0
100
AcDbRotatedDimension
1001
ACAD
1000
DSTYLE
1002
{
1070
    41
1040
3.5
1070
    42
1040
1.0
1070
    43
1040
7.0
1070
    44
1040
1.0
1070
    47
1040
0.15
1070
    48
1040
0.15
1070
    73
1070
     0
1070
    74
1070
     0
1070
    77
1070
     1
1070
    78
1070
     8
1070
    79
1070
     2
1070
   140
1040
3.5
1070
   141
1040
1.5
1070
   146
1040
0.5142857142857144
1070
   147
1040
1.5
1070
   172
1070
     1
1070
   178
1070
     1
1070
   179
1070
     2
1070
   271
1070
     2
1070
   272
1070
     2
1070
   284
1070
     8
1070
   285
1070
     8
1070
   286
1070
     8
1002
}
  0
ENDSEC
  0
SECTION
  2
OBJECTS
  0
DICTIONARY
  5
C
330
0
100
AcDbDictionary
281
     1
  3
ACAD_COLOR
350
39F
  3
ACAD_GROUP
350
D
  3
ACAD_LAYOUT
350
19
  3
ACAD_MATERIAL
350
39E
  3
ACAD_MLINESTYLE
350
16
  3
ACAD_PLOTSETTINGS
350
18
  3
ACAD_PLOTSTYLENAME
350
E
  3
AcDbVariableDictionary
350
31A
  0
DICTIONARY
  5
39F
102
{ACAD_REACTORS
330
C
102
}
330
C
100
AcDbDictionary
281
     1
  0
DICTIONARY
  5
D
102
{ACAD_REACTORS
330
C
102
}
330
C
100
AcDbDictionary
281
     1
  0
DICTIONARY
  5
19
102
{ACAD_REACTORS
330
C
102
}
330
C
100
AcDbDictionary
281
     1
  3
Layout1
350
1D
  3
Model
350
21
  0
DICTIONARY
  5
39E
102
{ACAD_REACTORS
330
C
102
}
330
C
100
AcDbDictionary
281
     1
  0
DICTIONARY
  5
16
102
{ACAD_REACTORS
330
C
102
}
330
C
100
AcDbDictionary
281
     1
  3
Standard
350
17
  0
DICTIONARY
  5
18
102
{ACAD_REACTORS
330
C
102
}
330
C
100
AcDbDictionary
281
     1
  0
ACDBDICTIONARYWDFLT
  5
E
102
{ACAD_REACTORS
330
C
102
}
330
C
100
AcDbDictionary
281
     1
  3
Normal
350
F
100
AcDbDictionaryWithDefault
340
F
  0
DICTIONARY
  5
31A
102
{ACAD_REACTORS
330
C
102
}
330
C
100
AcDbDictionary
281
     1
  3
DIMASSOC
350
696
  3
PROJECTNAME
350
697
  3
SORTENTS
350
31B
  0
LAYOUT
  5
1D
102
{ACAD_REACTORS
330
19
102
}
330
19
100
AcDbPlotSettings
  1

  2
Tektronix Phaser 740
  4

  6

 40
0.0
 41
0.0
 42
0.0
 43
0.0
 44
0.0
 45
0.0
 46
0.0
 47
0.0
 48
0.0
 49
0.0
140
0.0
141
0.0
142
1.0
143
1.0
 70
   688
 72
     0
 73
     0
 74
     5
  7
monochrome.ctb
 75
    16
147
1.0
 76
     0
 77
     2
 78
   300
148
0.0
149
0.0
100
AcDbLayout
  1
Layout1
 70
     0
 71
     1
 10
0.0
 20
0.0
 11
12.0
 21
9.0
 12
0.0
 22
0.0
 32
0.0
 14
1.000000000000000E+20
 24
1.000000000000000E+20
 34
1.000000000000000E+20
 15
-1.000000000000000E+20
 25
-1.000000000000000E+20
 35
-1.000000000000000E+20
146
0.0
 13
0.0
 23
0.0
 33
0.0
 16
1.0
 26
0.0
 36
0.0
 17
0.0
 27
1.0
 37
0.0
 76
     0
330
1A
  0
LAYOUT
  5
21
102
{ACAD_REACTORS
330
19
102
}
330
19
100
AcDbPlotSettings
  1

  2
none_device
  4
Letter_(8.50_x_11.00_Inches)
  6

 40
6.349999904632568
 41
6.349999904632568
 42
6.350006103515625
 43
6.350006103515625
 44
215.8999938964844
 45
279.3999938964844
 46
0.0
 47
0.0
 48
0.0
 49
0.0
140
0.0
141
0.0
142
1.0
143
1.0
 70
 11952
 72
     0
 73
     1
 74
     0
  7
monochrome.ctb
 75
     0
147
1.0
 76
     0
 77
     2
 78
   300
148
-427.6236799849804
149
44.87778572714498
100
AcDbLayout
  1
Model
 70
     1
 71
     0
 10
0.0
 20
0.0
 11
12.0
 21
9.0
 12
0.0
 22
0.0
 32
0.0
 14
0.0
 24
0.0
 34
0.0
 15
0.0
 25
0.0
 35
0.0
146
0.0
 13
0.0
 23
0.0
 33
0.0
 16
1.0
 26
0.0
 36
0.0
 17
0.0
 27
1.0
 37
0.0
 76
     0
330
1E
  0
MLINESTYLE
  5
17
102
{ACAD_REACTORS
330
16
102
}
330
16
100
AcDbMlineStyle
  2
STANDARD
 70
     0
  3

 62
   256
 51
90.0
 52
90.0
 71
     2
 49
0.5
 62
   256
  6
BYLAYER
 49
-0.5
 62
   256
  6
BYLAYER
  0
ACDBPLACEHOLDER
  5
F
102
{ACAD_REACTORS
330
E
102
}
330
E
  0
DICTIONARYVAR
  5
696
102
{ACAD_REACTORS
330
31A
102
}
330
31A
100
DictionaryVariables
280
     0
  1
1
  0
DICTIONARYVAR
  5
697
102
{ACAD_REACTORS
330
31A
102
}
330
31A
100
DictionaryVariables
280
     0
  1

  0
DICTIONARYVAR
  5
31B
102
{ACAD_REACTORS
330
31A
102
}
330
31A
100
DictionaryVariables
280
     0
  1
96
  0
ENDSEC
  0
EOF
