  0
SECTION
  2
HEADER
  9
$ACADVER
  1
AC1018
  9
$ACADMAINTVER
 70
     2
  9
$DWGCODEPAGE
  3
ANSI_1252
  9
$INSBASE
 10
0.0
 20
0.0
 30
0.0
  9
$EXTMIN
 10
-0.0064018457152883
 20
-0.009054038940576
 30
-0.000000000000013
  9
$EXTMAX
 10
210.0064121142481
 20
297.0090685615793
 30
0.0000000000000023
  9
$LIMMIN
 10
0.0
 20
0.0
  9
$LIMMAX
 10
210.0
 20
297.0000000000001
  9
$ORTHOMODE
 70
     1
  9
$REGENMODE
 70
     1
  9
$FILLMODE
 70
     1
  9
$QTEXTMODE
 70
     0
  9
$MIRRTEXT
 70
     1
  9
$LTSCALE
 40
10.0
  9
$ATTMODE
 70
     1
  9
$TEXTSIZE
 40
3.5
  9
$TRACEWID
 40
0.5
  9
$TEXTSTYLE
  7
STANDARD
  9
$CLAYER
  8
BEM
  9
$CELTYPE
  6
ByLayer
  9
$CECOLOR
 62
   256
  9
$CELTSCALE
 40
1.0
  9
$DISPSILH
 70
     0
  9
$DIMSCALE
 40
1.0
  9
$DIMASZ
 40
3.5
  9
$DIMEXO
 40
1.0
  9
$DIMDLI
 40
7.0
  9
$DIMRND
 40
0.0
  9
$DIMDLE
 40
0.0
  9
$DIMEXE
 40
1.0
  9
$DIMTP
 40
0.15
  9
$DIMTM
 40
0.15
  9
$DIMTXT
 40
3.5
  9
$DIMCEN
 40
1.5
  9
$DIMTSZ
 40
0.0
  9
$DIMTOL
 70
     0
  9
$DIMLIM
 70
     0
  9
$DIMTIH
 70
     0
  9
$DIMTOH
 70
     0
  9
$DIMSE1
 70
     0
  9
$DIMSE2
 70
     0
  9
$DIMTAD
 70
     1
  9
$DIMZIN
 70
     8
  9
$DIMBLK
  1

  9
$DIMASO
 70
     1
  9
$DIMSHO
 70
     0
  9
$DIMPOST
  1

  9
$DIMAPOST
  1

  9
$DIMALT
 70
     0
  9
$DIMALTD
 70
     2
  9
$DIMALTF
 40
25.4
  9
$DIMLFAC
 40
1.0
  9
$DIMTOFL
 70
     1
  9
$DIMTVP
 40
0.0
  9
$DIMTIX
 70
     0
  9
$DIMSOXD
 70
     0
  9
$DIMSAH
 70
     0
  9
$DIMBLK1
  1

  9
$DIMBLK2
  1

  9
$DIMSTYLE
  2
Standard
  9
$DIMCLRD
 70
     0
  9
$DIMCLRE
 70
     0
  9
$DIMCLRT
 70
     1
  9
$DIMTFAC
 40
0.5142857142857144
  9
$DIMGAP
 40
1.5
  9
$DIMJUST
 70
     0
  9
$DIMSD1
 70
     0
  9
$DIMSD2
 70
     0
  9
$DIMTOLJ
 70
     1
  9
$DIMTZIN
 70
     8
  9
$DIMALTZ
 70
     8
  9
$DIMALTTZ
 70
     8
  9
$DIMUPT
 70
     0
  9
$DIMDEC
 70
     2
  9
$DIMTDEC
 70
     2
  9
$DIMALTU
 70
     2
  9
$DIMALTTD
 70
     2
  9
$DIMTXSTY
  7
STANDARD
  9
$DIMAUNIT
 70
     0
  9
$DIMADEC
 70
     2
  9
$DIMALTRND
 40
0.0
  9
$DIMAZIN
 70
     2
  9
$DIMDSEP
 70
    46
  9
$DIMATFIT
 70
     3
  9
$DIMFRAC
 70
     0
  9
$DIMLDRBLK
  1

  9
$DIMLUNIT
 70
     2
  9
$DIMLWD
 70
    -2
  9
$DIMLWE
 70
    -2
  9
$DIMTMOVE
 70
     0
  9
$LUNITS
 70
     2
  9
$LUPREC
 70
     2
  9
$SKETCHINC
 40
1.0
  9
$FILLETRAD
 40
0.0
  9
$AUNITS
 70
     0
  9
$AUPREC
 70
     0
  9
$MENU
  1
ACAD
  9
$ELEVATION
 40
0.0
  9
$PELEVATION
 40
0.0
  9
$THICKNESS
 40
0.0
  9
$LIMCHECK
 70
     0
  9
$CHAMFERA
 40
0.0
  9
$CHAMFERB
 40
0.0
  9
$CHAMFERC
 40
0.0
  9
$CHAMFERD
 40
0.0
  9
$SKPOLY
 70
     0
  9
$TDCREATE
 40
2455573.065619792
  9
$TDUCREATE
 40
2455573.023953125
  9
$TDUPDATE
 40
2456273.605055023
  9
$TDUUPDATE
 40
2456273.563388357
  9
$TDINDWG
 40
0.1397363773
  9
$TDUSRTIMER
 40
0.1397363773
  9
$USRTIMER
 70
     1
  9
$ANGBASE
 50
0.0
  9
$ANGDIR
 70
     0
  9
$PDMODE
 70
     0
  9
$PDSIZE
 40
0.0
  9
$PLINEWID
 40
0.0
  9
$SPLFRAME
 70
     0
  9
$SPLINETYPE
 70
     6
  9
$SPLINESEGS
 70
     8
  9
$HANDSEED
  5
A55
  9
$SURFTAB1
 70
     6
  9
$SURFTAB2
 70
     6
  9
$SURFTYPE
 70
     6
  9
$SURFU
 70
     6
  9
$SURFV
 70
     6
  9
$UCSBASE
  2

  9
$UCSNAME
  2

  9
$UCSORG
 10
0.0
 20
0.0
 30
0.0
  9
$UCSXDIR
 10
1.0
 20
0.0
 30
0.0
  9
$UCSYDIR
 10
0.0
 20
1.0
 30
0.0
  9
$UCSORTHOREF
  2

  9
$UCSORTHOVIEW
 70
     0
  9
$UCSORGTOP
 10
0.0
 20
0.0
 30
0.0
  9
$UCSORGBOTTOM
 10
0.0
 20
0.0
 30
0.0
  9
$UCSORGLEFT
 10
0.0
 20
0.0
 30
0.0
  9
$UCSORGRIGHT
 10
0.0
 20
0.0
 30
0.0
  9
$UCSORGFRONT
 10
0.0
 20
0.0
 30
0.0
  9
$UCSORGBACK
 10
0.0
 20
0.0
 30
0.0
  9
$PUCSBASE
  2

  9
$PUCSNAME
  2

  9
$PUCSORG
 10
0.0
 20
0.0
 30
0.0
  9
$PUCSXDIR
 10
1.0
 20
0.0
 30
0.0
  9
$PUCSYDIR
 10
0.0
 20
1.0
 30
0.0
  9
$PUCSORTHOREF
  2

  9
$PUCSORTHOVIEW
 70
     0
  9
$PUCSORGTOP
 10
0.0
 20
0.0
 30
0.0
  9
$PUCSORGBOTTOM
 10
0.0
 20
0.0
 30
0.0
  9
$PUCSORGLEFT
 10
0.0
 20
0.0
 30
0.0
  9
$PUCSORGRIGHT
 10
0.0
 20
0.0
 30
0.0
  9
$PUCSORGFRONT
 10
0.0
 20
0.0
 30
0.0
  9
$PUCSORGBACK
 10
0.0
 20
0.0
 30
0.0
  9
$USERI1
 70
     0
  9
$USERI2
 70
     0
  9
$USERI3
 70
     0
  9
$USERI4
 70
     0
  9
$USERI5
 70
     0
  9
$USERR1
 40
0.0
  9
$USERR2
 40
0.0
  9
$USERR3
 40
0.0
  9
$USERR4
 40
0.0
  9
$USERR5
 40
0.0
  9
$WORLDVIEW
 70
     1
  9
$SHADEDGE
 70
     3
  9
$SHADEDIF
 70
    70
  9
$TILEMODE
 70
     1
  9
$MAXACTVP
 70
    16
  9
$PINSBASE
 10
0.0
 20
0.0
 30
0.0
  9
$PLIMCHECK
 70
     0
  9
$PEXTMIN
 10
1.000000000000000E+20
 20
1.000000000000000E+20
 30
1.000000000000000E+20
  9
$PEXTMAX
 10
-1.000000000000000E+20
 20
-1.000000000000000E+20
 30
-1.000000000000000E+20
  9
$PLIMMIN
 10
0.0
 20
0.0
  9
$PLIMMAX
 10
12.0
 20
9.0
  9
$UNITMODE
 70
     0
  9
$VISRETAIN
 70
     0
  9
$PLINEGEN
 70
     0
  9
$PSLTSCALE
 70
     0
  9
$TREEDEPTH
 70
  3020
  9
$CMLSTYLE
  2
Standard
  9
$CMLJUST
 70
     0
  9
$CMLSCALE
 40
1.0
  9
$PROXYGRAPHICS
 70
     1
  9
$MEASUREMENT
 70
     0
  9
$CELWEIGHT
370
    -1
  9
$ENDCAPS
280
     0
  9
$JOINSTYLE
280
     0
  9
$LWDISPLAY
290
     0
  9
$INSUNITS
 70
     0
  9
$HYPERLINKBASE
  1

  9
$STYLESHEET
  1
monochrome 1.ctb
  9
$XEDIT
290
     1
  9
$CEPSNTYPE
380
     0
  9
$PSTYLEMODE
290
     1
  9
$FINGERPRINTGUID
  2
{CF47490D-A8B5-11D8-B772-000102183313}
  9
$VERSIONGUID
  2
{017A4568-D086-4F0F-89E1-B75010D3ABF5}
  9
$EXTNAMES
290
     1
  9
$PSVPSCALE
 40
0.0
  9
$OLESTARTUP
290
     0
  9
$SORTENTS
280
    96
  9
$INDEXCTL
280
     0
  9
$HIDETEXT
280
     0
  9
$XCLIPFRAME
290
     0
  9
$HALOGAP
280
     0
  9
$OBSCOLOR
 70
   257
  9
$OBSLTYPE
280
     0
  9
$INTERSECTIONDISPLAY
280
     0
  9
$INTERSECTIONCOLOR
 70
   257
  9
$DIMASSOC
280
     1
  9
$PROJECTNAME
  1

  0
ENDSEC
  0
SECTION
  2
CLASSES
  0
CLASS
  1
ACDBDICTIONARYWDFLT
  2
AcDbDictionaryWithDefault
  3
ObjectDBX Classes
 90
        0
 91
        1
280
     0
281
     0
  0
CLASS
  1
DICTIONARYVAR
  2
AcDbDictionaryVar
  3
ObjectDBX Classes
 90
        0
 91
        3
280
     0
281
     0
  0
ENDSEC
  0
SECTION
  2
TABLES
  0
TABLE
  2
VPORT
  5
8
330
0
100
AcDbSymbolTable
 70
     3
  0
VPORT
  5
A54
330
8
100
AcDbSymbolTableRecord
100
AcDbViewportTableRecord
  2
*Active
 70
     0
 10
0.0
 20
0.0
 11
1.0
 21
1.0
 12
105.0
 22
148.5
 13
0.0
 23
0.0
 14
1.0
 24
1.0
 15
10.0
 25
10.0
 16
0.0
 26
0.0
 36
1.0
 17
0.0
 27
0.0
 37
0.0
 40
297.0
 41
1.403508771929824
 42
50.0
 43
0.0
 44
0.0
 50
0.0
 51
0.0
 71
     0
 72
  1500
 73
     1
 74
     0
 75
     0
 76
     0
 77
     0
 78
     0
281
     0
 65
     1
110
0.0
120
0.0
130
0.0
111
1.0
121
0.0
131
0.0
112
0.0
122
1.0
132
0.0
 79
     0
146
0.0
  0
ENDTAB
  0
TABLE
  2
LTYPE
  5
5
330
0
100
AcDbSymbolTable
 70
     2
  0
LTYPE
  5
13
330
5
100
AcDbSymbolTableRecord
100
AcDbLinetypeTableRecord
  2
ByBlock
 70
     0
  3

 72
    65
 73
     0
 40
0.0
  0
LTYPE
  5
14
330
5
100
AcDbSymbolTableRecord
100
AcDbLinetypeTableRecord
  2
ByLayer
 70
     0
  3

 72
    65
 73
     0
 40
0.0
  0
LTYPE
  5
15
330
5
100
AcDbSymbolTableRecord
100
AcDbLinetypeTableRecord
  2
Continuous
 70
     0
  3
Solid line
 72
    65
 73
     0
 40
0.0
  0
LTYPE
  5
32
330
5
100
AcDbSymbolTableRecord
100
AcDbLinetypeTableRecord
  2
STRICHPUNKT
 70
     0
  3
__ . __ . __ . __ . __ . __ . __ . __ . __ . __
 72
    65
 73
     4
 40
1.0
 49
0.5
 74
     0
 49
-0.25
 74
     0
 49
0.0
 74
     0
 49
-0.25
 74
     0
  0
ENDTAB
  0
TABLE
  2
LAYER
  5
2
330
0
100
AcDbSymbolTable
 70
     9
  0
LAYER
  5
10
330
2
100
AcDbSymbolTableRecord
100
AcDbLayerTableRecord
  2
0
 70
     0
 62
     7
  6
Continuous
370
    -3
390
F
  0
LAYER
  5
35
330
2
100
AcDbSymbolTableRecord
100
AcDbLayerTableRecord
  2
VOLL
 70
     0
 62
     1
  6
Continuous
370
    -3
390
F
  0
LAYER
  5
36
330
2
100
AcDbSymbolTableRecord
100
AcDbLayerTableRecord
  2
HILF
 70
     0
 62
     2
  6
Continuous
370
    -3
390
F
  0
LAYER
  5
37
330
2
100
AcDbSymbolTableRecord
100
AcDbLayerTableRecord
  2
MITTEL
 70
     0
 62
     2
  6
STRICHPUNKT
370
    -3
390
F
  0
LAYER
  5
38
330
2
100
AcDbSymbolTableRecord
100
AcDbLayerTableRecord
  2
BEM
 70
     0
 62
     7
  6
Continuous
370
    -3
390
F
  0
LAYER
  5
39
330
2
100
AcDbSymbolTableRecord
100
AcDbLayerTableRecord
  2
DEFPOINTS
 70
     0
 62
     7
  6
Continuous
290
     0
370
    -3
390
F
  0
LAYER
  5
3A
330
2
100
AcDbSymbolTableRecord
100
AcDbLayerTableRecord
  2
STEMPEL
 70
     0
 62
     3
  6
Continuous
370
    -3
390
F
  0
LAYER
  5
3B
330
2
100
AcDbSymbolTableRecord
100
AcDbLayerTableRecord
  2
TEXT
 70
     0
 62
     7
  6
Continuous
370
    -3
390
F
  0
LAYER
  5
3C
330
2
100
AcDbSymbolTableRecord
100
AcDbLayerTableRecord
  2
SCHRAFF
 70
     0
 62
     7
  6
Continuous
370
    -3
390
F
  0
ENDTAB
  0
TABLE
  2
STYLE
  5
3
330
0
100
AcDbSymbolTable
 70
     2
  0
STYLE
  5
11
330
3
100
AcDbSymbolTableRecord
100
AcDbTextStyleTableRecord
  2
STANDARD
 70
     0
 40
0.0
 41
0.8
 50
0.0
 71
     0
 42
3.5
  3
simplex.shx
  4

  0
STYLE
  5
31
330
3
100
AcDbSymbolTableRecord
100
AcDbTextStyleTableRecord
  2
GREEKS
 70
     0
 40
0.0
 41
0.8
 50
0.0
 71
     0
 42
2.5
  3
SIMPLEX.shx
  4

  0
ENDTAB
  0
TABLE
  2
VIEW
  5
6
330
0
100
AcDbSymbolTable
 70
     0
  0
ENDTAB
  0
TABLE
  2
UCS
  5
7
330
0
100
AcDbSymbolTable
 70
     0
  0
ENDTAB
  0
TABLE
  2
APPID
  5
9
330
0
100
AcDbSymbolTable
 70
     1
  0
APPID
  5
12
330
9
100
AcDbSymbolTableRecord
100
AcDbRegAppTableRecord
  2
ACAD
 70
     0
  0
ENDTAB
  0
TABLE
  2
DIMSTYLE
  5
A
330
0
100
AcDbSymbolTable
 70
     1
100
AcDbDimStyleTable
 71
     1
340
26B
  0
DIMSTYLE
105
26B
102
{ACAD_REACTORS
330
621
330
644
330
87A
330
A46
102
}
330
A
100
AcDbSymbolTableRecord
100
AcDbDimStyleTableRecord
  2
Standard
 70
     0
340
11
  0
ENDTAB
  0
TABLE
  2
BLOCK_RECORD
  5
1
330
0
100
AcDbSymbolTable
 70
     8
  0
BLOCK_RECORD
  5
1E
330
1
100
AcDbSymbolTableRecord
100
AcDbBlockTableRecord
  2
*Model_Space
340
21
  0
BLOCK_RECORD
  5
1A
330
1
100
AcDbSymbolTableRecord
100
AcDbBlockTableRecord
  2
*Paper_Space
340
1D
  0
BLOCK_RECORD
  5
22
330
1
100
AcDbSymbolTableRecord
100
AcDbBlockTableRecord
  2
LOGO
340
0
102
{BLKREFS
331
1E2
102
}
  0
BLOCK_RECORD
  5
622
330
1
100
AcDbSymbolTableRecord
100
AcDbBlockTableRecord
  2
*D2
340
0
  0
BLOCK_RECORD
  5
645
330
1
100
AcDbSymbolTableRecord
100
AcDbBlockTableRecord
  2
*D4
340
0
  0
BLOCK_RECORD
  5
8C6
330
1
100
AcDbSymbolTableRecord
100
AcDbBlockTableRecord
  2
*D6
340
0
  0
BLOCK_RECORD
  5
A47
330
1
100
AcDbSymbolTableRecord
100
AcDbBlockTableRecord
  2
*D7
340
0
  0
ENDTAB
  0
ENDSEC
  0
SECTION
  2
BLOCKS
  0
BLOCK
  5
40
330
1E
100
AcDbEntity
  8
0
100
AcDbBlockBegin
  2
*Model_Space
 70
     0
 10
0.0
 20
0.0
 30
0.0
  3
*Model_Space
  1

  0
ENDBLK
  5
41
330
1E
100
AcDbEntity
  8
0
100
AcDbBlockEnd
  0
BLOCK
  5
3E
330
1A
100
AcDbEntity
 67
     1
  8
0
100
AcDbBlockBegin
  2
*Paper_Space
 70
     0
 10
0.0
 20
0.0
 30
0.0
  3
*Paper_Space
  1

  0
ENDBLK
  5
3F
330
1A
100
AcDbEntity
 67
     1
  8
0
100
AcDbBlockEnd
  0
BLOCK
  5
42
330
22
100
AcDbEntity
  8
0
100
AcDbBlockBegin
  2
LOGO
 70
     0
 10
0.0
 20
0.0
 30
0.0
  3
LOGO
  1

  0
ARC
  5
43
330
22
100
AcDbEntity
  8
0
100
AcDbCircle
 10
11.59973089678112
 20
-9.271599258481501
 30
0.0
 40
4.5
100
AcDbArc
 50
270.0
 51
231.0575587310159
  0
LINE
  5
44
330
22
100
AcDbEntity
  8
0
100
AcDbLine
 10
3.599730896781125
 20
-4.771599258481529
 30
0.0
 11
3.599730896781153
 21
-11.77159925848133
 31
0.0
  0
LINE
  5
45
330
22
100
AcDbEntity
  8
0
100
AcDbLine
 10
2.599730896781125
 20
-4.771599258481529
 30
0.0
 11
2.599730896781153
 21
-11.77159925848133
 31
0.0
  0
CIRCLE
  5
46
330
22
100
AcDbEntity
  8
0
100
AcDbCircle
 10
11.59973089678112
 20
-9.271599258481501
 30
0.0
 40
3.5
  0
ARC
  5
47
330
22
100
AcDbEntity
  8
0
100
AcDbCircle
 10
31.59973089678115
 20
-9.271599258481472
 30
0.0
 40
4.5
100
AcDbArc
 50
270.0
 51
231.0575587310182
  0
LINE
  5
48
330
22
100
AcDbEntity
  8
0
100
AcDbLine
 10
17.59973089678112
 20
-4.771599258481472
 30
0.0
 11
17.59973089678115
 21
-13.77159925848147
 31
0.0
  0
ARC
  5
49
330
22
100
AcDbEntity
  8
0
100
AcDbCircle
 10
22.59973089678116
 20
-7.271599258481472
 30
0.0
 40
2.5
100
AcDbArc
 50
293.1161887722295
 51
90.0
  0
CIRCLE
  5
4A
330
22
100
AcDbEntity
  8
0
100
AcDbCircle
 10
31.59973089678115
 20
-9.271599258481472
 30
0.0
 40
3.5
  0
ARC
  5
4B
330
22
100
AcDbEntity
  8
0
100
AcDbCircle
 10
4.599730896781153
 20
-11.77159925848133
 30
0.0
 40
1.0
100
AcDbArc
 50
180.0
 51
270.0
  0
ARC
  5
4C
330
22
100
AcDbEntity
  8
0
100
AcDbCircle
 10
4.599730896781153
 20
-11.77159925848133
 30
0.0
 40
2.0
100
AcDbArc
 50
179.9999999999992
 51
270.0
  0
LINE
  5
4D
330
22
100
AcDbEntity
  8
0
100
AcDbLine
 10
11.59973089678115
 20
-13.77159925848144
 30
0.0
 11
4.599730896781153
 21
-13.77159925848147
 31
0.0
  0
LINE
  5
4E
330
22
100
AcDbEntity
  8
0
100
AcDbLine
 10
8.771303772034769
 20
-12.77159925848136
 30
0.0
 11
4.599730896781153
 21
-12.77159925848133
 31
0.0
  0
LINE
  5
4F
330
22
100
AcDbEntity
  8
0
100
AcDbLine
 10
31.59973089678115
 20
-13.77159925848147
 30
0.0
 11
23.6715276665056
 21
-13.77159925848144
 31
0.0
  0
LINE
  5
50
330
22
100
AcDbEntity
  8
0
100
AcDbLine
 10
23.56565672307022
 20
-9.51278021337896
 30
0.0
 11
24.4388546544846
 21
-12.77159925848144
 31
0.0
  0
LINE
  5
51
330
22
100
AcDbEntity
  8
0
100
AcDbLine
 10
22.59973089678116
 20
-9.771599258481472
 30
0.0
 11
18.59973089678112
 21
-9.771599258481472
 31
0.0
  0
LINE
  5
52
330
22
100
AcDbEntity
  8
0
100
AcDbLine
 10
18.59973089678115
 20
-13.77159925848144
 30
0.0
 11
17.59973089678115
 21
-13.77159925848144
 31
0.0
  0
LINE
  5
53
330
22
100
AcDbEntity
  8
0
100
AcDbLine
 10
18.59973089678115
 20
-9.771599258481472
 30
0.0
 11
18.59973089678115
 21
-13.77159925848144
 31
0.0
  0
LINE
  5
54
330
22
100
AcDbEntity
  8
0
100
AcDbLine
 10
22.59973089678116
 20
-9.771599258481472
 30
0.0
 11
23.67152766650562
 21
-13.77159925848147
 31
0.0
  0
ARC
  5
55
330
22
100
AcDbEntity
  8
0
100
AcDbCircle
 10
22.59973089678116
 20
-7.271599258481472
 30
0.0
 40
2.5
100
AcDbArc
 50
270.0
 51
270.0000000000007
  0
LINE
  5
56
330
22
100
AcDbEntity
  8
0
100
AcDbLine
 10
28.77130377203494
 20
-12.77159925848147
 30
0.0
 11
24.43885465448463
 21
-12.77159925848144
 31
0.0
  0
LINE
  5
57
330
22
100
AcDbEntity
  8
0
100
AcDbLine
 10
3.599730896781125
 20
-4.771599258481472
 30
0.0
 11
2.599730896781125
 21
-4.771599258481472
 31
0.0
  0
LINE
  5
58
330
22
100
AcDbEntity
  8
0
100
AcDbLine
 10
22.59973089678116
 20
-8.771599258481472
 30
0.0
 11
18.59973089678115
 21
-8.771599258481472
 31
0.0
  0
LINE
  5
59
330
22
100
AcDbEntity
  8
0
100
AcDbLine
 10
22.59973089678116
 20
-5.771599258481472
 30
0.0
 11
18.59973089678115
 21
-5.771599258481472
 31
0.0
  0
LINE
  5
5A
330
22
100
AcDbEntity
  8
0
100
AcDbLine
 10
22.59973089678116
 20
-4.771599258481472
 30
0.0
 11
17.59973089678115
 21
-4.771599258481472
 31
0.0
  0
LINE
  5
5B
330
22
100
AcDbEntity
  8
0
100
AcDbLine
 10
18.59973089678115
 20
-5.771599258481472
 30
0.0
 11
18.59973089678115
 21
-8.771599258481472
 31
0.0
  0
ARC
  5
5C
330
22
100
AcDbEntity
  8
0
100
AcDbCircle
 10
22.59973089678116
 20
-7.271599258481472
 30
0.0
 40
1.5
100
AcDbArc
 50
270.0
 51
90.0
  0
ENDBLK
  5
5D
330
22
100
AcDbEntity
  8
0
100
AcDbBlockEnd
  0
BLOCK
  5
62C
330
622
100
AcDbEntity
  8
0
100
AcDbBlockBegin
  2
*D2
 70
     1
 10
0.0
 20
0.0
 30
0.0
  3
*D2
  1

  0
LINE
  5
9E0
330
622
100
AcDbEntity
  8
BEM
 62
     0
370
    -2
100
AcDbLine
 10
67.99999999999996
 20
255.1611916772256
 30
0.0
 11
67.99999999999996
 21
270.296401037369
 31
0.0
  0
LINE
  5
9E1
330
622
100
AcDbEntity
  8
BEM
 62
     0
370
    -2
100
AcDbLine
 10
157.0
 20
255.1611916772253
 30
0.0
 11
157.0
 21
270.296401037369
 31
0.0
  0
LINE
  5
9E2
330
622
100
AcDbEntity
  8
BEM
 62
     0
370
    -2
100
AcDbLine
 10
71.49999999999995
 20
269.296401037369
 30
0.0
 11
153.4999999999999
 21
269.296401037369
 31
0.0
  0
SOLID
  5
9E3
330
622
100
AcDbEntity
  8
BEM
 62
     0
100
AcDbTrace
 10
71.49999999999995
 20
269.8797343707024
 30
0.0
 11
71.49999999999995
 21
268.7130677040357
 31
0.0
 12
67.99999999999996
 22
269.296401037369
 32
0.0
 13
67.99999999999996
 23
269.296401037369
 33
0.0
  0
SOLID
  5
9E4
330
622
100
AcDbEntity
  8
BEM
 62
     0
100
AcDbTrace
 10
153.4999999999999
 20
269.8797343707024
 30
0.0
 11
153.4999999999999
 21
268.7130677040357
 31
0.0
 12
157.0
 22
269.296401037369
 32
0.0
 13
157.0
 23
269.296401037369
 33
0.0
  0
MTEXT
  5
9E5
330
622
100
AcDbEntity
  8
BEM
 62
     1
100
AcDbMText
 10
112.5
 20
272.546401037369
 30
0.0
 40
3.5
 41
0.0
 71
     5
 72
     1
  1
\A1;%%c89
 73
     1
 44
1.0
  0
POINT
  5
9E6
330
622
100
AcDbEntity
  8
DEFPOINTS
 62
     0
100
AcDbPoint
 10
67.99999999999996
 20
254.1611916772256
 30
0.0
  0
POINT
  5
9E7
330
622
100
AcDbEntity
  8
DEFPOINTS
 62
     0
100
AcDbPoint
 10
157.0
 20
254.1611916772253
 30
0.0
  0
POINT
  5
9E8
330
622
100
AcDbEntity
  8
DEFPOINTS
 62
     0
100
AcDbPoint
 10
157.0
 20
269.296401037369
 30
0.0
  0
ENDBLK
  5
62D
330
622
100
AcDbEntity
  8
0
100
AcDbBlockEnd
  0
BLOCK
  5
64F
330
645
100
AcDbEntity
  8
0
100
AcDbBlockBegin
  2
*D4
 70
     1
 10
0.0
 20
0.0
 30
0.0
  3
*D4
  1

  0
LINE
  5
9E9
330
645
100
AcDbEntity
  8
BEM
 62
     0
370
    -2
100
AcDbLine
 10
66.99999999999995
 20
254.1611916772256
 30
0.0
 11
50.89214410714583
 21
254.1611916772256
 31
0.0
  0
LINE
  5
9EA
330
645
100
AcDbEntity
  8
BEM
 62
     0
370
    -2
100
AcDbLine
 10
95.93744331762954
 20
144.1611916772255
 30
0.0
 11
50.89214410714581
 21
144.1611916772255
 31
0.0
  0
LINE
  5
9EB
330
645
100
AcDbEntity
  8
BEM
 62
     0
370
    -2
100
AcDbLine
 10
51.89214410714583
 20
250.6611916772257
 30
0.0
 11
51.89214410714581
 21
147.6611916772255
 31
0.0
  0
SOLID
  5
9EC
330
645
100
AcDbEntity
  8
BEM
 62
     0
100
AcDbTrace
 10
51.3088107738125
 20
250.6611916772257
 30
0.0
 11
52.47547744047917
 21
250.6611916772257
 31
0.0
 12
51.89214410714583
 22
254.1611916772256
 32
0.0
 13
51.89214410714583
 23
254.1611916772256
 33
0.0
  0
SOLID
  5
9ED
330
645
100
AcDbEntity
  8
BEM
 62
     0
100
AcDbTrace
 10
51.30881077381247
 20
147.6611916772255
 30
0.0
 11
52.47547744047914
 21
147.6611916772255
 31
0.0
 12
51.89214410714581
 22
144.1611916772255
 32
0.0
 13
51.89214410714581
 23
144.1611916772255
 33
0.0
  0
MTEXT
  5
9EE
330
645
100
AcDbEntity
  8
BEM
 62
     1
100
AcDbMText
 10
48.64214410714579
 20
199.1611916772256
 30
0.0
 40
3.5
 41
0.0
 71
     5
 72
     1
  1
\A1;110
 11
0.0000000000000001
 21
1.0
 31
0.0
 73
     1
 44
1.0
  0
POINT
  5
9EF
330
645
100
AcDbEntity
  8
DEFPOINTS
 62
     0
100
AcDbPoint
 10
67.99999999999996
 20
254.1611916772256
 30
0.0
  0
POINT
  5
9F0
330
645
100
AcDbEntity
  8
DEFPOINTS
 62
     0
100
AcDbPoint
 10
96.93744331762955
 20
144.1611916772255
 30
0.0
  0
POINT
  5
9F1
330
645
100
AcDbEntity
  8
DEFPOINTS
 62
     0
100
AcDbPoint
 10
51.89214410714581
 20
144.1611916772255
 30
0.0
  0
ENDBLK
  5
650
330
645
100
AcDbEntity
  8
0
100
AcDbBlockEnd
  0
BLOCK
  5
8D0
330
8C6
100
AcDbEntity
  8
0
100
AcDbBlockBegin
  2
*D6
 70
     1
 10
0.0
 20
0.0
 30
0.0
  3
*D6
  1

  0
LINE
  5
9D7
330
8C6
100
AcDbEntity
  8
BEM
 62
     0
370
    -2
100
AcDbLine
 10
96.49999999999998
 20
148.1611916772255
 30
0.0
 11
96.49999999999998
 21
131.127859218646
 31
0.0
  0
LINE
  5
9D8
330
8C6
100
AcDbEntity
  8
BEM
 62
     0
370
    -2
100
AcDbLine
 10
128.4999999999999
 20
148.1611916772259
 30
0.0
 11
128.4999999999999
 21
131.127859218646
 31
0.0
  0
LINE
  5
9D9
330
8C6
100
AcDbEntity
  8
BEM
 62
     0
370
    -2
100
AcDbLine
 10
99.99999999999998
 20
132.127859218646
 30
0.0
 11
125.0
 21
132.127859218646
 31
0.0
  0
SOLID
  5
9DA
330
8C6
100
AcDbEntity
  8
BEM
 62
     0
100
AcDbTrace
 10
99.99999999999998
 20
132.7111925519793
 30
0.0
 11
99.99999999999998
 21
131.5445258853126
 31
0.0
 12
96.49999999999998
 22
132.127859218646
 32
0.0
 13
96.49999999999998
 23
132.127859218646
 33
0.0
  0
SOLID
  5
9DB
330
8C6
100
AcDbEntity
  8
BEM
 62
     0
100
AcDbTrace
 10
125.0
 20
132.7111925519793
 30
0.0
 11
125.0
 21
131.5445258853126
 31
0.0
 12
128.4999999999999
 22
132.127859218646
 32
0.0
 13
128.4999999999999
 23
132.127859218646
 33
0.0
  0
MTEXT
  5
9DC
330
8C6
100
AcDbEntity
  8
BEM
 62
     1
100
AcDbMText
 10
112.5
 20
135.377859218646
 30
0.0
 40
3.5
 41
0.0
 71
     5
 72
     1
  1
\A1;%%c32
 73
     1
 44
1.0
  0
POINT
  5
9DD
330
8C6
100
AcDbEntity
  8
DEFPOINTS
 62
     0
100
AcDbPoint
 10
96.49999999999998
 20
149.1611916772255
 30
0.0
  0
POINT
  5
9DE
330
8C6
100
AcDbEntity
  8
DEFPOINTS
 62
     0
100
AcDbPoint
 10
128.4999999999999
 20
149.1611916772258
 30
0.0
  0
POINT
  5
9DF
330
8C6
100
AcDbEntity
  8
DEFPOINTS
 62
     0
100
AcDbPoint
 10
128.4999999999999
 20
132.127859218646
 30
0.0
  0
ENDBLK
  5
8D1
330
8C6
100
AcDbEntity
  8
0
100
AcDbBlockEnd
  0
BLOCK
  5
A51
330
A47
100
AcDbEntity
  8
0
100
AcDbBlockBegin
  2
*D7
 70
     1
 10
0.0
 20
0.0
 30
0.0
  3
*D7
  1

  0
LINE
  5
A48
330
A47
100
AcDbEntity
  8
BEM
 62
     0
370
    -2
100
AcDbLine
 10
66.99999999999994
 20
164.1611916772255
 30
0.0
 11
59.76763640210606
 21
164.1611916772256
 31
0.0
  0
LINE
  5
A49
330
A47
100
AcDbEntity
  8
BEM
 62
     0
370
    -2
100
AcDbLine
 10
95.93744331762954
 20
144.1611916772255
 30
0.0
 11
59.76763640210606
 21
144.1611916772255
 31
0.0
  0
LINE
  5
A4A
330
A47
100
AcDbEntity
  8
BEM
 62
     0
370
    -2
100
AcDbLine
 10
60.76763640210606
 20
160.6611916772256
 30
0.0
 11
60.76763640210606
 21
147.6611916772255
 31
0.0
  0
SOLID
  5
A4B
330
A47
100
AcDbEntity
  8
BEM
 62
     0
100
AcDbTrace
 10
60.18430306877273
 20
160.6611916772256
 30
0.0
 11
61.3509697354394
 21
160.6611916772256
 31
0.0
 12
60.76763640210606
 22
164.1611916772256
 32
0.0
 13
60.76763640210606
 23
164.1611916772256
 33
0.0
  0
SOLID
  5
A4C
330
A47
100
AcDbEntity
  8
BEM
 62
     0
100
AcDbTrace
 10
60.18430306877273
 20
147.6611916772255
 30
0.0
 11
61.3509697354394
 21
147.6611916772255
 31
0.0
 12
60.76763640210606
 22
144.1611916772255
 32
0.0
 13
60.76763640210606
 23
144.1611916772255
 33
0.0
  0
MTEXT
  5
A4D
330
A47
100
AcDbEntity
  8
BEM
 62
     1
100
AcDbMText
 10
57.51763640210604
 20
154.1611916772255
 30
0.0
 40
3.5
 41
0.0
 71
     5
 72
     1
  1
\A1;20
 11
0.0000000000000001
 21
1.0
 31
0.0
 73
     1
 44
1.0
  0
POINT
  5
A4E
330
A47
100
AcDbEntity
  8
DEFPOINTS
 62
     0
100
AcDbPoint
 10
67.99999999999994
 20
164.1611916772255
 30
0.0
  0
POINT
  5
A4F
330
A47
100
AcDbEntity
  8
DEFPOINTS
 62
     0
100
AcDbPoint
 10
96.93744331762955
 20
144.1611916772255
 30
0.0
  0
POINT
  5
A50
330
A47
100
AcDbEntity
  8
DEFPOINTS
 62
     0
100
AcDbPoint
 10
60.76763640210606
 20
144.1611916772255
 30
0.0
  0
ENDBLK
  5
A52
330
A47
100
AcDbEntity
  8
0
100
AcDbBlockEnd
  0
ENDSEC
  0
SECTION
  2
ENTITIES
  0
LINE
  5
19F
330
1E
100
AcDbEntity
  8
STEMPEL
100
AcDbLine
 10
205.0
 20
55.00000000000003
 30
0.0
 11
19.99999999999997
 21
55.0
 31
0.0
  0
LINE
  5
1A0
330
1E
100
AcDbEntity
  8
STEMPEL
100
AcDbLine
 10
68.00000000000006
 20
54.99999999999997
 30
0.0
 11
68.0
 21
4.999999999999985
 31
0.0
  0
LINE
  5
1A1
330
1E
100
AcDbEntity
  8
STEMPEL
100
AcDbLine
 10
110.0
 20
55.00000000000003
 30
0.0
 11
110.0
 21
4.999999999999985
 31
0.0
  0
LINE
  5
1A2
330
1E
100
AcDbEntity
  8
STEMPEL
100
AcDbLine
 10
165.9999999999999
 20
54.99999999999989
 30
0.0
 11
165.9999999999999
 21
20.0
 31
0.0
  0
LINE
  5
1A3
330
1E
100
AcDbEntity
  8
STEMPEL
100
AcDbLine
 10
67.99999999999994
 20
14.99999999999998
 30
0.0
 11
19.99999999999997
 21
14.99999999999998
 31
0.0
  0
LINE
  5
1A4
330
1E
100
AcDbEntity
  8
STEMPEL
100
AcDbLine
 10
205.0
 20
20.0
 30
0.0
 11
68.00000000000006
 21
19.99999999999998
 31
0.0
  0
LINE
  5
1A5
330
1E
100
AcDbEntity
  8
STEMPEL
100
AcDbLine
 10
205.0
 20
40.0
 30
0.0
 11
68.00000000000006
 21
39.99999999999997
 31
0.0
  0
LINE
  5
1A6
330
1E
100
AcDbEntity
  8
VOLL
100
AcDbLine
 10
27.00000000000003
 20
55.00000000000003
 30
0.0
 11
26.99999999999997
 21
4.999999999999985
 31
0.0
  0
LINE
  5
1A7
330
1E
100
AcDbEntity
  8
VOLL
100
AcDbLine
 10
47.00000000000005
 20
54.99999999999997
 30
0.0
 11
47.0
 21
4.999999999999985
 31
0.0
  0
LINE
  5
1A8
330
1E
100
AcDbEntity
  8
VOLL
100
AcDbLine
 10
57.00000000000006
 20
54.99999999999997
 30
0.0
 11
57.0
 21
4.999999999999985
 31
0.0
  0
LINE
  5
1A9
330
1E
100
AcDbEntity
  8
VOLL
100
AcDbLine
 10
77.00000000000006
 20
39.99999999999997
 30
0.0
 11
77.00000000000006
 21
19.99999999999998
 31
0.0
  0
LINE
  5
1AA
330
1E
100
AcDbEntity
  8
VOLL
100
AcDbLine
 10
90.00000000000005
 20
54.99999999999992
 30
0.0
 11
90.0
 21
19.99999999999998
 31
0.0
  0
LINE
  5
1AB
330
1E
100
AcDbEntity
  8
HILF
100
AcDbLine
 10
20.00000000000003
 20
50.00000000000003
 30
0.0
 11
68.00000000000006
 21
50.00000000000003
 31
0.0
  0
LINE
  5
1AC
330
1E
100
AcDbEntity
  8
HILF
100
AcDbLine
 10
20.00000000000003
 20
45.00000000000002
 30
0.0
 11
68.00000000000006
 21
45.00000000000002
 31
0.0
  0
LINE
  5
1AD
330
1E
100
AcDbEntity
  8
HILF
100
AcDbLine
 10
20.00000000000003
 20
39.99999999999997
 30
0.0
 11
68.00000000000006
 21
39.99999999999997
 31
0.0
  0
LINE
  5
1AE
330
1E
100
AcDbEntity
  8
HILF
100
AcDbLine
 10
20.00000000000003
 20
34.99999999999997
 30
0.0
 11
68.00000000000006
 21
34.99999999999997
 31
0.0
  0
LINE
  5
1AF
330
1E
100
AcDbEntity
  8
HILF
100
AcDbLine
 10
20.00000000000003
 20
29.99999999999999
 30
0.0
 11
68.00000000000006
 21
29.99999999999999
 31
0.0
  0
LINE
  5
1B0
330
1E
100
AcDbEntity
  8
HILF
100
AcDbLine
 10
20.00000000000003
 20
24.99999999999999
 30
0.0
 11
68.00000000000006
 21
24.99999999999999
 31
0.0
  0
LINE
  5
1B1
330
1E
100
AcDbEntity
  8
HILF
100
AcDbLine
 10
20.00000000000003
 20
19.99999999999998
 30
0.0
 11
68.00000000000006
 21
19.99999999999998
 31
0.0
  0
LINE
  5
1B2
330
1E
100
AcDbEntity
  8
HILF
100
AcDbLine
 10
68.00000000000006
 20
34.99999999999997
 30
0.0
 11
110.0
 21
34.99999999999997
 31
0.0
  0
LINE
  5
1B3
330
1E
100
AcDbEntity
  8
HILF
100
AcDbLine
 10
68.00000000000006
 20
29.99999999999999
 30
0.0
 11
110.0
 21
29.99999999999999
 31
0.0
  0
LINE
  5
1B4
330
1E
100
AcDbEntity
  8
HILF
100
AcDbLine
 10
68.00000000000006
 20
24.99999999999999
 30
0.0
 11
110.0
 21
24.99999999999999
 31
0.0
  0
LINE
  5
1B5
330
1E
100
AcDbEntity
  8
HILF
100
AcDbLine
 10
112.3868400548474
 20
42.01879123782069
 30
0.0
 11
162.4176958278155
 21
42.01879123782069
 31
0.0
  0
LINE
  5
1B6
330
1E
100
AcDbEntity
  8
HILF
100
AcDbLine
 10
112.3868400548474
 20
34.99999999999997
 30
0.0
 11
162.4176958278155
 21
34.99999999999997
 31
0.0
  0
LINE
  5
1B7
330
1E
100
AcDbEntity
  8
HILF
100
AcDbLine
 10
112.3868400548474
 20
29.99999999999999
 30
0.0
 11
162.4176958278155
 21
29.99999999999999
 31
0.0
  0
LINE
  5
1B8
330
1E
100
AcDbEntity
  8
HILF
100
AcDbLine
 10
112.3868400548474
 20
24.99999999999999
 30
0.0
 11
162.4176958278155
 21
24.99999999999999
 31
0.0
  0
LINE
  5
1B9
330
1E
100
AcDbEntity
  8
VOLL
100
AcDbLine
 10
165.9999999999999
 20
30.0
 30
0.0
 11
205.0
 21
30.0
 31
0.0
  0
LINE
  5
1BA
330
1E
100
AcDbEntity
  8
HILF
100
AcDbLine
 10
168.3619308148496
 20
41.88991818477913
 30
0.0
 11
202.4294419663364
 21
41.88991818477913
 31
0.0
  0
LINE
  5
1BB
330
1E
100
AcDbEntity
  8
HILF
100
AcDbLine
 10
111.7454849644942
 20
7.446991290141568
 30
0.0
 11
202.4294419663364
 21
7.446991290141568
 31
0.0
  0
TEXT
  5
1BC
330
1E
100
AcDbEntity
  8
TEXT
100
AcDbText
 10
31.65409347991371
 20
9.295727339554179
 30
0.0
 40
2.0
  1
Änderung
 41
0.8
  7
GREEKS
 72
     4
 11
37.02552205134228
 21
10.15287019669703
 31
0.0
100
AcDbText
  0
TEXT
  5
1BD
330
1E
100
AcDbEntity
  8
TEXT
100
AcDbText
 10
71.75817860751886
 20
51.23104475435443
 30
0.0
 40
2.5
  1
Maßstab
 41
0.8
  7
GREEKS
100
AcDbText
  0
TEXT
  5
1BE
330
1E
100
AcDbEntity
  8
TEXT
100
AcDbText
 10
92.14294773670255
 20
51.20920842174095
 30
0.0
 40
2.5
  1
Zul. Abw.
 41
0.8
  7
GREEKS
100
AcDbText
  0
TEXT
  5
1BF
330
1E
100
AcDbEntity
  8
TEXT
100
AcDbText
 10
112.4389701904505
 20
51.27446640058898
 30
0.0
 40
2.5
  1
Benennung
 41
0.8
  7
GREEKS
100
AcDbText
  0
TEXT
  5
1C0
330
1E
100
AcDbEntity
  8
TEXT
100
AcDbText
 10
168.089377478817
 20
51.15660172685682
 30
0.0
 40
2.5
  1
Zeichnungs Nr.
 41
0.8
  7
GREEKS
100
AcDbText
  0
TEXT
  5
1C1
330
1E
100
AcDbEntity
  8
TEXT
100
AcDbText
 10
112.371119195568
 20
15.42280285096528
 30
0.0
 40
2.5
  1
Bauvorhaben
 41
0.8
  7
GREEKS
100
AcDbText
  0
TEXT
  5
1C2
330
1E
100
AcDbEntity
  8
TEXT
100
AcDbText
 10
168.3619308148496
 20
36.59059118549985
 30
0.0
 40
2.5
  1
Ersatz für:
 41
0.8
  7
GREEKS
100
AcDbText
  0
TEXT
  5
1C3
330
1E
100
AcDbEntity
  8
TEXT
100
AcDbText
 10
24.13320553522877
 20
6.827329230135958
 30
0.0
 40
1.8
  1
Index
 50
90.0
 41
0.8
  7
GREEKS
100
AcDbText
  0
TEXT
  5
1C6
330
1E
100
AcDbEntity
  8
TEXT
100
AcDbText
 10
81.16558365768254
 20
36.65940250614963
 30
0.0
 40
1.8
  1
Tag
 41
0.8
  7
GREEKS
100
AcDbText
  0
TEXT
  5
1C7
330
1E
100
AcDbEntity
  8
TEXT
100
AcDbText
 10
96.23132921131475
 20
36.65480545957612
 30
0.0
 40
1.8
  1
Name
 41
0.8
  7
GREEKS
100
AcDbText
  0
TEXT
  5
1C8
330
1E
100
AcDbEntity
  8
TEXT
100
AcDbText
 10
68.79180635838077
 20
31.81495184808982
 30
0.0
 40
1.8
  1
Gez.
 41
0.8
  7
GREEKS
100
AcDbText
  0
TEXT
  5
1C9
330
1E
100
AcDbEntity
  8
TEXT
100
AcDbText
 10
68.77575432858361
 20
26.84463145714189
 30
0.0
 40
1.8
  1
Gepr.
 41
0.8
  7
GREEKS
100
AcDbText
  0
TEXT
  5
1CA
330
1E
100
AcDbEntity
  8
TEXT
100
AcDbText
 10
68.80033886936519
 20
21.76473194824904
 30
0.0
 40
1.8
  1
Norm.
 41
0.8
  7
GREEKS
100
AcDbText
  0
LINE
  5
1CB
330
1E
100
AcDbEntity
  8
STEMPEL
100
AcDbLine
 10
24.99999999999995
 20
5.0
 30
0.0
 11
205.0
 21
5.0
 31
0.0
  0
LINE
  5
1CC
330
1E
100
AcDbEntity
  8
STEMPEL
100
AcDbLine
 10
205.0
 20
55.00000000000003
 30
0.0
 11
205.0
 21
5.0
 31
0.0
  0
TEXT
  5
1CD
330
1E
100
AcDbEntity
  8
TEXT
100
AcDbText
 10
168.6200430748502
 20
26.03708088939301
 30
0.0
 40
2.5
  1
ersetzt durch:
 41
0.8
  7
GREEKS
100
AcDbText
  0
LINE
  5
1CE
330
1E
100
AcDbEntity
  8
STEMPEL
100
AcDbLine
 10
205.0
 20
5.0
 30
0.0
 11
19.99999999999994
 21
5.0
 31
0.0
  0
LINE
  5
1CF
330
1E
100
AcDbEntity
  8
STEMPEL
100
AcDbLine
 10
205.0
 20
55.00000000000003
 30
0.0
 11
205.0
 21
292.0
 31
0.0
  0
LINE
  5
1D0
330
1E
100
AcDbEntity
  8
STEMPEL
100
AcDbLine
 10
20.0
 20
5.0
 30
0.0
 11
19.99999999999994
 21
292.0
 31
0.0
  0
LINE
  5
1D1
330
1E
100
AcDbEntity
  8
STEMPEL
100
AcDbLine
 10
205.0
 20
292.0
 30
0.0
 11
19.99999999999994
 21
292.0
 31
0.0
  0
LINE
  5
1D2
330
1E
100
AcDbEntity
  8
HILF
100
AcDbLine
 10
0.0
 20
0.0
 30
0.0
 11
-0.0000000000000568
 21
297.0
 31
0.0
  0
LINE
  5
1D3
330
1E
100
AcDbEntity
  8
HILF
100
AcDbLine
 10
210.0
 20
297.0000000000001
 30
0.0
 11
0.0
 21
297.0
 31
0.0
  0
LINE
  5
1D4
330
1E
100
AcDbEntity
  8
HILF
100
AcDbLine
 10
210.0
 20
0.0
 30
0.0
 11
0.0
 21
0.0
 31
0.0
  0
LINE
  5
1D5
330
1E
100
AcDbEntity
  8
HILF
100
AcDbLine
 10
15.54383567856928
 20
148.5
 30
0.0
 11
0.0000000000000568
 21
148.5
 31
0.0
  0
TEXT
  5
1D6
330
1E
100
AcDbEntity
  8
TEXT
100
AcDbText
 10
69.94433312244749
 20
36.66849551772587
 30
0.0
 40
1.8
  1
2012
 41
0.8
  7
GREEKS
100
AcDbText
  0
LINE
  5
1D7
330
1E
100
AcDbEntity
  8
HILF
100
AcDbLine
 10
210.0
 20
-0.0000000000000568
 30
0.0
 11
210.0
 21
297.0
 31
0.0
  0
TEXT
  5
1D8
330
1E
100
AcDbEntity
  8
VOLL
100
AcDbText
 10
78.07675471698113
 20
31.02594776470585
 30
0.0
 40
1.8
  1

  7
GREEKS
100
AcDbText
  0
TEXT
  5
1D9
330
1E
100
AcDbEntity
  8
TEXT
100
AcDbText
 10
21.12834907712957
 20
55.83599999999998
 30
0.0
 40
2.5
  1
Erstellt mit AUTOCAD 2004
 41
0.8
  7
GREEKS
100
AcDbText
  0
TEXT
  5
1DA
330
1E
100
AcDbEntity
  8
TEXT
100
AcDbText
 10
97.21080242906285
 20
31.54481959861755
 30
0.0
 40
2.0
  1
Koeh
 41
0.8
  7
GREEKS
 72
     1
 11
99.83937385763429
 21
31.54481959861755
 31
0.0
100
AcDbText
  0
TEXT
  5
1DB
330
1E
100
AcDbEntity
  8
TEXT
 62
     1
100
AcDbText
 10
173.6864548492005
 20
44.07450714456979
 30
0.0
 40
3.5
  1
58602AL0W
 41
0.8
  7
GREEKS
 72
     1
 11
185.6197881825338
 21
44.07450714456979
 31
0.0
100
AcDbText
  0
TEXT
  5
1DC
330
1E
100
AcDbEntity
  8
TEXT
 62
     1
100
AcDbText
 10
75.25031532409435
 20
44.07450714456979
 30
0.0
 40
3.5
  1
1:1
  7
GREEKS
100
AcDbText
  0
TEXT
  5
1DD
330
1E
100
AcDbEntity
  8
TEXT
100
AcDbText
 10
80.65664141126088
 20
31.55382520412866
 30
0.0
 40
2.0
  1
11.12.
 41
0.8
  7
GREEKS
 72
     1
 11
83.70426045887993
 21
31.55382520412866
 31
0.0
100
AcDbText
  0
TEXT
  5
1DE
330
1E
100
AcDbEntity
  8
TEXT
 62
     1
100
AcDbText
 10
112.6645547532424
 20
43.70874394626889
 30
0.0
 40
3.5
  1
Verbundrohr
 41
0.8
  7
GREEKS
100
AcDbText
  0
TEXT
  5
1DF
330
1E
100
AcDbEntity
  8
TEXT
100
AcDbText
 10
112.5648195562657
 20
36.25084445994187
 30
0.0
 40
2.5
  1
Abgleichstück DN40/32
 41
0.8
  7
GREEKS
100
AcDbText
  0
TEXT
  5
1E0
330
1E
100
AcDbEntity
  8
TEXT
100
AcDbText
 10
112.5648195562657
 20
25.82005971521079
 30
0.0
 40
2.5
  1
EDV-Art.Nr. 58602.AL0X
 41
0.8
  7
GREEKS
100
AcDbText
  0
TEXT
  5
1E1
330
1E
100
AcDbEntity
  8
TEXT
100
AcDbText
 10
112.4918750788913
 20
21.31487076511317
 30
0.0
 40
1.8
  1
58602AL0W.DWG
 41
0.8
  7
GREEKS
100
AcDbText
  0
INSERT
  5
1E2
330
1E
100
AcDbEntity
  8
STEMPEL
100
AcDbBlockReference
  2
LOGO
 10
70.4977742728897
 20
22.51052638224161
 30
0.0
  0
TEXT
  5
1E4
330
1E
100
AcDbEntity
  8
VOLL
100
AcDbText
 10
339.7958237333797
 20
71.91957633833147
 30
0.0
 40
1.8
  1

  7
GREEKS
100
AcDbText
  0
TEXT
  5
1E5
330
1E
100
AcDbEntity
  8
TEXT
100
AcDbText
 10
671.6280919369726
 20
77.47781187155701
 30
0.0
 40
2.5
  1
  
  7
GREEKS
 72
     1
 11
673.8899966988774
 21
77.47781187155701
 31
0.0
100
AcDbText
  0
TEXT
  5
1E6
330
1E
100
AcDbEntity
  8
BEM
100
AcDbText
 10
915.7478092494546
 20
213.0366939019592
 30
0.0
 40
2.5
  1
 
 72
     4
 11
916.878761630407
 21
213.0366939019592
 31
0.0
100
AcDbText
  0
TEXT
  5
1E8
330
1E
100
AcDbEntity
  8
BEM
100
AcDbText
 10
454.2848421115471
 20
134.8585024391051
 30
0.0
 40
2.5
  1

  7
GREEKS
100
AcDbText
  0
TEXT
  5
1E9
330
1E
100
AcDbEntity
  8
VOLL
100
AcDbText
 10
440.2186490918256
 20
114.67524178207
 30
0.0
 40
1.8
  1

  7
GREEKS
100
AcDbText
  0
TEXT
  5
1EA
330
1E
100
AcDbEntity
  8
BEM
100
AcDbText
 10
474.7067139311102
 20
119.4009661052905
 30
0.0
 40
2.5
  1

 41
0.8
  7
GREEKS
100
AcDbText
  0
TEXT
  5
1EB
330
1E
100
AcDbEntity
  8
BEM
100
AcDbText
 10
474.7067139311102
 20
114.7071975512384
 30
0.0
 40
2.5
  1

 41
0.8
  7
GREEKS
100
AcDbText
  0
TEXT
  5
1EC
330
1E
100
AcDbEntity
  8
BEM
100
AcDbText
 10
474.7067139311102
 20
109.4693537325749
 30
0.0
 40
2.5
  1

 41
0.8
  7
GREEKS
100
AcDbText
  0
TEXT
  5
1ED
330
1E
100
AcDbEntity
  8
BEM
100
AcDbText
 10
474.6337694537358
 20
104.9641647824773
 30
0.0
 40
1.8
  1

 41
0.8
  7
GREEKS
100
AcDbText
  0
TEXT
  5
1EE
330
1E
100
AcDbEntity
  8
BEM
100
AcDbText
 10
461.9501985741246
 20
130.5557538787025
 30
0.0
 40
2.0
  1

 41
0.8
  7
GREEKS
 72
     1
 11
461.9501985741246
 21
130.5557538787025
 31
0.0
100
AcDbText
  0
TEXT
  5
1EF
330
1E
100
AcDbEntity
  8
TEXT
100
AcDbText
 10
772.0509172954185
 20
120.2334773152955
 30
0.0
 40
2.5
  1
  
  7
GREEKS
 72
     1
 11
774.3128220573233
 21
120.2334773152955
 31
0.0
100
AcDbText
  0
TEXT
  5
1F0
330
1E
100
AcDbEntity
  8
BEM
100
AcDbText
 10
1016.1706346079
 20
255.7923593456977
 30
0.0
 40
2.5
  1
 
 72
     4
 11
1017.301586988853
 21
255.7923593456977
 31
0.0
100
AcDbText
  0
TEXT
  5
1F1
330
1E
100
AcDbEntity
  8
VOLL
100
AcDbText
 10
228.6383494536079
 20
31.18631511162239
 30
0.0
 40
1.8
  1

  7
GREEKS
100
AcDbText
  0
TEXT
  5
1F2
330
1E
100
AcDbEntity
  8
TEXT
100
AcDbText
 10
560.4706176572007
 20
36.74455064484793
 30
0.0
 40
2.5
  1
  
  7
GREEKS
 72
     1
 11
562.7325224191056
 21
36.74455064484793
 31
0.0
100
AcDbText
  0
TEXT
  5
1F3
330
1E
100
AcDbEntity
  8
BEM
100
AcDbText
 10
804.5903349696828
 20
172.3034326752502
 30
0.0
 40
2.5
  1
 
 72
     4
 11
805.7212873506353
 21
172.3034326752502
 31
0.0
100
AcDbText
  0
TEXT
  5
1F4
330
1E
100
AcDbEntity
  8
BEM
100
AcDbText
 10
393.9839625332579
 20
71.33954581020805
 30
0.0
 40
2.5
  1

  7
GREEKS
100
AcDbText
  0
TEXT
  5
1F5
330
1E
100
AcDbEntity
  8
VOLL
100
AcDbText
 10
379.9177695135364
 20
51.15628515317294
 30
0.0
 40
1.8
  1

  7
GREEKS
100
AcDbText
  0
TEXT
  5
1F6
330
1E
100
AcDbEntity
  8
BEM
100
AcDbText
 10
414.4058343528211
 20
55.88200947639354
 30
0.0
 40
2.5
  1

 41
0.8
  7
GREEKS
100
AcDbText
  0
TEXT
  5
1F7
330
1E
100
AcDbEntity
  8
BEM
100
AcDbText
 10
414.4058343528211
 20
51.18824092234138
 30
0.0
 40
2.5
  1

 41
0.8
  7
GREEKS
100
AcDbText
  0
TEXT
  5
1F8
330
1E
100
AcDbEntity
  8
BEM
100
AcDbText
 10
414.4058343528211
 20
45.95039710367788
 30
0.0
 40
2.5
  1

 41
0.8
  7
GREEKS
100
AcDbText
  0
TEXT
  5
1F9
330
1E
100
AcDbEntity
  8
BEM
100
AcDbText
 10
414.3328898754466
 20
41.44520815358026
 30
0.0
 40
1.8
  1

 41
0.8
  7
GREEKS
100
AcDbText
  0
TEXT
  5
1FA
330
1E
100
AcDbEntity
  8
BEM
100
AcDbText
 10
401.6493189958354
 20
67.03679724980554
 30
0.0
 40
2.0
  1

 41
0.8
  7
GREEKS
 72
     1
 11
401.6493189958354
 21
67.03679724980554
 31
0.0
100
AcDbText
  0
TEXT
  5
1FB
330
1E
100
AcDbEntity
  8
TEXT
100
AcDbText
 10
711.7500377171293
 20
56.71452068639848
 30
0.0
 40
2.5
  1
  
  7
GREEKS
 72
     1
 11
714.0119424790341
 21
56.71452068639848
 31
0.0
100
AcDbText
  0
TEXT
  5
1FC
330
1E
100
AcDbEntity
  8
BEM
100
AcDbText
 10
955.8697550296114
 20
192.2734027168007
 30
0.0
 40
2.5
  1
 
 72
     4
 11
957.0007074105637
 21
192.2734027168007
 31
0.0
100
AcDbText
  0
LINE
  5
1FD
102
{ACAD_REACTORS
330
970
330
A20
102
}
330
1E
100
AcDbEntity
  8
STEMPEL
  6
Continuous
100
AcDbLine
 10
157.0
 20
254.1611916772253
 30
0.0
 11
67.99999999999996
 21
254.1611916772256
 31
0.0
  0
LINE
  5
212
330
1E
100
AcDbEntity
  8
MITTEL
100
AcDbLine
 10
112.4999999999999
 20
259.1611916772255
 30
0.0
 11
112.4999999999999
 21
139.1611916772255
 31
0.0
  0
TEXT
  5
24B
330
1E
100
AcDbEntity
  8
TEXT
 62
     1
100
AcDbText
 10
31.57222238395765
 20
96.64239642081135
 30
0.0
 40
3.5
  1
Rohrende leicht eingezogen
 41
0.8
  7
GREEKS
100
AcDbText
  0
TEXT
  5
26A
330
1E
100
AcDbEntity
  8
TEXT
100
AcDbText
 10
92.14294773670255
 20
45.11525594155879
 30
0.0
 40
2.0
  1
DIN EN1123-2
 41
0.8
  7
GREEKS
100
AcDbText
  0
TEXT
  5
2ED
330
1E
100
AcDbEntity
  8
TEXT
100
AcDbText
 10
49.99190553209693
 20
9.486203530030371
 30
0.0
 40
2.0
  1
Tag
 41
0.8
  7
GREEKS
 72
     4
 11
51.8585721987636
 21
10.15287019669703
 31
0.0
100
AcDbText
  0
TEXT
  5
2EE
330
1E
100
AcDbEntity
  8
TEXT
100
AcDbText
 10
59.0389769390951
 20
9.152870196697037
 30
0.0
 40
2.0
  1
Name
 41
0.8
  7
GREEKS
 72
     4
 11
62.20088170099987
 21
10.15287019669703
 31
0.0
100
AcDbText
  0
LINE
  5
3CB
102
{ACAD_REACTORS
330
970
102
}
330
1E
100
AcDbEntity
  8
STEMPEL
100
AcDbLine
 10
67.99999999999996
 20
254.1611916772256
 30
0.0
 11
67.99999999999994
 21
164.1611916772255
 31
0.0
  0
LINE
  5
3CC
102
{ACAD_REACTORS
330
970
102
}
330
1E
100
AcDbEntity
  8
STEMPEL
100
AcDbLine
 10
157.0
 20
254.1611916772253
 30
0.0
 11
157.0
 21
164.1611916772253
 31
0.0
  0
LINE
  5
3CD
102
{ACAD_REACTORS
330
970
330
A41
102
}
330
1E
100
AcDbEntity
  8
STEMPEL
  6
Continuous
100
AcDbLine
 10
157.0
 20
164.1611916772253
 30
0.0
 11
128.4999999999999
 21
164.1611916772253
 31
0.0
  0
LINE
  5
3CE
102
{ACAD_REACTORS
330
970
330
A20
330
A41
102
}
330
1E
100
AcDbEntity
  8
STEMPEL
100
AcDbLine
 10
155.4
 20
254.1611916772253
 30
0.0
 11
155.4
 21
164.1611916772253
 31
0.0
  0
LINE
  5
3CF
102
{ACAD_REACTORS
330
970
330
A20
330
A41
102
}
330
1E
100
AcDbEntity
  8
STEMPEL
100
AcDbLine
 10
69.59999999999995
 20
254.1611916772256
 30
0.0
 11
69.59999999999995
 21
164.1611916772255
 31
0.0
  0
TEXT
  5
54A
330
1E
100
AcDbEntity
  8
VOLL
100
AcDbText
 10
305.2666505177693
 20
60.9917365573275
 30
0.0
 40
1.8
  1

  7
GREEKS
100
AcDbText
  0
TEXT
  5
558
330
1E
100
AcDbEntity
  8
BEM
100
AcDbText
 10
779.8708637178527
 20
75.83979991258411
 30
0.0
 40
2.5
  1

 41
0.8
  7
GREEKS
 72
     4
 11
779.8708637178527
 21
75.83979991258411
 31
0.0
100
AcDbText
  0
LINE
  5
5A1
102
{ACAD_REACTORS
330
970
330
A41
102
}
330
1E
100
AcDbEntity
  8
STEMPEL
  6
Continuous
100
AcDbLine
 10
96.49999999999995
 20
164.1611916772245
 30
0.0
 11
67.99999999999994
 21
164.1611916772255
 31
0.0
  0
DIMENSION
  5
621
330
1E
100
AcDbEntity
  8
BEM
100
AcDbDimension
  2
*D2
 10
157.0
 20
269.296401037369
 30
0.0
 11
112.5
 21
272.546401037369
 31
0.0
 70
    32
  1
%%c<>
 71
     5
 42
89.00000000000002
  3
Standard
100
AcDbAlignedDimension
 13
67.99999999999996
 23
254.1611916772256
 33
0.0
 14
157.0
 24
254.1611916772253
 34
0.0
100
AcDbRotatedDimension
1001
ACAD
1000
DSTYLE
1002
{
1070
    41
1040
3.5
1070
    42
1040
1.0
1070
    43
1040
7.0
1070
    44
1040
1.0
1070
    47
1040
0.15
1070
    48
1040
0.15
1070
    73
1070
     0
1070
    74
1070
     0
1070
    77
1070
     1
1070
    78
1070
     8
1070
    79
1070
     2
1070
   140
1040
3.5
1070
   141
1040
1.5
1070
   146
1040
0.5142857142857144
1070
   147
1040
1.5
1070
   172
1070
     1
1070
   178
1070
     1
1070
   179
1070
     2
1070
   271
1070
     2
1070
   272
1070
     2
1070
   284
1070
     8
1070
   285
1070
     8
1070
   286
1070
     8
1002
}
  0
DIMENSION
  5
644
330
1E
100
AcDbEntity
  8
BEM
100
AcDbDimension
  2
*D4
 10
51.89214410714581
 20
144.1611916772255
 30
0.0
 11
48.64214410714579
 21
199.1611916772256
 31
0.0
 70
    32
 71
     5
 42
110.0000000000001
  3
Standard
100
AcDbAlignedDimension
 13
67.99999999999996
 23
254.1611916772256
 33
0.0
 14
96.93744331762955
 24
144.1611916772255
 34
0.0
 50
90.0
100
AcDbRotatedDimension
1001
ACAD
1000
DSTYLE
1002
{
1070
    41
1040
3.5
1070
    42
1040
1.0
1070
    43
1040
7.0
1070
    44
1040
1.0
1070
    47
1040
0.15
1070
    48
1040
0.15
1070
    73
1070
     0
1070
    74
1070
     0
1070
    77
1070
     1
1070
    78
1070
     8
1070
    79
1070
     2
1070
   140
1040
3.5
1070
   141
1040
1.5
1070
   146
1040
0.5142857142857144
1070
   147
1040
1.5
1070
   172
1070
     1
1070
   178
1070
     1
1070
   179
1070
     2
1070
   271
1070
     2
1070
   272
1070
     2
1070
   284
1070
     8
1070
   285
1070
     8
1070
   286
1070
     8
1002
}
  0
TEXT
  5
6F0
330
1E
100
AcDbEntity
  8
TEXT
100
AcDbText
 10
208.2905770718718
 20
6.074024076691515
 30
0.0
 40
2.0
  1
Diese Zeichnung ist urheberrechtlich geschützt und bleibt unser Eigentum. Sie darf weder ganz noch teilweise vervielfältigt und nicht an Dritte weitergegeben werden.
 50
90.0
 41
0.8
  7
GREEKS
100
AcDbText
  0
TEXT
  5
6FA
330
1E
100
AcDbEntity
  8
TEXT
 62
     1
100
AcDbText
 10
122.515064557629
 20
64.87110898645312
 30
0.0
 40
3.5
  1
und innenbeschichtet
 41
0.8
  7
GREEKS
100
AcDbText
  0
TEXT
  5
6FB
330
1E
100
AcDbEntity
  8
TEXT
 62
     1
100
AcDbText
 10
94.94059479727354
 20
58.57369129376209
 30
0.0
 40
3.5
  1
Dämmung: 2 K-PU-Schaum
 41
0.8
  7
GREEKS
100
AcDbText
  0
TEXT
  5
6FC
330
1E
100
AcDbEntity
  8
TEXT
 62
     1
100
AcDbText
 10
98.68780011962213
 20
70.505635906066
 30
0.0
 40
3.5
  1
Innenrohr: E195 EN10305 feuerverzinkt
 41
0.8
  7
GREEKS
100
AcDbText
  0
TEXT
  5
6FD
330
1E
100
AcDbEntity
  8
TEXT
 62
     1
100
AcDbText
 10
96.80169143419011
 20
76.18216992424351
 30
0.0
 40
3.5
  1
Außenrohr: E195 EN10305 feuerverzinkt
 41
0.8
  7
GREEKS
100
AcDbText
  0
TEXT
  5
6FE
330
1E
100
AcDbEntity
  8
TEXT
 62
     1
100
AcDbText
 10
185.6197881825338
 20
31.20803987644933
 30
0.0
 40
3.5
  1

 41
0.8
  7
GREEKS
 72
     1
 11
185.6197881825338
 21
31.20803987644933
 31
0.0
100
AcDbText
  0
HATCH
  5
84A
330
1E
100
AcDbEntity
  8
SCHRAFF
100
AcDbHatch
 10
0.0
 20
0.0
 30
0.0
210
0.0
220
0.0
230
1.0
  2
_USER
 70
     0
 71
     0
 91
        2
 92
        7
 72
     1
 73
     1
 93
       21
 10
133.4999999999999
 20
219.6556380046331
 42
-0.1568599726813005
 10
134.6249999999999
 20
223.1534051495414
 42
0.1568599726812964
 10
136.4999999999999
 20
228.9830170577219
 42
0.0
 10
136.4999999999999
 20
233.1611916772255
 42
-0.079553362451502
 10
136.9999508582298
 20
236.2835411618206
 42
0.0795533624514997
 10
137.9998448162652
 20
242.5281916772255
 42
0.0
 10
137.9999999999998
 20
242.5281916772255
 42
0.0
 10
137.9999999999999
 20
247.6190113568168
 42
0.1022785704675315
 10
136.6476030003184
 20
254.1611916772255
 42
0.0
 10
135.0
 20
254.1611916772255
 42
0.0
 10
135.0946168055496
 20
253.9582852829275
 42
-0.1095178116832423
 10
136.4999999999999
 20
247.619011356817
 42
0.0
 10
136.4999999999999
 20
242.5281916772255
 42
0.0
 10
136.4998448162652
 20
242.5281916772255
 42
-0.0795533624515023
 10
135.5749434869641
 20
236.7518935845097
 42
0.0795533624514941
 10
134.9999999999999
 20
233.1611916772256
 42
0.0
 10
134.9999999999999
 20
228.9830170577219
 42
-0.1568599726812999
 10
133.4062499999999
 20
224.0278469357684
 42
0.1568599726812968
 10
131.9999999999999
 20
219.6556380046331
 42
0.0
 10
131.9999999999999
 20
209.1611916772255
 42
0.0
 10
133.4999999999999
 20
209.1611916772255
 42
0.0
 97
        0
 92
        7
 72
     1
 73
     1
 93
       21
 10
92.99999999999991
 20
219.6556380046331
 42
0.1568599726812974
 10
91.59374999999991
 20
224.0278469357685
 42
-0.1568599726812991
 10
89.99999999999991
 20
228.9830170577219
 42
0.0
 10
89.99999999999991
 20
233.1611916772255
 42
0.0795533624514993
 10
89.42505651303562
 20
236.7518935845098
 42
-0.0795533624515012
 10
88.50015518373462
 20
242.5281916772255
 42
0.0
 10
88.49999999999992
 20
242.5281916772255
 42
0.0
 10
88.49999999999992
 20
247.619011356817
 42
-0.1095178116832415
 10
89.9053831944502
 20
253.9582852829275
 42
0.0
 10
89.99999999999991
 20
254.1611916772255
 42
0.0
 10
88.35239699968136
 20
254.1611916772255
 42
0.1022785704675315
 10
86.99999999999992
 20
247.6190113568168
 42
0.0
 10
86.99999999999997
 20
242.5281916772255
 42
0.0
 10
87.00015518373461
 20
242.5281916772255
 42
0.0795533624515001
 10
88.00004914177012
 20
236.2835411618206
 42
-0.079553362451499
 10
88.49999999999992
 20
233.1611916772255
 42
0.0
 10
88.49999999999992
 20
228.9830170577219
 42
0.156859972681298
 10
90.37499999999985
 20
223.1534051495414
 42
-0.1568599726812977
 10
91.49999999999991
 20
219.6556380046331
 42
0.0
 10
91.49999999999991
 20
209.1611916772255
 42
0.0
 10
92.99999999999991
 20
209.1611916772256
 42
0.0
 97
        0
 75
     0
 76
     0
 52
135.0
 41
2.0
 77
     0
 78
     1
 53
135.0
 43
-60.93776164763088
 44
20.22326056837122
 45
-1.414213562373095
 46
-1.414213562373094
 79
     0
 47
0.2186773069623307
 98
        2
 10
132.8785661002229
 20
217.4584975422962
 10
92.18002962131206
 20
216.3651109117416
  0
LINE
  5
84B
330
1E
100
AcDbEntity
  8
STEMPEL
  6
Continuous
100
AcDbLine
 10
134.9999999999999
 20
254.1611916772255
 30
0.0
 11
135.0946168055496
 21
253.9582852829275
 31
0.0
  0
LINE
  5
84C
102
{ACAD_REACTORS
330
A20
102
}
330
1E
100
AcDbEntity
  8
STEMPEL
  6
Continuous
100
AcDbLine
 10
137.9998448162652
 20
242.5281916772255
 30
0.0
 11
137.9999999999999
 21
242.5281916772255
 31
0.0
  0
LINE
  5
84D
330
1E
100
AcDbEntity
  8
STEMPEL
  6
Continuous
100
AcDbLine
 10
136.4998448162652
 20
242.5281916772255
 30
0.0
 11
136.4999999999998
 21
242.5281916772255
 31
0.0
  0
LINE
  5
84E
102
{ACAD_REACTORS
330
A20
102
}
330
1E
100
AcDbEntity
  8
STEMPEL
  6
Continuous
100
AcDbLine
 10
137.9999999999999
 20
247.6190113568168
 30
0.0
 11
137.9999999999998
 21
242.5281916772255
 31
0.0
  0
LINE
  5
84F
330
1E
100
AcDbEntity
  8
STEMPEL
  6
Continuous
100
AcDbLine
 10
136.4999999999999
 20
247.619011356817
 30
0.0
 11
136.4999999999999
 21
242.5281916772255
 31
0.0
  0
ARC
  5
850
102
{ACAD_REACTORS
330
A20
102
}
330
1E
100
AcDbEntity
  8
STEMPEL
  6
Continuous
100
AcDbCircle
 10
121.4999999999999
 20
247.619011356817
 30
0.0
 40
16.5
100
AcDbArc
 50
0.0
 51
23.35929454463984
  0
ARC
  5
851
330
1E
100
AcDbEntity
  8
STEMPEL
  6
Continuous
100
AcDbCircle
 10
121.4999999999999
 20
247.619011356817
 30
0.0
 40
15.0
100
AcDbArc
 50
0.0
 51
24.99999999999059
  0
ARC
  5
852
102
{ACAD_REACTORS
330
A41
102
}
330
1E
100
AcDbEntity
  8
STEMPEL
  6
Continuous
100
AcDbCircle
 10
146.4999999999999
 20
233.1611916772255
 30
0.0
 40
10.0
100
AcDbArc
 50
161.8060294016156
 51
180.0
  0
ARC
  5
853
330
1E
100
AcDbEntity
  8
STEMPEL
  6
Continuous
100
AcDbCircle
 10
146.4999999999999
 20
233.1611916772255
 30
0.0
 40
11.5
100
AcDbArc
 50
161.8060294016156
 51
180.0
  0
LINE
  5
854
330
1E
100
AcDbEntity
  8
STEMPEL
  6
Continuous
100
AcDbLine
 10
134.9999999999999
 20
233.1611916772255
 30
0.0
 11
134.9999999999999
 21
228.9830170577219
 31
0.0
  0
LINE
  5
855
102
{ACAD_REACTORS
330
A41
102
}
330
1E
100
AcDbEntity
  8
STEMPEL
  6
Continuous
100
AcDbLine
 10
136.4999999999999
 20
233.1611916772255
 30
0.0
 11
136.4999999999999
 21
228.9830170577219
 31
0.0
  0
ARC
  5
856
330
1E
100
AcDbEntity
  8
STEMPEL
  6
Continuous
100
AcDbCircle
 10
139.5
 20
219.6556380046331
 30
0.0
 40
7.5
100
AcDbArc
 50
144.3409123038611
 51
180.0
  0
ARC
  5
857
102
{ACAD_REACTORS
330
A41
102
}
330
1E
100
AcDbEntity
  8
STEMPEL
  6
Continuous
100
AcDbCircle
 10
139.5
 20
219.6556380046331
 30
0.0
 40
6.0
100
AcDbArc
 50
144.3409123038611
 51
180.0
  0
ARC
  5
858
102
{ACAD_REACTORS
330
A41
102
}
330
1E
100
AcDbEntity
  8
STEMPEL
  6
Continuous
100
AcDbCircle
 10
126.4999999999999
 20
228.9830170577219
 30
0.0
 40
10.0
100
AcDbArc
 50
324.3409123038611
 51
0.0
  0
ARC
  5
859
330
1E
100
AcDbEntity
  8
STEMPEL
  6
Continuous
100
AcDbCircle
 10
126.4999999999999
 20
228.9830170577219
 30
0.0
 40
8.5
100
AcDbArc
 50
324.3409123038611
 51
0.0
  0
ARC
  5
85A
102
{ACAD_REACTORS
330
A20
330
A41
102
}
330
1E
100
AcDbEntity
  8
STEMPEL
  6
Continuous
100
AcDbCircle
 10
117.9999999999999
 20
242.5281916772255
 30
0.0
 40
19.99984481626531
100
AcDbArc
 50
341.8060294016156
 51
0.0
  0
ARC
  5
85B
330
1E
100
AcDbEntity
  8
STEMPEL
  6
Continuous
100
AcDbCircle
 10
117.9999999999999
 20
242.5281916772255
 30
0.0
 40
18.49984481626528
100
AcDbArc
 50
341.8060294016156
 51
0.0
  0
LINE
  5
85C
330
1E
100
AcDbEntity
  8
STEMPEL
  6
Continuous
100
AcDbLine
 10
89.99999999999991
 20
254.1611916772255
 30
0.0
 11
89.9053831944502
 21
253.9582852829275
 31
0.0
  0
LINE
  5
85D
330
1E
100
AcDbEntity
  8
STEMPEL
  6
Continuous
100
AcDbLine
 10
88.50015518373462
 20
242.5281916772255
 30
0.0
 11
88.49999999999997
 21
242.5281916772255
 31
0.0
  0
LINE
  5
85E
102
{ACAD_REACTORS
330
A20
102
}
330
1E
100
AcDbEntity
  8
STEMPEL
  6
Continuous
100
AcDbLine
 10
87.00015518373461
 20
242.5281916772255
 30
0.0
 11
86.99999999999992
 21
242.5281916772255
 31
0.0
  0
LINE
  5
85F
330
1E
100
AcDbEntity
  8
STEMPEL
  6
Continuous
100
AcDbLine
 10
88.49999999999992
 20
247.619011356817
 30
0.0
 11
88.49999999999992
 21
242.5281916772255
 31
0.0
  0
LINE
  5
860
102
{ACAD_REACTORS
330
A20
102
}
330
1E
100
AcDbEntity
  8
STEMPEL
  6
Continuous
100
AcDbLine
 10
86.99999999999992
 20
247.6190113568168
 30
0.0
 11
86.99999999999997
 21
242.5281916772255
 31
0.0
  0
ARC
  5
861
330
1E
100
AcDbEntity
  8
STEMPEL
  6
Continuous
100
AcDbCircle
 10
103.4999999999999
 20
247.619011356817
 30
0.0
 40
15.0
100
AcDbArc
 50
155.000000000005
 51
180.0
  0
ARC
  5
862
102
{ACAD_REACTORS
330
A20
102
}
330
1E
100
AcDbEntity
  8
STEMPEL
  6
Continuous
100
AcDbCircle
 10
103.4999999999999
 20
247.619011356817
 30
0.0
 40
16.5
100
AcDbArc
 50
156.6407054553586
 51
180.0
  0
ARC
  5
863
330
1E
100
AcDbEntity
  8
STEMPEL
  6
Continuous
100
AcDbCircle
 10
78.49999999999991
 20
233.1611916772255
 30
0.0
 40
11.5
100
AcDbArc
 50
0.0
 51
18.19397059838436
  0
ARC
  5
864
102
{ACAD_REACTORS
330
A41
102
}
330
1E
100
AcDbEntity
  8
STEMPEL
  6
Continuous
100
AcDbCircle
 10
78.49999999999991
 20
233.1611916772255
 30
0.0
 40
10.0
100
AcDbArc
 50
0.0
 51
18.19397059838436
  0
LINE
  5
865
102
{ACAD_REACTORS
330
A41
102
}
330
1E
100
AcDbEntity
  8
STEMPEL
  6
Continuous
100
AcDbLine
 10
88.49999999999992
 20
233.1611916772255
 30
0.0
 11
88.49999999999992
 21
228.9830170577219
 31
0.0
  0
LINE
  5
866
330
1E
100
AcDbEntity
  8
STEMPEL
  6
Continuous
100
AcDbLine
 10
89.99999999999991
 20
233.1611916772255
 30
0.0
 11
89.99999999999991
 21
228.9830170577219
 31
0.0
  0
ARC
  5
867
102
{ACAD_REACTORS
330
A41
102
}
330
1E
100
AcDbEntity
  8
STEMPEL
  6
Continuous
100
AcDbCircle
 10
85.49999999999986
 20
219.6556380046331
 30
0.0
 40
6.0
100
AcDbArc
 50
0.0
 51
35.6590876961389
  0
ARC
  5
868
330
1E
100
AcDbEntity
  8
STEMPEL
  6
Continuous
100
AcDbCircle
 10
85.49999999999986
 20
219.6556380046331
 30
0.0
 40
7.5
100
AcDbArc
 50
0.0
 51
35.6590876961389
  0
ARC
  5
869
330
1E
100
AcDbEntity
  8
STEMPEL
  6
Continuous
100
AcDbCircle
 10
98.49999999999992
 20
228.9830170577219
 30
0.0
 40
8.5
100
AcDbArc
 50
180.0
 51
215.6590876961389
  0
ARC
  5
86A
102
{ACAD_REACTORS
330
A41
102
}
330
1E
100
AcDbEntity
  8
STEMPEL
  6
Continuous
100
AcDbCircle
 10
98.49999999999992
 20
228.9830170577219
 30
0.0
 40
10.0
100
AcDbArc
 50
180.0
 51
215.6590876961389
  0
ARC
  5
86B
330
1E
100
AcDbEntity
  8
STEMPEL
  6
Continuous
100
AcDbCircle
 10
106.9999999999999
 20
242.5281916772255
 30
0.0
 40
18.49984481626528
100
AcDbArc
 50
180.0
 51
198.1939705983843
  0
ARC
  5
86C
102
{ACAD_REACTORS
330
A20
330
A41
102
}
330
1E
100
AcDbEntity
  8
STEMPEL
  6
Continuous
100
AcDbCircle
 10
106.9999999999999
 20
242.5281916772255
 30
0.0
 40
19.99984481626531
100
AcDbArc
 50
180.0
 51
198.1939705983843
  0
LINE
  5
86D
330
1E
100
AcDbEntity
  8
HILF
  6
Continuous
100
AcDbLine
 10
91.37222105737592
 20
234.9794119746715
 30
0.0
 11
133.6277789426239
 21
234.9794119746715
 31
0.0
  0
LINE
  5
86E
330
1E
100
AcDbEntity
  8
HILF
  6
Continuous
100
AcDbLine
 10
92.0018031347149
 20
226.3804342060148
 30
0.0
 11
132.9981968652849
 21
226.3804342060148
 31
0.0
  0
LINE
  5
86F
330
1E
100
AcDbEntity
  8
HILF
  6
Continuous
100
AcDbLine
 10
94.20210103940409
 20
221.9520346384924
 30
0.0
 11
130.7978989605957
 21
221.9520346384924
 31
0.0
  0
LINE
  5
870
330
1E
100
AcDbEntity
  8
STEMPEL
  6
Continuous
100
AcDbLine
 10
92.99999999999991
 20
219.6556380046331
 30
0.0
 11
92.99999999999991
 21
209.1611916772255
 31
0.0
  0
LINE
  5
871
102
{ACAD_REACTORS
330
A41
102
}
330
1E
100
AcDbEntity
  8
STEMPEL
  6
Continuous
100
AcDbLine
 10
91.49999999999991
 20
219.6556380046331
 30
0.0
 11
91.49999999999991
 21
209.1611916772255
 31
0.0
  0
LINE
  5
872
102
{ACAD_REACTORS
330
A41
102
}
330
1E
100
AcDbEntity
  8
STEMPEL
  6
Continuous
100
AcDbLine
 10
133.4999999999999
 20
219.6556380046331
 30
0.0
 11
133.4999999999999
 21
209.1611916772255
 31
0.0
  0
LINE
  5
873
330
1E
100
AcDbEntity
  8
STEMPEL
  6
Continuous
100
AcDbLine
 10
131.9999999999999
 20
219.6556380046331
 30
0.0
 11
131.9999999999999
 21
209.1611916772255
 31
0.0
  0
HATCH
  5
874
330
1E
100
AcDbEntity
  8
SCHRAFF
100
AcDbHatch
 10
0.0
 20
0.0
 30
0.0
210
0.0
220
0.0
230
1.0
  2
_USER
 70
     0
 71
     0
 91
        2
 92
        7
 72
     1
 73
     1
 93
       10
 10
128.4999999999999
 20
197.5699313952515
 42
-0.1274581865797876
 10
129.7584272387846
 20
202.4263607070378
 42
0.0
 10
133.4999999999999
 20
209.1611916772255
 42
0.0
 10
132.3560410954458
 20
209.1611916772255
 42
0.0
 10
128.884269962663
 20
202.9120036382165
 42
0.1274581865797876
 10
127.4999999999999
 20
197.5699313952515
 42
0.0
 10
127.4999999999999
 20
149.2048526201346
 42
0.0
 10
127.0587368448269
 20
144.1611916772255
 42
0.0
 10
128.0625566823704
 20
144.1611916772255
 42
0.0
 10
128.4999999999999
 20
149.1611916772258
 42
0.0
 97
        0
 92
        7
 72
     1
 73
     1
 93
       10
 10
97.49999999999992
 20
197.5699313952515
 42
0.1274581865797869
 10
96.11573003733688
 20
202.9120036382164
 42
0.0
 10
92.64395890455402
 20
209.1611916772255
 42
0.0
 10
91.49999999999991
 20
209.1611916772255
 42
0.0
 10
95.24157276121533
 20
202.4263607070378
 42
-0.1274581865797869
 10
96.49999999999991
 20
197.5699313952515
 42
0.0
 10
96.49999999999998
 20
149.1611916772258
 42
0.0
 10
96.93744331762955
 20
144.1611916772255
 42
0.0
 10
97.94126315517289
 20
144.1611916772255
 42
0.0
 10
97.49999999999998
 20
149.2048526201338
 42
0.0
 97
        0
 75
     0
 76
     0
 52
45.0
 41
2.0
 77
     0
 78
     1
 53
45.0
 43
-0.0000000000000284
 44
19.9287912590878
 45
-1.414213562373094
 46
1.414213562373095
 79
     0
 47
0.2130328213229803
 98
        2
 10
127.860709867997
 20
171.8974538617168
 10
96.95230108849361
 20
174.0277820643085
  0
HATCH
  5
875
330
1E
100
AcDbEntity
  8
SCHRAFF
100
AcDbHatch
 10
0.0
 20
0.0
 30
0.0
210
0.0
220
0.0
230
1.0
  2
_USER
 70
     0
 71
     0
 91
        2
 92
        7
 72
     1
 73
     1
 93
        3
 10
133.5
 20
211.1611916772255
 42
0.0
 10
133.5
 20
209.1611916772257
 42
0.0
 10
132.3888888888889
 20
207.1611916772255
 42
0.8415255648357458
 97
        0
 92
        7
 72
     1
 73
     1
 93
        3
 10
91.49999999999991
 20
211.1611916772255
 42
0.8415255648357559
 10
92.611111111111
 20
207.1611916772255
 42
0.0
 10
91.49999999999996
 20
209.1611916772254
 42
0.0
 97
        0
 75
     0
 76
     0
 52
0.0
 41
0.1
 77
     0
 78
     1
 53
0.0
 43
-0.0000000000000284
 44
19.9287912590878
 45
0.0
 46
0.1
 79
     0
 47
0.2130328213229803
 98
        2
 10
134.0423921467586
 20
208.7521322555514
 10
91.19694267206725
 20
209.3912312053271
  0
ARC
  5
876
102
{ACAD_REACTORS
330
A41
102
}
330
1E
100
AcDbEntity
  8
SCHRAFF
100
AcDbCircle
 10
132.597651980944
 20
209.2575229170867
 30
0.0
 40
2.106700428590253
100
AcDbArc
 50
264.3129516278172
 51
64.63882637867434
  0
ARC
  5
877
102
{ACAD_REACTORS
330
A41
102
}
330
1E
100
AcDbEntity
  8
SCHRAFF
100
AcDbCircle
 10
92.40234801905577
 20
209.2575229170867
 30
0.0
 40
2.106700428590253
100
AcDbArc
 50
115.3611736213256
 51
275.6870483721828
  0
DIMENSION
  5
87A
330
1E
100
AcDbEntity
  8
BEM
100
AcDbDimension
  2
*D6
 10
128.4999999999999
 20
132.127859218646
 30
0.0
 11
112.5
 21
135.377859218646
 31
0.0
 70
    32
  1
%%c<>
 71
     5
 42
32.0
  3
Standard
100
AcDbAlignedDimension
 13
96.49999999999998
 23
149.1611916772255
 33
0.0
 14
128.4999999999999
 24
149.1611916772258
 34
0.0
100
AcDbRotatedDimension
1001
ACAD
1000
DSTYLE
1002
{
1070
    41
1040
3.5
1070
    42
1040
1.0
1070
    43
1040
7.0
1070
    44
1040
1.0
1070
    73
1070
     0
1070
    74
1070
     0
1070
    77
1070
     1
1070
    78
1070
     8
1070
    79
1070
     2
1070
   140
1040
3.5
1070
   141
1040
1.5
1070
   146
1040
0.5
1070
   147
1040
1.5
1070
   172
1070
     1
1070
   178
1070
     1
1070
   179
1070
     2
1070
   271
1070
     2
1070
   272
1070
     2
1070
   284
1070
     8
1070
   285
1070
     8
1070
   286
1070
     8
1002
}
  0
LINE
  5
87E
330
1E
100
AcDbEntity
  8
HILF
100
AcDbLine
 10
126.7651006052
 20
200.0783444780437
 30
0.0
 11
98.23489939479991
 21
200.0783444780437
 31
0.0
  0
LINE
  5
881
330
1E
100
AcDbEntity
  8
STEMPEL
100
AcDbLine
 10
133.5
 20
209.1611916772256
 30
0.0
 11
91.49999999999991
 21
209.1611916772255
 31
0.0
  0
LINE
  5
882
330
1E
100
AcDbEntity
  8
STEMPEL
100
AcDbLine
 10
128.0625566823703
 20
144.1611916772255
 30
0.0
 11
96.93744331762955
 21
144.1611916772255
 31
0.0
  0
LINE
  5
883
102
{ACAD_REACTORS
330
A41
102
}
330
1E
100
AcDbEntity
  8
STEMPEL
100
AcDbLine
 10
91.49999999999991
 20
209.1611916772255
 30
0.0
 11
95.24157276121533
 21
202.4263607070378
 31
0.0
  0
LINE
  5
884
102
{ACAD_REACTORS
330
A41
102
}
330
1E
100
AcDbEntity
  8
STEMPEL
100
AcDbLine
 10
133.4999999999999
 20
209.1611916772255
 30
0.0
 11
129.7584272387846
 21
202.4263607070378
 31
0.0
  0
LINE
  5
885
102
{ACAD_REACTORS
330
A41
102
}
330
1E
100
AcDbEntity
  8
STEMPEL
100
AcDbLine
 10
128.4999999999999
 20
197.5699313952515
 30
0.0
 11
128.4999999999999
 21
149.1611916772258
 31
0.0
  0
LINE
  5
886
102
{ACAD_REACTORS
330
A41
102
}
330
1E
100
AcDbEntity
  8
STEMPEL
100
AcDbLine
 10
96.49999999999991
 20
197.5699313952515
 30
0.0
 11
96.49999999999998
 21
149.1611916772255
 31
0.0
  0
ARC
  5
887
102
{ACAD_REACTORS
330
A41
102
}
330
1E
100
AcDbEntity
  8
STEMPEL
100
AcDbCircle
 10
138.5
 20
197.5699313952515
 30
0.0
 40
10.0
100
AcDbArc
 50
150.9453959009228
 51
180.0
  0
ARC
  5
888
102
{ACAD_REACTORS
330
A41
102
}
330
1E
100
AcDbEntity
  8
STEMPEL
100
AcDbCircle
 10
86.49999999999991
 20
197.5699313952515
 30
0.0
 40
10.0
100
AcDbArc
 50
0.0
 51
29.05460409907714
  0
ARC
  5
889
330
1E
100
AcDbEntity
  8
STEMPEL
100
AcDbCircle
 10
138.5
 20
197.5699313952515
 30
0.0
 40
11.0
100
AcDbArc
 50
150.9453959009228
 51
180.0
  0
LINE
  5
88A
330
1E
100
AcDbEntity
  8
STEMPEL
100
AcDbLine
 10
132.3560410954458
 20
209.1611916772255
 30
0.0
 11
128.884269962663
 21
202.9120036382165
 31
0.0
  0
LINE
  5
88B
330
1E
100
AcDbEntity
  8
HILF
  6
Continuous
100
AcDbLine
 10
126.4999999999999
 20
149.1611916772255
 30
0.0
 11
98.49999999999997
 21
149.1611916772255
 31
0.0
  0
LINE
  5
88C
330
1E
100
AcDbEntity
  8
STEMPEL
100
AcDbLine
 10
96.49999999999998
 20
149.1611916772255
 30
0.0
 11
96.93744331762955
 21
144.1611916772255
 31
0.0
  0
LINE
  5
88D
330
1E
100
AcDbEntity
  8
STEMPEL
100
AcDbLine
 10
128.4999999999999
 20
149.1611916772258
 30
0.0
 11
128.0625566823703
 21
144.1611916772255
 31
0.0
  0
LINE
  5
88E
330
1E
100
AcDbEntity
  8
STEMPEL
100
AcDbLine
 10
127.4999999999999
 20
197.5699313952515
 30
0.0
 11
127.4999999999999
 21
149.2048526201346
 31
0.0
  0
LINE
  5
88F
330
1E
100
AcDbEntity
  8
STEMPEL
100
AcDbLine
 10
97.49999999999992
 20
197.5699313952515
 30
0.0
 11
97.49999999999998
 21
149.2048526201339
 31
0.0
  0
ARC
  5
890
330
1E
100
AcDbEntity
  8
STEMPEL
100
AcDbCircle
 10
86.49999999999991
 20
197.5699313952515
 30
0.0
 40
11.0
100
AcDbArc
 50
0.0
 51
29.05460409907714
  0
LINE
  5
891
330
1E
100
AcDbEntity
  8
STEMPEL
100
AcDbLine
 10
92.64395890455402
 20
209.1611916772255
 30
0.0
 11
96.11573003733688
 21
202.9120036382164
 31
0.0
  0
LINE
  5
892
330
1E
100
AcDbEntity
  8
STEMPEL
100
AcDbLine
 10
97.49999999999998
 20
149.2048526201339
 30
0.0
 11
97.94126315517289
 21
144.1611916772255
 31
0.0
  0
LINE
  5
893
330
1E
100
AcDbEntity
  8
STEMPEL
100
AcDbLine
 10
127.4999999999999
 20
149.2048526201346
 30
0.0
 11
127.058736844827
 21
144.1611916772255
 31
0.0
  0
TEXT
  5
894
330
1E
100
AcDbEntity
  8
TEXT
 62
     1
100
AcDbText
 10
110.2958381745479
 20
158.51173084305
 30
0.0
 40
3.5
  1
DN32
 50
90.0
 41
0.8
  7
GREEKS
 72
     1
 11
110.2958381745479
 21
163.6450641763833
 31
0.0
100
AcDbText
  0
TEXT
  5
895
330
1E
100
AcDbEntity
  8
TEXT
 62
     1
100
AcDbText
 10
110.2958381745479
 20
239.3367847907291
 30
0.0
 40
3.5
  1
DN40
 50
90.0
 41
0.8
  7
GREEKS
 72
     1
 11
110.2958381745479
 21
244.4701181240625
 31
0.0
100
AcDbText
  0
HATCH
  5
970
330
1E
100
AcDbEntity
  8
SCHRAFF
100
AcDbHatch
 10
0.0
 20
0.0
 30
0.0
210
0.0
220
0.0
230
1.0
  2
_USER
 70
     0
 71
     1
 91
        2
 92
        7
 72
     0
 73
     1
 93
        4
 10
67.99999999999994
 20
164.1611916772256
 10
69.59999999999997
 20
164.1611916772255
 10
69.59999999999995
 20
254.1611916772255
 10
67.99999999999996
 20
254.1611916772256
 97
        4
330
1FD
330
3CB
330
5A1
330
3CF
 92
        7
 72
     0
 73
     1
 93
        4
 10
155.4
 20
164.1611916772254
 10
157.0
 20
164.1611916772254
 10
157.0
 20
254.1611916772253
 10
155.4
 20
254.1611916772253
 97
        4
330
1FD
330
3CE
330
3CD
330
3CC
 75
     0
 76
     0
 52
45.0
 41
2.0
 77
     0
 78
     1
 53
45.0
 43
4.657255950889663
 44
-0.0000000000000284
 45
-1.414213562373094
 46
1.414213562373095
 79
     0
 47
0.1553281241258017
 98
        2
 10
68.4652068869938
 20
237.5290860381487
 10
156.1043076219604
 20
237.9950702748446
  0
LINE
  5
A0A
102
{ACAD_REACTORS
330
970
330
A20
330
A41
102
}
330
1E
100
AcDbEntity
  8
STEMPEL
  6
Continuous
100
AcDbLine
 10
155.3999999999999
 20
240.1611916772253
 30
0.0
 11
137.8592825568974
 21
240.1611916772254
 31
0.0
  0
LINE
  5
A0B
102
{ACAD_REACTORS
330
A20
330
A41
102
}
330
1E
100
AcDbEntity
  8
STEMPEL
  6
Continuous
100
AcDbLine
 10
87.14071744310237
 20
240.1611916772256
 30
0.0
 11
69.59999999999995
 21
240.1611916772256
 31
0.0
  0
HATCH
  5
A20
330
1E
100
AcDbEntity
  8
SCHRAFF
100
AcDbHatch
 10
0.0
 20
0.0
 30
0.0
210
0.0
220
0.0
230
1.0
  2
NET
 70
     0
 71
     1
 91
        2
 92
        7
 72
     1
 73
     1
 93
        7
 10
87.14071744310237
 20
240.1611916772256
 42
-0.0296659389587102
 10
87.00015518373461
 20
242.5281916772255
 42
0.0
 10
86.99999999999997
 20
242.5281916772255
 42
0.0
 10
86.99999999999992
 20
247.6190113568168
 42
-0.1022785704675324
 10
88.35239699968138
 20
254.1611916772255
 42
0.0
 10
69.59999999999997
 20
254.1611916772256
 42
0.0
 10
69.59999999999995
 20
240.1611916772256
 42
0.0
 97
        7
330
862
330
1FD
330
3CF
330
A0B
330
86C
330
85E
330
860
 92
        7
 72
     1
 73
     1
 93
        7
 10
136.6476030003185
 20
254.1611916772254
 42
-0.1022785704675282
 10
137.9999999999999
 20
247.6190113568169
 42
0.0
 10
137.9999999999998
 20
242.5281916772255
 42
0.0
 10
137.9998448162652
 20
242.5281916772255
 42
-0.0296659389587127
 10
137.8592825568974
 20
240.1611916772254
 42
0.0
 10
155.4
 20
240.1611916772253
 42
0.0
 10
155.4
 20
254.1611916772253
 42
0.0
 97
        7
330
1FD
330
850
330
84E
330
84C
330
85A
330
A0A
330
3CE
 75
     0
 76
     1
 52
45.0
 41
15.0
 77
     0
 78
     2
 53
45.0
 43
0.0
 44
0.0
 45
-1.325825214724776
 46
1.325825214724776
 79
     0
 53
135.0
 43
0.0
 44
0.0
 45
-1.325825214724776
 46
-1.325825214724776
 79
     0
 47
0.1903816502645519
 98
        2
 10
79.51195369373135
 20
242.5433854768997
 10
145.980965646026
 20
247.8740723758775
  0
HATCH
  5
A41
330
1E
100
AcDbEntity
  8
SCHRAFF
100
AcDbHatch
 10
0.0
 20
0.0
 30
0.0
210
0.0
220
0.0
230
1.0
  2
HONEY
 70
     0
 71
     1
 91
        2
 92
        7
 72
     1
 73
     1
 93
       13
 10
91.49999999999991
 20
219.6556380046331
 42
0.1568599726812959
 10
90.37499999999992
 20
223.1534051495414
 42
-0.1568599726812989
 10
88.49999999999992
 20
228.9830170577219
 42
0.0
 10
88.49999999999992
 20
233.1611916772255
 42
0.0795533624514999
 10
88.00004914177009
 20
236.2835411618206
 42
-0.049769965121178
 10
87.14071744310237
 20
240.1611916772256
 42
0.0
 10
69.59999999999995
 20
240.1611916772256
 42
0.0
 10
69.59999999999995
 20
164.1611916772255
 42
0.0
 10
96.49999999999993
 20
164.1611916772245
 42
0.0
 10
96.49999999999991
 20
197.5699313952515
 42
0.1274581865797866
 10
95.24157276121533
 20
202.4263607070378
 42
0.0
 10
92.61111111111103
 20
207.1611916772255
 42
-0.8415255648357206
 10
91.49999999999991
 20
211.1611916772255
 42
0.0
 97
       13
330
867
330
86A
330
865
330
864
330
86C
330
A0B
330
3CF
330
5A1
330
886
330
888
330
883
330
877
330
871
 92
        7
 72
     1
 73
     1
 93
       13
 10
155.4
 20
240.1611916772253
 42
0.0
 10
137.8592825568974
 20
240.1611916772254
 42
-0.0497699651211744
 10
136.9999508582297
 20
236.2835411618206
 42
0.0795533624515013
 10
136.4999999999999
 20
233.1611916772255
 42
0.0
 10
136.4999999999999
 20
228.9830170577219
 42
-0.1568599726812997
 10
134.6249999999999
 20
223.1534051495413
 42
0.1568599726812932
 10
133.4999999999999
 20
219.6556380046331
 42
0.0
 10
133.4999999999999
 20
211.1611916772255
 42
-0.8415255648357298
 10
132.3888888888888
 20
207.1611916772255
 42
0.0
 10
129.7584272387846
 20
202.4263607070378
 42
0.1274581865797876
 10
128.4999999999999
 20
197.5699313952515
 42
0.0
 10
128.4999999999999
 20
164.1611916772253
 42
0.0
 10
155.4
 20
164.1611916772253
 42
0.0
 97
       13
330
A0A
330
85A
330
852
330
855
330
858
330
857
330
872
330
876
330
884
330
887
330
885
330
3CD
330
3CE
 75
     0
 76
     1
 52
0.0
 41
20.0
 77
     0
 78
     3
 53
0.0
 43
0.0
 44
0.0
 45
3.75
 46
2.1650635
 79
     2
 49
2.5
 49
-5.0
 53
120.0
 43
0.0
 44
0.0
 45
-3.749999991806449
 46
2.165063514191645
 79
     2
 49
2.5
 49
-5.0
 53
60.0
 43
0.0
 44
0.0
 45
0.0000000081935508
 46
4.330127014191645
 79
     2
 49
-5.0
 49
2.5
 47
0.1903816502645519
 98
        2
 10
81.98787673329139
 20
217.7937714364869
 10
146.9332433644882
 20
212.272703529417
  0
DIMENSION
  5
A46
330
1E
100
AcDbEntity
  8
BEM
100
AcDbDimension
  2
*D7
 10
60.76763640210606
 20
144.1611916772255
 30
0.0
 11
57.51763640210604
 21
154.1611916772255
 31
0.0
 70
    32
 71
     5
 42
20.00000000000006
  3
Standard
100
AcDbAlignedDimension
 13
67.99999999999994
 23
164.1611916772255
 33
0.0
 14
96.93744331762955
 24
144.1611916772255
 34
0.0
 50
90.0
100
AcDbRotatedDimension
1001
ACAD
1000
DSTYLE
1002
{
1070
    41
1040
3.5
1070
    42
1040
1.0
1070
    43
1040
7.0
1070
    44
1040
1.0
1070
    47
1040
0.15
1070
    48
1040
0.15
1070
    73
1070
     0
1070
    74
1070
     0
1070
    77
1070
     1
1070
    78
1070
     8
1070
    79
1070
     2
1070
   140
1040
3.5
1070
   141
1040
1.5
1070
   146
1040
0.5142857142857144
1070
   147
1040
1.5
1070
   172
1070
     1
1070
   178
1070
     1
1070
   179
1070
     2
1070
   271
1070
     2
1070
   272
1070
     2
1070
   284
1070
     8
1070
   285
1070
     8
1070
   286
1070
     8
1002
}
  0
ENDSEC
  0
SECTION
  2
OBJECTS
  0
DICTIONARY
  5
C
330
0
100
AcDbDictionary
281
     1
  3
ACAD_COLOR
350
39F
  3
ACAD_GROUP
350
D
  3
ACAD_LAYOUT
350
19
  3
ACAD_MATERIAL
350
39E
  3
ACAD_MLINESTYLE
350
16
  3
ACAD_PLOTSETTINGS
350
18
  3
ACAD_PLOTSTYLENAME
350
E
  3
AcDbVariableDictionary
350
31A
  0
DICTIONARY
  5
39F
102
{ACAD_REACTORS
330
C
102
}
330
C
100
AcDbDictionary
281
     1
  0
DICTIONARY
  5
D
102
{ACAD_REACTORS
330
C
102
}
330
C
100
AcDbDictionary
281
     1
  0
DICTIONARY
  5
19
102
{ACAD_REACTORS
330
C
102
}
330
C
100
AcDbDictionary
281
     1
  3
Layout1
350
1D
  3
Model
350
21
  0
DICTIONARY
  5
39E
102
{ACAD_REACTORS
330
C
102
}
330
C
100
AcDbDictionary
281
     1
  0
DICTIONARY
  5
16
102
{ACAD_REACTORS
330
C
102
}
330
C
100
AcDbDictionary
281
     1
  3
Standard
350
17
  0
DICTIONARY
  5
18
102
{ACAD_REACTORS
330
C
102
}
330
C
100
AcDbDictionary
281
     1
  0
ACDBDICTIONARYWDFLT
  5
E
102
{ACAD_REACTORS
330
C
102
}
330
C
100
AcDbDictionary
281
     1
  3
Normal
350
F
100
AcDbDictionaryWithDefault
340
F
  0
DICTIONARY
  5
31A
102
{ACAD_REACTORS
330
C
102
}
330
C
100
AcDbDictionary
281
     1
  3
DIMASSOC
350
696
  3
PROJECTNAME
350
697
  3
SORTENTS
350
31B
  0
LAYOUT
  5
1D
102
{ACAD_REACTORS
330
19
102
}
330
19
100
AcDbPlotSettings
  1

  2
Tektronix Phaser 740
  4

  6

 40
0.0
 41
0.0
 42
0.0
 43
0.0
 44
0.0
 45
0.0
 46
0.0
 47
0.0
 48
0.0
 49
0.0
140
0.0
141
0.0
142
1.0
143
1.0
 70
   688
 72
     0
 73
     0
 74
     5
  7
monochrome.ctb
 75
    16
147
1.0
 76
     0
 77
     2
 78
   300
148
0.0
149
0.0
100
AcDbLayout
  1
Layout1
 70
     0
 71
     1
 10
0.0
 20
0.0
 11
12.0
 21
9.0
 12
0.0
 22
0.0
 32
0.0
 14
1.000000000000000E+20
 24
1.000000000000000E+20
 34
1.000000000000000E+20
 15
-1.000000000000000E+20
 25
-1.000000000000000E+20
 35
-1.000000000000000E+20
146
0.0
 13
0.0
 23
0.0
 33
0.0
 16
1.0
 26
0.0
 36
0.0
 17
0.0
 27
1.0
 37
0.0
 76
     0
330
1A
  0
LAYOUT
  5
21
102
{ACAD_REACTORS
330
19
102
}
330
19
100
AcDbPlotSettings
  1

  2
none_device
  4
Letter_(8.50_x_11.00_Inches)
  6

 40
6.349999904632568
 41
6.349999904632568
 42
6.350006103515625
 43
6.350006103515625
 44
215.8999938964844
 45
279.3999938964844
 46
0.0
 47
0.0
 48
0.0
 49
0.0
140
0.0
141
0.0
142
1.0
143
1.0
 70
 11952
 72
     0
 73
     1
 74
     0
  7
monochrome.ctb
 75
     0
147
1.0
 76
     0
 77
     2
 78
   300
148
-427.6236799849804
149
44.87778572714498
100
AcDbLayout
  1
Model
 70
     1
 71
     0
 10
0.0
 20
0.0
 11
12.0
 21
9.0
 12
0.0
 22
0.0
 32
0.0
 14
0.0
 24
0.0
 34
0.0
 15
0.0
 25
0.0
 35
0.0
146
0.0
 13
0.0
 23
0.0
 33
0.0
 16
1.0
 26
0.0
 36
0.0
 17
0.0
 27
1.0
 37
0.0
 76
     0
330
1E
  0
MLINESTYLE
  5
17
102
{ACAD_REACTORS
330
16
102
}
330
16
100
AcDbMlineStyle
  2
STANDARD
 70
     0
  3

 62
   256
 51
90.0
 52
90.0
 71
     2
 49
0.5
 62
   256
  6
BYLAYER
 49
-0.5
 62
   256
  6
BYLAYER
  0
ACDBPLACEHOLDER
  5
F
102
{ACAD_REACTORS
330
E
102
}
330
E
  0
DICTIONARYVAR
  5
696
102
{ACAD_REACTORS
330
31A
102
}
330
31A
100
DictionaryVariables
280
     0
  1
1
  0
DICTIONARYVAR
  5
697
102
{ACAD_REACTORS
330
31A
102
}
330
31A
100
DictionaryVariables
280
     0
  1

  0
DICTIONARYVAR
  5
31B
102
{ACAD_REACTORS
330
31A
102
}
330
31A
100
DictionaryVariables
280
     0
  1
96
  0
ENDSEC
  0
EOF
