  0
SECTION
  2
HEADER
  9
$ACADVER
  1
AC1018
  9
$ACADMAINTVER
 70
   104
  9
$DWGCODEPAGE
  3
ANSI_1252
  9
$LASTSAVEDBY
  1
w.koehlhoff
  9
$INSBASE
 10
0.0
 20
0.0
 30
0.0
  9
$EXTMIN
 10
-0.0127968944558461
 20
-0.0180984650162373
 30
-0.0000000000000053
  9
$EXTMAX
 10
420.00961919835
 20
594.0136042948106
 30
0.0000000000000099
  9
$LIMMIN
 10
0.0
 20
0.0
  9
$LIMMAX
 10
419.9999999999999
 20
594.0000000000002
  9
$ORTHOMODE
 70
     1
  9
$REGENMODE
 70
     1
  9
$FILLMODE
 70
     1
  9
$QTEXTMODE
 70
     0
  9
$MIRRTEXT
 70
     1
  9
$LTSCALE
 40
20.0
  9
$ATTMODE
 70
     1
  9
$TEXTSIZE
 40
3.5
  9
$TRACEWID
 40
0.5
  9
$TEXTSTYLE
  7
STANDARD
  9
$CLAYER
  8
BEM
  9
$CELTYPE
  6
ByLayer
  9
$CECOLOR
 62
   256
  9
$CELTSCALE
 40
1.0
  9
$DISPSILH
 70
     0
  9
$DIMSCALE
 40
2.0
  9
$DIMASZ
 40
3.5
  9
$DIMEXO
 40
1.0
  9
$DIMDLI
 40
7.0
  9
$DIMRND
 40
0.0
  9
$DIMDLE
 40
0.0
  9
$DIMEXE
 40
1.0
  9
$DIMTP
 40
0.0
  9
$DIMTM
 40
0.0
  9
$DIMTXT
 40
3.5
  9
$DIMCEN
 40
1.5
  9
$DIMTSZ
 40
0.0
  9
$DIMTOL
 70
     0
  9
$DIMLIM
 70
     0
  9
$DIMTIH
 70
     0
  9
$DIMTOH
 70
     0
  9
$DIMSE1
 70
     0
  9
$DIMSE2
 70
     0
  9
$DIMTAD
 70
     1
  9
$DIMZIN
 70
     8
  9
$DIMBLK
  1

  9
$DIMASO
 70
     1
  9
$DIMSHO
 70
     0
  9
$DIMPOST
  1

  9
$DIMAPOST
  1

  9
$DIMALT
 70
     0
  9
$DIMALTD
 70
     2
  9
$DIMALTF
 40
25.4
  9
$DIMLFAC
 40
1.0
  9
$DIMTOFL
 70
     1
  9
$DIMTVP
 40
0.0
  9
$DIMTIX
 70
     0
  9
$DIMSOXD
 70
     0
  9
$DIMSAH
 70
     0
  9
$DIMBLK1
  1

  9
$DIMBLK2
  1

  9
$DIMSTYLE
  2
Standard
  9
$DIMCLRD
 70
     0
  9
$DIMCLRE
 70
     0
  9
$DIMCLRT
 70
     1
  9
$DIMTFAC
 40
0.5142857142857144
  9
$DIMGAP
 40
1.5
  9
$DIMJUST
 70
     0
  9
$DIMSD1
 70
     0
  9
$DIMSD2
 70
     0
  9
$DIMTOLJ
 70
     1
  9
$DIMTZIN
 70
     8
  9
$DIMALTZ
 70
     8
  9
$DIMALTTZ
 70
     8
  9
$DIMUPT
 70
     0
  9
$DIMDEC
 70
     2
  9
$DIMTDEC
 70
     2
  9
$DIMALTU
 70
     2
  9
$DIMALTTD
 70
     2
  9
$DIMTXSTY
  7
STANDARD
  9
$DIMAUNIT
 70
     0
  9
$DIMADEC
 70
     2
  9
$DIMALTRND
 40
0.0
  9
$DIMAZIN
 70
     2
  9
$DIMDSEP
 70
    46
  9
$DIMATFIT
 70
     3
  9
$DIMFRAC
 70
     0
  9
$DIMLDRBLK
  1

  9
$DIMLUNIT
 70
     2
  9
$DIMLWD
 70
    -2
  9
$DIMLWE
 70
    -2
  9
$DIMTMOVE
 70
     0
  9
$LUNITS
 70
     2
  9
$LUPREC
 70
     2
  9
$SKETCHINC
 40
1.0
  9
$FILLETRAD
 40
0.0
  9
$AUNITS
 70
     0
  9
$AUPREC
 70
     0
  9
$MENU
  1
ACAD
  9
$ELEVATION
 40
0.0
  9
$PELEVATION
 40
0.0
  9
$THICKNESS
 40
0.0
  9
$LIMCHECK
 70
     0
  9
$CHAMFERA
 40
0.0
  9
$CHAMFERB
 40
0.0
  9
$CHAMFERC
 40
0.0
  9
$CHAMFERD
 40
0.0
  9
$SKPOLY
 70
     0
  9
$TDCREATE
 40
2455397.864709028
  9
$TDUCREATE
 40
2455397.781375695
  9
$TDUPDATE
 40
2456454.476213831
  9
$TDUUPDATE
 40
2456454.392880498
  9
$TDINDWG
 40
0.2526370370
  9
$TDUSRTIMER
 40
0.2526370370
  9
$USRTIMER
 70
     1
  9
$ANGBASE
 50
0.0
  9
$ANGDIR
 70
     0
  9
$PDMODE
 70
     0
  9
$PDSIZE
 40
0.0
  9
$PLINEWID
 40
0.0
  9
$SPLFRAME
 70
     0
  9
$SPLINETYPE
 70
     6
  9
$SPLINESEGS
 70
     8
  9
$HANDSEED
  5
18B6
  9
$SURFTAB1
 70
     6
  9
$SURFTAB2
 70
     6
  9
$SURFTYPE
 70
     6
  9
$SURFU
 70
     6
  9
$SURFV
 70
     6
  9
$UCSBASE
  2

  9
$UCSNAME
  2

  9
$UCSORG
 10
0.0
 20
0.0
 30
0.0
  9
$UCSXDIR
 10
1.0
 20
0.0
 30
0.0
  9
$UCSYDIR
 10
0.0
 20
1.0
 30
0.0
  9
$UCSORTHOREF
  2

  9
$UCSORTHOVIEW
 70
     0
  9
$UCSORGTOP
 10
0.0
 20
0.0
 30
0.0
  9
$UCSORGBOTTOM
 10
0.0
 20
0.0
 30
0.0
  9
$UCSORGLEFT
 10
0.0
 20
0.0
 30
0.0
  9
$UCSORGRIGHT
 10
0.0
 20
0.0
 30
0.0
  9
$UCSORGFRONT
 10
0.0
 20
0.0
 30
0.0
  9
$UCSORGBACK
 10
0.0
 20
0.0
 30
0.0
  9
$PUCSBASE
  2

  9
$PUCSNAME
  2

  9
$PUCSORG
 10
0.0
 20
0.0
 30
0.0
  9
$PUCSXDIR
 10
1.0
 20
0.0
 30
0.0
  9
$PUCSYDIR
 10
0.0
 20
1.0
 30
0.0
  9
$PUCSORTHOREF
  2

  9
$PUCSORTHOVIEW
 70
     0
  9
$PUCSORGTOP
 10
0.0
 20
0.0
 30
0.0
  9
$PUCSORGBOTTOM
 10
0.0
 20
0.0
 30
0.0
  9
$PUCSORGLEFT
 10
0.0
 20
0.0
 30
0.0
  9
$PUCSORGRIGHT
 10
0.0
 20
0.0
 30
0.0
  9
$PUCSORGFRONT
 10
0.0
 20
0.0
 30
0.0
  9
$PUCSORGBACK
 10
0.0
 20
0.0
 30
0.0
  9
$USERI1
 70
     0
  9
$USERI2
 70
     0
  9
$USERI3
 70
     0
  9
$USERI4
 70
     0
  9
$USERI5
 70
     0
  9
$USERR1
 40
0.0
  9
$USERR2
 40
0.0
  9
$USERR3
 40
0.0
  9
$USERR4
 40
0.0
  9
$USERR5
 40
0.0
  9
$WORLDVIEW
 70
     1
  9
$SHADEDGE
 70
     3
  9
$SHADEDIF
 70
    70
  9
$TILEMODE
 70
     1
  9
$MAXACTVP
 70
    16
  9
$PINSBASE
 10
0.0
 20
0.0
 30
0.0
  9
$PLIMCHECK
 70
     0
  9
$PEXTMIN
 10
1.000000000000000E+20
 20
1.000000000000000E+20
 30
1.000000000000000E+20
  9
$PEXTMAX
 10
-1.000000000000000E+20
 20
-1.000000000000000E+20
 30
-1.000000000000000E+20
  9
$PLIMMIN
 10
0.0
 20
0.0
  9
$PLIMMAX
 10
12.0
 20
9.0
  9
$UNITMODE
 70
     0
  9
$VISRETAIN
 70
     0
  9
$PLINEGEN
 70
     0
  9
$PSLTSCALE
 70
     0
  9
$TREEDEPTH
 70
  3020
  9
$CMLSTYLE
  2
Standard
  9
$CMLJUST
 70
     0
  9
$CMLSCALE
 40
1.0
  9
$PROXYGRAPHICS
 70
     1
  9
$MEASUREMENT
 70
     0
  9
$CELWEIGHT
370
    -1
  9
$ENDCAPS
280
     0
  9
$JOINSTYLE
280
     0
  9
$LWDISPLAY
290
     0
  9
$INSUNITS
 70
     0
  9
$HYPERLINKBASE
  1

  9
$STYLESHEET
  1
monochrome1.ctb
  9
$XEDIT
290
     1
  9
$CEPSNTYPE
380
     0
  9
$PSTYLEMODE
290
     1
  9
$FINGERPRINTGUID
  2
{D68B0D02-A558-11D7-B632-000102183313}
  9
$VERSIONGUID
  2
{768A9861-4B15-4BE3-9043-DA7F7E375F48}
  9
$EXTNAMES
290
     1
  9
$PSVPSCALE
 40
0.0
  9
$OLESTARTUP
290
     0
  9
$SORTENTS
280
   127
  9
$INDEXCTL
280
     0
  9
$HIDETEXT
280
     0
  9
$XCLIPFRAME
290
     0
  9
$HALOGAP
280
     0
  9
$OBSCOLOR
 70
   257
  9
$OBSLTYPE
280
     0
  9
$INTERSECTIONDISPLAY
280
     0
  9
$INTERSECTIONCOLOR
 70
   257
  9
$DIMASSOC
280
     1
  9
$PROJECTNAME
  1

  0
ENDSEC
  0
SECTION
  2
CLASSES
  0
CLASS
  1
ACDBDICTIONARYWDFLT
  2
AcDbDictionaryWithDefault
  3
ObjectDBX Classes
 90
        0
 91
        1
280
     0
281
     0
  0
CLASS
  1
DICTIONARYVAR
  2
AcDbDictionaryVar
  3
ObjectDBX Classes
 90
        0
 91
       10
280
     0
281
     0
  0
CLASS
  1
MATERIAL
  2
AcDbMaterial
  3
ObjectDBX Classes
 90
     1153
 91
        3
280
     0
281
     0
  0
CLASS
  1
VISUALSTYLE
  2
AcDbVisualStyle
  3
ObjectDBX Classes
 90
     4095
 91
       24
280
     0
281
     0
  0
CLASS
  1
TABLESTYLE
  2
AcDbTableStyle
  3
ObjectDBX Classes
 90
     4095
 91
        1
280
     0
281
     0
  0
CLASS
  1
SCALE
  2
AcDbScale
  3
ObjectDBX Classes
 90
     1153
 91
       17
280
     0
281
     0
  0
CLASS
  1
MLEADERSTYLE
  2
AcDbMLeaderStyle
  3
ACDB_MLEADERSTYLE_CLASS
 90
     4095
 91
        1
280
     0
281
     0
  0
CLASS
  1
ACDBSECTIONVIEWSTYLE
  2
AcDbSectionViewStyle
  3
ObjectDBX Classes
 90
     1025
 91
        1
280
     0
281
     0
  0
CLASS
  1
ACDBDETAILVIEWSTYLE
  2
AcDbDetailViewStyle
  3
ObjectDBX Classes
 90
     1025
 91
        1
280
     0
281
     0
  0
CLASS
  1
CELLSTYLEMAP
  2
AcDbCellStyleMap
  3
ObjectDBX Classes
 90
     1152
 91
        3
280
     0
281
     0
  0
ENDSEC
  0
SECTION
  2
TABLES
  0
TABLE
  2
VPORT
  5
8
102
{ACAD_XDICTIONARY
360
17CA
102
}
330
0
100
AcDbSymbolTable
 70
     1
  0
VPORT
  5
16A6
330
8
100
AcDbSymbolTableRecord
100
AcDbViewportTableRecord
  2
*Active
 70
     0
 10
0.0
 20
0.0
 11
1.0
 21
1.0
 12
209.9984111519471
 22
296.9977529148972
 13
0.0
 23
0.0
 14
1.0
 24
1.0
 15
10.0
 25
10.0
 16
0.0
 26
0.0
 36
1.0
 17
0.0
 27
0.0
 37
0.0
 40
598.0409156018504
 41
1.699324324324324
 42
50.0
 43
0.0
 44
0.0
 50
0.0
 51
0.0
 71
     0
 72
  1500
 73
     1
 74
     0
 75
     0
 76
     0
 77
     0
 78
     0
281
     0
 65
     1
110
0.0
120
0.0
130
0.0
111
1.0
121
0.0
131
0.0
112
0.0
122
1.0
132
0.0
 79
     0
146
0.0
1001
ACAD_NAV_VCDISPLAY
1070
     3
  0
ENDTAB
  0
TABLE
  2
LTYPE
  5
5
330
0
100
AcDbSymbolTable
 70
     4
  0
LTYPE
  5
13
330
5
100
AcDbSymbolTableRecord
100
AcDbLinetypeTableRecord
  2
ByBlock
 70
     0
  3

 72
    65
 73
     0
 40
0.0
  0
LTYPE
  5
14
330
5
100
AcDbSymbolTableRecord
100
AcDbLinetypeTableRecord
  2
ByLayer
 70
     0
  3

 72
    65
 73
     0
 40
0.0
  0
LTYPE
  5
15
330
5
100
AcDbSymbolTableRecord
100
AcDbLinetypeTableRecord
  2
Continuous
 70
     0
  3
Solid line
 72
    65
 73
     0
 40
0.0
  0
LTYPE
  5
25
330
5
100
AcDbSymbolTableRecord
100
AcDbLinetypeTableRecord
  2
STRICHPUNKT
 70
     0
  3
__ . __ . __ . __ . __ . __ . __ . __ . __ . __
 72
    65
 73
     4
 40
1.0
 49
0.5
 74
     0
 49
-0.25
 74
     0
 49
0.0
 74
     0
 49
-0.25
 74
     0
  0
LTYPE
  5
16F7
330
5
100
AcDbSymbolTableRecord
100
AcDbLinetypeTableRecord
  2
PHANTOM2
 70
     0
  3
Phantom (.5x) ___ _ _ ___ _ _ ___ _ _ ___ _ _
 72
    65
 73
     6
 40
1.25
 49
0.625
 74
     0
 49
-0.125
 74
     0
 49
0.125
 74
     0
 49
-0.125
 74
     0
 49
0.125
 74
     0
 49
-0.125
 74
     0
  0
ENDTAB
  0
TABLE
  2
LAYER
  5
2
102
{ACAD_XDICTIONARY
360
16FE
102
}
330
0
100
AcDbSymbolTable
 70
     9
  0
LAYER
  5
10
102
{ACAD_XDICTIONARY
360
17AE
102
}
330
2
100
AcDbSymbolTableRecord
100
AcDbLayerTableRecord
  2
0
 70
     0
 62
     7
  6
Continuous
370
    -3
390
F
  0
LAYER
  5
2A
102
{ACAD_XDICTIONARY
360
17B0
102
}
330
2
100
AcDbSymbolTableRecord
100
AcDbLayerTableRecord
  2
VOLL
 70
     0
 62
     1
  6
Continuous
370
    -3
390
F
  0
LAYER
  5
2B
102
{ACAD_XDICTIONARY
360
17B2
102
}
330
2
100
AcDbSymbolTableRecord
100
AcDbLayerTableRecord
  2
HILF
 70
     0
 62
     2
  6
Continuous
370
    -3
390
F
  0
LAYER
  5
2C
102
{ACAD_XDICTIONARY
360
17B4
102
}
330
2
100
AcDbSymbolTableRecord
100
AcDbLayerTableRecord
  2
MITTEL
 70
     0
 62
     2
  6
STRICHPUNKT
370
    -3
390
F
  0
LAYER
  5
2F
102
{ACAD_XDICTIONARY
360
17B6
102
}
330
2
100
AcDbSymbolTableRecord
100
AcDbLayerTableRecord
  2
BEM
 70
     0
 62
     7
  6
Continuous
370
    -3
390
F
  0
LAYER
  5
30
102
{ACAD_XDICTIONARY
360
17B8
102
}
330
2
100
AcDbSymbolTableRecord
100
AcDbLayerTableRecord
  2
STEMPEL
 70
     0
 62
     3
  6
Continuous
370
    -3
390
F
  0
LAYER
  5
31
102
{ACAD_XDICTIONARY
360
17BA
102
}
330
2
100
AcDbSymbolTableRecord
100
AcDbLayerTableRecord
  2
TEXT
 70
     0
 62
     7
  6
Continuous
370
    -3
390
F
  0
LAYER
  5
171
330
2
100
AcDbSymbolTableRecord
100
AcDbLayerTableRecord
  2
Defpoints
 70
     0
 62
     7
  6
Continuous
290
     0
370
    -3
390
F
  0
LAYER
  5
19C
102
{ACAD_XDICTIONARY
360
17BC
102
}
330
2
100
AcDbSymbolTableRecord
100
AcDbLayerTableRecord
  2
SCHRAFF
 70
     0
 62
     7
  6
Continuous
370
    -3
390
F
  0
ENDTAB
  0
TABLE
  2
STYLE
  5
3
330
0
100
AcDbSymbolTable
 70
     2
  0
STYLE
  5
11
330
3
100
AcDbSymbolTableRecord
100
AcDbTextStyleTableRecord
  2
STANDARD
 70
     0
 40
0.0
 41
0.8
 50
0.0
 71
     0
 42
3.5
  3
simplex.shx
  4

  0
STYLE
  5
24
330
3
100
AcDbSymbolTableRecord
100
AcDbTextStyleTableRecord
  2
GREEKS
 70
     0
 40
0.0
 41
0.8
 50
0.0
 71
     0
 42
2.5
  3
SIMPLEX.shx
  4

  0
ENDTAB
  0
TABLE
  2
VIEW
  5
6
330
0
100
AcDbSymbolTable
 70
     0
  0
ENDTAB
  0
TABLE
  2
UCS
  5
7
330
0
100
AcDbSymbolTable
 70
     0
  0
ENDTAB
  0
TABLE
  2
APPID
  5
9
330
0
100
AcDbSymbolTable
 70
     4
  0
APPID
  5
12
330
9
100
AcDbSymbolTableRecord
100
AcDbRegAppTableRecord
  2
ACAD
 70
     0
  0
APPID
  5
16FD
330
9
100
AcDbSymbolTableRecord
100
AcDbRegAppTableRecord
  2
ACAD_NAV_VCDISPLAY
 70
     0
  0
APPID
  5
17AC
330
9
100
AcDbSymbolTableRecord
100
AcDbRegAppTableRecord
  2
ACAD_EXEMPT_FROM_CAD_STANDARDS
 70
     0
  0
APPID
  5
1801
330
9
100
AcDbSymbolTableRecord
100
AcDbRegAppTableRecord
  2
ACAD_MLEADERVER
 70
     0
  0
ENDTAB
  0
TABLE
  2
DIMSTYLE
  5
A
330
0
100
AcDbSymbolTable
 70
     1
100
AcDbDimStyleTable
 71
     1
340
9D
  0
DIMSTYLE
105
9D
102
{ACAD_REACTORS
330
1239
330
1238
330
12DE
330
12DB
330
145E
330
146B
330
14B9
330
1833
102
}
330
A
100
AcDbSymbolTableRecord
100
AcDbDimStyleTableRecord
  2
Standard
 70
     0
340
11
  0
ENDTAB
  0
TABLE
  2
BLOCK_RECORD
  5
1
330
0
100
AcDbSymbolTable
 70
    19
  0
BLOCK_RECORD
  5
1E
102
{ACAD_XDICTIONARY
360
A0
102
}
330
1
100
AcDbSymbolTableRecord
100
AcDbBlockTableRecord
  2
*Model_Space
340
21
  0
BLOCK_RECORD
  5
1A
102
{ACAD_XDICTIONARY
360
A2
102
}
330
1
100
AcDbSymbolTableRecord
100
AcDbBlockTableRecord
  2
*Paper_Space
340
1D
  0
BLOCK_RECORD
  5
22
330
1
100
AcDbSymbolTableRecord
100
AcDbBlockTableRecord
  2
LOGO
340
0
102
{BLKREFS
331
9B
102
}
  0
BLOCK_RECORD
  5
126F
330
1
100
AcDbSymbolTableRecord
100
AcDbBlockTableRecord
  2
*D3
340
0
  0
BLOCK_RECORD
  5
127B
330
1
100
AcDbSymbolTableRecord
100
AcDbBlockTableRecord
  2
*D4
340
0
  0
BLOCK_RECORD
  5
1336
330
1
100
AcDbSymbolTableRecord
100
AcDbBlockTableRecord
  2
*D7
340
0
  0
BLOCK_RECORD
  5
135C
330
1
100
AcDbSymbolTableRecord
100
AcDbBlockTableRecord
  2
*D10
340
0
  0
BLOCK_RECORD
  5
145F
330
1
100
AcDbSymbolTableRecord
100
AcDbBlockTableRecord
  2
*D13
340
0
  0
BLOCK_RECORD
  5
146C
330
1
100
AcDbSymbolTableRecord
100
AcDbBlockTableRecord
  2
*D14
340
0
  0
BLOCK_RECORD
  5
14BA
330
1
100
AcDbSymbolTableRecord
100
AcDbBlockTableRecord
  2
*D16
340
0
  0
BLOCK_RECORD
  5
1834
330
1
100
AcDbSymbolTableRecord
100
AcDbBlockTableRecord
  2
*D18
340
0
  0
ENDTAB
  0
ENDSEC
  0
SECTION
  2
BLOCKS
  0
BLOCK
  5
35
330
1E
100
AcDbEntity
  8
0
100
AcDbBlockBegin
  2
*Model_Space
 70
     0
 10
0.0
 20
0.0
 30
0.0
  3
*Model_Space
  1

  0
ENDBLK
  5
36
330
1E
100
AcDbEntity
  8
0
100
AcDbBlockEnd
  0
BLOCK
  5
33
330
1A
100
AcDbEntity
 67
     1
  8
0
100
AcDbBlockBegin
  2
*Paper_Space
 70
     0
 10
0.0
 20
0.0
 30
0.0
  3
*Paper_Space
  1

  0
ENDBLK
  5
34
330
1A
100
AcDbEntity
 67
     1
  8
0
100
AcDbBlockEnd
  0
BLOCK
  5
37
330
22
100
AcDbEntity
  8
0
100
AcDbBlockBegin
  2
LOGO
 70
     0
 10
0.0
 20
0.0
 30
0.0
  3
LOGO
  1

  0
ARC
  5
38
330
22
100
AcDbEntity
  8
0
100
AcDbCircle
 10
11.59973089678112
 20
-9.271599258481501
 30
0.0
 40
4.5
100
AcDbArc
 50
270.0
 51
231.0575587310159
  0
LINE
  5
39
330
22
100
AcDbEntity
  8
0
100
AcDbLine
 10
3.599730896781125
 20
-4.771599258481529
 30
0.0
 11
3.599730896781153
 21
-11.77159925848133
 31
0.0
  0
LINE
  5
3A
330
22
100
AcDbEntity
  8
0
100
AcDbLine
 10
2.599730896781125
 20
-4.771599258481529
 30
0.0
 11
2.599730896781153
 21
-11.77159925848133
 31
0.0
  0
CIRCLE
  5
3B
330
22
100
AcDbEntity
  8
0
100
AcDbCircle
 10
11.59973089678112
 20
-9.271599258481501
 30
0.0
 40
3.5
  0
ARC
  5
3C
330
22
100
AcDbEntity
  8
0
100
AcDbCircle
 10
31.59973089678115
 20
-9.271599258481472
 30
0.0
 40
4.5
100
AcDbArc
 50
270.0
 51
231.0575587310182
  0
LINE
  5
3D
330
22
100
AcDbEntity
  8
0
100
AcDbLine
 10
17.59973089678112
 20
-4.771599258481472
 30
0.0
 11
17.59973089678115
 21
-13.77159925848147
 31
0.0
  0
ARC
  5
3E
330
22
100
AcDbEntity
  8
0
100
AcDbCircle
 10
22.59973089678116
 20
-7.271599258481472
 30
0.0
 40
2.5
100
AcDbArc
 50
293.1161887722295
 51
90.0
  0
CIRCLE
  5
3F
330
22
100
AcDbEntity
  8
0
100
AcDbCircle
 10
31.59973089678115
 20
-9.271599258481472
 30
0.0
 40
3.5
  0
ARC
  5
40
330
22
100
AcDbEntity
  8
0
100
AcDbCircle
 10
4.599730896781153
 20
-11.77159925848133
 30
0.0
 40
1.0
100
AcDbArc
 50
180.0
 51
270.0
  0
ARC
  5
41
330
22
100
AcDbEntity
  8
0
100
AcDbCircle
 10
4.599730896781153
 20
-11.77159925848133
 30
0.0
 40
2.0
100
AcDbArc
 50
179.9999999999992
 51
270.0
  0
LINE
  5
42
330
22
100
AcDbEntity
  8
0
100
AcDbLine
 10
11.59973089678115
 20
-13.77159925848144
 30
0.0
 11
4.599730896781153
 21
-13.77159925848147
 31
0.0
  0
LINE
  5
43
330
22
100
AcDbEntity
  8
0
100
AcDbLine
 10
8.771303772034769
 20
-12.77159925848136
 30
0.0
 11
4.599730896781153
 21
-12.77159925848133
 31
0.0
  0
LINE
  5
44
330
22
100
AcDbEntity
  8
0
100
AcDbLine
 10
31.59973089678115
 20
-13.77159925848147
 30
0.0
 11
23.6715276665056
 21
-13.77159925848144
 31
0.0
  0
LINE
  5
45
330
22
100
AcDbEntity
  8
0
100
AcDbLine
 10
23.56565672307022
 20
-9.51278021337896
 30
0.0
 11
24.4388546544846
 21
-12.77159925848144
 31
0.0
  0
LINE
  5
46
330
22
100
AcDbEntity
  8
0
100
AcDbLine
 10
22.59973089678116
 20
-9.771599258481472
 30
0.0
 11
18.59973089678112
 21
-9.771599258481472
 31
0.0
  0
LINE
  5
47
330
22
100
AcDbEntity
  8
0
100
AcDbLine
 10
18.59973089678115
 20
-13.77159925848144
 30
0.0
 11
17.59973089678115
 21
-13.77159925848144
 31
0.0
  0
LINE
  5
48
330
22
100
AcDbEntity
  8
0
100
AcDbLine
 10
18.59973089678115
 20
-9.771599258481472
 30
0.0
 11
18.59973089678115
 21
-13.77159925848144
 31
0.0
  0
LINE
  5
49
330
22
100
AcDbEntity
  8
0
100
AcDbLine
 10
22.59973089678116
 20
-9.771599258481472
 30
0.0
 11
23.67152766650562
 21
-13.77159925848147
 31
0.0
  0
ARC
  5
4A
330
22
100
AcDbEntity
  8
0
100
AcDbCircle
 10
22.59973089678116
 20
-7.271599258481472
 30
0.0
 40
2.5
100
AcDbArc
 50
270.0
 51
270.0000000000007
  0
LINE
  5
4B
330
22
100
AcDbEntity
  8
0
100
AcDbLine
 10
28.77130377203494
 20
-12.77159925848147
 30
0.0
 11
24.43885465448463
 21
-12.77159925848144
 31
0.0
  0
LINE
  5
4C
330
22
100
AcDbEntity
  8
0
100
AcDbLine
 10
3.599730896781125
 20
-4.771599258481472
 30
0.0
 11
2.599730896781125
 21
-4.771599258481472
 31
0.0
  0
LINE
  5
4D
330
22
100
AcDbEntity
  8
0
100
AcDbLine
 10
22.59973089678116
 20
-8.771599258481472
 30
0.0
 11
18.59973089678115
 21
-8.771599258481472
 31
0.0
  0
LINE
  5
4E
330
22
100
AcDbEntity
  8
0
100
AcDbLine
 10
22.59973089678116
 20
-5.771599258481472
 30
0.0
 11
18.59973089678115
 21
-5.771599258481472
 31
0.0
  0
LINE
  5
4F
330
22
100
AcDbEntity
  8
0
100
AcDbLine
 10
22.59973089678116
 20
-4.771599258481472
 30
0.0
 11
17.59973089678115
 21
-4.771599258481472
 31
0.0
  0
LINE
  5
50
330
22
100
AcDbEntity
  8
0
100
AcDbLine
 10
18.59973089678115
 20
-5.771599258481472
 30
0.0
 11
18.59973089678115
 21
-8.771599258481472
 31
0.0
  0
ARC
  5
51
330
22
100
AcDbEntity
  8
0
100
AcDbCircle
 10
22.59973089678116
 20
-7.271599258481472
 30
0.0
 40
1.5
100
AcDbArc
 50
270.0
 51
90.0
  0
ENDBLK
  5
52
330
22
100
AcDbEntity
  8
0
100
AcDbBlockEnd
  0
BLOCK
  5
1279
330
126F
100
AcDbEntity
  8
0
100
AcDbBlockBegin
  2
*D3
 70
     1
 10
0.0
 20
0.0
 30
0.0
  3
*D3
  1

  0
LINE
  5
172A
330
126F
100
AcDbEntity
  8
BEM
 62
     0
440
 16777216
370
    -2
100
AcDbLine
 10
171.385567858752
 20
246.1374113873179
 30
0.0
 11
171.385567858752
 21
220.9163086945681
 31
0.0
  0
LINE
  5
172B
330
126F
100
AcDbEntity
  8
BEM
 62
     0
440
 16777216
370
    -2
100
AcDbLine
 10
224.3855678587439
 20
246.1374113874053
 30
0.0
 11
224.3855678587439
 21
220.9163086945681
 31
0.0
  0
LINE
  5
172C
330
126F
100
AcDbEntity
  8
BEM
 62
     0
440
 16777216
370
    -2
100
AcDbLine
 10
178.385567858752
 20
222.9163086945681
 30
0.0
 11
217.3855678587439
 21
222.9163086945681
 31
0.0
  0
SOLID
  5
172D
330
126F
100
AcDbEntity
  8
BEM
 62
     0
440
 16777216
100
AcDbTrace
 10
178.385567858752
 20
224.0829753612347
 30
0.0
 11
178.385567858752
 21
221.7496420279014
 31
0.0
 12
171.385567858752
 22
222.9163086945681
 32
0.0
 13
171.385567858752
 23
222.9163086945681
 33
0.0
  0
SOLID
  5
172E
330
126F
100
AcDbEntity
  8
BEM
 62
     0
440
 16777216
100
AcDbTrace
 10
217.3855678587439
 20
224.0829753612347
 30
0.0
 11
217.3855678587439
 21
221.7496420279014
 31
0.0
 12
224.3855678587439
 22
222.9163086945681
 32
0.0
 13
224.3855678587439
 23
222.9163086945681
 33
0.0
  0
MTEXT
  5
172F
330
126F
100
AcDbEntity
  8
BEM
 62
     1
440
 16777216
100
AcDbMText
 10
197.8855678587479
 20
229.4163086945681
 30
0.0
 40
7.0
 41
0.0
 71
     5
 72
     1
  1
\A1;%%c53
  7
GREEKS
 73
     1
 44
1.0
  0
POINT
  5
1730
330
126F
100
AcDbEntity
  8
Defpoints
 62
     0
440
 16777216
100
AcDbPoint
 10
171.385567858752
 20
248.1374113873179
 30
0.0
  0
POINT
  5
1731
330
126F
100
AcDbEntity
  8
Defpoints
 62
     0
440
 16777216
100
AcDbPoint
 10
224.3855678587439
 20
248.1374113874053
 30
0.0
  0
POINT
  5
1732
330
126F
100
AcDbEntity
  8
Defpoints
 62
     0
440
 16777216
100
AcDbPoint
 10
224.3855678587439
 20
222.9163086945681
 30
0.0
  0
ENDBLK
  5
127A
330
126F
100
AcDbEntity
  8
0
100
AcDbBlockEnd
  0
BLOCK
  5
1285
330
127B
100
AcDbEntity
  8
0
100
AcDbBlockBegin
  2
*D4
 70
     1
 10
0.0
 20
0.0
 30
0.0
  3
*D4
  1

  0
LINE
  5
1721
330
127B
100
AcDbEntity
  8
BEM
 62
     0
440
 16777216
370
    -2
100
AcDbLine
 10
171.385567858752
 20
246.1374113873179
 30
0.0
 11
171.385567858752
 21
220.9163086945681
 31
0.0
  0
LINE
  5
1722
330
127B
100
AcDbEntity
  8
BEM
 62
     0
440
 16777216
370
    -2
100
AcDbLine
 10
224.3855678587439
 20
246.1374113874053
 30
0.0
 11
224.3855678587439
 21
220.9163086945681
 31
0.0
  0
LINE
  5
1723
330
127B
100
AcDbEntity
  8
BEM
 62
     0
440
 16777216
370
    -2
100
AcDbLine
 10
178.385567858752
 20
222.9163086945681
 30
0.0
 11
217.3855678587439
 21
222.9163086945681
 31
0.0
  0
SOLID
  5
1724
330
127B
100
AcDbEntity
  8
BEM
 62
     0
440
 16777216
100
AcDbTrace
 10
178.385567858752
 20
224.0829753612347
 30
0.0
 11
178.385567858752
 21
221.7496420279014
 31
0.0
 12
171.385567858752
 22
222.9163086945681
 32
0.0
 13
171.385567858752
 23
222.9163086945681
 33
0.0
  0
SOLID
  5
1725
330
127B
100
AcDbEntity
  8
BEM
 62
     0
440
 16777216
100
AcDbTrace
 10
217.3855678587439
 20
224.0829753612347
 30
0.0
 11
217.3855678587439
 21
221.7496420279014
 31
0.0
 12
224.3855678587439
 22
222.9163086945681
 32
0.0
 13
224.3855678587439
 23
222.9163086945681
 33
0.0
  0
MTEXT
  5
1726
330
127B
100
AcDbEntity
  8
BEM
 62
     1
440
 16777216
100
AcDbMText
 10
197.8855678587479
 20
229.4163086945681
 30
0.0
 40
7.0
 41
0.0
 71
     5
 72
     1
  1
\A1;%%c53
  7
GREEKS
 73
     1
 44
1.0
  0
POINT
  5
1727
330
127B
100
AcDbEntity
  8
Defpoints
 62
     0
440
 16777216
100
AcDbPoint
 10
171.385567858752
 20
248.1374113873179
 30
0.0
  0
POINT
  5
1728
330
127B
100
AcDbEntity
  8
Defpoints
 62
     0
440
 16777216
100
AcDbPoint
 10
224.3855678587439
 20
248.1374113874053
 30
0.0
  0
POINT
  5
1729
330
127B
100
AcDbEntity
  8
Defpoints
 62
     0
440
 16777216
100
AcDbPoint
 10
224.3855678587439
 20
222.9163086945681
 30
0.0
  0
ENDBLK
  5
1286
330
127B
100
AcDbEntity
  8
0
100
AcDbBlockEnd
  0
BLOCK
  5
1340
330
1336
100
AcDbEntity
  8
0
100
AcDbBlockBegin
  2
*D7
 70
     1
 10
0.0
 20
0.0
 30
0.0
  3
*D7
  1

  0
LINE
  5
1828
330
1336
100
AcDbEntity
  8
BEM
 62
     0
440
 16777216
370
    -2
100
AcDbLine
 10
248.4458538326799
 20
460.6987344431157
 30
0.0
 11
257.2102723359831
 21
469.4631529464193
 31
0.0
  0
LINE
  5
1829
330
1336
100
AcDbEntity
  8
BEM
 62
     0
440
 16777216
370
    -2
100
AcDbLine
 10
311.3783573582825
 20
397.7662309175128
 30
0.0
 11
320.1427758615872
 21
406.5306494208179
 31
0.0
  0
LINE
  5
182A
330
1336
100
AcDbEntity
  8
BEM
 62
     0
440
 16777216
370
    -2
100
AcDbLine
 10
260.7458062419159
 20
463.0991919157404
 30
0.0
 11
313.7788148309082
 21
410.0661833267505
 31
0.0
  0
SOLID
  5
182B
330
1336
100
AcDbEntity
  8
BEM
 62
     0
440
 16777216
100
AcDbTrace
 10
261.5707641533003
 20
463.9241498271247
 30
0.0
 11
259.9208483305317
 21
462.274234004356
 31
0.0
 12
255.79605877361
 22
468.0489393840461
 32
0.0
 13
255.79605877361
 23
468.0489393840461
 33
0.0
  0
SOLID
  5
182C
330
1336
100
AcDbEntity
  8
BEM
 62
     0
440
 16777216
100
AcDbTrace
 10
314.6037727422925
 20
410.8911412381348
 30
0.0
 11
312.9538569195239
 21
409.2412254153662
 31
0.0
 12
318.7285622992141
 22
405.1164358584448
 32
0.0
 13
318.7285622992141
 23
405.1164358584448
 33
0.0
  0
MTEXT
  5
182D
330
1336
100
AcDbEntity
  8
BEM
 62
     1
440
 16777216
100
AcDbMText
 10
291.8585046141246
 20
441.1788816989581
 30
0.0
 40
7.0
 41
0.0
 71
     5
 72
     1
  1
\A1;%%c89
  7
GREEKS
 11
0.7071067811865632
 21
-0.7071067811865319
 31
0.0
 73
     1
 44
1.0
  0
POINT
  5
182E
330
1336
100
AcDbEntity
  8
Defpoints
 62
     0
440
 16777216
100
AcDbPoint
 10
247.0316402703069
 20
459.2845208807426
 30
0.0
  0
POINT
  5
182F
330
1336
100
AcDbEntity
  8
Defpoints
 62
     0
440
 16777216
100
AcDbPoint
 10
309.9641437959094
 20
396.3520173551398
 30
0.0
  0
POINT
  5
1830
330
1336
100
AcDbEntity
  8
Defpoints
 62
     0
440
 16777216
100
AcDbPoint
 10
318.7285622992141
 20
405.1164358584448
 30
0.0
  0
ENDBLK
  5
1341
330
1336
100
AcDbEntity
  8
0
100
AcDbBlockEnd
  0
BLOCK
  5
1366
330
135C
100
AcDbEntity
  8
0
100
AcDbBlockBegin
  2
*D10
 70
     1
 10
0.0
 20
0.0
 30
0.0
  3
*D10
  1

  0
LINE
  5
181F
330
135C
100
AcDbEntity
  8
BEM
 62
     0
440
 16777216
370
    -2
100
AcDbLine
 10
248.4458538326799
 20
460.6987344431157
 30
0.0
 11
257.2102723359831
 21
469.4631529464193
 31
0.0
  0
LINE
  5
1820
330
135C
100
AcDbEntity
  8
BEM
 62
     0
440
 16777216
370
    -2
100
AcDbLine
 10
311.3783573582825
 20
397.7662309175128
 30
0.0
 11
320.1427758615872
 21
406.5306494208179
 31
0.0
  0
LINE
  5
1821
330
135C
100
AcDbEntity
  8
BEM
 62
     0
440
 16777216
370
    -2
100
AcDbLine
 10
260.7458062419159
 20
463.0991919157404
 30
0.0
 11
313.7788148309082
 21
410.0661833267505
 31
0.0
  0
SOLID
  5
1822
330
135C
100
AcDbEntity
  8
BEM
 62
     0
440
 16777216
100
AcDbTrace
 10
261.5707641533003
 20
463.9241498271247
 30
0.0
 11
259.9208483305317
 21
462.274234004356
 31
0.0
 12
255.79605877361
 22
468.0489393840461
 32
0.0
 13
255.79605877361
 23
468.0489393840461
 33
0.0
  0
SOLID
  5
1823
330
135C
100
AcDbEntity
  8
BEM
 62
     0
440
 16777216
100
AcDbTrace
 10
314.6037727422925
 20
410.8911412381348
 30
0.0
 11
312.9538569195239
 21
409.2412254153662
 31
0.0
 12
318.7285622992141
 22
405.1164358584448
 32
0.0
 13
318.7285622992141
 23
405.1164358584448
 33
0.0
  0
MTEXT
  5
1824
330
135C
100
AcDbEntity
  8
BEM
 62
     1
440
 16777216
100
AcDbMText
 10
291.8585046141246
 20
441.1788816989581
 30
0.0
 40
7.0
 41
0.0
 71
     5
 72
     1
  1
\A1;%%c89
  7
GREEKS
 11
0.7071067811865632
 21
-0.7071067811865319
 31
0.0
 73
     1
 44
1.0
  0
POINT
  5
1825
330
135C
100
AcDbEntity
  8
Defpoints
 62
     0
440
 16777216
100
AcDbPoint
 10
247.0316402703069
 20
459.2845208807426
 30
0.0
  0
POINT
  5
1826
330
135C
100
AcDbEntity
  8
Defpoints
 62
     0
440
 16777216
100
AcDbPoint
 10
309.9641437959094
 20
396.3520173551398
 30
0.0
  0
POINT
  5
1827
330
135C
100
AcDbEntity
  8
Defpoints
 62
     0
440
 16777216
100
AcDbPoint
 10
318.7285622992141
 20
405.1164358584448
 30
0.0
  0
ENDBLK
  5
1367
330
135C
100
AcDbEntity
  8
0
100
AcDbBlockEnd
  0
BLOCK
  5
1469
330
145F
100
AcDbEntity
  8
0
100
AcDbBlockBegin
  2
*D13
 70
     1
 10
0.0
 20
0.0
 30
0.0
  3
*D13
  1

  0
LINE
  5
1816
330
145F
100
AcDbEntity
  8
BEM
 62
     0
440
 16777216
370
    -2
100
AcDbLine
 10
151.3855678587434
 20
273.2029028017739
 30
0.0
 11
138.4456489621015
 21
273.2029028017739
 31
0.0
  0
LINE
  5
1817
330
145F
100
AcDbEntity
  8
BEM
 62
     0
440
 16777216
370
    -2
100
AcDbLine
 10
169.8172814200586
 20
243.2029028017737
 30
0.0
 11
138.4456489621015
 21
243.2029028017737
 31
0.0
  0
LINE
  5
1818
330
145F
100
AcDbEntity
  8
BEM
 62
     0
440
 16777216
370
    -2
100
AcDbLine
 10
140.4456489621015
 20
266.2029028017739
 30
0.0
 11
140.4456489621015
 21
250.2029028017737
 31
0.0
  0
SOLID
  5
1819
330
145F
100
AcDbEntity
  8
BEM
 62
     0
440
 16777216
100
AcDbTrace
 10
139.2789822954348
 20
266.2029028017739
 30
0.0
 11
141.6123156287682
 21
266.2029028017739
 31
0.0
 12
140.4456489621015
 22
273.2029028017739
 32
0.0
 13
140.4456489621015
 23
273.2029028017739
 33
0.0
  0
SOLID
  5
181A
330
145F
100
AcDbEntity
  8
BEM
 62
     0
440
 16777216
100
AcDbTrace
 10
139.2789822954348
 20
250.2029028017737
 30
0.0
 11
141.6123156287682
 21
250.2029028017737
 31
0.0
 12
140.4456489621015
 22
243.2029028017737
 32
0.0
 13
140.4456489621015
 23
243.2029028017737
 33
0.0
  0
MTEXT
  5
181B
330
145F
100
AcDbEntity
  8
BEM
 62
     1
440
 16777216
100
AcDbMText
 10
133.9456489621015
 20
258.2029028017738
 30
0.0
 40
7.0
 41
0.0
 71
     5
 72
     1
  1
\A1;30
 11
0.0000000000000001
 21
1.0
 31
0.0
 73
     1
 44
1.0
  0
POINT
  5
181C
330
145F
100
AcDbEntity
  8
Defpoints
 62
     0
440
 16777216
100
AcDbPoint
 10
153.3855678587434
 20
273.2029028017739
 30
0.0
  0
POINT
  5
181D
330
145F
100
AcDbEntity
  8
Defpoints
 62
     0
440
 16777216
100
AcDbPoint
 10
171.8172814200586
 20
243.2029028017737
 30
0.0
  0
POINT
  5
181E
330
145F
100
AcDbEntity
  8
Defpoints
 62
     0
440
 16777216
100
AcDbPoint
 10
140.4456489621015
 20
243.2029028017737
 30
0.0
  0
ENDBLK
  5
146A
330
145F
100
AcDbEntity
  8
0
100
AcDbBlockEnd
  0
BLOCK
  5
1476
330
146C
100
AcDbEntity
  8
0
100
AcDbBlockBegin
  2
*D14
 70
     1
 10
0.0
 20
0.0
 30
0.0
  3
*D14
  1

  0
LINE
  5
180D
330
146C
100
AcDbEntity
  8
BEM
 62
     0
440
 16777216
370
    -2
100
AcDbLine
 10
195.8855678587437
 20
347.2059449435763
 30
0.0
 11
124.6287657347725
 21
347.2059449435763
 31
0.0
  0
LINE
  5
180E
330
146C
100
AcDbEntity
  8
BEM
 62
     0
440
 16777216
370
    -2
100
AcDbLine
 10
169.8172814200586
 20
243.2029028017737
 30
0.0
 11
124.6287657347725
 21
243.2029028017737
 31
0.0
  0
LINE
  5
180F
330
146C
100
AcDbEntity
  8
BEM
 62
     0
440
 16777216
370
    -2
100
AcDbLine
 10
126.6287657347725
 20
340.2059449435763
 30
0.0
 11
126.6287657347725
 21
250.2029028017737
 31
0.0
  0
SOLID
  5
1810
330
146C
100
AcDbEntity
  8
BEM
 62
     0
440
 16777216
100
AcDbTrace
 10
125.4620990681058
 20
340.2059449435763
 30
0.0
 11
127.7954324014392
 21
340.2059449435763
 31
0.0
 12
126.6287657347725
 22
347.2059449435763
 32
0.0
 13
126.6287657347725
 23
347.2059449435763
 33
0.0
  0
SOLID
  5
1811
330
146C
100
AcDbEntity
  8
BEM
 62
     0
440
 16777216
100
AcDbTrace
 10
125.4620990681058
 20
250.2029028017737
 30
0.0
 11
127.7954324014392
 21
250.2029028017737
 31
0.0
 12
126.6287657347725
 22
243.2029028017737
 32
0.0
 13
126.6287657347725
 23
243.2029028017737
 33
0.0
  0
MTEXT
  5
1812
330
146C
100
AcDbEntity
  8
BEM
 62
     1
440
 16777216
100
AcDbMText
 10
120.1287657347724
 20
295.204423872675
 30
0.0
 40
7.0
 41
0.0
 71
     5
 72
     1
  1
\A1;104
 11
0.0000000000000001
 21
1.0
 31
0.0
 73
     1
 44
1.0
  0
POINT
  5
1813
330
146C
100
AcDbEntity
  8
Defpoints
 62
     0
440
 16777216
100
AcDbPoint
 10
197.8855678587437
 20
347.2059449435763
 30
0.0
  0
POINT
  5
1814
330
146C
100
AcDbEntity
  8
Defpoints
 62
     0
440
 16777216
100
AcDbPoint
 10
171.8172814200586
 20
243.2029028017737
 30
0.0
  0
POINT
  5
1815
330
146C
100
AcDbEntity
  8
Defpoints
 62
     0
440
 16777216
100
AcDbPoint
 10
126.6287657347725
 20
243.2029028017737
 30
0.0
  0
ENDBLK
  5
1477
330
146C
100
AcDbEntity
  8
0
100
AcDbBlockEnd
  0
BLOCK
  5
14C4
330
14BA
100
AcDbEntity
  8
0
100
AcDbBlockBegin
  2
*D16
 70
     1
 10
0.0
 20
0.0
 30
0.0
  3
*D16
  1

  0
LINE
  5
179E
330
14BA
100
AcDbEntity
  8
BEM
 62
     0
440
 16777216
370
    -2
100
AcDbLine
 10
196.4713542963706
 20
348.6201585059493
 30
0.0
 11
150.4254582110226
 21
394.666054591297
 31
0.0
  0
LINE
  5
179F
330
14BA
100
AcDbEntity
  8
BEM
 62
     0
440
 16777216
370
    -2
100
AcDbLine
 10
245.6174267079338
 20
460.6987344431157
 30
0.0
 11
231.0377823853873
 21
475.2783787656621
 31
0.0
  0
LINE
  5
17A0
330
14BA
100
AcDbEntity
  8
BEM
 62
     0
440
 16777216
370
    -2
100
AcDbLine
 10
156.7894192417015
 20
398.2015884972298
 30
0.0
 11
227.5022484794545
 21
468.9144177349832
 31
0.0
  0
SOLID
  5
17A1
330
14BA
100
AcDbEntity
  8
BEM
 62
     0
440
 16777216
100
AcDbTrace
 10
155.9644613303172
 20
399.0265464086141
 30
0.0
 11
157.6143771530858
 21
397.3766305858455
 31
0.0
 12
151.8396717733957
 22
393.2518410289239
 32
0.0
 13
151.8396717733957
 23
393.2518410289239
 33
0.0
  0
SOLID
  5
17A2
330
14BA
100
AcDbEntity
  8
BEM
 62
     0
440
 16777216
100
AcDbTrace
 10
226.6772905680702
 20
469.7393756463675
 30
0.0
 11
228.3272063908388
 21
468.0894598235989
 31
0.0
 12
232.4519959477604
 22
473.8641652032891
 32
0.0
 13
232.4519959477604
 23
473.8641652032891
 33
0.0
  0
MTEXT
  5
17A3
330
14BA
100
AcDbEntity
  8
BEM
 62
     1
440
 16777216
100
AcDbMText
 10
187.5496397828655
 20
438.154197193819
 30
0.0
 40
7.0
 41
0.0
 71
     5
 72
     1
  1
\A1;114
 11
0.7071067811865455
 21
0.7071067811865496
 31
0.0
 73
     1
 44
1.0
  0
POINT
  5
17A4
330
14BA
100
AcDbEntity
  8
Defpoints
 62
     0
440
 16777216
100
AcDbPoint
 10
197.8855678587437
 20
347.2059449435763
 30
0.0
  0
POINT
  5
17A5
330
14BA
100
AcDbEntity
  8
Defpoints
 62
     0
440
 16777216
100
AcDbPoint
 10
247.0316402703069
 20
459.2845208807426
 30
0.0
  0
POINT
  5
17A6
330
14BA
100
AcDbEntity
  8
Defpoints
 62
     0
440
 16777216
100
AcDbPoint
 10
232.4519959477604
 20
473.8641652032891
 30
0.0
  0
ENDBLK
  5
14C5
330
14BA
100
AcDbEntity
  8
0
100
AcDbBlockEnd
  0
BLOCK
  5
1835
330
1834
100
AcDbEntity
  8
0
100
AcDbBlockBegin
  2
*D18
 70
     1
 10
0.0
 20
0.0
 30
0.0
  3
*D18
  1

  0
LINE
  5
1837
330
1834
100
AcDbEntity
  8
BEM
 62
     0
440
 16777216
370
    -2
100
AcDbLine
 10
295.7475919106504
 20
445.0679689954843
 30
0.0
 11
304.7978831270508
 21
454.1182602118853
 31
0.0
  0
LINE
  5
1838
330
1834
100
AcDbEntity
  8
BEM
 62
     0
440
 16777216
370
    -2
100
AcDbLine
 10
197.8855678587432
 20
443.2977371142717
 30
0.0
 11
197.885567858743
 21
498.4027911807238
 31
0.0
  0
ARC
  5
1839
330
1834
100
AcDbEntity
  8
BEM
 62
     0
440
 16777216
370
    -2
100
AcDbCircle
 10
197.8855678587437
 20
347.2059449435701
 30
0.0
 40
149.1968462371537
100
AcDbArc
 50
47.6884432354362
 51
87.31155676456626
  0
SOLID
  5
183A
330
1834
100
AcDbEntity
  8
BEM
 62
     0
440
 16777216
100
AcDbTrace
 10
299.1245466726999
 20
458.3803996426005
 30
0.0
 11
297.513790182616
 21
456.6922325969271
 31
0.0
 12
303.3836695646777
 22
452.7040466495122
 32
0.0
 13
303.3836695646777
 23
452.7040466495122
 33
0.0
  0
SOLID
  5
183B
330
1834
100
AcDbEntity
  8
BEM
 62
     0
440
 16777216
100
AcDbTrace
 10
204.8562727025959
 20
495.0722329929712
 30
0.0
 11
204.9110102313885
 21
497.404924195721
 31
0.0
 12
197.8855678587429
 22
496.4027911807238
 32
0.0
 13
197.8855678587429
 23
496.4027911807238
 33
0.0
  0
MTEXT
  5
183C
330
1834
100
AcDbEntity
  8
BEM
 62
     1
440
 16777216
100
AcDbMText
 10
257.4681713851942
 20
491.0510744586347
 30
0.0
 40
7.0
 41
0.0
 71
     5
 72
     1
  1
\A1;45\U+00B0
 11
0.9238795325112951
 21
-0.3826834323650698
 31
0.0
 73
     1
 44
1.0
  0
POINT
  5
183D
330
1834
100
AcDbEntity
  8
Defpoints
 62
     0
440
 16777216
100
AcDbPoint
 10
272.4839909773171
 20
476.414203949468
 30
0.0
  0
POINT
  5
183E
330
1834
100
AcDbEntity
  8
Defpoints
 62
     0
440
 16777216
100
AcDbPoint
 10
197.8855678587436
 20
349.2059449435762
 30
0.0
  0
POINT
  5
183F
330
1834
100
AcDbEntity
  8
Defpoints
 62
     0
440
 16777216
100
AcDbPoint
 10
283.4476395014139
 20
432.7680165862469
 30
0.0
  0
POINT
  5
1840
330
1834
100
AcDbEntity
  8
Defpoints
 62
     0
440
 16777216
100
AcDbPoint
 10
294.3333783482773
 20
443.6537554331112
 30
0.0
  0
POINT
  5
1841
330
1834
100
AcDbEntity
  8
Defpoints
 62
     0
440
 16777216
100
AcDbPoint
 10
197.8855678587433
 20
441.2977371142717
 30
0.0
  0
ENDBLK
  5
1836
330
1834
100
AcDbEntity
  8
0
100
AcDbBlockEnd
  0
ENDSEC
  0
SECTION
  2
ENTITIES
  0
LINE
  5
57
330
1E
100
AcDbEntity
  8
STEMPEL
100
AcDbLine
 10
410.0
 20
110.0
 30
0.0
 11
39.99999999999997
 21
110.0
 31
0.0
  0
LINE
  5
58
330
1E
100
AcDbEntity
  8
STEMPEL
100
AcDbLine
 10
146.0000000000001
 20
109.9999999999999
 30
0.0
 11
146.0
 21
9.999999999999971
 31
0.0
  0
LINE
  5
59
330
1E
100
AcDbEntity
  8
STEMPEL
100
AcDbLine
 10
230.0
 20
110.0
 30
0.0
 11
230.0
 21
9.999999999999971
 31
0.0
  0
LINE
  5
5A
330
1E
100
AcDbEntity
  8
STEMPEL
100
AcDbLine
 10
332.0
 20
109.9999999999997
 30
0.0
 11
332.0
 21
40.0
 31
0.0
  0
LINE
  5
5B
330
1E
100
AcDbEntity
  8
STEMPEL
100
AcDbLine
 10
145.9999999999999
 20
29.99999999999997
 30
0.0
 11
39.99999999999997
 21
29.99999999999997
 31
0.0
  0
LINE
  5
5C
330
1E
100
AcDbEntity
  8
STEMPEL
100
AcDbLine
 10
410.0
 20
40.0
 30
0.0
 11
146.0000000000001
 21
39.99999999999997
 31
0.0
  0
LINE
  5
5D
330
1E
100
AcDbEntity
  8
STEMPEL
100
AcDbLine
 10
410.0
 20
80.0
 30
0.0
 11
146.0000000000001
 21
79.99999999999994
 31
0.0
  0
LINE
  5
5E
330
1E
100
AcDbEntity
  8
VOLL
100
AcDbLine
 10
54.00000000000009
 20
110.0
 30
0.0
 11
53.99999999999997
 21
9.999999999999971
 31
0.0
  0
LINE
  5
5F
330
1E
100
AcDbEntity
  8
VOLL
100
AcDbLine
 10
104.0000000000001
 20
109.9999999999999
 30
0.0
 11
104.0
 21
9.999999999999971
 31
0.0
  0
LINE
  5
60
330
1E
100
AcDbEntity
  8
VOLL
100
AcDbLine
 10
124.0000000000001
 20
109.9999999999999
 30
0.0
 11
124.0
 21
9.999999999999971
 31
0.0
  0
LINE
  5
61
330
1E
100
AcDbEntity
  8
VOLL
100
AcDbLine
 10
164.0000000000001
 20
79.99999999999994
 30
0.0
 11
164.0000000000001
 21
39.99999999999997
 31
0.0
  0
LINE
  5
62
330
1E
100
AcDbEntity
  8
VOLL
100
AcDbLine
 10
190.0000000000001
 20
109.9999999999998
 30
0.0
 11
190.0
 21
39.99999999999997
 31
0.0
  0
LINE
  5
63
330
1E
100
AcDbEntity
  8
HILF
100
AcDbLine
 10
40.00000000000008
 20
100.0
 30
0.0
 11
146.0000000000001
 21
100.0
 31
0.0
  0
LINE
  5
64
330
1E
100
AcDbEntity
  8
HILF
100
AcDbLine
 10
40.00000000000008
 20
90.00000000000005
 30
0.0
 11
146.0000000000001
 21
90.00000000000005
 31
0.0
  0
LINE
  5
65
330
1E
100
AcDbEntity
  8
HILF
100
AcDbLine
 10
40.00000000000008
 20
79.99999999999994
 30
0.0
 11
146.0000000000001
 21
79.99999999999994
 31
0.0
  0
LINE
  5
66
330
1E
100
AcDbEntity
  8
HILF
100
AcDbLine
 10
40.00000000000008
 20
69.99999999999994
 30
0.0
 11
146.0000000000001
 21
69.99999999999994
 31
0.0
  0
LINE
  5
67
330
1E
100
AcDbEntity
  8
HILF
100
AcDbLine
 10
40.00000000000008
 20
59.99999999999997
 30
0.0
 11
146.0000000000001
 21
59.99999999999997
 31
0.0
  0
LINE
  5
68
330
1E
100
AcDbEntity
  8
HILF
100
AcDbLine
 10
40.00000000000008
 20
49.99999999999997
 30
0.0
 11
146.0000000000001
 21
49.99999999999997
 31
0.0
  0
LINE
  5
69
330
1E
100
AcDbEntity
  8
HILF
100
AcDbLine
 10
40.00000000000008
 20
39.99999999999997
 30
0.0
 11
146.0000000000001
 21
39.99999999999997
 31
0.0
  0
LINE
  5
6A
330
1E
100
AcDbEntity
  8
HILF
100
AcDbLine
 10
146.0000000000001
 20
69.99999999999994
 30
0.0
 11
230.0
 21
69.99999999999994
 31
0.0
  0
LINE
  5
6B
330
1E
100
AcDbEntity
  8
HILF
100
AcDbLine
 10
146.0000000000001
 20
59.99999999999997
 30
0.0
 11
230.0
 21
59.99999999999997
 31
0.0
  0
LINE
  5
6C
330
1E
100
AcDbEntity
  8
HILF
100
AcDbLine
 10
146.0000000000001
 20
49.99999999999997
 30
0.0
 11
230.0
 21
49.99999999999997
 31
0.0
  0
LINE
  5
6D
330
1E
100
AcDbEntity
  8
HILF
100
AcDbLine
 10
234.7736801096947
 20
84.03758247564139
 30
0.0
 11
324.8353916556311
 21
84.03758247564139
 31
0.0
  0
LINE
  5
6E
330
1E
100
AcDbEntity
  8
HILF
100
AcDbLine
 10
234.7736801096947
 20
69.99999999999994
 30
0.0
 11
324.835391655631
 21
69.99999999999994
 31
0.0
  0
LINE
  5
6F
330
1E
100
AcDbEntity
  8
HILF
100
AcDbLine
 10
234.7736801096947
 20
59.99999999999997
 30
0.0
 11
324.835391655631
 21
59.99999999999997
 31
0.0
  0
LINE
  5
70
330
1E
100
AcDbEntity
  8
HILF
100
AcDbLine
 10
234.7736801096947
 20
49.99999999999997
 30
0.0
 11
324.835391655631
 21
49.99999999999997
 31
0.0
  0
LINE
  5
71
330
1E
100
AcDbEntity
  8
VOLL
100
AcDbLine
 10
332.0
 20
60.0
 30
0.0
 11
410.0
 21
60.0
 31
0.0
  0
LINE
  5
72
330
1E
100
AcDbEntity
  8
HILF
100
AcDbLine
 10
336.7238616296993
 20
83.77983636955827
 30
0.0
 11
404.8588839326728
 21
83.77983636955827
 31
0.0
  0
LINE
  5
73
330
1E
100
AcDbEntity
  8
HILF
100
AcDbLine
 10
233.4909699289885
 20
14.89398258028314
 30
0.0
 11
404.8588839326728
 21
14.89398258028314
 31
0.0
  0
TEXT
  5
74
330
1E
100
AcDbEntity
  8
TEXT
100
AcDbText
 10
67.79509897490102
 20
18.67381894984132
 30
0.0
 40
4.0
  1
Änderung
 41
0.8
  7
GREEKS
 72
     1
 11
78.53795611775817
 21
18.67381894984132
 31
0.0
100
AcDbText
  0
TEXT
  5
75
330
1E
100
AcDbEntity
  8
TEXT
100
AcDbText
 10
153.5163572150377
 20
102.4620895087088
 30
0.0
 40
5.0
  1
Maßstab
 41
0.8
  7
GREEKS
100
AcDbText
  0
TEXT
  5
76
330
1E
100
AcDbEntity
  8
TEXT
100
AcDbText
 10
194.2858954734051
 20
102.4184168434819
 30
0.0
 40
5.0
  1
Zul. Abw.
 41
0.8
  7
GREEKS
100
AcDbText
  0
TEXT
  5
77
330
1E
100
AcDbEntity
  8
TEXT
100
AcDbText
 10
234.877940380901
 20
102.5489328011779
 30
0.0
 40
5.0
  1
Benennung
 41
0.8
  7
GREEKS
100
AcDbText
  0
TEXT
  5
78
330
1E
100
AcDbEntity
  8
TEXT
100
AcDbText
 10
336.178754957634
 20
102.3132034537136
 30
0.0
 40
5.0
  1
Zeichnungs Nr.
 41
0.8
  7
GREEKS
100
AcDbText
  0
TEXT
  5
79
330
1E
100
AcDbEntity
  8
TEXT
100
AcDbText
 10
234.742238391136
 20
30.84560570193057
 30
0.0
 40
5.0
  1
Bauvorhaben
 41
0.8
  7
GREEKS
100
AcDbText
  0
TEXT
  5
7A
330
1E
100
AcDbEntity
  8
TEXT
100
AcDbText
 10
336.7238616296993
 20
73.1811823709997
 30
0.0
 40
5.0
  1
Ersatz für:
 41
0.8
  7
GREEKS
100
AcDbText
  0
TEXT
  5
7B
330
1E
100
AcDbEntity
  8
TEXT
100
AcDbText
 10
48.26641107045756
 20
13.65465846027192
 30
0.0
 40
4.0
  1
Index
 50
90.0
 41
0.8
  7
GREEKS
100
AcDbText
  0
TEXT
  5
7C
330
1E
100
AcDbEntity
  8
TEXT
100
AcDbText
 10
110.6986119235389
 20
18.6715626933981
 30
0.0
 40
4.0
  1
Tag
 41
0.8
  7
GREEKS
 72
     1
 11
114.4319452568723
 21
18.6715626933981
 31
0.0
100
AcDbText
  0
TEXT
  5
7D
330
1E
100
AcDbEntity
  8
TEXT
100
AcDbText
 10
129.0122744386592
 20
18.59324216966408
 30
0.0
 40
4.0
  1
Name
 41
0.8
  7
GREEKS
 72
     1
 11
135.3360839624688
 21
18.59324216966408
 31
0.0
100
AcDbText
  0
TEXT
  5
7E
330
1E
100
AcDbEntity
  8
TEXT
100
AcDbText
 10
172.331167315365
 20
73.31880501229926
 30
0.0
 40
4.0
  1
Tag
 41
0.8
  7
GREEKS
100
AcDbText
  0
TEXT
  5
7F
330
1E
100
AcDbEntity
  8
TEXT
100
AcDbText
 10
202.4626584226295
 20
73.30961091915225
 30
0.0
 40
4.0
  1
Name
 41
0.8
  7
GREEKS
100
AcDbText
  0
TEXT
  5
80
330
1E
100
AcDbEntity
  8
TEXT
100
AcDbText
 10
147.5836127167615
 20
63.62990369617964
 30
0.0
 40
4.0
  1
Gez.
 41
0.8
  7
GREEKS
100
AcDbText
  0
TEXT
  5
81
330
1E
100
AcDbEntity
  8
TEXT
100
AcDbText
 10
147.5515086571672
 20
53.68926291428377
 30
0.0
 40
4.0
  1
Gepr.
 41
0.8
  7
GREEKS
100
AcDbText
  0
TEXT
  5
82
330
1E
100
AcDbEntity
  8
TEXT
100
AcDbText
 10
147.6006777387303
 20
43.52946389649807
 30
0.0
 40
4.0
  1
Norm.
 41
0.8
  7
GREEKS
100
AcDbText
  0
LINE
  5
83
330
1E
100
AcDbEntity
  8
STEMPEL
100
AcDbLine
 10
49.99999999999989
 20
10.0
 30
0.0
 11
410.0
 21
10.0
 31
0.0
  0
TEXT
  5
84
330
1E
100
AcDbEntity
  8
TEXT
100
AcDbText
 10
337.2400861497006
 20
52.07416177878602
 30
0.0
 40
5.0
  1
ersetzt durch:
 41
0.8
  7
GREEKS
100
AcDbText
  0
LINE
  5
85
330
1E
100
AcDbEntity
  8
STEMPEL
100
AcDbLine
 10
410.0
 20
10.0
 30
0.0
 11
39.99999999999989
 21
10.0
 31
0.0
  0
LINE
  5
86
330
1E
100
AcDbEntity
  8
STEMPEL
100
AcDbLine
 10
410.0
 20
10.0
 30
0.0
 11
410.0
 21
584.0
 31
0.0
  0
LINE
  5
87
330
1E
100
AcDbEntity
  8
STEMPEL
100
AcDbLine
 10
40.0
 20
10.0
 30
0.0
 11
39.99999999999989
 21
584.0
 31
0.0
  0
LINE
  5
88
330
1E
100
AcDbEntity
  8
STEMPEL
100
AcDbLine
 10
410.0
 20
584.0
 30
0.0
 11
39.99999999999989
 21
584.0
 31
0.0
  0
LINE
  5
89
330
1E
100
AcDbEntity
  8
HILF
100
AcDbLine
 10
0.0
 20
0.0
 30
0.0
 11
-0.0000000000001137
 21
594.0
 31
0.0
  0
LINE
  5
8A
330
1E
100
AcDbEntity
  8
HILF
100
AcDbLine
 10
419.9999999999999
 20
594.0000000000002
 30
0.0
 11
0.0
 21
594.0
 31
0.0
  0
LINE
  5
8B
330
1E
100
AcDbEntity
  8
HILF
100
AcDbLine
 10
420.0
 20
0.0
 30
0.0
 11
0.0
 21
0.0
 31
0.0
  0
LINE
  5
8C
330
1E
100
AcDbEntity
  8
HILF
100
AcDbLine
 10
31.08767135713856
 20
297.0
 30
0.0
 11
0.0000000000001137
 21
297.0
 31
0.0
  0
LINE
  5
8E
330
1E
100
AcDbEntity
  8
HILF
100
AcDbLine
 10
420.0
 20
-0.0000000000001137
 30
0.0
 11
419.9999999999999
 21
594.0
 31
0.0
  0
TEXT
  5
8F
330
1E
100
AcDbEntity
  8
VOLL
100
AcDbText
 10
78.07675471698113
 20
31.02594776470585
 30
0.0
 40
1.8
  1

  7
GREEKS
100
AcDbText
  0
TEXT
  5
90
330
1E
100
AcDbEntity
  8
TEXT
100
AcDbText
 10
41.85509950977674
 20
111.6719999999999
 30
0.0
 40
5.0
  1
Erstellt mit AUTOCAD 2004
 41
0.8
  7
GREEKS
100
AcDbText
  0
TEXT
  5
91
330
1E
100
AcDbEntity
  8
TEXT
100
AcDbText
 10
204.4216048581257
 20
63.0896391972351
 30
0.0
 40
4.0
  1
Koeh
 41
0.8
  7
GREEKS
 72
     1
 11
209.6787477152686
 21
63.0896391972351
 31
0.0
100
AcDbText
  0
TEXT
  5
92
330
1E
100
AcDbEntity
  8
TEXT
 62
     1
100
AcDbText
 10
346.7764207350748
 20
88.14901428913959
 30
0.0
 40
7.0
  1
58332050W
 41
0.8
  7
GREEKS
 72
     1
 11
370.7764207350748
 21
88.14901428913959
 31
0.0
100
AcDbText
  0
TEXT
  5
93
330
1E
100
AcDbEntity
  8
TEXT
 62
     1
100
AcDbText
 10
160.5006306481887
 20
88.14901428913959
 30
0.0
 40
7.0
  1
1:2
 41
0.8
  7
GREEKS
100
AcDbText
  0
TEXT
  5
95
330
1E
100
AcDbEntity
  8
TEXT
 62
     1
100
AcDbText
 10
233.4619584850236
 20
87.41748789253779
 30
0.0
 40
7.0
  1
Verbundrohr-Silent DN50
 41
0.7
  7
GREEKS
100
AcDbText
  0
TEXT
  5
98
330
1E
100
AcDbEntity
  8
TEXT
100
AcDbText
 10
235.1296391125315
 20
51.64011943042158
 30
0.0
 40
5.0
  1
EDV-Art.Nr. 58332.050X
 41
0.8
  7
GREEKS
100
AcDbText
  0
TEXT
  5
99
330
1E
100
AcDbEntity
  8
TEXT
100
AcDbText
 10
234.9837501577827
 20
42.62974153022632
 30
0.0
 40
4.0
  1
58332050W.DWG
 41
0.8
  7
GREEKS
100
AcDbText
  0
TEXT
  5
9A
330
1E
100
AcDbEntity
  8
TEXT
100
AcDbText
 10
192.626132208084
 20
90.76363841023022
 30
0.0
 40
4.0
  1
DIN EN1123-2
 41
0.8
  7
GREEKS
 72
     1
 11
209.6166083985602
 21
90.76363841023022
 31
0.0
100
AcDbText
  0
INSERT
  5
9B
330
1E
100
AcDbEntity
  8
STEMPEL
100
AcDbBlockReference
  2
LOGO
 10
150.9955485457794
 20
45.02105276448322
 30
0.0
 41
2.0
 42
2.0
 43
2.0
  0
TEXT
  5
210
330
1E
100
AcDbEntity
  8
TEXT
 62
     1
100
AcDbText
 10
249.8907046801682
 20
196.9713629716657
 30
0.0
 40
7.0
  1
Rohrende leicht eingezogen
 41
0.8
  7
GREEKS
100
AcDbText
  0
TEXT
  5
2C0
330
1E
100
AcDbEntity
  8
BEM
100
AcDbText
 10
417.3022923857165
 20
10.16790107998861
 30
0.0
 40
4.0
  1
Diese Zeichnung ist urheberrechtlich geschützt und bleibt unser Eigentum. Sie darf weder ganz noch teilweise verfielfältigt und nicht an Dritte weitergegeben werden.
 50
90.0
 41
0.8
  7
GREEKS
100
AcDbText
  0
TEXT
  5
77A
330
1E
100
AcDbEntity
  8
TEXT
100
AcDbText
 10
235.1296391125315
 20
71.64011943042154
 30
0.0
 40
5.0
  1
Bogen 45°
 41
0.8
  7
GREEKS
100
AcDbText
  0
TEXT
  5
78C
330
1E
100
AcDbEntity
  8
TEXT
 62
     1
100
AcDbText
 10
255.030129115258
 20
129.7422179729062
 30
0.0
 40
7.0
  1
und innenbeschichtet
 41
0.8
  7
GREEKS
100
AcDbText
  0
TEXT
  5
78D
330
1E
100
AcDbEntity
  8
TEXT
 62
     1
100
AcDbText
 10
199.8811895945471
 20
117.1473825875242
 30
0.0
 40
7.0
  1
Dämmung: 2 K-PU-Schaum
 41
0.8
  7
GREEKS
100
AcDbText
  0
TEXT
  5
78E
330
1E
100
AcDbEntity
  8
TEXT
 62
     1
100
AcDbText
 10
207.3756002392443
 20
141.011271812132
 30
0.0
 40
7.0
  1
Innenrohr: E195 EN10305 feuerverzinkt
 41
0.8
  7
GREEKS
100
AcDbText
  0
TEXT
  5
78F
330
1E
100
AcDbEntity
  8
TEXT
 62
     1
100
AcDbText
 10
203.6033828683802
 20
152.364339848487
 30
0.0
 40
7.0
  1
Außenrohr: E195 EN10305 feuerverzinkt
 41
0.8
  7
GREEKS
100
AcDbText
  0
ARC
  5
1177
102
{ACAD_REACTORS
330
15AF
102
}
330
1E
100
AcDbEntity
  8
STEMPEL
100
AcDbCircle
 10
280.385567858744
 20
313.0333260477964
 30
0.0
 40
56.0
100
AcDbArc
 50
134.9999999999998
 51
180.0
  0
ARC
  5
1178
102
{ACAD_REACTORS
330
15AF
102
}
330
1E
100
AcDbEntity
  8
STEMPEL
100
AcDbCircle
 10
280.385567858744
 20
313.0333260477964
 30
0.0
 40
109.0
100
AcDbArc
 50
135.0000000000019
 51
180.000000000002
  0
ARC
  5
1179
330
1E
100
AcDbEntity
  8
MITTEL
100
AcDbCircle
 10
280.385567858744
 20
313.0333260477964
 30
0.0
 40
82.5
100
AcDbArc
 50
134.9999999999999
 51
180.0
  0
LINE
  5
117B
330
1E
100
AcDbEntity
  8
MITTEL
100
AcDbLine
 10
197.8855678587437
 20
347.2059449435763
 30
0.0
 11
197.8855678587442
 21
238.2029028017738
 31
0.0
  0
LINE
  5
1186
330
1E
100
AcDbEntity
  8
MITTEL
100
AcDbLine
 10
282.0334259390408
 20
431.3538030238738
 30
0.0
 11
197.8855678587437
 21
347.2059449435763
 31
0.0
  0
LINE
  5
1215
330
1E
100
AcDbEntity
  8
STEMPEL
100
AcDbLine
 10
222.885567858744
 20
312.9133260477963
 30
0.0
 11
222.885567858744
 21
248.2029028017675
 31
0.0
  0
LINE
  5
1216
102
{ACAD_REACTORS
330
15AF
102
}
330
1E
100
AcDbEntity
  8
STEMPEL
100
AcDbLine
 10
222.885567858744
 20
313.0333260477964
 30
0.0
 11
222.885567858744
 21
248.2029028017675
 31
0.0
  0
LINE
  5
1217
330
1E
100
AcDbEntity
  8
STEMPEL
100
AcDbLine
 10
224.3855678587439
 20
312.9133260477963
 30
0.0
 11
224.3855678587439
 21
248.1374113874053
 31
0.0
  0
LINE
  5
1218
102
{ACAD_REACTORS
330
15AF
102
}
330
1E
100
AcDbEntity
  8
STEMPEL
100
AcDbLine
 10
224.3855678587439
 20
313.0333260477964
 30
0.0
 11
224.3855678587439
 21
248.1374113874053
 31
0.0
  0
LINE
  5
1219
330
1E
100
AcDbEntity
  8
STEMPEL
100
AcDbLine
 10
240.785567858744
 20
329.4361831177712
 30
0.0
 11
240.7855678587441
 21
273.2029028017735
 31
0.0
  0
LINE
  5
121A
102
{ACAD_REACTORS
330
1422
102
}
330
1E
100
AcDbEntity
  8
STEMPEL
100
AcDbLine
 10
242.3855678587441
 20
328.7734414179741
 30
0.0
 11
242.3855678587441
 21
271.2029028017734
 31
0.0
  0
LINE
  5
121B
330
1E
100
AcDbEntity
  8
STEMPEL
100
AcDbLine
 10
240.2268355468763
 20
289.2029028017737
 30
0.0
 11
224.3855678587443
 21
289.2029028017737
 31
0.0
  0
LINE
  5
121C
330
1E
100
AcDbEntity
  8
STEMPEL
100
AcDbLine
 10
242.3855678587433
 20
273.2029028017735
 30
0.0
 11
240.7855678587441
 21
273.2029028017735
 31
0.0
  0
LINE
  5
121D
330
1E
100
AcDbEntity
  8
STEMPEL
100
AcDbLine
 10
228.3855678587443
 20
279.2029028017737
 30
0.0
 11
224.3855678587443
 21
279.2029028017737
 31
0.0
  0
LINE
  5
121F
330
1E
100
AcDbEntity
  8
STEMPEL
100
AcDbLine
 10
240.7855678587442
 20
273.2029028017738
 30
0.0
 11
240.2268355468763
 21
289.2029028017737
 31
0.0
  0
LINE
  5
1220
330
1E
100
AcDbEntity
  8
STEMPEL
100
AcDbLine
 10
240.2268355468763
 20
289.2029028017737
 30
0.0
 11
224.3855678587443
 21
289.2029028017737
 31
0.0
  0
LINE
  5
1222
330
1E
100
AcDbEntity
  8
STEMPEL
100
AcDbLine
 10
228.3855678587443
 20
279.2029028017737
 30
0.0
 11
224.3855678587443
 21
279.2029028017737
 31
0.0
  0
LINE
  5
1224
330
1E
100
AcDbEntity
  8
STEMPEL
100
AcDbLine
 10
240.7855678587442
 20
273.2029028017738
 30
0.0
 11
240.2268355468763
 21
289.2029028017737
 31
0.0
  0
LINE
  5
1225
330
1E
100
AcDbEntity
  8
STEMPEL
100
AcDbLine
 10
172.8855678587438
 20
312.9133260477963
 30
0.0
 11
172.8855678587438
 21
248.2029028017737
 31
0.0
  0
LINE
  5
1226
330
1E
100
AcDbEntity
  8
STEMPEL
100
AcDbLine
 10
171.3855678587497
 20
312.9133260477926
 30
0.0
 11
171.385567858752
 21
248.1374113873179
 31
0.0
  0
LINE
  5
1227
102
{ACAD_REACTORS
330
15AF
102
}
330
1E
100
AcDbEntity
  8
STEMPEL
100
AcDbLine
 10
172.8855678587438
 20
313.0333260477964
 30
0.0
 11
172.8855678587438
 21
248.2029028017737
 31
0.0
  0
LINE
  5
1228
102
{ACAD_REACTORS
330
15AF
102
}
330
1E
100
AcDbEntity
  8
STEMPEL
100
AcDbLine
 10
171.3855678587498
 20
313.0333260477926
 30
0.0
 11
171.385567858752
 21
248.1374113873179
 31
0.0
  0
LINE
  5
1229
330
1E
100
AcDbEntity
  8
STEMPEL
100
AcDbLine
 10
154.9855678587441
 20
364.9757067693824
 30
0.0
 11
154.9855678587443
 21
273.2029028017738
 31
0.0
  0
LINE
  5
122A
330
1E
100
AcDbEntity
  8
STEMPEL
100
AcDbLine
 10
155.5443001706122
 20
289.2029028017737
 30
0.0
 11
171.3855678587442
 21
289.2029028017737
 31
0.0
  0
LINE
  5
122C
330
1E
100
AcDbEntity
  8
STEMPEL
100
AcDbLine
 10
154.9855678587443
 20
273.2029028017739
 30
0.0
 11
153.3855678587434
 21
273.2029028017739
 31
0.0
  0
LINE
  5
122D
330
1E
100
AcDbEntity
  8
STEMPEL
100
AcDbLine
 10
154.9855678587443
 20
273.2029028017738
 30
0.0
 11
155.5443001706122
 21
289.2029028017737
 31
0.0
  0
LINE
  5
122E
330
1E
100
AcDbEntity
  8
STEMPEL
100
AcDbLine
 10
167.3855678587442
 20
279.2029028017737
 30
0.0
 11
171.3855678587442
 21
279.2029028017737
 31
0.0
  0
LINE
  5
122F
330
1E
100
AcDbEntity
  8
STEMPEL
100
AcDbLine
 10
155.5443001706122
 20
289.2029028017737
 30
0.0
 11
171.3855678587442
 21
289.2029028017737
 31
0.0
  0
LINE
  5
1232
330
1E
100
AcDbEntity
  8
STEMPEL
100
AcDbLine
 10
154.9855678587443
 20
273.2029028017738
 30
0.0
 11
155.5443001706122
 21
289.2029028017737
 31
0.0
  0
LINE
  5
1233
330
1E
100
AcDbEntity
  8
STEMPEL
100
AcDbLine
 10
167.3855678587442
 20
279.2029028017737
 30
0.0
 11
171.3855678587442
 21
279.2029028017737
 31
0.0
  0
LINE
  5
1234
102
{ACAD_REACTORS
330
1422
102
}
330
1E
100
AcDbEntity
  8
STEMPEL
100
AcDbLine
 10
153.3855678587442
 20
365.6384484691798
 30
0.0
 11
153.3855678587442
 21
271.2029028017739
 31
0.0
  0
DIMENSION
  5
1238
330
1E
100
AcDbEntity
  8
BEM
100
AcDbDimension
  2
*D4
 10
224.3855678587439
 20
222.9163086945681
 30
0.0
 11
197.8855678587479
 21
229.4163086945681
 31
0.0
 70
    32
  1
%%c<>
 71
     5
 42
52.99999999999193
  3
Standard
100
AcDbAlignedDimension
 13
171.385567858752
 23
248.1374113873179
 33
0.0
 14
224.3855678587439
 24
248.1374113874053
 34
0.0
100
AcDbRotatedDimension
1001
ACAD
1000
DSTYLE
1002
{
1070
    40
1040
2.0
1070
    41
1040
3.5
1070
    42
1040
1.0
1070
    43
1040
7.0
1070
    44
1040
1.0
1070
    73
1070
     0
1070
    74
1070
     0
1070
    77
1070
     1
1070
    78
1070
     8
1070
    79
1070
     2
1070
   140
1040
3.5
1070
   141
1040
1.5
1070
   146
1040
0.5142857142857144
1070
   147
1040
1.5
1070
   172
1070
     1
1070
   178
1070
     1
1070
   179
1070
     2
1070
   271
1070
     2
1070
   272
1070
     2
1070
   284
1070
     8
1070
   285
1070
     8
1070
   286
1070
     8
1070
   289
1070
     0
1070
   340
1005
24
1002
}
  0
DIMENSION
  5
1239
330
1E
100
AcDbEntity
  8
BEM
100
AcDbDimension
  2
*D3
 10
224.3855678587439
 20
222.9163086945681
 30
0.0
 11
197.8855678587479
 21
229.4163086945681
 31
0.0
 70
    32
  1
%%c<>
 71
     5
 42
52.99999999999193
  3
Standard
100
AcDbAlignedDimension
 13
171.385567858752
 23
248.1374113873179
 33
0.0
 14
224.3855678587439
 24
248.1374113874053
 34
0.0
100
AcDbRotatedDimension
1001
ACAD
1000
DSTYLE
1002
{
1070
    40
1040
2.0
1070
    41
1040
3.5
1070
    42
1040
1.0
1070
    43
1040
7.0
1070
    44
1040
1.0
1070
    73
1070
     0
1070
    74
1070
     0
1070
    77
1070
     1
1070
    78
1070
     8
1070
    79
1070
     2
1070
   140
1040
3.5
1070
   141
1040
1.5
1070
   146
1040
0.5142857142857144
1070
   147
1040
1.5
1070
   172
1070
     1
1070
   178
1070
     1
1070
   179
1070
     2
1070
   271
1070
     2
1070
   272
1070
     2
1070
   284
1070
     8
1070
   285
1070
     8
1070
   286
1070
     8
1070
   289
1070
     0
1070
   340
1005
24
1002
}
  0
LINE
  5
123A
330
1E
100
AcDbEntity
  8
HILF
100
AcDbLine
 10
221.3798381024295
 20
248.2029028017737
 30
0.0
 11
174.3912976150587
 21
248.2029028017736
 31
0.0
  0
LINE
  5
123B
330
1E
100
AcDbEntity
  8
STEMPEL
100
AcDbLine
 10
223.9538542974299
 20
243.2029028017737
 30
0.0
 11
171.8172814200586
 21
243.2029028017737
 31
0.0
  0
LINE
  5
123C
330
1E
100
AcDbEntity
  8
STEMPEL
100
AcDbLine
 10
171.385567858752
 20
248.1374113873179
 30
0.0
 11
171.8172814200586
 21
243.2029028017737
 31
0.0
  0
LINE
  5
123D
330
1E
100
AcDbEntity
  8
STEMPEL
100
AcDbLine
 10
172.8855678587438
 20
248.2029028017738
 30
0.0
 11
173.3230111763735
 21
243.2029028017737
 31
0.0
  0
LINE
  5
123E
330
1E
100
AcDbEntity
  8
STEMPEL
100
AcDbLine
 10
222.885567858744
 20
248.2029028017675
 30
0.0
 11
222.448124541115
 21
243.2029028017737
 31
0.0
  0
LINE
  5
123F
330
1E
100
AcDbEntity
  8
STEMPEL
100
AcDbLine
 10
224.3855678587439
 20
248.1374113874053
 30
0.0
 11
223.9538542974299
 21
243.2029028017737
 31
0.0
  0
LINE
  5
1240
330
1E
100
AcDbEntity
  8
HILF
100
AcDbLine
 10
221.3798381024295
 20
248.2029028017737
 30
0.0
 11
174.3912976150587
 21
248.2029028017736
 31
0.0
  0
LINE
  5
1241
102
{ACAD_REACTORS
330
15AF
102
}
330
1E
100
AcDbEntity
  8
STEMPEL
100
AcDbLine
 10
223.9538542974299
 20
243.2029028017737
 30
0.0
 11
171.8172814200586
 21
243.2029028017737
 31
0.0
  0
LINE
  5
1242
102
{ACAD_REACTORS
330
15AF
102
}
330
1E
100
AcDbEntity
  8
STEMPEL
100
AcDbLine
 10
171.385567858752
 20
248.1374113873179
 30
0.0
 11
171.8172814200586
 21
243.2029028017737
 31
0.0
  0
LINE
  5
1243
102
{ACAD_REACTORS
330
15AF
102
}
330
1E
100
AcDbEntity
  8
STEMPEL
100
AcDbLine
 10
172.8855678587438
 20
248.2029028017738
 30
0.0
 11
173.3230111763735
 21
243.2029028017737
 31
0.0
  0
LINE
  5
1244
102
{ACAD_REACTORS
330
15AF
102
}
330
1E
100
AcDbEntity
  8
STEMPEL
100
AcDbLine
 10
222.885567858744
 20
248.2029028017675
 30
0.0
 11
222.448124541115
 21
243.2029028017737
 31
0.0
  0
LINE
  5
1245
102
{ACAD_REACTORS
330
15AF
102
}
330
1E
100
AcDbEntity
  8
STEMPEL
100
AcDbLine
 10
224.3855678587439
 20
248.1374113874053
 30
0.0
 11
223.9538542974299
 21
243.2029028017737
 31
0.0
  0
LINE
  5
12B9
102
{ACAD_REACTORS
330
15DC
330
15F6
102
}
330
1E
100
AcDbEntity
  8
STEMPEL
100
AcDbLine
 10
248.1630111202053
 20
458.153150030844
 30
0.0
 11
154.9855678587441
 21
364.9757067693824
 31
0.0
  0
LINE
  5
12BA
102
{ACAD_REACTORS
330
1422
330
15DC
102
}
330
1E
100
AcDbEntity
  8
STEMPEL
100
AcDbLine
 10
247.0316402703069
 20
459.2845208807426
 30
0.0
 11
153.3855678587442
 21
365.6384484691798
 31
0.0
  0
ARC
  5
12BB
330
1E
100
AcDbEntity
  8
STEMPEL
100
AcDbCircle
 10
243.0777303124494
 20
417.1468447388113
 30
0.0
 40
10.5
100
AcDbArc
 50
134.9999999999999
 51
166.7883306170488
  0
LINE
  5
12BC
330
1E
100
AcDbEntity
  8
STEMPEL
100
AcDbLine
 10
232.8895046465759
 20
419.6865411342957
 30
0.0
 11
232.8867812554422
 21
419.6838177431619
 31
0.0
  0
ARC
  5
12BD
330
1E
100
AcDbEntity
  8
STEMPEL
100
AcDbCircle
 10
264.8238610985229
 20
423.3366263387806
 30
0.0
 40
25.00003205712822
100
AcDbArc
 50
134.9082450082427
 51
154.4630994446846
  0
ARC
  5
12BE
330
1E
100
AcDbEntity
  8
STEMPEL
100
AcDbCircle
 10
264.085287116169
 20
430.3762269494787
 30
0.0
 40
19.5
100
AcDbArc
 50
109.5405714311904
 51
134.9999999999999
  0
LINE
  5
12BF
330
1E
100
AcDbEntity
  8
STEMPEL
100
AcDbLine
 10
250.2967048830312
 20
444.1648091826166
 30
0.0
 11
247.1745010852387
 21
441.042605384824
 31
0.0
  0
LINE
  5
12C0
330
1E
100
AcDbEntity
  8
STEMPEL
100
AcDbLine
 10
246.3436164550547
 20
440.1735548227713
 30
0.0
 11
238.2635161835938
 21
448.2536550942323
 31
0.0
  0
LINE
  5
12C1
330
1E
100
AcDbEntity
  8
STEMPEL
100
AcDbLine
 10
251.357365054811
 20
443.1041490108366
 30
0.0
 11
248.234298835687
 21
439.9810827917128
 31
0.0
  0
ARC
  5
12C2
330
1E
100
AcDbEntity
  8
STEMPEL
100
AcDbCircle
 10
233.2430580371694
 20
438.4248708357392
 30
0.0
 40
10.0
100
AcDbArc
 50
314.9999999999999
 51
334.4630994446846
  0
ARC
  5
12C3
330
1E
100
AcDbEntity
  8
STEMPEL
100
AcDbCircle
 10
233.2430580371694
 20
438.4248708357392
 30
0.0
 40
11.5
100
AcDbArc
 50
314.9999999999999
 51
334.4630994446846
  0
LINE
  5
12C4
330
1E
100
AcDbEntity
  8
STEMPEL
100
AcDbLine
 10
241.3747860208145
 20
430.293142852094
 30
0.0
 11
235.6531091099907
 21
424.5714659412702
 31
0.0
  0
LINE
  5
12C5
330
1E
100
AcDbEntity
  8
STEMPEL
100
AcDbLine
 10
240.3141258490347
 20
431.353803023874
 30
0.0
 11
234.5924489382109
 21
425.63212611305
 31
0.0
  0
LINE
  5
12C6
330
1E
100
AcDbEntity
  8
STEMPEL
100
AcDbLine
 10
248.2068517406389
 20
439.9536356966646
 30
0.0
 11
248.2068290728262
 21
439.9536583644773
 31
0.0
  0
ARC
  5
12C7
330
1E
100
AcDbEntity
  8
STEMPEL
100
AcDbCircle
 10
264.8238610985229
 20
423.3366263387806
 30
0.0
 40
23.5000320571282
100
AcDbArc
 50
134.9053619552029
 51
154.4630994446846
  0
ARC
  5
12C8
330
1E
100
AcDbEntity
  8
STEMPEL
100
AcDbCircle
 10
264.085287116169
 20
430.3762269494787
 30
0.0
 40
18.0
100
AcDbArc
 50
110.0000000000006
 51
134.9999999999999
  0
LINE
  5
12C9
330
1E
100
AcDbEntity
  8
STEMPEL
100
AcDbLine
 10
257.5625498493508
 20
448.7536113016984
 30
0.0
 11
257.4158943213183
 21
448.7002330548039
 31
0.0
  0
LINE
  5
12CA
330
1E
100
AcDbEntity
  8
STEMPEL
100
AcDbLine
 10
258.7328588624157
 20
447.5833022886336
 30
0.0
 11
257.9289245363075
 21
447.2906941236254
 31
0.0
  0
ARC
  5
12CB
102
{ACAD_REACTORS
330
15AF
102
}
330
1E
100
AcDbEntity
  8
STEMPEL
100
AcDbCircle
 10
243.0777303124494
 20
417.1468447388113
 30
0.0
 40
10.5
100
AcDbArc
 50
134.9999999999999
 51
166.7883306170488
  0
LINE
  5
12CC
102
{ACAD_REACTORS
330
15AF
102
}
330
1E
100
AcDbEntity
  8
STEMPEL
100
AcDbLine
 10
232.8895046465759
 20
419.6865411342957
 30
0.0
 11
232.8867812554422
 21
419.6838177431619
 31
0.0
  0
ARC
  5
12CD
102
{ACAD_REACTORS
330
15AF
330
15F6
102
}
330
1E
100
AcDbEntity
  8
STEMPEL
100
AcDbCircle
 10
264.8238610985229
 20
423.3366263387806
 30
0.0
 40
25.00003205712822
100
AcDbArc
 50
134.9082450082427
 51
154.4630994446846
  0
ARC
  5
12CE
102
{ACAD_REACTORS
330
15AF
330
15F6
102
}
330
1E
100
AcDbEntity
  8
STEMPEL
100
AcDbCircle
 10
264.085287116169
 20
430.3762269494787
 30
0.0
 40
19.5
100
AcDbArc
 50
109.5405714311904
 51
134.9999999999999
  0
LINE
  5
12CF
102
{ACAD_REACTORS
330
15AF
330
15F6
102
}
330
1E
100
AcDbEntity
  8
STEMPEL
100
AcDbLine
 10
250.2967048830312
 20
444.1648091826166
 30
0.0
 11
247.1745010852387
 21
441.042605384824
 31
0.0
  0
LINE
  5
12D0
102
{ACAD_REACTORS
330
15F6
102
}
330
1E
100
AcDbEntity
  8
STEMPEL
100
AcDbLine
 10
246.3436164550547
 20
440.1735548227713
 30
0.0
 11
238.2635161835938
 21
448.2536550942323
 31
0.0
  0
LINE
  5
12D1
102
{ACAD_REACTORS
330
15AF
102
}
330
1E
100
AcDbEntity
  8
STEMPEL
100
AcDbLine
 10
251.357365054811
 20
443.1041490108366
 30
0.0
 11
248.234298835687
 21
439.9810827917128
 31
0.0
  0
ARC
  5
12D2
102
{ACAD_REACTORS
330
15AF
102
}
330
1E
100
AcDbEntity
  8
STEMPEL
100
AcDbCircle
 10
233.2430580371694
 20
438.4248708357392
 30
0.0
 40
10.0
100
AcDbArc
 50
314.9999999999999
 51
334.4630994446846
  0
ARC
  5
12D3
102
{ACAD_REACTORS
330
15AF
102
}
330
1E
100
AcDbEntity
  8
STEMPEL
100
AcDbCircle
 10
233.2430580371694
 20
438.4248708357392
 30
0.0
 40
11.5
100
AcDbArc
 50
314.9999999999999
 51
334.4630994446846
  0
LINE
  5
12D4
102
{ACAD_REACTORS
330
15AF
102
}
330
1E
100
AcDbEntity
  8
STEMPEL
100
AcDbLine
 10
241.3747860208145
 20
430.293142852094
 30
0.0
 11
235.6531091099907
 21
424.5714659412702
 31
0.0
  0
LINE
  5
12D5
102
{ACAD_REACTORS
330
15AF
102
}
330
1E
100
AcDbEntity
  8
STEMPEL
100
AcDbLine
 10
240.3141258490347
 20
431.353803023874
 30
0.0
 11
234.5924489382109
 21
425.63212611305
 31
0.0
  0
LINE
  5
12D6
330
1E
100
AcDbEntity
  8
STEMPEL
100
AcDbLine
 10
248.2068517406389
 20
439.9536356966646
 30
0.0
 11
248.2068290728262
 21
439.9536583644773
 31
0.0
  0
ARC
  5
12D7
102
{ACAD_REACTORS
330
15AF
102
}
330
1E
100
AcDbEntity
  8
STEMPEL
100
AcDbCircle
 10
264.8238610985229
 20
423.3366263387806
 30
0.0
 40
23.5000320571282
100
AcDbArc
 50
134.9053619552029
 51
154.4630994446846
  0
ARC
  5
12D8
102
{ACAD_REACTORS
330
15AF
102
}
330
1E
100
AcDbEntity
  8
STEMPEL
100
AcDbCircle
 10
264.085287116169
 20
430.3762269494787
 30
0.0
 40
18.0
100
AcDbArc
 50
110.0000000000006
 51
134.9999999999999
  0
LINE
  5
12D9
102
{ACAD_REACTORS
330
15F6
102
}
330
1E
100
AcDbEntity
  8
STEMPEL
100
AcDbLine
 10
257.5625498493508
 20
448.7536113016984
 30
0.0
 11
257.4158943213183
 21
448.7002330548039
 31
0.0
  0
LINE
  5
12DA
102
{ACAD_REACTORS
330
15AF
102
}
330
1E
100
AcDbEntity
  8
STEMPEL
100
AcDbLine
 10
258.7328588624157
 20
447.5833022886336
 30
0.0
 11
257.9289245363075
 21
447.2906941236254
 31
0.0
  0
DIMENSION
  5
12DB
330
1E
100
AcDbEntity
  8
BEM
100
AcDbDimension
  2
*D10
 10
318.7285622992141
 20
405.1164358584448
 30
0.0
 11
291.8585046141246
 21
441.1788816989581
 31
0.0
 70
    32
  1
%%c<>
 71
     5
 42
88.99999999999995
  3
Standard
100
AcDbAlignedDimension
 13
247.0316402703069
 23
459.2845208807426
 33
0.0
 14
309.9641437959094
 24
396.3520173551397
 34
0.0
 50
315.0000000000013
100
AcDbRotatedDimension
1001
ACAD
1000
DSTYLE
1002
{
1070
    40
1040
2.0
1070
    41
1040
3.5
1070
    42
1040
1.0
1070
    43
1040
7.0
1070
    44
1040
1.0
1070
    73
1070
     0
1070
    74
1070
     0
1070
    77
1070
     1
1070
    78
1070
     8
1070
    79
1070
     2
1070
   140
1040
3.5
1070
   141
1040
1.5
1070
   146
1040
0.5142857142857144
1070
   147
1040
1.5
1070
   172
1070
     1
1070
   178
1070
     1
1070
   179
1070
     2
1070
   271
1070
     2
1070
   272
1070
     2
1070
   284
1070
     8
1070
   285
1070
     8
1070
   286
1070
     8
1070
   289
1070
     0
1070
   340
1005
24
1002
}
  0
DIMENSION
  5
12DE
330
1E
100
AcDbEntity
  8
BEM
100
AcDbDimension
  2
*D7
 10
318.7285622992141
 20
405.1164358584448
 30
0.0
 11
291.8585046141246
 21
441.1788816989581
 31
0.0
 70
    32
  1
%%c<>
 71
     5
 42
88.99999999999995
  3
Standard
100
AcDbAlignedDimension
 13
247.0316402703069
 23
459.2845208807426
 33
0.0
 14
309.9641437959094
 24
396.3520173551397
 34
0.0
 50
315.0000000000013
100
AcDbRotatedDimension
1001
ACAD
1000
DSTYLE
1002
{
1070
    40
1040
2.0
1070
    41
1040
3.5
1070
    42
1040
1.0
1070
    43
1040
7.0
1070
    44
1040
1.0
1070
    73
1070
     0
1070
    74
1070
     0
1070
    77
1070
     1
1070
    78
1070
     8
1070
    79
1070
     2
1070
   140
1040
3.5
1070
   141
1040
1.5
1070
   146
1040
0.5142857142857144
1070
   147
1040
1.5
1070
   172
1070
     1
1070
   178
1070
     1
1070
   179
1070
     2
1070
   271
1070
     2
1070
   272
1070
     2
1070
   284
1070
     8
1070
   285
1070
     8
1070
   286
1070
     8
1070
   289
1070
     0
1070
   340
1005
24
1002
}
  0
LINE
  5
12E1
330
1E
100
AcDbEntity
  8
HILF
100
AcDbLine
 10
233.0042379174421
 20
416.0000068869645
 30
0.0
 11
266.6796298021316
 21
382.324615002275
 31
0.0
  0
LINE
  5
12E2
330
1E
100
AcDbEntity
  8
HILF
100
AcDbLine
 10
235.014022277373
 20
421.1439202603702
 30
0.0
 11
271.8235431755372
 21
384.334399362206
 31
0.0
  0
LINE
  5
12E3
330
1E
100
AcDbEntity
  8
HILF
100
AcDbLine
 10
243.7066233932057
 20
430.7103520536016
 30
0.0
 11
281.3899749687688
 21
393.0270004780385
 31
0.0
  0
ARC
  5
12E4
330
1E
100
AcDbEntity
  8
STEMPEL
100
AcDbCircle
 10
243.0777303124494
 20
417.1468447388113
 30
0.0
 40
12.0
100
AcDbArc
 50
134.9999999999999
 51
166.7883306170488
  0
ARC
  5
12E5
330
1E
100
AcDbEntity
  8
STEMPEL
100
AcDbCircle
 10
223.6070828194026
 20
421.7178278061072
 30
0.0
 40
8.0
100
AcDbArc
 50
314.9999999999999
 51
346.7883306170488
  0
ARC
  5
12E6
330
1E
100
AcDbEntity
  8
STEMPEL
100
AcDbCircle
 10
223.6070828194024
 20
421.7178278061069
 30
0.0
 40
9.5
100
AcDbArc
 50
314.9999999999999
 51
346.7883306170488
  0
LINE
  5
12E7
330
1E
100
AcDbEntity
  8
HILF
100
AcDbLine
 10
233.0042379174421
 20
416.0000068869645
 30
0.0
 11
266.6796298021316
 21
382.324615002275
 31
0.0
  0
LINE
  5
12E8
330
1E
100
AcDbEntity
  8
HILF
100
AcDbLine
 10
235.014022277373
 20
421.1439202603702
 30
0.0
 11
271.8235431755372
 21
384.334399362206
 31
0.0
  0
LINE
  5
12E9
330
1E
100
AcDbEntity
  8
HILF
100
AcDbLine
 10
243.7066233932057
 20
430.7103520536016
 30
0.0
 11
281.3899749687688
 21
393.0270004780385
 31
0.0
  0
LINE
  5
12EA
102
{ACAD_REACTORS
330
15AF
102
}
330
1E
100
AcDbEntity
  8
STEMPEL
100
AcDbLine
 10
230.3245972406746
 20
415.0003133848348
 30
0.0
 11
204.3715888811904
 21
389.0473050253508
 31
0.0
  0
LINE
  5
12EB
102
{ACAD_REACTORS
330
15AF
102
}
330
1E
100
AcDbEntity
  8
STEMPEL
100
AcDbLine
 10
229.2639370688949
 20
416.0609735566147
 30
0.0
 11
203.3109287094085
 21
390.1079651971266
 31
0.0
  0
ARC
  5
12EC
102
{ACAD_REACTORS
330
15AF
102
}
330
1E
100
AcDbEntity
  8
STEMPEL
100
AcDbCircle
 10
243.0777303124494
 20
417.1468447388113
 30
0.0
 40
12.0
100
AcDbArc
 50
134.9999999999999
 51
166.7883306170488
  0
ARC
  5
12ED
102
{ACAD_REACTORS
330
15AF
102
}
330
1E
100
AcDbEntity
  8
STEMPEL
100
AcDbCircle
 10
223.6070828194026
 20
421.7178278061072
 30
0.0
 40
8.0
100
AcDbArc
 50
314.9999999999999
 51
346.7883306170488
  0
ARC
  5
12EE
102
{ACAD_REACTORS
330
15AF
102
}
330
1E
100
AcDbEntity
  8
STEMPEL
100
AcDbCircle
 10
223.6070828194024
 20
421.7178278061069
 30
0.0
 40
9.5
100
AcDbArc
 50
314.9999999999999
 51
346.7883306170488
  0
TEXT
  5
12EF
330
1E
100
AcDbEntity
  8
TEXT
 62
     1
100
AcDbText
 10
227.5975706602917
 20
384.3809675437377
 30
0.0
 40
7.0
  1
DN50
 50
45.00000000000001
 41
0.8
  7
GREEKS
100
AcDbText
  0
LINE
  5
12F0
330
1E
100
AcDbEntity
  8
STEMPEL
100
AcDbLine
 10
309.9641437959094
 20
396.3520173551397
 30
0.0
 11
247.0316402703069
 21
459.2845208807426
 31
0.0
  0
LINE
  5
12F1
102
{ACAD_REACTORS
330
15AF
102
}
330
1E
100
AcDbEntity
  8
STEMPEL
100
AcDbLine
 10
265.6799363000021
 20
379.6449743255076
 30
0.0
 11
239.7269279405174
 21
353.691965966023
 31
0.0
  0
LINE
  5
12F2
102
{ACAD_REACTORS
330
1422
330
15DC
102
}
330
1E
100
AcDbEntity
  8
STEMPEL
100
AcDbLine
 10
309.9641437959094
 20
396.3520173551397
 30
0.0
 11
242.3855678587441
 21
328.7734414179741
 31
0.0
  0
ARC
  5
12F3
330
1E
100
AcDbEntity
  8
STEMPEL
100
AcDbCircle
 10
267.8264676539786
 20
392.3981073972822
 30
0.0
 40
12.0
100
AcDbArc
 50
283.2116693829511
 51
314.9999999999999
  0
ARC
  5
12F4
330
1E
100
AcDbEntity
  8
STEMPEL
100
AcDbCircle
 10
267.8264676539786
 20
392.3981073972822
 30
0.0
 40
10.5
100
AcDbArc
 50
283.2116693829511
 51
314.9999999999999
  0
ARC
  5
12F5
330
1E
100
AcDbEntity
  8
STEMPEL
100
AcDbCircle
 10
272.3974507212744
 20
372.9274599042353
 30
0.0
 40
9.5
100
AcDbArc
 50
103.211669382951
 51
134.9999999999999
  0
LINE
  5
12F6
330
1E
100
AcDbEntity
  8
STEMPEL
100
AcDbLine
 10
270.366164049463
 20
382.2098817314087
 30
0.0
 11
270.3634406583292
 21
382.2071583402749
 31
0.0
  0
ARC
  5
12F7
330
1E
100
AcDbEntity
  8
STEMPEL
100
AcDbCircle
 10
272.3974507212744
 20
372.9274599042353
 30
0.0
 40
8.0
100
AcDbArc
 50
103.211669382951
 51
134.9999999999999
  0
LINE
  5
12F8
330
1E
100
AcDbEntity
  8
STEMPEL
100
AcDbLine
 10
298.9332780093992
 20
387.5838932684265
 30
0.0
 11
290.8531777379383
 21
395.6639935398876
 31
0.0
  0
LINE
  5
12F9
330
1E
100
AcDbEntity
  8
STEMPEL
100
AcDbLine
 10
294.8444320977838
 20
399.6170819678642
 30
0.0
 11
291.7222282999912
 21
396.4948781700717
 31
0.0
  0
LINE
  5
12FA
330
1E
100
AcDbEntity
  8
STEMPEL
100
AcDbLine
 10
293.7837719260039
 20
400.6777421396439
 30
0.0
 11
290.66070570688
 21
397.5546759205199
 31
0.0
  0
ARC
  5
12FB
330
1E
100
AcDbEntity
  8
STEMPEL
100
AcDbCircle
 10
289.1044937509066
 20
382.5634351220019
 30
0.0
 40
11.5
100
AcDbArc
 50
115.5369005553154
 51
134.9999999999999
  0
ARC
  5
12FC
330
1E
100
AcDbEntity
  8
STEMPEL
100
AcDbCircle
 10
289.1044937509066
 20
382.5634351220019
 30
0.0
 40
10.0
100
AcDbArc
 50
115.5369005553154
 51
134.9999999999999
  0
LINE
  5
12FD
330
1E
100
AcDbEntity
  8
STEMPEL
100
AcDbLine
 10
280.9727657672613
 20
390.6951631056475
 30
0.0
 11
275.2510888564375
 21
384.9734861948235
 31
0.0
  0
LINE
  5
12FE
330
1E
100
AcDbEntity
  8
STEMPEL
100
AcDbLine
 10
282.033425939041
 20
389.6345029338676
 30
0.0
 11
276.3117490282173
 21
383.9128260230437
 31
0.0
  0
ARC
  5
12FF
330
1E
100
AcDbEntity
  8
STEMPEL
100
AcDbCircle
 10
274.0162492539481
 20
414.1442381833556
 30
0.0
 40
23.5000320571282
100
AcDbArc
 50
295.5369005553153
 51
315.094638044797
  0
ARC
  5
1300
330
1E
100
AcDbEntity
  8
STEMPEL
100
AcDbCircle
 10
274.0162492539481
 20
414.1442381833556
 30
0.0
 40
25.00003205712822
100
AcDbArc
 50
295.5369005553153
 51
315.0917549917636
  0
LINE
  5
1301
330
1E
100
AcDbEntity
  8
STEMPEL
100
AcDbLine
 10
290.6332586118318
 20
397.5272288254719
 30
0.0
 11
290.6332812796445
 21
397.527206157659
 31
0.0
  0
ARC
  5
1302
330
1E
100
AcDbEntity
  8
STEMPEL
100
AcDbCircle
 10
281.0558498646462
 20
413.4056642010016
 30
0.0
 40
18.0
100
AcDbArc
 50
314.9999999999999
 51
339.9999999999935
  0
ARC
  5
1303
330
1E
100
AcDbEntity
  8
STEMPEL
100
AcDbCircle
 10
281.0558498646462
 20
413.4056642010016
 30
0.0
 40
19.5
100
AcDbArc
 50
314.9999999999999
 51
340.4594285688009
  0
LINE
  5
1304
330
1E
100
AcDbEntity
  8
STEMPEL
100
AcDbLine
 10
299.4332342168656
 20
406.8829269341838
 30
0.0
 11
299.3798559699712
 21
406.7362714061513
 31
0.0
  0
LINE
  5
1305
330
1E
100
AcDbEntity
  8
STEMPEL
100
AcDbLine
 10
298.2629252038008
 20
408.0532359472486
 30
0.0
 11
297.9703170387926
 21
407.2493016211404
 31
0.0
  0
LINE
  5
1306
102
{ACAD_REACTORS
330
15AF
330
15DC
330
15F6
102
}
330
1E
100
AcDbEntity
  8
STEMPEL
100
AcDbLine
 10
309.9641437959094
 20
396.3520173551397
 30
0.0
 11
247.0316402703069
 21
459.2845208807426
 31
0.0
  0
LINE
  5
1307
102
{ACAD_REACTORS
330
15AF
102
}
330
1E
100
AcDbEntity
  8
STEMPEL
100
AcDbLine
 10
266.7405964717818
 20
378.5843141537277
 30
0.0
 11
240.7875881122973
 21
352.6313057942433
 31
0.0
  0
LINE
  5
1308
102
{ACAD_REACTORS
330
15DC
330
15F6
102
}
330
1E
100
AcDbEntity
  8
STEMPEL
100
AcDbLine
 10
308.8327729460109
 20
397.4833882050382
 30
0.0
 11
240.785567858744
 21
329.4361831177712
 31
0.0
  0
ARC
  5
1309
102
{ACAD_REACTORS
330
15AF
102
}
330
1E
100
AcDbEntity
  8
STEMPEL
100
AcDbCircle
 10
267.8264676539786
 20
392.3981073972822
 30
0.0
 40
12.0
100
AcDbArc
 50
283.2116693829511
 51
314.9999999999999
  0
ARC
  5
130A
102
{ACAD_REACTORS
330
15AF
102
}
330
1E
100
AcDbEntity
  8
STEMPEL
100
AcDbCircle
 10
267.8264676539786
 20
392.3981073972822
 30
0.0
 40
10.5
100
AcDbArc
 50
283.2116693829511
 51
314.9999999999999
  0
ARC
  5
130B
102
{ACAD_REACTORS
330
15AF
102
}
330
1E
100
AcDbEntity
  8
STEMPEL
100
AcDbCircle
 10
272.3974507212744
 20
372.9274599042353
 30
0.0
 40
9.5
100
AcDbArc
 50
103.211669382951
 51
134.9999999999999
  0
LINE
  5
130C
102
{ACAD_REACTORS
330
15AF
102
}
330
1E
100
AcDbEntity
  8
STEMPEL
100
AcDbLine
 10
270.366164049463
 20
382.2098817314087
 30
0.0
 11
270.3634406583292
 21
382.2071583402749
 31
0.0
  0
ARC
  5
130D
102
{ACAD_REACTORS
330
15AF
102
}
330
1E
100
AcDbEntity
  8
STEMPEL
100
AcDbCircle
 10
272.3974507212744
 20
372.9274599042353
 30
0.0
 40
8.0
100
AcDbArc
 50
103.211669382951
 51
134.9999999999999
  0
LINE
  5
130E
102
{ACAD_REACTORS
330
15F6
102
}
330
1E
100
AcDbEntity
  8
STEMPEL
100
AcDbLine
 10
298.9332780093992
 20
387.5838932684265
 30
0.0
 11
290.8531777379383
 21
395.6639935398876
 31
0.0
  0
LINE
  5
130F
102
{ACAD_REACTORS
330
15AF
330
15F6
102
}
330
1E
100
AcDbEntity
  8
STEMPEL
100
AcDbLine
 10
294.8444320977838
 20
399.6170819678642
 30
0.0
 11
291.7222282999912
 21
396.4948781700717
 31
0.0
  0
LINE
  5
1310
102
{ACAD_REACTORS
330
15AF
102
}
330
1E
100
AcDbEntity
  8
STEMPEL
100
AcDbLine
 10
293.7837719260039
 20
400.6777421396439
 30
0.0
 11
290.66070570688
 21
397.5546759205199
 31
0.0
  0
ARC
  5
1311
102
{ACAD_REACTORS
330
15AF
102
}
330
1E
100
AcDbEntity
  8
STEMPEL
100
AcDbCircle
 10
289.1044937509066
 20
382.5634351220019
 30
0.0
 40
11.5
100
AcDbArc
 50
115.5369005553154
 51
134.9999999999999
  0
ARC
  5
1312
102
{ACAD_REACTORS
330
15AF
102
}
330
1E
100
AcDbEntity
  8
STEMPEL
100
AcDbCircle
 10
289.1044937509066
 20
382.5634351220019
 30
0.0
 40
10.0
100
AcDbArc
 50
115.5369005553154
 51
134.9999999999999
  0
LINE
  5
1313
102
{ACAD_REACTORS
330
15AF
102
}
330
1E
100
AcDbEntity
  8
STEMPEL
100
AcDbLine
 10
280.9727657672613
 20
390.6951631056475
 30
0.0
 11
275.2510888564375
 21
384.9734861948235
 31
0.0
  0
LINE
  5
1314
102
{ACAD_REACTORS
330
15AF
102
}
330
1E
100
AcDbEntity
  8
STEMPEL
100
AcDbLine
 10
282.033425939041
 20
389.6345029338676
 30
0.0
 11
276.3117490282173
 21
383.9128260230437
 31
0.0
  0
ARC
  5
1315
102
{ACAD_REACTORS
330
15AF
102
}
330
1E
100
AcDbEntity
  8
STEMPEL
100
AcDbCircle
 10
274.0162492539481
 20
414.1442381833556
 30
0.0
 40
23.5000320571282
100
AcDbArc
 50
295.5369005553153
 51
315.094638044797
  0
ARC
  5
1316
102
{ACAD_REACTORS
330
15AF
330
15F6
102
}
330
1E
100
AcDbEntity
  8
STEMPEL
100
AcDbCircle
 10
274.0162492539481
 20
414.1442381833556
 30
0.0
 40
25.00003205712822
100
AcDbArc
 50
295.5369005553153
 51
315.0917549917636
  0
LINE
  5
1317
330
1E
100
AcDbEntity
  8
STEMPEL
100
AcDbLine
 10
290.6332586118318
 20
397.5272288254719
 30
0.0
 11
290.6332812796445
 21
397.527206157659
 31
0.0
  0
ARC
  5
1318
102
{ACAD_REACTORS
330
15AF
102
}
330
1E
100
AcDbEntity
  8
STEMPEL
100
AcDbCircle
 10
281.0558498646462
 20
413.4056642010016
 30
0.0
 40
18.0
100
AcDbArc
 50
314.9999999999999
 51
339.9999999999935
  0
ARC
  5
1319
102
{ACAD_REACTORS
330
15AF
330
15F6
102
}
330
1E
100
AcDbEntity
  8
STEMPEL
100
AcDbCircle
 10
281.0558498646462
 20
413.4056642010016
 30
0.0
 40
19.5
100
AcDbArc
 50
314.9999999999999
 51
340.4594285688009
  0
LINE
  5
131A
102
{ACAD_REACTORS
330
15F6
102
}
330
1E
100
AcDbEntity
  8
STEMPEL
100
AcDbLine
 10
299.4332342168656
 20
406.8829269341838
 30
0.0
 11
299.3798559699712
 21
406.7362714061513
 31
0.0
  0
LINE
  5
131B
102
{ACAD_REACTORS
330
15AF
102
}
330
1E
100
AcDbEntity
  8
STEMPEL
100
AcDbLine
 10
298.2629252038008
 20
408.0532359472486
 30
0.0
 11
297.9703170387926
 21
407.2493016211404
 31
0.0
  0
ARC
  5
1416
102
{ACAD_REACTORS
330
15AF
102
}
330
1E
100
AcDbEntity
  8
STEMPEL
100
AcDbCircle
 10
280.385567858744
 20
313.0333260477964
 30
0.0
 40
57.5
100
AcDbArc
 50
135.0000000000001
 51
180.0
  0
ARC
  5
1417
102
{ACAD_REACTORS
330
15AF
102
}
330
1E
100
AcDbEntity
  8
STEMPEL
100
AcDbCircle
 10
280.385567858744
 20
313.0333260477964
 30
0.0
 40
107.5
100
AcDbArc
 50
134.9999999999998
 51
180.0
  0
ARC
  5
1419
102
{ACAD_REACTORS
330
1422
102
}
330
1E
100
AcDbEntity
  8
SCHRAFF
100
AcDbCircle
 10
155.3274614950582
 20
364.8340897883326
 30
0.0
 40
3.73939491568255
100
AcDbArc
 50
76.28577217798211
 51
238.7142278220186
  0
ARC
  5
141B
102
{ACAD_REACTORS
330
1422
102
}
330
1E
100
AcDbEntity
  8
SCHRAFF
100
AcDbCircle
 10
239.7249227951329
 20
329.8755166879829
 30
0.0
 40
5.754146697413471
100
AcDbArc
 50
297.5412711717049
 51
17.45872882829455
  0
HATCH
  5
1422
330
1E
100
AcDbEntity
  8
SCHRAFF
100
AcDbHatch
 10
0.0
 20
0.0
 30
0.0
210
0.0
220
0.0
230
1.0
  2
_USER
 70
     0
 71
     1
 91
        2
 92
        7
 72
     1
 73
     1
 93
        3
 10
242.3855678587441
 20
324.7734414179741
 42
0.3635624169803282
 10
245.2139949834903
 20
331.6018685427204
 42
0.0
 10
242.3855678587441
 20
328.7734414179741
 42
0.0
 97
        3
330
12F2
330
121A
330
141B
 92
        7
 72
     1
 73
     1
 93
        3
 10
153.3855678587442
 20
365.6384484691798
 42
0.0
 10
156.2139949834904
 20
368.4668755939259
 42
0.8573190572767199
 10
153.3855678587442
 20
361.6384484691799
 42
0.0
 97
        3
330
1419
330
1234
330
12BA
 75
     0
 76
     0
 52
0.0
 41
0.1
 77
     0
 78
     1
 53
0.0
 43
-364.2919645376842
 44
18.94512518177453
 45
0.0
 46
0.1
 79
     0
 47
0.2031821540544127
 98
        2
 10
243.5034901791787
 20
328.1816088263706
 10
152.8201534781451
 20
366.1766716708489
  0
LINE
  5
1423
102
{ACAD_REACTORS
330
15DC
102
}
330
1E
100
AcDbEntity
  8
STEMPEL
100
AcDbLine
 10
242.3855678587441
 20
328.7734414179741
 30
0.0
 11
240.785567858744
 21
329.4361831177712
 31
0.0
  0
LINE
  5
1424
102
{ACAD_REACTORS
330
15DC
102
}
330
1E
100
AcDbEntity
  8
STEMPEL
100
AcDbLine
 10
154.9855678587441
 20
364.9757067693829
 30
0.0
 11
153.3855678587442
 21
365.6384484691798
 31
0.0
  0
DIMENSION
  5
145E
330
1E
100
AcDbEntity
  8
BEM
100
AcDbDimension
  2
*D13
 10
140.4456489621015
 20
243.2029028017737
 30
0.0
 11
133.9456489621015
 21
258.2029028017738
 31
0.0
 70
    32
 71
     5
 42
30.0000000000002
  3
Standard
100
AcDbAlignedDimension
 13
153.3855678587434
 23
273.2029028017739
 33
0.0
 14
171.8172814200586
 24
243.2029028017737
 34
0.0
 50
90.0
100
AcDbRotatedDimension
1001
ACAD
1000
DSTYLE
1002
{
1070
   279
1070
     1
1070
    40
1040
2.0
1070
    41
1040
3.5
1070
    42
1040
1.0
1070
    43
1040
7.0
1070
    44
1040
1.0
1070
    73
1070
     0
1070
    74
1070
     0
1070
    77
1070
     1
1070
    78
1070
     8
1070
    79
1070
     2
1070
   140
1040
3.5
1070
   141
1040
1.5
1070
   146
1040
0.5142857142857144
1070
   147
1040
1.5
1070
   172
1070
     1
1070
   178
1070
     1
1070
   179
1070
     2
1070
   271
1070
     2
1070
   272
1070
     2
1070
   284
1070
     8
1070
   285
1070
     8
1070
   286
1070
     8
1002
}
  0
DIMENSION
  5
146B
330
1E
100
AcDbEntity
  8
BEM
100
AcDbDimension
  2
*D14
 10
126.6287657347725
 20
243.2029028017737
 30
0.0
 11
120.1287657347724
 21
295.204423872675
 31
0.0
 70
    32
 71
     5
 42
104.0030421418026
  3
Standard
100
AcDbAlignedDimension
 13
197.8855678587437
 23
347.2059449435763
 33
0.0
 14
171.8172814200586
 24
243.2029028017737
 34
0.0
 50
90.0
100
AcDbRotatedDimension
1001
ACAD
1000
DSTYLE
1002
{
1070
    40
1040
2.0
1070
    41
1040
3.5
1070
    42
1040
1.0
1070
    43
1040
7.0
1070
    44
1040
1.0
1070
    73
1070
     0
1070
    74
1070
     0
1070
    77
1070
     1
1070
    78
1070
     8
1070
    79
1070
     2
1070
   140
1040
3.5
1070
   141
1040
1.5
1070
   146
1040
0.5142857142857144
1070
   147
1040
1.5
1070
   172
1070
     1
1070
   178
1070
     1
1070
   179
1070
     2
1070
   271
1070
     2
1070
   272
1070
     2
1070
   284
1070
     8
1070
   285
1070
     8
1070
   286
1070
     8
1002
}
  0
DIMENSION
  5
14B9
330
1E
100
AcDbEntity
  8
BEM
100
AcDbDimension
  2
*D16
 10
232.4519959477604
 20
473.8641652032891
 30
0.0
 11
187.5496397828655
 21
438.154197193819
 31
0.0
 70
    32
 71
     5
 42
114.0030421418033
 51
314.9999999999999
  3
Standard
100
AcDbAlignedDimension
 13
197.8855678587437
 23
347.2059449435763
 33
0.0
 14
247.0316402703069
 24
459.2845208807426
 34
0.0
 50
44.99999999999984
100
AcDbRotatedDimension
1001
ACAD
1000
DSTYLE
1002
{
1070
    40
1040
2.0
1070
    41
1040
3.5
1070
    42
1040
1.0
1070
    43
1040
7.0
1070
    44
1040
1.0
1070
    73
1070
     0
1070
    74
1070
     0
1070
    77
1070
     1
1070
    78
1070
     8
1070
    79
1070
     2
1070
   140
1040
3.5
1070
   141
1040
1.5
1070
   146
1040
0.5142857142857144
1070
   147
1040
1.5
1070
   172
1070
     1
1070
   178
1070
     1
1070
   179
1070
     2
1070
   271
1070
     2
1070
   272
1070
     2
1070
   284
1070
     8
1070
   285
1070
     8
1070
   286
1070
     8
1002
}
  0
HATCH
  5
15AF
330
1E
100
AcDbEntity
  8
SCHRAFF
100
AcDbHatch
 10
0.0
 20
0.0
 30
0.0
210
0.0
220
0.0
230
1.0
  2
_USER
 70
     0
 71
     1
 91
        2
 92
        7
 72
     1
 73
     1
 93
       26
 10
224.385567858744
 20
313.0333260477964
 42
-0.1989123673796588
 10
240.7875881122975
 20
352.6313057942431
 42
0.0
 10
266.7405964717819
 20
378.5843141537276
 42
-0.1395991324168608
 10
270.5690574943561
 20
380.715718901454
 42
0.1395991324168652
 10
276.3117490282174
 20
383.9128260230438
 42
0.0
 10
282.033425939041
 20
389.6345029338672
 42
-0.0851285408962562
 10
284.7935707002274
 20
391.5865134465607
 42
0.085531812673713
 10
291.7222283001087
 20
396.4948781701892
 42
0.0
 10
294.8444320977838
 20
399.6170819678639
 42
0.1115469390821226
 10
299.4327451116324
 20
406.8834160394168
 42
0.0
 10
298.2629252038007
 20
408.0532359472484
 42
0.0
 10
297.9703170387927
 20
407.2493016211399
 42
-0.10951781168324
 10
293.7837719260043
 20
400.677742139644
 42
0.0
 10
290.6607057069335
 20
397.5546759205735
 42
-0.0855444844076275
 10
284.1469322426254
 20
392.9399751952445
 42
0.0851285408962562
 10
280.9727657672611
 20
390.695163105647
 42
0.0
 10
275.2510888564374
 20
384.9734861948234
 42
-0.1361061113099531
 10
270.3661640494629
 20
382.2098817314087
 42
0.0
 10
270.3634406583292
 20
382.2071583402749
 42
0.1433758286905672
 10
265.6799363000022
 20
379.6449743255074
 42
0.0
 10
239.7269279405178
 20
353.6919659660231
 42
0.1989123673796595
 10
222.885567858744
 20
313.0333260477964
 42
0.0
 10
222.885567858744
 20
248.2029028017675
 42
0.0
 10
222.448124541115
 20
243.2029028017737
 42
0.0
 10
223.9538542974299
 20
243.2029028017737
 42
0.0
 10
224.3855678587439
 20
248.1374113874053
 42
0.0
 97
       26
330
1177
330
1307
330
130D
330
1309
330
1314
330
1312
330
1316
330
130F
330
1319
330
1306
330
131B
330
1318
330
1310
330
1315
330
1311
330
1313
330
130A
330
130C
330
130B
330
12F1
330
1416
330
1216
330
1244
330
1241
330
1245
330
1218
 92
        7
 72
     1
 73
     1
 93
       26
 10
171.385567858752
 20
248.1374113873178
 42
0.0
 10
171.8172814200586
 20
243.2029028017737
 42
0.0
 10
173.3230111763735
 20
243.2029028017737
 42
0.0
 10
172.8855678587438
 20
248.2029028017737
 42
0.0
 10
172.885567858744
 20
313.0333260477964
 42
-0.1989123673796589
 10
204.3715888811904
 20
389.0473050253505
 42
0.0
 10
230.3245972406746
 20
415.0003133848348
 42
0.1433758286905676
 10
232.8867812554421
 20
419.6838177431618
 42
0.0
 10
232.8895046465758
 20
419.6865411342956
 42
-0.1361061113099501
 10
235.6531091099905
 20
424.57146594127
 42
0.0
 10
241.3747860208147
 20
430.2931428520939
 42
0.085128540896247
 10
243.6195981104119
 20
433.4673093274581
 42
-0.084712626629009
 10
248.1794046456765
 20
439.9261886017022
 42
0.0
 10
251.3573650548114
 20
443.1041490108368
 42
-0.1095178116832419
 10
257.9289245363073
 20
447.2906941236252
 42
0.0
 10
258.7328588624158
 20
447.5833022886336
 42
0.0
 10
257.5630389545844
 20
448.753122196465
 42
0.1115469390821252
 10
250.2967048830313
 20
444.1648091826164
 42
0.0
 10
247.1178820525025
 20
440.9859863520877
 42
0.0847252966082922
 10
242.2661363617282
 20
434.11394778506
 42
-0.0851285408962447
 10
240.314125849035
 20
431.3538030238738
 42
0.0
 10
234.592448938211
 20
425.63212611305
 42
0.139599132416862
 10
231.3953418166213
 20
419.8894345791888
 42
-0.139599132416849
 10
229.2639370688951
 20
416.0609735566151
 42
0.0
 10
203.3109287094077
 20
390.1079651971273
 42
0.1989123673796576
 10
171.385567858744
 20
313.0333260477927
 42
0.0
 97
       26
330
1417
330
12EA
330
12EE
330
12CC
330
12CB
330
12D4
330
12D3
330
12D7
330
12D1
330
12D8
330
12DA
330
1306
330
12CE
330
12CF
330
12CD
330
12D2
330
12D5
330
12EC
330
12ED
330
12EB
330
1178
330
1228
330
1242
330
1241
330
1243
330
1227
 75
     0
 76
     0
 52
135.0
 41
2.0
 77
     0
 78
     1
 53
135.0
 43
-17.35825003909212
 44
1.19656667507661
 45
-1.414213562373095
 46
-1.414213562373094
 79
     0
 47
0.5194131984492466
 98
        2
 10
223.8561269598895
 20
299.8748377223064
 10
171.8780703160005
 20
298.8360106422249
  0
HATCH
  5
15C8
330
1E
100
AcDbEntity
  8
SCHRAFF
100
AcDbHatch
 10
0.0
 20
0.0
 30
0.0
210
0.0
220
0.0
230
1.0
  2
_USER
 70
     0
 71
     0
 91
        2
 92
        7
 72
     0
 73
     1
 93
        4
 10
242.3855678587441
 20
328.7734414179741
 10
240.785567858744
 20
329.4361831177711
 10
240.7855678587442
 20
273.2029028017735
 10
242.3855678587441
 20
273.2029028017735
 97
        0
 92
        7
 72
     0
 73
     1
 93
        4
 10
154.9855678587441
 20
364.9757067693829
 10
153.3855678587442
 20
365.6384484691797
 10
153.3855678587442
 20
273.2029028017739
 10
154.9855678587442
 20
273.2029028017739
 97
        0
 75
     0
 76
     0
 52
45.0
 41
2.0
 77
     0
 78
     1
 53
45.0
 43
-17.35825003909212
 44
1.19656667507661
 45
-1.414213562373094
 46
1.414213562373095
 79
     0
 47
0.5194131984492466
 98
        2
 10
241.5286671347581
 20
307.6660359249365
 10
154.7253107345104
 20
329.4813892129919
  0
HATCH
  5
15DC
330
1E
100
AcDbEntity
  8
SCHRAFF
100
AcDbHatch
 10
0.0
 20
0.0
 30
0.0
210
0.0
220
0.0
230
1.0
  2
_USER
 70
     0
 71
     1
 91
        2
 92
        7
 72
     0
 73
     1
 93
        4
 10
240.785567858744
 20
329.4361831177712
 10
242.3855678587441
 20
328.7734414179741
 10
309.9641437959094
 20
396.3520173551397
 10
308.8327729460109
 20
397.4833882050382
 97
        4
330
1306
330
1308
330
1423
330
12F2
 92
        7
 72
     0
 73
     1
 93
        4
 10
248.1630111202053
 20
458.1531500308441
 10
247.0316402703069
 20
459.2845208807426
 10
153.3855678587442
 20
365.6384484691798
 10
154.9855678587445
 20
364.9757067693828
 97
        4
330
1306
330
12BA
330
1424
330
12B9
 75
     0
 76
     0
 52
135.0
 41
2.0
 77
     0
 78
     1
 53
135.0
 43
-17.35825003909212
 44
1.19656667507661
 45
-1.414213562373095
 46
-1.414213562373094
 79
     0
 47
0.3292343518466689
 98
        2
 10
282.0664348955688
 20
370.0130009869315
 10
210.5720492137907
 20
421.0443266553759
  0
HATCH
  5
15F6
330
1E
100
AcDbEntity
  8
SCHRAFF
100
AcDbHatch
 10
0.0
 20
0.0
 30
0.0
210
0.0
220
0.0
230
1.0
  2
NET
 70
     0
 71
     1
 91
        2
 92
        7
 72
     1
 73
     1
 93
        7
 10
250.2967048830313
 20
444.1648091826164
 42
-0.1095178116832003
 10
257.4158943213155
 20
448.7002330548029
 42
0.0
 10
257.562549849351
 20
448.7536113016984
 42
0.0
 10
248.1630111202053
 20
458.1531500308441
 42
0.0
 10
238.2635161835937
 20
448.2536550942324
 42
0.0
 10
246.3436164550548
 20
440.1735548227711
 42
-0.0112242877620005
 10
247.1178820524981
 20
440.9859863520834
 42
0.0
 97
        7
330
12D9
330
1306
330
12B9
330
12D0
330
12CD
330
12CF
330
12CE
 92
        7
 72
     1
 73
     1
 93
        7
 10
299.4332342168655
 20
406.8829269341836
 42
0.0
 10
299.3798559699764
 20
406.7362714061648
 42
-0.1095178116834303
 10
294.8444320977839
 20
399.617081967864
 42
0.0
 10
291.7222283001029
 20
396.4948781701833
 42
-0.01202510936505
 10
290.8531777379384
 20
395.6639935398875
 42
0.0
 10
298.9332780093992
 20
387.5838932684265
 42
0.0
 10
308.8327729460109
 20
397.4833882050382
 42
0.0
 97
        7
330
131A
330
1319
330
130F
330
1316
330
130E
330
1308
330
1306
 75
     0
 76
     1
 52
0.0
 41
15.0
 77
     0
 78
     2
 53
0.0
 43
-17.35825003909212
 44
1.19656667507661
 45
0.0
 46
1.875
 79
     0
 53
90.0
 43
-17.35825003909212
 44
1.19656667507661
 45
-1.875
 46
0.0000000000000001
 79
     0
 47
0.3292343518466689
 98
        2
 10
247.4723765254944
 20
446.3953711001981
 10
300.8460657355076
 20
399.3148587888795
  0
HATCH
  5
163E
330
1E
100
AcDbEntity
  8
SCHRAFF
100
AcDbHatch
 10
0.0
 20
0.0
 30
0.0
210
0.0
220
0.0
230
1.0
  2
HONEY
 70
     0
 71
     0
 91
        2
 92
        7
 72
     1
 73
     1
 93
       13
 10
298.9332780093992
 20
387.5838932684266
 42
0.0
 10
290.8531777379384
 20
395.6639935398874
 42
-0.0734311771838333
 10
284.7935707002291
 20
391.5865134465616
 42
0.0851285408963009
 10
282.0334259390409
 20
389.6345029338676
 42
0.0
 10
276.3117490282173
 20
383.9128260230437
 42
-0.1395991324168512
 10
270.5690574943566
 20
380.7157189014541
 42
0.1395991324168829
 10
266.7405964717818
 20
378.5843141537276
 42
0.0
 10
240.7875881122973
 20
352.6313057942433
 42
0.1989123673796576
 10
224.3855678587439
 20
313.0333260477967
 42
0.0
 10
224.3855678587439
 20
289.2029028017738
 42
0.0
 10
240.2268355468763
 20
289.2029028017737
 42
0.0
 10
240.7855678587442
 20
273.2029028017762
 42
0.0
 10
240.785567858744
 20
329.4361831177712
 42
0.0
 97
        0
 92
        7
 72
     1
 73
     1
 93
       13
 10
203.3109287094085
 20
390.1079651971266
 42
0.0
 10
229.2639370688949
 20
416.0609735566147
 42
0.1395991324168617
 10
231.3953418166212
 20
419.8894345791889
 42
-0.1395991324168589
 10
234.5924489382109
 20
425.63212611305
 42
0.0
 10
240.3141258490347
 20
431.353803023874
 42
0.0851285408962636
 10
242.2661363617284
 20
434.1139477850606
 42
-0.0734311771838466
 10
246.3436164550549
 20
440.1735548227711
 42
0.0
 10
238.2635161835938
 20
448.2536550942325
 42
0.0
 10
154.9855678587441
 20
364.9757067693824
 42
0.0
 10
154.9855678587443
 20
273.2029028017738
 42
0.0
 10
155.5443001706122
 20
289.2029028017737
 42
0.0
 10
171.3855678587506
 20
289.2029028017737
 42
0.0
 10
171.3855678587498
 20
313.0333260477926
 42
-0.1989123673796513
 97
        0
 75
     0
 76
     1
 52
0.0
 41
25.0
 77
     0
 78
     3
 53
0.0
 43
-17.35825003909212
 44
1.19656667507661
 45
4.6875
 46
2.706329374999999
 79
     2
 49
3.125
 49
-6.25
 53
120.0
 43
-17.35825003909212
 44
1.19656667507661
 45
-4.687499989758061
 46
2.706329392739557
 79
     2
 49
3.124999999999999
 49
-6.249999999999999
 53
60.0
 43
-17.35825003909212
 44
1.19656667507661
 45
0.0000000102419385
 46
5.412658767739556
 79
     2
 49
-6.25
 49
3.125
 47
0.4635122251217454
 98
        2
 10
248.2648369874414
 20
347.2928364141994
 10
187.0379492437373
 20
384.3738153936183
  0
LINE
  5
164E
330
1E
100
AcDbEntity
  8
BEM
100
AcDbLine
 10
283.447639501414
 20
432.7680165862469
 30
0.0
 11
285.8480969740391
 21
435.1684740588722
 31
0.0
  0
LINE
  5
164F
330
1E
100
AcDbEntity
  8
BEM
100
AcDbLine
 10
197.8855678587437
 20
349.2059449435762
 30
0.0
 11
197.8855678587433
 21
437.2977371142718
 31
0.0
  0
TEXT
  5
1683
330
1E
100
AcDbEntity
  8
TEXT
100
AcDbText
 10
170.7037590129979
 20
63.10765040825732
 30
0.0
 40
4.0
  1
10.06.
 41
0.8
  7
GREEKS
 72
     1
 11
177.4085209177598
 21
63.10765040825732
 31
0.0
100
AcDbText
  0
TEXT
  5
1684
330
1E
100
AcDbEntity
  8
TEXT
100
AcDbText
 10
148.622109822104
 20
73.14025471151666
 30
0.0
 40
4.0
  1
2013
 41
0.8
  7
GREEKS
100
AcDbText
  0
HATCH
  5
1698
330
1E
100
AcDbEntity
  8
SCHRAFF
100
AcDbHatch
 10
0.0
 20
0.0
 30
0.0
210
0.0
220
0.0
230
1.0
  2
NET
 70
     0
 71
     0
 91
        2
 92
        7
 72
     0
 73
     1
 93
       10
 10
240.2268355468763
 20
289.2029028017737
 10
224.3855678587439
 20
289.2029028017737
 10
224.3855678587439
 20
279.2029028017737
 10
228.3855678587442
 20
279.2029028017737
 10
231.8496694738822
 20
273.2029028017736
 10
236.3855678587433
 20
273.2029028017736
 10
236.3855678587433
 20
271.2029028017734
 10
242.3855678587441
 20
271.2029028017734
 10
242.385567858744
 20
273.2029028017735
 10
240.7855678587443
 20
273.2029028017736
 97
        0
 92
        7
 72
     0
 73
     1
 93
       10
 10
171.3855678587495
 20
289.2029028017738
 10
155.5443001706122
 20
289.2029028017739
 10
154.9855678587443
 20
273.2029028017739
 10
153.3855678587442
 20
273.2029028017739
 10
153.3855678587443
 20
271.2029028017739
 10
159.3855678587432
 20
271.2029028017738
 10
159.3855678587432
 20
273.2029028017739
 10
163.9214662436065
 20
273.2029028017738
 10
167.3855678587442
 20
279.2029028017737
 10
171.3855678587501
 20
279.2029028017737
 97
        0
 75
     0
 76
     1
 52
45.0
 41
20.0
 77
     0
 78
     2
 53
45.0
 43
-27.11443214125603
 44
-48.67209125741209
 45
-1.767766952966368
 46
1.767766952966368
 79
     0
 53
135.0
 43
-27.11443214125603
 44
-48.67209125741209
 45
-1.767766952966368
 46
-1.767766952966368
 79
     0
 47
0.1255994509103582
 98
        2
 10
231.9639484633932
 20
284.486228822917
 10
166.1101305399249
 20
285.4910247351493
  0
LINE
  5
1699
330
1E
100
AcDbEntity
  8
STEMPEL
100
AcDbLine
 10
236.3855678587433
 20
273.2029028017736
 30
0.0
 11
224.3855678587439
 21
273.2029028017736
 31
0.0
  0
POINT
  5
169A
330
1E
100
AcDbEntity
  8
STEMPEL
100
AcDbPoint
 10
236.3855678587433
 20
271.2029028017736
 30
0.0
  0
LINE
  5
169B
330
1E
100
AcDbEntity
  8
STEMPEL
100
AcDbLine
 10
236.3855678587433
 20
273.2029028017736
 30
0.0
 11
236.3855678587433
 21
271.2029028017736
 31
0.0
  0
LINE
  5
169C
330
1E
100
AcDbEntity
  8
STEMPEL
100
AcDbLine
 10
242.3855678587441
 20
271.2029028017734
 30
0.0
 11
224.3855678587439
 21
271.2029028017735
 31
0.0
  0
LINE
  5
169D
330
1E
100
AcDbEntity
  8
STEMPEL
100
AcDbLine
 10
228.3855678587443
 20
279.2029028017737
 30
0.0
 11
231.849669473882
 21
273.2029028017738
 31
0.0
  0
LINE
  5
169E
330
1E
100
AcDbEntity
  8
STEMPEL
100
AcDbLine
 10
228.3855678587443
 20
279.2029028017737
 30
0.0
 11
231.849669473882
 21
273.2029028017738
 31
0.0
  0
LINE
  5
169F
330
1E
100
AcDbEntity
  8
STEMPEL
100
AcDbLine
 10
171.3855678587506
 20
271.2029028017738
 30
0.0
 11
153.3855678587442
 21
271.2029028017739
 31
0.0
  0
POINT
  5
16A0
330
1E
100
AcDbEntity
  8
STEMPEL
100
AcDbPoint
 10
159.3855678587432
 20
271.2029028017736
 30
0.0
  0
LINE
  5
16A1
330
1E
100
AcDbEntity
  8
STEMPEL
100
AcDbLine
 10
159.3855678587432
 20
273.2029028017736
 30
0.0
 11
159.3855678587432
 21
271.2029028017736
 31
0.0
  0
LINE
  5
16A2
330
1E
100
AcDbEntity
  8
STEMPEL
100
AcDbLine
 10
171.3855678587504
 20
273.2029028017738
 30
0.0
 11
159.3855678587432
 21
273.2029028017739
 31
0.0
  0
LINE
  5
16A3
330
1E
100
AcDbEntity
  8
STEMPEL
100
AcDbLine
 10
167.3855678587442
 20
279.2029028017737
 30
0.0
 11
163.9214662436064
 21
273.2029028017738
 31
0.0
  0
LINE
  5
16A4
330
1E
100
AcDbEntity
  8
STEMPEL
100
AcDbLine
 10
171.3855678587504
 20
273.2029028017738
 30
0.0
 11
159.3855678587432
 21
273.2029028017739
 31
0.0
  0
LINE
  5
16A5
330
1E
100
AcDbEntity
  8
STEMPEL
100
AcDbLine
 10
167.3855678587442
 20
279.2029028017737
 30
0.0
 11
163.9214662436064
 21
273.2029028017738
 31
0.0
  0
LINE
  5
1708
330
1E
100
AcDbEntity
  8
TEXT
 62
     2
100
AcDbLine
 10
265.4334099513575
 20
290.9194707489259
 30
0.0
 11
394.6690786749194
 21
290.9194707489259
 31
0.0
  0
TEXT
  5
1709
330
1E
100
AcDbEntity
  8
TEXT
 62
     1
100
AcDbText
 10
267.5533029474029
 20
294.2993761658223
 30
0.0
 40
7.0
  1
selbstklebende Terodem 5500
 41
0.8
  7
GREEKS
100
AcDbText
  0
LINE
  5
170A
330
1E
100
AcDbEntity
  8
TEXT
 62
     2
100
AcDbLine
 10
265.4334099513575
 20
290.9194707489259
 30
0.0
 11
224.3855678587439
 21
302.1566746633874
 31
0.0
  0
DIMENSION
  5
1833
330
1E
100
AcDbEntity
  8
BEM
100
AcDbDimension
  2
*D18
 10
197.8855678587433
 20
441.2977371142718
 30
0.0
 11
257.4681713851942
 21
491.0510744586346
 31
0.0
 70
    34
 71
     5
 42
0.785398163397415
  3
Standard
100
AcDb2LineAngularDimension
 13
283.447639501414
 23
432.7680165862469
 33
0.0
 14
294.3333783482773
 24
443.6537554331112
 34
0.0
 15
197.8855678587437
 25
349.2059449435762
 35
0.0
 16
272.4839909773171
 26
476.414203949468
 36
0.0
1001
ACAD
1000
DSTYLE
1002
{
1070
    40
1040
2.0
1070
    41
1040
3.5
1070
    42
1040
1.0
1070
    43
1040
7.0
1070
    44
1040
1.0
1070
    73
1070
     0
1070
    74
1070
     0
1070
    77
1070
     1
1070
    78
1070
     8
1070
    79
1070
     2
1070
   140
1040
3.5
1070
   141
1040
1.5
1070
   146
1040
0.5142857142857144
1070
   147
1040
1.5
1070
   172
1070
     1
1070
   178
1070
     1
1070
   179
1070
     2
1070
   271
1070
     2
1070
   272
1070
     2
1070
   284
1070
     8
1070
   285
1070
     8
1070
   286
1070
     8
1002
}
  0
ENDSEC
  0
SECTION
  2
OBJECTS
  0
DICTIONARY
  5
C
330
0
100
AcDbDictionary
281
     1
  3
ACAD_CIP_PREVIOUS_PRODUCT_INFO
350
16FC
  3
ACAD_COLOR
350
DF
  3
ACAD_DETAILVIEWSTYLE
350
16F9
  3
ACAD_GROUP
350
D
  3
ACAD_LAYOUT
350
19
  3
ACAD_MATERIAL
350
DE
  3
ACAD_MLEADERSTYLE
350
16F4
  3
ACAD_MLINESTYLE
350
16
  3
ACAD_PLOTSETTINGS
350
18
  3
ACAD_PLOTSTYLENAME
350
E
  3
ACAD_SCALELIST
350
16E2
  3
ACAD_SECTIONVIEWSTYLE
350
16F6
  3
ACAD_TABLESTYLE
350
16E0
  3
ACAD_VISUALSTYLE
350
16C7
  3
ACDB_RECOMPOSE_DATA
350
187F
  3
AcDbVariableDictionary
350
25E
  0
DICTIONARY
  5
17CA
330
8
100
AcDbDictionary
280
     1
281
     1
  0
DICTIONARY
  5
16FE
330
2
100
AcDbDictionary
280
     1
281
     1
  3
ACAD_LAYERSTATES
360
16FF
  0
DICTIONARY
  5
17AE
330
10
100
AcDbDictionary
280
     1
281
     1
  3
ADSK_XREC_LAYER_RECONCILED
360
17AF
  0
DICTIONARY
  5
17B0
330
2A
100
AcDbDictionary
280
     1
281
     1
  3
ADSK_XREC_LAYER_RECONCILED
360
17B1
  0
DICTIONARY
  5
17B2
330
2B
100
AcDbDictionary
280
     1
281
     1
  3
ADSK_XREC_LAYER_RECONCILED
360
17B3
  0
DICTIONARY
  5
17B4
330
2C
100
AcDbDictionary
280
     1
281
     1
  3
ADSK_XREC_LAYER_RECONCILED
360
17B5
  0
DICTIONARY
  5
17B6
330
2F
100
AcDbDictionary
280
     1
281
     1
  3
ADSK_XREC_LAYER_RECONCILED
360
17B7
  0
DICTIONARY
  5
17B8
330
30
100
AcDbDictionary
280
     1
281
     1
  3
ADSK_XREC_LAYER_RECONCILED
360
17B9
  0
DICTIONARY
  5
17BA
330
31
100
AcDbDictionary
280
     1
281
     1
  3
ADSK_XREC_LAYER_RECONCILED
360
17BB
  0
DICTIONARY
  5
17BC
330
19C
100
AcDbDictionary
280
     1
281
     1
  3
ADSK_XREC_LAYER_RECONCILED
360
17BD
  0
DICTIONARY
  5
A0
330
1E
100
AcDbDictionary
280
     1
281
     1
  3
ACAD_LAYOUTSELFREF
360
D4
  0
DICTIONARY
  5
A2
330
1A
100
AcDbDictionary
280
     1
281
     1
  3
ACAD_LAYOUTSELFREF
360
D3
  0
XRECORD
  5
16FC
102
{ACAD_REACTORS
330
C
102
}
330
C
100
AcDbXrecord
280
     1
300
ACD
300
2013
300
ACD_F_S
  0
DICTIONARY
  5
DF
102
{ACAD_REACTORS
330
C
102
}
330
C
100
AcDbDictionary
281
     1
  0
DICTIONARY
  5
16F9
102
{ACAD_REACTORS
330
C
102
}
330
C
100
AcDbDictionary
281
     1
  3
Imperial24
350
16FA
  0
DICTIONARY
  5
D
102
{ACAD_REACTORS
330
C
102
}
330
C
100
AcDbDictionary
281
     1
  0
DICTIONARY
  5
19
102
{ACAD_REACTORS
330
C
102
}
330
C
100
AcDbDictionary
281
     1
  3
Layout1
350
1D
  3
Model
350
21
  0
DICTIONARY
  5
DE
102
{ACAD_REACTORS
330
C
102
}
330
C
100
AcDbDictionary
281
     1
  3
ByBlock
350
16B7
  3
ByLayer
350
16AF
  3
Global
350
16BF
  0
DICTIONARY
  5
16F4
102
{ACAD_REACTORS
330
C
102
}
330
C
100
AcDbDictionary
281
     1
  3
Standard
350
16F5
  0
DICTIONARY
  5
16
102
{ACAD_REACTORS
330
C
102
}
330
C
100
AcDbDictionary
281
     1
  3
Standard
350
17
  0
DICTIONARY
  5
18
102
{ACAD_REACTORS
330
C
102
}
330
C
100
AcDbDictionary
281
     1
  0
ACDBDICTIONARYWDFLT
  5
E
102
{ACAD_REACTORS
330
C
102
}
330
C
100
AcDbDictionary
281
     1
  3
Normal
350
F
100
AcDbDictionaryWithDefault
340
F
  0
DICTIONARY
  5
16E2
102
{ACAD_REACTORS
330
C
102
}
330
C
100
AcDbDictionary
281
     1
  3
A0
350
16E3
  3
A1
350
16E4
  3
A2
350
16E5
  3
A3
350
16E6
  3
A4
350
16E7
  3
A5
350
16E8
  3
A6
350
16E9
  3
A7
350
16EA
  3
A8
350
16EB
  3
A9
350
16EC
  3
B0
350
16ED
  3
B1
350
16EE
  3
B2
350
16EF
  3
B3
350
16F0
  3
B4
350
16F1
  3
B5
350
16F2
  3
B6
350
16F3
  0
DICTIONARY
  5
16F6
102
{ACAD_REACTORS
330
C
102
}
330
C
100
AcDbDictionary
281
     1
  3
Imperial24
350
16F8
  0
DICTIONARY
  5
16E0
102
{ACAD_REACTORS
330
C
102
}
330
C
100
AcDbDictionary
281
     1
  3
Standard
350
16E1
  0
DICTIONARY
  5
16C7
102
{ACAD_REACTORS
330
C
102
}
330
C
100
AcDbDictionary
281
     1
  3
2dWireframe
350
16CD
  3
Basic
350
16CC
  3
Brighten
350
16D3
  3
ColorChange
350
16D7
  3
Conceptual
350
16D0
  3
Dim
350
16D2
  3
EdgeColorOff
350
16DF
  3
Facepattern
350
16D6
  3
Flat
350
16C8
  3
FlatWithEdges
350
16C9
  3
Gouraud
350
16CA
  3
GouraudWithEdges
350
16CB
  3
Hidden
350
16CF
  3
JitterOff
350
16DD
  3
Linepattern
350
16D5
  3
OverhangOff
350
16DE
  3
Realistic
350
16D1
  3
Shaded
350
16DC
  3
Shaded with edges
350
16DB
  3
Shades of Gray
350
16D8
  3
Sketchy
350
16D9
  3
Thicken
350
16D4
  3
Wireframe
350
16CE
  3
X-Ray
350
16DA
  0
XRECORD
  5
187F
102
{ACAD_REACTORS
330
C
102
}
330
C
100
AcDbXrecord
280
     1
 90
        1
330
16E1
  0
DICTIONARY
  5
25E
102
{ACAD_REACTORS
330
C
102
}
330
C
100
AcDbDictionary
281
     1
  3
CANNOSCALE
350
1808
  3
CMLEADERSTYLE
350
1805
  3
CTABLESTYLE
350
1804
  3
CVIEWDETAILSTYLE
350
1806
  3
CVIEWSECTIONSTYLE
350
1807
  3
DIMASSOC
350
25F
  3
PROJECTNAME
350
260
  3
XCLIPFRAME
350
187D
  0
DICTIONARY
  5
16FF
102
{ACAD_REACTORS
330
16FE
102
}
330
16FE
100
AcDbDictionary
281
     1
  0
XRECORD
  5
17AF
102
{ACAD_REACTORS
330
17AE
102
}
330
17AE
100
AcDbXrecord
280
     1
290
     1
  0
XRECORD
  5
17B1
102
{ACAD_REACTORS
330
17B0
102
}
330
17B0
100
AcDbXrecord
280
     1
290
     1
  0
XRECORD
  5
17B3
102
{ACAD_REACTORS
330
17B2
102
}
330
17B2
100
AcDbXrecord
280
     1
290
     1
  0
XRECORD
  5
17B5
102
{ACAD_REACTORS
330
17B4
102
}
330
17B4
100
AcDbXrecord
280
     1
290
     1
  0
XRECORD
  5
17B7
102
{ACAD_REACTORS
330
17B6
102
}
330
17B6
100
AcDbXrecord
280
     1
290
     1
  0
XRECORD
  5
17B9
102
{ACAD_REACTORS
330
17B8
102
}
330
17B8
100
AcDbXrecord
280
     1
290
     1
  0
XRECORD
  5
17BB
102
{ACAD_REACTORS
330
17BA
102
}
330
17BA
100
AcDbXrecord
280
     1
290
     1
  0
XRECORD
  5
17BD
102
{ACAD_REACTORS
330
17BC
102
}
330
17BC
100
AcDbXrecord
280
     1
290
     1
  0
XRECORD
  5
D4
102
{ACAD_REACTORS
330
A0
102
}
330
A0
100
AcDbXrecord
280
     1
340
1E
  0
XRECORD
  5
D3
102
{ACAD_REACTORS
330
A2
102
}
330
A2
100
AcDbXrecord
280
     1
340
1A
  0
ACDBDETAILVIEWSTYLE
  5
16FA
102
{ACAD_REACTORS
330
16F9
102
}
330
16F9
100
AcDbModelDocViewStyle
 70
     0
  3
Imperial24
290
     0
100
AcDbDetailViewStyle
 70
     0
 71
     0
 90
        3
 71
     1
340
11
 62
   256
 40
0.24
340
0
 62
   256
 40
0.24
300

 40
0.36
280
     3
 71
     2
340
15
 90
       25
 62
   256
 71
     3
340
11
 62
   256
 40
0.24
 90
        1
 40
0.75
 90
        1
300
%<\AcVar ViewType \f "%tc1">% %<\AcVar ViewDetailId>%\PVARIA %<\AcVar ViewScale \f "%sn">%
 71
     4
340
15
 90
       25
 62
   256
340
15
 90
       25
 62
   256
280
     0
  0
LAYOUT
  5
1D
102
{ACAD_REACTORS
330
19
102
}
330
19
100
AcDbPlotSettings
  1

  2
\\NT_WORK01\HP LaserJet 5000 PCL 6
  4

  6

 40
0.0
 41
0.0
 42
0.0
 43
0.0
 44
0.0
 45
0.0
 46
0.0
 47
0.0
 48
0.0
 49
0.0
140
0.0
141
0.0
142
1.0
143
1.0
 70
   688
 72
     0
 73
     0
 74
     5
  7

 75
    16
147
1.0
 76
     0
 77
     2
 78
   300
148
0.0
149
0.0
100
AcDbLayout
  1
Layout1
 70
     0
 71
     1
 10
0.0
 20
0.0
 11
12.0
 21
9.0
 12
0.0
 22
0.0
 32
0.0
 14
1.000000000000000E+20
 24
1.000000000000000E+20
 34
1.000000000000000E+20
 15
-1.000000000000000E+20
 25
-1.000000000000000E+20
 35
-1.000000000000000E+20
146
0.0
 13
0.0
 23
0.0
 33
0.0
 16
1.0
 26
0.0
 36
0.0
 17
0.0
 27
1.0
 37
0.0
 76
     0
330
1A
  0
LAYOUT
  5
21
102
{ACAD_REACTORS
330
19
102
}
330
19
100
AcDbPlotSettings
  1

  2
RICOH Aficio 2027 PCL 6
  4
A4
  6

 40
5.027083
 41
5.027084999999999
 42
5.027084
 43
5.027069
 44
209.973328
 45
296.925995
 46
0.0
 47
2.06
 48
0.0
 49
0.0
140
0.0
141
0.0
142
1.0
143
2.100849152723284
 70
 11956
 72
     1
 73
     0
 74
     2
  7
monochrome1.ctb
 75
     0
147
0.4759980023809526
 76
     1
 77
     2
 78
   300
148
0.0
149
0.0
100
AcDbLayout
  1
Model
 70
     1
 71
     0
 10
0.0
 20
0.0
 11
12.0
 21
9.0
 12
0.0
 22
0.0
 32
0.0
 14
0.0
 24
0.0
 34
0.0
 15
0.0
 25
0.0
 35
0.0
146
0.0
 13
0.0
 23
0.0
 33
0.0
 16
1.0
 26
0.0
 36
0.0
 17
0.0
 27
1.0
 37
0.0
 76
     0
330
1E
331
16A6
  0
MATERIAL
  5
16B7
102
{ACAD_XDICTIONARY
360
16B8
102
}
102
{ACAD_REACTORS
330
DE
102
}
330
DE
100
AcDbMaterial
  1
ByBlock
 72
     0
 43
0.0208333333333333
 43
0.0
 43
0.0
 43
0.0
 43
0.0
 43
0.0208333333333333
 43
0.0
 43
0.0
 43
0.0
 43
0.0
 43
1.0
 43
0.0
 43
0.0
 43
0.0
 43
0.0
 43
1.0
 77
     0
 47
0.0208333333333333
 47
0.0
 47
0.0
 47
0.0
 47
0.0
 47
0.0208333333333333
 47
0.0
 47
0.0
 47
0.0
 47
0.0
 47
1.0
 47
0.0
 47
0.0
 47
0.0
 47
0.0
 47
1.0
171
     0
 49
0.0208333333333333
 49
0.0
 49
0.0
 49
0.0
 49
0.0
 49
0.0208333333333333
 49
0.0
 49
0.0
 49
0.0
 49
0.0
 49
1.0
 49
0.0
 49
0.0
 49
0.0
 49
0.0
 49
1.0
175
     0
142
0.0208333333333333
142
0.0
142
0.0
142
0.0
142
0.0
142
0.0208333333333333
142
0.0
142
0.0
142
0.0
142
0.0
142
1.0
142
0.0
142
0.0
142
0.0
142
0.0
142
1.0
179
     0
144
0.0208333333333333
144
0.0
144
0.0
144
0.0
144
0.0
144
0.0208333333333333
144
0.0
144
0.0
144
0.0
144
0.0
144
1.0
144
0.0
144
0.0
144
0.0
144
0.0
144
1.0
147
0.0208333333333333
147
0.0
147
0.0
147
0.0
147
0.0
147
0.0208333333333333
147
0.0
147
0.0
147
0.0
147
0.0
147
1.0
147
0.0
147
0.0
147
0.0
147
0.0
147
1.0
  0
MATERIAL
  5
16AF
102
{ACAD_XDICTIONARY
360
16B0
102
}
102
{ACAD_REACTORS
330
DE
102
}
330
DE
100
AcDbMaterial
  1
ByLayer
 72
     0
 43
0.0208333333333333
 43
0.0
 43
0.0
 43
0.0
 43
0.0
 43
0.0208333333333333
 43
0.0
 43
0.0
 43
0.0
 43
0.0
 43
1.0
 43
0.0
 43
0.0
 43
0.0
 43
0.0
 43
1.0
 77
     0
 47
0.0208333333333333
 47
0.0
 47
0.0
 47
0.0
 47
0.0
 47
0.0208333333333333
 47
0.0
 47
0.0
 47
0.0
 47
0.0
 47
1.0
 47
0.0
 47
0.0
 47
0.0
 47
0.0
 47
1.0
171
     0
 49
0.0208333333333333
 49
0.0
 49
0.0
 49
0.0
 49
0.0
 49
0.0208333333333333
 49
0.0
 49
0.0
 49
0.0
 49
0.0
 49
1.0
 49
0.0
 49
0.0
 49
0.0
 49
0.0
 49
1.0
175
     0
142
0.0208333333333333
142
0.0
142
0.0
142
0.0
142
0.0
142
0.0208333333333333
142
0.0
142
0.0
142
0.0
142
0.0
142
1.0
142
0.0
142
0.0
142
0.0
142
0.0
142
1.0
179
     0
144
0.0208333333333333
144
0.0
144
0.0
144
0.0
144
0.0
144
0.0208333333333333
144
0.0
144
0.0
144
0.0
144
0.0
144
1.0
144
0.0
144
0.0
144
0.0
144
0.0
144
1.0
147
0.0208333333333333
147
0.0
147
0.0
147
0.0
147
0.0
147
0.0208333333333333
147
0.0
147
0.0
147
0.0
147
0.0
147
1.0
147
0.0
147
0.0
147
0.0
147
0.0
147
1.0
  0
MATERIAL
  5
16BF
102
{ACAD_XDICTIONARY
360
16C0
102
}
102
{ACAD_REACTORS
330
DE
102
}
330
DE
100
AcDbMaterial
  1
Global
 72
     0
 43
0.0208333333333333
 43
0.0
 43
0.0
 43
0.0
 43
0.0
 43
0.0208333333333333
 43
0.0
 43
0.0
 43
0.0
 43
0.0
 43
1.0
 43
0.0
 43
0.0
 43
0.0
 43
0.0
 43
1.0
 77
     0
 47
0.0208333333333333
 47
0.0
 47
0.0
 47
0.0
 47
0.0
 47
0.0208333333333333
 47
0.0
 47
0.0
 47
0.0
 47
0.0
 47
1.0
 47
0.0
 47
0.0
 47
0.0
 47
0.0
 47
1.0
171
     0
 49
0.0208333333333333
 49
0.0
 49
0.0
 49
0.0
 49
0.0
 49
0.0208333333333333
 49
0.0
 49
0.0
 49
0.0
 49
0.0
 49
1.0
 49
0.0
 49
0.0
 49
0.0
 49
0.0
 49
1.0
175
     0
142
0.0208333333333333
142
0.0
142
0.0
142
0.0
142
0.0
142
0.0208333333333333
142
0.0
142
0.0
142
0.0
142
0.0
142
1.0
142
0.0
142
0.0
142
0.0
142
0.0
142
1.0
179
     0
144
0.0208333333333333
144
0.0
144
0.0
144
0.0
144
0.0
144
0.0208333333333333
144
0.0
144
0.0
144
0.0
144
0.0
144
1.0
144
0.0
144
0.0
144
0.0
144
0.0
144
1.0
147
0.0208333333333333
147
0.0
147
0.0
147
0.0
147
0.0
147
0.0208333333333333
147
0.0
147
0.0
147
0.0
147
0.0
147
1.0
147
0.0
147
0.0
147
0.0
147
0.0
147
1.0
  0
MLEADERSTYLE
  5
16F5
102
{ACAD_XDICTIONARY
360
18B4
102
}
102
{ACAD_REACTORS
330
16F4
102
}
330
16F4
100
AcDbMLeaderStyle
170
     2
171
     1
172
     0
 90
        2
 40
0.0
 41
0.0
173
     1
 91
-1056964608
340
13
 92
       -2
290
     1
 42
0.09
291
     1
 43
0.36
  3
Standard
 44
0.18
300

342
11
174
     1
178
     6
175
     1
176
     0
 93
-1056964608
 45
0.18
292
     0
297
     0
 46
0.18
 94
-1056964608
 47
1.0
 49
1.0
140
1.0
293
     1
141
0.0
294
     1
177
     0
142
1.0
295
     0
296
     0
143
0.125
1001
ACAD_MLEADERVER
1070
     2
  0
MLINESTYLE
  5
17
102
{ACAD_REACTORS
330
16
102
}
330
16
100
AcDbMlineStyle
  2
STANDARD
 70
     0
  3

 62
   256
 51
90.0
 52
90.0
 71
     2
 49
0.5
 62
   256
  6
BYLAYER
 49
-0.5
 62
   256
  6
BYLAYER
  0
ACDBPLACEHOLDER
  5
F
102
{ACAD_REACTORS
330
E
102
}
330
E
  0
SCALE
  5
16E3
102
{ACAD_REACTORS
330
16E2
102
}
330
16E2
100
AcDbScale
 70
     0
300
1:1
140
1.0
141
1.0
290
     1
  0
SCALE
  5
16E4
102
{ACAD_REACTORS
330
16E2
102
}
330
16E2
100
AcDbScale
 70
     0
300
1/128" = 1'-0"
140
0.0078125
141
12.0
290
     0
  0
SCALE
  5
16E5
102
{ACAD_REACTORS
330
16E2
102
}
330
16E2
100
AcDbScale
 70
     0
300
1/64" = 1'-0"
140
0.015625
141
12.0
290
     0
  0
SCALE
  5
16E6
102
{ACAD_REACTORS
330
16E2
102
}
330
16E2
100
AcDbScale
 70
     0
300
1/32" = 1'-0"
140
0.03125
141
12.0
290
     0
  0
SCALE
  5
16E7
102
{ACAD_REACTORS
330
16E2
102
}
330
16E2
100
AcDbScale
 70
     0
300
1/16" = 1'-0"
140
0.0625
141
12.0
290
     0
  0
SCALE
  5
16E8
102
{ACAD_REACTORS
330
16E2
102
}
330
16E2
100
AcDbScale
 70
     0
300
3/32" = 1'-0"
140
0.09375
141
12.0
290
     0
  0
SCALE
  5
16E9
102
{ACAD_REACTORS
330
16E2
102
}
330
16E2
100
AcDbScale
 70
     0
300
1/8" = 1'-0"
140
0.125
141
12.0
290
     0
  0
SCALE
  5
16EA
102
{ACAD_REACTORS
330
16E2
102
}
330
16E2
100
AcDbScale
 70
     0
300
3/16" = 1'-0"
140
0.1875
141
12.0
290
     0
  0
SCALE
  5
16EB
102
{ACAD_REACTORS
330
16E2
102
}
330
16E2
100
AcDbScale
 70
     0
300
1/4" = 1'-0"
140
0.25
141
12.0
290
     0
  0
SCALE
  5
16EC
102
{ACAD_REACTORS
330
16E2
102
}
330
16E2
100
AcDbScale
 70
     0
300
3/8" = 1'-0"
140
0.375
141
12.0
290
     0
  0
SCALE
  5
16ED
102
{ACAD_REACTORS
330
16E2
102
}
330
16E2
100
AcDbScale
 70
     0
300
1/2" = 1'-0"
140
0.5
141
12.0
290
     0
  0
SCALE
  5
16EE
102
{ACAD_REACTORS
330
16E2
102
}
330
16E2
100
AcDbScale
 70
     0
300
3/4" = 1'-0"
140
0.75
141
12.0
290
     0
  0
SCALE
  5
16EF
102
{ACAD_REACTORS
330
16E2
102
}
330
16E2
100
AcDbScale
 70
     0
300
1" = 1'-0"
140
1.0
141
12.0
290
     0
  0
SCALE
  5
16F0
102
{ACAD_REACTORS
330
16E2
102
}
330
16E2
100
AcDbScale
 70
     0
300
1-1/2" = 1'-0"
140
1.5
141
12.0
290
     0
  0
SCALE
  5
16F1
102
{ACAD_REACTORS
330
16E2
102
}
330
16E2
100
AcDbScale
 70
     0
300
3" = 1'-0"
140
3.0
141
12.0
290
     0
  0
SCALE
  5
16F2
102
{ACAD_REACTORS
330
16E2
102
}
330
16E2
100
AcDbScale
 70
     0
300
6" = 1'-0"
140
6.0
141
12.0
290
     0
  0
SCALE
  5
16F3
102
{ACAD_REACTORS
330
16E2
102
}
330
16E2
100
AcDbScale
 70
     0
300
1'-0" = 1'-0"
140
12.0
141
12.0
290
     0
  0
ACDBSECTIONVIEWSTYLE
  5
16F8
102
{ACAD_REACTORS
330
16F6
102
}
330
16F6
100
AcDbModelDocViewStyle
 70
     0
  3
Imperial24
290
     0
100
AcDbSectionViewStyle
 70
     0
 71
     0
 90
       78
 71
     1
340
11
 62
   256
 40
0.24
340
0
340
0
 62
   256
 40
0.24
300
I, O, Q, S, X, Z
 40
0.48
 90
        3
 40
0.18
 90
        1
 71
     2
340
16F7
 90
       25
 62
   256
340
15
 90
       50
 62
   256
 40
0.24
 40
0.0
 40
0.24
 71
     3
340
11
 62
   256
 40
0.24
 90
        1
 40
0.75
 90
        1
300
%<\AcVar ViewType \f "%tc1">% %<\AcVar ViewSectionStartId>%-%<\AcVar ViewSectionEndId>%\PVARIA %<\AcVar ViewScale \f "%sn">%
 71
     4
 62
   256
 62
   257
300
ANSI31
 40
1.0
 90
        0
290
     0
290
     0
 90
        6
 40
0.0
 40
1.570796326794896
 40
0.2617993877991494
 40
1.308996938995747
 40
-0.2617993877991494
 40
1.832595714594046
  0
TABLESTYLE
  5
16E1
102
{ACAD_XDICTIONARY
360
17C7
102
}
102
{ACAD_REACTORS
330
16E0
102
}
330
16E0
100
AcDbTableStyle
  3
Standard
 70
     0
 71
     0
 40
0.06
 41
0.06
280
     0
281
     0
  7
STANDARD
140
0.18
170
     2
 62
     0
 63
     7
283
     0
274
    -2
284
     1
 64
     0
275
    -2
285
     1
 65
     0
276
    -2
286
     1
 66
     0
277
    -2
287
     1
 67
     0
278
    -2
288
     1
 68
     0
279
    -2
289
     1
 69
     0
  7
STANDARD
140
0.25
170
     5
 62
     0
 63
     7
283
     0
274
    -2
284
     1
 64
     0
275
    -2
285
     1
 65
     0
276
    -2
286
     1
 66
     0
277
    -2
287
     1
 67
     0
278
    -2
288
     1
 68
     0
279
    -2
289
     1
 69
     0
  7
STANDARD
140
0.18
170
     5
 62
     0
 63
     7
283
     0
274
    -2
284
     1
 64
     0
275
    -2
285
     1
 65
     0
276
    -2
286
     1
 66
     0
277
    -2
287
     1
 67
     0
278
    -2
288
     1
 68
     0
279
    -2
289
     1
 69
     0
  0
VISUALSTYLE
  5
16CD
102
{ACAD_XDICTIONARY
360
188D
102
}
102
{ACAD_REACTORS
330
16C7
102
}
330
16C7
100
AcDbVisualStyle
  2
2dWireframe
 70
     4
 71
     0
 72
     2
 73
     0
 90
        0
 40
-0.6
 41
-30.0
 62
     5
 63
     7
421
 16777215
 74
     1
 91
        4
 64
     7
 65
   257
 75
     1
175
     1
 42
1.0
 92
        0
 66
   257
 43
1.0
 76
     1
 77
     6
 78
     2
 67
     7
 79
     5
170
     0
171
     0
290
     0
174
     0
 93
        1
 44
0.0
173
     0
291
     0
 45
0.0
1001
ACAD
1000
AcDbSavedByObjectVersion
1070
     0
  0
VISUALSTYLE
  5
16CC
102
{ACAD_XDICTIONARY
360
188B
102
}
102
{ACAD_REACTORS
330
16C7
102
}
330
16C7
100
AcDbVisualStyle
  2
Basic
 70
     7
 71
     1
 72
     0
 73
     1
 90
        0
 40
-0.6
 41
-30.0
 62
     5
 63
     7
421
 16777215
 74
     0
 91
        4
 64
     7
 65
   257
 75
     1
175
     1
 42
1.0
 92
        8
 66
     7
 43
1.0
 76
     1
 77
     6
 78
     2
 67
     7
 79
     5
170
     0
171
     0
290
     0
174
     0
 93
        1
 44
0.0
173
     0
291
     1
 45
0.0
1001
ACAD
1000
AcDbSavedByObjectVersion
1070
     0
  0
VISUALSTYLE
  5
16D3
102
{ACAD_XDICTIONARY
360
1899
102
}
102
{ACAD_REACTORS
330
16C7
102
}
330
16C7
100
AcDbVisualStyle
  2
Brighten
 70
    12
 71
     2
 72
     2
 73
     0
 90
        0
 40
-0.6
 41
-30.0
 62
     5
 63
     7
421
 16777215
 74
     1
 91
        4
 64
     7
 65
   257
 75
     1
175
     1
 42
1.0
 92
        8
 66
     7
 43
1.0
 76
     1
 77
     6
 78
     2
 67
     7
 79
     5
170
     0
171
     0
290
     0
174
     0
 93
        1
 44
50.0
173
     0
291
     1
 45
0.0
1001
ACAD
1000
AcDbSavedByObjectVersion
1070
     0
  0
VISUALSTYLE
  5
16D7
102
{ACAD_XDICTIONARY
360
18A1
102
}
102
{ACAD_REACTORS
330
16C7
102
}
330
16C7
100
AcDbVisualStyle
  2
ColorChange
 70
    16
 71
     2
 72
     2
 73
     3
 90
        0
 40
-0.6
 41
-30.0
 62
     5
 63
     8
421
  8421504
 74
     1
 91
        4
 64
     7
 65
   257
 75
     1
175
     1
 42
1.0
 92
        8
 66
     8
424
  8421504
 43
1.0
 76
     1
 77
     6
 78
     2
 67
     7
 79
     5
170
     0
171
     0
290
     0
174
     0
 93
        1
 44
0.0
173
     0
291
     1
 45
0.0
1001
ACAD
1000
AcDbSavedByObjectVersion
1070
     0
  0
VISUALSTYLE
  5
16D0
102
{ACAD_XDICTIONARY
360
1893
102
}
102
{ACAD_REACTORS
330
16C7
102
}
330
16C7
100
AcDbVisualStyle
  2
Conceptual
 70
     9
 71
     3
 72
     2
 73
     0
 90
        0
 40
-0.6
 41
-30.0
 62
     5
 63
     7
421
 16777215
 74
     2
 91
        2
 64
     7
 65
   257
 75
     1
175
     1
 42
179.0
 92
        8
 66
     7
 43
1.0
 76
     1
 77
     6
 78
     2
 67
     7
 79
     3
170
     0
171
     0
290
     0
174
     0
 93
        1
 44
0.0
173
     0
291
     0
 45
0.0
1001
ACAD
1000
AcDbSavedByObjectVersion
1070
     0
  0
VISUALSTYLE
  5
16D2
102
{ACAD_XDICTIONARY
360
1897
102
}
102
{ACAD_REACTORS
330
16C7
102
}
330
16C7
100
AcDbVisualStyle
  2
Dim
 70
    11
 71
     2
 72
     2
 73
     0
 90
        0
 40
-0.6
 41
-30.0
 62
     5
 63
     7
421
 16777215
 74
     1
 91
        4
 64
     7
 65
   257
 75
     1
175
     1
 42
1.0
 92
        8
 66
     7
 43
1.0
 76
     1
 77
     6
 78
     2
 67
     7
 79
     5
170
     0
171
     0
290
     0
174
     0
 93
        1
 44
-50.0
173
     0
291
     1
 45
0.0
1001
ACAD
1000
AcDbSavedByObjectVersion
1070
     0
  0
VISUALSTYLE
  5
16DF
102
{ACAD_XDICTIONARY
360
18B1
102
}
102
{ACAD_REACTORS
330
16C7
102
}
330
16C7
100
AcDbVisualStyle
  2
EdgeColorOff
 70
    22
 71
     2
 72
     2
 73
     0
 90
        0
 40
-0.6
 41
-30.0
 62
     5
 63
     7
421
 16777215
 74
     1
 91
        4
 64
     7
 65
   257
 75
     1
175
     1
 42
1.0
 92
        8
 66
     7
 43
1.0
 76
     1
 77
     6
 78
     2
 67
     7
 79
     5
170
     0
171
     0
290
     0
174
     0
 93
        1
 44
0.0
173
     0
291
     1
 45
0.0
1001
ACAD
1000
AcDbSavedByObjectVersion
1070
     0
  0
VISUALSTYLE
  5
16D6
102
{ACAD_XDICTIONARY
360
189F
102
}
102
{ACAD_REACTORS
330
16C7
102
}
330
16C7
100
AcDbVisualStyle
  2
Facepattern
 70
    15
 71
     2
 72
     2
 73
     0
 90
        0
 40
-0.6
 41
-30.0
 62
     5
 63
     7
421
 16777215
 74
     1
 91
        4
 64
     7
 65
   257
 75
     1
175
     1
 42
1.0
 92
        8
 66
     7
 43
1.0
 76
     1
 77
     6
 78
     2
 67
     7
 79
     5
170
     0
171
     0
290
     0
174
     0
 93
        1
 44
0.0
173
     0
291
     1
 45
0.0
1001
ACAD
1000
AcDbSavedByObjectVersion
1070
     0
  0
VISUALSTYLE
  5
16C8
102
{ACAD_XDICTIONARY
360
1883
102
}
102
{ACAD_REACTORS
330
16C7
102
}
330
16C7
100
AcDbVisualStyle
  2
Flat
 70
     0
 71
     2
 72
     1
 73
     1
 90
        2
 40
-0.6
 41
30.0
 62
     5
 63
     7
421
 16777215
 74
     0
 91
        0
 64
     7
 65
   257
 75
     1
175
     1
 42
1.0
 92
        8
 66
     7
 43
1.0
 76
     1
 77
     6
 78
     2
 67
     7
 79
     5
170
     0
171
     0
290
     0
174
     0
 93
       13
 44
0.0
173
     0
291
     1
 45
0.0
1001
ACAD
1000
AcDbSavedByObjectVersion
1070
     0
  0
VISUALSTYLE
  5
16C9
102
{ACAD_XDICTIONARY
360
1885
102
}
102
{ACAD_REACTORS
330
16C7
102
}
330
16C7
100
AcDbVisualStyle
  2
FlatWithEdges
 70
     1
 71
     2
 72
     1
 73
     1
 90
        2
 40
-0.6
 41
30.0
 62
     5
 63
     7
421
 16777215
 74
     1
 91
        0
 64
     7
 65
   257
 75
     1
175
     1
 42
1.0
 92
        0
 66
   257
 43
1.0
 76
     1
 77
     6
 78
     2
 67
     7
 79
     5
170
     0
171
     0
290
     0
174
     0
 93
       13
 44
0.0
173
     0
291
     1
 45
0.0
1001
ACAD
1000
AcDbSavedByObjectVersion
1070
     0
  0
VISUALSTYLE
  5
16CA
102
{ACAD_XDICTIONARY
360
1887
102
}
102
{ACAD_REACTORS
330
16C7
102
}
330
16C7
100
AcDbVisualStyle
  2
Gouraud
 70
     2
 71
     2
 72
     2
 73
     1
 90
        2
 40
-0.6
 41
30.0
 62
     5
 63
     7
421
 16777215
 74
     0
 91
        0
 64
     7
 65
   257
 75
     1
175
     1
 42
1.0
 92
        0
 66
     7
 43
1.0
 76
     1
 77
     6
 78
     2
 67
     7
 79
     5
170
     0
171
     0
290
     0
174
     0
 93
       13
 44
0.0
173
     0
291
     1
 45
0.0
1001
ACAD
1000
AcDbSavedByObjectVersion
1070
     0
  0
VISUALSTYLE
  5
16CB
102
{ACAD_XDICTIONARY
360
1889
102
}
102
{ACAD_REACTORS
330
16C7
102
}
330
16C7
100
AcDbVisualStyle
  2
GouraudWithEdges
 70
     3
 71
     2
 72
     2
 73
     1
 90
        2
 40
-0.6
 41
30.0
 62
     5
 63
     7
421
 16777215
 74
     1
 91
        0
 64
     7
 65
   257
 75
     1
175
     1
 42
1.0
 92
        0
 66
   257
 43
1.0
 76
     1
 77
     6
 78
     2
 67
     7
 79
     5
170
     0
171
     0
290
     0
174
     0
 93
       13
 44
0.0
173
     0
291
     1
 45
0.0
1001
ACAD
1000
AcDbSavedByObjectVersion
1070
     0
  0
VISUALSTYLE
  5
16CF
102
{ACAD_XDICTIONARY
360
1891
102
}
102
{ACAD_REACTORS
330
16C7
102
}
330
16C7
100
AcDbVisualStyle
  2
Hidden
 70
     6
 71
     1
 72
     2
 73
     2
 90
        0
 40
-0.6
 41
-30.0
 62
     5
 63
     7
421
 16777215
 74
     2
 91
        2
 64
     7
 65
   257
 75
     2
175
     1
 42
40.0
 92
        0
 66
   257
 43
1.0
 76
     1
 77
     6
 78
     2
 67
     7
 79
     3
170
     0
171
     0
290
     0
174
     0
 93
        1
 44
0.0
173
     0
291
     0
 45
0.0
1001
ACAD
1000
AcDbSavedByObjectVersion
1070
     0
  0
VISUALSTYLE
  5
16DD
102
{ACAD_XDICTIONARY
360
18AD
102
}
102
{ACAD_REACTORS
330
16C7
102
}
330
16C7
100
AcDbVisualStyle
  2
JitterOff
 70
    20
 71
     2
 72
     2
 73
     0
 90
        0
 40
-0.6
 41
-30.0
 62
     5
 63
     7
421
 16777215
 74
     1
 91
        4
 64
     7
 65
   257
 75
     1
175
     1
 42
1.0
 92
       10
 66
     7
 43
1.0
 76
     1
 77
     6
 78
     2
 67
     7
 79
     5
170
     0
171
     0
290
     0
174
     0
 93
        1
 44
0.0
173
     0
291
     1
 45
0.0
1001
ACAD
1000
AcDbSavedByObjectVersion
1070
     0
  0
VISUALSTYLE
  5
16D5
102
{ACAD_XDICTIONARY
360
189D
102
}
102
{ACAD_REACTORS
330
16C7
102
}
330
16C7
100
AcDbVisualStyle
  2
Linepattern
 70
    14
 71
     2
 72
     2
 73
     0
 90
        0
 40
-0.6
 41
-30.0
 62
     5
 63
     7
421
 16777215
 74
     1
 91
        4
 64
     7
 65
   257
 75
     7
175
     7
 42
1.0
 92
        8
 66
     7
 43
1.0
 76
     1
 77
     6
 78
     2
 67
     7
 79
     5
170
     0
171
     0
290
     0
174
     0
 93
        1
 44
0.0
173
     0
291
     1
 45
0.0
1001
ACAD
1000
AcDbSavedByObjectVersion
1070
     0
  0
VISUALSTYLE
  5
16DE
102
{ACAD_XDICTIONARY
360
18AF
102
}
102
{ACAD_REACTORS
330
16C7
102
}
330
16C7
100
AcDbVisualStyle
  2
OverhangOff
 70
    21
 71
     2
 72
     2
 73
     0
 90
        0
 40
-0.6
 41
-30.0
 62
     5
 63
     7
421
 16777215
 74
     1
 91
        4
 64
     7
 65
   257
 75
     1
175
     1
 42
1.0
 92
        9
 66
     7
 43
1.0
 76
     1
 77
     6
 78
     2
 67
     7
 79
     5
170
     0
171
     0
290
     0
174
     0
 93
        1
 44
0.0
173
     0
291
     1
 45
0.0
1001
ACAD
1000
AcDbSavedByObjectVersion
1070
     0
  0
VISUALSTYLE
  5
16D1
102
{ACAD_XDICTIONARY
360
1895
102
}
102
{ACAD_REACTORS
330
16C7
102
}
330
16C7
100
AcDbVisualStyle
  2
Realistic
 70
     8
 71
     2
 72
     2
 73
     0
 90
        2
 40
-0.6
 41
30.0
 62
     5
 63
     7
421
 16777215
 74
     0
 91
        0
 64
     7
 65
   257
 75
     1
175
     1
 42
1.0
 92
        8
 66
   257
 43
1.0
 76
     1
 77
     6
 78
     2
 67
     7
 79
     3
170
     0
171
     0
290
     0
174
     0
 93
       13
 44
0.0
173
     0
291
     0
 45
0.0
1001
ACAD
1000
AcDbSavedByObjectVersion
1070
     0
  0
VISUALSTYLE
  5
16DC
102
{ACAD_XDICTIONARY
360
18AB
102
}
102
{ACAD_REACTORS
330
16C7
102
}
330
16C7
100
AcDbVisualStyle
  2
Shaded
 70
    27
 71
     2
 72
     2
 73
     1
 90
        2
 40
-0.6
 41
30.0
 62
     5
 63
     7
421
 16777215
 74
     0
 91
        4
 64
     7
 65
   257
 75
     1
175
     1
 42
1.0
 92
        8
 66
   257
 43
1.0
 76
     1
 77
     6
 78
     2
 67
     8
425
  7895160
 79
     3
170
     0
171
     0
290
     0
174
     0
 93
        5
 44
0.0
173
     0
291
     0
 45
0.0
1001
ACAD
1000
AcDbSavedByObjectVersion
1070
     0
  0
VISUALSTYLE
  5
16DB
102
{ACAD_XDICTIONARY
360
18A9
102
}
102
{ACAD_REACTORS
330
16C7
102
}
330
16C7
100
AcDbVisualStyle
  2
Shaded with edges
 70
    26
 71
     2
 72
     2
 73
     1
 90
        2
 40
-0.6
 41
30.0
 62
     5
 63
     7
421
 16777215
 74
     1
 91
       10
 64
     7
 65
   257
 75
     2
175
     1
 42
1.0
 92
        8
 66
   257
 43
1.0
 76
     1
 77
     6
 78
     2
 67
     7
 79
     3
170
     0
171
     0
290
     0
174
     0
 93
        5
 44
0.0
173
     0
291
     0
 45
0.0
1001
ACAD
1000
AcDbSavedByObjectVersion
1070
     0
  0
VISUALSTYLE
  5
16D8
102
{ACAD_XDICTIONARY
360
18A3
102
}
102
{ACAD_REACTORS
330
16C7
102
}
330
16C7
100
AcDbVisualStyle
  2
Shades of Gray
 70
    23
 71
     2
 72
     2
 73
     3
 90
        0
 40
-0.6
 41
-30.0
 62
     5
 63
     7
421
 16777215
 74
     2
 91
        2
 64
     7
 65
     7
 75
     1
175
     1
 42
40.0
 92
        8
 66
     7
 43
1.0
 76
     1
 77
     6
 78
     2
 67
     7
 79
     3
170
     0
171
     0
290
     0
174
     0
 93
        1
 44
0.0
173
     0
291
     0
 45
0.0
1001
ACAD
1000
AcDbSavedByObjectVersion
1070
     0
  0
VISUALSTYLE
  5
16D9
102
{ACAD_XDICTIONARY
360
18A5
102
}
102
{ACAD_REACTORS
330
16C7
102
}
330
16C7
100
AcDbVisualStyle
  2
Sketchy
 70
    24
 71
     1
 72
     2
 73
     2
 90
        0
 40
-0.6
 41
-30.0
 62
     5
 63
     7
421
 16777215
 74
     2
 91
        2
 64
     7
 65
     7
 75
     1
175
     1
 42
40.0
 92
       11
 66
     7
 43
1.0
 76
     1
 77
     6
 78
     2
 67
     7
 79
     6
170
     0
171
     0
290
     0
174
     0
 93
        1
 44
0.0
173
     0
291
     0
 45
0.0
1001
ACAD
1000
AcDbSavedByObjectVersion
1070
     0
  0
VISUALSTYLE
  5
16D4
102
{ACAD_XDICTIONARY
360
189B
102
}
102
{ACAD_REACTORS
330
16C7
102
}
330
16C7
100
AcDbVisualStyle
  2
Thicken
 70
    13
 71
     2
 72
     2
 73
     0
 90
        0
 40
-0.6
 41
-30.0
 62
     5
 63
     7
421
 16777215
 74
     1
 91
        4
 64
     7
 65
   257
 75
     1
175
     1
 42
1.0
 92
       12
 66
     7
 43
1.0
 76
     1
 77
     6
 78
     2
 67
     7
 79
     5
170
     0
171
     0
290
     0
174
     0
 93
        1
 44
0.0
173
     0
291
     1
 45
0.0
1001
ACAD
1000
AcDbSavedByObjectVersion
1070
     0
  0
VISUALSTYLE
  5
16CE
102
{ACAD_XDICTIONARY
360
188F
102
}
102
{ACAD_REACTORS
330
16C7
102
}
330
16C7
100
AcDbVisualStyle
  2
Wireframe
 70
     5
 71
     0
 72
     2
 73
     0
 90
        0
 40
-0.6
 41
-30.0
 62
     5
 63
     7
421
 16777215
 74
     1
 91
        4
 64
     7
 65
   257
 75
     1
175
     1
 42
1.0
 92
        0
 66
   257
 43
1.0
 76
     1
 77
     6
 78
     2
 67
     7
 79
     3
170
     0
171
     0
290
     0
174
     0
 93
        1
 44
0.0
173
     0
291
     0
 45
0.0
1001
ACAD
1000
AcDbSavedByObjectVersion
1070
     0
  0
VISUALSTYLE
  5
16DA
102
{ACAD_XDICTIONARY
360
18A7
102
}
102
{ACAD_REACTORS
330
16C7
102
}
330
16C7
100
AcDbVisualStyle
  2
X-Ray
 70
    25
 71
     2
 72
     2
 73
     1
 90
        1
 40
0.5
 41
-30.0
 62
     5
 63
     7
421
 16777215
 74
     1
 91
        0
 64
     7
 65
   257
 75
     1
175
     1
 42
1.0
 92
        8
 66
     7
 43
1.0
 76
     1
 77
     6
 78
     2
 67
     7
 79
     3
170
     0
171
     0
290
     0
174
     0
 93
       13
 44
0.0
173
     0
291
     0
 45
0.0
1001
ACAD
1000
AcDbSavedByObjectVersion
1070
     0
  0
DICTIONARYVAR
  5
1808
102
{ACAD_REACTORS
330
25E
102
}
330
25E
100
DictionaryVariables
280
     0
  1
1:1
  0
DICTIONARYVAR
  5
1805
102
{ACAD_REACTORS
330
25E
102
}
330
25E
100
DictionaryVariables
280
     0
  1
STANDARD
  0
DICTIONARYVAR
  5
1804
102
{ACAD_REACTORS
330
25E
102
}
330
25E
100
DictionaryVariables
280
     0
  1
STANDARD
  0
DICTIONARYVAR
  5
1806
102
{ACAD_REACTORS
330
25E
102
}
330
25E
100
DictionaryVariables
280
     0
  1
Imperial24
  0
DICTIONARYVAR
  5
1807
102
{ACAD_REACTORS
330
25E
102
}
330
25E
100
DictionaryVariables
280
     0
  1
Imperial24
  0
DICTIONARYVAR
  5
25F
102
{ACAD_REACTORS
330
25E
102
}
330
25E
100
DictionaryVariables
280
     0
  1
1
  0
DICTIONARYVAR
  5
260
102
{ACAD_REACTORS
330
25E
102
}
330
25E
100
DictionaryVariables
280
     0
  1

  0
DICTIONARYVAR
  5
187D
102
{ACAD_REACTORS
330
25E
102
}
330
25E
100
DictionaryVariables
280
     0
  1
2
  0
DICTIONARY
  5
16B8
330
16B7
100
AcDbDictionary
280
     1
281
     1
  3
ACAD_XREC_ROUNDTRIP
360
1881
  3
BUMPTILE
360
16BA
  3
DIFFUSETILE
360
16B9
  3
OPACITYTILE
360
16BD
  3
REFLECTIONTILE
360
16BC
  3
REFRACTIONTILE
360
16BE
  3
SPECULARTILE
360
16BB
  0
DICTIONARY
  5
16B0
330
16AF
100
AcDbDictionary
280
     1
281
     1
  3
ACAD_XREC_ROUNDTRIP
360
1880
  3
BUMPTILE
360
16B2
  3
DIFFUSETILE
360
16B1
  3
OPACITYTILE
360
16B5
  3
REFLECTIONTILE
360
16B4
  3
REFRACTIONTILE
360
16B6
  3
SPECULARTILE
360
16B3
  0
DICTIONARY
  5
16C0
330
16BF
100
AcDbDictionary
280
     1
281
     1
  3
ACAD_XREC_ROUNDTRIP
360
1882
  3
BUMPTILE
360
16C2
  3
DIFFUSETILE
360
16C1
  3
OPACITYTILE
360
16C5
  3
REFLECTIONTILE
360
16C4
  3
REFRACTIONTILE
360
16C6
  3
SPECULARTILE
360
16C3
  0
DICTIONARY
  5
18B4
330
16F5
100
AcDbDictionary
280
     1
281
     1
  3
ACAD_XREC_ROUNDTRIP
360
18B5
  0
DICTIONARY
  5
17C7
330
16E1
100
AcDbDictionary
280
     1
281
     1
  3
ACAD_ROUNDTRIP_2008_TABLESTYLE_CELLSTYLEMAP
360
187E
  3
ACAD_XREC_ROUNDTRIP
360
18B3
  0
DICTIONARY
  5
188D
330
16CD
100
AcDbDictionary
280
     1
281
     1
  3
ACAD_XREC_ROUNDTRIP
360
188E
  0
DICTIONARY
  5
188B
330
16CC
100
AcDbDictionary
280
     1
281
     1
  3
ACAD_XREC_ROUNDTRIP
360
188C
  0
DICTIONARY
  5
1899
330
16D3
100
AcDbDictionary
280
     1
281
     1
  3
ACAD_XREC_ROUNDTRIP
360
189A
  0
DICTIONARY
  5
18A1
330
16D7
100
AcDbDictionary
280
     1
281
     1
  3
ACAD_XREC_ROUNDTRIP
360
18A2
  0
DICTIONARY
  5
1893
330
16D0
100
AcDbDictionary
280
     1
281
     1
  3
ACAD_XREC_ROUNDTRIP
360
1894
  0
DICTIONARY
  5
1897
330
16D2
100
AcDbDictionary
280
     1
281
     1
  3
ACAD_XREC_ROUNDTRIP
360
1898
  0
DICTIONARY
  5
18B1
330
16DF
100
AcDbDictionary
280
     1
281
     1
  3
ACAD_XREC_ROUNDTRIP
360
18B2
  0
DICTIONARY
  5
189F
330
16D6
100
AcDbDictionary
280
     1
281
     1
  3
ACAD_XREC_ROUNDTRIP
360
18A0
  0
DICTIONARY
  5
1883
330
16C8
100
AcDbDictionary
280
     1
281
     1
  3
ACAD_XREC_ROUNDTRIP
360
1884
  0
DICTIONARY
  5
1885
330
16C9
100
AcDbDictionary
280
     1
281
     1
  3
ACAD_XREC_ROUNDTRIP
360
1886
  0
DICTIONARY
  5
1887
330
16CA
100
AcDbDictionary
280
     1
281
     1
  3
ACAD_XREC_ROUNDTRIP
360
1888
  0
DICTIONARY
  5
1889
330
16CB
100
AcDbDictionary
280
     1
281
     1
  3
ACAD_XREC_ROUNDTRIP
360
188A
  0
DICTIONARY
  5
1891
330
16CF
100
AcDbDictionary
280
     1
281
     1
  3
ACAD_XREC_ROUNDTRIP
360
1892
  0
DICTIONARY
  5
18AD
330
16DD
100
AcDbDictionary
280
     1
281
     1
  3
ACAD_XREC_ROUNDTRIP
360
18AE
  0
DICTIONARY
  5
189D
330
16D5
100
AcDbDictionary
280
     1
281
     1
  3
ACAD_XREC_ROUNDTRIP
360
189E
  0
DICTIONARY
  5
18AF
330
16DE
100
AcDbDictionary
280
     1
281
     1
  3
ACAD_XREC_ROUNDTRIP
360
18B0
  0
DICTIONARY
  5
1895
330
16D1
100
AcDbDictionary
280
     1
281
     1
  3
ACAD_XREC_ROUNDTRIP
360
1896
  0
DICTIONARY
  5
18AB
330
16DC
100
AcDbDictionary
280
     1
281
     1
  3
ACAD_XREC_ROUNDTRIP
360
18AC
  0
DICTIONARY
  5
18A9
330
16DB
100
AcDbDictionary
280
     1
281
     1
  3
ACAD_XREC_ROUNDTRIP
360
18AA
  0
DICTIONARY
  5
18A3
330
16D8
100
AcDbDictionary
280
     1
281
     1
  3
ACAD_XREC_ROUNDTRIP
360
18A4
  0
DICTIONARY
  5
18A5
330
16D9
100
AcDbDictionary
280
     1
281
     1
  3
ACAD_XREC_ROUNDTRIP
360
18A6
  0
DICTIONARY
  5
189B
330
16D4
100
AcDbDictionary
280
     1
281
     1
  3
ACAD_XREC_ROUNDTRIP
360
189C
  0
DICTIONARY
  5
188F
330
16CE
100
AcDbDictionary
280
     1
281
     1
  3
ACAD_XREC_ROUNDTRIP
360
1890
  0
DICTIONARY
  5
18A7
330
16DA
100
AcDbDictionary
280
     1
281
     1
  3
ACAD_XREC_ROUNDTRIP
360
18A8
  0
XRECORD
  5
1881
102
{ACAD_REACTORS
330
16B8
102
}
330
16B8
100
AcDbXrecord
280
     1
102
MATERIAL
148
0.0
149
0.0
149
0.0
 93
        0
 94
      127
282
     0
 72
     0
 77
     0
171
     0
175
     0
179
     0
273
     0
  0
XRECORD
  5
16BA
102
{ACAD_REACTORS
330
16B8
102
}
330
16B8
100
AcDbXrecord
280
     1
270
     1
271
     1
  0
XRECORD
  5
16B9
102
{ACAD_REACTORS
330
16B8
102
}
330
16B8
100
AcDbXrecord
280
     1
270
     1
271
     1
  0
XRECORD
  5
16BD
102
{ACAD_REACTORS
330
16B8
102
}
330
16B8
100
AcDbXrecord
280
     1
270
     1
271
     1
  0
XRECORD
  5
16BC
102
{ACAD_REACTORS
330
16B8
102
}
330
16B8
100
AcDbXrecord
280
     1
270
     1
271
     1
  0
XRECORD
  5
16BE
102
{ACAD_REACTORS
330
16B8
102
}
330
16B8
100
AcDbXrecord
280
     1
270
     1
271
     1
  0
XRECORD
  5
16BB
102
{ACAD_REACTORS
330
16B8
102
}
330
16B8
100
AcDbXrecord
280
     1
270
     1
271
     1
  0
XRECORD
  5
1880
102
{ACAD_REACTORS
330
16B0
102
}
330
16B0
100
AcDbXrecord
280
     1
102
MATERIAL
148
0.0
149
0.0
149
0.0
 93
        0
 94
      127
282
     0
 72
     0
 77
     0
171
     0
175
     0
179
     0
273
     0
  0
XRECORD
  5
16B2
102
{ACAD_REACTORS
330
16B0
102
}
330
16B0
100
AcDbXrecord
280
     1
270
     1
271
     1
  0
XRECORD
  5
16B1
102
{ACAD_REACTORS
330
16B0
102
}
330
16B0
100
AcDbXrecord
280
     1
270
     1
271
     1
  0
XRECORD
  5
16B5
102
{ACAD_REACTORS
330
16B0
102
}
330
16B0
100
AcDbXrecord
280
     1
270
     1
271
     1
  0
XRECORD
  5
16B4
102
{ACAD_REACTORS
330
16B0
102
}
330
16B0
100
AcDbXrecord
280
     1
270
     1
271
     1
  0
XRECORD
  5
16B6
102
{ACAD_REACTORS
330
16B0
102
}
330
16B0
100
AcDbXrecord
280
     1
270
     1
271
     1
  0
XRECORD
  5
16B3
102
{ACAD_REACTORS
330
16B0
102
}
330
16B0
100
AcDbXrecord
280
     1
270
     1
271
     1
  0
XRECORD
  5
1882
102
{ACAD_REACTORS
330
16C0
102
}
330
16C0
100
AcDbXrecord
280
     1
102
MATERIAL
148
0.0
149
0.0
149
0.0
 93
        0
 94
      127
282
     0
 72
     0
 77
     0
171
     0
175
     0
179
     0
273
     0
  0
XRECORD
  5
16C2
102
{ACAD_REACTORS
330
16C0
102
}
330
16C0
100
AcDbXrecord
280
     1
270
     1
271
     1
  0
XRECORD
  5
16C1
102
{ACAD_REACTORS
330
16C0
102
}
330
16C0
100
AcDbXrecord
280
     1
270
     1
271
     1
  0
XRECORD
  5
16C5
102
{ACAD_REACTORS
330
16C0
102
}
330
16C0
100
AcDbXrecord
280
     1
270
     1
271
     1
  0
XRECORD
  5
16C4
102
{ACAD_REACTORS
330
16C0
102
}
330
16C0
100
AcDbXrecord
280
     1
270
     1
271
     1
  0
XRECORD
  5
16C6
102
{ACAD_REACTORS
330
16C0
102
}
330
16C0
100
AcDbXrecord
280
     1
270
     1
271
     1
  0
XRECORD
  5
16C3
102
{ACAD_REACTORS
330
16C0
102
}
330
16C0
100
AcDbXrecord
280
     1
270
     1
271
     1
  0
XRECORD
  5
18B5
102
{ACAD_REACTORS
330
18B4
102
}
330
18B4
100
AcDbXrecord
280
     1
102
ACAD_ROUNDTRIP_2012_MLEADER_STYLE
298
     1
  0
CELLSTYLEMAP
  5
187E
102
{ACAD_REACTORS
330
17C7
102
}
330
17C7
100
AcDbCellStyleMap
 90
        3
300
CELLSTYLE
  1
TABLEFORMAT_BEGIN
 90
        5
170
     1
 91
        0
 92
    32768
 62
   257
 93
        1
300
CONTENTFORMAT
  1
CONTENTFORMAT_BEGIN
 90
        0
 91
        0
 92
      512
 93
        0
300

 40
0.0
140
1.0
 94
        5
 62
     0
340
11
144
0.25
309
CONTENTFORMAT_END
171
     0
 94
        0
309
TABLEFORMAT_END
  1
CELLSTYLE_BEGIN
 90
        1
 91
        1
300
_TITLE
309
CELLSTYLE_END
300
CELLSTYLE
  1
TABLEFORMAT_BEGIN
 90
        5
170
     1
 91
        0
 92
        0
 62
   257
 93
        1
300
CONTENTFORMAT
  1
CONTENTFORMAT_BEGIN
 90
        0
 91
        0
 92
      512
 93
        0
300

 40
0.0
140
1.0
 94
        5
 62
     0
340
11
144
0.18
309
CONTENTFORMAT_END
171
     0
 94
        0
309
TABLEFORMAT_END
  1
CELLSTYLE_BEGIN
 90
        2
 91
        1
300
_HEADER
309
CELLSTYLE_END
300
CELLSTYLE
  1
TABLEFORMAT_BEGIN
 90
        5
170
     1
 91
        0
 92
        0
 62
   257
 93
        1
300
CONTENTFORMAT
  1
CONTENTFORMAT_BEGIN
 90
        0
 91
        0
 92
      512
 93
        0
300

 40
0.0
140
1.0
 94
        2
 62
     0
340
11
144
0.18
309
CONTENTFORMAT_END
171
     0
 94
        0
309
TABLEFORMAT_END
  1
CELLSTYLE_BEGIN
 90
        3
 91
        2
300
_DATA
309
CELLSTYLE_END
  0
XRECORD
  5
18B3
102
{ACAD_REACTORS
330
17C7
102
}
330
17C7
100
AcDbXrecord
280
     1
102
ACAD_ROUNDTRIP_PRE2007_TABLESTYLE
 90
      512
 91
        0
  1

 92
      512
 93
        0
  2

 94
      512
 95
        0
  3

  0
XRECORD
  5
188E
102
{ACAD_REACTORS
330
188D
102
}
330
188D
100
AcDbXrecord
280
     1
102
RTVSPost2010Prop28
280
     1
102
RTVSPost2010PropOp28
 70
     1
102
RTVSPost2010Prop29
280
     1
102
RTVSPost2010PropOp29
 70
     1
102
RTVSPost2010Prop30
280
     0
102
RTVSPost2010PropOp30
 70
     1
102
RTVSPost2010Prop31
280
     0
102
RTVSPost2010PropOp31
 70
     1
102
RTVSPost2010Prop32
280
     0
102
RTVSPost2010PropOp32
 70
     1
102
RTVSPost2010Prop33
280
     0
102
RTVSPost2010PropOp33
 70
     1
102
RTVSPost2010Prop34
280
     0
102
RTVSPost2010PropOp34
 70
     1
102
RTVSPost2010Prop35
280
     0
102
RTVSPost2010PropOp35
 70
     1
102
RTVSPost2010Prop36
280
     0
102
RTVSPost2010PropOp36
 70
     1
102
RTVSPost2010Prop37
 90
       50
102
RTVSPost2010PropOp37
 70
     1
102
RTVSPost2010Prop38
140
0.0
102
RTVSPost2010PropOp38
 70
     1
102
RTVSPost2010Prop39
140
1.0
102
RTVSPost2010PropOp39
 70
     1
102
RTVSPost2010Prop40
 90
        0
102
RTVSPost2010PropOp40
 70
     1
102
RTVSPost2010Prop41ColorIndex
 90
       18
102
RTVSPost2010Prop41ColorRGB
 90
        0
102
RTVSPost2010PropOp41
 70
     1
102
RTVSPost2010Prop42
 90
       50
102
RTVSPost2010PropOp42
 70
     1
102
RTVSPost2010Prop43
 90
        3
102
RTVSPost2010PropOp43
 70
     1
102
RTVSPost2010Prop44ColorIndex
 90
        5
102
RTVSPost2010Prop44ColorRGB
 90
      255
102
RTVSPost2010PropOp44
 70
     1
102
RTVSPost2010Prop45
280
     0
102
RTVSPost2010PropOp45
 70
     1
102
RTVSPost2010Prop46
 90
       50
102
RTVSPost2010PropOp46
 70
     1
102
RTVSPost2010Prop47
 90
       50
102
RTVSPost2010PropOp47
 70
     1
102
RTVSPost2010Prop48
 90
       50
102
RTVSPost2010PropOp48
 70
     1
102
RTVSPost2010Prop49
280
     0
102
RTVSPost2010PropOp49
 70
     1
102
RTVSPost2010Prop50
 90
       50
102
RTVSPost2010PropOp50
 70
     1
102
RTVSPost2010Prop51ColorIndex
 90
      256
102
RTVSPost2010Prop51ColorRGB
 90
-16777216
102
RTVSPost2010PropOp51
 70
     0
102
RTVSPost2010Prop52
140
1.0
102
RTVSPost2010PropOp52
 70
     0
102
RTVSPost2010Prop53
 90
        2
102
RTVSPost2010PropOp53
 70
     1
102
RTVSPost2010Prop54
  1
strokes_ogs.tif
102
RTVSPost2010PropOp54
 70
     1
102
RTVSPost2010Prop55
280
     0
102
RTVSPost2010PropOp55
 70
     1
102
RTVSPost2010Prop56
140
1.0
102
RTVSPost2010PropOp56
 70
     1
102
RTVSPost2010Prop57
140
1.0
102
RTVSPost2010PropOp57
 70
     1
102
RTVSPropertyOp0
 70
     1
102
RTVSPropertyOp1
 70
     1
102
RTVSPropertyOp2
 70
     1
102
RTVSPropertyOp3
 70
     1
102
RTVSPropertyOp4
 70
     1
102
RTVSPropertyOp5
 70
     1
102
RTVSPropertyOp6
 70
     1
102
RTVSPropertyOp7
 70
     1
102
RTVSPropertyOp8
 70
     1
102
RTVSPropertyOp9
 70
     1
102
RTVSPropertyOp10
 70
     1
102
RTVSPropertyOp11
 70
     1
102
RTVSPropertyOp12
 70
     1
102
RTVSPropertyOp13
 70
     1
102
RTVSPropertyOp14
 70
     1
102
RTVSPropertyOp15
 70
     1
102
RTVSPropertyOp16
 70
     1
102
RTVSPropertyOp17
 70
     1
102
RTVSPropertyOp18
 70
     1
102
RTVSPropertyOp19
 70
     1
102
RTVSPropertyOp20
 70
     1
102
RTVSPropertyOp21
 70
     1
102
RTVSPropertyOp22
 70
     1
102
RTVSPropertyOp23
 70
     1
102
RTVSPropertyOp24
 70
     1
102
RTVSPropertyOp25
 70
     1
102
RTVSPropertyOp26
 70
     1
102
RTVSPropertyOp27
 70
     1
102
RTVSPropertyOp28
 70
     1
102
RTVSPropertyOp29
 70
     1
102
RTVSPropertyOp30
 70
     1
102
RTVSPropertyOp31
 70
     1
102
RTVSPropertyOp32
 70
     1
102
RTVSPropertyOp33
 70
     1
102
RTVSPropertyOp34
 70
     1
102
RTVSPropertyOp35
 70
     1
102
RTVSPropertyOp36
 70
     1
102
RTVSPropertyOp37
 70
     1
102
RTVSPropertyOp38
 70
     1
102
RTVSPropertyOp39
 70
     1
102
RTVSPropertyOp40
 70
     1
102
RTVSPropertyOp41
 70
     1
102
RTVSPropertyOp42
 70
     1
102
RTVSPropertyOp43
 70
     1
102
RTVSPropertyOp44
 70
     1
102
RTVSPropertyOp45
 70
     1
102
RTVSPropertyOp46
 70
     1
102
RTVSPropertyOp47
 70
     1
102
RTVSPropertyOp48
 70
     1
102
RTVSPropertyOp49
 70
     1
102
RTVSPropertyOp50
 70
     1
102
RTVSPropertyOp51
 70
     0
102
RTVSPropertyOp52
 70
     0
102
RTVSPropertyOp53
 70
     1
102
RTVSPropertyOp54
 70
     1
102
RTVSPropertyOp55
 70
     1
102
RTVSPropertyOp56
 70
     1
102
RTVSPropertyOp57
 70
     1
102
RTVSPropertyOp58
 70
     1
102
RTVSPropertyOp59
 70
     1
102
RTVSPropertyOp60
 70
     1
102
RTVSPropertyOp61
 70
     1
102
RTVSPropertyOp62
 70
     1
  0
XRECORD
  5
188C
102
{ACAD_REACTORS
330
188B
102
}
330
188B
100
AcDbXrecord
280
     1
102
RTVSPost2010Prop28
280
     0
102
RTVSPost2010PropOp28
 70
     1
102
RTVSPost2010Prop29
280
     1
102
RTVSPost2010PropOp29
 70
     1
102
RTVSPost2010Prop30
280
     1
102
RTVSPost2010PropOp30
 70
     1
102
RTVSPost2010Prop31
280
     0
102
RTVSPost2010PropOp31
 70
     1
102
RTVSPost2010Prop32
280
     0
102
RTVSPost2010PropOp32
 70
     1
102
RTVSPost2010Prop33
280
     0
102
RTVSPost2010PropOp33
 70
     1
102
RTVSPost2010Prop34
280
     0
102
RTVSPost2010PropOp34
 70
     1
102
RTVSPost2010Prop35
280
     0
102
RTVSPost2010PropOp35
 70
     1
102
RTVSPost2010Prop36
280
     0
102
RTVSPost2010PropOp36
 70
     1
102
RTVSPost2010Prop37
 90
       50
102
RTVSPost2010PropOp37
 70
     1
102
RTVSPost2010Prop38
140
0.0
102
RTVSPost2010PropOp38
 70
     1
102
RTVSPost2010Prop39
140
1.0
102
RTVSPost2010PropOp39
 70
     1
102
RTVSPost2010Prop40
 90
        0
102
RTVSPost2010PropOp40
 70
     1
102
RTVSPost2010Prop41ColorIndex
 90
       18
102
RTVSPost2010Prop41ColorRGB
 90
        0
102
RTVSPost2010PropOp41
 70
     1
102
RTVSPost2010Prop42
 90
       50
102
RTVSPost2010PropOp42
 70
     1
102
RTVSPost2010Prop43
 90
        3
102
RTVSPost2010PropOp43
 70
     1
102
RTVSPost2010Prop44ColorIndex
 90
        5
102
RTVSPost2010Prop44ColorRGB
 90
      255
102
RTVSPost2010PropOp44
 70
     1
102
RTVSPost2010Prop45
280
     0
102
RTVSPost2010PropOp45
 70
     1
102
RTVSPost2010Prop46
 90
       50
102
RTVSPost2010PropOp46
 70
     1
102
RTVSPost2010Prop47
 90
       50
102
RTVSPost2010PropOp47
 70
     1
102
RTVSPost2010Prop48
 90
       50
102
RTVSPost2010PropOp48
 70
     1
102
RTVSPost2010Prop49
280
     0
102
RTVSPost2010PropOp49
 70
     1
102
RTVSPost2010Prop50
 90
       50
102
RTVSPost2010PropOp50
 70
     1
102
RTVSPost2010Prop51ColorIndex
 90
      256
102
RTVSPost2010Prop51ColorRGB
 90
-16777216
102
RTVSPost2010PropOp51
 70
     0
102
RTVSPost2010Prop52
140
1.0
102
RTVSPost2010PropOp52
 70
     0
102
RTVSPost2010Prop53
 90
        2
102
RTVSPost2010PropOp53
 70
     1
102
RTVSPost2010Prop54
  1
strokes_ogs.tif
102
RTVSPost2010PropOp54
 70
     1
102
RTVSPost2010Prop55
280
     0
102
RTVSPost2010PropOp55
 70
     1
102
RTVSPost2010Prop56
140
1.0
102
RTVSPost2010PropOp56
 70
     1
102
RTVSPost2010Prop57
140
1.0
102
RTVSPost2010PropOp57
 70
     1
102
RTVSPropertyOp0
 70
     1
102
RTVSPropertyOp1
 70
     1
102
RTVSPropertyOp2
 70
     1
102
RTVSPropertyOp3
 70
     1
102
RTVSPropertyOp4
 70
     1
102
RTVSPropertyOp5
 70
     1
102
RTVSPropertyOp6
 70
     1
102
RTVSPropertyOp7
 70
     1
102
RTVSPropertyOp8
 70
     1
102
RTVSPropertyOp9
 70
     1
102
RTVSPropertyOp10
 70
     1
102
RTVSPropertyOp11
 70
     1
102
RTVSPropertyOp12
 70
     1
102
RTVSPropertyOp13
 70
     1
102
RTVSPropertyOp14
 70
     1
102
RTVSPropertyOp15
 70
     1
102
RTVSPropertyOp16
 70
     1
102
RTVSPropertyOp17
 70
     1
102
RTVSPropertyOp18
 70
     1
102
RTVSPropertyOp19
 70
     1
102
RTVSPropertyOp20
 70
     1
102
RTVSPropertyOp21
 70
     1
102
RTVSPropertyOp22
 70
     1
102
RTVSPropertyOp23
 70
     1
102
RTVSPropertyOp24
 70
     1
102
RTVSPropertyOp25
 70
     1
102
RTVSPropertyOp26
 70
     1
102
RTVSPropertyOp27
 70
     1
102
RTVSPropertyOp28
 70
     1
102
RTVSPropertyOp29
 70
     1
102
RTVSPropertyOp30
 70
     1
102
RTVSPropertyOp31
 70
     1
102
RTVSPropertyOp32
 70
     1
102
RTVSPropertyOp33
 70
     1
102
RTVSPropertyOp34
 70
     1
102
RTVSPropertyOp35
 70
     1
102
RTVSPropertyOp36
 70
     1
102
RTVSPropertyOp37
 70
     1
102
RTVSPropertyOp38
 70
     1
102
RTVSPropertyOp39
 70
     1
102
RTVSPropertyOp40
 70
     1
102
RTVSPropertyOp41
 70
     1
102
RTVSPropertyOp42
 70
     1
102
RTVSPropertyOp43
 70
     1
102
RTVSPropertyOp44
 70
     1
102
RTVSPropertyOp45
 70
     1
102
RTVSPropertyOp46
 70
     1
102
RTVSPropertyOp47
 70
     1
102
RTVSPropertyOp48
 70
     1
102
RTVSPropertyOp49
 70
     1
102
RTVSPropertyOp50
 70
     1
102
RTVSPropertyOp51
 70
     0
102
RTVSPropertyOp52
 70
     0
102
RTVSPropertyOp53
 70
     1
102
RTVSPropertyOp54
 70
     1
102
RTVSPropertyOp55
 70
     1
102
RTVSPropertyOp56
 70
     1
102
RTVSPropertyOp57
 70
     1
102
RTVSPropertyOp58
 70
     1
102
RTVSPropertyOp59
 70
     1
102
RTVSPropertyOp60
 70
     1
102
RTVSPropertyOp61
 70
     1
102
RTVSPropertyOp62
 70
     1
  0
XRECORD
  5
189A
102
{ACAD_REACTORS
330
1899
102
}
330
1899
100
AcDbXrecord
280
     1
102
RTVSPost2010Prop28
280
     0
102
RTVSPost2010PropOp28
 70
     1
102
RTVSPost2010Prop29
280
     1
102
RTVSPost2010PropOp29
 70
     1
102
RTVSPost2010Prop30
280
     1
102
RTVSPost2010PropOp30
 70
     1
102
RTVSPost2010Prop31
280
     0
102
RTVSPost2010PropOp31
 70
     1
102
RTVSPost2010Prop32
280
     0
102
RTVSPost2010PropOp32
 70
     1
102
RTVSPost2010Prop33
280
     0
102
RTVSPost2010PropOp33
 70
     1
102
RTVSPost2010Prop34
280
     0
102
RTVSPost2010PropOp34
 70
     1
102
RTVSPost2010Prop35
280
     0
102
RTVSPost2010PropOp35
 70
     1
102
RTVSPost2010Prop36
280
     0
102
RTVSPost2010PropOp36
 70
     1
102
RTVSPost2010Prop37
 90
       50
102
RTVSPost2010PropOp37
 70
     1
102
RTVSPost2010Prop38
140
0.0
102
RTVSPost2010PropOp38
 70
     1
102
RTVSPost2010Prop39
140
1.0
102
RTVSPost2010PropOp39
 70
     1
102
RTVSPost2010Prop40
 90
        0
102
RTVSPost2010PropOp40
 70
     1
102
RTVSPost2010Prop41ColorIndex
 90
       18
102
RTVSPost2010Prop41ColorRGB
 90
        0
102
RTVSPost2010PropOp41
 70
     1
102
RTVSPost2010Prop42
 90
       50
102
RTVSPost2010PropOp42
 70
     1
102
RTVSPost2010Prop43
 90
        3
102
RTVSPost2010PropOp43
 70
     1
102
RTVSPost2010Prop44ColorIndex
 90
        5
102
RTVSPost2010Prop44ColorRGB
 90
      255
102
RTVSPost2010PropOp44
 70
     1
102
RTVSPost2010Prop45
280
     0
102
RTVSPost2010PropOp45
 70
     1
102
RTVSPost2010Prop46
 90
       50
102
RTVSPost2010PropOp46
 70
     1
102
RTVSPost2010Prop47
 90
       50
102
RTVSPost2010PropOp47
 70
     1
102
RTVSPost2010Prop48
 90
       50
102
RTVSPost2010PropOp48
 70
     1
102
RTVSPost2010Prop49
280
     0
102
RTVSPost2010PropOp49
 70
     1
102
RTVSPost2010Prop50
 90
       50
102
RTVSPost2010PropOp50
 70
     1
102
RTVSPost2010Prop51ColorIndex
 90
      256
102
RTVSPost2010Prop51ColorRGB
 90
-16777216
102
RTVSPost2010PropOp51
 70
     0
102
RTVSPost2010Prop52
140
1.0
102
RTVSPost2010PropOp52
 70
     0
102
RTVSPost2010Prop53
 90
        2
102
RTVSPost2010PropOp53
 70
     1
102
RTVSPost2010Prop54
  1
strokes_ogs.tif
102
RTVSPost2010PropOp54
 70
     1
102
RTVSPost2010Prop55
280
     0
102
RTVSPost2010PropOp55
 70
     1
102
RTVSPost2010Prop56
140
1.0
102
RTVSPost2010PropOp56
 70
     1
102
RTVSPost2010Prop57
140
1.0
102
RTVSPost2010PropOp57
 70
     1
102
RTVSPropertyOp0
 70
     1
102
RTVSPropertyOp1
 70
     1
102
RTVSPropertyOp2
 70
     1
102
RTVSPropertyOp3
 70
     1
102
RTVSPropertyOp4
 70
     1
102
RTVSPropertyOp5
 70
     1
102
RTVSPropertyOp6
 70
     1
102
RTVSPropertyOp7
 70
     1
102
RTVSPropertyOp8
 70
     1
102
RTVSPropertyOp9
 70
     1
102
RTVSPropertyOp10
 70
     1
102
RTVSPropertyOp11
 70
     1
102
RTVSPropertyOp12
 70
     1
102
RTVSPropertyOp13
 70
     1
102
RTVSPropertyOp14
 70
     1
102
RTVSPropertyOp15
 70
     1
102
RTVSPropertyOp16
 70
     1
102
RTVSPropertyOp17
 70
     1
102
RTVSPropertyOp18
 70
     1
102
RTVSPropertyOp19
 70
     1
102
RTVSPropertyOp20
 70
     1
102
RTVSPropertyOp21
 70
     1
102
RTVSPropertyOp22
 70
     1
102
RTVSPropertyOp23
 70
     1
102
RTVSPropertyOp24
 70
     1
102
RTVSPropertyOp25
 70
     1
102
RTVSPropertyOp26
 70
     1
102
RTVSPropertyOp27
 70
     1
102
RTVSPropertyOp28
 70
     1
102
RTVSPropertyOp29
 70
     1
102
RTVSPropertyOp30
 70
     1
102
RTVSPropertyOp31
 70
     1
102
RTVSPropertyOp32
 70
     1
102
RTVSPropertyOp33
 70
     1
102
RTVSPropertyOp34
 70
     1
102
RTVSPropertyOp35
 70
     1
102
RTVSPropertyOp36
 70
     1
102
RTVSPropertyOp37
 70
     1
102
RTVSPropertyOp38
 70
     1
102
RTVSPropertyOp39
 70
     1
102
RTVSPropertyOp40
 70
     1
102
RTVSPropertyOp41
 70
     1
102
RTVSPropertyOp42
 70
     1
102
RTVSPropertyOp43
 70
     1
102
RTVSPropertyOp44
 70
     1
102
RTVSPropertyOp45
 70
     1
102
RTVSPropertyOp46
 70
     1
102
RTVSPropertyOp47
 70
     1
102
RTVSPropertyOp48
 70
     1
102
RTVSPropertyOp49
 70
     1
102
RTVSPropertyOp50
 70
     1
102
RTVSPropertyOp51
 70
     0
102
RTVSPropertyOp52
 70
     0
102
RTVSPropertyOp53
 70
     1
102
RTVSPropertyOp54
 70
     1
102
RTVSPropertyOp55
 70
     1
102
RTVSPropertyOp56
 70
     1
102
RTVSPropertyOp57
 70
     1
102
RTVSPropertyOp58
 70
     1
102
RTVSPropertyOp59
 70
     1
102
RTVSPropertyOp60
 70
     1
102
RTVSPropertyOp61
 70
     1
102
RTVSPropertyOp62
 70
     1
  0
XRECORD
  5
18A2
102
{ACAD_REACTORS
330
18A1
102
}
330
18A1
100
AcDbXrecord
280
     1
102
RTVSPost2010Prop28
280
     0
102
RTVSPost2010PropOp28
 70
     1
102
RTVSPost2010Prop29
280
     1
102
RTVSPost2010PropOp29
 70
     1
102
RTVSPost2010Prop30
280
     1
102
RTVSPost2010PropOp30
 70
     1
102
RTVSPost2010Prop31
280
     0
102
RTVSPost2010PropOp31
 70
     1
102
RTVSPost2010Prop32
280
     0
102
RTVSPost2010PropOp32
 70
     1
102
RTVSPost2010Prop33
280
     0
102
RTVSPost2010PropOp33
 70
     1
102
RTVSPost2010Prop34
280
     0
102
RTVSPost2010PropOp34
 70
     1
102
RTVSPost2010Prop35
280
     0
102
RTVSPost2010PropOp35
 70
     1
102
RTVSPost2010Prop36
280
     0
102
RTVSPost2010PropOp36
 70
     1
102
RTVSPost2010Prop37
 90
       50
102
RTVSPost2010PropOp37
 70
     1
102
RTVSPost2010Prop38
140
0.0
102
RTVSPost2010PropOp38
 70
     1
102
RTVSPost2010Prop39
140
1.0
102
RTVSPost2010PropOp39
 70
     1
102
RTVSPost2010Prop40
 90
        0
102
RTVSPost2010PropOp40
 70
     1
102
RTVSPost2010Prop41ColorIndex
 90
       18
102
RTVSPost2010Prop41ColorRGB
 90
        0
102
RTVSPost2010PropOp41
 70
     1
102
RTVSPost2010Prop42
 90
       50
102
RTVSPost2010PropOp42
 70
     1
102
RTVSPost2010Prop43
 90
        3
102
RTVSPost2010PropOp43
 70
     1
102
RTVSPost2010Prop44ColorIndex
 90
        5
102
RTVSPost2010Prop44ColorRGB
 90
      255
102
RTVSPost2010PropOp44
 70
     1
102
RTVSPost2010Prop45
280
     0
102
RTVSPost2010PropOp45
 70
     1
102
RTVSPost2010Prop46
 90
       50
102
RTVSPost2010PropOp46
 70
     1
102
RTVSPost2010Prop47
 90
       50
102
RTVSPost2010PropOp47
 70
     1
102
RTVSPost2010Prop48
 90
       50
102
RTVSPost2010PropOp48
 70
     1
102
RTVSPost2010Prop49
280
     0
102
RTVSPost2010PropOp49
 70
     1
102
RTVSPost2010Prop50
 90
       50
102
RTVSPost2010PropOp50
 70
     1
102
RTVSPost2010Prop51ColorIndex
 90
      256
102
RTVSPost2010Prop51ColorRGB
 90
-16777216
102
RTVSPost2010PropOp51
 70
     0
102
RTVSPost2010Prop52
140
1.0
102
RTVSPost2010PropOp52
 70
     0
102
RTVSPost2010Prop53
 90
        2
102
RTVSPost2010PropOp53
 70
     1
102
RTVSPost2010Prop54
  1
strokes_ogs.tif
102
RTVSPost2010PropOp54
 70
     1
102
RTVSPost2010Prop55
280
     0
102
RTVSPost2010PropOp55
 70
     1
102
RTVSPost2010Prop56
140
1.0
102
RTVSPost2010PropOp56
 70
     1
102
RTVSPost2010Prop57
140
1.0
102
RTVSPost2010PropOp57
 70
     1
102
RTVSPropertyOp0
 70
     1
102
RTVSPropertyOp1
 70
     1
102
RTVSPropertyOp2
 70
     1
102
RTVSPropertyOp3
 70
     1
102
RTVSPropertyOp4
 70
     1
102
RTVSPropertyOp5
 70
     1
102
RTVSPropertyOp6
 70
     1
102
RTVSPropertyOp7
 70
     1
102
RTVSPropertyOp8
 70
     1
102
RTVSPropertyOp9
 70
     1
102
RTVSPropertyOp10
 70
     1
102
RTVSPropertyOp11
 70
     1
102
RTVSPropertyOp12
 70
     1
102
RTVSPropertyOp13
 70
     1
102
RTVSPropertyOp14
 70
     1
102
RTVSPropertyOp15
 70
     1
102
RTVSPropertyOp16
 70
     1
102
RTVSPropertyOp17
 70
     1
102
RTVSPropertyOp18
 70
     1
102
RTVSPropertyOp19
 70
     1
102
RTVSPropertyOp20
 70
     1
102
RTVSPropertyOp21
 70
     1
102
RTVSPropertyOp22
 70
     1
102
RTVSPropertyOp23
 70
     1
102
RTVSPropertyOp24
 70
     1
102
RTVSPropertyOp25
 70
     1
102
RTVSPropertyOp26
 70
     1
102
RTVSPropertyOp27
 70
     1
102
RTVSPropertyOp28
 70
     1
102
RTVSPropertyOp29
 70
     1
102
RTVSPropertyOp30
 70
     1
102
RTVSPropertyOp31
 70
     1
102
RTVSPropertyOp32
 70
     1
102
RTVSPropertyOp33
 70
     1
102
RTVSPropertyOp34
 70
     1
102
RTVSPropertyOp35
 70
     1
102
RTVSPropertyOp36
 70
     1
102
RTVSPropertyOp37
 70
     1
102
RTVSPropertyOp38
 70
     1
102
RTVSPropertyOp39
 70
     1
102
RTVSPropertyOp40
 70
     1
102
RTVSPropertyOp41
 70
     1
102
RTVSPropertyOp42
 70
     1
102
RTVSPropertyOp43
 70
     1
102
RTVSPropertyOp44
 70
     1
102
RTVSPropertyOp45
 70
     1
102
RTVSPropertyOp46
 70
     1
102
RTVSPropertyOp47
 70
     1
102
RTVSPropertyOp48
 70
     1
102
RTVSPropertyOp49
 70
     1
102
RTVSPropertyOp50
 70
     1
102
RTVSPropertyOp51
 70
     0
102
RTVSPropertyOp52
 70
     0
102
RTVSPropertyOp53
 70
     1
102
RTVSPropertyOp54
 70
     1
102
RTVSPropertyOp55
 70
     1
102
RTVSPropertyOp56
 70
     1
102
RTVSPropertyOp57
 70
     1
102
RTVSPropertyOp58
 70
     1
102
RTVSPropertyOp59
 70
     1
102
RTVSPropertyOp60
 70
     1
102
RTVSPropertyOp61
 70
     1
102
RTVSPropertyOp62
 70
     1
  0
XRECORD
  5
1894
102
{ACAD_REACTORS
330
1893
102
}
330
1893
100
AcDbXrecord
280
     1
102
RTVSPost2010Prop28
280
     0
102
RTVSPost2010PropOp28
 70
     1
102
RTVSPost2010Prop29
280
     1
102
RTVSPost2010PropOp29
 70
     1
102
RTVSPost2010Prop30
280
     1
102
RTVSPost2010PropOp30
 70
     1
102
RTVSPost2010Prop31
280
     0
102
RTVSPost2010PropOp31
 70
     1
102
RTVSPost2010Prop32
280
     0
102
RTVSPost2010PropOp32
 70
     1
102
RTVSPost2010Prop33
280
     0
102
RTVSPost2010PropOp33
 70
     1
102
RTVSPost2010Prop34
280
     0
102
RTVSPost2010PropOp34
 70
     1
102
RTVSPost2010Prop35
280
     0
102
RTVSPost2010PropOp35
 70
     1
102
RTVSPost2010Prop36
280
     0
102
RTVSPost2010PropOp36
 70
     1
102
RTVSPost2010Prop37
 90
       50
102
RTVSPost2010PropOp37
 70
     1
102
RTVSPost2010Prop38
140
0.0
102
RTVSPost2010PropOp38
 70
     1
102
RTVSPost2010Prop39
140
1.0
102
RTVSPost2010PropOp39
 70
     1
102
RTVSPost2010Prop40
 90
        0
102
RTVSPost2010PropOp40
 70
     1
102
RTVSPost2010Prop41ColorIndex
 90
       18
102
RTVSPost2010Prop41ColorRGB
 90
        0
102
RTVSPost2010PropOp41
 70
     1
102
RTVSPost2010Prop42
 90
       50
102
RTVSPost2010PropOp42
 70
     1
102
RTVSPost2010Prop43
 90
        3
102
RTVSPost2010PropOp43
 70
     1
102
RTVSPost2010Prop44ColorIndex
 90
        5
102
RTVSPost2010Prop44ColorRGB
 90
      255
102
RTVSPost2010PropOp44
 70
     1
102
RTVSPost2010Prop45
280
     0
102
RTVSPost2010PropOp45
 70
     1
102
RTVSPost2010Prop46
 90
       50
102
RTVSPost2010PropOp46
 70
     1
102
RTVSPost2010Prop47
 90
       50
102
RTVSPost2010PropOp47
 70
     1
102
RTVSPost2010Prop48
 90
       50
102
RTVSPost2010PropOp48
 70
     1
102
RTVSPost2010Prop49
280
     0
102
RTVSPost2010PropOp49
 70
     1
102
RTVSPost2010Prop50
 90
       50
102
RTVSPost2010PropOp50
 70
     1
102
RTVSPost2010Prop51ColorIndex
 90
      256
102
RTVSPost2010Prop51ColorRGB
 90
-16777216
102
RTVSPost2010PropOp51
 70
     0
102
RTVSPost2010Prop52
140
1.0
102
RTVSPost2010PropOp52
 70
     0
102
RTVSPost2010Prop53
 90
        2
102
RTVSPost2010PropOp53
 70
     1
102
RTVSPost2010Prop54
  1
strokes_ogs.tif
102
RTVSPost2010PropOp54
 70
     1
102
RTVSPost2010Prop55
280
     0
102
RTVSPost2010PropOp55
 70
     1
102
RTVSPost2010Prop56
140
1.0
102
RTVSPost2010PropOp56
 70
     1
102
RTVSPost2010Prop57
140
1.0
102
RTVSPost2010PropOp57
 70
     1
102
RTVSPropertyOp0
 70
     1
102
RTVSPropertyOp1
 70
     1
102
RTVSPropertyOp2
 70
     1
102
RTVSPropertyOp3
 70
     1
102
RTVSPropertyOp4
 70
     1
102
RTVSPropertyOp5
 70
     1
102
RTVSPropertyOp6
 70
     1
102
RTVSPropertyOp7
 70
     1
102
RTVSPropertyOp8
 70
     1
102
RTVSPropertyOp9
 70
     1
102
RTVSPropertyOp10
 70
     1
102
RTVSPropertyOp11
 70
     1
102
RTVSPropertyOp12
 70
     1
102
RTVSPropertyOp13
 70
     1
102
RTVSPropertyOp14
 70
     1
102
RTVSPropertyOp15
 70
     1
102
RTVSPropertyOp16
 70
     1
102
RTVSPropertyOp17
 70
     1
102
RTVSPropertyOp18
 70
     1
102
RTVSPropertyOp19
 70
     1
102
RTVSPropertyOp20
 70
     1
102
RTVSPropertyOp21
 70
     1
102
RTVSPropertyOp22
 70
     1
102
RTVSPropertyOp23
 70
     1
102
RTVSPropertyOp24
 70
     1
102
RTVSPropertyOp25
 70
     1
102
RTVSPropertyOp26
 70
     1
102
RTVSPropertyOp27
 70
     1
102
RTVSPropertyOp28
 70
     1
102
RTVSPropertyOp29
 70
     1
102
RTVSPropertyOp30
 70
     1
102
RTVSPropertyOp31
 70
     1
102
RTVSPropertyOp32
 70
     1
102
RTVSPropertyOp33
 70
     1
102
RTVSPropertyOp34
 70
     1
102
RTVSPropertyOp35
 70
     1
102
RTVSPropertyOp36
 70
     1
102
RTVSPropertyOp37
 70
     1
102
RTVSPropertyOp38
 70
     1
102
RTVSPropertyOp39
 70
     1
102
RTVSPropertyOp40
 70
     1
102
RTVSPropertyOp41
 70
     1
102
RTVSPropertyOp42
 70
     1
102
RTVSPropertyOp43
 70
     1
102
RTVSPropertyOp44
 70
     1
102
RTVSPropertyOp45
 70
     1
102
RTVSPropertyOp46
 70
     1
102
RTVSPropertyOp47
 70
     1
102
RTVSPropertyOp48
 70
     1
102
RTVSPropertyOp49
 70
     1
102
RTVSPropertyOp50
 70
     1
102
RTVSPropertyOp51
 70
     0
102
RTVSPropertyOp52
 70
     0
102
RTVSPropertyOp53
 70
     1
102
RTVSPropertyOp54
 70
     1
102
RTVSPropertyOp55
 70
     1
102
RTVSPropertyOp56
 70
     1
102
RTVSPropertyOp57
 70
     1
102
RTVSPropertyOp58
 70
     1
102
RTVSPropertyOp59
 70
     1
102
RTVSPropertyOp60
 70
     1
102
RTVSPropertyOp61
 70
     1
102
RTVSPropertyOp62
 70
     1
  0
XRECORD
  5
1898
102
{ACAD_REACTORS
330
1897
102
}
330
1897
100
AcDbXrecord
280
     1
102
RTVSPost2010Prop28
280
     0
102
RTVSPost2010PropOp28
 70
     1
102
RTVSPost2010Prop29
280
     1
102
RTVSPost2010PropOp29
 70
     1
102
RTVSPost2010Prop30
280
     1
102
RTVSPost2010PropOp30
 70
     1
102
RTVSPost2010Prop31
280
     0
102
RTVSPost2010PropOp31
 70
     1
102
RTVSPost2010Prop32
280
     0
102
RTVSPost2010PropOp32
 70
     1
102
RTVSPost2010Prop33
280
     0
102
RTVSPost2010PropOp33
 70
     1
102
RTVSPost2010Prop34
280
     0
102
RTVSPost2010PropOp34
 70
     1
102
RTVSPost2010Prop35
280
     0
102
RTVSPost2010PropOp35
 70
     1
102
RTVSPost2010Prop36
280
     0
102
RTVSPost2010PropOp36
 70
     1
102
RTVSPost2010Prop37
 90
       50
102
RTVSPost2010PropOp37
 70
     1
102
RTVSPost2010Prop38
140
0.0
102
RTVSPost2010PropOp38
 70
     1
102
RTVSPost2010Prop39
140
1.0
102
RTVSPost2010PropOp39
 70
     1
102
RTVSPost2010Prop40
 90
        0
102
RTVSPost2010PropOp40
 70
     1
102
RTVSPost2010Prop41ColorIndex
 90
       18
102
RTVSPost2010Prop41ColorRGB
 90
        0
102
RTVSPost2010PropOp41
 70
     1
102
RTVSPost2010Prop42
 90
       50
102
RTVSPost2010PropOp42
 70
     1
102
RTVSPost2010Prop43
 90
        3
102
RTVSPost2010PropOp43
 70
     1
102
RTVSPost2010Prop44ColorIndex
 90
        5
102
RTVSPost2010Prop44ColorRGB
 90
      255
102
RTVSPost2010PropOp44
 70
     1
102
RTVSPost2010Prop45
280
     0
102
RTVSPost2010PropOp45
 70
     1
102
RTVSPost2010Prop46
 90
       50
102
RTVSPost2010PropOp46
 70
     1
102
RTVSPost2010Prop47
 90
       50
102
RTVSPost2010PropOp47
 70
     1
102
RTVSPost2010Prop48
 90
       50
102
RTVSPost2010PropOp48
 70
     1
102
RTVSPost2010Prop49
280
     0
102
RTVSPost2010PropOp49
 70
     1
102
RTVSPost2010Prop50
 90
       50
102
RTVSPost2010PropOp50
 70
     1
102
RTVSPost2010Prop51ColorIndex
 90
      256
102
RTVSPost2010Prop51ColorRGB
 90
-16777216
102
RTVSPost2010PropOp51
 70
     0
102
RTVSPost2010Prop52
140
1.0
102
RTVSPost2010PropOp52
 70
     0
102
RTVSPost2010Prop53
 90
        2
102
RTVSPost2010PropOp53
 70
     1
102
RTVSPost2010Prop54
  1
strokes_ogs.tif
102
RTVSPost2010PropOp54
 70
     1
102
RTVSPost2010Prop55
280
     0
102
RTVSPost2010PropOp55
 70
     1
102
RTVSPost2010Prop56
140
1.0
102
RTVSPost2010PropOp56
 70
     1
102
RTVSPost2010Prop57
140
1.0
102
RTVSPost2010PropOp57
 70
     1
102
RTVSPropertyOp0
 70
     1
102
RTVSPropertyOp1
 70
     1
102
RTVSPropertyOp2
 70
     1
102
RTVSPropertyOp3
 70
     1
102
RTVSPropertyOp4
 70
     1
102
RTVSPropertyOp5
 70
     1
102
RTVSPropertyOp6
 70
     1
102
RTVSPropertyOp7
 70
     1
102
RTVSPropertyOp8
 70
     1
102
RTVSPropertyOp9
 70
     1
102
RTVSPropertyOp10
 70
     1
102
RTVSPropertyOp11
 70
     1
102
RTVSPropertyOp12
 70
     1
102
RTVSPropertyOp13
 70
     1
102
RTVSPropertyOp14
 70
     1
102
RTVSPropertyOp15
 70
     1
102
RTVSPropertyOp16
 70
     1
102
RTVSPropertyOp17
 70
     1
102
RTVSPropertyOp18
 70
     1
102
RTVSPropertyOp19
 70
     1
102
RTVSPropertyOp20
 70
     1
102
RTVSPropertyOp21
 70
     1
102
RTVSPropertyOp22
 70
     1
102
RTVSPropertyOp23
 70
     1
102
RTVSPropertyOp24
 70
     1
102
RTVSPropertyOp25
 70
     1
102
RTVSPropertyOp26
 70
     1
102
RTVSPropertyOp27
 70
     1
102
RTVSPropertyOp28
 70
     1
102
RTVSPropertyOp29
 70
     1
102
RTVSPropertyOp30
 70
     1
102
RTVSPropertyOp31
 70
     1
102
RTVSPropertyOp32
 70
     1
102
RTVSPropertyOp33
 70
     1
102
RTVSPropertyOp34
 70
     1
102
RTVSPropertyOp35
 70
     1
102
RTVSPropertyOp36
 70
     1
102
RTVSPropertyOp37
 70
     1
102
RTVSPropertyOp38
 70
     1
102
RTVSPropertyOp39
 70
     1
102
RTVSPropertyOp40
 70
     1
102
RTVSPropertyOp41
 70
     1
102
RTVSPropertyOp42
 70
     1
102
RTVSPropertyOp43
 70
     1
102
RTVSPropertyOp44
 70
     1
102
RTVSPropertyOp45
 70
     1
102
RTVSPropertyOp46
 70
     1
102
RTVSPropertyOp47
 70
     1
102
RTVSPropertyOp48
 70
     1
102
RTVSPropertyOp49
 70
     1
102
RTVSPropertyOp50
 70
     1
102
RTVSPropertyOp51
 70
     0
102
RTVSPropertyOp52
 70
     0
102
RTVSPropertyOp53
 70
     1
102
RTVSPropertyOp54
 70
     1
102
RTVSPropertyOp55
 70
     1
102
RTVSPropertyOp56
 70
     1
102
RTVSPropertyOp57
 70
     1
102
RTVSPropertyOp58
 70
     1
102
RTVSPropertyOp59
 70
     1
102
RTVSPropertyOp60
 70
     1
102
RTVSPropertyOp61
 70
     1
102
RTVSPropertyOp62
 70
     1
  0
XRECORD
  5
18B2
102
{ACAD_REACTORS
330
18B1
102
}
330
18B1
100
AcDbXrecord
280
     1
102
RTVSPost2010Prop28
280
     0
102
RTVSPost2010PropOp28
 70
     0
102
RTVSPost2010Prop29
280
     1
102
RTVSPost2010PropOp29
 70
     0
102
RTVSPost2010Prop30
280
     1
102
RTVSPost2010PropOp30
 70
     0
102
RTVSPost2010Prop31
280
     0
102
RTVSPost2010PropOp31
 70
     0
102
RTVSPost2010Prop32
280
     0
102
RTVSPost2010PropOp32
 70
     0
102
RTVSPost2010Prop33
280
     0
102
RTVSPost2010PropOp33
 70
     0
102
RTVSPost2010Prop34
280
     0
102
RTVSPost2010PropOp34
 70
     0
102
RTVSPost2010Prop35
280
     0
102
RTVSPost2010PropOp35
 70
     0
102
RTVSPost2010Prop36
280
     0
102
RTVSPost2010PropOp36
 70
     0
102
RTVSPost2010Prop37
 90
       50
102
RTVSPost2010PropOp37
 70
     0
102
RTVSPost2010Prop38
140
0.0
102
RTVSPost2010PropOp38
 70
     0
102
RTVSPost2010Prop39
140
1.0
102
RTVSPost2010PropOp39
 70
     0
102
RTVSPost2010Prop40
 90
        0
102
RTVSPost2010PropOp40
 70
     0
102
RTVSPost2010Prop41ColorIndex
 90
       18
102
RTVSPost2010Prop41ColorRGB
 90
        0
102
RTVSPost2010PropOp41
 70
     0
102
RTVSPost2010Prop42
 90
       50
102
RTVSPost2010PropOp42
 70
     0
102
RTVSPost2010Prop43
 90
        3
102
RTVSPost2010PropOp43
 70
     0
102
RTVSPost2010Prop44ColorIndex
 90
        5
102
RTVSPost2010Prop44ColorRGB
 90
      255
102
RTVSPost2010PropOp44
 70
     0
102
RTVSPost2010Prop45
280
     0
102
RTVSPost2010PropOp45
 70
     0
102
RTVSPost2010Prop46
 90
       50
102
RTVSPost2010PropOp46
 70
     0
102
RTVSPost2010Prop47
 90
       50
102
RTVSPost2010PropOp47
 70
     0
102
RTVSPost2010Prop48
 90
       50
102
RTVSPost2010PropOp48
 70
     0
102
RTVSPost2010Prop49
280
     0
102
RTVSPost2010PropOp49
 70
     0
102
RTVSPost2010Prop50
 90
       50
102
RTVSPost2010PropOp50
 70
     0
102
RTVSPost2010Prop51ColorIndex
 90
      256
102
RTVSPost2010Prop51ColorRGB
 90
-16777216
102
RTVSPost2010PropOp51
 70
     0
102
RTVSPost2010Prop52
140
1.0
102
RTVSPost2010PropOp52
 70
     0
102
RTVSPost2010Prop53
 90
        2
102
RTVSPost2010PropOp53
 70
     0
102
RTVSPost2010Prop54
  1
strokes_ogs.tif
102
RTVSPost2010PropOp54
 70
     0
102
RTVSPost2010Prop55
280
     0
102
RTVSPost2010PropOp55
 70
     0
102
RTVSPost2010Prop56
140
1.0
102
RTVSPost2010PropOp56
 70
     0
102
RTVSPost2010Prop57
140
1.0
102
RTVSPost2010PropOp57
 70
     0
102
RTVSPropertyOp0
 70
     0
102
RTVSPropertyOp1
 70
     0
102
RTVSPropertyOp2
 70
     0
102
RTVSPropertyOp3
 70
     0
102
RTVSPropertyOp4
 70
     0
102
RTVSPropertyOp5
 70
     0
102
RTVSPropertyOp6
 70
     0
102
RTVSPropertyOp7
 70
     0
102
RTVSPropertyOp8
 70
     0
102
RTVSPropertyOp9
 70
     0
102
RTVSPropertyOp10
 70
     0
102
RTVSPropertyOp11
 70
     0
102
RTVSPropertyOp12
 70
     0
102
RTVSPropertyOp13
 70
     0
102
RTVSPropertyOp14
 70
     2
102
RTVSPropertyOp15
 70
     0
102
RTVSPropertyOp16
 70
     0
102
RTVSPropertyOp17
 70
     0
102
RTVSPropertyOp18
 70
     0
102
RTVSPropertyOp19
 70
     0
102
RTVSPropertyOp20
 70
     0
102
RTVSPropertyOp21
 70
     0
102
RTVSPropertyOp22
 70
     0
102
RTVSPropertyOp23
 70
     0
102
RTVSPropertyOp24
 70
     0
102
RTVSPropertyOp25
 70
     0
102
RTVSPropertyOp26
 70
     0
102
RTVSPropertyOp27
 70
     0
102
RTVSPropertyOp28
 70
     0
102
RTVSPropertyOp29
 70
     0
102
RTVSPropertyOp30
 70
     0
102
RTVSPropertyOp31
 70
     0
102
RTVSPropertyOp32
 70
     0
102
RTVSPropertyOp33
 70
     0
102
RTVSPropertyOp34
 70
     0
102
RTVSPropertyOp35
 70
     0
102
RTVSPropertyOp36
 70
     0
102
RTVSPropertyOp37
 70
     0
102
RTVSPropertyOp38
 70
     0
102
RTVSPropertyOp39
 70
     0
102
RTVSPropertyOp40
 70
     0
102
RTVSPropertyOp41
 70
     0
102
RTVSPropertyOp42
 70
     0
102
RTVSPropertyOp43
 70
     0
102
RTVSPropertyOp44
 70
     0
102
RTVSPropertyOp45
 70
     0
102
RTVSPropertyOp46
 70
     0
102
RTVSPropertyOp47
 70
     0
102
RTVSPropertyOp48
 70
     0
102
RTVSPropertyOp49
 70
     0
102
RTVSPropertyOp50
 70
     0
102
RTVSPropertyOp51
 70
     0
102
RTVSPropertyOp52
 70
     0
102
RTVSPropertyOp53
 70
     0
102
RTVSPropertyOp54
 70
     0
102
RTVSPropertyOp55
 70
     0
102
RTVSPropertyOp56
 70
     0
102
RTVSPropertyOp57
 70
     0
102
RTVSPropertyOp58
 70
     0
102
RTVSPropertyOp59
 70
     0
102
RTVSPropertyOp60
 70
     0
102
RTVSPropertyOp61
 70
     0
102
RTVSPropertyOp62
 70
     0
  0
XRECORD
  5
18A0
102
{ACAD_REACTORS
330
189F
102
}
330
189F
100
AcDbXrecord
280
     1
102
RTVSPost2010Prop28
280
     0
102
RTVSPost2010PropOp28
 70
     1
102
RTVSPost2010Prop29
280
     1
102
RTVSPost2010PropOp29
 70
     1
102
RTVSPost2010Prop30
280
     1
102
RTVSPost2010PropOp30
 70
     1
102
RTVSPost2010Prop31
280
     0
102
RTVSPost2010PropOp31
 70
     1
102
RTVSPost2010Prop32
280
     0
102
RTVSPost2010PropOp32
 70
     1
102
RTVSPost2010Prop33
280
     0
102
RTVSPost2010PropOp33
 70
     1
102
RTVSPost2010Prop34
280
     0
102
RTVSPost2010PropOp34
 70
     1
102
RTVSPost2010Prop35
280
     0
102
RTVSPost2010PropOp35
 70
     1
102
RTVSPost2010Prop36
280
     0
102
RTVSPost2010PropOp36
 70
     1
102
RTVSPost2010Prop37
 90
       50
102
RTVSPost2010PropOp37
 70
     1
102
RTVSPost2010Prop38
140
0.0
102
RTVSPost2010PropOp38
 70
     1
102
RTVSPost2010Prop39
140
1.0
102
RTVSPost2010PropOp39
 70
     1
102
RTVSPost2010Prop40
 90
        0
102
RTVSPost2010PropOp40
 70
     1
102
RTVSPost2010Prop41ColorIndex
 90
       18
102
RTVSPost2010Prop41ColorRGB
 90
        0
102
RTVSPost2010PropOp41
 70
     1
102
RTVSPost2010Prop42
 90
       50
102
RTVSPost2010PropOp42
 70
     1
102
RTVSPost2010Prop43
 90
        3
102
RTVSPost2010PropOp43
 70
     1
102
RTVSPost2010Prop44ColorIndex
 90
        5
102
RTVSPost2010Prop44ColorRGB
 90
      255
102
RTVSPost2010PropOp44
 70
     1
102
RTVSPost2010Prop45
280
     0
102
RTVSPost2010PropOp45
 70
     1
102
RTVSPost2010Prop46
 90
       50
102
RTVSPost2010PropOp46
 70
     1
102
RTVSPost2010Prop47
 90
       50
102
RTVSPost2010PropOp47
 70
     1
102
RTVSPost2010Prop48
 90
       50
102
RTVSPost2010PropOp48
 70
     1
102
RTVSPost2010Prop49
280
     0
102
RTVSPost2010PropOp49
 70
     1
102
RTVSPost2010Prop50
 90
       50
102
RTVSPost2010PropOp50
 70
     1
102
RTVSPost2010Prop51ColorIndex
 90
      256
102
RTVSPost2010Prop51ColorRGB
 90
-16777216
102
RTVSPost2010PropOp51
 70
     0
102
RTVSPost2010Prop52
140
1.0
102
RTVSPost2010PropOp52
 70
     0
102
RTVSPost2010Prop53
 90
        2
102
RTVSPost2010PropOp53
 70
     1
102
RTVSPost2010Prop54
  1
strokes_ogs.tif
102
RTVSPost2010PropOp54
 70
     1
102
RTVSPost2010Prop55
280
     0
102
RTVSPost2010PropOp55
 70
     1
102
RTVSPost2010Prop56
140
1.0
102
RTVSPost2010PropOp56
 70
     1
102
RTVSPost2010Prop57
140
1.0
102
RTVSPost2010PropOp57
 70
     1
102
RTVSPropertyOp0
 70
     1
102
RTVSPropertyOp1
 70
     1
102
RTVSPropertyOp2
 70
     1
102
RTVSPropertyOp3
 70
     1
102
RTVSPropertyOp4
 70
     1
102
RTVSPropertyOp5
 70
     1
102
RTVSPropertyOp6
 70
     1
102
RTVSPropertyOp7
 70
     1
102
RTVSPropertyOp8
 70
     1
102
RTVSPropertyOp9
 70
     1
102
RTVSPropertyOp10
 70
     1
102
RTVSPropertyOp11
 70
     1
102
RTVSPropertyOp12
 70
     1
102
RTVSPropertyOp13
 70
     1
102
RTVSPropertyOp14
 70
     1
102
RTVSPropertyOp15
 70
     1
102
RTVSPropertyOp16
 70
     1
102
RTVSPropertyOp17
 70
     1
102
RTVSPropertyOp18
 70
     1
102
RTVSPropertyOp19
 70
     1
102
RTVSPropertyOp20
 70
     1
102
RTVSPropertyOp21
 70
     1
102
RTVSPropertyOp22
 70
     1
102
RTVSPropertyOp23
 70
     1
102
RTVSPropertyOp24
 70
     1
102
RTVSPropertyOp25
 70
     1
102
RTVSPropertyOp26
 70
     1
102
RTVSPropertyOp27
 70
     1
102
RTVSPropertyOp28
 70
     1
102
RTVSPropertyOp29
 70
     1
102
RTVSPropertyOp30
 70
     1
102
RTVSPropertyOp31
 70
     1
102
RTVSPropertyOp32
 70
     1
102
RTVSPropertyOp33
 70
     1
102
RTVSPropertyOp34
 70
     1
102
RTVSPropertyOp35
 70
     1
102
RTVSPropertyOp36
 70
     1
102
RTVSPropertyOp37
 70
     1
102
RTVSPropertyOp38
 70
     1
102
RTVSPropertyOp39
 70
     1
102
RTVSPropertyOp40
 70
     1
102
RTVSPropertyOp41
 70
     1
102
RTVSPropertyOp42
 70
     1
102
RTVSPropertyOp43
 70
     1
102
RTVSPropertyOp44
 70
     1
102
RTVSPropertyOp45
 70
     1
102
RTVSPropertyOp46
 70
     1
102
RTVSPropertyOp47
 70
     1
102
RTVSPropertyOp48
 70
     1
102
RTVSPropertyOp49
 70
     1
102
RTVSPropertyOp50
 70
     1
102
RTVSPropertyOp51
 70
     0
102
RTVSPropertyOp52
 70
     0
102
RTVSPropertyOp53
 70
     1
102
RTVSPropertyOp54
 70
     1
102
RTVSPropertyOp55
 70
     1
102
RTVSPropertyOp56
 70
     1
102
RTVSPropertyOp57
 70
     1
102
RTVSPropertyOp58
 70
     1
102
RTVSPropertyOp59
 70
     1
102
RTVSPropertyOp60
 70
     1
102
RTVSPropertyOp61
 70
     1
102
RTVSPropertyOp62
 70
     1
  0
XRECORD
  5
1884
102
{ACAD_REACTORS
330
1883
102
}
330
1883
100
AcDbXrecord
280
     1
102
RTVSPost2010Prop28
280
     0
102
RTVSPost2010PropOp28
 70
     1
102
RTVSPost2010Prop29
280
     1
102
RTVSPost2010PropOp29
 70
     1
102
RTVSPost2010Prop30
280
     1
102
RTVSPost2010PropOp30
 70
     1
102
RTVSPost2010Prop31
280
     0
102
RTVSPost2010PropOp31
 70
     1
102
RTVSPost2010Prop32
280
     0
102
RTVSPost2010PropOp32
 70
     1
102
RTVSPost2010Prop33
280
     0
102
RTVSPost2010PropOp33
 70
     1
102
RTVSPost2010Prop34
280
     0
102
RTVSPost2010PropOp34
 70
     1
102
RTVSPost2010Prop35
280
     0
102
RTVSPost2010PropOp35
 70
     1
102
RTVSPost2010Prop36
280
     0
102
RTVSPost2010PropOp36
 70
     1
102
RTVSPost2010Prop37
 90
       50
102
RTVSPost2010PropOp37
 70
     1
102
RTVSPost2010Prop38
140
0.0
102
RTVSPost2010PropOp38
 70
     1
102
RTVSPost2010Prop39
140
1.0
102
RTVSPost2010PropOp39
 70
     1
102
RTVSPost2010Prop40
 90
        0
102
RTVSPost2010PropOp40
 70
     1
102
RTVSPost2010Prop41ColorIndex
 90
       18
102
RTVSPost2010Prop41ColorRGB
 90
        0
102
RTVSPost2010PropOp41
 70
     1
102
RTVSPost2010Prop42
 90
       50
102
RTVSPost2010PropOp42
 70
     1
102
RTVSPost2010Prop43
 90
        3
102
RTVSPost2010PropOp43
 70
     1
102
RTVSPost2010Prop44ColorIndex
 90
        5
102
RTVSPost2010Prop44ColorRGB
 90
      255
102
RTVSPost2010PropOp44
 70
     1
102
RTVSPost2010Prop45
280
     0
102
RTVSPost2010PropOp45
 70
     1
102
RTVSPost2010Prop46
 90
       50
102
RTVSPost2010PropOp46
 70
     1
102
RTVSPost2010Prop47
 90
       50
102
RTVSPost2010PropOp47
 70
     1
102
RTVSPost2010Prop48
 90
       50
102
RTVSPost2010PropOp48
 70
     1
102
RTVSPost2010Prop49
280
     0
102
RTVSPost2010PropOp49
 70
     1
102
RTVSPost2010Prop50
 90
       50
102
RTVSPost2010PropOp50
 70
     1
102
RTVSPost2010Prop51ColorIndex
 90
      256
102
RTVSPost2010Prop51ColorRGB
 90
-16777216
102
RTVSPost2010PropOp51
 70
     0
102
RTVSPost2010Prop52
140
1.0
102
RTVSPost2010PropOp52
 70
     0
102
RTVSPost2010Prop53
 90
        2
102
RTVSPost2010PropOp53
 70
     1
102
RTVSPost2010Prop54
  1
strokes_ogs.tif
102
RTVSPost2010PropOp54
 70
     1
102
RTVSPost2010Prop55
280
     0
102
RTVSPost2010PropOp55
 70
     1
102
RTVSPost2010Prop56
140
1.0
102
RTVSPost2010PropOp56
 70
     1
102
RTVSPost2010Prop57
140
1.0
102
RTVSPost2010PropOp57
 70
     1
102
RTVSPropertyOp0
 70
     1
102
RTVSPropertyOp1
 70
     1
102
RTVSPropertyOp2
 70
     1
102
RTVSPropertyOp3
 70
     1
102
RTVSPropertyOp4
 70
     1
102
RTVSPropertyOp5
 70
     1
102
RTVSPropertyOp6
 70
     1
102
RTVSPropertyOp7
 70
     1
102
RTVSPropertyOp8
 70
     1
102
RTVSPropertyOp9
 70
     1
102
RTVSPropertyOp10
 70
     1
102
RTVSPropertyOp11
 70
     1
102
RTVSPropertyOp12
 70
     1
102
RTVSPropertyOp13
 70
     1
102
RTVSPropertyOp14
 70
     1
102
RTVSPropertyOp15
 70
     1
102
RTVSPropertyOp16
 70
     1
102
RTVSPropertyOp17
 70
     1
102
RTVSPropertyOp18
 70
     1
102
RTVSPropertyOp19
 70
     1
102
RTVSPropertyOp20
 70
     1
102
RTVSPropertyOp21
 70
     1
102
RTVSPropertyOp22
 70
     1
102
RTVSPropertyOp23
 70
     1
102
RTVSPropertyOp24
 70
     1
102
RTVSPropertyOp25
 70
     1
102
RTVSPropertyOp26
 70
     1
102
RTVSPropertyOp27
 70
     1
102
RTVSPropertyOp28
 70
     1
102
RTVSPropertyOp29
 70
     1
102
RTVSPropertyOp30
 70
     1
102
RTVSPropertyOp31
 70
     1
102
RTVSPropertyOp32
 70
     1
102
RTVSPropertyOp33
 70
     1
102
RTVSPropertyOp34
 70
     1
102
RTVSPropertyOp35
 70
     1
102
RTVSPropertyOp36
 70
     1
102
RTVSPropertyOp37
 70
     1
102
RTVSPropertyOp38
 70
     1
102
RTVSPropertyOp39
 70
     1
102
RTVSPropertyOp40
 70
     1
102
RTVSPropertyOp41
 70
     1
102
RTVSPropertyOp42
 70
     1
102
RTVSPropertyOp43
 70
     1
102
RTVSPropertyOp44
 70
     1
102
RTVSPropertyOp45
 70
     1
102
RTVSPropertyOp46
 70
     1
102
RTVSPropertyOp47
 70
     1
102
RTVSPropertyOp48
 70
     1
102
RTVSPropertyOp49
 70
     1
102
RTVSPropertyOp50
 70
     1
102
RTVSPropertyOp51
 70
     0
102
RTVSPropertyOp52
 70
     0
102
RTVSPropertyOp53
 70
     1
102
RTVSPropertyOp54
 70
     1
102
RTVSPropertyOp55
 70
     1
102
RTVSPropertyOp56
 70
     1
102
RTVSPropertyOp57
 70
     1
102
RTVSPropertyOp58
 70
     1
102
RTVSPropertyOp59
 70
     1
102
RTVSPropertyOp60
 70
     1
102
RTVSPropertyOp61
 70
     1
102
RTVSPropertyOp62
 70
     1
  0
XRECORD
  5
1886
102
{ACAD_REACTORS
330
1885
102
}
330
1885
100
AcDbXrecord
280
     1
102
RTVSPost2010Prop28
280
     0
102
RTVSPost2010PropOp28
 70
     1
102
RTVSPost2010Prop29
280
     1
102
RTVSPost2010PropOp29
 70
     1
102
RTVSPost2010Prop30
280
     1
102
RTVSPost2010PropOp30
 70
     1
102
RTVSPost2010Prop31
280
     0
102
RTVSPost2010PropOp31
 70
     1
102
RTVSPost2010Prop32
280
     0
102
RTVSPost2010PropOp32
 70
     1
102
RTVSPost2010Prop33
280
     0
102
RTVSPost2010PropOp33
 70
     1
102
RTVSPost2010Prop34
280
     0
102
RTVSPost2010PropOp34
 70
     1
102
RTVSPost2010Prop35
280
     0
102
RTVSPost2010PropOp35
 70
     1
102
RTVSPost2010Prop36
280
     0
102
RTVSPost2010PropOp36
 70
     1
102
RTVSPost2010Prop37
 90
       50
102
RTVSPost2010PropOp37
 70
     1
102
RTVSPost2010Prop38
140
0.0
102
RTVSPost2010PropOp38
 70
     1
102
RTVSPost2010Prop39
140
1.0
102
RTVSPost2010PropOp39
 70
     1
102
RTVSPost2010Prop40
 90
        0
102
RTVSPost2010PropOp40
 70
     1
102
RTVSPost2010Prop41ColorIndex
 90
       18
102
RTVSPost2010Prop41ColorRGB
 90
        0
102
RTVSPost2010PropOp41
 70
     1
102
RTVSPost2010Prop42
 90
       50
102
RTVSPost2010PropOp42
 70
     1
102
RTVSPost2010Prop43
 90
        3
102
RTVSPost2010PropOp43
 70
     1
102
RTVSPost2010Prop44ColorIndex
 90
        5
102
RTVSPost2010Prop44ColorRGB
 90
      255
102
RTVSPost2010PropOp44
 70
     1
102
RTVSPost2010Prop45
280
     0
102
RTVSPost2010PropOp45
 70
     1
102
RTVSPost2010Prop46
 90
       50
102
RTVSPost2010PropOp46
 70
     1
102
RTVSPost2010Prop47
 90
       50
102
RTVSPost2010PropOp47
 70
     1
102
RTVSPost2010Prop48
 90
       50
102
RTVSPost2010PropOp48
 70
     1
102
RTVSPost2010Prop49
280
     0
102
RTVSPost2010PropOp49
 70
     1
102
RTVSPost2010Prop50
 90
       50
102
RTVSPost2010PropOp50
 70
     1
102
RTVSPost2010Prop51ColorIndex
 90
      256
102
RTVSPost2010Prop51ColorRGB
 90
-16777216
102
RTVSPost2010PropOp51
 70
     0
102
RTVSPost2010Prop52
140
1.0
102
RTVSPost2010PropOp52
 70
     0
102
RTVSPost2010Prop53
 90
        2
102
RTVSPost2010PropOp53
 70
     1
102
RTVSPost2010Prop54
  1
strokes_ogs.tif
102
RTVSPost2010PropOp54
 70
     1
102
RTVSPost2010Prop55
280
     0
102
RTVSPost2010PropOp55
 70
     1
102
RTVSPost2010Prop56
140
1.0
102
RTVSPost2010PropOp56
 70
     1
102
RTVSPost2010Prop57
140
1.0
102
RTVSPost2010PropOp57
 70
     1
102
RTVSPropertyOp0
 70
     1
102
RTVSPropertyOp1
 70
     1
102
RTVSPropertyOp2
 70
     1
102
RTVSPropertyOp3
 70
     1
102
RTVSPropertyOp4
 70
     1
102
RTVSPropertyOp5
 70
     1
102
RTVSPropertyOp6
 70
     1
102
RTVSPropertyOp7
 70
     1
102
RTVSPropertyOp8
 70
     1
102
RTVSPropertyOp9
 70
     1
102
RTVSPropertyOp10
 70
     1
102
RTVSPropertyOp11
 70
     1
102
RTVSPropertyOp12
 70
     1
102
RTVSPropertyOp13
 70
     1
102
RTVSPropertyOp14
 70
     1
102
RTVSPropertyOp15
 70
     1
102
RTVSPropertyOp16
 70
     1
102
RTVSPropertyOp17
 70
     1
102
RTVSPropertyOp18
 70
     1
102
RTVSPropertyOp19
 70
     1
102
RTVSPropertyOp20
 70
     1
102
RTVSPropertyOp21
 70
     1
102
RTVSPropertyOp22
 70
     1
102
RTVSPropertyOp23
 70
     1
102
RTVSPropertyOp24
 70
     1
102
RTVSPropertyOp25
 70
     1
102
RTVSPropertyOp26
 70
     1
102
RTVSPropertyOp27
 70
     1
102
RTVSPropertyOp28
 70
     1
102
RTVSPropertyOp29
 70
     1
102
RTVSPropertyOp30
 70
     1
102
RTVSPropertyOp31
 70
     1
102
RTVSPropertyOp32
 70
     1
102
RTVSPropertyOp33
 70
     1
102
RTVSPropertyOp34
 70
     1
102
RTVSPropertyOp35
 70
     1
102
RTVSPropertyOp36
 70
     1
102
RTVSPropertyOp37
 70
     1
102
RTVSPropertyOp38
 70
     1
102
RTVSPropertyOp39
 70
     1
102
RTVSPropertyOp40
 70
     1
102
RTVSPropertyOp41
 70
     1
102
RTVSPropertyOp42
 70
     1
102
RTVSPropertyOp43
 70
     1
102
RTVSPropertyOp44
 70
     1
102
RTVSPropertyOp45
 70
     1
102
RTVSPropertyOp46
 70
     1
102
RTVSPropertyOp47
 70
     1
102
RTVSPropertyOp48
 70
     1
102
RTVSPropertyOp49
 70
     1
102
RTVSPropertyOp50
 70
     1
102
RTVSPropertyOp51
 70
     0
102
RTVSPropertyOp52
 70
     0
102
RTVSPropertyOp53
 70
     1
102
RTVSPropertyOp54
 70
     1
102
RTVSPropertyOp55
 70
     1
102
RTVSPropertyOp56
 70
     1
102
RTVSPropertyOp57
 70
     1
102
RTVSPropertyOp58
 70
     1
102
RTVSPropertyOp59
 70
     1
102
RTVSPropertyOp60
 70
     1
102
RTVSPropertyOp61
 70
     1
102
RTVSPropertyOp62
 70
     1
  0
XRECORD
  5
1888
102
{ACAD_REACTORS
330
1887
102
}
330
1887
100
AcDbXrecord
280
     1
102
RTVSPost2010Prop28
280
     0
102
RTVSPost2010PropOp28
 70
     1
102
RTVSPost2010Prop29
280
     1
102
RTVSPost2010PropOp29
 70
     1
102
RTVSPost2010Prop30
280
     1
102
RTVSPost2010PropOp30
 70
     1
102
RTVSPost2010Prop31
280
     0
102
RTVSPost2010PropOp31
 70
     1
102
RTVSPost2010Prop32
280
     0
102
RTVSPost2010PropOp32
 70
     1
102
RTVSPost2010Prop33
280
     0
102
RTVSPost2010PropOp33
 70
     1
102
RTVSPost2010Prop34
280
     0
102
RTVSPost2010PropOp34
 70
     1
102
RTVSPost2010Prop35
280
     0
102
RTVSPost2010PropOp35
 70
     1
102
RTVSPost2010Prop36
280
     0
102
RTVSPost2010PropOp36
 70
     1
102
RTVSPost2010Prop37
 90
       50
102
RTVSPost2010PropOp37
 70
     1
102
RTVSPost2010Prop38
140
0.0
102
RTVSPost2010PropOp38
 70
     1
102
RTVSPost2010Prop39
140
1.0
102
RTVSPost2010PropOp39
 70
     1
102
RTVSPost2010Prop40
 90
        0
102
RTVSPost2010PropOp40
 70
     1
102
RTVSPost2010Prop41ColorIndex
 90
       18
102
RTVSPost2010Prop41ColorRGB
 90
        0
102
RTVSPost2010PropOp41
 70
     1
102
RTVSPost2010Prop42
 90
       50
102
RTVSPost2010PropOp42
 70
     1
102
RTVSPost2010Prop43
 90
        3
102
RTVSPost2010PropOp43
 70
     1
102
RTVSPost2010Prop44ColorIndex
 90
        5
102
RTVSPost2010Prop44ColorRGB
 90
      255
102
RTVSPost2010PropOp44
 70
     1
102
RTVSPost2010Prop45
280
     0
102
RTVSPost2010PropOp45
 70
     1
102
RTVSPost2010Prop46
 90
       50
102
RTVSPost2010PropOp46
 70
     1
102
RTVSPost2010Prop47
 90
       50
102
RTVSPost2010PropOp47
 70
     1
102
RTVSPost2010Prop48
 90
       50
102
RTVSPost2010PropOp48
 70
     1
102
RTVSPost2010Prop49
280
     0
102
RTVSPost2010PropOp49
 70
     1
102
RTVSPost2010Prop50
 90
       50
102
RTVSPost2010PropOp50
 70
     1
102
RTVSPost2010Prop51ColorIndex
 90
      256
102
RTVSPost2010Prop51ColorRGB
 90
-16777216
102
RTVSPost2010PropOp51
 70
     0
102
RTVSPost2010Prop52
140
1.0
102
RTVSPost2010PropOp52
 70
     0
102
RTVSPost2010Prop53
 90
        2
102
RTVSPost2010PropOp53
 70
     1
102
RTVSPost2010Prop54
  1
strokes_ogs.tif
102
RTVSPost2010PropOp54
 70
     1
102
RTVSPost2010Prop55
280
     0
102
RTVSPost2010PropOp55
 70
     1
102
RTVSPost2010Prop56
140
1.0
102
RTVSPost2010PropOp56
 70
     1
102
RTVSPost2010Prop57
140
1.0
102
RTVSPost2010PropOp57
 70
     1
102
RTVSPropertyOp0
 70
     1
102
RTVSPropertyOp1
 70
     1
102
RTVSPropertyOp2
 70
     1
102
RTVSPropertyOp3
 70
     1
102
RTVSPropertyOp4
 70
     1
102
RTVSPropertyOp5
 70
     1
102
RTVSPropertyOp6
 70
     1
102
RTVSPropertyOp7
 70
     1
102
RTVSPropertyOp8
 70
     1
102
RTVSPropertyOp9
 70
     1
102
RTVSPropertyOp10
 70
     1
102
RTVSPropertyOp11
 70
     1
102
RTVSPropertyOp12
 70
     1
102
RTVSPropertyOp13
 70
     1
102
RTVSPropertyOp14
 70
     1
102
RTVSPropertyOp15
 70
     1
102
RTVSPropertyOp16
 70
     1
102
RTVSPropertyOp17
 70
     1
102
RTVSPropertyOp18
 70
     1
102
RTVSPropertyOp19
 70
     1
102
RTVSPropertyOp20
 70
     1
102
RTVSPropertyOp21
 70
     1
102
RTVSPropertyOp22
 70
     1
102
RTVSPropertyOp23
 70
     1
102
RTVSPropertyOp24
 70
     1
102
RTVSPropertyOp25
 70
     1
102
RTVSPropertyOp26
 70
     1
102
RTVSPropertyOp27
 70
     1
102
RTVSPropertyOp28
 70
     1
102
RTVSPropertyOp29
 70
     1
102
RTVSPropertyOp30
 70
     1
102
RTVSPropertyOp31
 70
     1
102
RTVSPropertyOp32
 70
     1
102
RTVSPropertyOp33
 70
     1
102
RTVSPropertyOp34
 70
     1
102
RTVSPropertyOp35
 70
     1
102
RTVSPropertyOp36
 70
     1
102
RTVSPropertyOp37
 70
     1
102
RTVSPropertyOp38
 70
     1
102
RTVSPropertyOp39
 70
     1
102
RTVSPropertyOp40
 70
     1
102
RTVSPropertyOp41
 70
     1
102
RTVSPropertyOp42
 70
     1
102
RTVSPropertyOp43
 70
     1
102
RTVSPropertyOp44
 70
     1
102
RTVSPropertyOp45
 70
     1
102
RTVSPropertyOp46
 70
     1
102
RTVSPropertyOp47
 70
     1
102
RTVSPropertyOp48
 70
     1
102
RTVSPropertyOp49
 70
     1
102
RTVSPropertyOp50
 70
     1
102
RTVSPropertyOp51
 70
     0
102
RTVSPropertyOp52
 70
     0
102
RTVSPropertyOp53
 70
     1
102
RTVSPropertyOp54
 70
     1
102
RTVSPropertyOp55
 70
     1
102
RTVSPropertyOp56
 70
     1
102
RTVSPropertyOp57
 70
     1
102
RTVSPropertyOp58
 70
     1
102
RTVSPropertyOp59
 70
     1
102
RTVSPropertyOp60
 70
     1
102
RTVSPropertyOp61
 70
     1
102
RTVSPropertyOp62
 70
     1
  0
XRECORD
  5
188A
102
{ACAD_REACTORS
330
1889
102
}
330
1889
100
AcDbXrecord
280
     1
102
RTVSPost2010Prop28
280
     0
102
RTVSPost2010PropOp28
 70
     1
102
RTVSPost2010Prop29
280
     1
102
RTVSPost2010PropOp29
 70
     1
102
RTVSPost2010Prop30
280
     1
102
RTVSPost2010PropOp30
 70
     1
102
RTVSPost2010Prop31
280
     0
102
RTVSPost2010PropOp31
 70
     1
102
RTVSPost2010Prop32
280
     0
102
RTVSPost2010PropOp32
 70
     1
102
RTVSPost2010Prop33
280
     0
102
RTVSPost2010PropOp33
 70
     1
102
RTVSPost2010Prop34
280
     0
102
RTVSPost2010PropOp34
 70
     1
102
RTVSPost2010Prop35
280
     0
102
RTVSPost2010PropOp35
 70
     1
102
RTVSPost2010Prop36
280
     0
102
RTVSPost2010PropOp36
 70
     1
102
RTVSPost2010Prop37
 90
       50
102
RTVSPost2010PropOp37
 70
     1
102
RTVSPost2010Prop38
140
0.0
102
RTVSPost2010PropOp38
 70
     1
102
RTVSPost2010Prop39
140
1.0
102
RTVSPost2010PropOp39
 70
     1
102
RTVSPost2010Prop40
 90
        0
102
RTVSPost2010PropOp40
 70
     1
102
RTVSPost2010Prop41ColorIndex
 90
       18
102
RTVSPost2010Prop41ColorRGB
 90
        0
102
RTVSPost2010PropOp41
 70
     1
102
RTVSPost2010Prop42
 90
       50
102
RTVSPost2010PropOp42
 70
     1
102
RTVSPost2010Prop43
 90
        3
102
RTVSPost2010PropOp43
 70
     1
102
RTVSPost2010Prop44ColorIndex
 90
        5
102
RTVSPost2010Prop44ColorRGB
 90
      255
102
RTVSPost2010PropOp44
 70
     1
102
RTVSPost2010Prop45
280
     0
102
RTVSPost2010PropOp45
 70
     1
102
RTVSPost2010Prop46
 90
       50
102
RTVSPost2010PropOp46
 70
     1
102
RTVSPost2010Prop47
 90
       50
102
RTVSPost2010PropOp47
 70
     1
102
RTVSPost2010Prop48
 90
       50
102
RTVSPost2010PropOp48
 70
     1
102
RTVSPost2010Prop49
280
     0
102
RTVSPost2010PropOp49
 70
     1
102
RTVSPost2010Prop50
 90
       50
102
RTVSPost2010PropOp50
 70
     1
102
RTVSPost2010Prop51ColorIndex
 90
      256
102
RTVSPost2010Prop51ColorRGB
 90
-16777216
102
RTVSPost2010PropOp51
 70
     0
102
RTVSPost2010Prop52
140
1.0
102
RTVSPost2010PropOp52
 70
     0
102
RTVSPost2010Prop53
 90
        2
102
RTVSPost2010PropOp53
 70
     1
102
RTVSPost2010Prop54
  1
strokes_ogs.tif
102
RTVSPost2010PropOp54
 70
     1
102
RTVSPost2010Prop55
280
     0
102
RTVSPost2010PropOp55
 70
     1
102
RTVSPost2010Prop56
140
1.0
102
RTVSPost2010PropOp56
 70
     1
102
RTVSPost2010Prop57
140
1.0
102
RTVSPost2010PropOp57
 70
     1
102
RTVSPropertyOp0
 70
     1
102
RTVSPropertyOp1
 70
     1
102
RTVSPropertyOp2
 70
     1
102
RTVSPropertyOp3
 70
     1
102
RTVSPropertyOp4
 70
     1
102
RTVSPropertyOp5
 70
     1
102
RTVSPropertyOp6
 70
     1
102
RTVSPropertyOp7
 70
     1
102
RTVSPropertyOp8
 70
     1
102
RTVSPropertyOp9
 70
     1
102
RTVSPropertyOp10
 70
     1
102
RTVSPropertyOp11
 70
     1
102
RTVSPropertyOp12
 70
     1
102
RTVSPropertyOp13
 70
     1
102
RTVSPropertyOp14
 70
     1
102
RTVSPropertyOp15
 70
     1
102
RTVSPropertyOp16
 70
     1
102
RTVSPropertyOp17
 70
     1
102
RTVSPropertyOp18
 70
     1
102
RTVSPropertyOp19
 70
     1
102
RTVSPropertyOp20
 70
     1
102
RTVSPropertyOp21
 70
     1
102
RTVSPropertyOp22
 70
     1
102
RTVSPropertyOp23
 70
     1
102
RTVSPropertyOp24
 70
     1
102
RTVSPropertyOp25
 70
     1
102
RTVSPropertyOp26
 70
     1
102
RTVSPropertyOp27
 70
     1
102
RTVSPropertyOp28
 70
     1
102
RTVSPropertyOp29
 70
     1
102
RTVSPropertyOp30
 70
     1
102
RTVSPropertyOp31
 70
     1
102
RTVSPropertyOp32
 70
     1
102
RTVSPropertyOp33
 70
     1
102
RTVSPropertyOp34
 70
     1
102
RTVSPropertyOp35
 70
     1
102
RTVSPropertyOp36
 70
     1
102
RTVSPropertyOp37
 70
     1
102
RTVSPropertyOp38
 70
     1
102
RTVSPropertyOp39
 70
     1
102
RTVSPropertyOp40
 70
     1
102
RTVSPropertyOp41
 70
     1
102
RTVSPropertyOp42
 70
     1
102
RTVSPropertyOp43
 70
     1
102
RTVSPropertyOp44
 70
     1
102
RTVSPropertyOp45
 70
     1
102
RTVSPropertyOp46
 70
     1
102
RTVSPropertyOp47
 70
     1
102
RTVSPropertyOp48
 70
     1
102
RTVSPropertyOp49
 70
     1
102
RTVSPropertyOp50
 70
     1
102
RTVSPropertyOp51
 70
     0
102
RTVSPropertyOp52
 70
     0
102
RTVSPropertyOp53
 70
     1
102
RTVSPropertyOp54
 70
     1
102
RTVSPropertyOp55
 70
     1
102
RTVSPropertyOp56
 70
     1
102
RTVSPropertyOp57
 70
     1
102
RTVSPropertyOp58
 70
     1
102
RTVSPropertyOp59
 70
     1
102
RTVSPropertyOp60
 70
     1
102
RTVSPropertyOp61
 70
     1
102
RTVSPropertyOp62
 70
     1
  0
XRECORD
  5
1892
102
{ACAD_REACTORS
330
1891
102
}
330
1891
100
AcDbXrecord
280
     1
102
RTVSPost2010Prop28
280
     0
102
RTVSPost2010PropOp28
 70
     1
102
RTVSPost2010Prop29
280
     1
102
RTVSPost2010PropOp29
 70
     1
102
RTVSPost2010Prop30
280
     1
102
RTVSPost2010PropOp30
 70
     1
102
RTVSPost2010Prop31
280
     0
102
RTVSPost2010PropOp31
 70
     1
102
RTVSPost2010Prop32
280
     0
102
RTVSPost2010PropOp32
 70
     1
102
RTVSPost2010Prop33
280
     0
102
RTVSPost2010PropOp33
 70
     1
102
RTVSPost2010Prop34
280
     0
102
RTVSPost2010PropOp34
 70
     1
102
RTVSPost2010Prop35
280
     0
102
RTVSPost2010PropOp35
 70
     1
102
RTVSPost2010Prop36
280
     0
102
RTVSPost2010PropOp36
 70
     1
102
RTVSPost2010Prop37
 90
       50
102
RTVSPost2010PropOp37
 70
     1
102
RTVSPost2010Prop38
140
0.0
102
RTVSPost2010PropOp38
 70
     1
102
RTVSPost2010Prop39
140
1.0
102
RTVSPost2010PropOp39
 70
     1
102
RTVSPost2010Prop40
 90
        0
102
RTVSPost2010PropOp40
 70
     1
102
RTVSPost2010Prop41ColorIndex
 90
       18
102
RTVSPost2010Prop41ColorRGB
 90
        0
102
RTVSPost2010PropOp41
 70
     1
102
RTVSPost2010Prop42
 90
       50
102
RTVSPost2010PropOp42
 70
     1
102
RTVSPost2010Prop43
 90
        3
102
RTVSPost2010PropOp43
 70
     1
102
RTVSPost2010Prop44ColorIndex
 90
        5
102
RTVSPost2010Prop44ColorRGB
 90
      255
102
RTVSPost2010PropOp44
 70
     1
102
RTVSPost2010Prop45
280
     0
102
RTVSPost2010PropOp45
 70
     1
102
RTVSPost2010Prop46
 90
       50
102
RTVSPost2010PropOp46
 70
     1
102
RTVSPost2010Prop47
 90
       50
102
RTVSPost2010PropOp47
 70
     1
102
RTVSPost2010Prop48
 90
       50
102
RTVSPost2010PropOp48
 70
     1
102
RTVSPost2010Prop49
280
     0
102
RTVSPost2010PropOp49
 70
     1
102
RTVSPost2010Prop50
 90
       50
102
RTVSPost2010PropOp50
 70
     1
102
RTVSPost2010Prop51ColorIndex
 90
      256
102
RTVSPost2010Prop51ColorRGB
 90
-16777216
102
RTVSPost2010PropOp51
 70
     0
102
RTVSPost2010Prop52
140
1.0
102
RTVSPost2010PropOp52
 70
     0
102
RTVSPost2010Prop53
 90
        2
102
RTVSPost2010PropOp53
 70
     1
102
RTVSPost2010Prop54
  1
strokes_ogs.tif
102
RTVSPost2010PropOp54
 70
     1
102
RTVSPost2010Prop55
280
     0
102
RTVSPost2010PropOp55
 70
     1
102
RTVSPost2010Prop56
140
1.0
102
RTVSPost2010PropOp56
 70
     1
102
RTVSPost2010Prop57
140
1.0
102
RTVSPost2010PropOp57
 70
     1
102
RTVSPropertyOp0
 70
     1
102
RTVSPropertyOp1
 70
     1
102
RTVSPropertyOp2
 70
     1
102
RTVSPropertyOp3
 70
     1
102
RTVSPropertyOp4
 70
     1
102
RTVSPropertyOp5
 70
     1
102
RTVSPropertyOp6
 70
     1
102
RTVSPropertyOp7
 70
     1
102
RTVSPropertyOp8
 70
     1
102
RTVSPropertyOp9
 70
     1
102
RTVSPropertyOp10
 70
     1
102
RTVSPropertyOp11
 70
     1
102
RTVSPropertyOp12
 70
     1
102
RTVSPropertyOp13
 70
     1
102
RTVSPropertyOp14
 70
     1
102
RTVSPropertyOp15
 70
     1
102
RTVSPropertyOp16
 70
     1
102
RTVSPropertyOp17
 70
     1
102
RTVSPropertyOp18
 70
     1
102
RTVSPropertyOp19
 70
     1
102
RTVSPropertyOp20
 70
     1
102
RTVSPropertyOp21
 70
     1
102
RTVSPropertyOp22
 70
     1
102
RTVSPropertyOp23
 70
     1
102
RTVSPropertyOp24
 70
     1
102
RTVSPropertyOp25
 70
     1
102
RTVSPropertyOp26
 70
     1
102
RTVSPropertyOp27
 70
     1
102
RTVSPropertyOp28
 70
     1
102
RTVSPropertyOp29
 70
     1
102
RTVSPropertyOp30
 70
     1
102
RTVSPropertyOp31
 70
     1
102
RTVSPropertyOp32
 70
     1
102
RTVSPropertyOp33
 70
     1
102
RTVSPropertyOp34
 70
     1
102
RTVSPropertyOp35
 70
     1
102
RTVSPropertyOp36
 70
     1
102
RTVSPropertyOp37
 70
     1
102
RTVSPropertyOp38
 70
     1
102
RTVSPropertyOp39
 70
     1
102
RTVSPropertyOp40
 70
     1
102
RTVSPropertyOp41
 70
     1
102
RTVSPropertyOp42
 70
     1
102
RTVSPropertyOp43
 70
     1
102
RTVSPropertyOp44
 70
     1
102
RTVSPropertyOp45
 70
     1
102
RTVSPropertyOp46
 70
     1
102
RTVSPropertyOp47
 70
     1
102
RTVSPropertyOp48
 70
     1
102
RTVSPropertyOp49
 70
     1
102
RTVSPropertyOp50
 70
     1
102
RTVSPropertyOp51
 70
     0
102
RTVSPropertyOp52
 70
     0
102
RTVSPropertyOp53
 70
     1
102
RTVSPropertyOp54
 70
     1
102
RTVSPropertyOp55
 70
     1
102
RTVSPropertyOp56
 70
     1
102
RTVSPropertyOp57
 70
     1
102
RTVSPropertyOp58
 70
     1
102
RTVSPropertyOp59
 70
     1
102
RTVSPropertyOp60
 70
     1
102
RTVSPropertyOp61
 70
     1
102
RTVSPropertyOp62
 70
     1
  0
XRECORD
  5
18AE
102
{ACAD_REACTORS
330
18AD
102
}
330
18AD
100
AcDbXrecord
280
     1
102
RTVSPost2010Prop28
280
     0
102
RTVSPost2010PropOp28
 70
     0
102
RTVSPost2010Prop29
280
     1
102
RTVSPost2010PropOp29
 70
     0
102
RTVSPost2010Prop30
280
     1
102
RTVSPost2010PropOp30
 70
     0
102
RTVSPost2010Prop31
280
     0
102
RTVSPost2010PropOp31
 70
     0
102
RTVSPost2010Prop32
280
     0
102
RTVSPost2010PropOp32
 70
     0
102
RTVSPost2010Prop33
280
     0
102
RTVSPost2010PropOp33
 70
     0
102
RTVSPost2010Prop34
280
     0
102
RTVSPost2010PropOp34
 70
     0
102
RTVSPost2010Prop35
280
     0
102
RTVSPost2010PropOp35
 70
     0
102
RTVSPost2010Prop36
280
     0
102
RTVSPost2010PropOp36
 70
     0
102
RTVSPost2010Prop37
 90
       50
102
RTVSPost2010PropOp37
 70
     0
102
RTVSPost2010Prop38
140
0.0
102
RTVSPost2010PropOp38
 70
     0
102
RTVSPost2010Prop39
140
1.0
102
RTVSPost2010PropOp39
 70
     0
102
RTVSPost2010Prop40
 90
        0
102
RTVSPost2010PropOp40
 70
     0
102
RTVSPost2010Prop41ColorIndex
 90
       18
102
RTVSPost2010Prop41ColorRGB
 90
        0
102
RTVSPost2010PropOp41
 70
     0
102
RTVSPost2010Prop42
 90
       50
102
RTVSPost2010PropOp42
 70
     0
102
RTVSPost2010Prop43
 90
        3
102
RTVSPost2010PropOp43
 70
     0
102
RTVSPost2010Prop44ColorIndex
 90
        5
102
RTVSPost2010Prop44ColorRGB
 90
      255
102
RTVSPost2010PropOp44
 70
     0
102
RTVSPost2010Prop45
280
     0
102
RTVSPost2010PropOp45
 70
     0
102
RTVSPost2010Prop46
 90
       50
102
RTVSPost2010PropOp46
 70
     0
102
RTVSPost2010Prop47
 90
       50
102
RTVSPost2010PropOp47
 70
     0
102
RTVSPost2010Prop48
 90
       50
102
RTVSPost2010PropOp48
 70
     0
102
RTVSPost2010Prop49
280
     0
102
RTVSPost2010PropOp49
 70
     0
102
RTVSPost2010Prop50
 90
       50
102
RTVSPost2010PropOp50
 70
     0
102
RTVSPost2010Prop51ColorIndex
 90
      256
102
RTVSPost2010Prop51ColorRGB
 90
-16777216
102
RTVSPost2010PropOp51
 70
     0
102
RTVSPost2010Prop52
140
1.0
102
RTVSPost2010PropOp52
 70
     0
102
RTVSPost2010Prop53
 90
        2
102
RTVSPost2010PropOp53
 70
     0
102
RTVSPost2010Prop54
  1
strokes_ogs.tif
102
RTVSPost2010PropOp54
 70
     0
102
RTVSPost2010Prop55
280
     0
102
RTVSPost2010PropOp55
 70
     0
102
RTVSPost2010Prop56
140
1.0
102
RTVSPost2010PropOp56
 70
     0
102
RTVSPost2010Prop57
140
1.0
102
RTVSPost2010PropOp57
 70
     0
102
RTVSPropertyOp0
 70
     0
102
RTVSPropertyOp1
 70
     0
102
RTVSPropertyOp2
 70
     0
102
RTVSPropertyOp3
 70
     0
102
RTVSPropertyOp4
 70
     0
102
RTVSPropertyOp5
 70
     0
102
RTVSPropertyOp6
 70
     0
102
RTVSPropertyOp7
 70
     0
102
RTVSPropertyOp8
 70
     0
102
RTVSPropertyOp9
 70
     0
102
RTVSPropertyOp10
 70
     0
102
RTVSPropertyOp11
 70
     0
102
RTVSPropertyOp12
 70
     0
102
RTVSPropertyOp13
 70
     0
102
RTVSPropertyOp14
 70
     2
102
RTVSPropertyOp15
 70
     0
102
RTVSPropertyOp16
 70
     0
102
RTVSPropertyOp17
 70
     0
102
RTVSPropertyOp18
 70
     0
102
RTVSPropertyOp19
 70
     0
102
RTVSPropertyOp20
 70
     0
102
RTVSPropertyOp21
 70
     0
102
RTVSPropertyOp22
 70
     0
102
RTVSPropertyOp23
 70
     0
102
RTVSPropertyOp24
 70
     0
102
RTVSPropertyOp25
 70
     0
102
RTVSPropertyOp26
 70
     0
102
RTVSPropertyOp27
 70
     0
102
RTVSPropertyOp28
 70
     0
102
RTVSPropertyOp29
 70
     0
102
RTVSPropertyOp30
 70
     0
102
RTVSPropertyOp31
 70
     0
102
RTVSPropertyOp32
 70
     0
102
RTVSPropertyOp33
 70
     0
102
RTVSPropertyOp34
 70
     0
102
RTVSPropertyOp35
 70
     0
102
RTVSPropertyOp36
 70
     0
102
RTVSPropertyOp37
 70
     0
102
RTVSPropertyOp38
 70
     0
102
RTVSPropertyOp39
 70
     0
102
RTVSPropertyOp40
 70
     0
102
RTVSPropertyOp41
 70
     0
102
RTVSPropertyOp42
 70
     0
102
RTVSPropertyOp43
 70
     0
102
RTVSPropertyOp44
 70
     0
102
RTVSPropertyOp45
 70
     0
102
RTVSPropertyOp46
 70
     0
102
RTVSPropertyOp47
 70
     0
102
RTVSPropertyOp48
 70
     0
102
RTVSPropertyOp49
 70
     0
102
RTVSPropertyOp50
 70
     0
102
RTVSPropertyOp51
 70
     0
102
RTVSPropertyOp52
 70
     0
102
RTVSPropertyOp53
 70
     0
102
RTVSPropertyOp54
 70
     0
102
RTVSPropertyOp55
 70
     0
102
RTVSPropertyOp56
 70
     0
102
RTVSPropertyOp57
 70
     0
102
RTVSPropertyOp58
 70
     0
102
RTVSPropertyOp59
 70
     0
102
RTVSPropertyOp60
 70
     0
102
RTVSPropertyOp61
 70
     0
102
RTVSPropertyOp62
 70
     0
  0
XRECORD
  5
189E
102
{ACAD_REACTORS
330
189D
102
}
330
189D
100
AcDbXrecord
280
     1
102
RTVSPost2010Prop28
280
     0
102
RTVSPost2010PropOp28
 70
     1
102
RTVSPost2010Prop29
280
     1
102
RTVSPost2010PropOp29
 70
     1
102
RTVSPost2010Prop30
280
     1
102
RTVSPost2010PropOp30
 70
     1
102
RTVSPost2010Prop31
280
     0
102
RTVSPost2010PropOp31
 70
     1
102
RTVSPost2010Prop32
280
     0
102
RTVSPost2010PropOp32
 70
     1
102
RTVSPost2010Prop33
280
     0
102
RTVSPost2010PropOp33
 70
     1
102
RTVSPost2010Prop34
280
     0
102
RTVSPost2010PropOp34
 70
     1
102
RTVSPost2010Prop35
280
     0
102
RTVSPost2010PropOp35
 70
     1
102
RTVSPost2010Prop36
280
     0
102
RTVSPost2010PropOp36
 70
     1
102
RTVSPost2010Prop37
 90
       50
102
RTVSPost2010PropOp37
 70
     1
102
RTVSPost2010Prop38
140
0.0
102
RTVSPost2010PropOp38
 70
     1
102
RTVSPost2010Prop39
140
1.0
102
RTVSPost2010PropOp39
 70
     1
102
RTVSPost2010Prop40
 90
        0
102
RTVSPost2010PropOp40
 70
     1
102
RTVSPost2010Prop41ColorIndex
 90
       18
102
RTVSPost2010Prop41ColorRGB
 90
        0
102
RTVSPost2010PropOp41
 70
     1
102
RTVSPost2010Prop42
 90
       50
102
RTVSPost2010PropOp42
 70
     1
102
RTVSPost2010Prop43
 90
        3
102
RTVSPost2010PropOp43
 70
     1
102
RTVSPost2010Prop44ColorIndex
 90
        5
102
RTVSPost2010Prop44ColorRGB
 90
      255
102
RTVSPost2010PropOp44
 70
     1
102
RTVSPost2010Prop45
280
     0
102
RTVSPost2010PropOp45
 70
     1
102
RTVSPost2010Prop46
 90
       50
102
RTVSPost2010PropOp46
 70
     1
102
RTVSPost2010Prop47
 90
       50
102
RTVSPost2010PropOp47
 70
     1
102
RTVSPost2010Prop48
 90
       50
102
RTVSPost2010PropOp48
 70
     1
102
RTVSPost2010Prop49
280
     0
102
RTVSPost2010PropOp49
 70
     1
102
RTVSPost2010Prop50
 90
       50
102
RTVSPost2010PropOp50
 70
     1
102
RTVSPost2010Prop51ColorIndex
 90
      256
102
RTVSPost2010Prop51ColorRGB
 90
-16777216
102
RTVSPost2010PropOp51
 70
     0
102
RTVSPost2010Prop52
140
1.0
102
RTVSPost2010PropOp52
 70
     0
102
RTVSPost2010Prop53
 90
        2
102
RTVSPost2010PropOp53
 70
     1
102
RTVSPost2010Prop54
  1
strokes_ogs.tif
102
RTVSPost2010PropOp54
 70
     1
102
RTVSPost2010Prop55
280
     0
102
RTVSPost2010PropOp55
 70
     1
102
RTVSPost2010Prop56
140
1.0
102
RTVSPost2010PropOp56
 70
     1
102
RTVSPost2010Prop57
140
1.0
102
RTVSPost2010PropOp57
 70
     1
102
RTVSPropertyOp0
 70
     1
102
RTVSPropertyOp1
 70
     1
102
RTVSPropertyOp2
 70
     1
102
RTVSPropertyOp3
 70
     1
102
RTVSPropertyOp4
 70
     1
102
RTVSPropertyOp5
 70
     1
102
RTVSPropertyOp6
 70
     1
102
RTVSPropertyOp7
 70
     1
102
RTVSPropertyOp8
 70
     1
102
RTVSPropertyOp9
 70
     1
102
RTVSPropertyOp10
 70
     1
102
RTVSPropertyOp11
 70
     1
102
RTVSPropertyOp12
 70
     1
102
RTVSPropertyOp13
 70
     1
102
RTVSPropertyOp14
 70
     1
102
RTVSPropertyOp15
 70
     1
102
RTVSPropertyOp16
 70
     1
102
RTVSPropertyOp17
 70
     1
102
RTVSPropertyOp18
 70
     1
102
RTVSPropertyOp19
 70
     1
102
RTVSPropertyOp20
 70
     1
102
RTVSPropertyOp21
 70
     1
102
RTVSPropertyOp22
 70
     1
102
RTVSPropertyOp23
 70
     1
102
RTVSPropertyOp24
 70
     1
102
RTVSPropertyOp25
 70
     1
102
RTVSPropertyOp26
 70
     1
102
RTVSPropertyOp27
 70
     1
102
RTVSPropertyOp28
 70
     1
102
RTVSPropertyOp29
 70
     1
102
RTVSPropertyOp30
 70
     1
102
RTVSPropertyOp31
 70
     1
102
RTVSPropertyOp32
 70
     1
102
RTVSPropertyOp33
 70
     1
102
RTVSPropertyOp34
 70
     1
102
RTVSPropertyOp35
 70
     1
102
RTVSPropertyOp36
 70
     1
102
RTVSPropertyOp37
 70
     1
102
RTVSPropertyOp38
 70
     1
102
RTVSPropertyOp39
 70
     1
102
RTVSPropertyOp40
 70
     1
102
RTVSPropertyOp41
 70
     1
102
RTVSPropertyOp42
 70
     1
102
RTVSPropertyOp43
 70
     1
102
RTVSPropertyOp44
 70
     1
102
RTVSPropertyOp45
 70
     1
102
RTVSPropertyOp46
 70
     1
102
RTVSPropertyOp47
 70
     1
102
RTVSPropertyOp48
 70
     1
102
RTVSPropertyOp49
 70
     1
102
RTVSPropertyOp50
 70
     1
102
RTVSPropertyOp51
 70
     0
102
RTVSPropertyOp52
 70
     0
102
RTVSPropertyOp53
 70
     1
102
RTVSPropertyOp54
 70
     1
102
RTVSPropertyOp55
 70
     1
102
RTVSPropertyOp56
 70
     1
102
RTVSPropertyOp57
 70
     1
102
RTVSPropertyOp58
 70
     1
102
RTVSPropertyOp59
 70
     1
102
RTVSPropertyOp60
 70
     1
102
RTVSPropertyOp61
 70
     1
102
RTVSPropertyOp62
 70
     1
  0
XRECORD
  5
18B0
102
{ACAD_REACTORS
330
18AF
102
}
330
18AF
100
AcDbXrecord
280
     1
102
RTVSPost2010Prop28
280
     0
102
RTVSPost2010PropOp28
 70
     0
102
RTVSPost2010Prop29
280
     1
102
RTVSPost2010PropOp29
 70
     0
102
RTVSPost2010Prop30
280
     1
102
RTVSPost2010PropOp30
 70
     0
102
RTVSPost2010Prop31
280
     0
102
RTVSPost2010PropOp31
 70
     0
102
RTVSPost2010Prop32
280
     0
102
RTVSPost2010PropOp32
 70
     0
102
RTVSPost2010Prop33
280
     0
102
RTVSPost2010PropOp33
 70
     0
102
RTVSPost2010Prop34
280
     0
102
RTVSPost2010PropOp34
 70
     0
102
RTVSPost2010Prop35
280
     0
102
RTVSPost2010PropOp35
 70
     0
102
RTVSPost2010Prop36
280
     0
102
RTVSPost2010PropOp36
 70
     0
102
RTVSPost2010Prop37
 90
       50
102
RTVSPost2010PropOp37
 70
     0
102
RTVSPost2010Prop38
140
0.0
102
RTVSPost2010PropOp38
 70
     0
102
RTVSPost2010Prop39
140
1.0
102
RTVSPost2010PropOp39
 70
     0
102
RTVSPost2010Prop40
 90
        0
102
RTVSPost2010PropOp40
 70
     0
102
RTVSPost2010Prop41ColorIndex
 90
       18
102
RTVSPost2010Prop41ColorRGB
 90
        0
102
RTVSPost2010PropOp41
 70
     0
102
RTVSPost2010Prop42
 90
       50
102
RTVSPost2010PropOp42
 70
     0
102
RTVSPost2010Prop43
 90
        3
102
RTVSPost2010PropOp43
 70
     0
102
RTVSPost2010Prop44ColorIndex
 90
        5
102
RTVSPost2010Prop44ColorRGB
 90
      255
102
RTVSPost2010PropOp44
 70
     0
102
RTVSPost2010Prop45
280
     0
102
RTVSPost2010PropOp45
 70
     0
102
RTVSPost2010Prop46
 90
       50
102
RTVSPost2010PropOp46
 70
     0
102
RTVSPost2010Prop47
 90
       50
102
RTVSPost2010PropOp47
 70
     0
102
RTVSPost2010Prop48
 90
       50
102
RTVSPost2010PropOp48
 70
     0
102
RTVSPost2010Prop49
280
     0
102
RTVSPost2010PropOp49
 70
     0
102
RTVSPost2010Prop50
 90
       50
102
RTVSPost2010PropOp50
 70
     0
102
RTVSPost2010Prop51ColorIndex
 90
      256
102
RTVSPost2010Prop51ColorRGB
 90
-16777216
102
RTVSPost2010PropOp51
 70
     0
102
RTVSPost2010Prop52
140
1.0
102
RTVSPost2010PropOp52
 70
     0
102
RTVSPost2010Prop53
 90
        2
102
RTVSPost2010PropOp53
 70
     0
102
RTVSPost2010Prop54
  1
strokes_ogs.tif
102
RTVSPost2010PropOp54
 70
     0
102
RTVSPost2010Prop55
280
     0
102
RTVSPost2010PropOp55
 70
     0
102
RTVSPost2010Prop56
140
1.0
102
RTVSPost2010PropOp56
 70
     0
102
RTVSPost2010Prop57
140
1.0
102
RTVSPost2010PropOp57
 70
     0
102
RTVSPropertyOp0
 70
     0
102
RTVSPropertyOp1
 70
     0
102
RTVSPropertyOp2
 70
     0
102
RTVSPropertyOp3
 70
     0
102
RTVSPropertyOp4
 70
     0
102
RTVSPropertyOp5
 70
     0
102
RTVSPropertyOp6
 70
     0
102
RTVSPropertyOp7
 70
     0
102
RTVSPropertyOp8
 70
     0
102
RTVSPropertyOp9
 70
     0
102
RTVSPropertyOp10
 70
     0
102
RTVSPropertyOp11
 70
     0
102
RTVSPropertyOp12
 70
     0
102
RTVSPropertyOp13
 70
     0
102
RTVSPropertyOp14
 70
     2
102
RTVSPropertyOp15
 70
     0
102
RTVSPropertyOp16
 70
     0
102
RTVSPropertyOp17
 70
     0
102
RTVSPropertyOp18
 70
     0
102
RTVSPropertyOp19
 70
     0
102
RTVSPropertyOp20
 70
     0
102
RTVSPropertyOp21
 70
     0
102
RTVSPropertyOp22
 70
     0
102
RTVSPropertyOp23
 70
     0
102
RTVSPropertyOp24
 70
     0
102
RTVSPropertyOp25
 70
     0
102
RTVSPropertyOp26
 70
     0
102
RTVSPropertyOp27
 70
     0
102
RTVSPropertyOp28
 70
     0
102
RTVSPropertyOp29
 70
     0
102
RTVSPropertyOp30
 70
     0
102
RTVSPropertyOp31
 70
     0
102
RTVSPropertyOp32
 70
     0
102
RTVSPropertyOp33
 70
     0
102
RTVSPropertyOp34
 70
     0
102
RTVSPropertyOp35
 70
     0
102
RTVSPropertyOp36
 70
     0
102
RTVSPropertyOp37
 70
     0
102
RTVSPropertyOp38
 70
     0
102
RTVSPropertyOp39
 70
     0
102
RTVSPropertyOp40
 70
     0
102
RTVSPropertyOp41
 70
     0
102
RTVSPropertyOp42
 70
     0
102
RTVSPropertyOp43
 70
     0
102
RTVSPropertyOp44
 70
     0
102
RTVSPropertyOp45
 70
     0
102
RTVSPropertyOp46
 70
     0
102
RTVSPropertyOp47
 70
     0
102
RTVSPropertyOp48
 70
     0
102
RTVSPropertyOp49
 70
     0
102
RTVSPropertyOp50
 70
     0
102
RTVSPropertyOp51
 70
     0
102
RTVSPropertyOp52
 70
     0
102
RTVSPropertyOp53
 70
     0
102
RTVSPropertyOp54
 70
     0
102
RTVSPropertyOp55
 70
     0
102
RTVSPropertyOp56
 70
     0
102
RTVSPropertyOp57
 70
     0
102
RTVSPropertyOp58
 70
     0
102
RTVSPropertyOp59
 70
     0
102
RTVSPropertyOp60
 70
     0
102
RTVSPropertyOp61
 70
     0
102
RTVSPropertyOp62
 70
     0
  0
XRECORD
  5
1896
102
{ACAD_REACTORS
330
1895
102
}
330
1895
100
AcDbXrecord
280
     1
102
RTVSPost2010Prop28
280
     0
102
RTVSPost2010PropOp28
 70
     1
102
RTVSPost2010Prop29
280
     1
102
RTVSPost2010PropOp29
 70
     1
102
RTVSPost2010Prop30
280
     1
102
RTVSPost2010PropOp30
 70
     1
102
RTVSPost2010Prop31
280
     0
102
RTVSPost2010PropOp31
 70
     1
102
RTVSPost2010Prop32
280
     0
102
RTVSPost2010PropOp32
 70
     1
102
RTVSPost2010Prop33
280
     0
102
RTVSPost2010PropOp33
 70
     1
102
RTVSPost2010Prop34
280
     0
102
RTVSPost2010PropOp34
 70
     1
102
RTVSPost2010Prop35
280
     0
102
RTVSPost2010PropOp35
 70
     1
102
RTVSPost2010Prop36
280
     0
102
RTVSPost2010PropOp36
 70
     1
102
RTVSPost2010Prop37
 90
       50
102
RTVSPost2010PropOp37
 70
     1
102
RTVSPost2010Prop38
140
0.0
102
RTVSPost2010PropOp38
 70
     1
102
RTVSPost2010Prop39
140
1.0
102
RTVSPost2010PropOp39
 70
     1
102
RTVSPost2010Prop40
 90
        0
102
RTVSPost2010PropOp40
 70
     1
102
RTVSPost2010Prop41ColorIndex
 90
       18
102
RTVSPost2010Prop41ColorRGB
 90
        0
102
RTVSPost2010PropOp41
 70
     1
102
RTVSPost2010Prop42
 90
       50
102
RTVSPost2010PropOp42
 70
     1
102
RTVSPost2010Prop43
 90
        3
102
RTVSPost2010PropOp43
 70
     1
102
RTVSPost2010Prop44ColorIndex
 90
        5
102
RTVSPost2010Prop44ColorRGB
 90
      255
102
RTVSPost2010PropOp44
 70
     1
102
RTVSPost2010Prop45
280
     0
102
RTVSPost2010PropOp45
 70
     1
102
RTVSPost2010Prop46
 90
       50
102
RTVSPost2010PropOp46
 70
     1
102
RTVSPost2010Prop47
 90
       50
102
RTVSPost2010PropOp47
 70
     1
102
RTVSPost2010Prop48
 90
       50
102
RTVSPost2010PropOp48
 70
     1
102
RTVSPost2010Prop49
280
     0
102
RTVSPost2010PropOp49
 70
     1
102
RTVSPost2010Prop50
 90
       50
102
RTVSPost2010PropOp50
 70
     1
102
RTVSPost2010Prop51ColorIndex
 90
      256
102
RTVSPost2010Prop51ColorRGB
 90
-16777216
102
RTVSPost2010PropOp51
 70
     0
102
RTVSPost2010Prop52
140
1.0
102
RTVSPost2010PropOp52
 70
     0
102
RTVSPost2010Prop53
 90
        2
102
RTVSPost2010PropOp53
 70
     1
102
RTVSPost2010Prop54
  1
strokes_ogs.tif
102
RTVSPost2010PropOp54
 70
     1
102
RTVSPost2010Prop55
280
     0
102
RTVSPost2010PropOp55
 70
     1
102
RTVSPost2010Prop56
140
1.0
102
RTVSPost2010PropOp56
 70
     1
102
RTVSPost2010Prop57
140
1.0
102
RTVSPost2010PropOp57
 70
     1
102
RTVSPropertyOp0
 70
     1
102
RTVSPropertyOp1
 70
     1
102
RTVSPropertyOp2
 70
     1
102
RTVSPropertyOp3
 70
     1
102
RTVSPropertyOp4
 70
     1
102
RTVSPropertyOp5
 70
     1
102
RTVSPropertyOp6
 70
     1
102
RTVSPropertyOp7
 70
     1
102
RTVSPropertyOp8
 70
     1
102
RTVSPropertyOp9
 70
     1
102
RTVSPropertyOp10
 70
     1
102
RTVSPropertyOp11
 70
     1
102
RTVSPropertyOp12
 70
     1
102
RTVSPropertyOp13
 70
     1
102
RTVSPropertyOp14
 70
     1
102
RTVSPropertyOp15
 70
     1
102
RTVSPropertyOp16
 70
     1
102
RTVSPropertyOp17
 70
     1
102
RTVSPropertyOp18
 70
     1
102
RTVSPropertyOp19
 70
     1
102
RTVSPropertyOp20
 70
     1
102
RTVSPropertyOp21
 70
     1
102
RTVSPropertyOp22
 70
     1
102
RTVSPropertyOp23
 70
     1
102
RTVSPropertyOp24
 70
     1
102
RTVSPropertyOp25
 70
     1
102
RTVSPropertyOp26
 70
     1
102
RTVSPropertyOp27
 70
     1
102
RTVSPropertyOp28
 70
     1
102
RTVSPropertyOp29
 70
     1
102
RTVSPropertyOp30
 70
     1
102
RTVSPropertyOp31
 70
     1
102
RTVSPropertyOp32
 70
     1
102
RTVSPropertyOp33
 70
     1
102
RTVSPropertyOp34
 70
     1
102
RTVSPropertyOp35
 70
     1
102
RTVSPropertyOp36
 70
     1
102
RTVSPropertyOp37
 70
     1
102
RTVSPropertyOp38
 70
     1
102
RTVSPropertyOp39
 70
     1
102
RTVSPropertyOp40
 70
     1
102
RTVSPropertyOp41
 70
     1
102
RTVSPropertyOp42
 70
     1
102
RTVSPropertyOp43
 70
     1
102
RTVSPropertyOp44
 70
     1
102
RTVSPropertyOp45
 70
     1
102
RTVSPropertyOp46
 70
     1
102
RTVSPropertyOp47
 70
     1
102
RTVSPropertyOp48
 70
     1
102
RTVSPropertyOp49
 70
     1
102
RTVSPropertyOp50
 70
     1
102
RTVSPropertyOp51
 70
     0
102
RTVSPropertyOp52
 70
     0
102
RTVSPropertyOp53
 70
     1
102
RTVSPropertyOp54
 70
     1
102
RTVSPropertyOp55
 70
     1
102
RTVSPropertyOp56
 70
     1
102
RTVSPropertyOp57
 70
     1
102
RTVSPropertyOp58
 70
     1
102
RTVSPropertyOp59
 70
     1
102
RTVSPropertyOp60
 70
     1
102
RTVSPropertyOp61
 70
     1
102
RTVSPropertyOp62
 70
     1
  0
XRECORD
  5
18AC
102
{ACAD_REACTORS
330
18AB
102
}
330
18AB
100
AcDbXrecord
280
     1
102
RTVSPost2010Prop28
280
     0
102
RTVSPost2010PropOp28
 70
     1
102
RTVSPost2010Prop29
280
     1
102
RTVSPost2010PropOp29
 70
     1
102
RTVSPost2010Prop30
280
     1
102
RTVSPost2010PropOp30
 70
     1
102
RTVSPost2010Prop31
280
     0
102
RTVSPost2010PropOp31
 70
     1
102
RTVSPost2010Prop32
280
     0
102
RTVSPost2010PropOp32
 70
     1
102
RTVSPost2010Prop33
280
     0
102
RTVSPost2010PropOp33
 70
     1
102
RTVSPost2010Prop34
280
     0
102
RTVSPost2010PropOp34
 70
     1
102
RTVSPost2010Prop35
280
     0
102
RTVSPost2010PropOp35
 70
     1
102
RTVSPost2010Prop36
280
     0
102
RTVSPost2010PropOp36
 70
     1
102
RTVSPost2010Prop37
 90
       50
102
RTVSPost2010PropOp37
 70
     1
102
RTVSPost2010Prop38
140
0.0
102
RTVSPost2010PropOp38
 70
     1
102
RTVSPost2010Prop39
140
1.0
102
RTVSPost2010PropOp39
 70
     1
102
RTVSPost2010Prop40
 90
        0
102
RTVSPost2010PropOp40
 70
     1
102
RTVSPost2010Prop41ColorIndex
 90
       18
102
RTVSPost2010Prop41ColorRGB
 90
        0
102
RTVSPost2010PropOp41
 70
     1
102
RTVSPost2010Prop42
 90
       50
102
RTVSPost2010PropOp42
 70
     1
102
RTVSPost2010Prop43
 90
        3
102
RTVSPost2010PropOp43
 70
     1
102
RTVSPost2010Prop44ColorIndex
 90
        5
102
RTVSPost2010Prop44ColorRGB
 90
      255
102
RTVSPost2010PropOp44
 70
     1
102
RTVSPost2010Prop45
280
     0
102
RTVSPost2010PropOp45
 70
     1
102
RTVSPost2010Prop46
 90
       50
102
RTVSPost2010PropOp46
 70
     1
102
RTVSPost2010Prop47
 90
       50
102
RTVSPost2010PropOp47
 70
     1
102
RTVSPost2010Prop48
 90
       50
102
RTVSPost2010PropOp48
 70
     1
102
RTVSPost2010Prop49
280
     0
102
RTVSPost2010PropOp49
 70
     1
102
RTVSPost2010Prop50
 90
       50
102
RTVSPost2010PropOp50
 70
     1
102
RTVSPost2010Prop51ColorIndex
 90
      256
102
RTVSPost2010Prop51ColorRGB
 90
-16777216
102
RTVSPost2010PropOp51
 70
     0
102
RTVSPost2010Prop52
140
1.0
102
RTVSPost2010PropOp52
 70
     0
102
RTVSPost2010Prop53
 90
        2
102
RTVSPost2010PropOp53
 70
     1
102
RTVSPost2010Prop54
  1
strokes_ogs.tif
102
RTVSPost2010PropOp54
 70
     1
102
RTVSPost2010Prop55
280
     0
102
RTVSPost2010PropOp55
 70
     1
102
RTVSPost2010Prop56
140
1.0
102
RTVSPost2010PropOp56
 70
     1
102
RTVSPost2010Prop57
140
1.0
102
RTVSPost2010PropOp57
 70
     1
102
RTVSPropertyOp0
 70
     1
102
RTVSPropertyOp1
 70
     1
102
RTVSPropertyOp2
 70
     1
102
RTVSPropertyOp3
 70
     1
102
RTVSPropertyOp4
 70
     1
102
RTVSPropertyOp5
 70
     1
102
RTVSPropertyOp6
 70
     1
102
RTVSPropertyOp7
 70
     1
102
RTVSPropertyOp8
 70
     1
102
RTVSPropertyOp9
 70
     1
102
RTVSPropertyOp10
 70
     1
102
RTVSPropertyOp11
 70
     1
102
RTVSPropertyOp12
 70
     1
102
RTVSPropertyOp13
 70
     1
102
RTVSPropertyOp14
 70
     1
102
RTVSPropertyOp15
 70
     1
102
RTVSPropertyOp16
 70
     1
102
RTVSPropertyOp17
 70
     1
102
RTVSPropertyOp18
 70
     1
102
RTVSPropertyOp19
 70
     1
102
RTVSPropertyOp20
 70
     1
102
RTVSPropertyOp21
 70
     1
102
RTVSPropertyOp22
 70
     1
102
RTVSPropertyOp23
 70
     1
102
RTVSPropertyOp24
 70
     1
102
RTVSPropertyOp25
 70
     1
102
RTVSPropertyOp26
 70
     1
102
RTVSPropertyOp27
 70
     1
102
RTVSPropertyOp28
 70
     1
102
RTVSPropertyOp29
 70
     1
102
RTVSPropertyOp30
 70
     1
102
RTVSPropertyOp31
 70
     1
102
RTVSPropertyOp32
 70
     1
102
RTVSPropertyOp33
 70
     1
102
RTVSPropertyOp34
 70
     1
102
RTVSPropertyOp35
 70
     1
102
RTVSPropertyOp36
 70
     1
102
RTVSPropertyOp37
 70
     1
102
RTVSPropertyOp38
 70
     1
102
RTVSPropertyOp39
 70
     1
102
RTVSPropertyOp40
 70
     1
102
RTVSPropertyOp41
 70
     1
102
RTVSPropertyOp42
 70
     1
102
RTVSPropertyOp43
 70
     1
102
RTVSPropertyOp44
 70
     1
102
RTVSPropertyOp45
 70
     1
102
RTVSPropertyOp46
 70
     1
102
RTVSPropertyOp47
 70
     1
102
RTVSPropertyOp48
 70
     1
102
RTVSPropertyOp49
 70
     1
102
RTVSPropertyOp50
 70
     1
102
RTVSPropertyOp51
 70
     0
102
RTVSPropertyOp52
 70
     0
102
RTVSPropertyOp53
 70
     1
102
RTVSPropertyOp54
 70
     1
102
RTVSPropertyOp55
 70
     1
102
RTVSPropertyOp56
 70
     1
102
RTVSPropertyOp57
 70
     1
102
RTVSPropertyOp58
 70
     1
102
RTVSPropertyOp59
 70
     1
102
RTVSPropertyOp60
 70
     1
102
RTVSPropertyOp61
 70
     1
102
RTVSPropertyOp62
 70
     1
  0
XRECORD
  5
18AA
102
{ACAD_REACTORS
330
18A9
102
}
330
18A9
100
AcDbXrecord
280
     1
102
RTVSPost2010Prop28
280
     0
102
RTVSPost2010PropOp28
 70
     1
102
RTVSPost2010Prop29
280
     1
102
RTVSPost2010PropOp29
 70
     1
102
RTVSPost2010Prop30
280
     1
102
RTVSPost2010PropOp30
 70
     1
102
RTVSPost2010Prop31
280
     0
102
RTVSPost2010PropOp31
 70
     1
102
RTVSPost2010Prop32
280
     0
102
RTVSPost2010PropOp32
 70
     1
102
RTVSPost2010Prop33
280
     0
102
RTVSPost2010PropOp33
 70
     1
102
RTVSPost2010Prop34
280
     0
102
RTVSPost2010PropOp34
 70
     1
102
RTVSPost2010Prop35
280
     0
102
RTVSPost2010PropOp35
 70
     1
102
RTVSPost2010Prop36
280
     0
102
RTVSPost2010PropOp36
 70
     1
102
RTVSPost2010Prop37
 90
       50
102
RTVSPost2010PropOp37
 70
     1
102
RTVSPost2010Prop38
140
0.0
102
RTVSPost2010PropOp38
 70
     1
102
RTVSPost2010Prop39
140
1.0
102
RTVSPost2010PropOp39
 70
     1
102
RTVSPost2010Prop40
 90
        0
102
RTVSPost2010PropOp40
 70
     1
102
RTVSPost2010Prop41ColorIndex
 90
       18
102
RTVSPost2010Prop41ColorRGB
 90
        0
102
RTVSPost2010PropOp41
 70
     1
102
RTVSPost2010Prop42
 90
       50
102
RTVSPost2010PropOp42
 70
     1
102
RTVSPost2010Prop43
 90
        3
102
RTVSPost2010PropOp43
 70
     1
102
RTVSPost2010Prop44ColorIndex
 90
        5
102
RTVSPost2010Prop44ColorRGB
 90
      255
102
RTVSPost2010PropOp44
 70
     1
102
RTVSPost2010Prop45
280
     0
102
RTVSPost2010PropOp45
 70
     1
102
RTVSPost2010Prop46
 90
       50
102
RTVSPost2010PropOp46
 70
     1
102
RTVSPost2010Prop47
 90
       50
102
RTVSPost2010PropOp47
 70
     1
102
RTVSPost2010Prop48
 90
       50
102
RTVSPost2010PropOp48
 70
     1
102
RTVSPost2010Prop49
280
     0
102
RTVSPost2010PropOp49
 70
     1
102
RTVSPost2010Prop50
 90
       50
102
RTVSPost2010PropOp50
 70
     1
102
RTVSPost2010Prop51ColorIndex
 90
      256
102
RTVSPost2010Prop51ColorRGB
 90
-16777216
102
RTVSPost2010PropOp51
 70
     0
102
RTVSPost2010Prop52
140
1.0
102
RTVSPost2010PropOp52
 70
     0
102
RTVSPost2010Prop53
 90
        2
102
RTVSPost2010PropOp53
 70
     1
102
RTVSPost2010Prop54
  1
strokes_ogs.tif
102
RTVSPost2010PropOp54
 70
     1
102
RTVSPost2010Prop55
280
     0
102
RTVSPost2010PropOp55
 70
     1
102
RTVSPost2010Prop56
140
1.0
102
RTVSPost2010PropOp56
 70
     1
102
RTVSPost2010Prop57
140
1.0
102
RTVSPost2010PropOp57
 70
     1
102
RTVSPropertyOp0
 70
     1
102
RTVSPropertyOp1
 70
     1
102
RTVSPropertyOp2
 70
     1
102
RTVSPropertyOp3
 70
     1
102
RTVSPropertyOp4
 70
     1
102
RTVSPropertyOp5
 70
     1
102
RTVSPropertyOp6
 70
     1
102
RTVSPropertyOp7
 70
     1
102
RTVSPropertyOp8
 70
     1
102
RTVSPropertyOp9
 70
     1
102
RTVSPropertyOp10
 70
     1
102
RTVSPropertyOp11
 70
     1
102
RTVSPropertyOp12
 70
     1
102
RTVSPropertyOp13
 70
     1
102
RTVSPropertyOp14
 70
     1
102
RTVSPropertyOp15
 70
     1
102
RTVSPropertyOp16
 70
     1
102
RTVSPropertyOp17
 70
     1
102
RTVSPropertyOp18
 70
     1
102
RTVSPropertyOp19
 70
     1
102
RTVSPropertyOp20
 70
     1
102
RTVSPropertyOp21
 70
     1
102
RTVSPropertyOp22
 70
     1
102
RTVSPropertyOp23
 70
     1
102
RTVSPropertyOp24
 70
     1
102
RTVSPropertyOp25
 70
     1
102
RTVSPropertyOp26
 70
     1
102
RTVSPropertyOp27
 70
     1
102
RTVSPropertyOp28
 70
     1
102
RTVSPropertyOp29
 70
     1
102
RTVSPropertyOp30
 70
     1
102
RTVSPropertyOp31
 70
     1
102
RTVSPropertyOp32
 70
     1
102
RTVSPropertyOp33
 70
     1
102
RTVSPropertyOp34
 70
     1
102
RTVSPropertyOp35
 70
     1
102
RTVSPropertyOp36
 70
     1
102
RTVSPropertyOp37
 70
     1
102
RTVSPropertyOp38
 70
     1
102
RTVSPropertyOp39
 70
     1
102
RTVSPropertyOp40
 70
     1
102
RTVSPropertyOp41
 70
     1
102
RTVSPropertyOp42
 70
     1
102
RTVSPropertyOp43
 70
     1
102
RTVSPropertyOp44
 70
     1
102
RTVSPropertyOp45
 70
     1
102
RTVSPropertyOp46
 70
     1
102
RTVSPropertyOp47
 70
     1
102
RTVSPropertyOp48
 70
     1
102
RTVSPropertyOp49
 70
     1
102
RTVSPropertyOp50
 70
     1
102
RTVSPropertyOp51
 70
     0
102
RTVSPropertyOp52
 70
     0
102
RTVSPropertyOp53
 70
     1
102
RTVSPropertyOp54
 70
     1
102
RTVSPropertyOp55
 70
     1
102
RTVSPropertyOp56
 70
     1
102
RTVSPropertyOp57
 70
     1
102
RTVSPropertyOp58
 70
     1
102
RTVSPropertyOp59
 70
     1
102
RTVSPropertyOp60
 70
     1
102
RTVSPropertyOp61
 70
     1
102
RTVSPropertyOp62
 70
     1
  0
XRECORD
  5
18A4
102
{ACAD_REACTORS
330
18A3
102
}
330
18A3
100
AcDbXrecord
280
     1
102
RTVSPost2010Prop28
280
     0
102
RTVSPost2010PropOp28
 70
     1
102
RTVSPost2010Prop29
280
     1
102
RTVSPost2010PropOp29
 70
     1
102
RTVSPost2010Prop30
280
     1
102
RTVSPost2010PropOp30
 70
     1
102
RTVSPost2010Prop31
280
     0
102
RTVSPost2010PropOp31
 70
     1
102
RTVSPost2010Prop32
280
     0
102
RTVSPost2010PropOp32
 70
     1
102
RTVSPost2010Prop33
280
     0
102
RTVSPost2010PropOp33
 70
     1
102
RTVSPost2010Prop34
280
     0
102
RTVSPost2010PropOp34
 70
     1
102
RTVSPost2010Prop35
280
     0
102
RTVSPost2010PropOp35
 70
     1
102
RTVSPost2010Prop36
280
     0
102
RTVSPost2010PropOp36
 70
     1
102
RTVSPost2010Prop37
 90
       50
102
RTVSPost2010PropOp37
 70
     1
102
RTVSPost2010Prop38
140
0.0
102
RTVSPost2010PropOp38
 70
     1
102
RTVSPost2010Prop39
140
1.0
102
RTVSPost2010PropOp39
 70
     1
102
RTVSPost2010Prop40
 90
        0
102
RTVSPost2010PropOp40
 70
     1
102
RTVSPost2010Prop41ColorIndex
 90
       18
102
RTVSPost2010Prop41ColorRGB
 90
        0
102
RTVSPost2010PropOp41
 70
     1
102
RTVSPost2010Prop42
 90
       50
102
RTVSPost2010PropOp42
 70
     1
102
RTVSPost2010Prop43
 90
        3
102
RTVSPost2010PropOp43
 70
     1
102
RTVSPost2010Prop44ColorIndex
 90
        5
102
RTVSPost2010Prop44ColorRGB
 90
      255
102
RTVSPost2010PropOp44
 70
     1
102
RTVSPost2010Prop45
280
     0
102
RTVSPost2010PropOp45
 70
     1
102
RTVSPost2010Prop46
 90
       50
102
RTVSPost2010PropOp46
 70
     1
102
RTVSPost2010Prop47
 90
       50
102
RTVSPost2010PropOp47
 70
     1
102
RTVSPost2010Prop48
 90
       50
102
RTVSPost2010PropOp48
 70
     1
102
RTVSPost2010Prop49
280
     0
102
RTVSPost2010PropOp49
 70
     1
102
RTVSPost2010Prop50
 90
       50
102
RTVSPost2010PropOp50
 70
     1
102
RTVSPost2010Prop51ColorIndex
 90
      256
102
RTVSPost2010Prop51ColorRGB
 90
-16777216
102
RTVSPost2010PropOp51
 70
     0
102
RTVSPost2010Prop52
140
1.0
102
RTVSPost2010PropOp52
 70
     0
102
RTVSPost2010Prop53
 90
        2
102
RTVSPost2010PropOp53
 70
     1
102
RTVSPost2010Prop54
  1
strokes_ogs.tif
102
RTVSPost2010PropOp54
 70
     1
102
RTVSPost2010Prop55
280
     0
102
RTVSPost2010PropOp55
 70
     1
102
RTVSPost2010Prop56
140
1.0
102
RTVSPost2010PropOp56
 70
     1
102
RTVSPost2010Prop57
140
1.0
102
RTVSPost2010PropOp57
 70
     1
102
RTVSPropertyOp0
 70
     1
102
RTVSPropertyOp1
 70
     1
102
RTVSPropertyOp2
 70
     1
102
RTVSPropertyOp3
 70
     1
102
RTVSPropertyOp4
 70
     1
102
RTVSPropertyOp5
 70
     1
102
RTVSPropertyOp6
 70
     1
102
RTVSPropertyOp7
 70
     1
102
RTVSPropertyOp8
 70
     1
102
RTVSPropertyOp9
 70
     1
102
RTVSPropertyOp10
 70
     1
102
RTVSPropertyOp11
 70
     1
102
RTVSPropertyOp12
 70
     1
102
RTVSPropertyOp13
 70
     1
102
RTVSPropertyOp14
 70
     1
102
RTVSPropertyOp15
 70
     1
102
RTVSPropertyOp16
 70
     1
102
RTVSPropertyOp17
 70
     1
102
RTVSPropertyOp18
 70
     1
102
RTVSPropertyOp19
 70
     1
102
RTVSPropertyOp20
 70
     1
102
RTVSPropertyOp21
 70
     1
102
RTVSPropertyOp22
 70
     1
102
RTVSPropertyOp23
 70
     1
102
RTVSPropertyOp24
 70
     1
102
RTVSPropertyOp25
 70
     1
102
RTVSPropertyOp26
 70
     1
102
RTVSPropertyOp27
 70
     1
102
RTVSPropertyOp28
 70
     1
102
RTVSPropertyOp29
 70
     1
102
RTVSPropertyOp30
 70
     1
102
RTVSPropertyOp31
 70
     1
102
RTVSPropertyOp32
 70
     1
102
RTVSPropertyOp33
 70
     1
102
RTVSPropertyOp34
 70
     1
102
RTVSPropertyOp35
 70
     1
102
RTVSPropertyOp36
 70
     1
102
RTVSPropertyOp37
 70
     1
102
RTVSPropertyOp38
 70
     1
102
RTVSPropertyOp39
 70
     1
102
RTVSPropertyOp40
 70
     1
102
RTVSPropertyOp41
 70
     1
102
RTVSPropertyOp42
 70
     1
102
RTVSPropertyOp43
 70
     1
102
RTVSPropertyOp44
 70
     1
102
RTVSPropertyOp45
 70
     1
102
RTVSPropertyOp46
 70
     1
102
RTVSPropertyOp47
 70
     1
102
RTVSPropertyOp48
 70
     1
102
RTVSPropertyOp49
 70
     1
102
RTVSPropertyOp50
 70
     1
102
RTVSPropertyOp51
 70
     0
102
RTVSPropertyOp52
 70
     0
102
RTVSPropertyOp53
 70
     1
102
RTVSPropertyOp54
 70
     1
102
RTVSPropertyOp55
 70
     1
102
RTVSPropertyOp56
 70
     1
102
RTVSPropertyOp57
 70
     1
102
RTVSPropertyOp58
 70
     1
102
RTVSPropertyOp59
 70
     1
102
RTVSPropertyOp60
 70
     1
102
RTVSPropertyOp61
 70
     1
102
RTVSPropertyOp62
 70
     1
  0
XRECORD
  5
18A6
102
{ACAD_REACTORS
330
18A5
102
}
330
18A5
100
AcDbXrecord
280
     1
102
RTVSPost2010Prop28
280
     0
102
RTVSPost2010PropOp28
 70
     1
102
RTVSPost2010Prop29
280
     1
102
RTVSPost2010PropOp29
 70
     1
102
RTVSPost2010Prop30
280
     1
102
RTVSPost2010PropOp30
 70
     1
102
RTVSPost2010Prop31
280
     0
102
RTVSPost2010PropOp31
 70
     1
102
RTVSPost2010Prop32
280
     0
102
RTVSPost2010PropOp32
 70
     1
102
RTVSPost2010Prop33
280
     0
102
RTVSPost2010PropOp33
 70
     1
102
RTVSPost2010Prop34
280
     0
102
RTVSPost2010PropOp34
 70
     1
102
RTVSPost2010Prop35
280
     0
102
RTVSPost2010PropOp35
 70
     1
102
RTVSPost2010Prop36
280
     0
102
RTVSPost2010PropOp36
 70
     1
102
RTVSPost2010Prop37
 90
       50
102
RTVSPost2010PropOp37
 70
     1
102
RTVSPost2010Prop38
140
0.0
102
RTVSPost2010PropOp38
 70
     1
102
RTVSPost2010Prop39
140
1.0
102
RTVSPost2010PropOp39
 70
     1
102
RTVSPost2010Prop40
 90
        0
102
RTVSPost2010PropOp40
 70
     1
102
RTVSPost2010Prop41ColorIndex
 90
       18
102
RTVSPost2010Prop41ColorRGB
 90
        0
102
RTVSPost2010PropOp41
 70
     1
102
RTVSPost2010Prop42
 90
       50
102
RTVSPost2010PropOp42
 70
     1
102
RTVSPost2010Prop43
 90
        3
102
RTVSPost2010PropOp43
 70
     1
102
RTVSPost2010Prop44ColorIndex
 90
        5
102
RTVSPost2010Prop44ColorRGB
 90
      255
102
RTVSPost2010PropOp44
 70
     1
102
RTVSPost2010Prop45
280
     0
102
RTVSPost2010PropOp45
 70
     1
102
RTVSPost2010Prop46
 90
       50
102
RTVSPost2010PropOp46
 70
     1
102
RTVSPost2010Prop47
 90
       50
102
RTVSPost2010PropOp47
 70
     1
102
RTVSPost2010Prop48
 90
       50
102
RTVSPost2010PropOp48
 70
     1
102
RTVSPost2010Prop49
280
     0
102
RTVSPost2010PropOp49
 70
     1
102
RTVSPost2010Prop50
 90
       50
102
RTVSPost2010PropOp50
 70
     1
102
RTVSPost2010Prop51ColorIndex
 90
      256
102
RTVSPost2010Prop51ColorRGB
 90
-16777216
102
RTVSPost2010PropOp51
 70
     0
102
RTVSPost2010Prop52
140
1.0
102
RTVSPost2010PropOp52
 70
     0
102
RTVSPost2010Prop53
 90
        2
102
RTVSPost2010PropOp53
 70
     1
102
RTVSPost2010Prop54
  1
strokes_ogs.tif
102
RTVSPost2010PropOp54
 70
     1
102
RTVSPost2010Prop55
280
     0
102
RTVSPost2010PropOp55
 70
     1
102
RTVSPost2010Prop56
140
1.0
102
RTVSPost2010PropOp56
 70
     1
102
RTVSPost2010Prop57
140
1.0
102
RTVSPost2010PropOp57
 70
     1
102
RTVSPropertyOp0
 70
     1
102
RTVSPropertyOp1
 70
     1
102
RTVSPropertyOp2
 70
     1
102
RTVSPropertyOp3
 70
     1
102
RTVSPropertyOp4
 70
     1
102
RTVSPropertyOp5
 70
     1
102
RTVSPropertyOp6
 70
     1
102
RTVSPropertyOp7
 70
     1
102
RTVSPropertyOp8
 70
     1
102
RTVSPropertyOp9
 70
     1
102
RTVSPropertyOp10
 70
     1
102
RTVSPropertyOp11
 70
     1
102
RTVSPropertyOp12
 70
     1
102
RTVSPropertyOp13
 70
     1
102
RTVSPropertyOp14
 70
     1
102
RTVSPropertyOp15
 70
     1
102
RTVSPropertyOp16
 70
     1
102
RTVSPropertyOp17
 70
     1
102
RTVSPropertyOp18
 70
     1
102
RTVSPropertyOp19
 70
     1
102
RTVSPropertyOp20
 70
     1
102
RTVSPropertyOp21
 70
     1
102
RTVSPropertyOp22
 70
     1
102
RTVSPropertyOp23
 70
     1
102
RTVSPropertyOp24
 70
     1
102
RTVSPropertyOp25
 70
     1
102
RTVSPropertyOp26
 70
     1
102
RTVSPropertyOp27
 70
     1
102
RTVSPropertyOp28
 70
     1
102
RTVSPropertyOp29
 70
     1
102
RTVSPropertyOp30
 70
     1
102
RTVSPropertyOp31
 70
     1
102
RTVSPropertyOp32
 70
     1
102
RTVSPropertyOp33
 70
     1
102
RTVSPropertyOp34
 70
     1
102
RTVSPropertyOp35
 70
     1
102
RTVSPropertyOp36
 70
     1
102
RTVSPropertyOp37
 70
     1
102
RTVSPropertyOp38
 70
     1
102
RTVSPropertyOp39
 70
     1
102
RTVSPropertyOp40
 70
     1
102
RTVSPropertyOp41
 70
     1
102
RTVSPropertyOp42
 70
     1
102
RTVSPropertyOp43
 70
     1
102
RTVSPropertyOp44
 70
     1
102
RTVSPropertyOp45
 70
     1
102
RTVSPropertyOp46
 70
     1
102
RTVSPropertyOp47
 70
     1
102
RTVSPropertyOp48
 70
     1
102
RTVSPropertyOp49
 70
     1
102
RTVSPropertyOp50
 70
     1
102
RTVSPropertyOp51
 70
     0
102
RTVSPropertyOp52
 70
     0
102
RTVSPropertyOp53
 70
     1
102
RTVSPropertyOp54
 70
     1
102
RTVSPropertyOp55
 70
     1
102
RTVSPropertyOp56
 70
     1
102
RTVSPropertyOp57
 70
     1
102
RTVSPropertyOp58
 70
     1
102
RTVSPropertyOp59
 70
     1
102
RTVSPropertyOp60
 70
     1
102
RTVSPropertyOp61
 70
     1
102
RTVSPropertyOp62
 70
     1
  0
XRECORD
  5
189C
102
{ACAD_REACTORS
330
189B
102
}
330
189B
100
AcDbXrecord
280
     1
102
RTVSPost2010Prop28
280
     0
102
RTVSPost2010PropOp28
 70
     1
102
RTVSPost2010Prop29
280
     1
102
RTVSPost2010PropOp29
 70
     1
102
RTVSPost2010Prop30
280
     1
102
RTVSPost2010PropOp30
 70
     1
102
RTVSPost2010Prop31
280
     0
102
RTVSPost2010PropOp31
 70
     1
102
RTVSPost2010Prop32
280
     0
102
RTVSPost2010PropOp32
 70
     1
102
RTVSPost2010Prop33
280
     0
102
RTVSPost2010PropOp33
 70
     1
102
RTVSPost2010Prop34
280
     0
102
RTVSPost2010PropOp34
 70
     1
102
RTVSPost2010Prop35
280
     0
102
RTVSPost2010PropOp35
 70
     1
102
RTVSPost2010Prop36
280
     0
102
RTVSPost2010PropOp36
 70
     1
102
RTVSPost2010Prop37
 90
       50
102
RTVSPost2010PropOp37
 70
     1
102
RTVSPost2010Prop38
140
0.0
102
RTVSPost2010PropOp38
 70
     1
102
RTVSPost2010Prop39
140
1.0
102
RTVSPost2010PropOp39
 70
     1
102
RTVSPost2010Prop40
 90
        0
102
RTVSPost2010PropOp40
 70
     1
102
RTVSPost2010Prop41ColorIndex
 90
       18
102
RTVSPost2010Prop41ColorRGB
 90
        0
102
RTVSPost2010PropOp41
 70
     1
102
RTVSPost2010Prop42
 90
       50
102
RTVSPost2010PropOp42
 70
     1
102
RTVSPost2010Prop43
 90
        3
102
RTVSPost2010PropOp43
 70
     1
102
RTVSPost2010Prop44ColorIndex
 90
        5
102
RTVSPost2010Prop44ColorRGB
 90
      255
102
RTVSPost2010PropOp44
 70
     1
102
RTVSPost2010Prop45
280
     0
102
RTVSPost2010PropOp45
 70
     1
102
RTVSPost2010Prop46
 90
       50
102
RTVSPost2010PropOp46
 70
     1
102
RTVSPost2010Prop47
 90
       50
102
RTVSPost2010PropOp47
 70
     1
102
RTVSPost2010Prop48
 90
       50
102
RTVSPost2010PropOp48
 70
     1
102
RTVSPost2010Prop49
280
     0
102
RTVSPost2010PropOp49
 70
     1
102
RTVSPost2010Prop50
 90
       50
102
RTVSPost2010PropOp50
 70
     1
102
RTVSPost2010Prop51ColorIndex
 90
      256
102
RTVSPost2010Prop51ColorRGB
 90
-16777216
102
RTVSPost2010PropOp51
 70
     0
102
RTVSPost2010Prop52
140
1.0
102
RTVSPost2010PropOp52
 70
     0
102
RTVSPost2010Prop53
 90
        2
102
RTVSPost2010PropOp53
 70
     1
102
RTVSPost2010Prop54
  1
strokes_ogs.tif
102
RTVSPost2010PropOp54
 70
     1
102
RTVSPost2010Prop55
280
     0
102
RTVSPost2010PropOp55
 70
     1
102
RTVSPost2010Prop56
140
1.0
102
RTVSPost2010PropOp56
 70
     1
102
RTVSPost2010Prop57
140
1.0
102
RTVSPost2010PropOp57
 70
     1
102
RTVSPropertyOp0
 70
     1
102
RTVSPropertyOp1
 70
     1
102
RTVSPropertyOp2
 70
     1
102
RTVSPropertyOp3
 70
     1
102
RTVSPropertyOp4
 70
     1
102
RTVSPropertyOp5
 70
     1
102
RTVSPropertyOp6
 70
     1
102
RTVSPropertyOp7
 70
     1
102
RTVSPropertyOp8
 70
     1
102
RTVSPropertyOp9
 70
     1
102
RTVSPropertyOp10
 70
     1
102
RTVSPropertyOp11
 70
     1
102
RTVSPropertyOp12
 70
     1
102
RTVSPropertyOp13
 70
     1
102
RTVSPropertyOp14
 70
     1
102
RTVSPropertyOp15
 70
     1
102
RTVSPropertyOp16
 70
     1
102
RTVSPropertyOp17
 70
     1
102
RTVSPropertyOp18
 70
     1
102
RTVSPropertyOp19
 70
     1
102
RTVSPropertyOp20
 70
     1
102
RTVSPropertyOp21
 70
     1
102
RTVSPropertyOp22
 70
     1
102
RTVSPropertyOp23
 70
     1
102
RTVSPropertyOp24
 70
     1
102
RTVSPropertyOp25
 70
     1
102
RTVSPropertyOp26
 70
     1
102
RTVSPropertyOp27
 70
     1
102
RTVSPropertyOp28
 70
     1
102
RTVSPropertyOp29
 70
     1
102
RTVSPropertyOp30
 70
     1
102
RTVSPropertyOp31
 70
     1
102
RTVSPropertyOp32
 70
     1
102
RTVSPropertyOp33
 70
     1
102
RTVSPropertyOp34
 70
     1
102
RTVSPropertyOp35
 70
     1
102
RTVSPropertyOp36
 70
     1
102
RTVSPropertyOp37
 70
     1
102
RTVSPropertyOp38
 70
     1
102
RTVSPropertyOp39
 70
     1
102
RTVSPropertyOp40
 70
     1
102
RTVSPropertyOp41
 70
     1
102
RTVSPropertyOp42
 70
     1
102
RTVSPropertyOp43
 70
     1
102
RTVSPropertyOp44
 70
     1
102
RTVSPropertyOp45
 70
     1
102
RTVSPropertyOp46
 70
     1
102
RTVSPropertyOp47
 70
     1
102
RTVSPropertyOp48
 70
     1
102
RTVSPropertyOp49
 70
     1
102
RTVSPropertyOp50
 70
     1
102
RTVSPropertyOp51
 70
     0
102
RTVSPropertyOp52
 70
     0
102
RTVSPropertyOp53
 70
     1
102
RTVSPropertyOp54
 70
     1
102
RTVSPropertyOp55
 70
     1
102
RTVSPropertyOp56
 70
     1
102
RTVSPropertyOp57
 70
     1
102
RTVSPropertyOp58
 70
     1
102
RTVSPropertyOp59
 70
     1
102
RTVSPropertyOp60
 70
     1
102
RTVSPropertyOp61
 70
     1
102
RTVSPropertyOp62
 70
     1
  0
XRECORD
  5
1890
102
{ACAD_REACTORS
330
188F
102
}
330
188F
100
AcDbXrecord
280
     1
102
RTVSPost2010Prop28
280
     0
102
RTVSPost2010PropOp28
 70
     1
102
RTVSPost2010Prop29
280
     1
102
RTVSPost2010PropOp29
 70
     1
102
RTVSPost2010Prop30
280
     1
102
RTVSPost2010PropOp30
 70
     1
102
RTVSPost2010Prop31
280
     0
102
RTVSPost2010PropOp31
 70
     1
102
RTVSPost2010Prop32
280
     0
102
RTVSPost2010PropOp32
 70
     1
102
RTVSPost2010Prop33
280
     0
102
RTVSPost2010PropOp33
 70
     1
102
RTVSPost2010Prop34
280
     0
102
RTVSPost2010PropOp34
 70
     1
102
RTVSPost2010Prop35
280
     0
102
RTVSPost2010PropOp35
 70
     1
102
RTVSPost2010Prop36
280
     0
102
RTVSPost2010PropOp36
 70
     1
102
RTVSPost2010Prop37
 90
       50
102
RTVSPost2010PropOp37
 70
     1
102
RTVSPost2010Prop38
140
0.0
102
RTVSPost2010PropOp38
 70
     1
102
RTVSPost2010Prop39
140
1.0
102
RTVSPost2010PropOp39
 70
     1
102
RTVSPost2010Prop40
 90
        0
102
RTVSPost2010PropOp40
 70
     1
102
RTVSPost2010Prop41ColorIndex
 90
       18
102
RTVSPost2010Prop41ColorRGB
 90
        0
102
RTVSPost2010PropOp41
 70
     1
102
RTVSPost2010Prop42
 90
       50
102
RTVSPost2010PropOp42
 70
     1
102
RTVSPost2010Prop43
 90
        3
102
RTVSPost2010PropOp43
 70
     1
102
RTVSPost2010Prop44ColorIndex
 90
        5
102
RTVSPost2010Prop44ColorRGB
 90
      255
102
RTVSPost2010PropOp44
 70
     1
102
RTVSPost2010Prop45
280
     0
102
RTVSPost2010PropOp45
 70
     1
102
RTVSPost2010Prop46
 90
       50
102
RTVSPost2010PropOp46
 70
     1
102
RTVSPost2010Prop47
 90
       50
102
RTVSPost2010PropOp47
 70
     1
102
RTVSPost2010Prop48
 90
       50
102
RTVSPost2010PropOp48
 70
     1
102
RTVSPost2010Prop49
280
     0
102
RTVSPost2010PropOp49
 70
     1
102
RTVSPost2010Prop50
 90
       50
102
RTVSPost2010PropOp50
 70
     1
102
RTVSPost2010Prop51ColorIndex
 90
      256
102
RTVSPost2010Prop51ColorRGB
 90
-16777216
102
RTVSPost2010PropOp51
 70
     0
102
RTVSPost2010Prop52
140
1.0
102
RTVSPost2010PropOp52
 70
     0
102
RTVSPost2010Prop53
 90
        2
102
RTVSPost2010PropOp53
 70
     1
102
RTVSPost2010Prop54
  1
strokes_ogs.tif
102
RTVSPost2010PropOp54
 70
     1
102
RTVSPost2010Prop55
280
     0
102
RTVSPost2010PropOp55
 70
     1
102
RTVSPost2010Prop56
140
1.0
102
RTVSPost2010PropOp56
 70
     1
102
RTVSPost2010Prop57
140
1.0
102
RTVSPost2010PropOp57
 70
     1
102
RTVSPropertyOp0
 70
     1
102
RTVSPropertyOp1
 70
     1
102
RTVSPropertyOp2
 70
     1
102
RTVSPropertyOp3
 70
     1
102
RTVSPropertyOp4
 70
     1
102
RTVSPropertyOp5
 70
     1
102
RTVSPropertyOp6
 70
     1
102
RTVSPropertyOp7
 70
     1
102
RTVSPropertyOp8
 70
     1
102
RTVSPropertyOp9
 70
     1
102
RTVSPropertyOp10
 70
     1
102
RTVSPropertyOp11
 70
     1
102
RTVSPropertyOp12
 70
     1
102
RTVSPropertyOp13
 70
     1
102
RTVSPropertyOp14
 70
     1
102
RTVSPropertyOp15
 70
     1
102
RTVSPropertyOp16
 70
     1
102
RTVSPropertyOp17
 70
     1
102
RTVSPropertyOp18
 70
     1
102
RTVSPropertyOp19
 70
     1
102
RTVSPropertyOp20
 70
     1
102
RTVSPropertyOp21
 70
     1
102
RTVSPropertyOp22
 70
     1
102
RTVSPropertyOp23
 70
     1
102
RTVSPropertyOp24
 70
     1
102
RTVSPropertyOp25
 70
     1
102
RTVSPropertyOp26
 70
     1
102
RTVSPropertyOp27
 70
     1
102
RTVSPropertyOp28
 70
     1
102
RTVSPropertyOp29
 70
     1
102
RTVSPropertyOp30
 70
     1
102
RTVSPropertyOp31
 70
     1
102
RTVSPropertyOp32
 70
     1
102
RTVSPropertyOp33
 70
     1
102
RTVSPropertyOp34
 70
     1
102
RTVSPropertyOp35
 70
     1
102
RTVSPropertyOp36
 70
     1
102
RTVSPropertyOp37
 70
     1
102
RTVSPropertyOp38
 70
     1
102
RTVSPropertyOp39
 70
     1
102
RTVSPropertyOp40
 70
     1
102
RTVSPropertyOp41
 70
     1
102
RTVSPropertyOp42
 70
     1
102
RTVSPropertyOp43
 70
     1
102
RTVSPropertyOp44
 70
     1
102
RTVSPropertyOp45
 70
     1
102
RTVSPropertyOp46
 70
     1
102
RTVSPropertyOp47
 70
     1
102
RTVSPropertyOp48
 70
     1
102
RTVSPropertyOp49
 70
     1
102
RTVSPropertyOp50
 70
     1
102
RTVSPropertyOp51
 70
     0
102
RTVSPropertyOp52
 70
     0
102
RTVSPropertyOp53
 70
     1
102
RTVSPropertyOp54
 70
     1
102
RTVSPropertyOp55
 70
     1
102
RTVSPropertyOp56
 70
     1
102
RTVSPropertyOp57
 70
     1
102
RTVSPropertyOp58
 70
     1
102
RTVSPropertyOp59
 70
     1
102
RTVSPropertyOp60
 70
     1
102
RTVSPropertyOp61
 70
     1
102
RTVSPropertyOp62
 70
     1
  0
XRECORD
  5
18A8
102
{ACAD_REACTORS
330
18A7
102
}
330
18A7
100
AcDbXrecord
280
     1
102
RTVSPost2010Prop28
280
     0
102
RTVSPost2010PropOp28
 70
     1
102
RTVSPost2010Prop29
280
     1
102
RTVSPost2010PropOp29
 70
     1
102
RTVSPost2010Prop30
280
     1
102
RTVSPost2010PropOp30
 70
     1
102
RTVSPost2010Prop31
280
     0
102
RTVSPost2010PropOp31
 70
     1
102
RTVSPost2010Prop32
280
     0
102
RTVSPost2010PropOp32
 70
     1
102
RTVSPost2010Prop33
280
     0
102
RTVSPost2010PropOp33
 70
     1
102
RTVSPost2010Prop34
280
     0
102
RTVSPost2010PropOp34
 70
     1
102
RTVSPost2010Prop35
280
     0
102
RTVSPost2010PropOp35
 70
     1
102
RTVSPost2010Prop36
280
     0
102
RTVSPost2010PropOp36
 70
     1
102
RTVSPost2010Prop37
 90
       50
102
RTVSPost2010PropOp37
 70
     1
102
RTVSPost2010Prop38
140
0.0
102
RTVSPost2010PropOp38
 70
     1
102
RTVSPost2010Prop39
140
1.0
102
RTVSPost2010PropOp39
 70
     1
102
RTVSPost2010Prop40
 90
        0
102
RTVSPost2010PropOp40
 70
     1
102
RTVSPost2010Prop41ColorIndex
 90
       18
102
RTVSPost2010Prop41ColorRGB
 90
        0
102
RTVSPost2010PropOp41
 70
     1
102
RTVSPost2010Prop42
 90
       50
102
RTVSPost2010PropOp42
 70
     1
102
RTVSPost2010Prop43
 90
        3
102
RTVSPost2010PropOp43
 70
     1
102
RTVSPost2010Prop44ColorIndex
 90
        5
102
RTVSPost2010Prop44ColorRGB
 90
      255
102
RTVSPost2010PropOp44
 70
     1
102
RTVSPost2010Prop45
280
     0
102
RTVSPost2010PropOp45
 70
     1
102
RTVSPost2010Prop46
 90
       50
102
RTVSPost2010PropOp46
 70
     1
102
RTVSPost2010Prop47
 90
       50
102
RTVSPost2010PropOp47
 70
     1
102
RTVSPost2010Prop48
 90
       50
102
RTVSPost2010PropOp48
 70
     1
102
RTVSPost2010Prop49
280
     0
102
RTVSPost2010PropOp49
 70
     1
102
RTVSPost2010Prop50
 90
       50
102
RTVSPost2010PropOp50
 70
     1
102
RTVSPost2010Prop51ColorIndex
 90
      256
102
RTVSPost2010Prop51ColorRGB
 90
-16777216
102
RTVSPost2010PropOp51
 70
     0
102
RTVSPost2010Prop52
140
1.0
102
RTVSPost2010PropOp52
 70
     0
102
RTVSPost2010Prop53
 90
        2
102
RTVSPost2010PropOp53
 70
     1
102
RTVSPost2010Prop54
  1
strokes_ogs.tif
102
RTVSPost2010PropOp54
 70
     1
102
RTVSPost2010Prop55
280
     0
102
RTVSPost2010PropOp55
 70
     1
102
RTVSPost2010Prop56
140
1.0
102
RTVSPost2010PropOp56
 70
     1
102
RTVSPost2010Prop57
140
1.0
102
RTVSPost2010PropOp57
 70
     1
102
RTVSPropertyOp0
 70
     1
102
RTVSPropertyOp1
 70
     1
102
RTVSPropertyOp2
 70
     1
102
RTVSPropertyOp3
 70
     1
102
RTVSPropertyOp4
 70
     1
102
RTVSPropertyOp5
 70
     1
102
RTVSPropertyOp6
 70
     1
102
RTVSPropertyOp7
 70
     1
102
RTVSPropertyOp8
 70
     1
102
RTVSPropertyOp9
 70
     1
102
RTVSPropertyOp10
 70
     1
102
RTVSPropertyOp11
 70
     1
102
RTVSPropertyOp12
 70
     1
102
RTVSPropertyOp13
 70
     1
102
RTVSPropertyOp14
 70
     1
102
RTVSPropertyOp15
 70
     1
102
RTVSPropertyOp16
 70
     1
102
RTVSPropertyOp17
 70
     1
102
RTVSPropertyOp18
 70
     1
102
RTVSPropertyOp19
 70
     1
102
RTVSPropertyOp20
 70
     1
102
RTVSPropertyOp21
 70
     1
102
RTVSPropertyOp22
 70
     1
102
RTVSPropertyOp23
 70
     1
102
RTVSPropertyOp24
 70
     1
102
RTVSPropertyOp25
 70
     1
102
RTVSPropertyOp26
 70
     1
102
RTVSPropertyOp27
 70
     1
102
RTVSPropertyOp28
 70
     1
102
RTVSPropertyOp29
 70
     1
102
RTVSPropertyOp30
 70
     1
102
RTVSPropertyOp31
 70
     1
102
RTVSPropertyOp32
 70
     1
102
RTVSPropertyOp33
 70
     1
102
RTVSPropertyOp34
 70
     1
102
RTVSPropertyOp35
 70
     1
102
RTVSPropertyOp36
 70
     1
102
RTVSPropertyOp37
 70
     1
102
RTVSPropertyOp38
 70
     1
102
RTVSPropertyOp39
 70
     1
102
RTVSPropertyOp40
 70
     1
102
RTVSPropertyOp41
 70
     1
102
RTVSPropertyOp42
 70
     1
102
RTVSPropertyOp43
 70
     1
102
RTVSPropertyOp44
 70
     1
102
RTVSPropertyOp45
 70
     1
102
RTVSPropertyOp46
 70
     1
102
RTVSPropertyOp47
 70
     1
102
RTVSPropertyOp48
 70
     1
102
RTVSPropertyOp49
 70
     1
102
RTVSPropertyOp50
 70
     1
102
RTVSPropertyOp51
 70
     0
102
RTVSPropertyOp52
 70
     0
102
RTVSPropertyOp53
 70
     1
102
RTVSPropertyOp54
 70
     1
102
RTVSPropertyOp55
 70
     1
102
RTVSPropertyOp56
 70
     1
102
RTVSPropertyOp57
 70
     1
102
RTVSPropertyOp58
 70
     1
102
RTVSPropertyOp59
 70
     1
102
RTVSPropertyOp60
 70
     1
102
RTVSPropertyOp61
 70
     1
102
RTVSPropertyOp62
 70
     1
  0
ENDSEC
  0
EOF
