  0
SECTION
  2
HEADER
  9
$ACADVER
  1
AC1018
  9
$ACADMAINTVER
 70
   104
  9
$DWGCODEPAGE
  3
ANSI_1252
  9
$LASTSAVEDBY
  1
w.koehlhoff
  9
$INSBASE
 10
0.0
 20
0.0
 30
0.0
  9
$EXTMIN
 10
-0.0128100481844058
 20
-0.0181170681471485
 30
-0.0000000000000053
  9
$EXTMAX
 10
420.0128212946063
 20
594.0181329738
 30
0.0000000000000099
  9
$LIMMIN
 10
0.0
 20
0.0
  9
$LIMMAX
 10
419.9999999999999
 20
594.0
  9
$ORTHOMODE
 70
     0
  9
$REGENMODE
 70
     1
  9
$FILLMODE
 70
     1
  9
$QTEXTMODE
 70
     0
  9
$MIRRTEXT
 70
     1
  9
$LTSCALE
 40
20.0
  9
$ATTMODE
 70
     1
  9
$TEXTSIZE
 40
3.5
  9
$TRACEWID
 40
0.5
  9
$TEXTSTYLE
  7
STANDARD
  9
$CLAYER
  8
VOLL
  9
$CELTYPE
  6
ByLayer
  9
$CECOLOR
 62
   256
  9
$CELTSCALE
 40
1.0
  9
$DISPSILH
 70
     0
  9
$DIMSCALE
 40
2.0
  9
$DIMASZ
 40
3.5
  9
$DIMEXO
 40
1.0
  9
$DIMDLI
 40
7.0
  9
$DIMRND
 40
0.0
  9
$DIMDLE
 40
0.0
  9
$DIMEXE
 40
1.0
  9
$DIMTP
 40
0.0
  9
$DIMTM
 40
0.0
  9
$DIMTXT
 40
3.5
  9
$DIMCEN
 40
1.5
  9
$DIMTSZ
 40
0.0
  9
$DIMTOL
 70
     0
  9
$DIMLIM
 70
     0
  9
$DIMTIH
 70
     0
  9
$DIMTOH
 70
     0
  9
$DIMSE1
 70
     0
  9
$DIMSE2
 70
     0
  9
$DIMTAD
 70
     1
  9
$DIMZIN
 70
     8
  9
$DIMBLK
  1

  9
$DIMASO
 70
     1
  9
$DIMSHO
 70
     0
  9
$DIMPOST
  1

  9
$DIMAPOST
  1

  9
$DIMALT
 70
     0
  9
$DIMALTD
 70
     2
  9
$DIMALTF
 40
25.4
  9
$DIMLFAC
 40
1.0
  9
$DIMTOFL
 70
     1
  9
$DIMTVP
 40
0.0
  9
$DIMTIX
 70
     0
  9
$DIMSOXD
 70
     0
  9
$DIMSAH
 70
     0
  9
$DIMBLK1
  1

  9
$DIMBLK2
  1

  9
$DIMSTYLE
  2
Standard
  9
$DIMCLRD
 70
     0
  9
$DIMCLRE
 70
     0
  9
$DIMCLRT
 70
     1
  9
$DIMTFAC
 40
0.5142857142857144
  9
$DIMGAP
 40
1.5
  9
$DIMJUST
 70
     0
  9
$DIMSD1
 70
     0
  9
$DIMSD2
 70
     0
  9
$DIMTOLJ
 70
     1
  9
$DIMTZIN
 70
     8
  9
$DIMALTZ
 70
     8
  9
$DIMALTTZ
 70
     8
  9
$DIMUPT
 70
     0
  9
$DIMDEC
 70
     2
  9
$DIMTDEC
 70
     2
  9
$DIMALTU
 70
     2
  9
$DIMALTTD
 70
     2
  9
$DIMTXSTY
  7
STANDARD
  9
$DIMAUNIT
 70
     0
  9
$DIMADEC
 70
     2
  9
$DIMALTRND
 40
0.0
  9
$DIMAZIN
 70
     2
  9
$DIMDSEP
 70
    46
  9
$DIMATFIT
 70
     3
  9
$DIMFRAC
 70
     0
  9
$DIMLDRBLK
  1

  9
$DIMLUNIT
 70
     2
  9
$DIMLWD
 70
    -2
  9
$DIMLWE
 70
    -2
  9
$DIMTMOVE
 70
     0
  9
$LUNITS
 70
     2
  9
$LUPREC
 70
     2
  9
$SKETCHINC
 40
1.0
  9
$FILLETRAD
 40
0.0
  9
$AUNITS
 70
     0
  9
$AUPREC
 70
     0
  9
$MENU
  1
ACAD
  9
$ELEVATION
 40
0.0
  9
$PELEVATION
 40
0.0
  9
$THICKNESS
 40
0.0
  9
$LIMCHECK
 70
     0
  9
$CHAMFERA
 40
0.0
  9
$CHAMFERB
 40
0.0
  9
$CHAMFERC
 40
0.0
  9
$CHAMFERD
 40
0.0
  9
$SKPOLY
 70
     0
  9
$TDCREATE
 40
2455397.864709028
  9
$TDUCREATE
 40
2455397.781375695
  9
$TDUPDATE
 40
2456442.308657211
  9
$TDUUPDATE
 40
2456442.225323877
  9
$TDINDWG
 40
0.0724983912
  9
$TDUSRTIMER
 40
0.0724983912
  9
$USRTIMER
 70
     1
  9
$ANGBASE
 50
0.0
  9
$ANGDIR
 70
     0
  9
$PDMODE
 70
     0
  9
$PDSIZE
 40
0.0
  9
$PLINEWID
 40
0.0
  9
$SPLFRAME
 70
     0
  9
$SPLINETYPE
 70
     6
  9
$SPLINESEGS
 70
     8
  9
$HANDSEED
  5
10EB
  9
$SURFTAB1
 70
     6
  9
$SURFTAB2
 70
     6
  9
$SURFTYPE
 70
     6
  9
$SURFU
 70
     6
  9
$SURFV
 70
     6
  9
$UCSBASE
  2

  9
$UCSNAME
  2

  9
$UCSORG
 10
0.0
 20
0.0
 30
0.0
  9
$UCSXDIR
 10
1.0
 20
0.0
 30
0.0
  9
$UCSYDIR
 10
0.0
 20
1.0
 30
0.0
  9
$UCSORTHOREF
  2

  9
$UCSORTHOVIEW
 70
     0
  9
$UCSORGTOP
 10
0.0
 20
0.0
 30
0.0
  9
$UCSORGBOTTOM
 10
0.0
 20
0.0
 30
0.0
  9
$UCSORGLEFT
 10
0.0
 20
0.0
 30
0.0
  9
$UCSORGRIGHT
 10
0.0
 20
0.0
 30
0.0
  9
$UCSORGFRONT
 10
0.0
 20
0.0
 30
0.0
  9
$UCSORGBACK
 10
0.0
 20
0.0
 30
0.0
  9
$PUCSBASE
  2

  9
$PUCSNAME
  2

  9
$PUCSORG
 10
0.0
 20
0.0
 30
0.0
  9
$PUCSXDIR
 10
1.0
 20
0.0
 30
0.0
  9
$PUCSYDIR
 10
0.0
 20
1.0
 30
0.0
  9
$PUCSORTHOREF
  2

  9
$PUCSORTHOVIEW
 70
     0
  9
$PUCSORGTOP
 10
0.0
 20
0.0
 30
0.0
  9
$PUCSORGBOTTOM
 10
0.0
 20
0.0
 30
0.0
  9
$PUCSORGLEFT
 10
0.0
 20
0.0
 30
0.0
  9
$PUCSORGRIGHT
 10
0.0
 20
0.0
 30
0.0
  9
$PUCSORGFRONT
 10
0.0
 20
0.0
 30
0.0
  9
$PUCSORGBACK
 10
0.0
 20
0.0
 30
0.0
  9
$USERI1
 70
     0
  9
$USERI2
 70
     0
  9
$USERI3
 70
     0
  9
$USERI4
 70
     0
  9
$USERI5
 70
     0
  9
$USERR1
 40
0.0
  9
$USERR2
 40
0.0
  9
$USERR3
 40
0.0
  9
$USERR4
 40
0.0
  9
$USERR5
 40
0.0
  9
$WORLDVIEW
 70
     1
  9
$SHADEDGE
 70
     3
  9
$SHADEDIF
 70
    70
  9
$TILEMODE
 70
     1
  9
$MAXACTVP
 70
    16
  9
$PINSBASE
 10
0.0
 20
0.0
 30
0.0
  9
$PLIMCHECK
 70
     0
  9
$PEXTMIN
 10
1.000000000000000E+20
 20
1.000000000000000E+20
 30
1.000000000000000E+20
  9
$PEXTMAX
 10
-1.000000000000000E+20
 20
-1.000000000000000E+20
 30
-1.000000000000000E+20
  9
$PLIMMIN
 10
0.0
 20
0.0
  9
$PLIMMAX
 10
12.0
 20
9.0
  9
$UNITMODE
 70
     0
  9
$VISRETAIN
 70
     0
  9
$PLINEGEN
 70
     0
  9
$PSLTSCALE
 70
     0
  9
$TREEDEPTH
 70
  3020
  9
$CMLSTYLE
  2
Standard
  9
$CMLJUST
 70
     0
  9
$CMLSCALE
 40
1.0
  9
$PROXYGRAPHICS
 70
     1
  9
$MEASUREMENT
 70
     0
  9
$CELWEIGHT
370
    -1
  9
$ENDCAPS
280
     0
  9
$JOINSTYLE
280
     0
  9
$LWDISPLAY
290
     0
  9
$INSUNITS
 70
     0
  9
$HYPERLINKBASE
  1

  9
$STYLESHEET
  1
monochrome1.ctb
  9
$XEDIT
290
     1
  9
$CEPSNTYPE
380
     0
  9
$PSTYLEMODE
290
     1
  9
$FINGERPRINTGUID
  2
{D68B0D02-A558-11D7-B632-000102183313}
  9
$VERSIONGUID
  2
{CA142928-2EBC-4BFA-84AB-40621B266F2E}
  9
$EXTNAMES
290
     1
  9
$PSVPSCALE
 40
0.0
  9
$OLESTARTUP
290
     0
  9
$SORTENTS
280
   127
  9
$INDEXCTL
280
     0
  9
$HIDETEXT
280
     0
  9
$XCLIPFRAME
290
     0
  9
$HALOGAP
280
     0
  9
$OBSCOLOR
 70
   257
  9
$OBSLTYPE
280
     0
  9
$INTERSECTIONDISPLAY
280
     0
  9
$INTERSECTIONCOLOR
 70
   257
  9
$DIMASSOC
280
     1
  9
$PROJECTNAME
  1

  0
ENDSEC
  0
SECTION
  2
CLASSES
  0
CLASS
  1
ACDBDICTIONARYWDFLT
  2
AcDbDictionaryWithDefault
  3
ObjectDBX Classes
 90
        0
 91
        1
280
     0
281
     0
  0
CLASS
  1
DICTIONARYVAR
  2
AcDbDictionaryVar
  3
ObjectDBX Classes
 90
        0
 91
       14
280
     0
281
     0
  0
CLASS
  1
MATERIAL
  2
AcDbMaterial
  3
ObjectDBX Classes
 90
     1153
 91
        3
280
     0
281
     0
  0
CLASS
  1
VISUALSTYLE
  2
AcDbVisualStyle
  3
ObjectDBX Classes
 90
     4095
 91
       24
280
     0
281
     0
  0
CLASS
  1
TABLESTYLE
  2
AcDbTableStyle
  3
ObjectDBX Classes
 90
     4095
 91
        1
280
     0
281
     0
  0
CLASS
  1
SCALE
  2
AcDbScale
  3
ObjectDBX Classes
 90
     1153
 91
       17
280
     0
281
     0
  0
CLASS
  1
MLEADERSTYLE
  2
AcDbMLeaderStyle
  3
ACDB_MLEADERSTYLE_CLASS
 90
     4095
 91
        1
280
     0
281
     0
  0
CLASS
  1
ACDBSECTIONVIEWSTYLE
  2
AcDbSectionViewStyle
  3
ObjectDBX Classes
 90
     1025
 91
        1
280
     0
281
     0
  0
CLASS
  1
ACDBDETAILVIEWSTYLE
  2
AcDbDetailViewStyle
  3
ObjectDBX Classes
 90
     1025
 91
        1
280
     0
281
     0
  0
CLASS
  1
SORTENTSTABLE
  2
AcDbSortentsTable
  3
ObjectDBX Classes
 90
        0
 91
        1
280
     0
281
     0
  0
CLASS
  1
CELLSTYLEMAP
  2
AcDbCellStyleMap
  3
ObjectDBX Classes
 90
     1152
 91
        3
280
     0
281
     0
  0
ENDSEC
  0
SECTION
  2
TABLES
  0
TABLE
  2
VPORT
  5
8
102
{ACAD_XDICTIONARY
360
9D5
102
}
330
0
100
AcDbSymbolTable
 70
     1
  0
VPORT
  5
80D
330
8
100
AcDbSymbolTableRecord
100
AcDbViewportTableRecord
  2
*Active
 70
     0
 10
0.0
 20
0.0
 11
1.0
 21
1.0
 12
210.0000056232109
 22
297.0000079528264
 13
0.0
 23
0.0
 14
1.0
 24
1.0
 15
10.0
 25
10.0
 16
0.0
 26
0.0
 36
1.0
 17
0.0
 27
0.0
 37
0.0
 40
598.0454935742886
 41
1.699324324324324
 42
50.0
 43
0.0
 44
0.0
 50
0.0
 51
0.0
 71
     0
 72
  1500
 73
     1
 74
     0
 75
     0
 76
     0
 77
     0
 78
     0
281
     0
 65
     1
110
0.0
120
0.0
130
0.0
111
1.0
121
0.0
131
0.0
112
0.0
122
1.0
132
0.0
 79
     0
146
0.0
1001
ACAD_NAV_VCDISPLAY
1070
     3
  0
ENDTAB
  0
TABLE
  2
LTYPE
  5
5
330
0
100
AcDbSymbolTable
 70
     4
  0
LTYPE
  5
13
330
5
100
AcDbSymbolTableRecord
100
AcDbLinetypeTableRecord
  2
ByBlock
 70
     0
  3

 72
    65
 73
     0
 40
0.0
  0
LTYPE
  5
14
330
5
100
AcDbSymbolTableRecord
100
AcDbLinetypeTableRecord
  2
ByLayer
 70
     0
  3

 72
    65
 73
     0
 40
0.0
  0
LTYPE
  5
15
330
5
100
AcDbSymbolTableRecord
100
AcDbLinetypeTableRecord
  2
Continuous
 70
     0
  3
Solid line
 72
    65
 73
     0
 40
0.0
  0
LTYPE
  5
25
330
5
100
AcDbSymbolTableRecord
100
AcDbLinetypeTableRecord
  2
STRICHPUNKT
 70
     0
  3
__ . __ . __ . __ . __ . __ . __ . __ . __ . __
 72
    65
 73
     4
 40
1.0
 49
0.5
 74
     0
 49
-0.25
 74
     0
 49
0.0
 74
     0
 49
-0.25
 74
     0
  0
LTYPE
  5
85E
330
5
100
AcDbSymbolTableRecord
100
AcDbLinetypeTableRecord
  2
PHANTOM2
 70
     0
  3
Phantom (.5x) ___ _ _ ___ _ _ ___ _ _ ___ _ _
 72
    65
 73
     6
 40
1.25
 49
0.625
 74
     0
 49
-0.125
 74
     0
 49
0.125
 74
     0
 49
-0.125
 74
     0
 49
0.125
 74
     0
 49
-0.125
 74
     0
  0
ENDTAB
  0
TABLE
  2
LAYER
  5
2
102
{ACAD_XDICTIONARY
360
E4C
102
}
330
0
100
AcDbSymbolTable
 70
     9
  0
LAYER
  5
10
102
{ACAD_XDICTIONARY
360
9C2
102
}
330
2
100
AcDbSymbolTableRecord
100
AcDbLayerTableRecord
  2
0
 70
     0
 62
     7
  6
Continuous
370
    -3
390
F
  0
LAYER
  5
2A
102
{ACAD_XDICTIONARY
360
9C4
102
}
330
2
100
AcDbSymbolTableRecord
100
AcDbLayerTableRecord
  2
VOLL
 70
     0
 62
     1
  6
Continuous
370
    -3
390
F
  0
LAYER
  5
2B
102
{ACAD_XDICTIONARY
360
9C6
102
}
330
2
100
AcDbSymbolTableRecord
100
AcDbLayerTableRecord
  2
HILF
 70
     0
 62
     2
  6
Continuous
370
    -3
390
F
  0
LAYER
  5
2C
102
{ACAD_XDICTIONARY
360
9C8
102
}
330
2
100
AcDbSymbolTableRecord
100
AcDbLayerTableRecord
  2
MITTEL
 70
     0
 62
     2
  6
STRICHPUNKT
370
    -3
390
F
  0
LAYER
  5
2F
102
{ACAD_XDICTIONARY
360
9CA
102
}
330
2
100
AcDbSymbolTableRecord
100
AcDbLayerTableRecord
  2
BEM
 70
     0
 62
     7
  6
Continuous
370
    -3
390
F
  0
LAYER
  5
30
102
{ACAD_XDICTIONARY
360
9CC
102
}
330
2
100
AcDbSymbolTableRecord
100
AcDbLayerTableRecord
  2
STEMPEL
 70
     0
 62
     3
  6
Continuous
370
    -3
390
F
  0
LAYER
  5
31
102
{ACAD_XDICTIONARY
360
9CE
102
}
330
2
100
AcDbSymbolTableRecord
100
AcDbLayerTableRecord
  2
TEXT
 70
     0
 62
     7
  6
Continuous
370
    -3
390
F
  0
LAYER
  5
199
330
2
100
AcDbSymbolTableRecord
100
AcDbLayerTableRecord
  2
DEFPOINTS
 70
     0
 62
     7
  6
Continuous
290
     0
370
    -3
390
F
  0
LAYER
  5
19A
102
{ACAD_XDICTIONARY
360
9D0
102
}
330
2
100
AcDbSymbolTableRecord
100
AcDbLayerTableRecord
  2
SCHRAFF
 70
     0
 62
     7
  6
Continuous
370
    -3
390
F
  0
ENDTAB
  0
TABLE
  2
STYLE
  5
3
330
0
100
AcDbSymbolTable
 70
     2
  0
STYLE
  5
11
330
3
100
AcDbSymbolTableRecord
100
AcDbTextStyleTableRecord
  2
STANDARD
 70
     0
 40
0.0
 41
0.8
 50
0.0
 71
     0
 42
3.5
  3
simplex.shx
  4

  0
STYLE
  5
24
330
3
100
AcDbSymbolTableRecord
100
AcDbTextStyleTableRecord
  2
GREEKS
 70
     0
 40
0.0
 41
0.8
 50
0.0
 71
     0
 42
2.5
  3
SIMPLEX.shx
  4

  0
ENDTAB
  0
TABLE
  2
VIEW
  5
6
330
0
100
AcDbSymbolTable
 70
     0
  0
ENDTAB
  0
TABLE
  2
UCS
  5
7
330
0
100
AcDbSymbolTable
 70
     0
  0
ENDTAB
  0
TABLE
  2
APPID
  5
9
330
0
100
AcDbSymbolTable
 70
     7
  0
APPID
  5
12
330
9
100
AcDbSymbolTableRecord
100
AcDbRegAppTableRecord
  2
ACAD
 70
     0
  0
APPID
  5
876
330
9
100
AcDbSymbolTableRecord
100
AcDbRegAppTableRecord
  2
ACAD_NAV_VCDISPLAY
 70
     0
  0
APPID
  5
92D
330
9
100
AcDbSymbolTableRecord
100
AcDbRegAppTableRecord
  2
GradientColor1ACI
 70
     0
  0
APPID
  5
92E
330
9
100
AcDbSymbolTableRecord
100
AcDbRegAppTableRecord
  2
GradientColor2ACI
 70
     0
  0
APPID
  5
99A
330
9
100
AcDbSymbolTableRecord
100
AcDbRegAppTableRecord
  2
ACAD_EXEMPT_FROM_CAD_STANDARDS
 70
     0
  0
APPID
  5
99D
330
9
100
AcDbSymbolTableRecord
100
AcDbRegAppTableRecord
  2
AcadAnnoMonitorAlertIconDisabled
 70
     0
  0
APPID
  5
A0C
330
9
100
AcDbSymbolTableRecord
100
AcDbRegAppTableRecord
  2
ACAD_MLEADERVER
 70
     0
  0
ENDTAB
  0
TABLE
  2
DIMSTYLE
  5
A
330
0
100
AcDbSymbolTable
 70
     1
100
AcDbDimStyleTable
 71
     1
340
9D
  0
DIMSTYLE
105
9D
102
{ACAD_REACTORS
330
B91
330
B93
330
B94
330
B95
330
BBA
330
BC0
330
BD9
330
BDB
102
}
330
A
100
AcDbSymbolTableRecord
100
AcDbDimStyleTableRecord
  2
Standard
 70
     0
340
11
  0
ENDTAB
  0
TABLE
  2
BLOCK_RECORD
  5
1
330
0
100
AcDbSymbolTable
 70
    13
  0
BLOCK_RECORD
  5
1E
102
{ACAD_XDICTIONARY
360
A0
102
}
330
1
100
AcDbSymbolTableRecord
100
AcDbBlockTableRecord
  2
*Model_Space
340
21
  0
BLOCK_RECORD
  5
1A
102
{ACAD_XDICTIONARY
360
A2
102
}
330
1
100
AcDbSymbolTableRecord
100
AcDbBlockTableRecord
  2
*Paper_Space
340
1D
  0
BLOCK_RECORD
  5
22
330
1
100
AcDbSymbolTableRecord
100
AcDbBlockTableRecord
  2
LOGO
340
0
102
{BLKREFS
331
9B
102
}
  0
BLOCK_RECORD
  5
C71
330
1
100
AcDbSymbolTableRecord
100
AcDbBlockTableRecord
  2
*D1
340
0
  0
BLOCK_RECORD
  5
C8B
330
1
100
AcDbSymbolTableRecord
100
AcDbBlockTableRecord
  2
*D3
340
0
  0
BLOCK_RECORD
  5
C97
330
1
100
AcDbSymbolTableRecord
100
AcDbBlockTableRecord
  2
*D4
340
0
  0
BLOCK_RECORD
  5
CA5
330
1
100
AcDbSymbolTableRecord
100
AcDbBlockTableRecord
  2
*D5
340
0
  0
BLOCK_RECORD
  5
CB1
330
1
100
AcDbSymbolTableRecord
100
AcDbBlockTableRecord
  2
*D6
340
0
  0
BLOCK_RECORD
  5
CBD
330
1
100
AcDbSymbolTableRecord
100
AcDbBlockTableRecord
  2
*D7
340
0
  0
BLOCK_RECORD
  5
CC9
330
1
100
AcDbSymbolTableRecord
100
AcDbBlockTableRecord
  2
*D8
340
0
  0
BLOCK_RECORD
  5
CE3
330
1
100
AcDbSymbolTableRecord
100
AcDbBlockTableRecord
  2
*D10
340
0
  0
ENDTAB
  0
ENDSEC
  0
SECTION
  2
BLOCKS
  0
BLOCK
  5
35
330
1E
100
AcDbEntity
  8
0
100
AcDbBlockBegin
  2
*Model_Space
 70
     0
 10
0.0
 20
0.0
 30
0.0
  3
*Model_Space
  1

  0
ENDBLK
  5
36
330
1E
100
AcDbEntity
  8
0
100
AcDbBlockEnd
  0
BLOCK
  5
33
330
1A
100
AcDbEntity
 67
     1
  8
0
100
AcDbBlockBegin
  2
*Paper_Space
 70
     0
 10
0.0
 20
0.0
 30
0.0
  3
*Paper_Space
  1

  0
ENDBLK
  5
34
330
1A
100
AcDbEntity
 67
     1
  8
0
100
AcDbBlockEnd
  0
BLOCK
  5
37
330
22
100
AcDbEntity
  8
0
100
AcDbBlockBegin
  2
LOGO
 70
     0
 10
0.0
 20
0.0
 30
0.0
  3
LOGO
  1

  0
ARC
  5
38
330
22
100
AcDbEntity
  8
0
100
AcDbCircle
 10
11.59973089678112
 20
-9.271599258481501
 30
0.0
 40
4.5
100
AcDbArc
 50
270.0
 51
231.0575587310159
  0
LINE
  5
39
330
22
100
AcDbEntity
  8
0
100
AcDbLine
 10
3.599730896781125
 20
-4.771599258481529
 30
0.0
 11
3.599730896781153
 21
-11.77159925848133
 31
0.0
  0
LINE
  5
3A
330
22
100
AcDbEntity
  8
0
100
AcDbLine
 10
2.599730896781125
 20
-4.771599258481529
 30
0.0
 11
2.599730896781153
 21
-11.77159925848133
 31
0.0
  0
CIRCLE
  5
3B
330
22
100
AcDbEntity
  8
0
100
AcDbCircle
 10
11.59973089678112
 20
-9.271599258481501
 30
0.0
 40
3.5
  0
ARC
  5
3C
330
22
100
AcDbEntity
  8
0
100
AcDbCircle
 10
31.59973089678115
 20
-9.271599258481472
 30
0.0
 40
4.5
100
AcDbArc
 50
270.0
 51
231.0575587310182
  0
LINE
  5
3D
330
22
100
AcDbEntity
  8
0
100
AcDbLine
 10
17.59973089678112
 20
-4.771599258481472
 30
0.0
 11
17.59973089678115
 21
-13.77159925848147
 31
0.0
  0
ARC
  5
3E
330
22
100
AcDbEntity
  8
0
100
AcDbCircle
 10
22.59973089678116
 20
-7.271599258481472
 30
0.0
 40
2.5
100
AcDbArc
 50
293.1161887722295
 51
90.0
  0
CIRCLE
  5
3F
330
22
100
AcDbEntity
  8
0
100
AcDbCircle
 10
31.59973089678115
 20
-9.271599258481472
 30
0.0
 40
3.5
  0
ARC
  5
40
330
22
100
AcDbEntity
  8
0
100
AcDbCircle
 10
4.599730896781153
 20
-11.77159925848133
 30
0.0
 40
1.0
100
AcDbArc
 50
180.0
 51
270.0
  0
ARC
  5
41
330
22
100
AcDbEntity
  8
0
100
AcDbCircle
 10
4.599730896781153
 20
-11.77159925848133
 30
0.0
 40
2.0
100
AcDbArc
 50
179.9999999999992
 51
270.0
  0
LINE
  5
42
330
22
100
AcDbEntity
  8
0
100
AcDbLine
 10
11.59973089678115
 20
-13.77159925848144
 30
0.0
 11
4.599730896781153
 21
-13.77159925848147
 31
0.0
  0
LINE
  5
43
330
22
100
AcDbEntity
  8
0
100
AcDbLine
 10
8.771303772034769
 20
-12.77159925848136
 30
0.0
 11
4.599730896781153
 21
-12.77159925848133
 31
0.0
  0
LINE
  5
44
330
22
100
AcDbEntity
  8
0
100
AcDbLine
 10
31.59973089678115
 20
-13.77159925848147
 30
0.0
 11
23.6715276665056
 21
-13.77159925848144
 31
0.0
  0
LINE
  5
45
330
22
100
AcDbEntity
  8
0
100
AcDbLine
 10
23.56565672307022
 20
-9.51278021337896
 30
0.0
 11
24.4388546544846
 21
-12.77159925848144
 31
0.0
  0
LINE
  5
46
330
22
100
AcDbEntity
  8
0
100
AcDbLine
 10
22.59973089678116
 20
-9.771599258481472
 30
0.0
 11
18.59973089678112
 21
-9.771599258481472
 31
0.0
  0
LINE
  5
47
330
22
100
AcDbEntity
  8
0
100
AcDbLine
 10
18.59973089678115
 20
-13.77159925848144
 30
0.0
 11
17.59973089678115
 21
-13.77159925848144
 31
0.0
  0
LINE
  5
48
330
22
100
AcDbEntity
  8
0
100
AcDbLine
 10
18.59973089678115
 20
-9.771599258481472
 30
0.0
 11
18.59973089678115
 21
-13.77159925848144
 31
0.0
  0
LINE
  5
49
330
22
100
AcDbEntity
  8
0
100
AcDbLine
 10
22.59973089678116
 20
-9.771599258481472
 30
0.0
 11
23.67152766650562
 21
-13.77159925848147
 31
0.0
  0
ARC
  5
4A
330
22
100
AcDbEntity
  8
0
100
AcDbCircle
 10
22.59973089678116
 20
-7.271599258481472
 30
0.0
 40
2.5
100
AcDbArc
 50
270.0
 51
270.0000000000007
  0
LINE
  5
4B
330
22
100
AcDbEntity
  8
0
100
AcDbLine
 10
28.77130377203494
 20
-12.77159925848147
 30
0.0
 11
24.43885465448463
 21
-12.77159925848144
 31
0.0
  0
LINE
  5
4C
330
22
100
AcDbEntity
  8
0
100
AcDbLine
 10
3.599730896781125
 20
-4.771599258481472
 30
0.0
 11
2.599730896781125
 21
-4.771599258481472
 31
0.0
  0
LINE
  5
4D
330
22
100
AcDbEntity
  8
0
100
AcDbLine
 10
22.59973089678116
 20
-8.771599258481472
 30
0.0
 11
18.59973089678115
 21
-8.771599258481472
 31
0.0
  0
LINE
  5
4E
330
22
100
AcDbEntity
  8
0
100
AcDbLine
 10
22.59973089678116
 20
-5.771599258481472
 30
0.0
 11
18.59973089678115
 21
-5.771599258481472
 31
0.0
  0
LINE
  5
4F
330
22
100
AcDbEntity
  8
0
100
AcDbLine
 10
22.59973089678116
 20
-4.771599258481472
 30
0.0
 11
17.59973089678115
 21
-4.771599258481472
 31
0.0
  0
LINE
  5
50
330
22
100
AcDbEntity
  8
0
100
AcDbLine
 10
18.59973089678115
 20
-5.771599258481472
 30
0.0
 11
18.59973089678115
 21
-8.771599258481472
 31
0.0
  0
ARC
  5
51
330
22
100
AcDbEntity
  8
0
100
AcDbCircle
 10
22.59973089678116
 20
-7.271599258481472
 30
0.0
 40
1.5
100
AcDbArc
 50
270.0
 51
90.0
  0
ENDBLK
  5
52
330
22
100
AcDbEntity
  8
0
100
AcDbBlockEnd
  0
BLOCK
  5
C72
330
C71
100
AcDbEntity
  8
0
100
AcDbBlockBegin
  2
*D1
 70
     1
 10
0.0
 20
0.0
 30
0.0
  3
*D1
  1

  0
LINE
  5
D09
330
C71
100
AcDbEntity
  8
BEM
 62
     0
440
 16777216
370
    -2
100
AcDbLine
 10
198.500000000008
 20
209.2465007751989
 30
0.0
 11
198.500000000008
 21
184.0253980824491
 31
0.0
  0
LINE
  5
D0A
330
C71
100
AcDbEntity
  8
BEM
 62
     0
440
 16777216
370
    -2
100
AcDbLine
 10
251.5
 20
209.2465007752863
 30
0.0
 11
251.5
 21
184.0253980824491
 31
0.0
  0
LINE
  5
D0B
330
C71
100
AcDbEntity
  8
BEM
 62
     0
440
 16777216
370
    -2
100
AcDbLine
 10
205.500000000008
 20
186.0253980824491
 30
0.0
 11
244.4999999999999
 21
186.0253980824491
 31
0.0
  0
SOLID
  5
D0C
330
C71
100
AcDbEntity
  8
BEM
 62
     0
440
 16777216
100
AcDbTrace
 10
205.500000000008
 20
187.1920647491157
 30
0.0
 11
205.500000000008
 21
184.8587314157824
 31
0.0
 12
198.500000000008
 22
186.0253980824491
 32
0.0
 13
198.500000000008
 23
186.0253980824491
 33
0.0
  0
SOLID
  5
D0D
330
C71
100
AcDbEntity
  8
BEM
 62
     0
440
 16777216
100
AcDbTrace
 10
244.4999999999999
 20
187.1920647491157
 30
0.0
 11
244.4999999999999
 21
184.8587314157824
 31
0.0
 12
251.5
 22
186.0253980824491
 32
0.0
 13
251.5
 23
186.0253980824491
 33
0.0
  0
MTEXT
  5
D0E
330
C71
100
AcDbEntity
  8
BEM
 62
     1
440
 16777216
100
AcDbMText
 10
225.000000000004
 20
192.5253980824491
 30
0.0
 40
7.0
 41
0.0
 71
     5
 72
     1
  1
\A1;%%c53
  7
GREEKS
 73
     1
 44
1.0
  0
POINT
  5
D0F
330
C71
100
AcDbEntity
  8
DEFPOINTS
 62
     0
440
 16777216
100
AcDbPoint
 10
198.500000000008
 20
211.2465007751989
 30
0.0
  0
POINT
  5
D10
330
C71
100
AcDbEntity
  8
DEFPOINTS
 62
     0
440
 16777216
100
AcDbPoint
 10
251.5
 20
211.2465007752863
 30
0.0
  0
POINT
  5
D11
330
C71
100
AcDbEntity
  8
DEFPOINTS
 62
     0
440
 16777216
100
AcDbPoint
 10
251.5
 20
186.0253980824491
 30
0.0
  0
ENDBLK
  5
C73
330
C71
100
AcDbEntity
  8
0
100
AcDbBlockEnd
  0
BLOCK
  5
C8C
330
C8B
100
AcDbEntity
  8
0
100
AcDbBlockBegin
  2
*D3
 70
     1
 10
0.0
 20
0.0
 30
0.0
  3
*D3
  1

  0
LINE
  5
D1D
330
C8B
100
AcDbEntity
  8
BEM
 62
     0
440
 16777216
370
    -2
100
AcDbLine
 10
180.4999999999999
 20
496.3119921896548
 30
0.0
 11
180.4999999999999
 21
534.6024331904571
 31
0.0
  0
LINE
  5
D1E
330
C8B
100
AcDbEntity
  8
BEM
 62
     0
440
 16777216
370
    -2
100
AcDbLine
 10
269.4999999999998
 20
496.3119921896545
 30
0.0
 11
269.4999999999998
 21
534.6024331904571
 31
0.0
  0
LINE
  5
D1F
330
C8B
100
AcDbEntity
  8
BEM
 62
     0
440
 16777216
370
    -2
100
AcDbLine
 10
187.4999999999999
 20
532.602433190457
 30
0.0
 11
262.4999999999998
 21
532.602433190457
 31
0.0
  0
SOLID
  5
D20
330
C8B
100
AcDbEntity
  8
BEM
 62
     0
440
 16777216
100
AcDbTrace
 10
187.4999999999999
 20
533.7690998571237
 30
0.0
 11
187.4999999999999
 21
531.4357665237904
 31
0.0
 12
180.4999999999999
 22
532.602433190457
 32
0.0
 13
180.4999999999999
 23
532.602433190457
 33
0.0
  0
SOLID
  5
D21
330
C8B
100
AcDbEntity
  8
BEM
 62
     0
440
 16777216
100
AcDbTrace
 10
262.4999999999998
 20
533.7690998571237
 30
0.0
 11
262.4999999999998
 21
531.4357665237904
 31
0.0
 12
269.4999999999998
 22
532.602433190457
 32
0.0
 13
269.4999999999998
 23
532.602433190457
 33
0.0
  0
MTEXT
  5
D22
330
C8B
100
AcDbEntity
  8
BEM
 62
     1
440
 16777216
100
AcDbMText
 10
224.9999999999999
 20
539.1024331904571
 30
0.0
 40
7.0
 41
0.0
 71
     5
 72
     1
  1
\A1;%%c89
  7
GREEKS
 73
     1
 44
1.0
  0
POINT
  5
D23
330
C8B
100
AcDbEntity
  8
DEFPOINTS
 62
     0
440
 16777216
100
AcDbPoint
 10
180.4999999999999
 20
494.3119921896548
 30
0.0
  0
POINT
  5
D24
330
C8B
100
AcDbEntity
  8
DEFPOINTS
 62
     0
440
 16777216
100
AcDbPoint
 10
269.4999999999998
 20
494.3119921896546
 30
0.0
  0
POINT
  5
D25
330
C8B
100
AcDbEntity
  8
DEFPOINTS
 62
     0
440
 16777216
100
AcDbPoint
 10
269.4999999999998
 20
532.602433190457
 30
0.0
  0
ENDBLK
  5
C8D
330
C8B
100
AcDbEntity
  8
0
100
AcDbBlockEnd
  0
BLOCK
  5
C98
330
C97
100
AcDbEntity
  8
0
100
AcDbBlockBegin
  2
*D4
 70
     1
 10
0.0
 20
0.0
 30
0.0
  3
*D4
  1

  0
LINE
  5
D26
330
C97
100
AcDbEntity
  8
BEM
 62
     0
440
 16777216
370
    -2
100
AcDbLine
 10
180.4999999999999
 20
496.3119921896548
 30
0.0
 11
180.4999999999999
 21
519.7693377985363
 31
0.0
  0
LINE
  5
D27
330
C97
100
AcDbEntity
  8
BEM
 62
     0
440
 16777216
370
    -2
100
AcDbLine
 10
182.0999999999999
 20
496.3119921896548
 30
0.0
 11
182.0999999999999
 21
519.7693377985363
 31
0.0
  0
LINE
  5
D28
330
C97
100
AcDbEntity
  8
BEM
 62
     0
440
 16777216
370
    -2
100
AcDbLine
 10
173.4999999999999
 20
517.7693377985362
 30
0.0
 11
166.4999999999999
 21
517.7693377985362
 31
0.0
  0
LINE
  5
D29
330
C97
100
AcDbEntity
  8
BEM
 62
     0
440
 16777216
370
    -2
100
AcDbLine
 10
189.1
 20
517.7693377985362
 30
0.0
 11
212.5
 21
517.7693377985362
 31
0.0
  0
LINE
  5
D2A
330
C97
100
AcDbEntity
  8
BEM
 62
     0
440
 16777216
370
    -2
100
AcDbLine
 10
180.4999999999999
 20
517.7693377985362
 30
0.0
 11
182.0999999999999
 21
517.7693377985362
 31
0.0
  0
SOLID
  5
D2B
330
C97
100
AcDbEntity
  8
BEM
 62
     0
440
 16777216
100
AcDbTrace
 10
173.4999999999999
 20
518.9360044652029
 30
0.0
 11
173.4999999999999
 21
516.6026711318696
 31
0.0
 12
180.4999999999999
 22
517.7693377985362
 32
0.0
 13
180.4999999999999
 23
517.7693377985362
 33
0.0
  0
SOLID
  5
D2C
330
C97
100
AcDbEntity
  8
BEM
 62
     0
440
 16777216
100
AcDbTrace
 10
189.1
 20
518.9360044652029
 30
0.0
 11
189.1
 21
516.6026711318696
 31
0.0
 12
182.0999999999999
 22
517.7693377985362
 32
0.0
 13
182.0999999999999
 23
517.7693377985362
 33
0.0
  0
MTEXT
  5
D2D
330
C97
100
AcDbEntity
  8
BEM
 62
     1
440
 16777216
100
AcDbMText
 10
204.3
 20
524.2693377985363
 30
0.0
 40
7.0
 41
0.0
 71
     5
 72
     1
  1
\A1;1.6
  7
GREEKS
 73
     1
 44
1.0
  0
POINT
  5
D2E
330
C97
100
AcDbEntity
  8
DEFPOINTS
 62
     0
440
 16777216
100
AcDbPoint
 10
180.4999999999999
 20
494.3119921896548
 30
0.0
  0
POINT
  5
D2F
330
C97
100
AcDbEntity
  8
DEFPOINTS
 62
     0
440
 16777216
100
AcDbPoint
 10
182.0999999999999
 20
494.3119921896548
 30
0.0
  0
POINT
  5
D30
330
C97
100
AcDbEntity
  8
DEFPOINTS
 62
     0
440
 16777216
100
AcDbPoint
 10
182.0999999999999
 20
517.7693377985362
 30
0.0
  0
ENDBLK
  5
C99
330
C97
100
AcDbEntity
  8
0
100
AcDbBlockEnd
  0
BLOCK
  5
CA6
330
CA5
100
AcDbEntity
  8
0
100
AcDbBlockBegin
  2
*D5
 70
     1
 10
0.0
 20
0.0
 30
0.0
  3
*D5
  1

  0
LINE
  5
D31
330
CA5
100
AcDbEntity
  8
BEM
 62
     0
440
 16777216
370
    -2
100
AcDbLine
 10
197.0480220292525
 20
496.3119921896548
 30
0.0
 11
197.0480220292525
 21
506.4321136774622
 31
0.0
  0
LINE
  5
D32
330
CA5
100
AcDbEntity
  8
BEM
 62
     0
440
 16777216
370
    -2
100
AcDbLine
 10
252.9519779707476
 20
496.3119921896546
 30
0.0
 11
252.9519779707476
 21
506.4321136774622
 31
0.0
  0
LINE
  5
D33
330
CA5
100
AcDbEntity
  8
BEM
 62
     0
440
 16777216
370
    -2
100
AcDbLine
 10
204.0480220292525
 20
504.4321136774621
 30
0.0
 11
245.9519779707476
 21
504.4321136774621
 31
0.0
  0
SOLID
  5
D34
330
CA5
100
AcDbEntity
  8
BEM
 62
     0
440
 16777216
100
AcDbTrace
 10
204.0480220292525
 20
505.5987803441289
 30
0.0
 11
204.0480220292525
 21
503.2654470107955
 31
0.0
 12
197.0480220292525
 22
504.4321136774621
 32
0.0
 13
197.0480220292525
 23
504.4321136774621
 33
0.0
  0
SOLID
  5
D35
330
CA5
100
AcDbEntity
  8
BEM
 62
     0
440
 16777216
100
AcDbTrace
 10
245.9519779707476
 20
505.5987803441289
 30
0.0
 11
245.9519779707476
 21
503.2654470107955
 31
0.0
 12
252.9519779707476
 22
504.4321136774621
 32
0.0
 13
252.9519779707476
 23
504.4321136774621
 33
0.0
  0
MTEXT
  5
D36
330
CA5
100
AcDbEntity
  8
BEM
 62
     1
440
 16777216
100
AcDbMText
 10
225.0
 20
510.9321136774622
 30
0.0
 40
7.0
 41
0.0
 71
     5
 72
     1
  1
\A1;%%c56
  7
GREEKS
 73
     1
 44
1.0
  0
POINT
  5
D37
330
CA5
100
AcDbEntity
  8
DEFPOINTS
 62
     0
440
 16777216
100
AcDbPoint
 10
197.0480220292525
 20
494.3119921896547
 30
0.0
  0
POINT
  5
D38
330
CA5
100
AcDbEntity
  8
DEFPOINTS
 62
     0
440
 16777216
100
AcDbPoint
 10
252.9519779707476
 20
494.3119921896546
 30
0.0
  0
POINT
  5
D39
330
CA5
100
AcDbEntity
  8
DEFPOINTS
 62
     0
440
 16777216
100
AcDbPoint
 10
252.9519779707476
 20
504.4321136774621
 30
0.0
  0
ENDBLK
  5
CA7
330
CA5
100
AcDbEntity
  8
0
100
AcDbBlockEnd
  0
BLOCK
  5
CB2
330
CB1
100
AcDbEntity
  8
0
100
AcDbBlockBegin
  2
*D6
 70
     1
 10
0.0
 20
0.0
 30
0.0
  3
*D6
  1

  0
LINE
  5
1010
330
CB1
100
AcDbEntity
  8
BEM
 62
     0
440
 16777216
370
    -2
100
AcDbLine
 10
271.4999999999998
 20
494.3119921896546
 30
0.0
 11
309.4949628331193
 21
494.3119921896546
 31
0.0
  0
LINE
  5
1011
330
CB1
100
AcDbEntity
  8
BEM
 62
     0
440
 16777216
370
    -2
100
AcDbLine
 10
253.0682864386859
 20
206.3119921896548
 30
0.0
 11
309.4949628331192
 21
206.3119921896548
 31
0.0
  0
LINE
  5
1012
330
CB1
100
AcDbEntity
  8
BEM
 62
     0
440
 16777216
370
    -2
100
AcDbLine
 10
307.4949628331193
 20
487.3119921896545
 30
0.0
 11
307.4949628331192
 21
213.3119921896548
 31
0.0
  0
SOLID
  5
1013
330
CB1
100
AcDbEntity
  8
BEM
 62
     0
440
 16777216
100
AcDbTrace
 10
306.3282961664526
 20
487.3119921896545
 30
0.0
 11
308.6616294997859
 21
487.3119921896545
 31
0.0
 12
307.4949628331193
 22
494.3119921896546
 32
0.0
 13
307.4949628331193
 23
494.3119921896546
 33
0.0
  0
SOLID
  5
1014
330
CB1
100
AcDbEntity
  8
BEM
 62
     0
440
 16777216
100
AcDbTrace
 10
306.3282961664525
 20
213.3119921896548
 30
0.0
 11
308.6616294997859
 21
213.3119921896548
 31
0.0
 12
307.4949628331192
 22
206.3119921896548
 32
0.0
 13
307.4949628331192
 23
206.3119921896548
 33
0.0
  0
MTEXT
  5
1015
330
CB1
100
AcDbEntity
  8
BEM
 62
     1
440
 16777216
100
AcDbMText
 10
300.9949628331191
 20
350.3119921896547
 30
0.0
 40
7.0
 41
0.0
 71
     5
 72
     1
  1
\A1;3038
  7
GREEKS
 11
0.0000000000000001
 21
1.0
 31
0.0
 73
     1
 44
1.0
  0
POINT
  5
1016
330
CB1
100
AcDbEntity
  8
DEFPOINTS
 62
     0
440
 16777216
100
AcDbPoint
 10
269.4999999999998
 20
494.3119921896546
 30
0.0
  0
POINT
  5
1017
330
CB1
100
AcDbEntity
  8
DEFPOINTS
 62
     0
440
 16777216
100
AcDbPoint
 10
251.0682864386859
 20
206.3119921896548
 30
0.0
  0
POINT
  5
1018
330
CB1
100
AcDbEntity
  8
DEFPOINTS
 62
     0
440
 16777216
100
AcDbPoint
 10
307.4949628331192
 20
206.3119921896548
 30
0.0
  0
ENDBLK
  5
CB3
330
CB1
100
AcDbEntity
  8
0
100
AcDbBlockEnd
  0
BLOCK
  5
CBE
330
CBD
100
AcDbEntity
  8
0
100
AcDbBlockBegin
  2
*D7
 70
     1
 10
0.0
 20
0.0
 30
0.0
  3
*D7
  1

  0
LINE
  5
FFE
330
CBD
100
AcDbEntity
  8
BEM
 62
     0
440
 16777216
370
    -2
100
AcDbLine
 10
271.4999999999998
 20
494.3119921896546
 30
0.0
 11
291.6130116586142
 21
494.3119921896546
 31
0.0
  0
LINE
  5
FFF
330
CBD
100
AcDbEntity
  8
BEM
 62
     0
440
 16777216
370
    -2
100
AcDbLine
 10
271.5000000000002
 20
236.3119921896546
 30
0.0
 11
291.6130116586142
 21
236.3119921896546
 31
0.0
  0
LINE
  5
1000
330
CBD
100
AcDbEntity
  8
BEM
 62
     0
440
 16777216
370
    -2
100
AcDbLine
 10
289.6130116586142
 20
487.3119921896545
 30
0.0
 11
289.6130116586141
 21
243.3119921896546
 31
0.0
  0
SOLID
  5
1001
330
CBD
100
AcDbEntity
  8
BEM
 62
     0
440
 16777216
100
AcDbTrace
 10
288.4463449919475
 20
487.3119921896545
 30
0.0
 11
290.7796783252809
 21
487.3119921896545
 31
0.0
 12
289.6130116586142
 22
494.3119921896546
 32
0.0
 13
289.6130116586142
 23
494.3119921896546
 33
0.0
  0
SOLID
  5
1002
330
CBD
100
AcDbEntity
  8
BEM
 62
     0
440
 16777216
100
AcDbTrace
 10
288.4463449919475
 20
243.3119921896546
 30
0.0
 11
290.7796783252808
 21
243.3119921896546
 31
0.0
 12
289.6130116586141
 22
236.3119921896546
 32
0.0
 13
289.6130116586141
 23
236.3119921896546
 33
0.0
  0
MTEXT
  5
1003
330
CBD
100
AcDbEntity
  8
BEM
 62
     1
440
 16777216
100
AcDbMText
 10
283.1130116586141
 20
365.3119921896546
 30
0.0
 40
7.0
 41
0.0
 71
     5
 72
     1
  1
\A1;3008
  7
GREEKS
 11
0.0000000000000001
 21
1.0
 31
0.0
 73
     1
 44
1.0
  0
POINT
  5
1004
330
CBD
100
AcDbEntity
  8
DEFPOINTS
 62
     0
440
 16777216
100
AcDbPoint
 10
269.4999999999998
 20
494.3119921896546
 30
0.0
  0
POINT
  5
1005
330
CBD
100
AcDbEntity
  8
DEFPOINTS
 62
     0
440
 16777216
100
AcDbPoint
 10
269.5000000000002
 20
236.3119921896546
 30
0.0
  0
POINT
  5
1006
330
CBD
100
AcDbEntity
  8
DEFPOINTS
 62
     0
440
 16777216
100
AcDbPoint
 10
289.6130116586141
 20
236.3119921896546
 30
0.0
  0
ENDBLK
  5
CBF
330
CBD
100
AcDbEntity
  8
0
100
AcDbBlockEnd
  0
BLOCK
  5
CCA
330
CC9
100
AcDbEntity
  8
0
100
AcDbBlockBegin
  2
*D8
 70
     1
 10
0.0
 20
0.0
 30
0.0
  3
*D8
  1

  0
LINE
  5
D4C
330
CC9
100
AcDbEntity
  8
BEM
 62
     0
440
 16777216
370
    -2
100
AcDbLine
 10
198.500000000008
 20
209.2465007751989
 30
0.0
 11
198.500000000008
 21
184.0253980824491
 31
0.0
  0
LINE
  5
D4D
330
CC9
100
AcDbEntity
  8
BEM
 62
     0
440
 16777216
370
    -2
100
AcDbLine
 10
251.5
 20
209.2465007752863
 30
0.0
 11
251.5
 21
184.0253980824491
 31
0.0
  0
LINE
  5
D4E
330
CC9
100
AcDbEntity
  8
BEM
 62
     0
440
 16777216
370
    -2
100
AcDbLine
 10
205.500000000008
 20
186.0253980824491
 30
0.0
 11
244.4999999999999
 21
186.0253980824491
 31
0.0
  0
SOLID
  5
D4F
330
CC9
100
AcDbEntity
  8
BEM
 62
     0
440
 16777216
100
AcDbTrace
 10
205.500000000008
 20
187.1920647491157
 30
0.0
 11
205.500000000008
 21
184.8587314157824
 31
0.0
 12
198.500000000008
 22
186.0253980824491
 32
0.0
 13
198.500000000008
 23
186.0253980824491
 33
0.0
  0
SOLID
  5
D50
330
CC9
100
AcDbEntity
  8
BEM
 62
     0
440
 16777216
100
AcDbTrace
 10
244.4999999999999
 20
187.1920647491157
 30
0.0
 11
244.4999999999999
 21
184.8587314157824
 31
0.0
 12
251.5
 22
186.0253980824491
 32
0.0
 13
251.5
 23
186.0253980824491
 33
0.0
  0
MTEXT
  5
D51
330
CC9
100
AcDbEntity
  8
BEM
 62
     1
440
 16777216
100
AcDbMText
 10
225.000000000004
 20
192.5253980824491
 30
0.0
 40
7.0
 41
0.0
 71
     5
 72
     1
  1
\A1;%%c53
  7
GREEKS
 73
     1
 44
1.0
  0
POINT
  5
D52
330
CC9
100
AcDbEntity
  8
DEFPOINTS
 62
     0
440
 16777216
100
AcDbPoint
 10
198.500000000008
 20
211.2465007751989
 30
0.0
  0
POINT
  5
D53
330
CC9
100
AcDbEntity
  8
DEFPOINTS
 62
     0
440
 16777216
100
AcDbPoint
 10
251.5
 20
211.2465007752863
 30
0.0
  0
POINT
  5
D54
330
CC9
100
AcDbEntity
  8
DEFPOINTS
 62
     0
440
 16777216
100
AcDbPoint
 10
251.5
 20
186.0253980824491
 30
0.0
  0
ENDBLK
  5
CCB
330
CC9
100
AcDbEntity
  8
0
100
AcDbBlockEnd
  0
BLOCK
  5
CE4
330
CE3
100
AcDbEntity
  8
0
100
AcDbBlockBegin
  2
*D10
 70
     1
 10
0.0
 20
0.0
 30
0.0
  3
*D10
  1

  0
LINE
  5
D60
330
CE3
100
AcDbEntity
  8
BEM
 62
     0
440
 16777216
370
    -2
100
AcDbLine
 10
180.4999999999999
 20
496.3119921896548
 30
0.0
 11
180.4999999999999
 21
534.6024331904571
 31
0.0
  0
LINE
  5
D61
330
CE3
100
AcDbEntity
  8
BEM
 62
     0
440
 16777216
370
    -2
100
AcDbLine
 10
269.4999999999998
 20
496.3119921896545
 30
0.0
 11
269.4999999999998
 21
534.6024331904571
 31
0.0
  0
LINE
  5
D62
330
CE3
100
AcDbEntity
  8
BEM
 62
     0
440
 16777216
370
    -2
100
AcDbLine
 10
187.4999999999999
 20
532.602433190457
 30
0.0
 11
262.4999999999998
 21
532.602433190457
 31
0.0
  0
SOLID
  5
D63
330
CE3
100
AcDbEntity
  8
BEM
 62
     0
440
 16777216
100
AcDbTrace
 10
187.4999999999999
 20
533.7690998571237
 30
0.0
 11
187.4999999999999
 21
531.4357665237904
 31
0.0
 12
180.4999999999999
 22
532.602433190457
 32
0.0
 13
180.4999999999999
 23
532.602433190457
 33
0.0
  0
SOLID
  5
D64
330
CE3
100
AcDbEntity
  8
BEM
 62
     0
440
 16777216
100
AcDbTrace
 10
262.4999999999998
 20
533.7690998571237
 30
0.0
 11
262.4999999999998
 21
531.4357665237904
 31
0.0
 12
269.4999999999998
 22
532.602433190457
 32
0.0
 13
269.4999999999998
 23
532.602433190457
 33
0.0
  0
MTEXT
  5
D65
330
CE3
100
AcDbEntity
  8
BEM
 62
     1
440
 16777216
100
AcDbMText
 10
224.9999999999999
 20
539.1024331904571
 30
0.0
 40
7.0
 41
0.0
 71
     5
 72
     1
  1
\A1;%%c89
  7
GREEKS
 73
     1
 44
1.0
  0
POINT
  5
D66
330
CE3
100
AcDbEntity
  8
DEFPOINTS
 62
     0
440
 16777216
100
AcDbPoint
 10
180.4999999999999
 20
494.3119921896548
 30
0.0
  0
POINT
  5
D67
330
CE3
100
AcDbEntity
  8
DEFPOINTS
 62
     0
440
 16777216
100
AcDbPoint
 10
269.4999999999998
 20
494.3119921896546
 30
0.0
  0
POINT
  5
D68
330
CE3
100
AcDbEntity
  8
DEFPOINTS
 62
     0
440
 16777216
100
AcDbPoint
 10
269.4999999999998
 20
532.602433190457
 30
0.0
  0
ENDBLK
  5
CE5
330
CE3
100
AcDbEntity
  8
0
100
AcDbBlockEnd
  0
ENDSEC
  0
SECTION
  2
ENTITIES
  0
LINE
  5
57
330
1E
100
AcDbEntity
  8
STEMPEL
100
AcDbLine
 10
410.0
 20
110.0
 30
0.0
 11
39.99999999999997
 21
110.0
 31
0.0
  0
LINE
  5
58
330
1E
100
AcDbEntity
  8
STEMPEL
100
AcDbLine
 10
136.0000000000001
 20
109.9999999999999
 30
0.0
 11
136.0
 21
9.999999999999971
 31
0.0
  0
LINE
  5
59
330
1E
100
AcDbEntity
  8
STEMPEL
100
AcDbLine
 10
220.0
 20
110.0
 30
0.0
 11
220.0
 21
9.999999999999971
 31
0.0
  0
LINE
  5
5A
330
1E
100
AcDbEntity
  8
STEMPEL
100
AcDbLine
 10
332.0
 20
109.9999999999997
 30
0.0
 11
332.0
 21
40.0
 31
0.0
  0
LINE
  5
5B
330
1E
100
AcDbEntity
  8
STEMPEL
100
AcDbLine
 10
135.9999999999999
 20
29.99999999999997
 30
0.0
 11
39.99999999999997
 21
29.99999999999997
 31
0.0
  0
LINE
  5
5C
330
1E
100
AcDbEntity
  8
STEMPEL
100
AcDbLine
 10
410.0
 20
40.0
 30
0.0
 11
136.0000000000001
 21
39.99999999999997
 31
0.0
  0
LINE
  5
5D
330
1E
100
AcDbEntity
  8
STEMPEL
100
AcDbLine
 10
410.0
 20
80.0
 30
0.0
 11
136.0000000000001
 21
79.99999999999994
 31
0.0
  0
LINE
  5
5E
330
1E
100
AcDbEntity
  8
VOLL
100
AcDbLine
 10
54.00000000000009
 20
110.0
 30
0.0
 11
53.99999999999997
 21
9.999999999999971
 31
0.0
  0
LINE
  5
5F
330
1E
100
AcDbEntity
  8
VOLL
100
AcDbLine
 10
94.00000000000011
 20
109.9999999999999
 30
0.0
 11
94.0
 21
9.999999999999971
 31
0.0
  0
LINE
  5
60
330
1E
100
AcDbEntity
  8
VOLL
100
AcDbLine
 10
114.0000000000001
 20
109.9999999999999
 30
0.0
 11
114.0
 21
9.999999999999971
 31
0.0
  0
LINE
  5
61
330
1E
100
AcDbEntity
  8
VOLL
100
AcDbLine
 10
154.0000000000001
 20
79.99999999999994
 30
0.0
 11
154.0000000000001
 21
39.99999999999997
 31
0.0
  0
LINE
  5
62
330
1E
100
AcDbEntity
  8
VOLL
100
AcDbLine
 10
180.0000000000001
 20
109.9999999999998
 30
0.0
 11
180.0
 21
39.99999999999997
 31
0.0
  0
LINE
  5
63
330
1E
100
AcDbEntity
  8
HILF
100
AcDbLine
 10
40.00000000000008
 20
100.0
 30
0.0
 11
136.0000000000001
 21
100.0
 31
0.0
  0
LINE
  5
64
330
1E
100
AcDbEntity
  8
HILF
100
AcDbLine
 10
40.00000000000008
 20
90.00000000000005
 30
0.0
 11
136.0000000000001
 21
90.00000000000005
 31
0.0
  0
LINE
  5
65
330
1E
100
AcDbEntity
  8
HILF
100
AcDbLine
 10
40.00000000000008
 20
79.99999999999994
 30
0.0
 11
136.0000000000001
 21
79.99999999999994
 31
0.0
  0
LINE
  5
66
330
1E
100
AcDbEntity
  8
HILF
100
AcDbLine
 10
40.00000000000008
 20
69.99999999999994
 30
0.0
 11
136.0000000000001
 21
69.99999999999994
 31
0.0
  0
LINE
  5
67
330
1E
100
AcDbEntity
  8
HILF
100
AcDbLine
 10
40.00000000000008
 20
59.99999999999997
 30
0.0
 11
136.0000000000001
 21
59.99999999999997
 31
0.0
  0
LINE
  5
68
330
1E
100
AcDbEntity
  8
HILF
100
AcDbLine
 10
40.00000000000008
 20
49.99999999999997
 30
0.0
 11
136.0000000000001
 21
49.99999999999997
 31
0.0
  0
LINE
  5
69
330
1E
100
AcDbEntity
  8
HILF
100
AcDbLine
 10
40.00000000000008
 20
39.99999999999997
 30
0.0
 11
136.0000000000001
 21
39.99999999999997
 31
0.0
  0
LINE
  5
6A
330
1E
100
AcDbEntity
  8
HILF
100
AcDbLine
 10
136.0000000000001
 20
69.99999999999994
 30
0.0
 11
220.0
 21
69.99999999999994
 31
0.0
  0
LINE
  5
6B
330
1E
100
AcDbEntity
  8
HILF
100
AcDbLine
 10
136.0000000000001
 20
59.99999999999997
 30
0.0
 11
220.0
 21
59.99999999999997
 31
0.0
  0
LINE
  5
6C
330
1E
100
AcDbEntity
  8
HILF
100
AcDbLine
 10
136.0000000000001
 20
49.99999999999997
 30
0.0
 11
220.0
 21
49.99999999999997
 31
0.0
  0
LINE
  5
6D
330
1E
100
AcDbEntity
  8
HILF
100
AcDbLine
 10
224.7736801096948
 20
84.03758247564139
 30
0.0
 11
324.8353916556311
 21
84.03758247564139
 31
0.0
  0
LINE
  5
6E
330
1E
100
AcDbEntity
  8
HILF
100
AcDbLine
 10
224.7736801096948
 20
69.99999999999994
 30
0.0
 11
324.835391655631
 21
69.99999999999994
 31
0.0
  0
LINE
  5
6F
330
1E
100
AcDbEntity
  8
HILF
100
AcDbLine
 10
224.7736801096948
 20
59.99999999999997
 30
0.0
 11
324.835391655631
 21
59.99999999999997
 31
0.0
  0
LINE
  5
70
330
1E
100
AcDbEntity
  8
HILF
100
AcDbLine
 10
224.7736801096948
 20
49.99999999999997
 30
0.0
 11
324.835391655631
 21
49.99999999999997
 31
0.0
  0
LINE
  5
71
330
1E
100
AcDbEntity
  8
VOLL
100
AcDbLine
 10
332.0
 20
60.0
 30
0.0
 11
410.0
 21
60.0
 31
0.0
  0
LINE
  5
72
330
1E
100
AcDbEntity
  8
HILF
100
AcDbLine
 10
336.7238616296993
 20
83.77983636955827
 30
0.0
 11
404.8588839326728
 21
83.77983636955827
 31
0.0
  0
LINE
  5
73
330
1E
100
AcDbEntity
  8
HILF
100
AcDbLine
 10
223.4909699289885
 20
14.89398258028314
 30
0.0
 11
404.8588839326728
 21
14.89398258028314
 31
0.0
  0
TEXT
  5
74
330
1E
100
AcDbEntity
  8
TEXT
100
AcDbText
 10
63.86165979631819
 20
18.67381894984132
 30
0.0
 40
4.0
  1
Änderung
 41
0.8
  7
GREEKS
 72
     1
 11
74.60451693917534
 21
18.67381894984132
 31
0.0
100
AcDbText
  0
TEXT
  5
75
330
1E
100
AcDbEntity
  8
TEXT
100
AcDbText
 10
143.5163572150377
 20
102.4620895087088
 30
0.0
 40
5.0
  1
Maßstab
 41
0.8
  7
GREEKS
100
AcDbText
  0
TEXT
  5
76
330
1E
100
AcDbEntity
  8
TEXT
100
AcDbText
 10
184.2858954734051
 20
102.4184168434819
 30
0.0
 40
5.0
  1
Zul. Abw.
 41
0.8
  7
GREEKS
100
AcDbText
  0
TEXT
  5
77
330
1E
100
AcDbEntity
  8
TEXT
100
AcDbText
 10
224.877940380901
 20
102.5489328011779
 30
0.0
 40
5.0
  1
Benennung
 41
0.8
  7
GREEKS
100
AcDbText
  0
TEXT
  5
78
330
1E
100
AcDbEntity
  8
TEXT
100
AcDbText
 10
336.178754957634
 20
102.3132034537136
 30
0.0
 40
5.0
  1
Zeichnungs Nr.
 41
0.8
  7
GREEKS
100
AcDbText
  0
TEXT
  5
79
330
1E
100
AcDbEntity
  8
TEXT
100
AcDbText
 10
224.742238391136
 20
30.84560570193057
 30
0.0
 40
5.0
  1
Bauvorhaben
 41
0.8
  7
GREEKS
100
AcDbText
  0
TEXT
  5
7A
330
1E
100
AcDbEntity
  8
TEXT
100
AcDbText
 10
336.7238616296993
 20
73.1811823709997
 30
0.0
 40
5.0
  1
Ersatz für:
 41
0.8
  7
GREEKS
100
AcDbText
  0
TEXT
  5
7B
330
1E
100
AcDbEntity
  8
TEXT
100
AcDbText
 10
48.26641107045756
 20
13.65465846027192
 30
0.0
 40
4.0
  1
Index
 50
90.0
 41
0.8
  7
GREEKS
100
AcDbText
  0
TEXT
  5
7C
330
1E
100
AcDbEntity
  8
TEXT
100
AcDbText
 10
100.0934676075481
 20
18.6715626933981
 30
0.0
 40
4.0
  1
Tag
 41
0.8
  7
GREEKS
 72
     1
 11
103.8268009408814
 21
18.6715626933981
 31
0.0
100
AcDbText
  0
TEXT
  5
7D
330
1E
100
AcDbEntity
  8
TEXT
100
AcDbText
 10
119.0122744386592
 20
18.59324216966408
 30
0.0
 40
4.0
  1
Name
 41
0.8
  7
GREEKS
 72
     1
 11
125.3360839624688
 21
18.59324216966408
 31
0.0
100
AcDbText
  0
TEXT
  5
7E
330
1E
100
AcDbEntity
  8
TEXT
100
AcDbText
 10
162.3311673153651
 20
73.31880501229926
 30
0.0
 40
4.0
  1
Tag
 41
0.8
  7
GREEKS
100
AcDbText
  0
TEXT
  5
7F
330
1E
100
AcDbEntity
  8
TEXT
100
AcDbText
 10
192.4626584226295
 20
73.30961091915225
 30
0.0
 40
4.0
  1
Name
 41
0.8
  7
GREEKS
100
AcDbText
  0
TEXT
  5
80
330
1E
100
AcDbEntity
  8
TEXT
100
AcDbText
 10
137.5836127167615
 20
63.62990369617964
 30
0.0
 40
4.0
  1
Gez.
 41
0.8
  7
GREEKS
100
AcDbText
  0
TEXT
  5
81
330
1E
100
AcDbEntity
  8
TEXT
100
AcDbText
 10
137.5515086571672
 20
53.68926291428377
 30
0.0
 40
4.0
  1
Gepr.
 41
0.8
  7
GREEKS
100
AcDbText
  0
TEXT
  5
82
330
1E
100
AcDbEntity
  8
TEXT
100
AcDbText
 10
137.6006777387304
 20
43.52946389649807
 30
0.0
 40
4.0
  1
Norm.
 41
0.8
  7
GREEKS
100
AcDbText
  0
LINE
  5
83
330
1E
100
AcDbEntity
  8
STEMPEL
100
AcDbLine
 10
49.99999999999989
 20
10.0
 30
0.0
 11
410.0
 21
10.0
 31
0.0
  0
TEXT
  5
84
330
1E
100
AcDbEntity
  8
TEXT
100
AcDbText
 10
337.2400861497006
 20
52.07416177878602
 30
0.0
 40
5.0
  1
ersetzt durch:
 41
0.8
  7
GREEKS
100
AcDbText
  0
LINE
  5
85
330
1E
100
AcDbEntity
  8
STEMPEL
100
AcDbLine
 10
410.0
 20
10.0
 30
0.0
 11
39.99999999999989
 21
10.0
 31
0.0
  0
LINE
  5
86
330
1E
100
AcDbEntity
  8
STEMPEL
100
AcDbLine
 10
410.0
 20
10.0
 30
0.0
 11
410.0
 21
584.0
 31
0.0
  0
LINE
  5
87
330
1E
100
AcDbEntity
  8
STEMPEL
100
AcDbLine
 10
40.0
 20
10.0
 30
0.0
 11
39.99999999999989
 21
584.0
 31
0.0
  0
LINE
  5
88
330
1E
100
AcDbEntity
  8
STEMPEL
100
AcDbLine
 10
410.0
 20
584.0
 30
0.0
 11
39.99999999999989
 21
584.0
 31
0.0
  0
LINE
  5
89
330
1E
100
AcDbEntity
  8
HILF
100
AcDbLine
 10
0.0
 20
0.0
 30
0.0
 11
-0.0000000000001137
 21
594.0
 31
0.0
  0
LINE
  5
8A
330
1E
100
AcDbEntity
  8
HILF
100
AcDbLine
 10
419.9999999999999
 20
594.0000000000002
 30
0.0
 11
0.0
 21
594.0
 31
0.0
  0
LINE
  5
8B
330
1E
100
AcDbEntity
  8
HILF
100
AcDbLine
 10
420.0
 20
0.0
 30
0.0
 11
0.0
 21
0.0
 31
0.0
  0
LINE
  5
8C
330
1E
100
AcDbEntity
  8
HILF
100
AcDbLine
 10
31.08767135713856
 20
297.0
 30
0.0
 11
0.0000000000001137
 21
297.0
 31
0.0
  0
TEXT
  5
8D
330
1E
100
AcDbEntity
  8
TEXT
100
AcDbText
 10
138.622109822104
 20
73.14025471151666
 30
0.0
 40
4.0
  1
2013
 41
0.8
  7
GREEKS
100
AcDbText
  0
LINE
  5
8E
330
1E
100
AcDbEntity
  8
HILF
100
AcDbLine
 10
420.0
 20
-0.0000000000001137
 30
0.0
 11
419.9999999999999
 21
594.0
 31
0.0
  0
TEXT
  5
8F
330
1E
100
AcDbEntity
  8
VOLL
100
AcDbText
 10
78.07675471698113
 20
31.02594776470585
 30
0.0
 40
1.8
  1

  7
GREEKS
100
AcDbText
  0
TEXT
  5
90
330
1E
100
AcDbEntity
  8
TEXT
100
AcDbText
 10
41.85509950977674
 20
111.6719999999999
 30
0.0
 40
5.0
  1
Erstellt mit AUTOCAD 2004
 41
0.8
  7
GREEKS
100
AcDbText
  0
TEXT
  5
91
330
1E
100
AcDbEntity
  8
TEXT
100
AcDbText
 10
194.4216048581257
 20
63.0896391972351
 30
0.0
 40
4.0
  1
Koeh
 41
0.8
  7
GREEKS
 72
     1
 11
199.6787477152685
 21
63.0896391972351
 31
0.0
100
AcDbText
  0
TEXT
  5
92
330
1E
100
AcDbEntity
  8
TEXT
 62
     1
100
AcDbText
 10
346.6730794123524
 20
88.14901428913959
 30
0.0
 40
7.0
  1
58310050W
 41
0.8
  7
GREEKS
 72
     1
 11
370.1397460790191
 21
88.14901428913959
 31
0.0
100
AcDbText
  0
TEXT
  5
93
330
1E
100
AcDbEntity
  8
TEXT
 62
     1
100
AcDbText
 10
150.5006306481887
 20
88.14901428913959
 30
0.0
 40
7.0
  1
1:2
 41
0.8
  7
GREEKS
100
AcDbText
  0
TEXT
  5
94
330
1E
100
AcDbEntity
  8
TEXT
100
AcDbText
 10
160.398997108236
 20
63.10765040825732
 30
0.0
 40
4.0
  1
29.05.
 41
0.8
  7
GREEKS
 72
     1
 11
167.4085209177598
 21
63.10765040825732
 31
0.0
100
AcDbText
  0
TEXT
  5
95
330
1E
100
AcDbEntity
  8
TEXT
 62
     1
100
AcDbText
 10
225.0459923895862
 20
87.41748789253779
 30
0.0
 40
7.0
  1
Verbundrohr-Silent DN50
 41
0.75
  7
GREEKS
100
AcDbText
  0
TEXT
  5
96
330
1E
100
AcDbEntity
  8
TEXT
100
AcDbText
 10
225.1296391125315
 20
71.50334417585288
 30
0.0
 40
5.0
  1
3000mm lang
 41
0.8
  7
GREEKS
100
AcDbText
  0
TEXT
  5
98
330
1E
100
AcDbEntity
  8
TEXT
100
AcDbText
 10
225.1296391125315
 20
51.64011943042158
 30
0.0
 40
5.0
  1
EDV-Art.Nr. 58310.050X
 41
0.8
  7
GREEKS
100
AcDbText
  0
TEXT
  5
99
330
1E
100
AcDbEntity
  8
TEXT
100
AcDbText
 10
224.9837501577827
 20
42.62974153022632
 30
0.0
 40
4.0
  1
58310050W.DWG
 41
0.8
  7
GREEKS
100
AcDbText
  0
TEXT
  5
9A
330
1E
100
AcDbEntity
  8
TEXT
100
AcDbText
 10
182.626132208084
 20
90.76363841023022
 30
0.0
 40
4.0
  1
DIN EN1123-2
 41
0.8
  7
GREEKS
 72
     1
 11
199.6166083985602
 21
90.76363841023022
 31
0.0
100
AcDbText
  0
INSERT
  5
9B
330
1E
100
AcDbEntity
  8
STEMPEL
100
AcDbBlockReference
  2
LOGO
 10
140.9955485457794
 20
45.02105276448322
 30
0.0
 41
2.0
 42
2.0
 43
2.0
  0
TEXT
  5
118
330
1E
100
AcDbEntity
  8
TEXT
100
AcDbText
 10
417.3022923857165
 20
10.16790107998849
 30
0.0
 40
4.0
  1
Diese Zeichnung ist urheberrechtlich geschützt und bleibt unser Eigentum. Sie darf weder ganz noch teilweise verfielfältigt und nicht an Dritte weitergegeben werden.
 50
90.0
 41
0.8
  7
GREEKS
100
AcDbText
  0
TEXT
  5
3D8
330
1E
100
AcDbEntity
  8
TEXT
 62
     1
100
AcDbText
 10
193.6033828683802
 20
152.364339848487
 30
0.0
 40
7.0
  1
Außenrohr: E195 EN10305 feuerverzinkt
 41
0.8
  7
GREEKS
100
AcDbText
  0
TEXT
  5
3D9
330
1E
100
AcDbEntity
  8
TEXT
 62
     1
100
AcDbText
 10
197.3756002392442
 20
141.011271812132
 30
0.0
 40
7.0
  1
Innenrohr: E195 EN10305 feuerverzinkt
 41
0.8
  7
GREEKS
100
AcDbText
  0
TEXT
  5
3DA
330
1E
100
AcDbEntity
  8
TEXT
 62
     1
100
AcDbText
 10
189.8811895945471
 20
117.1473825875242
 30
0.0
 40
7.0
  1
Dämmung: 2 K-PU-Schaum
 41
0.8
  7
GREEKS
100
AcDbText
  0
TEXT
  5
3DB
330
1E
100
AcDbEntity
  8
TEXT
 62
     1
100
AcDbText
 10
245.030129115258
 20
129.7422179729062
 30
0.0
 40
7.0
  1
und innenbeschichtet
 41
0.8
  7
GREEKS
100
AcDbText
  0
TEXT
  5
8C7
330
1E
100
AcDbEntity
  8
VOLL
100
AcDbText
 10
136.5481664970106
 20
460.4254171103853
 30
0.0
 40
1.8
  1

  7
GREEKS
100
AcDbText
  0
LINE
  5
998
330
1E
100
AcDbEntity
  8
TEXT
 62
     2
100
AcDbLine
 10
135.8963412189263
 20
335.2899711870096
 30
0.0
 11
135.8963412189263
 21
464.5256399105716
 31
0.0
  0
TEXT
  5
999
330
1E
100
AcDbEntity
  8
TEXT
 62
     1
100
AcDbText
 10
132.5164358020299
 20
337.4098641830551
 30
0.0
 40
7.0
  1
selbstklebende Terodem 5500
 50
90.0
 41
0.8
  7
GREEKS
100
AcDbText
  0
LINE
  5
99C
330
1E
100
AcDbEntity
  8
TEXT
 62
     2
100
AcDbLine
 10
135.8963412189263
 20
335.2899711870096
 30
0.0
 11
198.5000000000029
 21
303.7167064077972
 31
0.0
  0
DIMENSION
  5
B91
330
1E
100
AcDbEntity
  8
BEM
100
AcDbDimension
  2
*D1
 10
251.5
 20
186.0253980824491
 30
0.0
 11
225.000000000004
 21
192.5253980824491
 31
0.0
 70
    32
  1
%%c<>
 71
     5
 42
52.99999999999187
  3
Standard
100
AcDbAlignedDimension
 13
198.500000000008
 23
211.2465007751989
 33
0.0
 14
251.5
 24
211.2465007752863
 34
0.0
100
AcDbRotatedDimension
1001
ACAD
1000
DSTYLE
1002
{
1070
    40
1040
2.0
1070
    41
1040
3.5
1070
    42
1040
1.0
1070
    43
1040
7.0
1070
    44
1040
1.0
1070
    73
1070
     0
1070
    74
1070
     0
1070
    77
1070
     1
1070
    78
1070
     8
1070
    79
1070
     2
1070
   140
1040
3.5
1070
   141
1040
1.5
1070
   146
1040
0.5142857142857144
1070
   147
1040
1.5
1070
   172
1070
     1
1070
   178
1070
     1
1070
   179
1070
     2
1070
   271
1070
     2
1070
   272
1070
     2
1070
   284
1070
     8
1070
   285
1070
     8
1070
   286
1070
     8
1070
   289
1070
     0
1070
   340
1005
24
1002
}
  0
DIMENSION
  5
B93
330
1E
100
AcDbEntity
  8
BEM
100
AcDbDimension
  2
*D3
 10
269.4999999999998
 20
532.602433190457
 30
0.0
 11
224.9999999999999
 21
539.1024331904571
 31
0.0
 70
    32
  1
%%c<>
 71
     5
 42
88.99999999999989
  3
Standard
100
AcDbAlignedDimension
 13
180.4999999999999
 23
494.3119921896548
 33
0.0
 14
269.4999999999998
 24
494.3119921896546
 34
0.0
100
AcDbRotatedDimension
1001
ACAD
1000
DSTYLE
1002
{
1070
    40
1040
2.0
1070
    41
1040
3.5
1070
    42
1040
1.0
1070
    43
1040
7.0
1070
    44
1040
1.0
1070
    73
1070
     0
1070
    74
1070
     0
1070
    77
1070
     1
1070
    78
1070
     8
1070
    79
1070
     2
1070
   140
1040
3.5
1070
   141
1040
1.5
1070
   146
1040
0.5142857142857144
1070
   147
1040
1.5
1070
   172
1070
     1
1070
   178
1070
     1
1070
   179
1070
     2
1070
   271
1070
     2
1070
   272
1070
     2
1070
   284
1070
     8
1070
   285
1070
     8
1070
   286
1070
     8
1070
   289
1070
     0
1070
   340
1005
24
1002
}
  0
DIMENSION
  5
B94
330
1E
100
AcDbEntity
  8
BEM
100
AcDbDimension
  2
*D4
 10
182.0999999999999
 20
517.7693377985362
 30
0.0
 11
204.3
 21
524.2693377985363
 31
0.0
 70
    32
 71
     5
 42
1.600000000000022
  3
Standard
100
AcDbAlignedDimension
 13
180.4999999999999
 23
494.3119921896548
 33
0.0
 14
182.0999999999999
 24
494.3119921896548
 34
0.0
100
AcDbRotatedDimension
1001
ACAD
1000
DSTYLE
1002
{
1070
    40
1040
2.0
1070
    41
1040
3.5
1070
    42
1040
1.0
1070
    43
1040
7.0
1070
    44
1040
1.0
1070
    73
1070
     0
1070
    74
1070
     0
1070
    77
1070
     1
1070
    78
1070
     8
1070
    79
1070
     2
1070
   140
1040
3.5
1070
   141
1040
1.5
1070
   146
1040
0.5142857142857144
1070
   147
1040
1.5
1070
   172
1070
     1
1070
   178
1070
     1
1070
   179
1070
     2
1070
   271
1070
     2
1070
   272
1070
     2
1070
   284
1070
     8
1070
   285
1070
     8
1070
   286
1070
     8
1070
   289
1070
     0
1070
   340
1005
24
1002
}
  0
DIMENSION
  5
B95
330
1E
100
AcDbEntity
  8
BEM
100
AcDbDimension
  2
*D5
 10
252.9519779707476
 20
504.4321136774621
 30
0.0
 11
225.0
 21
510.9321136774622
 31
0.0
 70
    32
  1
%%c56
 71
     5
 42
55.90395594149504
  3
Standard
100
AcDbAlignedDimension
 13
197.0480220292525
 23
494.3119921896547
 33
0.0
 14
252.9519779707476
 24
494.3119921896546
 34
0.0
100
AcDbRotatedDimension
1001
ACAD
1000
DSTYLE
1002
{
1070
    40
1040
2.0
1070
    41
1040
3.5
1070
    42
1040
1.0
1070
    43
1040
7.0
1070
    44
1040
1.0
1070
    73
1070
     0
1070
    74
1070
     0
1070
    77
1070
     1
1070
    78
1070
     8
1070
    79
1070
     2
1070
   140
1040
3.5
1070
   141
1040
1.5
1070
   146
1040
0.5142857142857144
1070
   147
1040
1.5
1070
   172
1070
     1
1070
   178
1070
     1
1070
   179
1070
     2
1070
   271
1070
     2
1070
   272
1070
     2
1070
   284
1070
     8
1070
   285
1070
     8
1070
   286
1070
     8
1070
   289
1070
     0
1070
   340
1005
24
1002
}
  0
HATCH
  5
B96
330
1E
100
AcDbEntity
  8
SCHRAFF
100
AcDbHatch
 10
0.0
 20
0.0
 30
0.0
210
0.0
220
0.0
230
1.0
  2
NET
 70
     0
 71
     1
 91
        2
 92
        7
 72
     1
 73
     1
 93
        7
 10
195.3269981527833
 20
494.170546950933
 42
0.0
 10
195.3929551508087
 20
494.3119921896547
 42
0.0
 10
182.0999999999999
 20
494.3119921896548
 42
0.0
 10
182.0999999999999
 20
480.3119921896549
 42
0.0
 10
193.5269873892348
 20
480.3119921896548
 42
-0.0120251093634687
 10
193.4999999999999
 20
481.514027891663
 42
0.0
 10
193.4999999999999
 20
485.929490846994
 42
-0.1095178116831768
 97
        7
330
BB8
330
B99
330
BA1
330
BAF
330
BAC
330
BAE
330
BAD
 92
        7
 72
     1
 73
     1
 93
        7
 10
267.8999999999998
 20
494.3119921896546
 42
0.0
 10
254.6070448491914
 20
494.3119921896546
 42
0.0
 10
254.6730018472157
 20
494.1705469509352
 42
-0.1095178116832004
 10
256.4999999999999
 20
485.9294908469944
 42
0.0
 10
256.5000000000001
 20
481.5140278916632
 42
-0.012025109363471
 10
256.4730126107652
 20
480.3119921896547
 42
0.0
 10
267.8999999999998
 20
480.3119921896547
 42
0.0
 97
        7
330
B99
330
BD7
330
BD6
330
BCC
330
BD3
330
BCB
330
BC1
 75
     0
 76
     1
 52
45.0
 41
20.0
 77
     0
 78
     2
 53
45.0
 43
0.0
 44
22.43699813046896
 45
-1.767766952966368
 46
1.767766952966368
 79
     0
 53
135.0
 43
0.0
 44
22.43699813046896
 45
-1.767766952966368
 46
-1.767766952966368
 79
     0
 47
0.4171687699471339
 98
        2
 10
188.2158333564266
 20
486.8120259474626
 10
263.7731426452547
 20
488.0635328415494
  0
LINE
  5
B97
330
1E
100
AcDbEntity
  8
HILF
100
AcDbLine
 10
248.4942702436855
 20
211.3119921896547
 30
0.0
 11
201.5057297563148
 21
211.3119921896547
 31
0.0
  0
LINE
  5
B98
330
1E
100
AcDbEntity
  8
STEMPEL
100
AcDbLine
 10
251.0682864386859
 20
206.3119921896548
 30
0.0
 11
198.9317135613146
 21
206.3119921896547
 31
0.0
  0
LINE
  5
B99
102
{ACAD_REACTORS
330
B96
102
}
330
1E
100
AcDbEntity
  8
STEMPEL
100
AcDbLine
 10
269.4999999999998
 20
494.3119921896546
 30
0.0
 11
180.4999999999999
 21
494.3119921896548
 31
0.0
  0
LINE
  5
B9A
330
1E
100
AcDbEntity
  8
HILF
100
AcDbLine
 10
201.1879020392217
 20
453.7863474981475
 30
0.0
 11
248.8120979607783
 21
453.7863474981475
 31
0.0
  0
LINE
  5
B9B
330
1E
100
AcDbEntity
  8
HILF
100
AcDbLine
 10
198.9717381606801
 20
458.8447756759486
 30
0.0
 11
251.0282618393199
 21
458.8447756759486
 31
0.0
  0
LINE
  5
B9C
330
1E
100
AcDbEntity
  8
HILF
100
AcDbLine
 10
198.3538465630825
 20
471.7558616638561
 30
0.0
 11
251.6461534369175
 21
471.7558616638561
 31
0.0
  0
LINE
  5
B9D
330
1E
100
AcDbEntity
  8
STEMPEL
100
AcDbLine
 10
199.9999999999999
 20
451.1846653499979
 30
0.0
 11
199.9999999999999
 21
383.0802574646209
 31
0.0
  0
LINE
  5
B9E
330
1E
100
AcDbEntity
  8
STEMPEL
100
AcDbLine
 10
198.4999999999999
 20
451.184665349998
 30
0.0
 11
198.5000000000024
 21
383.02237045942
 31
0.0
  0
LINE
  5
B9F
330
1E
100
AcDbEntity
  8
STEMPEL
100
AcDbLine
 10
198.500000000008
 20
211.2465007751989
 30
0.0
 11
198.9317135613146
 21
206.3119921896547
 31
0.0
  0
LINE
  5
BA0
330
1E
100
AcDbEntity
  8
STEMPEL
100
AcDbLine
 10
199.9999999999999
 20
211.3119921896548
 30
0.0
 11
200.4374433176295
 21
206.3119921896547
 31
0.0
  0
LINE
  5
BA1
102
{ACAD_REACTORS
330
B96
102
}
330
1E
100
AcDbEntity
  8
STEMPEL
100
AcDbLine
 10
182.0999999999999
 20
494.3119921896548
 30
0.0
 11
182.1000000000001
 21
381.609607125831
 31
0.0
  0
LINE
  5
BA2
330
1E
100
AcDbEntity
  8
STEMPEL
100
AcDbLine
 10
180.4999999999999
 20
494.3119921896548
 30
0.0
 11
180.5000000000001
 21
381.4213659729784
 31
0.0
  0
LINE
  5
BA3
330
1E
100
AcDbEntity
  8
STEMPEL
100
AcDbLine
 10
182.6587323118683
 20
252.3119921896548
 30
0.0
 11
198.5000000000002
 21
252.3119921896548
 31
0.0
  0
LINE
  5
BA4
330
1E
100
AcDbEntity
  8
STEMPEL
100
AcDbLine
 10
182.1000000000003
 20
236.3119921896549
 30
0.0
 11
180.4999999999995
 21
236.3119921896549
 31
0.0
  0
LINE
  5
BA5
330
1E
100
AcDbEntity
  8
STEMPEL
100
AcDbLine
 10
182.1000000000003
 20
236.3119921896548
 30
0.0
 11
182.6587323118683
 21
252.3119921896548
 31
0.0
  0
LINE
  5
BA6
330
1E
100
AcDbEntity
  8
STEMPEL
100
AcDbLine
 10
194.5000000000003
 20
242.3119921896548
 30
0.0
 11
198.5000000000002
 21
242.3119921896548
 31
0.0
  0
ARC
  5
BA7
330
1E
100
AcDbEntity
  8
STEMPEL
100
AcDbCircle
 10
207.5000000000001
 20
461.7203191028507
 30
0.0
 40
10.5
100
AcDbArc
 50
180.0
 51
211.7883306170488
  0
ARC
  5
BA8
330
1E
100
AcDbEntity
  8
STEMPEL
100
AcDbCircle
 10
207.5000000000001
 20
461.7203191028507
 30
0.0
 40
12.0
100
AcDbArc
 50
180.0
 51
211.7883306170488
  0
ARC
  5
BA9
330
1E
100
AcDbEntity
  8
STEMPEL
100
AcDbCircle
 10
190.4999999999999
 20
451.184665349998
 30
0.0
 40
8.0
100
AcDbArc
 50
0.0
 51
31.78833061704886
  0
LINE
  5
BAA
330
1E
100
AcDbEntity
  8
STEMPEL
100
AcDbLine
 10
198.4999999999999
 20
456.3119921896547
 30
0.0
 11
198.4999999999999
 21
456.3081407329777
 31
0.0
  0
ARC
  5
BAB
330
1E
100
AcDbEntity
  8
STEMPEL
100
AcDbCircle
 10
190.4999999999999
 20
451.1846653499979
 30
0.0
 40
9.5
100
AcDbArc
 50
0.0
 51
31.78833061704886
  0
ARC
  5
BAC
102
{ACAD_REACTORS
330
B96
102
}
330
1E
100
AcDbEntity
  8
STEMPEL
100
AcDbCircle
 10
218.5
 20
481.4739921896547
 30
0.0
 40
25.00003205712822
100
AcDbArc
 50
179.9082450082428
 51
199.4630994446851
  0
ARC
  5
BAD
102
{ACAD_REACTORS
330
B96
102
}
330
1E
100
AcDbEntity
  8
STEMPEL
100
AcDbCircle
 10
213.0000000000001
 20
485.929490846994
 30
0.0
 40
19.5
100
AcDbArc
 50
154.5405714311918
 51
180.0
  0
LINE
  5
BAE
102
{ACAD_REACTORS
330
B96
102
}
330
1E
100
AcDbEntity
  8
STEMPEL
100
AcDbLine
 10
193.4999999999999
 20
485.929490846994
 30
0.0
 11
193.4999999999999
 21
481.514027891663
 31
0.0
  0
LINE
  5
BAF
102
{ACAD_REACTORS
330
B96
102
}
330
1E
100
AcDbEntity
  8
STEMPEL
100
AcDbLine
 10
193.5269873892348
 20
480.3119921896548
 30
0.0
 11
182.1000000000001
 21
480.3119921896549
 31
0.0
  0
LINE
  5
BB0
330
1E
100
AcDbEntity
  8
STEMPEL
100
AcDbLine
 10
195.0
 20
485.929490846994
 30
0.0
 11
195.0
 21
481.5128082437197
 31
0.0
  0
ARC
  5
BB1
330
1E
100
AcDbEntity
  8
STEMPEL
100
AcDbCircle
 10
185.4999999999999
 20
469.8119921896547
 30
0.0
 40
10.0
100
AcDbArc
 50
0.0
 51
19.46309944468512
  0
ARC
  5
BB2
330
1E
100
AcDbEntity
  8
STEMPEL
100
AcDbCircle
 10
185.4999999999999
 20
469.8119921896547
 30
0.0
 40
11.5
100
AcDbArc
 50
0.0
 51
19.46309944468512
  0
LINE
  5
BB3
330
1E
100
AcDbEntity
  8
STEMPEL
100
AcDbLine
 10
196.9999999999999
 20
469.8119921896547
 30
0.0
 11
196.9999999999999
 21
461.7203191028507
 31
0.0
  0
LINE
  5
BB4
330
1E
100
AcDbEntity
  8
STEMPEL
100
AcDbLine
 10
195.5
 20
469.8119921896547
 30
0.0
 11
195.5
 21
461.7203191028507
 31
0.0
  0
LINE
  5
BB5
330
1E
100
AcDbEntity
  8
STEMPEL
100
AcDbLine
 10
195.0
 20
481.4739921896548
 30
0.0
 11
194.9999679428718
 21
481.4739921896548
 31
0.0
  0
ARC
  5
BB6
330
1E
100
AcDbEntity
  8
STEMPEL
100
AcDbCircle
 10
218.5
 20
481.4739921896547
 30
0.0
 40
23.5000320571282
100
AcDbArc
 50
179.905361955203
 51
199.4630994446851
  0
ARC
  5
BB7
330
1E
100
AcDbEntity
  8
STEMPEL
100
AcDbCircle
 10
213.0000000000001
 20
485.929490846994
 30
0.0
 40
18.0
100
AcDbArc
 50
155.0000000000006
 51
180.0
  0
LINE
  5
BB8
102
{ACAD_REACTORS
330
B96
102
}
330
1E
100
AcDbEntity
  8
STEMPEL
100
AcDbLine
 10
195.3929551508087
 20
494.3119921896547
 30
0.0
 11
195.3269981527854
 21
494.1705469509376
 31
0.0
  0
LINE
  5
BB9
330
1E
100
AcDbEntity
  8
STEMPEL
100
AcDbLine
 10
197.0480220292525
 20
494.3119921896547
 30
0.0
 11
196.6864598333406
 21
493.536619558327
 31
0.0
  0
DIMENSION
  5
BBA
330
1E
100
AcDbEntity
  8
BEM
100
AcDbDimension
  2
*D6
 10
307.4949628331192
 20
206.3119921896548
 30
0.0
 11
300.9949628331191
 21
350.3119921896547
 31
0.0
 70
    32
  1
3038
 71
     5
 42
287.9999999999998
  3
Standard
100
AcDbAlignedDimension
 13
269.4999999999998
 23
494.3119921896546
 33
0.0
 14
251.0682864386859
 24
206.3119921896548
 34
0.0
 50
90.0
100
AcDbRotatedDimension
1001
ACAD
1000
DSTYLE
1002
{
1070
    40
1040
2.0
1070
    41
1040
3.5
1070
    42
1040
1.0
1070
    43
1040
7.0
1070
    44
1040
1.0
1070
    73
1070
     0
1070
    74
1070
     0
1070
    77
1070
     1
1070
    78
1070
     8
1070
    79
1070
     2
1070
   140
1040
3.5
1070
   141
1040
1.5
1070
   146
1040
0.5142857142857144
1070
   147
1040
1.5
1070
   172
1070
     1
1070
   178
1070
     1
1070
   179
1070
     2
1070
   271
1070
     2
1070
   272
1070
     2
1070
   284
1070
     8
1070
   285
1070
     8
1070
   286
1070
     8
1070
   289
1070
     0
1070
   340
1005
24
1002
}
  0
LINE
  5
BBB
330
1E
100
AcDbEntity
  8
STEMPEL
100
AcDbLine
 10
250.0
 20
451.1846653499979
 30
0.0
 11
250.0
 21
379.762474481336
 31
0.0
  0
LINE
  5
BBC
330
1E
100
AcDbEntity
  8
STEMPEL
100
AcDbLine
 10
251.5000000000001
 20
451.1846653499981
 30
0.0
 11
251.5
 21
379.8203614865371
 31
0.0
  0
LINE
  5
BBD
330
1E
100
AcDbEntity
  8
MITTEL
100
AcDbLine
 10
225.0
 20
499.3119921896548
 30
0.0
 11
225.0000000000003
 21
201.3119921896547
 31
0.0
  0
LINE
  5
BBE
330
1E
100
AcDbEntity
  8
STEMPEL
100
AcDbLine
 10
250.0
 20
211.3119921896486
 30
0.0
 11
249.5625566823711
 21
206.3119921896548
 31
0.0
  0
LINE
  5
BBF
330
1E
100
AcDbEntity
  8
STEMPEL
100
AcDbLine
 10
251.5
 20
211.2465007752863
 30
0.0
 11
251.0682864386859
 21
206.3119921896548
 31
0.0
  0
DIMENSION
  5
BC0
330
1E
100
AcDbEntity
  8
BEM
100
AcDbDimension
  2
*D7
 10
289.6130116586141
 20
236.3119921896546
 30
0.0
 11
283.1130116586141
 21
365.3119921896546
 31
0.0
 70
    32
  1
3008
 71
     5
 42
258.0
  3
Standard
100
AcDbAlignedDimension
 13
269.4999999999998
 23
494.3119921896546
 33
0.0
 14
269.5000000000002
 24
236.3119921896546
 34
0.0
 50
90.0
100
AcDbRotatedDimension
1001
ACAD
1000
DSTYLE
1002
{
1070
    40
1040
2.0
1070
    41
1040
3.5
1070
    42
1040
1.0
1070
    43
1040
7.0
1070
    44
1040
1.0
1070
    73
1070
     0
1070
    74
1070
     0
1070
    77
1070
     1
1070
    78
1070
     8
1070
    79
1070
     2
1070
   140
1040
3.5
1070
   141
1040
1.5
1070
   146
1040
0.5142857142857144
1070
   147
1040
1.5
1070
   172
1070
     1
1070
   178
1070
     1
1070
   179
1070
     2
1070
   271
1070
     2
1070
   272
1070
     2
1070
   284
1070
     8
1070
   285
1070
     8
1070
   286
1070
     8
1070
   289
1070
     0
1070
   340
1005
24
1002
}
  0
LINE
  5
BC1
102
{ACAD_REACTORS
330
B96
102
}
330
1E
100
AcDbEntity
  8
STEMPEL
100
AcDbLine
 10
267.8999999999998
 20
494.3119921896546
 30
0.0
 11
267.9
 21
381.2331248201259
 31
0.0
  0
LINE
  5
BC2
330
1E
100
AcDbEntity
  8
STEMPEL
100
AcDbLine
 10
269.4999999999998
 20
494.3119921896546
 30
0.0
 11
269.5
 21
381.4213659729784
 31
0.0
  0
LINE
  5
BC3
330
1E
100
AcDbEntity
  8
STEMPEL
100
AcDbLine
 10
267.3412676881323
 20
252.3119921896548
 30
0.0
 11
251.5000000000004
 21
252.3119921896548
 31
0.0
  0
LINE
  5
BC4
330
1E
100
AcDbEntity
  8
STEMPEL
100
AcDbLine
 10
255.5000000000003
 20
242.3119921896548
 30
0.0
 11
251.5000000000004
 21
242.3119921896548
 31
0.0
  0
LINE
  5
BC5
330
1E
100
AcDbEntity
  8
STEMPEL
100
AcDbLine
 10
267.9000000000002
 20
236.3119921896548
 30
0.0
 11
267.3412676881323
 21
252.3119921896548
 31
0.0
  0
ARC
  5
BC6
330
1E
100
AcDbEntity
  8
STEMPEL
100
AcDbCircle
 10
242.4999999999999
 20
461.7203191028507
 30
0.0
 40
12.0
100
AcDbArc
 50
328.2116693829511
 51
0.0
  0
ARC
  5
BC7
330
1E
100
AcDbEntity
  8
STEMPEL
100
AcDbCircle
 10
242.4999999999999
 20
461.7203191028507
 30
0.0
 40
10.5
100
AcDbArc
 50
328.2116693829511
 51
0.0
  0
ARC
  5
BC8
330
1E
100
AcDbEntity
  8
STEMPEL
100
AcDbCircle
 10
259.5000000000001
 20
451.1846653499979
 30
0.0
 40
9.5
100
AcDbArc
 50
148.2116693829511
 51
180.0
  0
LINE
  5
BC9
330
1E
100
AcDbEntity
  8
STEMPEL
100
AcDbLine
 10
251.5000000000001
 20
456.3119921896548
 30
0.0
 11
251.5000000000001
 21
456.3081407329778
 31
0.0
  0
ARC
  5
BCA
330
1E
100
AcDbEntity
  8
STEMPEL
100
AcDbCircle
 10
259.5000000000001
 20
451.1846653499981
 30
0.0
 40
8.0
100
AcDbArc
 50
148.2116693829511
 51
180.0
  0
LINE
  5
BCB
102
{ACAD_REACTORS
330
B96
102
}
330
1E
100
AcDbEntity
  8
STEMPEL
100
AcDbLine
 10
267.8999999999998
 20
480.3119921896546
 30
0.0
 11
256.4730126107651
 21
480.3119921896547
 31
0.0
  0
LINE
  5
BCC
102
{ACAD_REACTORS
330
B96
102
}
330
1E
100
AcDbEntity
  8
STEMPEL
100
AcDbLine
 10
256.4999999999999
 20
485.929490846994
 30
0.0
 11
256.5000000000001
 21
481.5140278916632
 31
0.0
  0
LINE
  5
BCD
330
1E
100
AcDbEntity
  8
STEMPEL
100
AcDbLine
 10
254.9999999999999
 20
485.929490846994
 30
0.0
 11
254.9999999999999
 21
481.5128082437197
 31
0.0
  0
ARC
  5
BCE
330
1E
100
AcDbEntity
  8
STEMPEL
100
AcDbCircle
 10
264.5
 20
469.8119921896549
 30
0.0
 40
11.5
100
AcDbArc
 50
160.5369005553148
 51
180.0
  0
ARC
  5
BCF
330
1E
100
AcDbEntity
  8
STEMPEL
100
AcDbCircle
 10
264.5
 20
469.8119921896549
 30
0.0
 40
10.0
100
AcDbArc
 50
160.5369005553148
 51
180.0
  0
LINE
  5
BD0
330
1E
100
AcDbEntity
  8
STEMPEL
100
AcDbLine
 10
253.0000000000001
 20
469.8119921896548
 30
0.0
 11
253.0000000000001
 21
461.7203191028507
 31
0.0
  0
LINE
  5
BD1
330
1E
100
AcDbEntity
  8
STEMPEL
100
AcDbLine
 10
254.4999999999999
 20
469.8119921896548
 30
0.0
 11
254.4999999999999
 21
461.7203191028507
 31
0.0
  0
ARC
  5
BD2
330
1E
100
AcDbEntity
  8
STEMPEL
100
AcDbCircle
 10
231.4999999999999
 20
481.4739921896548
 30
0.0
 40
23.5000320571282
100
AcDbArc
 50
340.5369005553148
 51
0.0946380447970367
  0
ARC
  5
BD3
102
{ACAD_REACTORS
330
B96
102
}
330
1E
100
AcDbEntity
  8
STEMPEL
100
AcDbCircle
 10
231.4999999999999
 20
481.4739921896548
 30
0.0
 40
25.00003205712822
100
AcDbArc
 50
340.5369005553148
 51
0.0917549917637335
  0
LINE
  5
BD4
330
1E
100
AcDbEntity
  8
STEMPEL
100
AcDbLine
 10
254.9999999999999
 20
481.4739921896548
 30
0.0
 11
255.0000320571282
 21
481.4739921896548
 31
0.0
  0
ARC
  5
BD5
330
1E
100
AcDbEntity
  8
STEMPEL
100
AcDbCircle
 10
237.0
 20
485.929490846994
 30
0.0
 40
18.0
100
AcDbArc
 50
0.0
 51
24.99999999999276
  0
ARC
  5
BD6
102
{ACAD_REACTORS
330
B96
102
}
330
1E
100
AcDbEntity
  8
STEMPEL
100
AcDbCircle
 10
237.0
 20
485.929490846994
 30
0.0
 40
19.5
100
AcDbArc
 50
0.0
 51
25.45942856880091
  0
LINE
  5
BD7
102
{ACAD_REACTORS
330
B96
102
}
330
1E
100
AcDbEntity
  8
STEMPEL
100
AcDbLine
 10
254.6070448491911
 20
494.3119921896548
 30
0.0
 11
254.6730018472146
 21
494.1705469509376
 31
0.0
  0
LINE
  5
BD8
330
1E
100
AcDbEntity
  8
STEMPEL
100
AcDbLine
 10
252.9519779707475
 20
494.3119921896548
 30
0.0
 11
253.3135401666594
 21
493.5366195583271
 31
0.0
  0
DIMENSION
  5
BD9
330
1E
100
AcDbEntity
  8
BEM
100
AcDbDimension
  2
*D8
 10
251.5
 20
186.0253980824491
 30
0.0
 11
225.000000000004
 21
192.5253980824491
 31
0.0
 70
    32
  1
%%c<>
 71
     5
 42
52.99999999999187
  3
Standard
100
AcDbAlignedDimension
 13
198.500000000008
 23
211.2465007751989
 33
0.0
 14
251.5
 24
211.2465007752863
 34
0.0
100
AcDbRotatedDimension
1001
ACAD
1000
DSTYLE
1002
{
1070
    40
1040
2.0
1070
    41
1040
3.5
1070
    42
1040
1.0
1070
    43
1040
7.0
1070
    44
1040
1.0
1070
    73
1070
     0
1070
    74
1070
     0
1070
    77
1070
     1
1070
    78
1070
     8
1070
    79
1070
     2
1070
   140
1040
3.5
1070
   141
1040
1.5
1070
   146
1040
0.5142857142857144
1070
   147
1040
1.5
1070
   172
1070
     1
1070
   178
1070
     1
1070
   179
1070
     2
1070
   271
1070
     2
1070
   272
1070
     2
1070
   284
1070
     8
1070
   285
1070
     8
1070
   286
1070
     8
1070
   289
1070
     0
1070
   340
1005
24
1002
}
  0
DIMENSION
  5
BDB
330
1E
100
AcDbEntity
  8
BEM
100
AcDbDimension
  2
*D10
 10
269.4999999999998
 20
532.602433190457
 30
0.0
 11
224.9999999999999
 21
539.1024331904571
 31
0.0
 70
    32
  1
%%c<>
 71
     5
 42
88.99999999999989
  3
Standard
100
AcDbAlignedDimension
 13
180.4999999999999
 23
494.3119921896548
 33
0.0
 14
269.4999999999998
 24
494.3119921896546
 34
0.0
100
AcDbRotatedDimension
1001
ACAD
1000
DSTYLE
1002
{
1070
    40
1040
2.0
1070
    41
1040
3.5
1070
    42
1040
1.0
1070
    43
1040
7.0
1070
    44
1040
1.0
1070
    73
1070
     0
1070
    74
1070
     0
1070
    77
1070
     1
1070
    78
1070
     8
1070
    79
1070
     2
1070
   140
1040
3.5
1070
   141
1040
1.5
1070
   146
1040
0.5142857142857144
1070
   147
1040
1.5
1070
   172
1070
     1
1070
   178
1070
     1
1070
   179
1070
     2
1070
   271
1070
     2
1070
   272
1070
     2
1070
   284
1070
     8
1070
   285
1070
     8
1070
   286
1070
     8
1070
   289
1070
     0
1070
   340
1005
24
1002
}
  0
HATCH
  5
BDE
330
1E
100
AcDbEntity
  8
SCHRAFF
100
AcDbHatch
 10
0.0
 20
0.0
 30
0.0
210
0.0
220
0.0
230
1.0
  2
NET
 70
     0
 71
     1
 91
        2
 92
        7
 72
     1
 73
     1
 93
        7
 10
195.3269981527833
 20
494.170546950933
 42
0.0
 10
195.3929551508087
 20
494.3119921896547
 42
0.0
 10
182.0999999999999
 20
494.3119921896548
 42
0.0
 10
182.0999999999999
 20
480.3119921896549
 42
0.0
 10
193.5269873892348
 20
480.3119921896548
 42
-0.0120251093634687
 10
193.4999999999999
 20
481.514027891663
 42
0.0
 10
193.4999999999999
 20
485.929490846994
 42
-0.1095178116831768
 97
        7
330
BFF
330
BE1
330
BE9
330
BF6
330
BF3
330
BF5
330
BF4
 92
        7
 72
     1
 73
     1
 93
        7
 10
267.8999999999998
 20
494.3119921896546
 42
0.0
 10
254.6070448491914
 20
494.3119921896546
 42
0.0
 10
254.6730018472157
 20
494.1705469509352
 42
-0.1095178116832004
 10
256.4999999999999
 20
485.9294908469944
 42
0.0
 10
256.5000000000001
 20
481.5140278916632
 42
-0.012025109363471
 10
256.4730126107652
 20
480.3119921896547
 42
0.0
 10
267.8999999999998
 20
480.3119921896547
 42
0.0
 97
        7
330
BE1
330
C1D
330
C1C
330
C12
330
C19
330
C11
330
C06
 75
     0
 76
     1
 52
45.0
 41
20.0
 77
     0
 78
     2
 53
45.0
 43
0.0
 44
22.43699813046896
 45
-1.767766952966368
 46
1.767766952966368
 79
     0
 53
135.0
 43
0.0
 44
22.43699813046896
 45
-1.767766952966368
 46
-1.767766952966368
 79
     0
 47
0.4171687699471339
 98
        2
 10
188.2158333564266
 20
486.8120259474626
 10
263.7731426452547
 20
488.0635328415494
  0
LINE
  5
BDF
330
1E
100
AcDbEntity
  8
HILF
100
AcDbLine
 10
248.4942702436855
 20
211.3119921896547
 30
0.0
 11
201.5057297563148
 21
211.3119921896547
 31
0.0
  0
LINE
  5
BE0
330
1E
100
AcDbEntity
  8
STEMPEL
100
AcDbLine
 10
251.0682864386859
 20
206.3119921896548
 30
0.0
 11
198.9317135613146
 21
206.3119921896547
 31
0.0
  0
LINE
  5
BE1
102
{ACAD_REACTORS
330
BDE
102
}
330
1E
100
AcDbEntity
  8
STEMPEL
100
AcDbLine
 10
269.4999999999998
 20
494.3119921896546
 30
0.0
 11
180.4999999999999
 21
494.3119921896548
 31
0.0
  0
LINE
  5
BE2
330
1E
100
AcDbEntity
  8
HILF
100
AcDbLine
 10
201.1879020392217
 20
453.7863474981475
 30
0.0
 11
248.8120979607783
 21
453.7863474981475
 31
0.0
  0
LINE
  5
BE3
330
1E
100
AcDbEntity
  8
HILF
100
AcDbLine
 10
198.9717381606801
 20
458.8447756759486
 30
0.0
 11
251.0282618393199
 21
458.8447756759486
 31
0.0
  0
LINE
  5
BE4
330
1E
100
AcDbEntity
  8
HILF
100
AcDbLine
 10
198.3538465630825
 20
471.7558616638561
 30
0.0
 11
251.6461534369175
 21
471.7558616638561
 31
0.0
  0
LINE
  5
BE5
330
1E
100
AcDbEntity
  8
STEMPEL
100
AcDbLine
 10
199.9999999999999
 20
451.1846653499979
 30
0.0
 11
199.9999999999999
 21
383.0802574646209
 31
0.0
  0
LINE
  5
BE6
102
{ACAD_REACTORS
330
C61
102
}
330
1E
100
AcDbEntity
  8
STEMPEL
100
AcDbLine
 10
198.4999999999999
 20
451.184665349998
 30
0.0
 11
198.5000000000024
 21
383.02237045942
 31
0.0
  0
LINE
  5
BE7
330
1E
100
AcDbEntity
  8
STEMPEL
100
AcDbLine
 10
198.500000000008
 20
211.2465007751989
 30
0.0
 11
198.9317135613146
 21
206.3119921896547
 31
0.0
  0
LINE
  5
BE8
330
1E
100
AcDbEntity
  8
STEMPEL
100
AcDbLine
 10
199.9999999999999
 20
211.3119921896548
 30
0.0
 11
200.4374433176295
 21
206.3119921896547
 31
0.0
  0
LINE
  5
BE9
102
{ACAD_REACTORS
330
BDE
330
C61
102
}
330
1E
100
AcDbEntity
  8
STEMPEL
100
AcDbLine
 10
182.0999999999999
 20
494.3119921896548
 30
0.0
 11
182.1000000000001
 21
381.609607125831
 31
0.0
  0
LINE
  5
BEA
330
1E
100
AcDbEntity
  8
STEMPEL
100
AcDbLine
 10
180.4999999999999
 20
494.3119921896548
 30
0.0
 11
180.5000000000001
 21
381.4213659729784
 31
0.0
  0
LINE
  5
BEB
102
{ACAD_REACTORS
330
C61
102
}
330
1E
100
AcDbEntity
  8
STEMPEL
100
AcDbLine
 10
182.6587323118683
 20
252.3119921896548
 30
0.0
 11
198.5000000000002
 21
252.3119921896548
 31
0.0
  0
LINE
  5
BEC
102
{ACAD_REACTORS
330
C61
102
}
330
1E
100
AcDbEntity
  8
STEMPEL
100
AcDbLine
 10
182.1000000000003
 20
236.3119921896548
 30
0.0
 11
182.6587323118683
 21
252.3119921896548
 31
0.0
  0
LINE
  5
BED
330
1E
100
AcDbEntity
  8
STEMPEL
100
AcDbLine
 10
194.5000000000003
 20
242.3119921896548
 30
0.0
 11
198.5000000000002
 21
242.3119921896548
 31
0.0
  0
ARC
  5
BEE
330
1E
100
AcDbEntity
  8
STEMPEL
100
AcDbCircle
 10
207.5000000000001
 20
461.7203191028507
 30
0.0
 40
10.5
100
AcDbArc
 50
180.0
 51
211.7883306170488
  0
ARC
  5
BEF
102
{ACAD_REACTORS
330
C61
102
}
330
1E
100
AcDbEntity
  8
STEMPEL
100
AcDbCircle
 10
207.5000000000001
 20
461.7203191028507
 30
0.0
 40
12.0
100
AcDbArc
 50
180.0
 51
211.7883306170488
  0
ARC
  5
BF0
102
{ACAD_REACTORS
330
C61
102
}
330
1E
100
AcDbEntity
  8
STEMPEL
100
AcDbCircle
 10
190.4999999999999
 20
451.184665349998
 30
0.0
 40
8.0
100
AcDbArc
 50
0.0
 51
31.78833061704886
  0
LINE
  5
BF1
330
1E
100
AcDbEntity
  8
STEMPEL
100
AcDbLine
 10
198.4999999999999
 20
456.3119921896547
 30
0.0
 11
198.4999999999999
 21
456.3081407329777
 31
0.0
  0
ARC
  5
BF2
330
1E
100
AcDbEntity
  8
STEMPEL
100
AcDbCircle
 10
190.4999999999999
 20
451.1846653499979
 30
0.0
 40
9.5
100
AcDbArc
 50
0.0
 51
31.78833061704886
  0
ARC
  5
BF3
102
{ACAD_REACTORS
330
BDE
330
C61
102
}
330
1E
100
AcDbEntity
  8
STEMPEL
100
AcDbCircle
 10
218.5
 20
481.4739921896547
 30
0.0
 40
25.00003205712822
100
AcDbArc
 50
179.9082450082428
 51
199.4630994446851
  0
ARC
  5
BF4
102
{ACAD_REACTORS
330
BDE
102
}
330
1E
100
AcDbEntity
  8
STEMPEL
100
AcDbCircle
 10
213.0000000000001
 20
485.929490846994
 30
0.0
 40
19.5
100
AcDbArc
 50
154.5405714311918
 51
180.0
  0
LINE
  5
BF5
102
{ACAD_REACTORS
330
BDE
102
}
330
1E
100
AcDbEntity
  8
STEMPEL
100
AcDbLine
 10
193.4999999999999
 20
485.929490846994
 30
0.0
 11
193.4999999999999
 21
481.514027891663
 31
0.0
  0
LINE
  5
BF6
102
{ACAD_REACTORS
330
BDE
330
C61
102
}
330
1E
100
AcDbEntity
  8
STEMPEL
100
AcDbLine
 10
193.5269873892348
 20
480.3119921896548
 30
0.0
 11
182.1000000000001
 21
480.3119921896549
 31
0.0
  0
LINE
  5
BF7
330
1E
100
AcDbEntity
  8
STEMPEL
100
AcDbLine
 10
195.0
 20
485.929490846994
 30
0.0
 11
195.0
 21
481.5128082437197
 31
0.0
  0
ARC
  5
BF8
102
{ACAD_REACTORS
330
C61
102
}
330
1E
100
AcDbEntity
  8
STEMPEL
100
AcDbCircle
 10
185.4999999999999
 20
469.8119921896547
 30
0.0
 40
10.0
100
AcDbArc
 50
0.0
 51
19.46309944468512
  0
ARC
  5
BF9
330
1E
100
AcDbEntity
  8
STEMPEL
100
AcDbCircle
 10
185.4999999999999
 20
469.8119921896547
 30
0.0
 40
11.5
100
AcDbArc
 50
0.0
 51
19.46309944468512
  0
LINE
  5
BFA
330
1E
100
AcDbEntity
  8
STEMPEL
100
AcDbLine
 10
196.9999999999999
 20
469.8119921896547
 30
0.0
 11
196.9999999999999
 21
461.7203191028507
 31
0.0
  0
LINE
  5
BFB
102
{ACAD_REACTORS
330
C61
102
}
330
1E
100
AcDbEntity
  8
STEMPEL
100
AcDbLine
 10
195.5
 20
469.8119921896547
 30
0.0
 11
195.5
 21
461.7203191028507
 31
0.0
  0
LINE
  5
BFC
330
1E
100
AcDbEntity
  8
STEMPEL
100
AcDbLine
 10
195.0
 20
481.4739921896548
 30
0.0
 11
194.9999679428718
 21
481.4739921896548
 31
0.0
  0
ARC
  5
BFD
330
1E
100
AcDbEntity
  8
STEMPEL
100
AcDbCircle
 10
218.5
 20
481.4739921896547
 30
0.0
 40
23.5000320571282
100
AcDbArc
 50
179.905361955203
 51
199.4630994446851
  0
ARC
  5
BFE
330
1E
100
AcDbEntity
  8
STEMPEL
100
AcDbCircle
 10
213.0000000000001
 20
485.929490846994
 30
0.0
 40
18.0
100
AcDbArc
 50
155.0000000000006
 51
180.0
  0
LINE
  5
BFF
102
{ACAD_REACTORS
330
BDE
102
}
330
1E
100
AcDbEntity
  8
STEMPEL
100
AcDbLine
 10
195.3929551508087
 20
494.3119921896547
 30
0.0
 11
195.3269981527854
 21
494.1705469509376
 31
0.0
  0
LINE
  5
C00
330
1E
100
AcDbEntity
  8
STEMPEL
100
AcDbLine
 10
197.0480220292525
 20
494.3119921896547
 30
0.0
 11
196.6864598333406
 21
493.536619558327
 31
0.0
  0
LINE
  5
C01
330
1E
100
AcDbEntity
  8
STEMPEL
100
AcDbLine
 10
250.0
 20
451.1846653499979
 30
0.0
 11
250.0
 21
379.762474481336
 31
0.0
  0
LINE
  5
C02
102
{ACAD_REACTORS
330
C61
102
}
330
1E
100
AcDbEntity
  8
STEMPEL
100
AcDbLine
 10
251.5000000000001
 20
451.1846653499981
 30
0.0
 11
251.5
 21
379.8203614865371
 31
0.0
  0
LINE
  5
C03
330
1E
100
AcDbEntity
  8
MITTEL
100
AcDbLine
 10
225.0
 20
499.3119921896548
 30
0.0
 11
225.0000000000003
 21
201.3119921896547
 31
0.0
  0
LINE
  5
C04
330
1E
100
AcDbEntity
  8
STEMPEL
100
AcDbLine
 10
250.0
 20
211.3119921896486
 30
0.0
 11
249.5625566823711
 21
206.3119921896548
 31
0.0
  0
LINE
  5
C05
330
1E
100
AcDbEntity
  8
STEMPEL
100
AcDbLine
 10
251.5
 20
211.2465007752863
 30
0.0
 11
251.0682864386859
 21
206.3119921896548
 31
0.0
  0
LINE
  5
C06
102
{ACAD_REACTORS
330
BDE
330
C61
102
}
330
1E
100
AcDbEntity
  8
STEMPEL
100
AcDbLine
 10
267.8999999999998
 20
494.3119921896546
 30
0.0
 11
267.9
 21
381.2331248201259
 31
0.0
  0
LINE
  5
C07
330
1E
100
AcDbEntity
  8
STEMPEL
100
AcDbLine
 10
269.4999999999998
 20
494.3119921896546
 30
0.0
 11
269.5
 21
381.4213659729784
 31
0.0
  0
LINE
  5
C08
102
{ACAD_REACTORS
330
C61
102
}
330
1E
100
AcDbEntity
  8
STEMPEL
100
AcDbLine
 10
267.3412676881323
 20
252.3119921896548
 30
0.0
 11
251.5000000000004
 21
252.3119921896548
 31
0.0
  0
LINE
  5
C09
330
1E
100
AcDbEntity
  8
STEMPEL
100
AcDbLine
 10
269.4999999999994
 20
236.3119921896546
 30
0.0
 11
267.9000000000002
 21
236.3119921896546
 31
0.0
  0
LINE
  5
C0A
330
1E
100
AcDbEntity
  8
STEMPEL
100
AcDbLine
 10
255.5000000000003
 20
242.3119921896548
 30
0.0
 11
251.5000000000004
 21
242.3119921896548
 31
0.0
  0
LINE
  5
C0B
102
{ACAD_REACTORS
330
C61
102
}
330
1E
100
AcDbEntity
  8
STEMPEL
100
AcDbLine
 10
267.9000000000002
 20
236.3119921896548
 30
0.0
 11
267.3412676881323
 21
252.3119921896548
 31
0.0
  0
ARC
  5
C0C
102
{ACAD_REACTORS
330
C61
102
}
330
1E
100
AcDbEntity
  8
STEMPEL
100
AcDbCircle
 10
242.4999999999999
 20
461.7203191028507
 30
0.0
 40
12.0
100
AcDbArc
 50
328.2116693829511
 51
0.0
  0
ARC
  5
C0D
330
1E
100
AcDbEntity
  8
STEMPEL
100
AcDbCircle
 10
242.4999999999999
 20
461.7203191028507
 30
0.0
 40
10.5
100
AcDbArc
 50
328.2116693829511
 51
0.0
  0
ARC
  5
C0E
330
1E
100
AcDbEntity
  8
STEMPEL
100
AcDbCircle
 10
259.5000000000001
 20
451.1846653499979
 30
0.0
 40
9.5
100
AcDbArc
 50
148.2116693829511
 51
180.0
  0
LINE
  5
C0F
330
1E
100
AcDbEntity
  8
STEMPEL
100
AcDbLine
 10
251.5000000000001
 20
456.3119921896548
 30
0.0
 11
251.5000000000001
 21
456.3081407329778
 31
0.0
  0
ARC
  5
C10
102
{ACAD_REACTORS
330
C61
102
}
330
1E
100
AcDbEntity
  8
STEMPEL
100
AcDbCircle
 10
259.5000000000001
 20
451.1846653499981
 30
0.0
 40
8.0
100
AcDbArc
 50
148.2116693829511
 51
180.0
  0
LINE
  5
C11
102
{ACAD_REACTORS
330
BDE
330
C61
102
}
330
1E
100
AcDbEntity
  8
STEMPEL
100
AcDbLine
 10
267.8999999999998
 20
480.3119921896546
 30
0.0
 11
256.4730126107651
 21
480.3119921896547
 31
0.0
  0
LINE
  5
C12
102
{ACAD_REACTORS
330
BDE
102
}
330
1E
100
AcDbEntity
  8
STEMPEL
100
AcDbLine
 10
256.4999999999999
 20
485.929490846994
 30
0.0
 11
256.5000000000001
 21
481.5140278916632
 31
0.0
  0
LINE
  5
C13
330
1E
100
AcDbEntity
  8
STEMPEL
100
AcDbLine
 10
254.9999999999999
 20
485.929490846994
 30
0.0
 11
254.9999999999999
 21
481.5128082437197
 31
0.0
  0
ARC
  5
C14
330
1E
100
AcDbEntity
  8
STEMPEL
100
AcDbCircle
 10
264.5
 20
469.8119921896549
 30
0.0
 40
11.5
100
AcDbArc
 50
160.5369005553148
 51
180.0
  0
ARC
  5
C15
102
{ACAD_REACTORS
330
C61
102
}
330
1E
100
AcDbEntity
  8
STEMPEL
100
AcDbCircle
 10
264.5
 20
469.8119921896549
 30
0.0
 40
10.0
100
AcDbArc
 50
160.5369005553148
 51
180.0
  0
LINE
  5
C16
330
1E
100
AcDbEntity
  8
STEMPEL
100
AcDbLine
 10
253.0000000000001
 20
469.8119921896548
 30
0.0
 11
253.0000000000001
 21
461.7203191028507
 31
0.0
  0
LINE
  5
C17
102
{ACAD_REACTORS
330
C61
102
}
330
1E
100
AcDbEntity
  8
STEMPEL
100
AcDbLine
 10
254.4999999999999
 20
469.8119921896548
 30
0.0
 11
254.4999999999999
 21
461.7203191028507
 31
0.0
  0
ARC
  5
C18
330
1E
100
AcDbEntity
  8
STEMPEL
100
AcDbCircle
 10
231.4999999999999
 20
481.4739921896548
 30
0.0
 40
23.5000320571282
100
AcDbArc
 50
340.5369005553148
 51
0.0946380447970367
  0
ARC
  5
C19
102
{ACAD_REACTORS
330
BDE
330
C61
102
}
330
1E
100
AcDbEntity
  8
STEMPEL
100
AcDbCircle
 10
231.4999999999999
 20
481.4739921896548
 30
0.0
 40
25.00003205712822
100
AcDbArc
 50
340.5369005553148
 51
0.0917549917637335
  0
LINE
  5
C1A
330
1E
100
AcDbEntity
  8
STEMPEL
100
AcDbLine
 10
254.9999999999999
 20
481.4739921896548
 30
0.0
 11
255.0000320571282
 21
481.4739921896548
 31
0.0
  0
ARC
  5
C1B
330
1E
100
AcDbEntity
  8
STEMPEL
100
AcDbCircle
 10
237.0
 20
485.929490846994
 30
0.0
 40
18.0
100
AcDbArc
 50
0.0
 51
24.99999999999276
  0
ARC
  5
C1C
102
{ACAD_REACTORS
330
BDE
102
}
330
1E
100
AcDbEntity
  8
STEMPEL
100
AcDbCircle
 10
237.0
 20
485.929490846994
 30
0.0
 40
19.5
100
AcDbArc
 50
0.0
 51
25.45942856880091
  0
LINE
  5
C1D
102
{ACAD_REACTORS
330
BDE
102
}
330
1E
100
AcDbEntity
  8
STEMPEL
100
AcDbLine
 10
254.6070448491911
 20
494.3119921896548
 30
0.0
 11
254.6730018472146
 21
494.1705469509376
 31
0.0
  0
LINE
  5
C1E
330
1E
100
AcDbEntity
  8
STEMPEL
100
AcDbLine
 10
252.9519779707475
 20
494.3119921896548
 30
0.0
 11
253.3135401666594
 21
493.5366195583271
 31
0.0
  0
TEXT
  5
C1F
330
1E
100
AcDbEntity
  8
TEXT
 62
     1
100
AcDbText
 10
215.8910492387708
 20
424.2839903926838
 30
0.0
 40
7.0
  1
DN50
 50
90.0
 41
0.8
  7
GREEKS
100
AcDbText
  0
POLYLINE
  5
C20
102
{ACAD_REACTORS
330
C61
102
}
330
1E
100
AcDbEntity
  8
HILF
100
AcDb2dPolyline
 66
     1
 10
0.0
 20
0.0
 30
0.0
 70
     4
 75
     6
  0
VERTEX
  5
C21
330
C20
100
AcDbEntity
  8
HILF
100
AcDbVertex
100
AcDb2dVertex
 10
180.5000000000001
 20
381.4213659729785
 30
0.0
 70
    16
  0
VERTEX
  5
C22
330
C20
100
AcDbEntity
  8
HILF
100
AcDbVertex
100
AcDb2dVertex
 10
180.5000000000001
 20
381.4213659729785
 30
0.0
 70
     8
  0
VERTEX
  5
C23
330
C20
100
AcDbEntity
  8
HILF
100
AcDbVertex
100
AcDb2dVertex
 10
188.3439941406251
 20
382.3442175354785
 30
0.0
 70
     8
  0
VERTEX
  5
C24
330
C20
100
AcDbEntity
  8
HILF
100
AcDbVertex
100
AcDb2dVertex
 10
195.2753906250001
 20
382.8979284729785
 30
0.0
 70
     8
  0
VERTEX
  5
C25
330
C20
100
AcDbEntity
  8
HILF
100
AcDbVertex
100
AcDb2dVertex
 10
201.4245605468751
 20
383.1352331604785
 30
0.0
 70
     8
  0
VERTEX
  5
C26
330
C20
100
AcDbEntity
  8
HILF
100
AcDbVertex
100
AcDb2dVertex
 10
206.9218750000001
 20
383.1088659729785
 30
0.0
 70
     8
  0
VERTEX
  5
C27
330
C20
100
AcDbEntity
  8
HILF
100
AcDbVertex
100
AcDb2dVertex
 10
211.8977050781251
 20
382.8715612854785
 30
0.0
 70
     8
  0
VERTEX
  5
C28
330
C20
100
AcDbEntity
  8
HILF
100
AcDbVertex
100
AcDb2dVertex
 10
216.4824218750001
 20
382.4760534729785
 30
0.0
 70
     8
  0
VERTEX
  5
C29
330
C20
100
AcDbEntity
  8
HILF
100
AcDbVertex
100
AcDb2dVertex
 10
220.8063964843752
 20
381.9750769104785
 30
0.0
 70
     8
  0
VERTEX
  5
C2A
330
C20
100
AcDbEntity
  8
HILF
100
AcDbVertex
100
AcDb2dVertex
 10
225.0
 20
381.4213659729785
 30
0.0
 70
     8
  0
VERTEX
  5
C2B
330
C20
100
AcDbEntity
  8
HILF
100
AcDbVertex
100
AcDb2dVertex
 10
229.193603515625
 20
380.8676550354785
 30
0.0
 70
     8
  0
VERTEX
  5
C2C
330
C20
100
AcDbEntity
  8
HILF
100
AcDbVertex
100
AcDb2dVertex
 10
233.5175781250001
 20
380.3666784729785
 30
0.0
 70
     8
  0
VERTEX
  5
C2D
330
C20
100
AcDbEntity
  8
HILF
100
AcDbVertex
100
AcDb2dVertex
 10
238.102294921875
 20
379.9711706604785
 30
0.0
 70
     8
  0
VERTEX
  5
C2E
330
C20
100
AcDbEntity
  8
HILF
100
AcDbVertex
100
AcDb2dVertex
 10
243.0781250000001
 20
379.7338659729785
 30
0.0
 70
     8
  0
VERTEX
  5
C2F
330
C20
100
AcDbEntity
  8
HILF
100
AcDbVertex
100
AcDb2dVertex
 10
248.5754394531251
 20
379.7074987854785
 30
0.0
 70
     8
  0
VERTEX
  5
C30
330
C20
100
AcDbEntity
  8
HILF
100
AcDbVertex
100
AcDb2dVertex
 10
254.724609375
 20
379.9448034729785
 30
0.0
 70
     8
  0
VERTEX
  5
C31
330
C20
100
AcDbEntity
  8
HILF
100
AcDbVertex
100
AcDb2dVertex
 10
261.656005859375
 20
380.4985144104785
 30
0.0
 70
     8
  0
VERTEX
  5
C32
330
C20
100
AcDbEntity
  8
HILF
100
AcDbVertex
100
AcDb2dVertex
 10
269.5
 20
381.4213659729785
 30
0.0
 70
     8
  0
VERTEX
  5
C33
330
C20
100
AcDbEntity
  8
HILF
100
AcDbVertex
100
AcDb2dVertex
 10
202.7500000000001
 20
384.4213659729785
 30
0.0
 70
    16
  0
VERTEX
  5
C34
330
C20
100
AcDbEntity
  8
HILF
100
AcDbVertex
100
AcDb2dVertex
 10
225.0
 20
381.4213659729785
 30
0.0
 70
    16
  0
VERTEX
  5
C35
330
C20
100
AcDbEntity
  8
HILF
100
AcDbVertex
100
AcDb2dVertex
 10
247.2500000000001
 20
378.4213659729784
 30
0.0
 70
    16
  0
VERTEX
  5
C36
330
C20
100
AcDbEntity
  8
HILF
100
AcDbVertex
100
AcDb2dVertex
 10
269.5
 20
381.4213659729784
 30
0.0
 70
    16
  0
SEQEND
  5
C37
330
C20
100
AcDbEntity
  8
HILF
  0
POLYLINE
  5
C38
102
{ACAD_REACTORS
330
C61
102
}
330
1E
100
AcDbEntity
  8
HILF
100
AcDb2dPolyline
 66
     1
 10
0.0
 20
0.0
 30
0.0
 70
     4
 75
     6
  0
VERTEX
  5
C39
330
C38
100
AcDbEntity
  8
HILF
100
AcDbVertex
100
AcDb2dVertex
 10
180.5000000000001
 20
376.4213659729785
 30
0.0
 70
    16
  0
VERTEX
  5
C3A
330
C38
100
AcDbEntity
  8
HILF
100
AcDbVertex
100
AcDb2dVertex
 10
180.5000000000001
 20
376.4213659729785
 30
0.0
 70
     8
  0
VERTEX
  5
C3B
330
C38
100
AcDbEntity
  8
HILF
100
AcDbVertex
100
AcDb2dVertex
 10
188.3439941406251
 20
377.3442175354785
 30
0.0
 70
     8
  0
VERTEX
  5
C3C
330
C38
100
AcDbEntity
  8
HILF
100
AcDbVertex
100
AcDb2dVertex
 10
195.2753906250001
 20
377.8979284729785
 30
0.0
 70
     8
  0
VERTEX
  5
C3D
330
C38
100
AcDbEntity
  8
HILF
100
AcDbVertex
100
AcDb2dVertex
 10
201.4245605468751
 20
378.1352331604785
 30
0.0
 70
     8
  0
VERTEX
  5
C3E
330
C38
100
AcDbEntity
  8
HILF
100
AcDbVertex
100
AcDb2dVertex
 10
206.9218750000001
 20
378.1088659729785
 30
0.0
 70
     8
  0
VERTEX
  5
C3F
330
C38
100
AcDbEntity
  8
HILF
100
AcDbVertex
100
AcDb2dVertex
 10
211.8977050781251
 20
377.8715612854785
 30
0.0
 70
     8
  0
VERTEX
  5
C40
330
C38
100
AcDbEntity
  8
HILF
100
AcDbVertex
100
AcDb2dVertex
 10
216.4824218750001
 20
377.4760534729785
 30
0.0
 70
     8
  0
VERTEX
  5
C41
330
C38
100
AcDbEntity
  8
HILF
100
AcDbVertex
100
AcDb2dVertex
 10
220.8063964843752
 20
376.9750769104785
 30
0.0
 70
     8
  0
VERTEX
  5
C42
330
C38
100
AcDbEntity
  8
HILF
100
AcDbVertex
100
AcDb2dVertex
 10
225.0
 20
376.4213659729785
 30
0.0
 70
     8
  0
VERTEX
  5
C43
330
C38
100
AcDbEntity
  8
HILF
100
AcDbVertex
100
AcDb2dVertex
 10
229.193603515625
 20
375.8676550354785
 30
0.0
 70
     8
  0
VERTEX
  5
C44
330
C38
100
AcDbEntity
  8
HILF
100
AcDbVertex
100
AcDb2dVertex
 10
233.5175781250001
 20
375.3666784729785
 30
0.0
 70
     8
  0
VERTEX
  5
C45
330
C38
100
AcDbEntity
  8
HILF
100
AcDbVertex
100
AcDb2dVertex
 10
238.102294921875
 20
374.9711706604785
 30
0.0
 70
     8
  0
VERTEX
  5
C46
330
C38
100
AcDbEntity
  8
HILF
100
AcDbVertex
100
AcDb2dVertex
 10
243.0781250000001
 20
374.7338659729785
 30
0.0
 70
     8
  0
VERTEX
  5
C47
330
C38
100
AcDbEntity
  8
HILF
100
AcDbVertex
100
AcDb2dVertex
 10
248.5754394531251
 20
374.7074987854785
 30
0.0
 70
     8
  0
VERTEX
  5
C48
330
C38
100
AcDbEntity
  8
HILF
100
AcDbVertex
100
AcDb2dVertex
 10
254.724609375
 20
374.9448034729785
 30
0.0
 70
     8
  0
VERTEX
  5
C49
330
C38
100
AcDbEntity
  8
HILF
100
AcDbVertex
100
AcDb2dVertex
 10
261.656005859375
 20
375.4985144104785
 30
0.0
 70
     8
  0
VERTEX
  5
C4A
330
C38
100
AcDbEntity
  8
HILF
100
AcDbVertex
100
AcDb2dVertex
 10
269.5
 20
376.4213659729785
 30
0.0
 70
     8
  0
VERTEX
  5
C4B
330
C38
100
AcDbEntity
  8
HILF
100
AcDbVertex
100
AcDb2dVertex
 10
202.7500000000001
 20
379.4213659729785
 30
0.0
 70
    16
  0
VERTEX
  5
C4C
330
C38
100
AcDbEntity
  8
HILF
100
AcDbVertex
100
AcDb2dVertex
 10
225.0
 20
376.4213659729785
 30
0.0
 70
    16
  0
VERTEX
  5
C4D
330
C38
100
AcDbEntity
  8
HILF
100
AcDbVertex
100
AcDb2dVertex
 10
247.2500000000001
 20
373.4213659729785
 30
0.0
 70
    16
  0
VERTEX
  5
C4E
330
C38
100
AcDbEntity
  8
HILF
100
AcDbVertex
100
AcDb2dVertex
 10
269.5
 20
376.4213659729784
 30
0.0
 70
    16
  0
SEQEND
  5
C4F
330
C38
100
AcDbEntity
  8
HILF
  0
LINE
  5
C50
330
1E
100
AcDbEntity
  8
STEMPEL
100
AcDbLine
 10
267.9
 20
376.2331248201259
 30
0.0
 11
267.9000000000002
 21
236.3119921896546
 31
0.0
  0
LINE
  5
C51
330
1E
100
AcDbEntity
  8
STEMPEL
100
AcDbLine
 10
269.5
 20
376.4213659729784
 30
0.0
 11
269.5000000000002
 21
236.3119921896546
 31
0.0
  0
LINE
  5
C52
330
1E
100
AcDbEntity
  8
STEMPEL
100
AcDbLine
 10
269.5
 20
376.4213659729784
 30
0.0
 11
269.5000000000002
 21
234.3119921896545
 31
0.0
  0
LINE
  5
C53
102
{ACAD_REACTORS
330
C61
102
}
330
1E
100
AcDbEntity
  8
STEMPEL
100
AcDbLine
 10
267.9
 20
376.2331248201259
 30
0.0
 11
267.9000000000002
 21
236.3119921896546
 31
0.0
  0
LINE
  5
C54
330
1E
100
AcDbEntity
  8
STEMPEL
100
AcDbLine
 10
250.0
 20
374.762474481336
 30
0.0
 11
250.0
 21
211.3119921896486
 31
0.0
  0
LINE
  5
C55
330
1E
100
AcDbEntity
  8
STEMPEL
100
AcDbLine
 10
251.5
 20
374.820361486537
 30
0.0
 11
251.5
 21
211.2465007752863
 31
0.0
  0
LINE
  5
C56
102
{ACAD_REACTORS
330
C61
102
}
330
1E
100
AcDbEntity
  8
STEMPEL
100
AcDbLine
 10
251.5
 20
374.820361486537
 30
0.0
 11
251.5
 21
211.2465007752863
 31
0.0
  0
LINE
  5
C57
330
1E
100
AcDbEntity
  8
STEMPEL
100
AcDbLine
 10
250.0
 20
374.762474481336
 30
0.0
 11
250.0
 21
211.3119921896486
 31
0.0
  0
LINE
  5
C58
330
1E
100
AcDbEntity
  8
STEMPEL
100
AcDbLine
 10
199.9999999999999
 20
378.080257464621
 30
0.0
 11
199.9999999999999
 21
211.3119921896547
 31
0.0
  0
LINE
  5
C59
330
1E
100
AcDbEntity
  8
STEMPEL
100
AcDbLine
 10
198.5000000000025
 20
378.02237045942
 30
0.0
 11
198.500000000008
 21
211.2465007751989
 31
0.0
  0
LINE
  5
C5A
102
{ACAD_REACTORS
330
C61
102
}
330
1E
100
AcDbEntity
  8
STEMPEL
100
AcDbLine
 10
198.5000000000025
 20
378.02237045942
 30
0.0
 11
198.500000000008
 21
211.2465007751989
 31
0.0
  0
LINE
  5
C5B
330
1E
100
AcDbEntity
  8
STEMPEL
100
AcDbLine
 10
199.9999999999999
 20
378.080257464621
 30
0.0
 11
199.9999999999999
 21
211.3119921896547
 31
0.0
  0
LINE
  5
C5C
330
1E
100
AcDbEntity
  8
STEMPEL
100
AcDbLine
 10
182.1000000000001
 20
376.609607125831
 30
0.0
 11
182.1000000000003
 21
236.3119921896549
 31
0.0
  0
LINE
  5
C5D
330
1E
100
AcDbEntity
  8
STEMPEL
100
AcDbLine
 10
180.5000000000001
 20
376.4213659729784
 30
0.0
 11
180.5000000000003
 21
236.3119921896549
 31
0.0
  0
LINE
  5
C5E
330
1E
100
AcDbEntity
  8
STEMPEL
100
AcDbLine
 10
180.5000000000001
 20
376.4213659729784
 30
0.0
 11
180.5000000000003
 21
234.3119921896549
 31
0.0
  0
LINE
  5
C5F
102
{ACAD_REACTORS
330
C61
102
}
330
1E
100
AcDbEntity
  8
STEMPEL
100
AcDbLine
 10
182.1000000000001
 20
376.609607125831
 30
0.0
 11
182.1000000000003
 21
236.3119921896549
 31
0.0
  0
HATCH
  5
C60
330
1E
100
AcDbEntity
  8
SCHRAFF
100
AcDbHatch
 10
0.0
 20
0.0
 30
0.0
210
0.0
220
0.0
230
1.0
  2
_USER
 70
     0
 71
     0
 91
        4
 92
        7
 72
     0
 73
     1
 93
        4
 10
269.4999999999998
 20
494.3119921896546
 10
267.8999999999998
 20
494.3119921896546
 10
267.9
 20
381.2331248201259
 10
269.5
 20
381.4213659729785
 97
        0
 92
        7
 72
     0
 73
     1
 93
        4
 10
269.4999999999999
 20
376.4213659729784
 10
267.9
 20
376.2331248201259
 10
267.9000000000002
 20
236.3119921896546
 10
269.5000000000002
 20
236.3119921896546
 97
        0
 92
        7
 72
     0
 73
     1
 93
        4
 10
180.5000000000003
 20
236.311992189655
 10
182.1000000000003
 20
236.311992189655
 10
182.1000000000001
 20
376.6096071258311
 10
180.5000000000001
 20
376.4213659729786
 97
        0
 92
        7
 72
     0
 73
     1
 93
        4
 10
180.5000000000001
 20
381.4213659729785
 10
182.1000000000001
 20
381.6096071258311
 10
182.0999999999999
 20
494.3119921896549
 10
180.4999999999999
 20
494.3119921896549
 97
        0
 75
     0
 76
     0
 52
135.0
 41
2.0
 77
     0
 78
     1
 53
135.0
 43
0.0
 44
0.0
 45
-1.414213562373095
 46
-1.414213562373094
 79
     0
 47
0.5720897576311982
 98
        4
 10
269.148208979107
 20
437.1299809284464
 10
269.148208979107
 20
359.3257734864294
 10
180.9844169953398
 20
362.186222505542
 10
180.9844169953398
 20
387.9302608785811
  0
HATCH
  5
C61
330
1E
100
AcDbEntity
  8
SCHRAFF
100
AcDbHatch
 10
0.0
 20
0.0
 30
0.0
210
0.0
220
0.0
230
1.0
  2
HONEY
 70
     0
 71
     1
 91
        4
 92
        7
 72
     1
 73
     1
 93
       11
 10
267.8999999999998
 20
480.3119921896547
 42
0.0
 10
256.4730126107652
 20
480.3119921896547
 42
-0.0734311771838392
 10
255.0714372072189
 20
473.1439891378203
 42
0.0851285408962776
 10
254.4999999999999
 20
469.8119921896551
 42
0.0
 10
254.4999999999999
 20
461.7203191028507
 42
-0.1395991324168488
 10
252.7000000000002
 20
455.3989268511396
 42
0.1395991324168723
 10
251.5000000000001
 20
451.1846653499983
 42
0.0
 10
251.5
 20
379.8203614865371
 42
0.0
 10
254.7246093750016
 20
379.9448034729786
 42
0.0
 10
261.6560058593773
 20
380.4985144104788
 42
0.0
 10
267.8999999999999
 20
381.233124820126
 42
0.0
 97
        9
330
C11
330
C19
330
C15
330
C17
330
C0C
330
C10
330
C02
330
C20
330
C06
 92
        7
 72
     1
 73
     1
 93
       11
 10
198.4999999999999
 20
451.184665349998
 42
0.1395991324168611
 10
197.3
 20
455.3989268511391
 42
-0.1395991324168599
 10
195.5
 20
461.7203191028507
 42
0.0
 10
195.5
 20
469.8119921896547
 42
0.0851285408962439
 10
194.9285627927816
 20
473.1439891378188
 42
-0.0734311771838566
 10
193.5269873892348
 20
480.3119921896548
 42
0.0
 10
182.0999999999999
 20
480.3119921896549
 42
0.0
 10
182.1000000000001
 20
381.609607125831
 42
0.0
 10
188.3439941406243
 20
382.3442175354784
 42
0.0
 10
195.275390625
 20
382.8979284729785
 42
0.0
 10
198.5000000000023
 20
383.02237045942
 42
0.0
 97
        9
330
BF0
330
BEF
330
BFB
330
BF8
330
BF3
330
BF6
330
BE9
330
C20
330
BE6
 92
        7
 72
     0
 73
     1
 93
        7
 10
251.5
 20
252.3119921896548
 10
267.3412676881323
 20
252.3119921896548
 10
267.9000000000002
 20
236.3119921896571
 10
267.9
 20
376.2331248201259
 10
261.6560058593753
 20
375.4985144104785
 10
254.7246093749996
 20
374.9448034729785
 10
251.5
 20
374.8203614865371
 97
        5
330
C38
330
C56
330
C08
330
C0B
330
C53
 92
        7
 72
     0
 73
     1
 93
        7
 10
198.5000000000026
 20
378.02237045942
 10
195.2753906249979
 20
377.8979284729784
 10
188.3439941406252
 20
377.3442175354784
 10
182.1000000000001
 20
376.609607125831
 10
182.1000000000003
 20
236.3119921896546
 10
182.6587323118683
 20
252.3119921896548
 10
198.5000000000067
 20
252.3119921896548
 97
        5
330
C38
330
C5F
330
BEC
330
BEB
330
C5A
 75
     0
 76
     1
 52
0.0
 41
25.0
 77
     0
 78
     3
 53
0.0
 43
0.0
 44
0.0
 45
4.6875
 46
2.706329374999999
 79
     2
 49
3.125
 49
-6.25
 53
120.0
 43
0.0
 44
0.0
 45
-4.687499989758061
 46
2.706329392739557
 79
     2
 49
3.124999999999999
 49
-6.249999999999998
 53
60.0
 43
0.0
 44
0.0
 45
0.0000000102419385
 46
5.412658767739556
 79
     2
 49
-6.25
 49
3.125
 47
0.5720897576311982
 98
        4
 10
262.2783026912111
 20
419.3951986893328
 10
190.7167842365247
 20
417.1068391941453
 10
259.4158417379217
 20
349.0281578573163
 10
190.7167842365247
 20
362.186222505542
  0
HATCH
  5
C62
330
1E
100
AcDbEntity
  8
SCHRAFF
100
AcDbHatch
 10
0.0
 20
0.0
 30
0.0
210
0.0
220
0.0
230
1.0
  2
_USER
 70
     0
 71
     0
 91
        4
 92
        7
 72
     1
 73
     1
 93
       20
 10
251.5000000000001
 20
451.1846653499981
 42
-0.1395991324168488
 10
252.6999999999998
 20
455.3989268511388
 42
0.1395991324168681
 10
254.4999999999999
 20
461.7203191028507
 42
0.0
 10
254.4999999999999
 20
469.8119921896548
 42
-0.085128540896238
 10
255.0714372072183
 20
473.1439891378186
 42
0.0847252966084358
 10
256.5000000000001
 20
481.4339564876927
 42
0.0
 10
256.4999999999999
 20
485.929490846994
 42
0.1115469390821217
 10
254.6063531499369
 20
494.3119921896546
 42
0.0
 10
252.9519779707476
 20
494.3119921896547
 42
0.0
 10
253.3135401666594
 20
493.5366195583271
 42
-0.1095178116832497
 10
254.9999999999999
 20
485.929490846994
 42
0.0
 10
254.9999999999999
 20
481.5128082437197
 42
-0.0855444844068017
 10
253.6571527883016
 20
473.6437886800448
 42
0.0851285408962731
 10
253.0000000000001
 20
469.811992189655
 42
0.0
 10
253.0000000000001
 20
461.7203191028507
 42
-0.1361061113099485
 10
251.5000000000001
 20
456.3119921896549
 42
0.0
 10
251.5000000000001
 20
456.3081407329778
 42
0.1433758286905711
 10
250.0
 20
451.184665349998
 42
0.0
 10
250.0
 20
379.762474481336
 42
0.0
 10
251.5
 20
379.8203614865371
 42
0.0
 97
        0
 92
        7
 72
     1
 73
     1
 93
       20
 10
199.9999999999999
 20
451.1846653499979
 42
0.1433758286905727
 10
198.4999999999999
 20
456.3081407329778
 42
0.0
 10
198.4999999999999
 20
456.3119921896549
 42
-0.1361061113099484
 10
196.9999999999999
 20
461.7203191028507
 42
0.0
 10
196.9999999999999
 20
469.8119921896547
 42
0.0851285408962504
 10
196.3428472116987
 20
473.6437886800437
 42
-0.0855444844068151
 10
195.0
 20
481.5128082437197
 42
0.0
 10
195.0
 20
485.929490846994
 42
-0.1095178116832493
 10
196.6864598333406
 20
493.536619558327
 42
0.0
 10
197.0480220292526
 20
494.3119921896547
 42
0.0
 10
195.3936468500632
 20
494.3119921896547
 42
0.1115469390821248
 10
193.4999999999999
 20
485.929490846994
 42
0.0
 10
193.4999999999999
 20
481.4339564876992
 42
0.0847252966084973
 10
194.9285627927815
 20
473.1439891378189
 42
-0.0851285408962502
 10
195.5
 20
469.8119921896547
 42
0.0
 10
195.5
 20
461.7203191028507
 42
0.1395991324168599
 10
197.3
 20
455.3989268511391
 42
-0.1395991324168484
 10
198.4999999999999
 20
451.1846653499985
 42
0.0
 10
198.5000000000024
 20
383.02237045942
 42
0.0
 10
199.9999999999999
 20
383.080257464621
 42
0.0
 97
        0
 92
        7
 72
     0
 73
     1
 93
        6
 10
199.9999999999999
 20
378.080257464621
 10
198.5000000000025
 20
378.02237045942
 10
198.500000000008
 20
211.2465007751989
 10
198.9317135613146
 20
206.3119921896547
 10
200.4374433176295
 20
206.3119921896548
 10
199.9999999999999
 20
211.3119921896549
 97
        0
 92
        7
 72
     0
 73
     1
 93
        6
 10
251.5
 20
374.8203614865371
 10
250.0000000000001
 20
374.762474481336
 10
250.0000000000001
 20
211.311992189649
 10
249.562556682371
 20
206.3119921896548
 10
251.0682864386859
 20
206.3119921896548
 10
251.5
 20
211.2465007752866
 97
        0
 75
     0
 76
     0
 52
45.0
 41
2.0
 77
     0
 78
     1
 53
45.0
 43
0.0
 44
0.0
 45
-1.414213562373094
 46
1.414213562373095
 79
     0
 47
0.610111662657399
 98
        4
 10
250.6195380409904
 20
399.1217935913665
 10
199.3341093422023
 20
391.8004541701282
 10
199.3341093422023
 20
357.0240880706556
 10
250.6195380409904
 20
349.0926364478607
  0
HATCH
  5
C63
330
1E
100
AcDbEntity
  8
SCHRAFF
100
AcDbHatch
 10
0.0
 20
0.0
 30
0.0
210
0.0
220
0.0
230
1.0
  2
NET
 70
     0
 71
     0
 91
        2
 92
        7
 72
     0
 73
     1
 93
       10
 10
267.3412676881323
 20
252.3119921896547
 10
251.5
 20
252.3119921896548
 10
251.5
 20
242.3119921896547
 10
255.5000000000003
 20
242.3119921896548
 10
258.9641016151382
 20
236.3119921896546
 10
263.4999999999993
 20
236.3119921896546
 10
263.4999999999993
 20
234.3119921896545
 10
269.5000000000001
 20
234.3119921896544
 10
269.5000000000001
 20
236.3119921896546
 10
267.9000000000003
 20
236.3119921896546
 97
        0
 92
        7
 72
     0
 73
     1
 93
       10
 10
198.5000000000056
 20
252.3119921896549
 10
182.6587323118683
 20
252.3119921896549
 10
182.1000000000003
 20
236.3119921896549
 10
180.5000000000003
 20
236.311992189655
 10
180.5000000000003
 20
234.3119921896549
 10
186.4999999999993
 20
234.3119921896549
 10
186.4999999999993
 20
236.3119921896549
 10
191.0358983848625
 20
236.3119921896549
 10
194.5000000000003
 20
242.3119921896548
 10
198.5000000000061
 20
242.3119921896548
 97
        0
 75
     0
 76
     1
 52
45.0
 41
20.0
 77
     0
 78
     2
 53
45.0
 43
0.0
 44
-85.56300186953103
 45
-1.767766952966368
 46
1.767766952966368
 79
     0
 53
135.0
 43
0.0
 44
-85.56300186953103
 45
-1.767766952966368
 46
-1.767766952966368
 79
     0
 47
0.1255994509103582
 98
        2
 10
259.0783806046493
 20
247.595318210798
 10
193.2245626811809
 20
248.6001141230304
  0
LINE
  5
C64
330
1E
100
AcDbEntity
  8
STEMPEL
100
AcDbLine
 10
198.5000000000067
 20
234.3119921896549
 30
0.0
 11
180.5000000000003
 21
234.3119921896549
 31
0.0
  0
LINE
  5
C65
330
1E
100
AcDbEntity
  8
STEMPEL
100
AcDbLine
 10
198.5000000000065
 20
236.3119921896548
 30
0.0
 11
186.4999999999992
 21
236.3119921896549
 31
0.0
  0
LINE
  5
C66
330
1E
100
AcDbEntity
  8
STEMPEL
100
AcDbLine
 10
198.5000000000065
 20
236.3119921896548
 30
0.0
 11
186.4999999999992
 21
236.3119921896549
 31
0.0
  0
LINE
  5
C67
330
1E
100
AcDbEntity
  8
STEMPEL
100
AcDbLine
 10
186.4999999999992
 20
236.3119921896547
 30
0.0
 11
186.4999999999992
 21
234.3119921896547
 31
0.0
  0
POINT
  5
C68
330
1E
100
AcDbEntity
  8
STEMPEL
100
AcDbPoint
 10
186.4999999999992
 20
234.3119921896547
 30
0.0
  0
LINE
  5
C69
330
1E
100
AcDbEntity
  8
STEMPEL
100
AcDbLine
 10
194.5000000000003
 20
242.3119921896548
 30
0.0
 11
191.0358983848625
 21
236.3119921896548
 31
0.0
  0
LINE
  5
C6A
330
1E
100
AcDbEntity
  8
STEMPEL
100
AcDbLine
 10
194.5000000000003
 20
242.3119921896548
 30
0.0
 11
191.0358983848625
 21
236.3119921896548
 31
0.0
  0
LINE
  5
C6B
330
1E
100
AcDbEntity
  8
STEMPEL
100
AcDbLine
 10
269.5000000000002
 20
234.3119921896545
 30
0.0
 11
251.4999999999999
 21
234.3119921896545
 31
0.0
  0
LINE
  5
C6C
330
1E
100
AcDbEntity
  8
STEMPEL
100
AcDbLine
 10
263.4999999999993
 20
236.3119921896547
 30
0.0
 11
263.4999999999993
 21
234.3119921896547
 31
0.0
  0
POINT
  5
C6D
330
1E
100
AcDbEntity
  8
STEMPEL
100
AcDbPoint
 10
263.4999999999993
 20
234.3119921896547
 30
0.0
  0
LINE
  5
C6E
330
1E
100
AcDbEntity
  8
STEMPEL
100
AcDbLine
 10
263.4999999999993
 20
236.3119921896546
 30
0.0
 11
251.5
 21
236.3119921896546
 31
0.0
  0
LINE
  5
C6F
330
1E
100
AcDbEntity
  8
STEMPEL
100
AcDbLine
 10
255.5000000000003
 20
242.3119921896548
 30
0.0
 11
258.9641016151381
 21
236.3119921896548
 31
0.0
  0
LINE
  5
C70
330
1E
100
AcDbEntity
  8
STEMPEL
100
AcDbLine
 10
255.5000000000003
 20
242.3119921896548
 30
0.0
 11
258.9641016151381
 21
236.3119921896548
 31
0.0
  0
ENDSEC
  0
SECTION
  2
OBJECTS
  0
DICTIONARY
  5
C
330
0
100
AcDbDictionary
281
     1
  3
ACAD_CIP_PREVIOUS_PRODUCT_INFO
350
863
  3
ACAD_COLOR
350
DF
  3
ACAD_DETAILVIEWSTYLE
350
860
  3
ACAD_GROUP
350
D
  3
ACAD_LAYOUT
350
19
  3
ACAD_MATERIAL
350
DE
  3
ACAD_MLEADERSTYLE
350
85B
  3
ACAD_MLINESTYLE
350
16
  3
ACAD_PLOTSETTINGS
350
18
  3
ACAD_PLOTSTYLENAME
350
E
  3
ACAD_SCALELIST
350
849
  3
ACAD_SECTIONVIEWSTYLE
350
85D
  3
ACAD_TABLESTYLE
350
847
  3
ACAD_VISUALSTYLE
350
82E
  3
ACDB_RECOMPOSE_DATA
350
10B4
  3
AcDbVariableDictionary
350
EA
  0
DICTIONARY
  5
9D5
330
8
100
AcDbDictionary
280
     1
281
     1
  0
DICTIONARY
  5
E4C
330
2
100
AcDbDictionary
280
     1
281
     1
  3
ACAD_LAYERSTATES
360
E4D
  0
DICTIONARY
  5
9C2
330
10
100
AcDbDictionary
280
     1
281
     1
  3
ADSK_XREC_LAYER_RECONCILED
360
9C3
  0
DICTIONARY
  5
9C4
330
2A
100
AcDbDictionary
280
     1
281
     1
  3
ADSK_XREC_LAYER_RECONCILED
360
9C5
  0
DICTIONARY
  5
9C6
330
2B
100
AcDbDictionary
280
     1
281
     1
  3
ADSK_XREC_LAYER_RECONCILED
360
9C7
  0
DICTIONARY
  5
9C8
330
2C
100
AcDbDictionary
280
     1
281
     1
  3
ADSK_XREC_LAYER_RECONCILED
360
9C9
  0
DICTIONARY
  5
9CA
330
2F
100
AcDbDictionary
280
     1
281
     1
  3
ADSK_XREC_LAYER_RECONCILED
360
9CB
  0
DICTIONARY
  5
9CC
330
30
100
AcDbDictionary
280
     1
281
     1
  3
ADSK_XREC_LAYER_RECONCILED
360
9CD
  0
DICTIONARY
  5
9CE
330
31
100
AcDbDictionary
280
     1
281
     1
  3
ADSK_XREC_LAYER_RECONCILED
360
9CF
  0
DICTIONARY
  5
9D0
330
19A
100
AcDbDictionary
280
     1
281
     1
  3
ADSK_XREC_LAYER_RECONCILED
360
9D1
  0
DICTIONARY
  5
A0
330
1E
100
AcDbDictionary
280
     1
281
     1
  3
ACAD_LAYOUTSELFREF
360
D4
  3
ACAD_SORTENTS
360
873
  0
DICTIONARY
  5
A2
330
1A
100
AcDbDictionary
280
     1
281
     1
  3
ACAD_LAYOUTSELFREF
360
D3
  0
XRECORD
  5
863
102
{ACAD_REACTORS
330
C
102
}
330
C
100
AcDbXrecord
280
     1
300
ACD
300
2013
300
ACD_F_S
  0
DICTIONARY
  5
DF
102
{ACAD_REACTORS
330
C
102
}
330
C
100
AcDbDictionary
281
     1
  0
DICTIONARY
  5
860
102
{ACAD_REACTORS
330
C
102
}
330
C
100
AcDbDictionary
281
     1
  3
Imperial24
350
861
  0
DICTIONARY
  5
D
102
{ACAD_REACTORS
330
C
102
}
330
C
100
AcDbDictionary
281
     1
  0
DICTIONARY
  5
19
102
{ACAD_REACTORS
330
C
102
}
330
C
100
AcDbDictionary
281
     1
  3
Layout1
350
1D
  3
Model
350
21
  0
DICTIONARY
  5
DE
102
{ACAD_REACTORS
330
C
102
}
330
C
100
AcDbDictionary
281
     1
  3
ByBlock
350
81E
  3
ByLayer
350
816
  3
Global
350
826
  0
DICTIONARY
  5
85B
102
{ACAD_REACTORS
330
C
102
}
330
C
100
AcDbDictionary
281
     1
  3
Standard
350
85C
  0
DICTIONARY
  5
16
102
{ACAD_REACTORS
330
C
102
}
330
C
100
AcDbDictionary
281
     1
  3
Standard
350
17
  0
DICTIONARY
  5
18
102
{ACAD_REACTORS
330
C
102
}
330
C
100
AcDbDictionary
281
     1
  0
ACDBDICTIONARYWDFLT
  5
E
102
{ACAD_REACTORS
330
C
102
}
330
C
100
AcDbDictionary
281
     1
  3
Normal
350
F
100
AcDbDictionaryWithDefault
340
F
  0
DICTIONARY
  5
849
102
{ACAD_REACTORS
330
C
102
}
330
C
100
AcDbDictionary
281
     1
  3
A0
350
84A
  3
A1
350
84B
  3
A2
350
84C
  3
A3
350
84D
  3
A4
350
84E
  3
A5
350
84F
  3
A6
350
850
  3
A7
350
851
  3
A8
350
852
  3
A9
350
853
  3
B0
350
854
  3
B1
350
855
  3
B2
350
856
  3
B3
350
857
  3
B4
350
858
  3
B5
350
859
  3
B6
350
85A
  0
DICTIONARY
  5
85D
102
{ACAD_REACTORS
330
C
102
}
330
C
100
AcDbDictionary
281
     1
  3
Imperial24
350
85F
  0
DICTIONARY
  5
847
102
{ACAD_REACTORS
330
C
102
}
330
C
100
AcDbDictionary
281
     1
  3
Standard
350
848
  0
DICTIONARY
  5
82E
102
{ACAD_REACTORS
330
C
102
}
330
C
100
AcDbDictionary
281
     1
  3
2dWireframe
350
834
  3
Basic
350
833
  3
Brighten
350
83A
  3
ColorChange
350
83E
  3
Conceptual
350
837
  3
Dim
350
839
  3
EdgeColorOff
350
846
  3
Facepattern
350
83D
  3
Flat
350
82F
  3
FlatWithEdges
350
830
  3
Gouraud
350
831
  3
GouraudWithEdges
350
832
  3
Hidden
350
836
  3
JitterOff
350
844
  3
Linepattern
350
83C
  3
OverhangOff
350
845
  3
Realistic
350
838
  3
Shaded
350
843
  3
Shaded with edges
350
842
  3
Shades of Gray
350
83F
  3
Sketchy
350
840
  3
Thicken
350
83B
  3
Wireframe
350
835
  3
X-Ray
350
841
  0
XRECORD
  5
10B4
102
{ACAD_REACTORS
330
C
102
}
330
C
100
AcDbXrecord
280
     1
 90
        1
330
848
  0
DICTIONARY
  5
EA
102
{ACAD_REACTORS
330
C
102
}
330
C
100
AcDbDictionary
281
     1
  3
CANNOSCALE
350
87C
  3
CMLEADERSTYLE
350
878
  3
CTABLESTYLE
350
877
  3
CVIEWDETAILSTYLE
350
879
  3
CVIEWSECTIONSTYLE
350
87A
  3
DIMASSOC
350
EB
  3
LAYEREVAL
350
87E
  3
LAYERNOTIFY
350
87F
  3
LIGHTINGUNITS
350
87D
  3
MSLTSCALE
350
87B
  3
PROJECTNAME
350
EC
  3
XCLIPFRAME
350
10B2
  0
DICTIONARY
  5
E4D
102
{ACAD_REACTORS
330
E4C
102
}
330
E4C
100
AcDbDictionary
281
     1
  0
XRECORD
  5
9C3
102
{ACAD_REACTORS
330
9C2
102
}
330
9C2
100
AcDbXrecord
280
     1
290
     1
  0
XRECORD
  5
9C5
102
{ACAD_REACTORS
330
9C4
102
}
330
9C4
100
AcDbXrecord
280
     1
290
     1
  0
XRECORD
  5
9C7
102
{ACAD_REACTORS
330
9C6
102
}
330
9C6
100
AcDbXrecord
280
     1
290
     1
  0
XRECORD
  5
9C9
102
{ACAD_REACTORS
330
9C8
102
}
330
9C8
100
AcDbXrecord
280
     1
290
     1
  0
XRECORD
  5
9CB
102
{ACAD_REACTORS
330
9CA
102
}
330
9CA
100
AcDbXrecord
280
     1
290
     1
  0
XRECORD
  5
9CD
102
{ACAD_REACTORS
330
9CC
102
}
330
9CC
100
AcDbXrecord
280
     1
290
     1
  0
XRECORD
  5
9CF
102
{ACAD_REACTORS
330
9CE
102
}
330
9CE
100
AcDbXrecord
280
     1
290
     1
  0
XRECORD
  5
9D1
102
{ACAD_REACTORS
330
9D0
102
}
330
9D0
100
AcDbXrecord
280
     1
290
     1
  0
XRECORD
  5
D4
102
{ACAD_REACTORS
330
A0
102
}
330
A0
100
AcDbXrecord
280
     1
340
1E
  0
SORTENTSTABLE
  5
873
102
{ACAD_REACTORS
330
A0
102
}
330
A0
100
AcDbSortentsTable
330
1E
331
77
  5
78
331
80
  5
81
331
8C
  5
8D
331
86
  5
87
331
98
  5
99
331
92
  5
93
331
58
  5
59
331
64
  5
65
331
5E
  5
5F
331
70
  5
71
331
79
  5
7A
331
6A
  5
6B
331
7F
  5
80
331
76
  5
77
331
8B
  5
8C
331
85
  5
86
331
91
  5
92
331
57
  5
58
331
63
  5
64
331
5D
  5
5E
331
78
  5
79
331
69
  5
6A
331
75
  5
76
331
6F
  5
70
331
7E
  5
7F
331
84
  5
85
331
8A
  5
8B
331
90
  5
91
331
3DB
  5
803
331
96
  5
98
331
5C
  5
5D
331
62
  5
63
331
68
  5
69
331
74
  5
75
331
7D
  5
7E
331
6E
  5
6F
331
83
  5
84
331
118
  5
1F4
331
89
  5
8A
331
8F
  5
90
331
3DA
  5
802
331
9B
  5
118
331
95
  5
96
331
5B
  5
5C
331
61
  5
62
331
67
  5
68
331
73
  5
74
331
7C
  5
7D
331
6D
  5
6E
331
88
  5
89
331
82
  5
83
331
8E
  5
8F
331
94
  5
95
331
3D9
  5
801
331
8C7
  5
8DA
331
9A
  5
9B
331
60
  5
61
331
5A
  5
5B
331
66
  5
67
331
7B
  5
7C
331
6C
  5
6D
331
72
  5
73
331
81
  5
82
331
87
  5
88
331
8D
  5
8E
331
93
  5
94
331
3D8
  5
800
331
99
  5
9A
331
59
  5
5A
331
5F
  5
60
331
65
  5
66
331
71
  5
72
331
6B
  5
6C
331
7A
  5
7B
  0
XRECORD
  5
D3
102
{ACAD_REACTORS
330
A2
102
}
330
A2
100
AcDbXrecord
280
     1
340
1A
  0
ACDBDETAILVIEWSTYLE
  5
861
102
{ACAD_REACTORS
330
860
102
}
330
860
100
AcDbModelDocViewStyle
 70
     0
  3
Imperial24
290
     0
100
AcDbDetailViewStyle
 70
     0
 71
     0
 90
        3
 71
     1
340
11
 62
   256
 40
0.24
340
0
 62
   256
 40
0.24
300

 40
0.36
280
     3
 71
     2
340
15
 90
       25
 62
   256
 71
     3
340
11
 62
   256
 40
0.24
 90
        1
 40
0.75
 90
        1
300
%<\AcVar ViewType \f "%tc1">% %<\AcVar ViewDetailId>%\PVARIA %<\AcVar ViewScale \f "%sn">%
 71
     4
340
15
 90
       25
 62
   256
340
15
 90
       25
 62
   256
280
     0
  0
LAYOUT
  5
1D
102
{ACAD_REACTORS
330
19
102
}
330
19
100
AcDbPlotSettings
  1

  2
\\NT_WORK01\HP LaserJet 5000 PCL 6
  4

  6

 40
0.0
 41
0.0
 42
0.0
 43
0.0
 44
0.0
 45
0.0
 46
0.0
 47
0.0
 48
0.0
 49
0.0
140
0.0
141
0.0
142
1.0
143
1.0
 70
   688
 72
     0
 73
     0
 74
     5
  7

 75
    16
147
1.0
 76
     0
 77
     2
 78
   300
148
0.0
149
0.0
100
AcDbLayout
  1
Layout1
 70
     0
 71
     1
 10
0.0
 20
0.0
 11
12.0
 21
9.0
 12
0.0
 22
0.0
 32
0.0
 14
1.000000000000000E+20
 24
1.000000000000000E+20
 34
1.000000000000000E+20
 15
-1.000000000000000E+20
 25
-1.000000000000000E+20
 35
-1.000000000000000E+20
146
0.0
 13
0.0
 23
0.0
 33
0.0
 16
1.0
 26
0.0
 36
0.0
 17
0.0
 27
1.0
 37
0.0
 76
     0
330
1A
  0
LAYOUT
  5
21
102
{ACAD_XDICTIONARY
360
1024
102
}
102
{ACAD_REACTORS
330
19
102
}
330
19
100
AcDbPlotSettings
  1

  2
none_device
  4
Letter_(8.50_x_11.00_Inches)
  6

 40
6.349999904632568
 41
6.349999904632568
 42
6.350006103515625
 43
6.350006103515625
 44
215.8999938964844
 45
279.3999938964844
 46
0.0
 47
0.0
 48
0.0
 49
0.0
140
0.0
141
0.0
142
1.0
143
1.0
 70
 11952
 72
     0
 73
     1
 74
     0
  7

 75
     0
147
1.0
 76
     0
 77
     2
 78
   300
148
2286.722511197659
149
76.92250090747274
100
AcDbLayout
  1
Model
 70
     1
 71
     0
 10
0.0
 20
0.0
 11
12.0
 21
9.0
 12
0.0
 22
0.0
 32
0.0
 14
0.0
 24
0.0
 34
0.0
 15
0.0
 25
0.0
 35
0.0
146
0.0
 13
0.0
 23
0.0
 33
0.0
 16
1.0
 26
0.0
 36
0.0
 17
0.0
 27
1.0
 37
0.0
 76
     0
330
1E
331
80D
  0
MATERIAL
  5
81E
102
{ACAD_XDICTIONARY
360
81F
102
}
102
{ACAD_REACTORS
330
DE
102
}
330
DE
100
AcDbMaterial
  1
ByBlock
 72
     0
 43
0.0208333333333333
 43
0.0
 43
0.0
 43
0.0
 43
0.0
 43
0.0208333333333333
 43
0.0
 43
0.0
 43
0.0
 43
0.0
 43
1.0
 43
0.0
 43
0.0
 43
0.0
 43
0.0
 43
1.0
 77
     0
 47
0.0208333333333333
 47
0.0
 47
0.0
 47
0.0
 47
0.0
 47
0.0208333333333333
 47
0.0
 47
0.0
 47
0.0
 47
0.0
 47
1.0
 47
0.0
 47
0.0
 47
0.0
 47
0.0
 47
1.0
171
     0
 49
0.0208333333333333
 49
0.0
 49
0.0
 49
0.0
 49
0.0
 49
0.0208333333333333
 49
0.0
 49
0.0
 49
0.0
 49
0.0
 49
1.0
 49
0.0
 49
0.0
 49
0.0
 49
0.0
 49
1.0
175
     0
142
0.0208333333333333
142
0.0
142
0.0
142
0.0
142
0.0
142
0.0208333333333333
142
0.0
142
0.0
142
0.0
142
0.0
142
1.0
142
0.0
142
0.0
142
0.0
142
0.0
142
1.0
179
     0
144
0.0208333333333333
144
0.0
144
0.0
144
0.0
144
0.0
144
0.0208333333333333
144
0.0
144
0.0
144
0.0
144
0.0
144
1.0
144
0.0
144
0.0
144
0.0
144
0.0
144
1.0
147
0.0208333333333333
147
0.0
147
0.0
147
0.0
147
0.0
147
0.0208333333333333
147
0.0
147
0.0
147
0.0
147
0.0
147
1.0
147
0.0
147
0.0
147
0.0
147
0.0
147
1.0
  0
MATERIAL
  5
816
102
{ACAD_XDICTIONARY
360
817
102
}
102
{ACAD_REACTORS
330
DE
102
}
330
DE
100
AcDbMaterial
  1
ByLayer
 72
     0
 43
0.0208333333333333
 43
0.0
 43
0.0
 43
0.0
 43
0.0
 43
0.0208333333333333
 43
0.0
 43
0.0
 43
0.0
 43
0.0
 43
1.0
 43
0.0
 43
0.0
 43
0.0
 43
0.0
 43
1.0
 77
     0
 47
0.0208333333333333
 47
0.0
 47
0.0
 47
0.0
 47
0.0
 47
0.0208333333333333
 47
0.0
 47
0.0
 47
0.0
 47
0.0
 47
1.0
 47
0.0
 47
0.0
 47
0.0
 47
0.0
 47
1.0
171
     0
 49
0.0208333333333333
 49
0.0
 49
0.0
 49
0.0
 49
0.0
 49
0.0208333333333333
 49
0.0
 49
0.0
 49
0.0
 49
0.0
 49
1.0
 49
0.0
 49
0.0
 49
0.0
 49
0.0
 49
1.0
175
     0
142
0.0208333333333333
142
0.0
142
0.0
142
0.0
142
0.0
142
0.0208333333333333
142
0.0
142
0.0
142
0.0
142
0.0
142
1.0
142
0.0
142
0.0
142
0.0
142
0.0
142
1.0
179
     0
144
0.0208333333333333
144
0.0
144
0.0
144
0.0
144
0.0
144
0.0208333333333333
144
0.0
144
0.0
144
0.0
144
0.0
144
1.0
144
0.0
144
0.0
144
0.0
144
0.0
144
1.0
147
0.0208333333333333
147
0.0
147
0.0
147
0.0
147
0.0
147
0.0208333333333333
147
0.0
147
0.0
147
0.0
147
0.0
147
1.0
147
0.0
147
0.0
147
0.0
147
0.0
147
1.0
  0
MATERIAL
  5
826
102
{ACAD_XDICTIONARY
360
827
102
}
102
{ACAD_REACTORS
330
DE
102
}
330
DE
100
AcDbMaterial
  1
Global
 72
     0
 43
0.0208333333333333
 43
0.0
 43
0.0
 43
0.0
 43
0.0
 43
0.0208333333333333
 43
0.0
 43
0.0
 43
0.0
 43
0.0
 43
1.0
 43
0.0
 43
0.0
 43
0.0
 43
0.0
 43
1.0
 77
     0
 47
0.0208333333333333
 47
0.0
 47
0.0
 47
0.0
 47
0.0
 47
0.0208333333333333
 47
0.0
 47
0.0
 47
0.0
 47
0.0
 47
1.0
 47
0.0
 47
0.0
 47
0.0
 47
0.0
 47
1.0
171
     0
 49
0.0208333333333333
 49
0.0
 49
0.0
 49
0.0
 49
0.0
 49
0.0208333333333333
 49
0.0
 49
0.0
 49
0.0
 49
0.0
 49
1.0
 49
0.0
 49
0.0
 49
0.0
 49
0.0
 49
1.0
175
     0
142
0.0208333333333333
142
0.0
142
0.0
142
0.0
142
0.0
142
0.0208333333333333
142
0.0
142
0.0
142
0.0
142
0.0
142
1.0
142
0.0
142
0.0
142
0.0
142
0.0
142
1.0
179
     0
144
0.0208333333333333
144
0.0
144
0.0
144
0.0
144
0.0
144
0.0208333333333333
144
0.0
144
0.0
144
0.0
144
0.0
144
1.0
144
0.0
144
0.0
144
0.0
144
0.0
144
1.0
147
0.0208333333333333
147
0.0
147
0.0
147
0.0
147
0.0
147
0.0208333333333333
147
0.0
147
0.0
147
0.0
147
0.0
147
1.0
147
0.0
147
0.0
147
0.0
147
0.0
147
1.0
  0
MLEADERSTYLE
  5
85C
102
{ACAD_XDICTIONARY
360
10E9
102
}
102
{ACAD_REACTORS
330
85B
102
}
330
85B
100
AcDbMLeaderStyle
170
     2
171
     1
172
     0
 90
        2
 40
0.0
 41
0.0
173
     1
 91
-1056964608
340
13
 92
       -2
290
     1
 42
0.09
291
     1
 43
0.36
  3
Standard
 44
0.18
300

342
11
174
     1
178
     6
175
     1
176
     0
 93
-1056964608
 45
0.18
292
     0
297
     0
 46
0.18
 94
-1056964608
 47
1.0
 49
1.0
140
1.0
293
     1
141
0.0
294
     1
177
     0
142
1.0
295
     0
296
     0
143
0.125
1001
ACAD_MLEADERVER
1070
     2
  0
MLINESTYLE
  5
17
102
{ACAD_REACTORS
330
16
102
}
330
16
100
AcDbMlineStyle
  2
STANDARD
 70
     0
  3

 62
   256
 51
90.0
 52
90.0
 71
     2
 49
0.5
 62
   256
  6
BYLAYER
 49
-0.5
 62
   256
  6
BYLAYER
  0
ACDBPLACEHOLDER
  5
F
102
{ACAD_REACTORS
330
E
102
}
330
E
  0
SCALE
  5
84A
102
{ACAD_REACTORS
330
849
102
}
330
849
100
AcDbScale
 70
     0
300
1:1
140
1.0
141
1.0
290
     1
  0
SCALE
  5
84B
102
{ACAD_REACTORS
330
849
102
}
330
849
100
AcDbScale
 70
     0
300
1/128" = 1'-0"
140
0.0078125
141
12.0
290
     0
  0
SCALE
  5
84C
102
{ACAD_REACTORS
330
849
102
}
330
849
100
AcDbScale
 70
     0
300
1/64" = 1'-0"
140
0.015625
141
12.0
290
     0
  0
SCALE
  5
84D
102
{ACAD_REACTORS
330
849
102
}
330
849
100
AcDbScale
 70
     0
300
1/32" = 1'-0"
140
0.03125
141
12.0
290
     0
  0
SCALE
  5
84E
102
{ACAD_REACTORS
330
849
102
}
330
849
100
AcDbScale
 70
     0
300
1/16" = 1'-0"
140
0.0625
141
12.0
290
     0
  0
SCALE
  5
84F
102
{ACAD_REACTORS
330
849
102
}
330
849
100
AcDbScale
 70
     0
300
3/32" = 1'-0"
140
0.09375
141
12.0
290
     0
  0
SCALE
  5
850
102
{ACAD_REACTORS
330
849
102
}
330
849
100
AcDbScale
 70
     0
300
1/8" = 1'-0"
140
0.125
141
12.0
290
     0
  0
SCALE
  5
851
102
{ACAD_REACTORS
330
849
102
}
330
849
100
AcDbScale
 70
     0
300
3/16" = 1'-0"
140
0.1875
141
12.0
290
     0
  0
SCALE
  5
852
102
{ACAD_REACTORS
330
849
102
}
330
849
100
AcDbScale
 70
     0
300
1/4" = 1'-0"
140
0.25
141
12.0
290
     0
  0
SCALE
  5
853
102
{ACAD_REACTORS
330
849
102
}
330
849
100
AcDbScale
 70
     0
300
3/8" = 1'-0"
140
0.375
141
12.0
290
     0
  0
SCALE
  5
854
102
{ACAD_REACTORS
330
849
102
}
330
849
100
AcDbScale
 70
     0
300
1/2" = 1'-0"
140
0.5
141
12.0
290
     0
  0
SCALE
  5
855
102
{ACAD_REACTORS
330
849
102
}
330
849
100
AcDbScale
 70
     0
300
3/4" = 1'-0"
140
0.75
141
12.0
290
     0
  0
SCALE
  5
856
102
{ACAD_REACTORS
330
849
102
}
330
849
100
AcDbScale
 70
     0
300
1" = 1'-0"
140
1.0
141
12.0
290
     0
  0
SCALE
  5
857
102
{ACAD_REACTORS
330
849
102
}
330
849
100
AcDbScale
 70
     0
300
1-1/2" = 1'-0"
140
1.5
141
12.0
290
     0
  0
SCALE
  5
858
102
{ACAD_REACTORS
330
849
102
}
330
849
100
AcDbScale
 70
     0
300
3" = 1'-0"
140
3.0
141
12.0
290
     0
  0
SCALE
  5
859
102
{ACAD_REACTORS
330
849
102
}
330
849
100
AcDbScale
 70
     0
300
6" = 1'-0"
140
6.0
141
12.0
290
     0
  0
SCALE
  5
85A
102
{ACAD_REACTORS
330
849
102
}
330
849
100
AcDbScale
 70
     0
300
1'-0" = 1'-0"
140
12.0
141
12.0
290
     0
  0
ACDBSECTIONVIEWSTYLE
  5
85F
102
{ACAD_REACTORS
330
85D
102
}
330
85D
100
AcDbModelDocViewStyle
 70
     0
  3
Imperial24
290
     0
100
AcDbSectionViewStyle
 70
     0
 71
     0
 90
       78
 71
     1
340
11
 62
   256
 40
0.24
340
0
340
0
 62
   256
 40
0.24
300
I, O, Q, S, X, Z
 40
0.48
 90
        3
 40
0.18
 90
        1
 71
     2
340
85E
 90
       25
 62
   256
340
15
 90
       50
 62
   256
 40
0.24
 40
0.0
 40
0.24
 71
     3
340
11
 62
   256
 40
0.24
 90
        1
 40
0.75
 90
        1
300
%<\AcVar ViewType \f "%tc1">% %<\AcVar ViewSectionStartId>%-%<\AcVar ViewSectionEndId>%\PVARIA %<\AcVar ViewScale \f "%sn">%
 71
     4
 62
   256
 62
   257
300
ANSI31
 40
1.0
 90
        0
290
     0
290
     0
 90
        6
 40
0.0
 40
1.570796326794896
 40
0.2617993877991494
 40
1.308996938995747
 40
-0.2617993877991494
 40
1.832595714594046
  0
TABLESTYLE
  5
848
102
{ACAD_XDICTIONARY
360
9D2
102
}
102
{ACAD_REACTORS
330
847
102
}
330
847
100
AcDbTableStyle
  3
Standard
 70
     0
 71
     0
 40
0.06
 41
0.06
280
     0
281
     0
  7
STANDARD
140
0.18
170
     2
 62
     0
 63
     7
283
     0
274
    -2
284
     1
 64
     0
275
    -2
285
     1
 65
     0
276
    -2
286
     1
 66
     0
277
    -2
287
     1
 67
     0
278
    -2
288
     1
 68
     0
279
    -2
289
     1
 69
     0
  7
STANDARD
140
0.25
170
     5
 62
     0
 63
     7
283
     0
274
    -2
284
     1
 64
     0
275
    -2
285
     1
 65
     0
276
    -2
286
     1
 66
     0
277
    -2
287
     1
 67
     0
278
    -2
288
     1
 68
     0
279
    -2
289
     1
 69
     0
  7
STANDARD
140
0.18
170
     5
 62
     0
 63
     7
283
     0
274
    -2
284
     1
 64
     0
275
    -2
285
     1
 65
     0
276
    -2
286
     1
 66
     0
277
    -2
287
     1
 67
     0
278
    -2
288
     1
 68
     0
279
    -2
289
     1
 69
     0
  0
VISUALSTYLE
  5
834
102
{ACAD_XDICTIONARY
360
10C2
102
}
102
{ACAD_REACTORS
330
82E
102
}
330
82E
100
AcDbVisualStyle
  2
2dWireframe
 70
     4
 71
     0
 72
     2
 73
     0
 90
        0
 40
-0.6
 41
-30.0
 62
     5
 63
     7
421
 16777215
 74
     1
 91
        4
 64
     7
 65
   257
 75
     1
175
     1
 42
1.0
 92
        0
 66
   257
 43
1.0
 76
     1
 77
     6
 78
     2
 67
     7
 79
     5
170
     0
171
     0
290
     0
174
     0
 93
        1
 44
0.0
173
     0
291
     0
 45
0.0
1001
ACAD
1000
AcDbSavedByObjectVersion
1070
     0
  0
VISUALSTYLE
  5
833
102
{ACAD_XDICTIONARY
360
10C0
102
}
102
{ACAD_REACTORS
330
82E
102
}
330
82E
100
AcDbVisualStyle
  2
Basic
 70
     7
 71
     1
 72
     0
 73
     1
 90
        0
 40
-0.6
 41
-30.0
 62
     5
 63
     7
421
 16777215
 74
     0
 91
        4
 64
     7
 65
   257
 75
     1
175
     1
 42
1.0
 92
        8
 66
     7
 43
1.0
 76
     1
 77
     6
 78
     2
 67
     7
 79
     5
170
     0
171
     0
290
     0
174
     0
 93
        1
 44
0.0
173
     0
291
     1
 45
0.0
1001
ACAD
1000
AcDbSavedByObjectVersion
1070
     0
  0
VISUALSTYLE
  5
83A
102
{ACAD_XDICTIONARY
360
10CE
102
}
102
{ACAD_REACTORS
330
82E
102
}
330
82E
100
AcDbVisualStyle
  2
Brighten
 70
    12
 71
     2
 72
     2
 73
     0
 90
        0
 40
-0.6
 41
-30.0
 62
     5
 63
     7
421
 16777215
 74
     1
 91
        4
 64
     7
 65
   257
 75
     1
175
     1
 42
1.0
 92
        8
 66
     7
 43
1.0
 76
     1
 77
     6
 78
     2
 67
     7
 79
     5
170
     0
171
     0
290
     0
174
     0
 93
        1
 44
50.0
173
     0
291
     1
 45
0.0
1001
ACAD
1000
AcDbSavedByObjectVersion
1070
     0
  0
VISUALSTYLE
  5
83E
102
{ACAD_XDICTIONARY
360
10D6
102
}
102
{ACAD_REACTORS
330
82E
102
}
330
82E
100
AcDbVisualStyle
  2
ColorChange
 70
    16
 71
     2
 72
     2
 73
     3
 90
        0
 40
-0.6
 41
-30.0
 62
     5
 63
     8
421
  8421504
 74
     1
 91
        4
 64
     7
 65
   257
 75
     1
175
     1
 42
1.0
 92
        8
 66
     8
424
  8421504
 43
1.0
 76
     1
 77
     6
 78
     2
 67
     7
 79
     5
170
     0
171
     0
290
     0
174
     0
 93
        1
 44
0.0
173
     0
291
     1
 45
0.0
1001
ACAD
1000
AcDbSavedByObjectVersion
1070
     0
  0
VISUALSTYLE
  5
837
102
{ACAD_XDICTIONARY
360
10C8
102
}
102
{ACAD_REACTORS
330
82E
102
}
330
82E
100
AcDbVisualStyle
  2
Conceptual
 70
     9
 71
     3
 72
     2
 73
     0
 90
        0
 40
-0.6
 41
-30.0
 62
     5
 63
     7
421
 16777215
 74
     2
 91
        2
 64
     7
 65
   257
 75
     1
175
     1
 42
179.0
 92
        8
 66
     7
 43
1.0
 76
     1
 77
     6
 78
     2
 67
     7
 79
     3
170
     0
171
     0
290
     0
174
     0
 93
        1
 44
0.0
173
     0
291
     0
 45
0.0
1001
ACAD
1000
AcDbSavedByObjectVersion
1070
     0
  0
VISUALSTYLE
  5
839
102
{ACAD_XDICTIONARY
360
10CC
102
}
102
{ACAD_REACTORS
330
82E
102
}
330
82E
100
AcDbVisualStyle
  2
Dim
 70
    11
 71
     2
 72
     2
 73
     0
 90
        0
 40
-0.6
 41
-30.0
 62
     5
 63
     7
421
 16777215
 74
     1
 91
        4
 64
     7
 65
   257
 75
     1
175
     1
 42
1.0
 92
        8
 66
     7
 43
1.0
 76
     1
 77
     6
 78
     2
 67
     7
 79
     5
170
     0
171
     0
290
     0
174
     0
 93
        1
 44
-50.0
173
     0
291
     1
 45
0.0
1001
ACAD
1000
AcDbSavedByObjectVersion
1070
     0
  0
VISUALSTYLE
  5
846
102
{ACAD_XDICTIONARY
360
10E6
102
}
102
{ACAD_REACTORS
330
82E
102
}
330
82E
100
AcDbVisualStyle
  2
EdgeColorOff
 70
    22
 71
     2
 72
     2
 73
     0
 90
        0
 40
-0.6
 41
-30.0
 62
     5
 63
     7
421
 16777215
 74
     1
 91
        4
 64
     7
 65
   257
 75
     1
175
     1
 42
1.0
 92
        8
 66
     7
 43
1.0
 76
     1
 77
     6
 78
     2
 67
     7
 79
     5
170
     0
171
     0
290
     0
174
     0
 93
        1
 44
0.0
173
     0
291
     1
 45
0.0
1001
ACAD
1000
AcDbSavedByObjectVersion
1070
     0
  0
VISUALSTYLE
  5
83D
102
{ACAD_XDICTIONARY
360
10D4
102
}
102
{ACAD_REACTORS
330
82E
102
}
330
82E
100
AcDbVisualStyle
  2
Facepattern
 70
    15
 71
     2
 72
     2
 73
     0
 90
        0
 40
-0.6
 41
-30.0
 62
     5
 63
     7
421
 16777215
 74
     1
 91
        4
 64
     7
 65
   257
 75
     1
175
     1
 42
1.0
 92
        8
 66
     7
 43
1.0
 76
     1
 77
     6
 78
     2
 67
     7
 79
     5
170
     0
171
     0
290
     0
174
     0
 93
        1
 44
0.0
173
     0
291
     1
 45
0.0
1001
ACAD
1000
AcDbSavedByObjectVersion
1070
     0
  0
VISUALSTYLE
  5
82F
102
{ACAD_XDICTIONARY
360
10B8
102
}
102
{ACAD_REACTORS
330
82E
102
}
330
82E
100
AcDbVisualStyle
  2
Flat
 70
     0
 71
     2
 72
     1
 73
     1
 90
        2
 40
-0.6
 41
30.0
 62
     5
 63
     7
421
 16777215
 74
     0
 91
        0
 64
     7
 65
   257
 75
     1
175
     1
 42
1.0
 92
        8
 66
     7
 43
1.0
 76
     1
 77
     6
 78
     2
 67
     7
 79
     5
170
     0
171
     0
290
     0
174
     0
 93
       13
 44
0.0
173
     0
291
     1
 45
0.0
1001
ACAD
1000
AcDbSavedByObjectVersion
1070
     0
  0
VISUALSTYLE
  5
830
102
{ACAD_XDICTIONARY
360
10BA
102
}
102
{ACAD_REACTORS
330
82E
102
}
330
82E
100
AcDbVisualStyle
  2
FlatWithEdges
 70
     1
 71
     2
 72
     1
 73
     1
 90
        2
 40
-0.6
 41
30.0
 62
     5
 63
     7
421
 16777215
 74
     1
 91
        0
 64
     7
 65
   257
 75
     1
175
     1
 42
1.0
 92
        0
 66
   257
 43
1.0
 76
     1
 77
     6
 78
     2
 67
     7
 79
     5
170
     0
171
     0
290
     0
174
     0
 93
       13
 44
0.0
173
     0
291
     1
 45
0.0
1001
ACAD
1000
AcDbSavedByObjectVersion
1070
     0
  0
VISUALSTYLE
  5
831
102
{ACAD_XDICTIONARY
360
10BC
102
}
102
{ACAD_REACTORS
330
82E
102
}
330
82E
100
AcDbVisualStyle
  2
Gouraud
 70
     2
 71
     2
 72
     2
 73
     1
 90
        2
 40
-0.6
 41
30.0
 62
     5
 63
     7
421
 16777215
 74
     0
 91
        0
 64
     7
 65
   257
 75
     1
175
     1
 42
1.0
 92
        0
 66
     7
 43
1.0
 76
     1
 77
     6
 78
     2
 67
     7
 79
     5
170
     0
171
     0
290
     0
174
     0
 93
       13
 44
0.0
173
     0
291
     1
 45
0.0
1001
ACAD
1000
AcDbSavedByObjectVersion
1070
     0
  0
VISUALSTYLE
  5
832
102
{ACAD_XDICTIONARY
360
10BE
102
}
102
{ACAD_REACTORS
330
82E
102
}
330
82E
100
AcDbVisualStyle
  2
GouraudWithEdges
 70
     3
 71
     2
 72
     2
 73
     1
 90
        2
 40
-0.6
 41
30.0
 62
     5
 63
     7
421
 16777215
 74
     1
 91
        0
 64
     7
 65
   257
 75
     1
175
     1
 42
1.0
 92
        0
 66
   257
 43
1.0
 76
     1
 77
     6
 78
     2
 67
     7
 79
     5
170
     0
171
     0
290
     0
174
     0
 93
       13
 44
0.0
173
     0
291
     1
 45
0.0
1001
ACAD
1000
AcDbSavedByObjectVersion
1070
     0
  0
VISUALSTYLE
  5
836
102
{ACAD_XDICTIONARY
360
10C6
102
}
102
{ACAD_REACTORS
330
82E
102
}
330
82E
100
AcDbVisualStyle
  2
Hidden
 70
     6
 71
     1
 72
     2
 73
     2
 90
        0
 40
-0.6
 41
-30.0
 62
     5
 63
     7
421
 16777215
 74
     2
 91
        2
 64
     7
 65
   257
 75
     2
175
     1
 42
40.0
 92
        0
 66
   257
 43
1.0
 76
     1
 77
     6
 78
     2
 67
     7
 79
     3
170
     0
171
     0
290
     0
174
     0
 93
        1
 44
0.0
173
     0
291
     0
 45
0.0
1001
ACAD
1000
AcDbSavedByObjectVersion
1070
     0
  0
VISUALSTYLE
  5
844
102
{ACAD_XDICTIONARY
360
10E2
102
}
102
{ACAD_REACTORS
330
82E
102
}
330
82E
100
AcDbVisualStyle
  2
JitterOff
 70
    20
 71
     2
 72
     2
 73
     0
 90
        0
 40
-0.6
 41
-30.0
 62
     5
 63
     7
421
 16777215
 74
     1
 91
        4
 64
     7
 65
   257
 75
     1
175
     1
 42
1.0
 92
       10
 66
     7
 43
1.0
 76
     1
 77
     6
 78
     2
 67
     7
 79
     5
170
     0
171
     0
290
     0
174
     0
 93
        1
 44
0.0
173
     0
291
     1
 45
0.0
1001
ACAD
1000
AcDbSavedByObjectVersion
1070
     0
  0
VISUALSTYLE
  5
83C
102
{ACAD_XDICTIONARY
360
10D2
102
}
102
{ACAD_REACTORS
330
82E
102
}
330
82E
100
AcDbVisualStyle
  2
Linepattern
 70
    14
 71
     2
 72
     2
 73
     0
 90
        0
 40
-0.6
 41
-30.0
 62
     5
 63
     7
421
 16777215
 74
     1
 91
        4
 64
     7
 65
   257
 75
     7
175
     7
 42
1.0
 92
        8
 66
     7
 43
1.0
 76
     1
 77
     6
 78
     2
 67
     7
 79
     5
170
     0
171
     0
290
     0
174
     0
 93
        1
 44
0.0
173
     0
291
     1
 45
0.0
1001
ACAD
1000
AcDbSavedByObjectVersion
1070
     0
  0
VISUALSTYLE
  5
845
102
{ACAD_XDICTIONARY
360
10E4
102
}
102
{ACAD_REACTORS
330
82E
102
}
330
82E
100
AcDbVisualStyle
  2
OverhangOff
 70
    21
 71
     2
 72
     2
 73
     0
 90
        0
 40
-0.6
 41
-30.0
 62
     5
 63
     7
421
 16777215
 74
     1
 91
        4
 64
     7
 65
   257
 75
     1
175
     1
 42
1.0
 92
        9
 66
     7
 43
1.0
 76
     1
 77
     6
 78
     2
 67
     7
 79
     5
170
     0
171
     0
290
     0
174
     0
 93
        1
 44
0.0
173
     0
291
     1
 45
0.0
1001
ACAD
1000
AcDbSavedByObjectVersion
1070
     0
  0
VISUALSTYLE
  5
838
102
{ACAD_XDICTIONARY
360
10CA
102
}
102
{ACAD_REACTORS
330
82E
102
}
330
82E
100
AcDbVisualStyle
  2
Realistic
 70
     8
 71
     2
 72
     2
 73
     0
 90
        2
 40
-0.6
 41
30.0
 62
     5
 63
     7
421
 16777215
 74
     0
 91
        0
 64
     7
 65
   257
 75
     1
175
     1
 42
1.0
 92
        8
 66
   257
 43
1.0
 76
     1
 77
     6
 78
     2
 67
     7
 79
     3
170
     0
171
     0
290
     0
174
     0
 93
       13
 44
0.0
173
     0
291
     0
 45
0.0
1001
ACAD
1000
AcDbSavedByObjectVersion
1070
     0
  0
VISUALSTYLE
  5
843
102
{ACAD_XDICTIONARY
360
10E0
102
}
102
{ACAD_REACTORS
330
82E
102
}
330
82E
100
AcDbVisualStyle
  2
Shaded
 70
    27
 71
     2
 72
     2
 73
     1
 90
        2
 40
-0.6
 41
30.0
 62
     5
 63
     7
421
 16777215
 74
     0
 91
        4
 64
     7
 65
   257
 75
     1
175
     1
 42
1.0
 92
        8
 66
   257
 43
1.0
 76
     1
 77
     6
 78
     2
 67
     8
425
  7895160
 79
     3
170
     0
171
     0
290
     0
174
     0
 93
        5
 44
0.0
173
     0
291
     0
 45
0.0
1001
ACAD
1000
AcDbSavedByObjectVersion
1070
     0
  0
VISUALSTYLE
  5
842
102
{ACAD_XDICTIONARY
360
10DE
102
}
102
{ACAD_REACTORS
330
82E
102
}
330
82E
100
AcDbVisualStyle
  2
Shaded with edges
 70
    26
 71
     2
 72
     2
 73
     1
 90
        2
 40
-0.6
 41
30.0
 62
     5
 63
     7
421
 16777215
 74
     1
 91
       10
 64
     7
 65
   257
 75
     2
175
     1
 42
1.0
 92
        8
 66
   257
 43
1.0
 76
     1
 77
     6
 78
     2
 67
     7
 79
     3
170
     0
171
     0
290
     0
174
     0
 93
        5
 44
0.0
173
     0
291
     0
 45
0.0
1001
ACAD
1000
AcDbSavedByObjectVersion
1070
     0
  0
VISUALSTYLE
  5
83F
102
{ACAD_XDICTIONARY
360
10D8
102
}
102
{ACAD_REACTORS
330
82E
102
}
330
82E
100
AcDbVisualStyle
  2
Shades of Gray
 70
    23
 71
     2
 72
     2
 73
     3
 90
        0
 40
-0.6
 41
-30.0
 62
     5
 63
     7
421
 16777215
 74
     2
 91
        2
 64
     7
 65
     7
 75
     1
175
     1
 42
40.0
 92
        8
 66
     7
 43
1.0
 76
     1
 77
     6
 78
     2
 67
     7
 79
     3
170
     0
171
     0
290
     0
174
     0
 93
        1
 44
0.0
173
     0
291
     0
 45
0.0
1001
ACAD
1000
AcDbSavedByObjectVersion
1070
     0
  0
VISUALSTYLE
  5
840
102
{ACAD_XDICTIONARY
360
10DA
102
}
102
{ACAD_REACTORS
330
82E
102
}
330
82E
100
AcDbVisualStyle
  2
Sketchy
 70
    24
 71
     1
 72
     2
 73
     2
 90
        0
 40
-0.6
 41
-30.0
 62
     5
 63
     7
421
 16777215
 74
     2
 91
        2
 64
     7
 65
     7
 75
     1
175
     1
 42
40.0
 92
       11
 66
     7
 43
1.0
 76
     1
 77
     6
 78
     2
 67
     7
 79
     6
170
     0
171
     0
290
     0
174
     0
 93
        1
 44
0.0
173
     0
291
     0
 45
0.0
1001
ACAD
1000
AcDbSavedByObjectVersion
1070
     0
  0
VISUALSTYLE
  5
83B
102
{ACAD_XDICTIONARY
360
10D0
102
}
102
{ACAD_REACTORS
330
82E
102
}
330
82E
100
AcDbVisualStyle
  2
Thicken
 70
    13
 71
     2
 72
     2
 73
     0
 90
        0
 40
-0.6
 41
-30.0
 62
     5
 63
     7
421
 16777215
 74
     1
 91
        4
 64
     7
 65
   257
 75
     1
175
     1
 42
1.0
 92
       12
 66
     7
 43
1.0
 76
     1
 77
     6
 78
     2
 67
     7
 79
     5
170
     0
171
     0
290
     0
174
     0
 93
        1
 44
0.0
173
     0
291
     1
 45
0.0
1001
ACAD
1000
AcDbSavedByObjectVersion
1070
     0
  0
VISUALSTYLE
  5
835
102
{ACAD_XDICTIONARY
360
10C4
102
}
102
{ACAD_REACTORS
330
82E
102
}
330
82E
100
AcDbVisualStyle
  2
Wireframe
 70
     5
 71
     0
 72
     2
 73
     0
 90
        0
 40
-0.6
 41
-30.0
 62
     5
 63
     7
421
 16777215
 74
     1
 91
        4
 64
     7
 65
   257
 75
     1
175
     1
 42
1.0
 92
        0
 66
   257
 43
1.0
 76
     1
 77
     6
 78
     2
 67
     7
 79
     3
170
     0
171
     0
290
     0
174
     0
 93
        1
 44
0.0
173
     0
291
     0
 45
0.0
1001
ACAD
1000
AcDbSavedByObjectVersion
1070
     0
  0
VISUALSTYLE
  5
841
102
{ACAD_XDICTIONARY
360
10DC
102
}
102
{ACAD_REACTORS
330
82E
102
}
330
82E
100
AcDbVisualStyle
  2
X-Ray
 70
    25
 71
     2
 72
     2
 73
     1
 90
        1
 40
0.5
 41
-30.0
 62
     5
 63
     7
421
 16777215
 74
     1
 91
        0
 64
     7
 65
   257
 75
     1
175
     1
 42
1.0
 92
        8
 66
     7
 43
1.0
 76
     1
 77
     6
 78
     2
 67
     7
 79
     3
170
     0
171
     0
290
     0
174
     0
 93
       13
 44
0.0
173
     0
291
     0
 45
0.0
1001
ACAD
1000
AcDbSavedByObjectVersion
1070
     0
  0
DICTIONARYVAR
  5
87C
102
{ACAD_REACTORS
330
EA
102
}
330
EA
100
DictionaryVariables
280
     0
  1
1:1
  0
DICTIONARYVAR
  5
878
102
{ACAD_REACTORS
330
EA
102
}
330
EA
100
DictionaryVariables
280
     0
  1
STANDARD
  0
DICTIONARYVAR
  5
877
102
{ACAD_REACTORS
330
EA
102
}
330
EA
100
DictionaryVariables
280
     0
  1
STANDARD
  0
DICTIONARYVAR
  5
879
102
{ACAD_REACTORS
330
EA
102
}
330
EA
100
DictionaryVariables
280
     0
  1
Imperial24
  0
DICTIONARYVAR
  5
87A
102
{ACAD_REACTORS
330
EA
102
}
330
EA
100
DictionaryVariables
280
     0
  1
Imperial24
  0
DICTIONARYVAR
  5
EB
102
{ACAD_REACTORS
330
EA
102
}
330
EA
100
DictionaryVariables
280
     0
  1
1
  0
DICTIONARYVAR
  5
87E
102
{ACAD_REACTORS
330
EA
102
}
330
EA
100
DictionaryVariables
280
     0
  1
1
  0
DICTIONARYVAR
  5
87F
102
{ACAD_REACTORS
330
EA
102
}
330
EA
100
DictionaryVariables
280
     0
  1
15
  0
DICTIONARYVAR
  5
87D
102
{ACAD_REACTORS
330
EA
102
}
330
EA
100
DictionaryVariables
280
     0
  1
0
  0
DICTIONARYVAR
  5
87B
102
{ACAD_REACTORS
330
EA
102
}
330
EA
100
DictionaryVariables
280
     0
  1
0
  0
DICTIONARYVAR
  5
EC
102
{ACAD_REACTORS
330
EA
102
}
330
EA
100
DictionaryVariables
280
     0
  1

  0
DICTIONARYVAR
  5
10B2
102
{ACAD_REACTORS
330
EA
102
}
330
EA
100
DictionaryVariables
280
     0
  1
2
  0
DICTIONARY
  5
1024
330
21
100
AcDbDictionary
280
     1
281
     1
  3
ADSK_XREC_LAYOUTTHUMBNAIL
360
1025
  0
DICTIONARY
  5
81F
330
81E
100
AcDbDictionary
280
     1
281
     1
  3
ACAD_XREC_ROUNDTRIP
360
10B6
  3
BUMPTILE
360
821
  3
DIFFUSETILE
360
820
  3
OPACITYTILE
360
824
  3
REFLECTIONTILE
360
823
  3
REFRACTIONTILE
360
825
  3
SPECULARTILE
360
822
  0
DICTIONARY
  5
817
330
816
100
AcDbDictionary
280
     1
281
     1
  3
ACAD_XREC_ROUNDTRIP
360
10B5
  3
BUMPTILE
360
819
  3
DIFFUSETILE
360
818
  3
OPACITYTILE
360
81C
  3
REFLECTIONTILE
360
81B
  3
REFRACTIONTILE
360
81D
  3
SPECULARTILE
360
81A
  0
DICTIONARY
  5
827
330
826
100
AcDbDictionary
280
     1
281
     1
  3
ACAD_XREC_ROUNDTRIP
360
10B7
  3
BUMPTILE
360
829
  3
DIFFUSETILE
360
828
  3
OPACITYTILE
360
82C
  3
REFLECTIONTILE
360
82B
  3
REFRACTIONTILE
360
82D
  3
SPECULARTILE
360
82A
  0
DICTIONARY
  5
10E9
330
85C
100
AcDbDictionary
280
     1
281
     1
  3
ACAD_XREC_ROUNDTRIP
360
10EA
  0
DICTIONARY
  5
9D2
330
848
100
AcDbDictionary
280
     1
281
     1
  3
ACAD_ROUNDTRIP_2008_TABLESTYLE_CELLSTYLEMAP
360
10B3
  3
ACAD_XREC_ROUNDTRIP
360
10E8
  0
DICTIONARY
  5
10C2
330
834
100
AcDbDictionary
280
     1
281
     1
  3
ACAD_XREC_ROUNDTRIP
360
10C3
  0
DICTIONARY
  5
10C0
330
833
100
AcDbDictionary
280
     1
281
     1
  3
ACAD_XREC_ROUNDTRIP
360
10C1
  0
DICTIONARY
  5
10CE
330
83A
100
AcDbDictionary
280
     1
281
     1
  3
ACAD_XREC_ROUNDTRIP
360
10CF
  0
DICTIONARY
  5
10D6
330
83E
100
AcDbDictionary
280
     1
281
     1
  3
ACAD_XREC_ROUNDTRIP
360
10D7
  0
DICTIONARY
  5
10C8
330
837
100
AcDbDictionary
280
     1
281
     1
  3
ACAD_XREC_ROUNDTRIP
360
10C9
  0
DICTIONARY
  5
10CC
330
839
100
AcDbDictionary
280
     1
281
     1
  3
ACAD_XREC_ROUNDTRIP
360
10CD
  0
DICTIONARY
  5
10E6
330
846
100
AcDbDictionary
280
     1
281
     1
  3
ACAD_XREC_ROUNDTRIP
360
10E7
  0
DICTIONARY
  5
10D4
330
83D
100
AcDbDictionary
280
     1
281
     1
  3
ACAD_XREC_ROUNDTRIP
360
10D5
  0
DICTIONARY
  5
10B8
330
82F
100
AcDbDictionary
280
     1
281
     1
  3
ACAD_XREC_ROUNDTRIP
360
10B9
  0
DICTIONARY
  5
10BA
330
830
100
AcDbDictionary
280
     1
281
     1
  3
ACAD_XREC_ROUNDTRIP
360
10BB
  0
DICTIONARY
  5
10BC
330
831
100
AcDbDictionary
280
     1
281
     1
  3
ACAD_XREC_ROUNDTRIP
360
10BD
  0
DICTIONARY
  5
10BE
330
832
100
AcDbDictionary
280
     1
281
     1
  3
ACAD_XREC_ROUNDTRIP
360
10BF
  0
DICTIONARY
  5
10C6
330
836
100
AcDbDictionary
280
     1
281
     1
  3
ACAD_XREC_ROUNDTRIP
360
10C7
  0
DICTIONARY
  5
10E2
330
844
100
AcDbDictionary
280
     1
281
     1
  3
ACAD_XREC_ROUNDTRIP
360
10E3
  0
DICTIONARY
  5
10D2
330
83C
100
AcDbDictionary
280
     1
281
     1
  3
ACAD_XREC_ROUNDTRIP
360
10D3
  0
DICTIONARY
  5
10E4
330
845
100
AcDbDictionary
280
     1
281
     1
  3
ACAD_XREC_ROUNDTRIP
360
10E5
  0
DICTIONARY
  5
10CA
330
838
100
AcDbDictionary
280
     1
281
     1
  3
ACAD_XREC_ROUNDTRIP
360
10CB
  0
DICTIONARY
  5
10E0
330
843
100
AcDbDictionary
280
     1
281
     1
  3
ACAD_XREC_ROUNDTRIP
360
10E1
  0
DICTIONARY
  5
10DE
330
842
100
AcDbDictionary
280
     1
281
     1
  3
ACAD_XREC_ROUNDTRIP
360
10DF
  0
DICTIONARY
  5
10D8
330
83F
100
AcDbDictionary
280
     1
281
     1
  3
ACAD_XREC_ROUNDTRIP
360
10D9
  0
DICTIONARY
  5
10DA
330
840
100
AcDbDictionary
280
     1
281
     1
  3
ACAD_XREC_ROUNDTRIP
360
10DB
  0
DICTIONARY
  5
10D0
330
83B
100
AcDbDictionary
280
     1
281
     1
  3
ACAD_XREC_ROUNDTRIP
360
10D1
  0
DICTIONARY
  5
10C4
330
835
100
AcDbDictionary
280
     1
281
     1
  3
ACAD_XREC_ROUNDTRIP
360
10C5
  0
DICTIONARY
  5
10DC
330
841
100
AcDbDictionary
280
     1
281
     1
  3
ACAD_XREC_ROUNDTRIP
360
10DD
  0
XRECORD
  5
1025
102
{ACAD_REACTORS
330
1024
102
}
330
1024
100
AcDbXrecord
280
     1
310
280000000001000096000000010008000000000000960000010000000100000000010000000000000000000000000000C8C8C8FF000000FF000000FF000000FF000000FF000000FF000000FF000000FF000000FF330000FF660000FF990000FFCC0000FFFF0000FF003300FF333300FF663300FF993300FFCC3300FFFF3300
310
FF006600FF336600FF666600FF996600FFCC6600FFFF6600FF009900FF339900FF669900FF999900FFCC9900FFFF9900FF00CC00FF33CC00FF66CC00FF99CC00FFCCCC00FFFFCC00FF00FF00FF33FF00FF66FF00FF99FF00FFCCFF00FFFFFF00FF000033FF330033FF660033FF990033FFCC0033FFFF0033FF003333FF3333
310
33FF663333FF993333FFCC3333FFFF3333FF006633FF336633FF666633FF996633FFCC6633FFFF6633FF009933FF339933FF669933FF999933FFCC9933FFFF9933FF00CC33FF33CC33FF66CC33FF99CC33FFCCCC33FFFFCC33FF00FF33FF33FF33FF66FF33FF99FF33FFCCFF33FFFFFF33FF000066FF330066FF660066FF99
310
0066FFCC0066FFFF0066FF003366FF333366FF663366FF993366FFCC3366FFFF3366FF006666FF336666FF666666FF996666FFCC6666FFFF6666FF009966FF339966FF669966FF999966FFCC9966FFFF9966FF00CC66FF33CC66FF66CC66FF99CC66FFCCCC66FFFFCC66FF00FF66FF33FF66FF66FF66FF99FF66FFCCFF66FF
310
FFFF66FF000099FF330099FF660099FF990099FFCC0099FFFF0099FF003399FF333399FF663399FF993399FFCC3399FFFF3399FF006699FF336699FF666699FF996699FFCC6699FFFF6699FF009999FF339999FF669999FF999999FFCC9999FFFF9999FF00CC99FF33CC99FF66CC99FF99CC99FFCCCC99FFFFCC99FF00FF99
310
FF33FF99FF66FF99FF99FF99FFCCFF99FFFFFF99FF0000CCFF3300CCFF6600CCFF9900CCFFCC00CCFFFF00CCFF0033CCFF3333CCFF6633CCFF9933CCFFCC33CCFFFF33CCFF0066CCFF3366CCFF6666CCFF9966CCFFCC66CCFFFF66CCFF0099CCFF3399CCFF6699CCFF9999CCFFCC99CCFFFF99CCFF00CCCCFF33CCCCFF66CC
310
CCFF99CCCCFFCCCCCCFFFFCCCCFF00FFCCFF33FFCCFF66FFCCFF99FFCCFFCCFFCCFFFFFFCCFF0000FFFF3300FFFF6600FFFF9900FFFFCC00FFFFFF00FFFF0033FFFF3333FFFF6633FFFF9933FFFFCC33FFFFFF33FFFF0066FFFF3366FFFF6666FFFF9966FFFFCC66FFFFFF66FFFF0099FFFF3399FFFF6699FFFF9999FFFFCC
310
99FFFFFF99FFFF00CCFFFF33CCFFFF66CCFFFF99CCFFFFCCCCFFFFFFCCFFFF00FFFFFF33FFFFFF66FFFFFF99FFFFFFCCFFFFFFFFFFFFFF000000FF0D0D0DFF1A1A1AFF282828FF353535FF434343FF505050FF5D5D5DFF6B6B6BFF787878FF868686FF939393FFA1A1A1FFAEAEAEFFBBBBBBFFC9C9C9FFD6D6D6FFE4E4E4FF
310
F1F1F1FFFFFFFFFF000000FF000000FF000000FF000000FF000000FF000000FF000000FF000000FF000000FF000000FF00000000000000000000000000000000000000000000000000000000000000000000000000000000000000000000000000000000000000000000000000000000000000000000000000000000000000
310
00000000000000000000000000000000000000000000000000000000000000000000000000000000000000000000000000000000000000000000000000000000000000000000000000000000000000000000000000000000000000000000000000000000000000000000000000000000000000000000000000000000000000
310
0000000000000000000000000000000000000000000000000000000000000000000000000000000000000000000000000000000000000000000000000000000000000000000000000000000000000000000000000000000000000000000000000000000000000000000000000000000000000000000000000000000000DCDC
310
DCDCDCDCDCDCDCDCDCDCDCDCDCDCDCDCDCDCDCDCDCDCDCDCDCDCDCDCDCDCDCDCDCDCDCDCDCDCDCDCDCDCDCDCDCDCDCDCDCDCDCDCDCDCDCDCDCDCDCDCDCDCDCDCDCDCDCDCDCDCDCDCDCDCDCDCDCDCDCDCDCDCDCDCDCDCDCDCDCDCDCDCDCDCDCDCDCDCDCDCDCDCDCDC0000000000000000000000000000000000000000000000
310
00000000000000000000000000000000000000000000000000000000000000000000000000000000000000000000000000000000000000000000000000000000000000000000000000000000000000000000000000000000000000000000000000000000000000000000000000000000000000000000000000000000000000
310
DC0000000000000000000000000000000000000000000000000000000000000000000000000000000000000000000000000000000000000000000000000000000000000000000000000000000000000000000000000000000000000000000000000000000000000000DC000000000000000000000000000000000000000000
310
00000000000000000000000000000000000000000000000000000000000000000000000000000000000000000000000000000000000000000000000000000000000000000000000000000000000000000000000000000000000000000000000000000000000000000000000000000000000000000000000000000000000000
310
0000DC000000000000000000282828282828282828282828282828282828282828282828282828282828282828282828282828282828282828282828282828282828282828282828282828282828282828282828282828282828282828282828282828282828282828F5F5DC00000000000000000000000000000000000000
310
00000000000000000000000000000000000000000000000000000000000000000000000000000000000000000000000000000000000000000000000000000000000000000000000000000000000000000000000000000000000000000000000000000000000000000000000000000000000000000000000000000000000000
310
00000000DC00000000000000000028F5F5BE000000000000000000BE00000000BE000000000028000000000000000000000000000000000000000028DCDCDCDCDCDCDCDCDCDCDCDCDCDCDCDCDCDCDCDCDCDCDCDCDCDCDCDCDCDCDCDCDCDCDCDCDCDCDCDCDCDCDCDCDCDC00F5F5DC0000000000000000000000000000000000
310
00000000000000000000000000000000000000000000000000000000000000000000000000000000000000000000000000000000000000000000000000000000000000000000000000000000000000000000000000000000000000000000000000000000000000000000000000000000000000000000000000000000000000
310
000000000000DC00000000000000000028F5F5BE0000F5F5F5F5F5F500BE00F5F5F5BE00F5F5F5F528000028282828282800282800282828282828000028000000000000000000000000000000000000000000000000000000000000000000000000000000000000000000000028F5DC000000000000000000000000000000
310
00000000000000000000000000000000000000000000000000000000000000000000000000000000000000000000000000000000000000000000000000000000000000000000000000000000000000000000000000000000000000000000000000000000000000000000000000000000000000000000000000000000000000
310
0000000000000000DC00000000000000000028F5F5BE0000F5F5F5F5F5F500BE00F5F5F5BE00F5F5F5F528000028002828002828282800280028280028280028000000000000000000000000000000000000000000000000000000000000000000000000000000000000000000000028F5DC00000000000000000000000000
310
00000000000000000000000000000000000000000000000000000000000000000000000000000000000000000000000000000000000000000000000000000000000000000000000000000000000000000000000000000000000000000000000000000000000000000000000000000000000000000000000000000000000000
310
00000000000000000000DC00000000000000000028F5F5BE000000000000000000BE00000000BE0000000000280000280028000000282828282828280000002800280000000000000000000000000000000000000000000000000000000000000000000000000000000000000000000000F5F5DC0000000000000000000000
310
00000000000000000000000000000000000000000000000000000000000000000000000000000000000000000000000000000000000000000000000000000000000000000000000000000000000000000000000000000000000000000000000000000000000000000000000000000000000000000000000000000000000000
310
000000000000000000000000DC000000000000000000282828BE282828282828282828BE28282828BE282828282828000028002828002828282800282828280028280028F5F5F5F5F5F5F5F5F5F500000000000000000000000000000000000000000000000000000000000000000000000000F5F5DC000000000000000000
310
00000000000000000000000000000000000000000000000000000000000000000000000000000000000000000000000000000000000000000000000000000000000000000000000000000000000000000000000000000000000000000000000000000000000000000000000000000000000000000000000000000000000000
310
0000000000000000000000000000DC000000000000000000280000BE000000000000000000BE00000000BE000000000028000028002828282828282828282828282828280028F5F5F5F5F5F5F5F5F5F500000000000000000000000000000000000000000000000000000000000000000000000000F5F5DC00000000000000
310
00000000000000000000000000000000000000000000000000000000000000000000000000000000000000000000000000000000000000000000000000000000000000000000000000000000000000000000000000000000000000000000000000000000000000000000000000000000000000000000000000000000000000
310
00000000000000000000000000000000DC000000000000000000280000BE000000000000000000BE00000000BE000000000028000000000000000000000000000000000000000028000000000000000000000000000000000000000000000000000000000000000000000000000000000000000000000028F5DC0000000000
310
00000000000000000000000000000000000000000000000000000000000000000000000000000000000000000000000000000000000000000000000000000000000000000000000000000000000000000000000000000000000000000000000000000000000000000000000000000000000000000000000000000000000000
310
000000000000000000000000000000000000DC00000000000000000028DCDCDCDCDCDCDCDCDCDCDCDCDCDCDCDCDCDCDCDCDCDCDCF5F5F5F5F5282828282828BE28282828282828282828F5F5F5F5F5F5F5F5F5F5F528282828282828282828282828282828282828282828282828282828282828282828282828F5DC000000
310
00000000000000000000000000000000000000000000000000000000000000000000000000000000000000000000000000000000000000000000000000000000000000000000000000000000000000000000000000000000000000000000000000000000000000000000000000000000000000000000000000000000000000
310
0000000000000000000000000000000000000000DC000000000000000000280000BE000000000000000000BE00000000BE0000000000F5F5F5F5BE000000000000BE00000000000000000028F5F5F5F5F5F5F5F5F5F5F500000000000000000000000000000000280000000000000000000000000000000000000028F5F500
310
00000000000000000000000000000000000000000000000000000000000000000000000000000000000000000000000000000000000000000000000000000000000000000000000000000000000000000000000000000000000000000000000000000000000000000000000000000000000000000000000000000000000000
310
00000000000000000000000000000000000000000000DC00000000000000000028DCDCDCDCDCDCDCDCDCDCDCDCDCDCDCDCDCDCDCDCDCDCDCDCDCDCDCDCDCDCDCDCDCDCDCDCDCDCDCDCDCDCDCDCDCF5F5F5F5F5F5F5F5F5F5F5F5F5F5F5F5F5F5F5F5DCDCDCDCDCDC00280000000000000000000000000000000000000028F5
310
F5000000000000000000000000000000000000000000000000000000000000000000000000000000000000000000000000000000000000000000000000000000000000000000000000000000000000000000000000000000000000000000000000000000000000000000000000000000000000000000000000000000000000
310
000000000000000000000000000000000000000000000000DC000000000000000000280000BE000000000000000000BE00000000BE0000000000F5F5F5F5BE000000000000BE00000000000000000028F5F5F5F5F5F5F5F5F5F5F5F5F5F5F5F5F5F5F5F50000000000000028F5F5F5F5F5F500F5F5F5F5F500000000000000
310
F5F5DC00000000000000000000000000000000000000000000000000000000000000000000000000000000000000000000000000000000000000000000000000000000000000000000000000000000000000000000000000000000000000000000000000000000000000000000000000000000000000000000000000000000
310
0000000000000000000000000000000000000000000000000000DC00000000000000000028DCDCDCDCDCDCDCDCDCDCDCDCDCDCDCDCDCDCDCDCDCDCDCF5F5F5F5DCDCDCDCDCDCDCDCDCDCDCDCDCDCDCDCDCDCF5F5F5F5DCF5F5F5F5DCF5F5F5F5F5F5F5F5F5F5DCDCDCDCDCDC00BEBEBEBEBEF5F5BEF5BEBEF5BEBEBEBEBEBE
310
BEBEF5F5DC0000000000000000000000000000000000000000000000000000000000000000000000000000000000000000000000000000000000000000000000000000000000000000000000000000000000000000000000000000000000000000000000000000000000000000000000000000000000000000000000000000
310
00000000000000000000000000000000000000000000000000000000DC000000000000000000280000BE000000000000000000BE00000000BE0000000000F5F5F5F5BE00F5F5F5F5F5BE000000F5F5F50000002800000000000000000000000000000000000000000000000000000028000000000000000000000000000000
310
0000000028F5DC000000000000000000000000000000000000000000000000000000000000000000000000000000000000000000000000000000000000000000000000000000000000000000000000000000000000000000000000000000000000000000000000000000000000000000000000000000000000000000000000
310
000000000000000000000000000000000000000000000000000000000000DC000000000000000000280000BE000000000000000000BE00000000BE0000000000F5F5F500BE00F5F5F5F500BE000000F5F5F5000000280000000000000000000000000000000000000000000000000000002800000000000000000000000000
310
000000000000F5F5DC00000000000000000000000000000000000000000000000000000000000000000000000000000000000000000000000000000000000000000000000000000000000000000000000000000000000000000000000000000000000000000000000000000000000000000000000000000000000000000000
310
0000000000000000000000000000000000000000000000000000000000000000DC00000000000000000028DCDCDCDCDCDCDCDCDCDCDCDCDCDCDCDCDCDCDCDCDCDCDCDCDCDCDCDCDCDCDCF5DCDCDCDCDCDCDCDCDCDCDCDCDCDCF5F5F5F5F5F5DCF5F5F5DCDCDCDCDCDCDCDCDCDCDCDCDCDCDC00280000000000000000000000
310
0000000000000000F5F5DC0000000000000000000000000000000000000000000000000000000000000000000000000000000000000000000000000000000000000000000000000000000000000000000000000000000000000000000000000000000000000000000000000000000000000000000000000000000000000000
310
00000000000000000000000000000000000000000000000000000000000000000000DC000000000000000000280000BE000000000000000000BE00000000BE000000000028F5F5F5BE0000F5F50000BE0000F5F5F5F500000028F5F5F5F5F5F5F500F5F5F50000000000000000000000000000000028F5F5F5F5F5F5F5F5F5
310
0000000000000000000028F5DC000000000000000000000000000000000000000000000000000000000000000000000000000000000000000000000000000000000000000000000000000000000000000000000000000000000000000000000000000000000000000000000000000000000000000000000000000000000000
310
000000000000000000000000000000000000000000000000000000000000000000000000DC00000000000000000028DCDCDCDCDCDCDCDCDCDCDCDCDCDCDCDCDCDCDCDCDCDCDCDCF5F5F5BE2828F5282828BE2828F5F528282828282828F5F5F528282828F528282828282828282828282828282828282828F5F5F5F5F5F5F5
310
F5F52828282828282828282828F5DC00000000000000000000000000000000000000000000000000000000000000000000000000000000000000000000000000000000000000000000000000000000000000000000000000000000000000000000000000000000000000000000000000000000000000000000000000000000
310
0000000000000000000000000000000000000000000000000000000000000000000000000000DC000000000000000000280000BE000000000000000000BE00000000BE00000000002800000000000000000000BE00000000000000000028DCDCDCDCDCDCDCDCDCDCDCDCDCDCDCDCDCDCDCDCDCDCDCDCDCDC0028DCDCDCDCDC
310
DCDCDCDCDCDCDCDCDCDCDCDCDC0028F5DC0000000000000000000000000000000000000000000000000000000000000000000000000000000000000000000000000000000000000000000000000000000000000000000000000000000000000000000000000000000000000000000000000000000000000000000000000000
310
00000000000000000000000000000000000000000000000000000000000000000000000000000000DC000000000000000000280000BE000000000000000000BE00000000BE00000000002800000000000000000000BE0000000000000000002800BEBEBEBEBEBEBEBEBEBEBE0000BEBEBEBEBEBE00BEBEBEBEBE0028000000
310
00000000000000000000000000000000F5F5DC000000000000000000000000000000000000000000000000000000000000000000000000000000000000000000000000000000000000000000000000000000000000000000000000000000000000000000000000000000000000000000000000000000000000000000000000
310
000000000000000000000000000000000000000000000000000000000000000000000000000000000000DC00000000000000000028DCDCDCDCDCDCDCDCDCDCDCDCDCDCDCDCDCDCDCDCDCDCDCDC000000BEBEBEBE000000BEF5F5F5F5F5F5F500F52800BEBEBEBEBEBEBEBEBEBEBEBEBEBEBEBEBEBEBE00BEBEBEBEBE002800
310
0000BEBEBEBEBEBEBEBEBEBEBEBE00000000F5F5DC00000000000000000000000000000000000000000000000000000000000000000000000000000000000000000000000000000000000000000000000000000000000000000000000000000000000000000000000000000000000000000000000000000000000000000000
310
0000000000000000000000000000000000000000000000000000000000000000000000000000000000000000DC000000000000000000280000BE000000000000000000BE00000000BE000000000028000000BEBEBEBE000000BEF5F5F5F5F5F5F5F5F528BEBE00BE00000000BE00BE000000BEBEBE0000BE00BEBEBEBEBE00
310
28000000BEBEBEBEBEBEBEBEBEBEBEBE00000000F5F5DC0000000000000000000000000000000000000000000000000000000000000000000000000000000000000000000000000000000000000000000000000000000000000000000000000000000000000000000000000000000000000000000000000000000000000000
310
00000000000000000000000000000000000000000000000000000000000000000000000000000000000000000000DC00000000000000000028DCDCDCDCDCDCDCDCDCDCDCDCDCDCDCDCDCDCDCDCDCDCDCDC00000000000000000000BE0000000000000000002800000000000000000000000000000000000000000000000000
310
00002800000000000000000000000000000000000000F5F5DC000000000000000000000000000000000000000000000000000000000000000000000000000000000000000000000000000000000000000000000000000000000000000000000000000000000000000000000000000000000000000000000000000000000000
310
000000000000000000000000000000000000000000000000000000000000000000000000000000000000000000000000DC000000000000000000280000BE000000000000000000BE00000000BE00000000002800F5F5F5F5F5F5F50000BEF5F5F500F5F5F5F50028F5F5F5F5F5F5F5F5F50000000000000000000000000000
310
0000000028F5F5F5F5F5F5F5F5F5F5F5F50000000000000028F5F500000000000000000000000000000000000000000000000000000000000000000000000000000000000000000000000000000000000000000000000000000000000000000000000000000000000000000000000000000000000000000000000000000000
310
0000000000000000000000000000000000000000000000000000000000000000000000000000000000000000000000000000DC000000000000000000280000BE000000000000000000BE00000000BE00000000002800F5F5F5F5F5F5F50000BEF5F5F500F5F5F5000028F5F5F5F5F5F5F5F5F5000000000000000000000000
310
00000000000028F5F5F5F5F5F5F5F5F5F5F5F50000000000000028F5F50000000000000000000000000000000000000000000000000000000000000000000000000000000000000000000000000000000000000000000000000000000000000000000000000000000000000000000000000000000000000000000000000000
310
00000000000000000000000000000000000000000000000000000000000000000000000000000000000000000000000000000000DC000000000000000000F5F5F5F5F5F528F5F5F5F5F5F5F5F5F5F528F5F5F5F528282828282828282828282828BE2828282828282828282828282828282828282828282828282828282828
310
2828282828282828282828282828282828282828282828282828282828F5DC000000000000000000000000000000000000000000000000000000000000000000000000000000000000000000000000000000000000000000000000000000000000000000000000000000000000000000000000000000000000000000000000
310
000000000000000000000000000000000000000000000000000000000000000000000000000000000000000000000000000000000000DC000000000000000000F5F5F5F5F5F500F5F5F5F5F5F5F5F5F5F5F5F5F5F5F5F5000000000000000000000000000000000000000000000000BE000000000000000000000000000000
310
000000000000000000000000000000000000000000000000000000000000F5F5DC00000000000000000000000000000000000000000000000000000000000000000000000000000000000000000000000000000000000000000000000000000000000000000000000000000000000000000000000000000000000000000000
310
0000000000000000000000000000000000000000000000000000000000000000000000000000000000000000000000000000000000000000DC000000000000000000F5F500F5F5F50000F5F5F5F5F5F5F5F5F500F5F5F5F5000000000000000000000000000000BEBEBEBEBEBEBEBEBEBEBEBE00BEBE00BEBEBEBEBEBEBEBE
310
BEBEBEBEBEBEBEBE000000000000000000000000000000000000000000000000F5F5DC0000000000000000000000000000000000000000000000000000000000000000000000000000000000000000000000000000000000000000000000000000000000000000000000000000000000000000000000000000000000000000
310
00000000000000000000000000000000000000000000000000000000000000000000000000000000000000000000000000000000000000000000DC00000000000000000028000000000000000000000000000000000000000000000000000000000000000000000000BEBEBEBEBEBEBEBEBEBEBEBE00BEBE00BEBE00BEBEBE
310
0000BEBEBEBEBEBEBEBE000000000000000000000000000000000000000000000000F5F5DC000000000000000000000000000000000000000000000000000000000000000000000000000000000000000000000000000000000000000000000000000000000000000000000000000000000000000000000000000000000000
310
000000000000000000000000000000000000000000000000000000000000000000000000000000000000000000000000000000000000000000000000DC000000000000000000280000000000000000000000000000000000000000000000000000000000000000000000000000000000000000000000000000000000000000
310
000000000000000000000000000000000000000000000000000000000000000000000000F5F5DC00000000000000000000000000000000000000000000000000000000000000000000000000000000000000000000000000000000000000000000000000000000000000000000000000000000000000000000000000000000
310
0000000000000000000000000000000000000000000000000000000000000000000000000000000000000000000000000000000000000000000000000000DC000000000000000000280000000000000000000000000000000000000000000000000000000000000000000000000000000000000000000000000000BEBEBEBE
310
BEBEBEBEBEBEBEBEBEBEBEBEBEBEBEBEBEBEBEBE00000000000000000000000000000000000028F5DC0000000000000000000000000000000000000000000000000000000000000000000000000000000000000000000000000000000000000000000000000000000000000000000000000000000000000000000000000000
310
00000000000000000000000000000000000000000000000000000000000000000000000000000000000000000000000000000000000000000000000000000000DC000000000000000000280000000000000000000000000000000000000000000000000000000000000000000000000000000000000000000000000000BEBE
310
BEBEBEBEBEBEBEBEBEBEBEBEBEBEBEBEBEBEBEBEBEBE00000000000000000000000000000000000028F5DC000000000000000000000000000000000000000000000000000000000000000000000000000000000000000000000000000000000000000000000000000000000000000000000000000000000000000000000000
310
000000000000000000000000000000000000000000000000000000000000000000000000000000000000000000000000000000000000000000000000000000000000DC000000000000000000280000000000000000000000000000000000000000000000000000000000000000000000000000000000000000000000000000
310
00000000BEBEBE00000000BE00000000BEBE00BEBE00BE00000000000000000000000000000000000000F5F5DC00000000000000000000000000000000000000000000000000000000000000000000000000000000000000000000000000000000000000000000000000000000000000000000000000000000000000000000
310
0000000000000000000000000000000000000000000000000000000000000000000000000000000000000000000000000000000000000000000000000000000000000000DC000000000000000000280000000000000000000000000000000000000000000000000000000000000000000000000000BEBEBEBEBEBEBEBEBEBE
310
BE00BEBEBEBEBEBE00BEBEBEBEBEBEBEBEBE00BEBEBEBEBEBEBEBEBEBEBEBEBEBE0000000000000000000000F5F5DC0000000000000000000000000000000000000000000000000000000000000000000000000000000000000000000000000000000000000000000000000000000000000000000000000000000000000000
310
00000000000000000000000000000000000000000000000000000000000000000000000000000000000000000000000000000000000000000000000000000000000000000000DC000000000000000000280000000000000000000000000000000000000000000000000000000000000000000000000000BEBEBEBEBEBEBEBE
310
BEBEBE00BEBEBEBEBEBE00BEBEBEBEBEBEBEBEBE00BEBEBEBEBEBEBEBEBEBEBEBEBEBE0000000000000000000000F5F5DC000000000000000000000000000000000000000000000000000000000000000000000000000000000000000000000000000000000000000000000000000000000000000000000000000000000000
310
000000000000000000000000000000000000000000000000000000000000000000000000000000000000000000000000000000000000000000000000000000000000000000000000DC0000000000000000002800000000000000000000000000000000000000000000000000000000000000000000000000BEBEBEBEBEBEBE
310
BEBEBEBEBE00BEBEBEBEBEBE00BEBEBEBEBEBE00BEBE00BEBEBEBEBEBEBEBEBEBEBEBEBEBE0000000000000000000000F5F5DC00000000000000000000000000000000000000000000000000000000000000000000000000000000000000000000000000000000000000000000000000000000000000000000000000000000
310
0000000000000000000000000000000000000000000000000000000000000000000000000000000000000000000000000000000000000000000000000000000000000000000000000000DC000000000000000000280000000000000000000000000000000000000000000000000000000000000000000000000000BEBEBEBE
310
BEBEBEBEBEBEBE00BEBEBEBEBEBE00BEBEBEBEBEBEBEBEBE00BEBEBEBEBEBEBEBEBEBEBEBEBEBE0000000000000000000000F5F5DC0000000000000000000000000000000000000000000000000000000000000000000000000000000000000000000000000000000000000000000000000000000000000000000000000000
310
00000000000000000000000000000000000000000000000000000000000000000000000000000000000000000000000000000000000000000000000000000000000000000000000000000000DC000000000000000000280000000000000000000000000000000000000000000000000000000000000000000000000000BEBE
310
BEBEBEBEBEBEBEBEBE00BEBEBEBEBEBE00BEBEBEBEBEBEBEBEBE00BEBEBEBEBEBEBEBEBEBEBEBEBEBE000000000000000000000028F5DC000000000000000000000000000000000000000000000000000000000000000000000000000000000000000000000000000000000000000000000000000000000000000000000000
310
000000000000000000000000000000000000000000000000000000000000000000000000000000000000000000000000000000000000000000000000000000000000000000000000000000000000DC000000000000000000280000000000000000000000000000000000000000000000000000000000000000000000000000
310
00000000000000000000000000000000000000000000000000000000000000000000000000000000000000000000000000000000000028F5DC00000000000000000000000000000000000000000000000000000000000000000000000000000000000000000000000000000000000000000000000000000000000000000000
310
0000000000000000000000000000000000000000000000000000000000000000000000000000000000000000000000000000000000000000000000000000000000000000000000000000000000000000DC00000000000000000028000000000000000000000000000000000000000000000000000000000000000000000000
310
000000000000000000000000000000000000000000000000000000000000000000000000000000000000000000000000000000000000000028F5DC0000000000000000000000000000000000000000000000000000000000000000000000000000000000000000000000000000000000000000000000000000000000000000
310
00000000000000000000000000000000000000000000000000000000000000000000000000000000000000000000000000000000000000000000000000000000000000000000000000000000000000000000DC0000000000000000002800000000000000000000000000000000000000000000000000000000000000000000
310
0000000000000000000000000000000000000000000000000000000000000000000000000000000000000000000000000000000000000000000028F5DC000000000000000000000000000000000000000000000000000000000000000000000000000000000000000000000000000000000000000000000000000000000000
310
000000000000000000000000000000000000000000000000000000000000000000000000000000000000000000000000000000000000000000000000000000000000000000000000000000000000000000000000DC000000000000000000280000000000000000000000000000000000000000000000000000000000000000
310
000000000000000000000000000000000000000000000000000000000000000000000000000000000000000000000000000000000000000000000000F5F5DC00000000000000000000000000000000000000000000000000000000000000000000000000000000000000000000000000000000000000000000000000000000
310
0000000000000000000000000000000000000000000000000000000000000000000000000000000000000000000000000000000000000000000000000000000000000000000000000000000000000000000000000000DC00000000000000000028000000000000000000000000000000000000000000000000000000000000
310
000000000000000000000000000000000000000000000000000000000000000000000000000000000000000000000000000000000000000000000000000028F5F50000000000000000000000000000000000000000000000000000000000000000000000000000000000000000000000000000000000000000000000000000
310
00000000000000000000000000000000000000000000000000000000000000000000000000000000000000000000000000000000000000000000000000000000000000000000000000000000000000000000000000000000DC0000000000000000002800000000000000000000000000000000000000000000000000000000
310
0000000000000000000000F5000000000000000000000000F500000000000000000000000000000000000000000000000000000000000000000000000000000028F5DC000000000000000000000000000000000000000000000000000000000000000000000000000000000000000000000000000000000000000000000000
310
000000000000000000000000000000000000000000000000000000000000000000000000000000000000000000000000000000000000000000000000000000000000000000000000000000000000000000000000000000000000DC000000000000000000280000000000000000000000000000000000000000000000000000
310
00000000000000000000000000F5F5F5F5F5F5F5F5F5F5F5F5F5F5000000000000000000000000000000000000000000000000000000000000000000000000000000F5F5DC00000000000000000000000000000000000000000000000000000000000000000000000000000000000000000000000000000000000000000000
310
0000000000000000000000000000000000000000000000000000000000000000000000000000000000000000000000000000000000000000000000000000000000000000000000000000000000000000000000000000000000000000DC00000000000000000028000000000000000000000000000000000000000000000000
310
000000000000000000000000000000F5000000BEBEBEBEBE00000000F500000000000000000000000000000000000000000000000000000000000000000000000000000028F5DC0000000000000000000000000000000000000000000000000000000000000000000000000000000000000000000000000000000000000000
310
00000000000000000000000000000000000000000000000000000000000000000000000000000000000000000000000000000000000000000000000000000000000000000000000000000000000000000000000000000000000000000000DC0000000000000000002800000000000000000000000000000000000000000000
310
0000000000000000000000000000000000F5000000BEBEBEBEBE00000000F500000000000000000000000000000000000000000000000000000000000000000000000000000028F5DC000000000000000000000000000000000000000000000000000000000000000000000000000000000000000000000000000000000000
310
000000000000000000000000000000000000000000000000000000000000000000000000000000000000000000000000000000000000000000000000000000000000000000000000000000000000000000000000000000000000000000000000DC000000000000000000280000000000000000000000000000000000000000
310
00000000000000000000000000000000000000F5000000000000000000000000F500000000000000000000000000000000000000000000000000000000000000000000000000000028F5DC00000000000000000000000000000000000000000000000000000000000000000000000000000000000000000000000000000000
310
0000000000000000000000000000000000000000000000000000000000000000000000000000000000000000000000000000000000000000000000000000000000000000000000000000000000000000000000000000000000000000000000000000DC00000000000000000028000000000000000000000000000000000000
310
000000000000000000000000000000000000000000F50000000000DC000000000000F5000000000000000000000000000000000000000000000000000000000000000000000000000000F5F5DC0000000000000000000000000000000000000000000000000000000000000000000000000000000000000000000000000000
310
00000000000000000000000000000000000000000000000000000000000000000000000000000000000000000000000000000000000000000000000000000000000000000000000000000000000000000000000000000000000000000000000000000000DC0000000000000000002800000000000000000000000000000000
310
0000000000000000000000000000000000000000000000F52828282828DC2828282828F528F5F5F5F5F5F5F5F5F5F5F5F5F5F50000000000000000000000000000000000000000000000000028F5DC000000000000000000000000000000000000000000000000000000000000000000000000000000000000000000000000
310
000000000000000000000000000000000000000000000000000000000000000000000000000000000000000000000000000000000000000000000000000000000000000000000000000000000000000000000000000000000000000000000000000000000000DC000000000000000000280000000000000000000000000000
310
00000000000000000000000000000000000000000000000000F5DCDCDCDCDCDCDCDCDCDCDCDCF500000000000000000000000000F500000000000000000000000000000000000000000000000000F5F5DC00000000000000000000000000000000000000000000000000000000000000000000000000000000000000000000
310
0000000000000000000000000000000000000000000000000000000000000000000000000000000000000000000000000000000000000000000000000000000000000000000000000000000000000000000000000000000000000000000000000000000000000000DC00000000000000000028000000000000000000000000
310
000000000000000000000000000000000000000000000000000000F50000000000DC000000000000F500000000000000000000000000F50000000000000000000000000000000000000000000000000028F5DC0000000000000000000000000000000000000000000000000000000000000000000000000000000000000000
310
00000000000000000000000000000000000000000000000000000000000000000000000000000000000000000000000000000000000000000000000000000000000000000000000000000000000000000000000000000000000000000000000000000000000000000000DC0000000000000000002800000000000000000000
310
000000000000000000000000000000000000000000F5F5F5F5F5F5F5F5F5F5F5F5F500DC000000000000F500000000000000000000000000F500000000000000000000000000000000000000000000000000F5F5DC000000000000000000000000000000000000000000000000000000000000000000000000000000000000
310
000000000000000000000000000000000000000000000000000000000000000000000000000000000000000000000000000000000000000000000000000000000000000000000000000000000000000000000000000000000000000000000000000000000000000000000000DC000000000000000000280000000000000000
310
000000000000000000000000000000000000000000000000BEBEBE00000000F5000000000000000000000000F500000000000000000000000000F50000000000000000000000000000000000000000000000000028F5DC00000000000000000000000000000000000000000000000000000000000000000000000000000000
310
0000000000000000000000000000000000000000000000000000000000000000000000000000000000000000000000000000000000000000000000000000000000000000000000000000000000000000000000000000000000000000000000000000000000000000000000000000DC00000000000000000028000000000000
310
0000000000000000000000000000000000000000000000000000BEBEBE00000000F50000000000DC000000000000F500000000000000000000000000F50000000000000000000000000000000000000000000000000028F5DC0000000000000000000000000000000000000000000000000000000000000000000000000000
310
00000000000000000000000000000000000000000000000000000000000000000000000000000000000000000000000000000000000000000000000000000000000000000000000000000000000000000000000000000000000000000000000000000000000000000000000000000000DC0000000000000000002800000000
310
00000000000000000000000000000000000000000000000000000000BE00BE00000000F50000000000DC000000000000F500000000000000000000000000F500000000000000000000000000000000000000000000000000F5F5DC000000000000000000000000000000000000000000000000000000000000000000000000
310
000000000000000000000000000000000000000000000000000000000000000000000000000000000000000000000000000000000000000000000000000000000000000000000000000000000000000000000000000000000000000000000000000000000000000000000000000000000000DC000000000000000000280000
310
00000000000000000000000000000000000000000000000000000000000000002828282828280000000000DC0000000000002828282828F5F5F5F5F5F5000000F50000000000000000000000000000000000000000000000000028F5DC00000000000000000000000000000000000000000000000000000000000000000000
310
0000000000000000000000000000000000000000000000000000000000000000000000000000000000000000000000000000000000000000000000000000000000000000000000000000000000000000000000000000000000000000000000000000000000000000000000000000000000000000DC00000000000000000028
310
00000000000000000000000000000000000000000000000000000000000000000000F5F5F5F528F50000000000DC000000000000F5F528F5F500000000F5F5000000F50000000000000000000000000000000000000000000000000028F5F50000000000000000000000000000000000000000000000000000000000000000
310
00000000000000000000000000000000000000000000000000000000000000000000000000000000000000000000000000000000000000000000000000000000000000000000000000000000000000000000000000000000000000000000000000000000000000000000000000000000000000000000DC0000000000000000
310
002800000000000000000000000000000000000000000000000000000000000000000000F5F5F5F528F5000000000000000000000000F528F5F5F500000000F5F5000000F50000000000000000000000000000000000000000000000000028F5DC000000000000000000000000000000000000000000000000000000000000
310
000000000000000000000000000000000000000000000000000000000000000000000000000000000000000000000000000000000000000000000000000000000000000000000000000000000000000000000000000000000000000000000000000000000000000000000000000000000000000000000000DC000000000000
310
0000002800000000000000000000000000000000000000000000000000000000000000000000F5F5F5F5F5F50000000000DC000000000000F5F5F5F5F500000000F500000000F50000000000000000000000000000000000000000000000000028F5DC00000000000000000000000000000000000000000000000000000000
310
0000000000000000000000000000000000000000000000000000000000000000000000000000000000000000000000000000000000000000000000000000000000000000000000000000000000000000000000000000000000000000000000000000000000000000000000000000000000000000000000000000DC00000000
310
00000000002800000000000000000000000000000000000000000000000000000000000000000000F5F5F5F5F5F50000000000DC000000000000F5F5F5F5F500000000F500000000F50000000000000000000000000000000000000000000000000028F5DC0000000000000000000000000000000000000000000000000000
310
00000000000000000000000000000000000000000000000000000000000000000000000000000000000000000000000000000000000000000000000000000000000000000000000000000000000000000000000000000000000000000000000000000000000000000000000000000000000000000000000000000000DC0000
310
000000000000002800000000000000000000000000000000000000000000000000000000000000000000F5F5F5F5F5F50000000000DC000000000000F5F500F5F500000000F500000000F50000000000000000000000000000000000000000000000000028F5DC000000000000000000000000000000000000000000000000
310
000000000000000000000000000000000000000000000000000000000000000000000000000000000000000000000000000000000000000000000000000000000000000000000000000000000000000000000000000000000000000000000000000000000000000000000000000000000000000000000000000000000000DC
310
0000000000000000002800000000000000000000000000000000000000000000000000000000000000000000F5F5F5F5F5F50000000000DC000000000000F5F5F5F5F500000000F500000000F50000000000000000000000000000000000000000000000000028F5DC00000000000000000000000000000000000000000000
310
00000000000000000000000000000000000000000000000000000000000000000000000000000000000000000000000000000000000000000000000000000000000000000000000000000000000000000000000000000000000000000000000000000000000000000000000000000000000000000000000000000000000000
310
00DC0000000000000000002800000000000000000000000000000000000000000000000000000000000000000000F5F500F5F5F5000000000000000000000000F5F5F500F500000000F500000000F500000000000000000000000000000000000000000000000000F5F5DC0000000000000000000000000000000000000000
310
00000000000000000000000000000000000000000000000000000000000000000000000000000000000000000000000000000000000000000000000000000000000000000000000000000000000000000000000000000000000000000000000000000000000000000000000000000000000000000000000000000000000000
310
000000DC0000000000000000002800000000000000000000000000000000000000000000000000000000000000000000F5F5F5F5F5F50000000000DC000000000000F5F5F5F5F500000000F500000000F500000000000000000000000000000000000000000000000000F5F5DC000000000000000000000000000000000000
310
00000000000000000000000000000000000000000000000000000000000000000000000000000000000000000000000000000000000000000000000000000000000000000000000000000000000000000000000000000000000000000000000000000000000000000000000000000000000000000000000000000000000000
310
0000000000DC0000000000000000002800000000000000000000000000000000000000000000000000000000000000000000F5F5F5F5F5F50000000000DC000000000000F5F500F5F500000000F500000000F500000000000000000000000000000000000000000000000000F5F5DC00000000000000000000000000000000
310
00000000000000000000000000000000000000000000000000000000000000000000000000000000000000000000000000000000000000000000000000000000000000000000000000000000000000000000000000000000000000000000000000000000000000000000000000000000000000000000000000000000000000
310
00000000000000DC0000000000000000002800000000000000000000000000000000000000000000000000000000000000000000F5F5F5F5F5F50000000000DC000000000000F5F5F5F5F500000000F500000000F500000000000000000000000000000000000000000000000000F5F5DC0000000000000000000000000000
310
00000000000000000000000000000000000000000000000000000000000000000000000000000000000000000000000000000000000000000000000000000000000000000000000000000000000000000000000000000000000000000000000000000000000000000000000000000000000000000000000000000000000000
310
000000000000000000DC0000000000000000002800000000000000000000000000000000000000000000000000000000000000000000F5F500F5F5F50000000000DC000000000000F5F5F500F500000000F500000000F50000000000000000000000000000000000000000000000000028F5DC000000000000000000000000
310
00000000000000000000000000000000000000000000000000000000000000000000000000000000000000000000000000000000000000000000000000000000000000000000000000000000000000000000000000000000000000000000000000000000000000000000000000000000000000000000000000000000000000
310
0000000000000000000000DC0000000000000000002800000000000000000000000000000000000000000000000000000000000000000000F5F5F5F5F5F5000000000000000000000000F5F5F5F5F500000000F500000000F500000000000000000000000000000000000000000000000000F5F5DC00000000000000000000
310
00000000000000000000000000000000000000000000000000000000000000000000000000000000000000000000000000000000000000000000000000000000000000000000000000000000000000000000000000000000000000000000000000000000000000000000000000000000000000000000000000000000000000
310
00000000000000000000000000DC0000000000000000002800000000000000000000000000000000000000000000000000000000000000000000F5F5F5F5F5F50000000000DC000000000000F5F500F5F500000000F500000000F50000000000000000000000000000000000000000000000000028F5DC0000000000000000
310
00000000000000000000000000000000000000000000000000000000000000000000000000000000000000000000000000000000000000000000000000000000000000000000000000000000000000000000000000000000000000000000000000000000000000000000000000000000000000000000000000000000000000
310
000000000000000000000000000000DC0000000000000000002800000000000000000000000000000000000000000000000000000000000000000000F5F5F5F5F5F50000000000DC000000000000F5F5F5F5F500000000F500000000F50000000000000000000000000000000000000000000000000028F5DC000000000000
310
00000000000000000000000000000000000000000000000000000000000000000000000000000000000000000000000000000000000000000000000000000000000000000000000000000000000000000000000000000000000000000000000000000000000000000000000000000000000000000000000000000000000000
310
0000000000000000000000000000000000DC0000000000000000002800000000000000000000000000000000000000000000000000000000000000000000F5F500F5F5F50000000000DC000000000000F5F5F500F500000000F500000000F50000000000000000000000000000000000000000000000000028F5DC00000000
310
00000000000000000000000000000000000000000000000000000000000000000000000000000000000000000000000000000000000000000000000000000000000000000000000000000000000000000000000000000000000000000000000000000000000000000000000000000000000000000000000000000000000000
310
00000000000000000000000000000000000000DCDCDCDCDCDCDCDCDC002800000000000000000000000000000000000000000000000000000000000000000000F5F5F5F5F5F50000000000DC000000000000F5F5F5F5F500000000F500000000F500000000000000000000000000000000000000000000000000F5F5DC0000
310
00000000000000000000000000000000000000000000000000000000000000000000000000000000000000000000000000000000000000000000000000000000000000000000000000000000000000000000000000000000000000000000000000000000000000000000000000000000000000000000000000000000000000
310
000000000000000000000000000000000000000000DC0000000000000000002800000000000000000000000000000000000000000000000000000000000000000000F5F5F5F5F5F5000000000000000000000000F5F500F5F500000000F500000000F500000000000000000000000000000000000000000000000000F5F5DC
310
00000000000000000000000000000000000000000000000000000000000000000000000000000000000000000000000000000000000000000000000000000000000000000000000000000000000000000000000000000000000000000000000000000000000000000000000000000000000000000000000000000000000000
310
0000000000000000000000000000000000000000000000DC0000000000000000002800000000000000000000000000000000000000000000000000000000000000000000F5F5F5F5F5F50000000000DC000000000000F5F5F5F5F500000000F500000000F500000000000000000000000000000000000000000000000000F5
310
F5DC0000000000000000000000000000000000000000000000000000000000000000000000000000000000000000000000000000000000000000000000000000000000000000000000000000000000000000000000000000000000000000000000000000000000000000000000000000000000000000000000000000000000
310
00000000000000000000000000000000000000000000000000DC0000000000000000002800000000000000000000000000000000000000000000000000000000000000000000F5F5DCF5F5F50000000000DC000000000000F5F5F500F500000000F500000000F5000000000000000000000000000000000000000000000000
310
00F5F5DC000000000000000000000000000000000000000000000000000000000000000000000000000000000000000000000000000000000000000000000000000000000000000000000000000000000000000000000000000000000000000000000000000000000000000000000000000000000000000000000000000000
310
000000000000000000000000000000000000000000000000000000DC00000000000000000028000000000000000000000000000000000000000000000000000000000000000000DCF5F5F5F5F5F50000000000DC000000000000F5F5F5F5F500000000F500000000F500000000000000000000000000000000000000000000
310
00000028F5F500000000000000000000000000000000000000000000000000000000000000000000000000000000000000000000000000000000000000000000000000000000000000000000000000000000000000000000000000000000000000000000000000000000000000000000000000000000000000000000000000
310
0000000000000000000000000000000000000000000000000000000000DC0000000000000000002800000000000000000000000000000000000000000000000000000000000000DCDC00F5F5F5F5F5F50000000000DC000000000000F5F500F5F500000000F500000000F50000000000000000000000000000000000000000
310
0000000000F5F5DC0000000000000000000000000000000000000000000000000000000000000000000000000000000000000000000000000000000000000000000000000000000000000000000000000000000000000000000000000000000000000000000000000000000000000000000000000000000000000000000000
310
00000000000000000000000000000000000000000000000000000000000000DC000000000000000000280000000000000000000000000000000000000000000000000000000000DCDC000000F5F5F5F5F5F5000000000000000000000000F5F5F5F5F500000000F500000000F5000000000000000000000000000000000000
310
0000000000000028F5DC000000000000000000000000000000000000000000000000000000000000000000000000000000000000000000000000000000000000000000000000000000000000000000000000000000000000000000000000000000000000000000000000000000000000000000000000000000000000000000
310
000000000000000000000000000000000000000000000000000000000000000000DC00000000000000000028000000000000000000000000000000000000000000000000000000DCDC0000000000F5F500F5F5F50000000000DC000000000000F5F5F500F500000000F500000000F500000000000000000000000000000000
310
00000000000000000028F5DC00000000000000000000000000000000000000000000000000000000000000000000000000000000000000000000000000000000000000000000000000000000000000000000000000000000000000000000000000000000000000000000000000000000000000000000000000000000000000
310
0000000000000000000000000000000000000000000000000000000000000000000000DC0000000000000000002800000000000000000000000000000000000000000000000000DCDC00000000000000F5F5F5F5F5F50000000000DC000000000000F5F5F5F5F500000000F500000000F50000000000000000000000000000
310
0000000000000000000000F5F5DC0000000000000000000000000000000000000000000000000000000000000000000000000000000000000000000000000000000000000000000000000000000000000000000000000000000000000000000000000000000000000000000000000000000000000000000000000000000000
310
00000000000000000000000000000000000000000000000000000000000000000000000000DC000000000000000000280000000000000000000000000000000000000000000000DCDC000000000000000000F5F5F5F5F5F50000000000DC000000000000F5F500F5F500000000F500000000F5000000000000000000000000
310
00000000000000000000000000F5F5DC000000000000000000000000000000000000000000000000000000000000000000000000000000000000000000000000000000000000000000000000000000000000000000000000000000000000000000000000000000000000000000000000000000000000000000000000000000
310
000000000000000000000000000000000000000000000000000000000000000000000000000000DC00000000000000000028000000000000000000000000000000000000000000BEBEDC00000000000000000000F5F5F5F5F5F50000000000DC000000000000F5F5F5F5F500000000F50000BE00F500000000000000000000
310
000000000000000000000000000000F5F5DC00000000000000000000000000000000000000000000000000000000000000000000000000000000000000000000000000000000000000000000000000000000000000000000000000000000000000000000000000000000000000000000000000000000000000000000000000
310
0000000000000000000000000000000000000000000000000000000000000000000000000000000000DC00000000000000000028000000000000000000000000000000000000000000BEBEDC00000000000000000000F5F500F5F5F5000000000000000000000000F5F5F500F500000000F500BEBEBEF50000000000000000
310
0000000000000000000000000000000000F5F5DC0000000000000000000000000000000000000000000000000000000000000000000000000000000000000000000000000000000000000000000000000000000000000000000000000000000000000000000000000000000000000000000000000000000000000000000000
310
00000000000000000000000000000000000000000000000000000000000000000000000000000000000000DC000000000000000000280000000000000000000000000000000000000000BEBEBEDC00000000000000000000F5F5F5F5F5F50000000000DC000000000000F5F5F5F5F500000000F500BEBEBEF5000000000000
310
0000000000000000000000000000000000000028F5DC000000000000000000000000000000000000000000000000000000000000000000000000000000000000000000000000000000000000000000000000000000000000000000000000000000000000000000000000000000000000000000000000000000000000000000
310
000000000000000000000000000000000000000000000000000000000000000000000000000000000000000000DC00000000000000000028000000000000000000000000000000000000000000BEBEDC00000000000000000000F5F5F5F5F5F50000000000DC000000000000F5F500F5F500000000F500BEBEBEF500000000
310
00000000000000000000000000000000000000000028F5DC00000000000000000000000000000000000000000000000000000000000000000000000000000000000000000000000000000000000000000000000000000000000000000000000000000000000000000000000000000000000000000000000000000000000000
310
0000000000000000000000000000000000000000000000000000000000000000000000000000000000000000000000DC00000000000000000028000000000000000000000000000000000000000000BEBEDC00000000000000000000F5F500F5F5F50000000000DC000000000000F5F5F500F50000BE00F500BEBEBEF50000
310
0000000000000000000000000000000000000000000000F5F5DC0000000000000000000000000000000000000000000000000000000000000000000000000000000000000000000000000000000000000000000000000000000000000000000000000000000000000000000000000000000000000000000000000000000000
310
00000000000000000000000000000000000000000000000000000000000000000000000000000000000000000000000000DC000000000000000000280000000000000000000000000000000000000000BEBEBEDC00000000000000000000F5F5F5F5F5F50000000000DC000000000000F5F5F5F5F50000BEBEBE00BEBEBEF5
310
00000000000000000000000000000000000000000000000000F5F5DC000000000000000000000000000000000000000000000000000000000000000000000000000000000000000000000000000000000000000000000000000000000000000000000000000000000000000000000000000000000000000000000000000000
310
000000000000000000000000000000000000000000000000000000000000000000000000000000000000000000000000000000DC000000000000000000280000000000000000000000000000000000000000BEBEBEDC00000000000000000000F5F5F5F5F5F5000000000000000000000000F5F500F5F50000BEBEBE000000
310
00F500000000000000000000000000000000000000000000000000F5F5DC00000000000000000000000000000000000000000000000000000000000000000000000000000000000000000000000000000000000000000000000000000000000000000000000000000000000000000000000000000000000000000000000000
310
0000000000000000000000000000000000000000000000000000000000000000000000000000000000000000000000000000000000DC000000000000000000280000000000000000000000000000000000000000BEBEBEDC00000000000000000000F5F5F5F5F5F50000000000DC000000000000F5F5F5F5F50000BEBEBE00
310
000000F500000000000000000000000000000000000000000000000000F5F5DC0000000000000000000000000000000000000000000000000000000000000000000000000000000000000000000000000000000000000000000000000000000000000000000000000000000000000000000000000000000000000000000000
310
00000000000000000000000000000000000000000000000000000000000000000000000000000000000000000000000000000000000000DC00000000000000000028000000000000000000000000000000000000000000BEBEDC00000000000000000000F5F500F5F5F50000000000DC000000000000F5F5F500F50000BEBE
310
BE00000000F50000000000000000000000000000000000000000000000000028F5DC000000000000000000000000000000000000000000000000000000000000000000000000000000000000000000000000000000000000000000000000000000000000000000000000000000000000000000000000000000000000000000
310
000000000000000000000000000000000000000000000000000000000000000000000000000000000000000000000000000000000000000000DC000000000000000000280000000000000000000000000000000000000000BEBEBEDC00000000000000000000F5F5F5F5F5F500000000DCDCDCDCDCDCDCDCF5F5F5F5F50000
310
BEBEBE00000000F50000000000000000000000000000000000000000000000000028F5DC00000000000000000000000000000000000000000000000000000000000000000000000000000000000000000000000000000000000000000000000000000000000000000000000000000000000000000000000000000000000000
310
0000000000000000000000000000000000000000000000000000000000000000000000000000000000000000000000000000000000000000000000DC00000000000000000028000000000000000000000000000000000000000000BEBEDC0000000000000000000000DCDCF5F5F5DCDCDCDC00DCDCDCDCDCDCDCF5F5F500F5
310
00000000F500000000F500000000000000000000000000000000000000000000000000F5F5DC0000000000000000000000000000000000000000000000000000000000000000000000000000000000000000000000000000000000000000000000000000000000000000000000000000000000000000000000000000000000
310
00000000000000000000000000000000000000000000000000000000000000000000000000000000000000000000000000000000000000000000000000DC00000000000000000028000000000000000000000000000000000000000000BEBEDC00000000000000000000F5F5F5F5F5F5DCDCDCDCDCDC000000000000F5F5F5
310
F5F500000000F500000000F50000000000000000000000000000000000000000000000000028F5DC000000000000000000000000000000000000000000000000000000000000000000000000000000000000000000000000000000000000000000000000000000000000000000000000000000000000000000000000000000
310
000000000000000000000000000000000000000000000000000000000000000000000000000000000000000000000000000000000000000000000000000000DC00000000000000000028000000000000000000000000000000000000000000BEBEDC00000000000000000000F5F500F5F5F50000000000DC000000000000F5
310
F5F500F500000000F500000000F50000000000000000000000000000000000000000000000000028F5F500000000000000000000000000000000000000000000000000000000000000000000000000000000000000000000000000000000000000000000000000000000000000000000000000000000000000000000000000
310
0000000000000000000000000000000000000000000000000000000000000000000000000000000000000000000000000000000000000000000000000000000000DC000000000000000000280000000000000000000000000000000000000000BEBEBEDC00000000000000000000F5F5F5F5F5F50000000000DC0000000000
310
00F5F5F5F5F500000000F500000000F50000000000000000000000000000000000000000000000000028F5F50000000000000000000000000000000000000000000000000000000000000000000000000000000000000000000000000000000000000000000000000000000000000000000000000000000000000000000000
310
00000000000000000000000000000000000000000000000000000000000000000000000000000000000000000000000000000000000000000000000000000000000000DC00000000000000000028000000000000000000000000000000000000000000BEBEDC00000000000000000000F5F5F5F5F5F50000000000DC000000
310
000000F5F500F5F500000000F500000000F50000000000000000000000000000000000000000000000000028F5F5000000000000000000000000000000000000000000000000000000000000000000000000000000000000000000000000000000000000000000000000000000000000000000000000000000000000000000
310
000000000000000000000000000000000000000000000000000000000000000000000000000000000000000000000000000000000000000000000000000000000000000000DC000000000000000000280000000000000000000000000000000000000000000000DC00000000000000000000F5F5F5F5F5F50000000000DC00
310
0000000000F5F5F5F5F500000000F500000000F500000000000000000000000000000000000000000000000000F5F5DC00000000000000000000000000000000000000000000000000000000000000000000000000000000000000000000000000000000000000000000000000000000000000000000000000000000000000
310
0000000000000000000000000000000000000000000000000000000000000000000000000000000000000000000000000000000000000000000000000000000000000000000000DC000000000000000000280000000000000000000000000000000000000000BEBEBEDC00000000000000000000F5F500F5F5F50000000000
310
DC000000000000F5F5F500F500000000F500000000F50000000000000000000000000000000000000000000000000028F5DC0000000000000000000000000000000000000000000000000000000000000000000000000000000000000000000000000000000000000000000000000000000000000000000000000000000000
310
00000000000000000000000000000000000000000000000000000000000000000000000000000000000000000000000000000000000000000000000000000000000000000000000000DC000000000000000000280000000000000000000000000000000000000000BEBEBEDC00000000000000000000F5F5F5F5F5F5000000
310
0000DC000000000000F5F5F5F5F500000000F500000000F50000000000000000000000000000000000000000000000000028F5DC000000000000000000000000000000000000000000000000000000000000000000000000000000000000000000000000000000000000000000000000000000000000000000000000000000
310
000000000000000000000000000000000000000000000000000000000000000000000000000000000000000000000000000000000000000000000000000000000000000000000000000000DC00000000000000000028000000000000000000000000000000000000000000BEBEDC00000000000000000000F5F5F5F5F5F500
310
00000000DC000000000000F5F500F5F500000000F500000000F50000000000000000000000000000000000000000000000000028F5DC00000000000000000000000000000000000000000000000000000000000000000000000000000000000000000000000000000000000000000000000000000000000000000000000000
310
0000000000000000000000000000000000000000000000000000000000000000000000000000000000000000000000000000000000000000000000000000000000000000000000000000000000DC00000000000000000028000000000000000000000000000000000000000000BEBEDC00000000000000000000F5F5F5F5F5
310
F50000000000DC000000000000F5F5F5F5F500000000F500000000F50000000000000000000000000000000000000000000000000028F5DC0000000000000000000000000000000000000000000000000000000000000000000000000000000000000000000000000000000000000000000000000000000000000000000000
310
00000000000000000000000000000000000000000000000000000000000000000000000000000000000000000000000000000000000000000000000000000000000000000000000000000000000000DC00000000000000000028000000000000000000000000000000000000000000BEBEDC00000000000000000000F5F500
310
F5F5F50000000000DC000000000000F5F5F500F500000000F500000000F500000000000000000000000000000000000000000000000000F5F5DC000000000000000000000000000000000000000000000000000000000000000000000000000000000000000000000000000000000000000000000000000000000000000000
310
000000000000000000000000000000000000000000000000000000000000000000000000000000000000000000000000000000000000000000000000000000000000000000000000000000000000000000DC000000000000000000280000000000000000000000000000000000000000BEBEBEDC00000000000000000000F5
310
F5F5F5F5F500BEBEBE00DC000000000000F5F5F5F5F500000000F500000000F50000000000000000000000000000000000000000000000000028F5DC00000000000000000000000000000000000000000000000000000000000000000000000000000000000000000000000000000000000000000000000000000000000000
310
0000000000000000000000000000000000000000000000000000000000000000000000000000000000000000000000000000000000000000000000000000000000000000000000000000000000000000000000DC00000000000000000028000000000000000000000000000000000000000000BEBEDC000000000000000000
310
00F5F5F5F5F5F500BEBEBE00DC000000000000F5F500F5F500000000F500000000F50000000000000000000000000000000000000000000000000028F5DC0000000000000000000000000000000000000000000000000000000000000000000000000000000000000000000000000000000000000000000000000000000000
310
00000000000000000000000000000000000000000000000000000000000000000000000000000000000000000000000000000000000000000000000000000000000000000000000000000000000000000000000000DC00000000000000000028000000000000000000000000000000000000000000BEBEDC00000000000000
310
000000F5F5F5F5F5F500BEBEBE00DC000000000000F5F5F5F5F500000000F500000000F5000000000000000000000000000000000000000000000000002800DC000000000000000000000000000000000000000000000000000000000000000000000000000000000000000000000000000000000000000000000000000000
310
000000000000000000000000000000000000000000000000000000000000000000000000000000000000000000000000000000000000000000000000000000000000000000000000000000000000000000000000000000DC00000000000000000028000000000000000000000000000000000000000000BEBEDC0000000000
310
0000000000F5F500F5F5F500BEBEBE00DC000000000000F5F5F500F500000000F500000000F5000000000000000000000000000000000000000000000000002800DC00000000000000000000000000000000000000000000000000000000000000000000000000000000000000000000000000000000000000000000000000
310
0000000000000000000000000000000000000000000000000000000000000000000000000000000000000000000000000000000000000000000000000000000000000000000000000000000000000000000000000000000000DC000000000000000000280000000000000000000000000000000000000000000000DC000000
310
00000000000000F5F5F5F5F5F500BEBEBE00DC000000000000F5F5F5F5F500000000F500000000F5000000000000000000000000000000000000000000000000002800DC0000000000000000000000000000000000000000000000000000000000000000000000000000000000000000000000000000000000000000000000
310
00000000000000000000000000000000000000000000000000000000000000000000000000000000000000000000000000000000000000000000000000000000000000000000000000000000000000000000000000000000000000DC000000000000000000280000000000000000000000000000000000000000BEBEBEDC00
310
000000000000000000F5F5F5F5F5F500BEBEBE00DC000000000000F5F500F5F500000000F500000000F5000000000000000000000000000000000000000000000000002800DC000000000000000000000000000000000000000000000000000000000000000000000000000000000000000000000000000000000000000000
310
000000000000000000000000000000000000000000000000000000000000000000000000000000000000000000000000000000000000000000000000000000000000000000000000000000000000000000000000000000000000000000DC000000000000000000280000000000000000000000000000000000000000BEBEBE
310
DC00000000000000000000F5F5F5F5F5F50000000000DC000000000000F5F5F5F5F500000000F500000000F5000000000000000000000000000000000000000000000000002800DC00000000000000000000000000000000000000000000000000000000000000000000000000000000000000000000000000000000000000
310
0000000000000000000000000000000000000000000000000000000000000000000000000000000000000000000000000000000000000000000000000000000000000000000000000000000000000000000000000000000000000000000000DC000000000000000000280000000000000000000000000000000000000000BE
310
BEBEDC00000000000000000000F5F500F5F5F50000000000DC000000000000F5F5F500F500000000F500000000F5000000000000000000000000000000000000000000000000002800DC0000000000000000000000000000000000000000000000000000000000000000000000000000000000000000000000000000000000
310
00000000000000000000000000000000000000000000000000000000000000000000000000000000000000000000000000000000000000000000000000000000000000000000000000000000000000000000000000000000000000000000000000DC0000000000000000002800000000000000000000000000000000000000
310
00BEBEBEDC00000000000000000000F5F5F5F5F5F5DCDCDCDCDCDCDCDCDCDCDCDCF5F5F5F5F500000000F500000000F5000000000000000000000000000000000000000000000000002800DC000000000000000000000000000000000000000000000000000000000000000000000000000000000000000000000000000000
310
000000000000000000000000000000000000000000000000000000000000000000000000000000000000000000000000000000000000000000000000000000000000000000000000000000000000000000000000000000000000000000000000000000DC000000000000000000280000000000000000000000000000000000
310
000000BEBEBEDC00000000000000000000F5F5F5F5F5DCDCDCDCDCDCDCDCDCDCDCDCDCF5F500F5F500000000F500000000F5000000000000000000000000000000000000000000000000002800DC00000000000000000000000000000000000000000000000000000000000000000000000000000000000000000000000000
310
0000000000000000000000000000000000000000000000000000000000000000000000000000000000000000000000000000000000000000000000000000000000000000000000000000000000000000000000000000000000000000000000000000000000DC00000000000000000028000000000000000000000000000000
310
0000000000BEBEBEDC00000000000000000000F5F5F5F5F5000000000000DC000000000000F5F5F5F5F500000000F500000000F5000000000000000000000000000000000000000000000000002800DC0000000000000000000000000000000000000000000000000000000000000000000000000000000000000000000000
310
00000000000000000000000000000000000000000000000000000000000000000000000000000000000000000000000000000000000000000000000000000000000000000000000000000000000000000000000000000000000000000000000000000000000000DC0000000000000000002800000000000000000000000000
310
000000000000000000000000000000000000000000F5F500F5F5000000000000DC000000000000F5F5F500F500000000F500000000F5000000000000000000000000000000000000000000000000002800DC000000000000000000000000000000000000000000000000000000000000000000000000000000000000000000
310
000000000000000000000000000000000000000000000000000000000000000000000000000000000000000000000000000000000000000000000000000000000000000000000000000000000000000000000000000000000000000000000000000000000000000000DC000000000000000000280000000000000000000000
310
0000000000000000000000000000000000000000000000F5F5F5F5F5DCDCDCDCDCDCDCDCDCDCDCDCDCF5F5F5F5F500000000F500000000F5000000000000000000000000000000000000000000000000002800DC00000000000000000000000000000000000000000000000000000000000000000000000000000000000000
310
0000000000000000000000000000000000000000000000000000000000000000000000000000000000000000000000000000000000000000000000000000000000000000000000000000000000000000000000000000000000000000000000000000000000000000000000DC00000000000000000028000000000000000000
310
00000000000000000000000000000000000000000000000000F5F5F5F5F5000000000000DC00000000000000F500F5F500000000F500000000F5000000000000000000000000000000000000000000000000002800DC0000000000000000000000000000000000000000000000000000000000000000000000000000000000
310
00000000000000000000000000000000000000000000000000000000000000000000000000000000000000000000000000000000000000000000000000000000000000000000000000000000000000000000000000000000000000000000000000000000000000000000000000DC0000000000000000002800000000000000
310
000000000000000000000000000000000000000000000000000000F5F5F5F5F5000000000000DC00000000000000F5F528F500000000F500000000F5000000000000000000000000000000000000000000000000002800DC000000000000000000000000000000000000000000000000000000000000000000000000000000
310
000000000000000000000000000000000000000000000000000000000000000000000000000000000000000000000000000000000000000000000000000000000000000000000000000000000000000000000000000000000000000000000000000000000000000000000000000000DC000000000000000000280000000000
310
0000000000000000000000000000000000000000000000000000000000F5F5F5F5F5000000000000DC00000000000000F5F5F5F500000000F500000000F5000000000000000000000000000000000000000000000000002800DC00000000000000000000000000000000000000000000000000000000000000000000000000
310
0000000000000000000000000000000000000000000000000000000000000000000000000000000000000000000000000000000000000000000000000000000000000000000000000000000000000000000000000000000000000000000000000000000000000000000000000000000000DC00000000000000000028000000
310
00000000000000000000000000000000000000000000000000000000000000F5F5F5F5F5000000000000DC00000000000000F5F5F5F500000000F5F5000000F5000000000000000000000000000000000000000000000000002800DC0000000000000000000000000000000000000000000000000000000000000000000000
310
00000000000000000000000000000000000000000000000000000000000000000000000000000000000000000000000000000000000000000000000000000000000000000000000000000000000000000000000000000000000000000000000000000000000000000000000000000000000000DC0000000000000000002800
310
000000000000000000000000000000000000000000000000000000000000000000F5F5F5F5F5000000000000DC000000000000F5F5F5F5F500000000F5F5000000F5000000000000000000000000000000000000000000000000002800DC000000000000000000000000000000000000000000000000000000000000000000
310
000000000000000000000000000000000000000000000000000000000000000000000000000000000000000000000000000000000000000000000000000000000000000000000000000000000000000000000000000000000000000000000000000000000000000000000000000000000000000000DC000000000000000000
310
2800000000000000000000000000000000000000000000000000000000000000000000F5F52828F5282828282828DC28282828282828F52828F5F5F5F5F5F5F5F5F5F5F5000000000000000000000000000000000000000000000000002800DC00000000000000000000000000000000000000000000000000000000000000
310
0000000000000000000000000000000000000000000000000000000000000000000000000000000000000000000000000000000000000000000000000000000000000000000000000000000000000000000000000000000000000000000000000000000000000000000000000000000000000000000000DC00000000000000
310
00002800000000000000000000000000000000000000000000000000000000000000000000F5F50000F5000000000000DC000000000000F5000000F500000000000000000000000000000000000000000000000000000000000000000000002800DC0000000000000000000000000000000000000000000000000000000000
310
00000000000000000000000000000000000000000000000000000000000000000000000000000000000000000000000000000000000000000000000000000000000000000000000000000000000000000000000000000000000000000000000000000000000000000000000000000000000000000000000000DC0000000000
310
000000002800000000000000000000000000000000000000000000000000000000000000000000F5F50000F5F5F5F5F5F5F5F5F5F5F5F5F5F5F5000000F500000000000000000000000000000000000000000000000000000000000000000000002800DC000000000000000000000000000000000000000000000000000000
310
000000000000000000000000000000000000000000000000000000000000000000000000000000000000000000000000000000000000000000000000000000000000000000000000000000000000000000000000000000000000000000000000000000000000000000000000000000000000000000000000000000DC000000
310
0000000000002800000000000000000000000000000000000000000000000000000000000000000000F5F50000F50000000000BEBEBEBE00000000F5000000F500000000000000000000000000000000000000000000000000000000000000000000002800DC00000000000000000000000000000000000000000000000000
310
0000000000000000000000000000000000000000000000000000000000000000000000000000000000000000000000000000000000000000000000000000000000000000000000000000000000000000000000000000000000000000000000000000000000000000000000000000000000000000000000000000000000DC00
310
00000000000000002800000000000000000000000000000000000000000000000000000000000000000000F5F50000000000000000BEBEBEBE0000000000000000F500000000000000000000000000000000000000000000000000000000000000000000002800DC0000000000000000000000000000000000000000000000
310
00000000000000000000000000000000000000000000000000000000000000000000000000000000000000000000000000000000000000000000000000000000000000000000000000000000000000000000000000000000000000000000000000000000000000000000000000000000000000000000000000000000000000
310
DC0000000000000000002800000000000000000000000000000000000000000000000000000000000000F5F5F5F5F5F5F5F5F5F5F5F500BEBEBEBE0000000000000000F500000000000000000000000000000000000000000000000000000000000000000000002800DC000000000000000000000000000000000000000000
310
00000000000000000000000000000000000000000000000000000000000000000000000000000000000000000000000000000000000000000000000000000000000000000000000000000000000000000000000000000000000000000000000000000000000000000000000000000000000000000000000000000000000000
310
0000DC000000000000000000280000000000000000000000000000000000000000000000000000000000000000F5F5F5F5F50000BEBEBE0000000000000000000000000000F500000000000000000000000000000000000000000000000000000000000000000000002800DC00000000000000000000000000000000000000
310
00000000000000000000000000000000000000000000000000000000000000000000000000000000000000000000000000000000000000000000000000000000000000000000000000000000000000000000000000000000000000000000000000000000000000000000000000000000000000000000000000000000000000
310
00000000DC0000000000000000002800000000000000000000000000000000000000000000000000000000000000000000F500000000BE00BE0000000000000000000000000000F500000000000000000000000000000000000000000000000000000000000000000000002800DC0000000000000000000000000000000000
310
00000000000000000000000000000000000000000000000000000000000000000000000000000000000000000000000000000000000000000000000000000000000000000000000000000000000000000000000000000000000000000000000000000000000000000000000000000000000000000000000000000000000000
310
000000000000DC0000000000000000002800000000000000000000000000000000000000000000000000000000000000000000F500000000BE00BE0000000000000000000000000000F500000000000000000000000000000000000000000000000000000000000000000000002800DC000000000000000000000000000000
310
00000000000000000000000000000000000000000000000000000000000000000000000000000000000000000000000000000000000000000000000000000000000000000000000000000000000000000000000000000000000000000000000000000000000000000000000000000000000000000000000000000000000000
310
0000000000000000DC0000000000000000002800000000000000000000000000000000000000000000000000000000000000000000F5F5F5F5F5F5F5F5F5F5F5F5F5F5F5F5F5F5F5F5F5F5F500000000000000000000000000000000000000000000000000000000000000000000002800DC00000000000000000000000000
310
00000000000000000000000000000000000000000000000000000000000000000000000000000000000000000000000000000000000000000000000000000000000000000000000000000000000000000000000000000000000000000000000000000000000000000000000000000000000000000000000000000000000000
310
00000000000000000000DC0000000000000000002800000000000000000000000000000000000000000000000000000000000000000000F5000000000000000000BEBEBEBE0000000000000000F500000000000000000000000000000000000000000000000000000000000000000000002800DC0000000000000000000000
310
00000000000000000000000000000000000000000000000000000000000000000000000000000000000000000000000000000000000000000000000000000000000000000000000000000000000000000000000000000000000000000000000000000000000000000000000000000000000000000000000000000000000000
310
000000000000000000000000DC000000000000000000280000000000000000000000000000000000000000000000000000000000000000000000000000000000000000BEBEBEBE00000000000000000000000000000000000000000000000000000000000000000000000000000000000000002800DC000000000000000000
310
00000000000000000000000000000000000000000000000000000000000000000000000000000000000000000000000000000000000000000000000000000000000000000000000000000000000000000000000000000000000000000000000000000000000000000000000000000000000000000000000000000000000000
310
0000000000000000000000000000DC000000000000000000280000000000000000000000000000000000000000000000000000000000000000000000000000000000000000BEBEBEBE00000000000000000000000000000000000000000000000000000000000000000000000000000000000000002800DC00000000000000
310
00000000000000000000000000000000000000000000000000000000000000000000000000000000000000000000000000000000000000000000000000000000000000000000000000000000000000000000000000000000000000000000000000000000000000000000000000000000000000000000000000000000000000
310
00000000000000000000000000000000DC0000000000000000002800000000000000000000000000000000000000000000000000000000000000000000000000000000000000000000000000000000000000000000000000000000000000000000000000000000000000000000000000000000000000002800DC0000000000
310
00000000000000000000000000000000000000000000000000000000000000000000000000000000000000000000000000000000000000000000000000000000000000000000000000000000000000000000000000000000000000000000000000000000000000000000000000000000000000000000000000000000000000
310
000000000000000000000000000000000000DC0000000000000000002800000000000000000000000000000000000000000000000000000000000000000000000000000000000000000000000000000000000000000000000000000000000000000000000000000000000000000000000000000000000000002800DC000000
310
00000000000000000000000000000000000000000000000000000000000000000000000000000000000000000000000000000000000000000000000000000000000000000000000000000000000000000000000000000000000000000000000000000000000000000000000000000000000000000000000000000000000000
310
0000000000000000000000000000000000000000DC0000000000000000002800000000000000000000000000000000000000000000000000000000000000000000000000000000000000000000000000000000000000000000000000000000000000000000000000000000000000000000000000000000000000002800DC00
310
00000000000000000000000000000000000000000000000000000000000000000000000000000000000000000000000000000000000000000000000000000000000000000000000000000000000000000000000000000000000000000000000000000000000000000000000000000000000000000000000000000000000000
310
00000000000000000000000000000000000000000000DC0000000000000000002800000000000000000000000000000000000000000000000000000000000000000000000000000000000000000000000000000000000000000000000000000000000000000000000000000000000000000000000000000000000000002800
310
DC000000000000000000000000000000000000000000000000000000000000000000000000000000000000000000000000000000000000000000000000000000000000000000000000000000000000000000000000000000000000000000000000000000000000000000000000000000000000000000000000000000000000
310
000000000000000000000000000000000000000000000000DC000000000000000000280000000000000000000000000000000000000000000000000000000000000000000000000000000000000000000000000000000000000000000000000000000000000000000000000000000000000000000000000000000000000000
310
2800DC00000000000000000000000000000000000000000000000000000000000000000000000000000000000000000000000000000000000000000000000000000000000000000000000000000000000000000000000000000000000000000000000000000000000000000000000000000000000000000000000000000000
310
0000000000000000000000000000000000000000000000000000DC00000000000000000028000000000000000000000000000000000000000000000000000000000000000000000000000000000000000000000000000000000000000000000000000000000000000000000000000000000000000000000000000000000000
310
00002800DC0000000000000000000000000000000000000000000000000000000000000000000000000000000000000000000000000000000000000000000000000000000000000000000000000000000000000000000000000000000000000000000000000000000000000000000000000000000000000000000000000000
310
00000000000000000000000000000000000000000000000000000000DC0000000000000000002800000000000000000000000000000000000000000000000000000000000000000000000000000000000000000000000000000000000000000000000000000000000000000000000000000000000000000000000000000000
310
000000002800DC000000000000000000000000000000000000000000000000000000000000000000000000000000000000000000000000000000000000000000000000000000000000000000000000000000000000000000000000000000000000000000000000000000000000000000000000000000000000000000000000
310
000000000000000000000000000000000000000000000000000000000000DC000000000000000000280000000000000000000000000000000000000000000000000000000000000000000000000000000000000000000000000000000000000000000000000000000000000000000000000000000000000000000000000000
310
0000000000002800DC00000000000000000000000000000000000000000000000000000000000000000000000000000000000000000000000000000000000000000000000000000000000000000000000000000000000000000000000000000000000000000000000000000000000000000000000000000000000000000000
310
0000000000000000000000000000000000000000000000000000000000000000DC00000000000000000028000000000000000000000000000000000000000000000000000000000000000000000000000000000000000000000000000000000000000000000000000000000000000000000000000000000000000000000000
310
00000000000000002800DC0000000000000000000000000000000000000000000000000000000000000000000000000000000000000000000000000000000000000000000000000000000000000000000000000000000000000000000000000000000000000000000000000000000000000000000000000000000000000000
310
00000000000000000000000000000000000000000000000000000000000000000000DC0000000000000000002828282828282828282828282828282828282828282828282828282828282828282828282828282828282828282828282828282828282828282828282828282828282828282828282828282828282828282828
310
282828282828282828282800DC000000000000000000000000000000000000000000000000000000000000000000000000000000000000000000000000000000000000000000000000000000000000000000000000000000000000000000000000000000000000000000000000000000000000000000000000000000000000
310
000000000000000000000000000000000000000000000000000000000000000000000000DC000000000000000000000000000000000000000000000000000000000000000000000000000000000000000000000000000000000000000000000000000000000000000000000000000000000000000000000000000000000000
310
0000000000000000000000000000DC00000000000000000000000000000000000000000000000000000000000000000000000000000000000000000000000000000000000000000000000000000000000000000000000000000000000000000000000000000000000000000000000000000000000000000000000000000000
310
0000000000000000000000000000000000000000000000000000000000000000000000000000DCDCDCDCDCDCDCDCDCDCDCDCDCDCDCDCDCDCDCDCDCDCDCDCDCDCDCDCDCDCDCDCDCDCDCDCDCDCDCDCDCDCDCDCDCDCDCDCDCDCDCDCDCDCDCDCDCDCDCDCDCDCDCDCDCDCDCDCDCDCDCDCDCDCDCDCDCDCDCDCDCDCDCDCDCDCDCDCDC
310
DCDCDCDCDCDCDCDCDCDCDCDCDCDCDCDCDC0000000000000000000000000000000000000000000000000000000000000000000000000000000000000000000000000000000000000000000000000000000000000000000000000000000000000000000000000000000000000000000000000000000000000000000000000000
310
00000000000000000000000000000000000000000000000000000000000000000000000000000000000000000000000000000000000000000000000000000000000000000000000000000000000000000000000000000000000000000000000000000000000000000000000000000000000000000000000000000000000000
310
00000000000000000000000000000000000000000000000000000000000000000000000000000000000000000000000000000000000000000000000000000000000000000000000000000000000000000000000000000000000000000000
  0
XRECORD
  5
10B6
102
{ACAD_REACTORS
330
81F
102
}
330
81F
100
AcDbXrecord
280
     1
102
MATERIAL
148
0.0
149
0.0
149
0.0
 93
        0
 94
      127
282
     0
 72
     0
 77
     0
171
     0
175
     0
179
     0
273
     0
  0
XRECORD
  5
821
102
{ACAD_REACTORS
330
81F
102
}
330
81F
100
AcDbXrecord
280
     1
270
     1
271
     1
  0
XRECORD
  5
820
102
{ACAD_REACTORS
330
81F
102
}
330
81F
100
AcDbXrecord
280
     1
270
     1
271
     1
  0
XRECORD
  5
824
102
{ACAD_REACTORS
330
81F
102
}
330
81F
100
AcDbXrecord
280
     1
270
     1
271
     1
  0
XRECORD
  5
823
102
{ACAD_REACTORS
330
81F
102
}
330
81F
100
AcDbXrecord
280
     1
270
     1
271
     1
  0
XRECORD
  5
825
102
{ACAD_REACTORS
330
81F
102
}
330
81F
100
AcDbXrecord
280
     1
270
     1
271
     1
  0
XRECORD
  5
822
102
{ACAD_REACTORS
330
81F
102
}
330
81F
100
AcDbXrecord
280
     1
270
     1
271
     1
  0
XRECORD
  5
10B5
102
{ACAD_REACTORS
330
817
102
}
330
817
100
AcDbXrecord
280
     1
102
MATERIAL
148
0.0
149
0.0
149
0.0
 93
        0
 94
      127
282
     0
 72
     0
 77
     0
171
     0
175
     0
179
     0
273
     0
  0
XRECORD
  5
819
102
{ACAD_REACTORS
330
817
102
}
330
817
100
AcDbXrecord
280
     1
270
     1
271
     1
  0
XRECORD
  5
818
102
{ACAD_REACTORS
330
817
102
}
330
817
100
AcDbXrecord
280
     1
270
     1
271
     1
  0
XRECORD
  5
81C
102
{ACAD_REACTORS
330
817
102
}
330
817
100
AcDbXrecord
280
     1
270
     1
271
     1
  0
XRECORD
  5
81B
102
{ACAD_REACTORS
330
817
102
}
330
817
100
AcDbXrecord
280
     1
270
     1
271
     1
  0
XRECORD
  5
81D
102
{ACAD_REACTORS
330
817
102
}
330
817
100
AcDbXrecord
280
     1
270
     1
271
     1
  0
XRECORD
  5
81A
102
{ACAD_REACTORS
330
817
102
}
330
817
100
AcDbXrecord
280
     1
270
     1
271
     1
  0
XRECORD
  5
10B7
102
{ACAD_REACTORS
330
827
102
}
330
827
100
AcDbXrecord
280
     1
102
MATERIAL
148
0.0
149
0.0
149
0.0
 93
        0
 94
      127
282
     0
 72
     0
 77
     0
171
     0
175
     0
179
     0
273
     0
  0
XRECORD
  5
829
102
{ACAD_REACTORS
330
827
102
}
330
827
100
AcDbXrecord
280
     1
270
     1
271
     1
  0
XRECORD
  5
828
102
{ACAD_REACTORS
330
827
102
}
330
827
100
AcDbXrecord
280
     1
270
     1
271
     1
  0
XRECORD
  5
82C
102
{ACAD_REACTORS
330
827
102
}
330
827
100
AcDbXrecord
280
     1
270
     1
271
     1
  0
XRECORD
  5
82B
102
{ACAD_REACTORS
330
827
102
}
330
827
100
AcDbXrecord
280
     1
270
     1
271
     1
  0
XRECORD
  5
82D
102
{ACAD_REACTORS
330
827
102
}
330
827
100
AcDbXrecord
280
     1
270
     1
271
     1
  0
XRECORD
  5
82A
102
{ACAD_REACTORS
330
827
102
}
330
827
100
AcDbXrecord
280
     1
270
     1
271
     1
  0
XRECORD
  5
10EA
102
{ACAD_REACTORS
330
10E9
102
}
330
10E9
100
AcDbXrecord
280
     1
102
ACAD_ROUNDTRIP_2012_MLEADER_STYLE
298
     1
  0
CELLSTYLEMAP
  5
10B3
102
{ACAD_REACTORS
330
9D2
102
}
330
9D2
100
AcDbCellStyleMap
 90
        3
300
CELLSTYLE
  1
TABLEFORMAT_BEGIN
 90
        5
170
     1
 91
        0
 92
    32768
 62
   257
 93
        1
300
CONTENTFORMAT
  1
CONTENTFORMAT_BEGIN
 90
        0
 91
        0
 92
      512
 93
        0
300

 40
0.0
140
1.0
 94
        5
 62
     0
340
11
144
0.25
309
CONTENTFORMAT_END
171
     0
 94
        0
309
TABLEFORMAT_END
  1
CELLSTYLE_BEGIN
 90
        1
 91
        1
300
_TITLE
309
CELLSTYLE_END
300
CELLSTYLE
  1
TABLEFORMAT_BEGIN
 90
        5
170
     1
 91
        0
 92
        0
 62
   257
 93
        1
300
CONTENTFORMAT
  1
CONTENTFORMAT_BEGIN
 90
        0
 91
        0
 92
      512
 93
        0
300

 40
0.0
140
1.0
 94
        5
 62
     0
340
11
144
0.18
309
CONTENTFORMAT_END
171
     0
 94
        0
309
TABLEFORMAT_END
  1
CELLSTYLE_BEGIN
 90
        2
 91
        1
300
_HEADER
309
CELLSTYLE_END
300
CELLSTYLE
  1
TABLEFORMAT_BEGIN
 90
        5
170
     1
 91
        0
 92
        0
 62
   257
 93
        1
300
CONTENTFORMAT
  1
CONTENTFORMAT_BEGIN
 90
        0
 91
        0
 92
      512
 93
        0
300

 40
0.0
140
1.0
 94
        2
 62
     0
340
11
144
0.18
309
CONTENTFORMAT_END
171
     0
 94
        0
309
TABLEFORMAT_END
  1
CELLSTYLE_BEGIN
 90
        3
 91
        2
300
_DATA
309
CELLSTYLE_END
  0
XRECORD
  5
10E8
102
{ACAD_REACTORS
330
9D2
102
}
330
9D2
100
AcDbXrecord
280
     1
102
ACAD_ROUNDTRIP_PRE2007_TABLESTYLE
 90
      512
 91
        0
  1

 92
      512
 93
        0
  2

 94
      512
 95
        0
  3

  0
XRECORD
  5
10C3
102
{ACAD_REACTORS
330
10C2
102
}
330
10C2
100
AcDbXrecord
280
     1
102
RTVSPost2010Prop28
280
     1
102
RTVSPost2010PropOp28
 70
     1
102
RTVSPost2010Prop29
280
     1
102
RTVSPost2010PropOp29
 70
     1
102
RTVSPost2010Prop30
280
     0
102
RTVSPost2010PropOp30
 70
     1
102
RTVSPost2010Prop31
280
     0
102
RTVSPost2010PropOp31
 70
     1
102
RTVSPost2010Prop32
280
     0
102
RTVSPost2010PropOp32
 70
     1
102
RTVSPost2010Prop33
280
     0
102
RTVSPost2010PropOp33
 70
     1
102
RTVSPost2010Prop34
280
     0
102
RTVSPost2010PropOp34
 70
     1
102
RTVSPost2010Prop35
280
     0
102
RTVSPost2010PropOp35
 70
     1
102
RTVSPost2010Prop36
280
     0
102
RTVSPost2010PropOp36
 70
     1
102
RTVSPost2010Prop37
 90
       50
102
RTVSPost2010PropOp37
 70
     1
102
RTVSPost2010Prop38
140
0.0
102
RTVSPost2010PropOp38
 70
     1
102
RTVSPost2010Prop39
140
1.0
102
RTVSPost2010PropOp39
 70
     1
102
RTVSPost2010Prop40
 90
        0
102
RTVSPost2010PropOp40
 70
     1
102
RTVSPost2010Prop41ColorIndex
 90
       18
102
RTVSPost2010Prop41ColorRGB
 90
        0
102
RTVSPost2010PropOp41
 70
     1
102
RTVSPost2010Prop42
 90
       50
102
RTVSPost2010PropOp42
 70
     1
102
RTVSPost2010Prop43
 90
        3
102
RTVSPost2010PropOp43
 70
     1
102
RTVSPost2010Prop44ColorIndex
 90
        5
102
RTVSPost2010Prop44ColorRGB
 90
      255
102
RTVSPost2010PropOp44
 70
     1
102
RTVSPost2010Prop45
280
     0
102
RTVSPost2010PropOp45
 70
     1
102
RTVSPost2010Prop46
 90
       50
102
RTVSPost2010PropOp46
 70
     1
102
RTVSPost2010Prop47
 90
       50
102
RTVSPost2010PropOp47
 70
     1
102
RTVSPost2010Prop48
 90
       50
102
RTVSPost2010PropOp48
 70
     1
102
RTVSPost2010Prop49
280
     0
102
RTVSPost2010PropOp49
 70
     1
102
RTVSPost2010Prop50
 90
       50
102
RTVSPost2010PropOp50
 70
     1
102
RTVSPost2010Prop51ColorIndex
 90
      256
102
RTVSPost2010Prop51ColorRGB
 90
-16777216
102
RTVSPost2010PropOp51
 70
     0
102
RTVSPost2010Prop52
140
1.0
102
RTVSPost2010PropOp52
 70
     0
102
RTVSPost2010Prop53
 90
        2
102
RTVSPost2010PropOp53
 70
     1
102
RTVSPost2010Prop54
  1
strokes_ogs.tif
102
RTVSPost2010PropOp54
 70
     1
102
RTVSPost2010Prop55
280
     0
102
RTVSPost2010PropOp55
 70
     1
102
RTVSPost2010Prop56
140
1.0
102
RTVSPost2010PropOp56
 70
     1
102
RTVSPost2010Prop57
140
1.0
102
RTVSPost2010PropOp57
 70
     1
102
RTVSPropertyOp0
 70
     1
102
RTVSPropertyOp1
 70
     1
102
RTVSPropertyOp2
 70
     1
102
RTVSPropertyOp3
 70
     1
102
RTVSPropertyOp4
 70
     1
102
RTVSPropertyOp5
 70
     1
102
RTVSPropertyOp6
 70
     1
102
RTVSPropertyOp7
 70
     1
102
RTVSPropertyOp8
 70
     1
102
RTVSPropertyOp9
 70
     1
102
RTVSPropertyOp10
 70
     1
102
RTVSPropertyOp11
 70
     1
102
RTVSPropertyOp12
 70
     1
102
RTVSPropertyOp13
 70
     1
102
RTVSPropertyOp14
 70
     1
102
RTVSPropertyOp15
 70
     1
102
RTVSPropertyOp16
 70
     1
102
RTVSPropertyOp17
 70
     1
102
RTVSPropertyOp18
 70
     1
102
RTVSPropertyOp19
 70
     1
102
RTVSPropertyOp20
 70
     1
102
RTVSPropertyOp21
 70
     1
102
RTVSPropertyOp22
 70
     1
102
RTVSPropertyOp23
 70
     1
102
RTVSPropertyOp24
 70
     1
102
RTVSPropertyOp25
 70
     1
102
RTVSPropertyOp26
 70
     1
102
RTVSPropertyOp27
 70
     1
102
RTVSPropertyOp28
 70
     1
102
RTVSPropertyOp29
 70
     1
102
RTVSPropertyOp30
 70
     1
102
RTVSPropertyOp31
 70
     1
102
RTVSPropertyOp32
 70
     1
102
RTVSPropertyOp33
 70
     1
102
RTVSPropertyOp34
 70
     1
102
RTVSPropertyOp35
 70
     1
102
RTVSPropertyOp36
 70
     1
102
RTVSPropertyOp37
 70
     1
102
RTVSPropertyOp38
 70
     1
102
RTVSPropertyOp39
 70
     1
102
RTVSPropertyOp40
 70
     1
102
RTVSPropertyOp41
 70
     1
102
RTVSPropertyOp42
 70
     1
102
RTVSPropertyOp43
 70
     1
102
RTVSPropertyOp44
 70
     1
102
RTVSPropertyOp45
 70
     1
102
RTVSPropertyOp46
 70
     1
102
RTVSPropertyOp47
 70
     1
102
RTVSPropertyOp48
 70
     1
102
RTVSPropertyOp49
 70
     1
102
RTVSPropertyOp50
 70
     1
102
RTVSPropertyOp51
 70
     0
102
RTVSPropertyOp52
 70
     0
102
RTVSPropertyOp53
 70
     1
102
RTVSPropertyOp54
 70
     1
102
RTVSPropertyOp55
 70
     1
102
RTVSPropertyOp56
 70
     1
102
RTVSPropertyOp57
 70
     1
102
RTVSPropertyOp58
 70
     1
102
RTVSPropertyOp59
 70
     1
102
RTVSPropertyOp60
 70
     1
102
RTVSPropertyOp61
 70
     1
102
RTVSPropertyOp62
 70
     1
  0
XRECORD
  5
10C1
102
{ACAD_REACTORS
330
10C0
102
}
330
10C0
100
AcDbXrecord
280
     1
102
RTVSPost2010Prop28
280
     0
102
RTVSPost2010PropOp28
 70
     1
102
RTVSPost2010Prop29
280
     1
102
RTVSPost2010PropOp29
 70
     1
102
RTVSPost2010Prop30
280
     1
102
RTVSPost2010PropOp30
 70
     1
102
RTVSPost2010Prop31
280
     0
102
RTVSPost2010PropOp31
 70
     1
102
RTVSPost2010Prop32
280
     0
102
RTVSPost2010PropOp32
 70
     1
102
RTVSPost2010Prop33
280
     0
102
RTVSPost2010PropOp33
 70
     1
102
RTVSPost2010Prop34
280
     0
102
RTVSPost2010PropOp34
 70
     1
102
RTVSPost2010Prop35
280
     0
102
RTVSPost2010PropOp35
 70
     1
102
RTVSPost2010Prop36
280
     0
102
RTVSPost2010PropOp36
 70
     1
102
RTVSPost2010Prop37
 90
       50
102
RTVSPost2010PropOp37
 70
     1
102
RTVSPost2010Prop38
140
0.0
102
RTVSPost2010PropOp38
 70
     1
102
RTVSPost2010Prop39
140
1.0
102
RTVSPost2010PropOp39
 70
     1
102
RTVSPost2010Prop40
 90
        0
102
RTVSPost2010PropOp40
 70
     1
102
RTVSPost2010Prop41ColorIndex
 90
       18
102
RTVSPost2010Prop41ColorRGB
 90
        0
102
RTVSPost2010PropOp41
 70
     1
102
RTVSPost2010Prop42
 90
       50
102
RTVSPost2010PropOp42
 70
     1
102
RTVSPost2010Prop43
 90
        3
102
RTVSPost2010PropOp43
 70
     1
102
RTVSPost2010Prop44ColorIndex
 90
        5
102
RTVSPost2010Prop44ColorRGB
 90
      255
102
RTVSPost2010PropOp44
 70
     1
102
RTVSPost2010Prop45
280
     0
102
RTVSPost2010PropOp45
 70
     1
102
RTVSPost2010Prop46
 90
       50
102
RTVSPost2010PropOp46
 70
     1
102
RTVSPost2010Prop47
 90
       50
102
RTVSPost2010PropOp47
 70
     1
102
RTVSPost2010Prop48
 90
       50
102
RTVSPost2010PropOp48
 70
     1
102
RTVSPost2010Prop49
280
     0
102
RTVSPost2010PropOp49
 70
     1
102
RTVSPost2010Prop50
 90
       50
102
RTVSPost2010PropOp50
 70
     1
102
RTVSPost2010Prop51ColorIndex
 90
      256
102
RTVSPost2010Prop51ColorRGB
 90
-16777216
102
RTVSPost2010PropOp51
 70
     0
102
RTVSPost2010Prop52
140
1.0
102
RTVSPost2010PropOp52
 70
     0
102
RTVSPost2010Prop53
 90
        2
102
RTVSPost2010PropOp53
 70
     1
102
RTVSPost2010Prop54
  1
strokes_ogs.tif
102
RTVSPost2010PropOp54
 70
     1
102
RTVSPost2010Prop55
280
     0
102
RTVSPost2010PropOp55
 70
     1
102
RTVSPost2010Prop56
140
1.0
102
RTVSPost2010PropOp56
 70
     1
102
RTVSPost2010Prop57
140
1.0
102
RTVSPost2010PropOp57
 70
     1
102
RTVSPropertyOp0
 70
     1
102
RTVSPropertyOp1
 70
     1
102
RTVSPropertyOp2
 70
     1
102
RTVSPropertyOp3
 70
     1
102
RTVSPropertyOp4
 70
     1
102
RTVSPropertyOp5
 70
     1
102
RTVSPropertyOp6
 70
     1
102
RTVSPropertyOp7
 70
     1
102
RTVSPropertyOp8
 70
     1
102
RTVSPropertyOp9
 70
     1
102
RTVSPropertyOp10
 70
     1
102
RTVSPropertyOp11
 70
     1
102
RTVSPropertyOp12
 70
     1
102
RTVSPropertyOp13
 70
     1
102
RTVSPropertyOp14
 70
     1
102
RTVSPropertyOp15
 70
     1
102
RTVSPropertyOp16
 70
     1
102
RTVSPropertyOp17
 70
     1
102
RTVSPropertyOp18
 70
     1
102
RTVSPropertyOp19
 70
     1
102
RTVSPropertyOp20
 70
     1
102
RTVSPropertyOp21
 70
     1
102
RTVSPropertyOp22
 70
     1
102
RTVSPropertyOp23
 70
     1
102
RTVSPropertyOp24
 70
     1
102
RTVSPropertyOp25
 70
     1
102
RTVSPropertyOp26
 70
     1
102
RTVSPropertyOp27
 70
     1
102
RTVSPropertyOp28
 70
     1
102
RTVSPropertyOp29
 70
     1
102
RTVSPropertyOp30
 70
     1
102
RTVSPropertyOp31
 70
     1
102
RTVSPropertyOp32
 70
     1
102
RTVSPropertyOp33
 70
     1
102
RTVSPropertyOp34
 70
     1
102
RTVSPropertyOp35
 70
     1
102
RTVSPropertyOp36
 70
     1
102
RTVSPropertyOp37
 70
     1
102
RTVSPropertyOp38
 70
     1
102
RTVSPropertyOp39
 70
     1
102
RTVSPropertyOp40
 70
     1
102
RTVSPropertyOp41
 70
     1
102
RTVSPropertyOp42
 70
     1
102
RTVSPropertyOp43
 70
     1
102
RTVSPropertyOp44
 70
     1
102
RTVSPropertyOp45
 70
     1
102
RTVSPropertyOp46
 70
     1
102
RTVSPropertyOp47
 70
     1
102
RTVSPropertyOp48
 70
     1
102
RTVSPropertyOp49
 70
     1
102
RTVSPropertyOp50
 70
     1
102
RTVSPropertyOp51
 70
     0
102
RTVSPropertyOp52
 70
     0
102
RTVSPropertyOp53
 70
     1
102
RTVSPropertyOp54
 70
     1
102
RTVSPropertyOp55
 70
     1
102
RTVSPropertyOp56
 70
     1
102
RTVSPropertyOp57
 70
     1
102
RTVSPropertyOp58
 70
     1
102
RTVSPropertyOp59
 70
     1
102
RTVSPropertyOp60
 70
     1
102
RTVSPropertyOp61
 70
     1
102
RTVSPropertyOp62
 70
     1
  0
XRECORD
  5
10CF
102
{ACAD_REACTORS
330
10CE
102
}
330
10CE
100
AcDbXrecord
280
     1
102
RTVSPost2010Prop28
280
     0
102
RTVSPost2010PropOp28
 70
     1
102
RTVSPost2010Prop29
280
     1
102
RTVSPost2010PropOp29
 70
     1
102
RTVSPost2010Prop30
280
     1
102
RTVSPost2010PropOp30
 70
     1
102
RTVSPost2010Prop31
280
     0
102
RTVSPost2010PropOp31
 70
     1
102
RTVSPost2010Prop32
280
     0
102
RTVSPost2010PropOp32
 70
     1
102
RTVSPost2010Prop33
280
     0
102
RTVSPost2010PropOp33
 70
     1
102
RTVSPost2010Prop34
280
     0
102
RTVSPost2010PropOp34
 70
     1
102
RTVSPost2010Prop35
280
     0
102
RTVSPost2010PropOp35
 70
     1
102
RTVSPost2010Prop36
280
     0
102
RTVSPost2010PropOp36
 70
     1
102
RTVSPost2010Prop37
 90
       50
102
RTVSPost2010PropOp37
 70
     1
102
RTVSPost2010Prop38
140
0.0
102
RTVSPost2010PropOp38
 70
     1
102
RTVSPost2010Prop39
140
1.0
102
RTVSPost2010PropOp39
 70
     1
102
RTVSPost2010Prop40
 90
        0
102
RTVSPost2010PropOp40
 70
     1
102
RTVSPost2010Prop41ColorIndex
 90
       18
102
RTVSPost2010Prop41ColorRGB
 90
        0
102
RTVSPost2010PropOp41
 70
     1
102
RTVSPost2010Prop42
 90
       50
102
RTVSPost2010PropOp42
 70
     1
102
RTVSPost2010Prop43
 90
        3
102
RTVSPost2010PropOp43
 70
     1
102
RTVSPost2010Prop44ColorIndex
 90
        5
102
RTVSPost2010Prop44ColorRGB
 90
      255
102
RTVSPost2010PropOp44
 70
     1
102
RTVSPost2010Prop45
280
     0
102
RTVSPost2010PropOp45
 70
     1
102
RTVSPost2010Prop46
 90
       50
102
RTVSPost2010PropOp46
 70
     1
102
RTVSPost2010Prop47
 90
       50
102
RTVSPost2010PropOp47
 70
     1
102
RTVSPost2010Prop48
 90
       50
102
RTVSPost2010PropOp48
 70
     1
102
RTVSPost2010Prop49
280
     0
102
RTVSPost2010PropOp49
 70
     1
102
RTVSPost2010Prop50
 90
       50
102
RTVSPost2010PropOp50
 70
     1
102
RTVSPost2010Prop51ColorIndex
 90
      256
102
RTVSPost2010Prop51ColorRGB
 90
-16777216
102
RTVSPost2010PropOp51
 70
     0
102
RTVSPost2010Prop52
140
1.0
102
RTVSPost2010PropOp52
 70
     0
102
RTVSPost2010Prop53
 90
        2
102
RTVSPost2010PropOp53
 70
     1
102
RTVSPost2010Prop54
  1
strokes_ogs.tif
102
RTVSPost2010PropOp54
 70
     1
102
RTVSPost2010Prop55
280
     0
102
RTVSPost2010PropOp55
 70
     1
102
RTVSPost2010Prop56
140
1.0
102
RTVSPost2010PropOp56
 70
     1
102
RTVSPost2010Prop57
140
1.0
102
RTVSPost2010PropOp57
 70
     1
102
RTVSPropertyOp0
 70
     1
102
RTVSPropertyOp1
 70
     1
102
RTVSPropertyOp2
 70
     1
102
RTVSPropertyOp3
 70
     1
102
RTVSPropertyOp4
 70
     1
102
RTVSPropertyOp5
 70
     1
102
RTVSPropertyOp6
 70
     1
102
RTVSPropertyOp7
 70
     1
102
RTVSPropertyOp8
 70
     1
102
RTVSPropertyOp9
 70
     1
102
RTVSPropertyOp10
 70
     1
102
RTVSPropertyOp11
 70
     1
102
RTVSPropertyOp12
 70
     1
102
RTVSPropertyOp13
 70
     1
102
RTVSPropertyOp14
 70
     1
102
RTVSPropertyOp15
 70
     1
102
RTVSPropertyOp16
 70
     1
102
RTVSPropertyOp17
 70
     1
102
RTVSPropertyOp18
 70
     1
102
RTVSPropertyOp19
 70
     1
102
RTVSPropertyOp20
 70
     1
102
RTVSPropertyOp21
 70
     1
102
RTVSPropertyOp22
 70
     1
102
RTVSPropertyOp23
 70
     1
102
RTVSPropertyOp24
 70
     1
102
RTVSPropertyOp25
 70
     1
102
RTVSPropertyOp26
 70
     1
102
RTVSPropertyOp27
 70
     1
102
RTVSPropertyOp28
 70
     1
102
RTVSPropertyOp29
 70
     1
102
RTVSPropertyOp30
 70
     1
102
RTVSPropertyOp31
 70
     1
102
RTVSPropertyOp32
 70
     1
102
RTVSPropertyOp33
 70
     1
102
RTVSPropertyOp34
 70
     1
102
RTVSPropertyOp35
 70
     1
102
RTVSPropertyOp36
 70
     1
102
RTVSPropertyOp37
 70
     1
102
RTVSPropertyOp38
 70
     1
102
RTVSPropertyOp39
 70
     1
102
RTVSPropertyOp40
 70
     1
102
RTVSPropertyOp41
 70
     1
102
RTVSPropertyOp42
 70
     1
102
RTVSPropertyOp43
 70
     1
102
RTVSPropertyOp44
 70
     1
102
RTVSPropertyOp45
 70
     1
102
RTVSPropertyOp46
 70
     1
102
RTVSPropertyOp47
 70
     1
102
RTVSPropertyOp48
 70
     1
102
RTVSPropertyOp49
 70
     1
102
RTVSPropertyOp50
 70
     1
102
RTVSPropertyOp51
 70
     0
102
RTVSPropertyOp52
 70
     0
102
RTVSPropertyOp53
 70
     1
102
RTVSPropertyOp54
 70
     1
102
RTVSPropertyOp55
 70
     1
102
RTVSPropertyOp56
 70
     1
102
RTVSPropertyOp57
 70
     1
102
RTVSPropertyOp58
 70
     1
102
RTVSPropertyOp59
 70
     1
102
RTVSPropertyOp60
 70
     1
102
RTVSPropertyOp61
 70
     1
102
RTVSPropertyOp62
 70
     1
  0
XRECORD
  5
10D7
102
{ACAD_REACTORS
330
10D6
102
}
330
10D6
100
AcDbXrecord
280
     1
102
RTVSPost2010Prop28
280
     0
102
RTVSPost2010PropOp28
 70
     1
102
RTVSPost2010Prop29
280
     1
102
RTVSPost2010PropOp29
 70
     1
102
RTVSPost2010Prop30
280
     1
102
RTVSPost2010PropOp30
 70
     1
102
RTVSPost2010Prop31
280
     0
102
RTVSPost2010PropOp31
 70
     1
102
RTVSPost2010Prop32
280
     0
102
RTVSPost2010PropOp32
 70
     1
102
RTVSPost2010Prop33
280
     0
102
RTVSPost2010PropOp33
 70
     1
102
RTVSPost2010Prop34
280
     0
102
RTVSPost2010PropOp34
 70
     1
102
RTVSPost2010Prop35
280
     0
102
RTVSPost2010PropOp35
 70
     1
102
RTVSPost2010Prop36
280
     0
102
RTVSPost2010PropOp36
 70
     1
102
RTVSPost2010Prop37
 90
       50
102
RTVSPost2010PropOp37
 70
     1
102
RTVSPost2010Prop38
140
0.0
102
RTVSPost2010PropOp38
 70
     1
102
RTVSPost2010Prop39
140
1.0
102
RTVSPost2010PropOp39
 70
     1
102
RTVSPost2010Prop40
 90
        0
102
RTVSPost2010PropOp40
 70
     1
102
RTVSPost2010Prop41ColorIndex
 90
       18
102
RTVSPost2010Prop41ColorRGB
 90
        0
102
RTVSPost2010PropOp41
 70
     1
102
RTVSPost2010Prop42
 90
       50
102
RTVSPost2010PropOp42
 70
     1
102
RTVSPost2010Prop43
 90
        3
102
RTVSPost2010PropOp43
 70
     1
102
RTVSPost2010Prop44ColorIndex
 90
        5
102
RTVSPost2010Prop44ColorRGB
 90
      255
102
RTVSPost2010PropOp44
 70
     1
102
RTVSPost2010Prop45
280
     0
102
RTVSPost2010PropOp45
 70
     1
102
RTVSPost2010Prop46
 90
       50
102
RTVSPost2010PropOp46
 70
     1
102
RTVSPost2010Prop47
 90
       50
102
RTVSPost2010PropOp47
 70
     1
102
RTVSPost2010Prop48
 90
       50
102
RTVSPost2010PropOp48
 70
     1
102
RTVSPost2010Prop49
280
     0
102
RTVSPost2010PropOp49
 70
     1
102
RTVSPost2010Prop50
 90
       50
102
RTVSPost2010PropOp50
 70
     1
102
RTVSPost2010Prop51ColorIndex
 90
      256
102
RTVSPost2010Prop51ColorRGB
 90
-16777216
102
RTVSPost2010PropOp51
 70
     0
102
RTVSPost2010Prop52
140
1.0
102
RTVSPost2010PropOp52
 70
     0
102
RTVSPost2010Prop53
 90
        2
102
RTVSPost2010PropOp53
 70
     1
102
RTVSPost2010Prop54
  1
strokes_ogs.tif
102
RTVSPost2010PropOp54
 70
     1
102
RTVSPost2010Prop55
280
     0
102
RTVSPost2010PropOp55
 70
     1
102
RTVSPost2010Prop56
140
1.0
102
RTVSPost2010PropOp56
 70
     1
102
RTVSPost2010Prop57
140
1.0
102
RTVSPost2010PropOp57
 70
     1
102
RTVSPropertyOp0
 70
     1
102
RTVSPropertyOp1
 70
     1
102
RTVSPropertyOp2
 70
     1
102
RTVSPropertyOp3
 70
     1
102
RTVSPropertyOp4
 70
     1
102
RTVSPropertyOp5
 70
     1
102
RTVSPropertyOp6
 70
     1
102
RTVSPropertyOp7
 70
     1
102
RTVSPropertyOp8
 70
     1
102
RTVSPropertyOp9
 70
     1
102
RTVSPropertyOp10
 70
     1
102
RTVSPropertyOp11
 70
     1
102
RTVSPropertyOp12
 70
     1
102
RTVSPropertyOp13
 70
     1
102
RTVSPropertyOp14
 70
     1
102
RTVSPropertyOp15
 70
     1
102
RTVSPropertyOp16
 70
     1
102
RTVSPropertyOp17
 70
     1
102
RTVSPropertyOp18
 70
     1
102
RTVSPropertyOp19
 70
     1
102
RTVSPropertyOp20
 70
     1
102
RTVSPropertyOp21
 70
     1
102
RTVSPropertyOp22
 70
     1
102
RTVSPropertyOp23
 70
     1
102
RTVSPropertyOp24
 70
     1
102
RTVSPropertyOp25
 70
     1
102
RTVSPropertyOp26
 70
     1
102
RTVSPropertyOp27
 70
     1
102
RTVSPropertyOp28
 70
     1
102
RTVSPropertyOp29
 70
     1
102
RTVSPropertyOp30
 70
     1
102
RTVSPropertyOp31
 70
     1
102
RTVSPropertyOp32
 70
     1
102
RTVSPropertyOp33
 70
     1
102
RTVSPropertyOp34
 70
     1
102
RTVSPropertyOp35
 70
     1
102
RTVSPropertyOp36
 70
     1
102
RTVSPropertyOp37
 70
     1
102
RTVSPropertyOp38
 70
     1
102
RTVSPropertyOp39
 70
     1
102
RTVSPropertyOp40
 70
     1
102
RTVSPropertyOp41
 70
     1
102
RTVSPropertyOp42
 70
     1
102
RTVSPropertyOp43
 70
     1
102
RTVSPropertyOp44
 70
     1
102
RTVSPropertyOp45
 70
     1
102
RTVSPropertyOp46
 70
     1
102
RTVSPropertyOp47
 70
     1
102
RTVSPropertyOp48
 70
     1
102
RTVSPropertyOp49
 70
     1
102
RTVSPropertyOp50
 70
     1
102
RTVSPropertyOp51
 70
     0
102
RTVSPropertyOp52
 70
     0
102
RTVSPropertyOp53
 70
     1
102
RTVSPropertyOp54
 70
     1
102
RTVSPropertyOp55
 70
     1
102
RTVSPropertyOp56
 70
     1
102
RTVSPropertyOp57
 70
     1
102
RTVSPropertyOp58
 70
     1
102
RTVSPropertyOp59
 70
     1
102
RTVSPropertyOp60
 70
     1
102
RTVSPropertyOp61
 70
     1
102
RTVSPropertyOp62
 70
     1
  0
XRECORD
  5
10C9
102
{ACAD_REACTORS
330
10C8
102
}
330
10C8
100
AcDbXrecord
280
     1
102
RTVSPost2010Prop28
280
     0
102
RTVSPost2010PropOp28
 70
     1
102
RTVSPost2010Prop29
280
     1
102
RTVSPost2010PropOp29
 70
     1
102
RTVSPost2010Prop30
280
     1
102
RTVSPost2010PropOp30
 70
     1
102
RTVSPost2010Prop31
280
     0
102
RTVSPost2010PropOp31
 70
     1
102
RTVSPost2010Prop32
280
     0
102
RTVSPost2010PropOp32
 70
     1
102
RTVSPost2010Prop33
280
     0
102
RTVSPost2010PropOp33
 70
     1
102
RTVSPost2010Prop34
280
     0
102
RTVSPost2010PropOp34
 70
     1
102
RTVSPost2010Prop35
280
     0
102
RTVSPost2010PropOp35
 70
     1
102
RTVSPost2010Prop36
280
     0
102
RTVSPost2010PropOp36
 70
     1
102
RTVSPost2010Prop37
 90
       50
102
RTVSPost2010PropOp37
 70
     1
102
RTVSPost2010Prop38
140
0.0
102
RTVSPost2010PropOp38
 70
     1
102
RTVSPost2010Prop39
140
1.0
102
RTVSPost2010PropOp39
 70
     1
102
RTVSPost2010Prop40
 90
        0
102
RTVSPost2010PropOp40
 70
     1
102
RTVSPost2010Prop41ColorIndex
 90
       18
102
RTVSPost2010Prop41ColorRGB
 90
        0
102
RTVSPost2010PropOp41
 70
     1
102
RTVSPost2010Prop42
 90
       50
102
RTVSPost2010PropOp42
 70
     1
102
RTVSPost2010Prop43
 90
        3
102
RTVSPost2010PropOp43
 70
     1
102
RTVSPost2010Prop44ColorIndex
 90
        5
102
RTVSPost2010Prop44ColorRGB
 90
      255
102
RTVSPost2010PropOp44
 70
     1
102
RTVSPost2010Prop45
280
     0
102
RTVSPost2010PropOp45
 70
     1
102
RTVSPost2010Prop46
 90
       50
102
RTVSPost2010PropOp46
 70
     1
102
RTVSPost2010Prop47
 90
       50
102
RTVSPost2010PropOp47
 70
     1
102
RTVSPost2010Prop48
 90
       50
102
RTVSPost2010PropOp48
 70
     1
102
RTVSPost2010Prop49
280
     0
102
RTVSPost2010PropOp49
 70
     1
102
RTVSPost2010Prop50
 90
       50
102
RTVSPost2010PropOp50
 70
     1
102
RTVSPost2010Prop51ColorIndex
 90
      256
102
RTVSPost2010Prop51ColorRGB
 90
-16777216
102
RTVSPost2010PropOp51
 70
     0
102
RTVSPost2010Prop52
140
1.0
102
RTVSPost2010PropOp52
 70
     0
102
RTVSPost2010Prop53
 90
        2
102
RTVSPost2010PropOp53
 70
     1
102
RTVSPost2010Prop54
  1
strokes_ogs.tif
102
RTVSPost2010PropOp54
 70
     1
102
RTVSPost2010Prop55
280
     0
102
RTVSPost2010PropOp55
 70
     1
102
RTVSPost2010Prop56
140
1.0
102
RTVSPost2010PropOp56
 70
     1
102
RTVSPost2010Prop57
140
1.0
102
RTVSPost2010PropOp57
 70
     1
102
RTVSPropertyOp0
 70
     1
102
RTVSPropertyOp1
 70
     1
102
RTVSPropertyOp2
 70
     1
102
RTVSPropertyOp3
 70
     1
102
RTVSPropertyOp4
 70
     1
102
RTVSPropertyOp5
 70
     1
102
RTVSPropertyOp6
 70
     1
102
RTVSPropertyOp7
 70
     1
102
RTVSPropertyOp8
 70
     1
102
RTVSPropertyOp9
 70
     1
102
RTVSPropertyOp10
 70
     1
102
RTVSPropertyOp11
 70
     1
102
RTVSPropertyOp12
 70
     1
102
RTVSPropertyOp13
 70
     1
102
RTVSPropertyOp14
 70
     1
102
RTVSPropertyOp15
 70
     1
102
RTVSPropertyOp16
 70
     1
102
RTVSPropertyOp17
 70
     1
102
RTVSPropertyOp18
 70
     1
102
RTVSPropertyOp19
 70
     1
102
RTVSPropertyOp20
 70
     1
102
RTVSPropertyOp21
 70
     1
102
RTVSPropertyOp22
 70
     1
102
RTVSPropertyOp23
 70
     1
102
RTVSPropertyOp24
 70
     1
102
RTVSPropertyOp25
 70
     1
102
RTVSPropertyOp26
 70
     1
102
RTVSPropertyOp27
 70
     1
102
RTVSPropertyOp28
 70
     1
102
RTVSPropertyOp29
 70
     1
102
RTVSPropertyOp30
 70
     1
102
RTVSPropertyOp31
 70
     1
102
RTVSPropertyOp32
 70
     1
102
RTVSPropertyOp33
 70
     1
102
RTVSPropertyOp34
 70
     1
102
RTVSPropertyOp35
 70
     1
102
RTVSPropertyOp36
 70
     1
102
RTVSPropertyOp37
 70
     1
102
RTVSPropertyOp38
 70
     1
102
RTVSPropertyOp39
 70
     1
102
RTVSPropertyOp40
 70
     1
102
RTVSPropertyOp41
 70
     1
102
RTVSPropertyOp42
 70
     1
102
RTVSPropertyOp43
 70
     1
102
RTVSPropertyOp44
 70
     1
102
RTVSPropertyOp45
 70
     1
102
RTVSPropertyOp46
 70
     1
102
RTVSPropertyOp47
 70
     1
102
RTVSPropertyOp48
 70
     1
102
RTVSPropertyOp49
 70
     1
102
RTVSPropertyOp50
 70
     1
102
RTVSPropertyOp51
 70
     0
102
RTVSPropertyOp52
 70
     0
102
RTVSPropertyOp53
 70
     1
102
RTVSPropertyOp54
 70
     1
102
RTVSPropertyOp55
 70
     1
102
RTVSPropertyOp56
 70
     1
102
RTVSPropertyOp57
 70
     1
102
RTVSPropertyOp58
 70
     1
102
RTVSPropertyOp59
 70
     1
102
RTVSPropertyOp60
 70
     1
102
RTVSPropertyOp61
 70
     1
102
RTVSPropertyOp62
 70
     1
  0
XRECORD
  5
10CD
102
{ACAD_REACTORS
330
10CC
102
}
330
10CC
100
AcDbXrecord
280
     1
102
RTVSPost2010Prop28
280
     0
102
RTVSPost2010PropOp28
 70
     1
102
RTVSPost2010Prop29
280
     1
102
RTVSPost2010PropOp29
 70
     1
102
RTVSPost2010Prop30
280
     1
102
RTVSPost2010PropOp30
 70
     1
102
RTVSPost2010Prop31
280
     0
102
RTVSPost2010PropOp31
 70
     1
102
RTVSPost2010Prop32
280
     0
102
RTVSPost2010PropOp32
 70
     1
102
RTVSPost2010Prop33
280
     0
102
RTVSPost2010PropOp33
 70
     1
102
RTVSPost2010Prop34
280
     0
102
RTVSPost2010PropOp34
 70
     1
102
RTVSPost2010Prop35
280
     0
102
RTVSPost2010PropOp35
 70
     1
102
RTVSPost2010Prop36
280
     0
102
RTVSPost2010PropOp36
 70
     1
102
RTVSPost2010Prop37
 90
       50
102
RTVSPost2010PropOp37
 70
     1
102
RTVSPost2010Prop38
140
0.0
102
RTVSPost2010PropOp38
 70
     1
102
RTVSPost2010Prop39
140
1.0
102
RTVSPost2010PropOp39
 70
     1
102
RTVSPost2010Prop40
 90
        0
102
RTVSPost2010PropOp40
 70
     1
102
RTVSPost2010Prop41ColorIndex
 90
       18
102
RTVSPost2010Prop41ColorRGB
 90
        0
102
RTVSPost2010PropOp41
 70
     1
102
RTVSPost2010Prop42
 90
       50
102
RTVSPost2010PropOp42
 70
     1
102
RTVSPost2010Prop43
 90
        3
102
RTVSPost2010PropOp43
 70
     1
102
RTVSPost2010Prop44ColorIndex
 90
        5
102
RTVSPost2010Prop44ColorRGB
 90
      255
102
RTVSPost2010PropOp44
 70
     1
102
RTVSPost2010Prop45
280
     0
102
RTVSPost2010PropOp45
 70
     1
102
RTVSPost2010Prop46
 90
       50
102
RTVSPost2010PropOp46
 70
     1
102
RTVSPost2010Prop47
 90
       50
102
RTVSPost2010PropOp47
 70
     1
102
RTVSPost2010Prop48
 90
       50
102
RTVSPost2010PropOp48
 70
     1
102
RTVSPost2010Prop49
280
     0
102
RTVSPost2010PropOp49
 70
     1
102
RTVSPost2010Prop50
 90
       50
102
RTVSPost2010PropOp50
 70
     1
102
RTVSPost2010Prop51ColorIndex
 90
      256
102
RTVSPost2010Prop51ColorRGB
 90
-16777216
102
RTVSPost2010PropOp51
 70
     0
102
RTVSPost2010Prop52
140
1.0
102
RTVSPost2010PropOp52
 70
     0
102
RTVSPost2010Prop53
 90
        2
102
RTVSPost2010PropOp53
 70
     1
102
RTVSPost2010Prop54
  1
strokes_ogs.tif
102
RTVSPost2010PropOp54
 70
     1
102
RTVSPost2010Prop55
280
     0
102
RTVSPost2010PropOp55
 70
     1
102
RTVSPost2010Prop56
140
1.0
102
RTVSPost2010PropOp56
 70
     1
102
RTVSPost2010Prop57
140
1.0
102
RTVSPost2010PropOp57
 70
     1
102
RTVSPropertyOp0
 70
     1
102
RTVSPropertyOp1
 70
     1
102
RTVSPropertyOp2
 70
     1
102
RTVSPropertyOp3
 70
     1
102
RTVSPropertyOp4
 70
     1
102
RTVSPropertyOp5
 70
     1
102
RTVSPropertyOp6
 70
     1
102
RTVSPropertyOp7
 70
     1
102
RTVSPropertyOp8
 70
     1
102
RTVSPropertyOp9
 70
     1
102
RTVSPropertyOp10
 70
     1
102
RTVSPropertyOp11
 70
     1
102
RTVSPropertyOp12
 70
     1
102
RTVSPropertyOp13
 70
     1
102
RTVSPropertyOp14
 70
     1
102
RTVSPropertyOp15
 70
     1
102
RTVSPropertyOp16
 70
     1
102
RTVSPropertyOp17
 70
     1
102
RTVSPropertyOp18
 70
     1
102
RTVSPropertyOp19
 70
     1
102
RTVSPropertyOp20
 70
     1
102
RTVSPropertyOp21
 70
     1
102
RTVSPropertyOp22
 70
     1
102
RTVSPropertyOp23
 70
     1
102
RTVSPropertyOp24
 70
     1
102
RTVSPropertyOp25
 70
     1
102
RTVSPropertyOp26
 70
     1
102
RTVSPropertyOp27
 70
     1
102
RTVSPropertyOp28
 70
     1
102
RTVSPropertyOp29
 70
     1
102
RTVSPropertyOp30
 70
     1
102
RTVSPropertyOp31
 70
     1
102
RTVSPropertyOp32
 70
     1
102
RTVSPropertyOp33
 70
     1
102
RTVSPropertyOp34
 70
     1
102
RTVSPropertyOp35
 70
     1
102
RTVSPropertyOp36
 70
     1
102
RTVSPropertyOp37
 70
     1
102
RTVSPropertyOp38
 70
     1
102
RTVSPropertyOp39
 70
     1
102
RTVSPropertyOp40
 70
     1
102
RTVSPropertyOp41
 70
     1
102
RTVSPropertyOp42
 70
     1
102
RTVSPropertyOp43
 70
     1
102
RTVSPropertyOp44
 70
     1
102
RTVSPropertyOp45
 70
     1
102
RTVSPropertyOp46
 70
     1
102
RTVSPropertyOp47
 70
     1
102
RTVSPropertyOp48
 70
     1
102
RTVSPropertyOp49
 70
     1
102
RTVSPropertyOp50
 70
     1
102
RTVSPropertyOp51
 70
     0
102
RTVSPropertyOp52
 70
     0
102
RTVSPropertyOp53
 70
     1
102
RTVSPropertyOp54
 70
     1
102
RTVSPropertyOp55
 70
     1
102
RTVSPropertyOp56
 70
     1
102
RTVSPropertyOp57
 70
     1
102
RTVSPropertyOp58
 70
     1
102
RTVSPropertyOp59
 70
     1
102
RTVSPropertyOp60
 70
     1
102
RTVSPropertyOp61
 70
     1
102
RTVSPropertyOp62
 70
     1
  0
XRECORD
  5
10E7
102
{ACAD_REACTORS
330
10E6
102
}
330
10E6
100
AcDbXrecord
280
     1
102
RTVSPost2010Prop28
280
     0
102
RTVSPost2010PropOp28
 70
     0
102
RTVSPost2010Prop29
280
     1
102
RTVSPost2010PropOp29
 70
     0
102
RTVSPost2010Prop30
280
     1
102
RTVSPost2010PropOp30
 70
     0
102
RTVSPost2010Prop31
280
     0
102
RTVSPost2010PropOp31
 70
     0
102
RTVSPost2010Prop32
280
     0
102
RTVSPost2010PropOp32
 70
     0
102
RTVSPost2010Prop33
280
     0
102
RTVSPost2010PropOp33
 70
     0
102
RTVSPost2010Prop34
280
     0
102
RTVSPost2010PropOp34
 70
     0
102
RTVSPost2010Prop35
280
     0
102
RTVSPost2010PropOp35
 70
     0
102
RTVSPost2010Prop36
280
     0
102
RTVSPost2010PropOp36
 70
     0
102
RTVSPost2010Prop37
 90
       50
102
RTVSPost2010PropOp37
 70
     0
102
RTVSPost2010Prop38
140
0.0
102
RTVSPost2010PropOp38
 70
     0
102
RTVSPost2010Prop39
140
1.0
102
RTVSPost2010PropOp39
 70
     0
102
RTVSPost2010Prop40
 90
        0
102
RTVSPost2010PropOp40
 70
     0
102
RTVSPost2010Prop41ColorIndex
 90
       18
102
RTVSPost2010Prop41ColorRGB
 90
        0
102
RTVSPost2010PropOp41
 70
     0
102
RTVSPost2010Prop42
 90
       50
102
RTVSPost2010PropOp42
 70
     0
102
RTVSPost2010Prop43
 90
        3
102
RTVSPost2010PropOp43
 70
     0
102
RTVSPost2010Prop44ColorIndex
 90
        5
102
RTVSPost2010Prop44ColorRGB
 90
      255
102
RTVSPost2010PropOp44
 70
     0
102
RTVSPost2010Prop45
280
     0
102
RTVSPost2010PropOp45
 70
     0
102
RTVSPost2010Prop46
 90
       50
102
RTVSPost2010PropOp46
 70
     0
102
RTVSPost2010Prop47
 90
       50
102
RTVSPost2010PropOp47
 70
     0
102
RTVSPost2010Prop48
 90
       50
102
RTVSPost2010PropOp48
 70
     0
102
RTVSPost2010Prop49
280
     0
102
RTVSPost2010PropOp49
 70
     0
102
RTVSPost2010Prop50
 90
       50
102
RTVSPost2010PropOp50
 70
     0
102
RTVSPost2010Prop51ColorIndex
 90
      256
102
RTVSPost2010Prop51ColorRGB
 90
-16777216
102
RTVSPost2010PropOp51
 70
     0
102
RTVSPost2010Prop52
140
1.0
102
RTVSPost2010PropOp52
 70
     0
102
RTVSPost2010Prop53
 90
        2
102
RTVSPost2010PropOp53
 70
     0
102
RTVSPost2010Prop54
  1
strokes_ogs.tif
102
RTVSPost2010PropOp54
 70
     0
102
RTVSPost2010Prop55
280
     0
102
RTVSPost2010PropOp55
 70
     0
102
RTVSPost2010Prop56
140
1.0
102
RTVSPost2010PropOp56
 70
     0
102
RTVSPost2010Prop57
140
1.0
102
RTVSPost2010PropOp57
 70
     0
102
RTVSPropertyOp0
 70
     0
102
RTVSPropertyOp1
 70
     0
102
RTVSPropertyOp2
 70
     0
102
RTVSPropertyOp3
 70
     0
102
RTVSPropertyOp4
 70
     0
102
RTVSPropertyOp5
 70
     0
102
RTVSPropertyOp6
 70
     0
102
RTVSPropertyOp7
 70
     0
102
RTVSPropertyOp8
 70
     0
102
RTVSPropertyOp9
 70
     0
102
RTVSPropertyOp10
 70
     0
102
RTVSPropertyOp11
 70
     0
102
RTVSPropertyOp12
 70
     0
102
RTVSPropertyOp13
 70
     0
102
RTVSPropertyOp14
 70
     2
102
RTVSPropertyOp15
 70
     0
102
RTVSPropertyOp16
 70
     0
102
RTVSPropertyOp17
 70
     0
102
RTVSPropertyOp18
 70
     0
102
RTVSPropertyOp19
 70
     0
102
RTVSPropertyOp20
 70
     0
102
RTVSPropertyOp21
 70
     0
102
RTVSPropertyOp22
 70
     0
102
RTVSPropertyOp23
 70
     0
102
RTVSPropertyOp24
 70
     0
102
RTVSPropertyOp25
 70
     0
102
RTVSPropertyOp26
 70
     0
102
RTVSPropertyOp27
 70
     0
102
RTVSPropertyOp28
 70
     0
102
RTVSPropertyOp29
 70
     0
102
RTVSPropertyOp30
 70
     0
102
RTVSPropertyOp31
 70
     0
102
RTVSPropertyOp32
 70
     0
102
RTVSPropertyOp33
 70
     0
102
RTVSPropertyOp34
 70
     0
102
RTVSPropertyOp35
 70
     0
102
RTVSPropertyOp36
 70
     0
102
RTVSPropertyOp37
 70
     0
102
RTVSPropertyOp38
 70
     0
102
RTVSPropertyOp39
 70
     0
102
RTVSPropertyOp40
 70
     0
102
RTVSPropertyOp41
 70
     0
102
RTVSPropertyOp42
 70
     0
102
RTVSPropertyOp43
 70
     0
102
RTVSPropertyOp44
 70
     0
102
RTVSPropertyOp45
 70
     0
102
RTVSPropertyOp46
 70
     0
102
RTVSPropertyOp47
 70
     0
102
RTVSPropertyOp48
 70
     0
102
RTVSPropertyOp49
 70
     0
102
RTVSPropertyOp50
 70
     0
102
RTVSPropertyOp51
 70
     0
102
RTVSPropertyOp52
 70
     0
102
RTVSPropertyOp53
 70
     0
102
RTVSPropertyOp54
 70
     0
102
RTVSPropertyOp55
 70
     0
102
RTVSPropertyOp56
 70
     0
102
RTVSPropertyOp57
 70
     0
102
RTVSPropertyOp58
 70
     1
102
RTVSPropertyOp59
 70
     1
102
RTVSPropertyOp60
 70
     1
102
RTVSPropertyOp61
 70
     1
102
RTVSPropertyOp62
 70
     1
  0
XRECORD
  5
10D5
102
{ACAD_REACTORS
330
10D4
102
}
330
10D4
100
AcDbXrecord
280
     1
102
RTVSPost2010Prop28
280
     0
102
RTVSPost2010PropOp28
 70
     1
102
RTVSPost2010Prop29
280
     1
102
RTVSPost2010PropOp29
 70
     1
102
RTVSPost2010Prop30
280
     1
102
RTVSPost2010PropOp30
 70
     1
102
RTVSPost2010Prop31
280
     0
102
RTVSPost2010PropOp31
 70
     1
102
RTVSPost2010Prop32
280
     0
102
RTVSPost2010PropOp32
 70
     1
102
RTVSPost2010Prop33
280
     0
102
RTVSPost2010PropOp33
 70
     1
102
RTVSPost2010Prop34
280
     0
102
RTVSPost2010PropOp34
 70
     1
102
RTVSPost2010Prop35
280
     0
102
RTVSPost2010PropOp35
 70
     1
102
RTVSPost2010Prop36
280
     0
102
RTVSPost2010PropOp36
 70
     1
102
RTVSPost2010Prop37
 90
       50
102
RTVSPost2010PropOp37
 70
     1
102
RTVSPost2010Prop38
140
0.0
102
RTVSPost2010PropOp38
 70
     1
102
RTVSPost2010Prop39
140
1.0
102
RTVSPost2010PropOp39
 70
     1
102
RTVSPost2010Prop40
 90
        0
102
RTVSPost2010PropOp40
 70
     1
102
RTVSPost2010Prop41ColorIndex
 90
       18
102
RTVSPost2010Prop41ColorRGB
 90
        0
102
RTVSPost2010PropOp41
 70
     1
102
RTVSPost2010Prop42
 90
       50
102
RTVSPost2010PropOp42
 70
     1
102
RTVSPost2010Prop43
 90
        3
102
RTVSPost2010PropOp43
 70
     1
102
RTVSPost2010Prop44ColorIndex
 90
        5
102
RTVSPost2010Prop44ColorRGB
 90
      255
102
RTVSPost2010PropOp44
 70
     1
102
RTVSPost2010Prop45
280
     0
102
RTVSPost2010PropOp45
 70
     1
102
RTVSPost2010Prop46
 90
       50
102
RTVSPost2010PropOp46
 70
     1
102
RTVSPost2010Prop47
 90
       50
102
RTVSPost2010PropOp47
 70
     1
102
RTVSPost2010Prop48
 90
       50
102
RTVSPost2010PropOp48
 70
     1
102
RTVSPost2010Prop49
280
     0
102
RTVSPost2010PropOp49
 70
     1
102
RTVSPost2010Prop50
 90
       50
102
RTVSPost2010PropOp50
 70
     1
102
RTVSPost2010Prop51ColorIndex
 90
      256
102
RTVSPost2010Prop51ColorRGB
 90
-16777216
102
RTVSPost2010PropOp51
 70
     0
102
RTVSPost2010Prop52
140
1.0
102
RTVSPost2010PropOp52
 70
     0
102
RTVSPost2010Prop53
 90
        2
102
RTVSPost2010PropOp53
 70
     1
102
RTVSPost2010Prop54
  1
strokes_ogs.tif
102
RTVSPost2010PropOp54
 70
     1
102
RTVSPost2010Prop55
280
     0
102
RTVSPost2010PropOp55
 70
     1
102
RTVSPost2010Prop56
140
1.0
102
RTVSPost2010PropOp56
 70
     1
102
RTVSPost2010Prop57
140
1.0
102
RTVSPost2010PropOp57
 70
     1
102
RTVSPropertyOp0
 70
     1
102
RTVSPropertyOp1
 70
     1
102
RTVSPropertyOp2
 70
     1
102
RTVSPropertyOp3
 70
     1
102
RTVSPropertyOp4
 70
     1
102
RTVSPropertyOp5
 70
     1
102
RTVSPropertyOp6
 70
     1
102
RTVSPropertyOp7
 70
     1
102
RTVSPropertyOp8
 70
     1
102
RTVSPropertyOp9
 70
     1
102
RTVSPropertyOp10
 70
     1
102
RTVSPropertyOp11
 70
     1
102
RTVSPropertyOp12
 70
     1
102
RTVSPropertyOp13
 70
     1
102
RTVSPropertyOp14
 70
     1
102
RTVSPropertyOp15
 70
     1
102
RTVSPropertyOp16
 70
     1
102
RTVSPropertyOp17
 70
     1
102
RTVSPropertyOp18
 70
     1
102
RTVSPropertyOp19
 70
     1
102
RTVSPropertyOp20
 70
     1
102
RTVSPropertyOp21
 70
     1
102
RTVSPropertyOp22
 70
     1
102
RTVSPropertyOp23
 70
     1
102
RTVSPropertyOp24
 70
     1
102
RTVSPropertyOp25
 70
     1
102
RTVSPropertyOp26
 70
     1
102
RTVSPropertyOp27
 70
     1
102
RTVSPropertyOp28
 70
     1
102
RTVSPropertyOp29
 70
     1
102
RTVSPropertyOp30
 70
     1
102
RTVSPropertyOp31
 70
     1
102
RTVSPropertyOp32
 70
     1
102
RTVSPropertyOp33
 70
     1
102
RTVSPropertyOp34
 70
     1
102
RTVSPropertyOp35
 70
     1
102
RTVSPropertyOp36
 70
     1
102
RTVSPropertyOp37
 70
     1
102
RTVSPropertyOp38
 70
     1
102
RTVSPropertyOp39
 70
     1
102
RTVSPropertyOp40
 70
     1
102
RTVSPropertyOp41
 70
     1
102
RTVSPropertyOp42
 70
     1
102
RTVSPropertyOp43
 70
     1
102
RTVSPropertyOp44
 70
     1
102
RTVSPropertyOp45
 70
     1
102
RTVSPropertyOp46
 70
     1
102
RTVSPropertyOp47
 70
     1
102
RTVSPropertyOp48
 70
     1
102
RTVSPropertyOp49
 70
     1
102
RTVSPropertyOp50
 70
     1
102
RTVSPropertyOp51
 70
     0
102
RTVSPropertyOp52
 70
     0
102
RTVSPropertyOp53
 70
     1
102
RTVSPropertyOp54
 70
     1
102
RTVSPropertyOp55
 70
     1
102
RTVSPropertyOp56
 70
     1
102
RTVSPropertyOp57
 70
     1
102
RTVSPropertyOp58
 70
     1
102
RTVSPropertyOp59
 70
     1
102
RTVSPropertyOp60
 70
     1
102
RTVSPropertyOp61
 70
     1
102
RTVSPropertyOp62
 70
     1
  0
XRECORD
  5
10B9
102
{ACAD_REACTORS
330
10B8
102
}
330
10B8
100
AcDbXrecord
280
     1
102
RTVSPost2010Prop28
280
     0
102
RTVSPost2010PropOp28
 70
     1
102
RTVSPost2010Prop29
280
     1
102
RTVSPost2010PropOp29
 70
     1
102
RTVSPost2010Prop30
280
     1
102
RTVSPost2010PropOp30
 70
     1
102
RTVSPost2010Prop31
280
     0
102
RTVSPost2010PropOp31
 70
     1
102
RTVSPost2010Prop32
280
     0
102
RTVSPost2010PropOp32
 70
     1
102
RTVSPost2010Prop33
280
     0
102
RTVSPost2010PropOp33
 70
     1
102
RTVSPost2010Prop34
280
     0
102
RTVSPost2010PropOp34
 70
     1
102
RTVSPost2010Prop35
280
     0
102
RTVSPost2010PropOp35
 70
     1
102
RTVSPost2010Prop36
280
     0
102
RTVSPost2010PropOp36
 70
     1
102
RTVSPost2010Prop37
 90
       50
102
RTVSPost2010PropOp37
 70
     1
102
RTVSPost2010Prop38
140
0.0
102
RTVSPost2010PropOp38
 70
     1
102
RTVSPost2010Prop39
140
1.0
102
RTVSPost2010PropOp39
 70
     1
102
RTVSPost2010Prop40
 90
        0
102
RTVSPost2010PropOp40
 70
     1
102
RTVSPost2010Prop41ColorIndex
 90
       18
102
RTVSPost2010Prop41ColorRGB
 90
        0
102
RTVSPost2010PropOp41
 70
     1
102
RTVSPost2010Prop42
 90
       50
102
RTVSPost2010PropOp42
 70
     1
102
RTVSPost2010Prop43
 90
        3
102
RTVSPost2010PropOp43
 70
     1
102
RTVSPost2010Prop44ColorIndex
 90
        5
102
RTVSPost2010Prop44ColorRGB
 90
      255
102
RTVSPost2010PropOp44
 70
     1
102
RTVSPost2010Prop45
280
     0
102
RTVSPost2010PropOp45
 70
     1
102
RTVSPost2010Prop46
 90
       50
102
RTVSPost2010PropOp46
 70
     1
102
RTVSPost2010Prop47
 90
       50
102
RTVSPost2010PropOp47
 70
     1
102
RTVSPost2010Prop48
 90
       50
102
RTVSPost2010PropOp48
 70
     1
102
RTVSPost2010Prop49
280
     0
102
RTVSPost2010PropOp49
 70
     1
102
RTVSPost2010Prop50
 90
       50
102
RTVSPost2010PropOp50
 70
     1
102
RTVSPost2010Prop51ColorIndex
 90
      256
102
RTVSPost2010Prop51ColorRGB
 90
-16777216
102
RTVSPost2010PropOp51
 70
     0
102
RTVSPost2010Prop52
140
1.0
102
RTVSPost2010PropOp52
 70
     0
102
RTVSPost2010Prop53
 90
        2
102
RTVSPost2010PropOp53
 70
     1
102
RTVSPost2010Prop54
  1
strokes_ogs.tif
102
RTVSPost2010PropOp54
 70
     1
102
RTVSPost2010Prop55
280
     0
102
RTVSPost2010PropOp55
 70
     1
102
RTVSPost2010Prop56
140
1.0
102
RTVSPost2010PropOp56
 70
     1
102
RTVSPost2010Prop57
140
1.0
102
RTVSPost2010PropOp57
 70
     1
102
RTVSPropertyOp0
 70
     1
102
RTVSPropertyOp1
 70
     1
102
RTVSPropertyOp2
 70
     1
102
RTVSPropertyOp3
 70
     1
102
RTVSPropertyOp4
 70
     1
102
RTVSPropertyOp5
 70
     1
102
RTVSPropertyOp6
 70
     1
102
RTVSPropertyOp7
 70
     1
102
RTVSPropertyOp8
 70
     1
102
RTVSPropertyOp9
 70
     1
102
RTVSPropertyOp10
 70
     1
102
RTVSPropertyOp11
 70
     1
102
RTVSPropertyOp12
 70
     1
102
RTVSPropertyOp13
 70
     1
102
RTVSPropertyOp14
 70
     1
102
RTVSPropertyOp15
 70
     1
102
RTVSPropertyOp16
 70
     1
102
RTVSPropertyOp17
 70
     1
102
RTVSPropertyOp18
 70
     1
102
RTVSPropertyOp19
 70
     1
102
RTVSPropertyOp20
 70
     1
102
RTVSPropertyOp21
 70
     1
102
RTVSPropertyOp22
 70
     1
102
RTVSPropertyOp23
 70
     1
102
RTVSPropertyOp24
 70
     1
102
RTVSPropertyOp25
 70
     1
102
RTVSPropertyOp26
 70
     1
102
RTVSPropertyOp27
 70
     1
102
RTVSPropertyOp28
 70
     1
102
RTVSPropertyOp29
 70
     1
102
RTVSPropertyOp30
 70
     1
102
RTVSPropertyOp31
 70
     1
102
RTVSPropertyOp32
 70
     1
102
RTVSPropertyOp33
 70
     1
102
RTVSPropertyOp34
 70
     1
102
RTVSPropertyOp35
 70
     1
102
RTVSPropertyOp36
 70
     1
102
RTVSPropertyOp37
 70
     1
102
RTVSPropertyOp38
 70
     1
102
RTVSPropertyOp39
 70
     1
102
RTVSPropertyOp40
 70
     1
102
RTVSPropertyOp41
 70
     1
102
RTVSPropertyOp42
 70
     1
102
RTVSPropertyOp43
 70
     1
102
RTVSPropertyOp44
 70
     1
102
RTVSPropertyOp45
 70
     1
102
RTVSPropertyOp46
 70
     1
102
RTVSPropertyOp47
 70
     1
102
RTVSPropertyOp48
 70
     1
102
RTVSPropertyOp49
 70
     1
102
RTVSPropertyOp50
 70
     1
102
RTVSPropertyOp51
 70
     0
102
RTVSPropertyOp52
 70
     0
102
RTVSPropertyOp53
 70
     1
102
RTVSPropertyOp54
 70
     1
102
RTVSPropertyOp55
 70
     1
102
RTVSPropertyOp56
 70
     1
102
RTVSPropertyOp57
 70
     1
102
RTVSPropertyOp58
 70
     1
102
RTVSPropertyOp59
 70
     1
102
RTVSPropertyOp60
 70
     1
102
RTVSPropertyOp61
 70
     1
102
RTVSPropertyOp62
 70
     1
  0
XRECORD
  5
10BB
102
{ACAD_REACTORS
330
10BA
102
}
330
10BA
100
AcDbXrecord
280
     1
102
RTVSPost2010Prop28
280
     0
102
RTVSPost2010PropOp28
 70
     1
102
RTVSPost2010Prop29
280
     1
102
RTVSPost2010PropOp29
 70
     1
102
RTVSPost2010Prop30
280
     1
102
RTVSPost2010PropOp30
 70
     1
102
RTVSPost2010Prop31
280
     0
102
RTVSPost2010PropOp31
 70
     1
102
RTVSPost2010Prop32
280
     0
102
RTVSPost2010PropOp32
 70
     1
102
RTVSPost2010Prop33
280
     0
102
RTVSPost2010PropOp33
 70
     1
102
RTVSPost2010Prop34
280
     0
102
RTVSPost2010PropOp34
 70
     1
102
RTVSPost2010Prop35
280
     0
102
RTVSPost2010PropOp35
 70
     1
102
RTVSPost2010Prop36
280
     0
102
RTVSPost2010PropOp36
 70
     1
102
RTVSPost2010Prop37
 90
       50
102
RTVSPost2010PropOp37
 70
     1
102
RTVSPost2010Prop38
140
0.0
102
RTVSPost2010PropOp38
 70
     1
102
RTVSPost2010Prop39
140
1.0
102
RTVSPost2010PropOp39
 70
     1
102
RTVSPost2010Prop40
 90
        0
102
RTVSPost2010PropOp40
 70
     1
102
RTVSPost2010Prop41ColorIndex
 90
       18
102
RTVSPost2010Prop41ColorRGB
 90
        0
102
RTVSPost2010PropOp41
 70
     1
102
RTVSPost2010Prop42
 90
       50
102
RTVSPost2010PropOp42
 70
     1
102
RTVSPost2010Prop43
 90
        3
102
RTVSPost2010PropOp43
 70
     1
102
RTVSPost2010Prop44ColorIndex
 90
        5
102
RTVSPost2010Prop44ColorRGB
 90
      255
102
RTVSPost2010PropOp44
 70
     1
102
RTVSPost2010Prop45
280
     0
102
RTVSPost2010PropOp45
 70
     1
102
RTVSPost2010Prop46
 90
       50
102
RTVSPost2010PropOp46
 70
     1
102
RTVSPost2010Prop47
 90
       50
102
RTVSPost2010PropOp47
 70
     1
102
RTVSPost2010Prop48
 90
       50
102
RTVSPost2010PropOp48
 70
     1
102
RTVSPost2010Prop49
280
     0
102
RTVSPost2010PropOp49
 70
     1
102
RTVSPost2010Prop50
 90
       50
102
RTVSPost2010PropOp50
 70
     1
102
RTVSPost2010Prop51ColorIndex
 90
      256
102
RTVSPost2010Prop51ColorRGB
 90
-16777216
102
RTVSPost2010PropOp51
 70
     0
102
RTVSPost2010Prop52
140
1.0
102
RTVSPost2010PropOp52
 70
     0
102
RTVSPost2010Prop53
 90
        2
102
RTVSPost2010PropOp53
 70
     1
102
RTVSPost2010Prop54
  1
strokes_ogs.tif
102
RTVSPost2010PropOp54
 70
     1
102
RTVSPost2010Prop55
280
     0
102
RTVSPost2010PropOp55
 70
     1
102
RTVSPost2010Prop56
140
1.0
102
RTVSPost2010PropOp56
 70
     1
102
RTVSPost2010Prop57
140
1.0
102
RTVSPost2010PropOp57
 70
     1
102
RTVSPropertyOp0
 70
     1
102
RTVSPropertyOp1
 70
     1
102
RTVSPropertyOp2
 70
     1
102
RTVSPropertyOp3
 70
     1
102
RTVSPropertyOp4
 70
     1
102
RTVSPropertyOp5
 70
     1
102
RTVSPropertyOp6
 70
     1
102
RTVSPropertyOp7
 70
     1
102
RTVSPropertyOp8
 70
     1
102
RTVSPropertyOp9
 70
     1
102
RTVSPropertyOp10
 70
     1
102
RTVSPropertyOp11
 70
     1
102
RTVSPropertyOp12
 70
     1
102
RTVSPropertyOp13
 70
     1
102
RTVSPropertyOp14
 70
     1
102
RTVSPropertyOp15
 70
     1
102
RTVSPropertyOp16
 70
     1
102
RTVSPropertyOp17
 70
     1
102
RTVSPropertyOp18
 70
     1
102
RTVSPropertyOp19
 70
     1
102
RTVSPropertyOp20
 70
     1
102
RTVSPropertyOp21
 70
     1
102
RTVSPropertyOp22
 70
     1
102
RTVSPropertyOp23
 70
     1
102
RTVSPropertyOp24
 70
     1
102
RTVSPropertyOp25
 70
     1
102
RTVSPropertyOp26
 70
     1
102
RTVSPropertyOp27
 70
     1
102
RTVSPropertyOp28
 70
     1
102
RTVSPropertyOp29
 70
     1
102
RTVSPropertyOp30
 70
     1
102
RTVSPropertyOp31
 70
     1
102
RTVSPropertyOp32
 70
     1
102
RTVSPropertyOp33
 70
     1
102
RTVSPropertyOp34
 70
     1
102
RTVSPropertyOp35
 70
     1
102
RTVSPropertyOp36
 70
     1
102
RTVSPropertyOp37
 70
     1
102
RTVSPropertyOp38
 70
     1
102
RTVSPropertyOp39
 70
     1
102
RTVSPropertyOp40
 70
     1
102
RTVSPropertyOp41
 70
     1
102
RTVSPropertyOp42
 70
     1
102
RTVSPropertyOp43
 70
     1
102
RTVSPropertyOp44
 70
     1
102
RTVSPropertyOp45
 70
     1
102
RTVSPropertyOp46
 70
     1
102
RTVSPropertyOp47
 70
     1
102
RTVSPropertyOp48
 70
     1
102
RTVSPropertyOp49
 70
     1
102
RTVSPropertyOp50
 70
     1
102
RTVSPropertyOp51
 70
     0
102
RTVSPropertyOp52
 70
     0
102
RTVSPropertyOp53
 70
     1
102
RTVSPropertyOp54
 70
     1
102
RTVSPropertyOp55
 70
     1
102
RTVSPropertyOp56
 70
     1
102
RTVSPropertyOp57
 70
     1
102
RTVSPropertyOp58
 70
     1
102
RTVSPropertyOp59
 70
     1
102
RTVSPropertyOp60
 70
     1
102
RTVSPropertyOp61
 70
     1
102
RTVSPropertyOp62
 70
     1
  0
XRECORD
  5
10BD
102
{ACAD_REACTORS
330
10BC
102
}
330
10BC
100
AcDbXrecord
280
     1
102
RTVSPost2010Prop28
280
     0
102
RTVSPost2010PropOp28
 70
     1
102
RTVSPost2010Prop29
280
     1
102
RTVSPost2010PropOp29
 70
     1
102
RTVSPost2010Prop30
280
     1
102
RTVSPost2010PropOp30
 70
     1
102
RTVSPost2010Prop31
280
     0
102
RTVSPost2010PropOp31
 70
     1
102
RTVSPost2010Prop32
280
     0
102
RTVSPost2010PropOp32
 70
     1
102
RTVSPost2010Prop33
280
     0
102
RTVSPost2010PropOp33
 70
     1
102
RTVSPost2010Prop34
280
     0
102
RTVSPost2010PropOp34
 70
     1
102
RTVSPost2010Prop35
280
     0
102
RTVSPost2010PropOp35
 70
     1
102
RTVSPost2010Prop36
280
     0
102
RTVSPost2010PropOp36
 70
     1
102
RTVSPost2010Prop37
 90
       50
102
RTVSPost2010PropOp37
 70
     1
102
RTVSPost2010Prop38
140
0.0
102
RTVSPost2010PropOp38
 70
     1
102
RTVSPost2010Prop39
140
1.0
102
RTVSPost2010PropOp39
 70
     1
102
RTVSPost2010Prop40
 90
        0
102
RTVSPost2010PropOp40
 70
     1
102
RTVSPost2010Prop41ColorIndex
 90
       18
102
RTVSPost2010Prop41ColorRGB
 90
        0
102
RTVSPost2010PropOp41
 70
     1
102
RTVSPost2010Prop42
 90
       50
102
RTVSPost2010PropOp42
 70
     1
102
RTVSPost2010Prop43
 90
        3
102
RTVSPost2010PropOp43
 70
     1
102
RTVSPost2010Prop44ColorIndex
 90
        5
102
RTVSPost2010Prop44ColorRGB
 90
      255
102
RTVSPost2010PropOp44
 70
     1
102
RTVSPost2010Prop45
280
     0
102
RTVSPost2010PropOp45
 70
     1
102
RTVSPost2010Prop46
 90
       50
102
RTVSPost2010PropOp46
 70
     1
102
RTVSPost2010Prop47
 90
       50
102
RTVSPost2010PropOp47
 70
     1
102
RTVSPost2010Prop48
 90
       50
102
RTVSPost2010PropOp48
 70
     1
102
RTVSPost2010Prop49
280
     0
102
RTVSPost2010PropOp49
 70
     1
102
RTVSPost2010Prop50
 90
       50
102
RTVSPost2010PropOp50
 70
     1
102
RTVSPost2010Prop51ColorIndex
 90
      256
102
RTVSPost2010Prop51ColorRGB
 90
-16777216
102
RTVSPost2010PropOp51
 70
     0
102
RTVSPost2010Prop52
140
1.0
102
RTVSPost2010PropOp52
 70
     0
102
RTVSPost2010Prop53
 90
        2
102
RTVSPost2010PropOp53
 70
     1
102
RTVSPost2010Prop54
  1
strokes_ogs.tif
102
RTVSPost2010PropOp54
 70
     1
102
RTVSPost2010Prop55
280
     0
102
RTVSPost2010PropOp55
 70
     1
102
RTVSPost2010Prop56
140
1.0
102
RTVSPost2010PropOp56
 70
     1
102
RTVSPost2010Prop57
140
1.0
102
RTVSPost2010PropOp57
 70
     1
102
RTVSPropertyOp0
 70
     1
102
RTVSPropertyOp1
 70
     1
102
RTVSPropertyOp2
 70
     1
102
RTVSPropertyOp3
 70
     1
102
RTVSPropertyOp4
 70
     1
102
RTVSPropertyOp5
 70
     1
102
RTVSPropertyOp6
 70
     1
102
RTVSPropertyOp7
 70
     1
102
RTVSPropertyOp8
 70
     1
102
RTVSPropertyOp9
 70
     1
102
RTVSPropertyOp10
 70
     1
102
RTVSPropertyOp11
 70
     1
102
RTVSPropertyOp12
 70
     1
102
RTVSPropertyOp13
 70
     1
102
RTVSPropertyOp14
 70
     1
102
RTVSPropertyOp15
 70
     1
102
RTVSPropertyOp16
 70
     1
102
RTVSPropertyOp17
 70
     1
102
RTVSPropertyOp18
 70
     1
102
RTVSPropertyOp19
 70
     1
102
RTVSPropertyOp20
 70
     1
102
RTVSPropertyOp21
 70
     1
102
RTVSPropertyOp22
 70
     1
102
RTVSPropertyOp23
 70
     1
102
RTVSPropertyOp24
 70
     1
102
RTVSPropertyOp25
 70
     1
102
RTVSPropertyOp26
 70
     1
102
RTVSPropertyOp27
 70
     1
102
RTVSPropertyOp28
 70
     1
102
RTVSPropertyOp29
 70
     1
102
RTVSPropertyOp30
 70
     1
102
RTVSPropertyOp31
 70
     1
102
RTVSPropertyOp32
 70
     1
102
RTVSPropertyOp33
 70
     1
102
RTVSPropertyOp34
 70
     1
102
RTVSPropertyOp35
 70
     1
102
RTVSPropertyOp36
 70
     1
102
RTVSPropertyOp37
 70
     1
102
RTVSPropertyOp38
 70
     1
102
RTVSPropertyOp39
 70
     1
102
RTVSPropertyOp40
 70
     1
102
RTVSPropertyOp41
 70
     1
102
RTVSPropertyOp42
 70
     1
102
RTVSPropertyOp43
 70
     1
102
RTVSPropertyOp44
 70
     1
102
RTVSPropertyOp45
 70
     1
102
RTVSPropertyOp46
 70
     1
102
RTVSPropertyOp47
 70
     1
102
RTVSPropertyOp48
 70
     1
102
RTVSPropertyOp49
 70
     1
102
RTVSPropertyOp50
 70
     1
102
RTVSPropertyOp51
 70
     0
102
RTVSPropertyOp52
 70
     0
102
RTVSPropertyOp53
 70
     1
102
RTVSPropertyOp54
 70
     1
102
RTVSPropertyOp55
 70
     1
102
RTVSPropertyOp56
 70
     1
102
RTVSPropertyOp57
 70
     1
102
RTVSPropertyOp58
 70
     1
102
RTVSPropertyOp59
 70
     1
102
RTVSPropertyOp60
 70
     1
102
RTVSPropertyOp61
 70
     1
102
RTVSPropertyOp62
 70
     1
  0
XRECORD
  5
10BF
102
{ACAD_REACTORS
330
10BE
102
}
330
10BE
100
AcDbXrecord
280
     1
102
RTVSPost2010Prop28
280
     0
102
RTVSPost2010PropOp28
 70
     1
102
RTVSPost2010Prop29
280
     1
102
RTVSPost2010PropOp29
 70
     1
102
RTVSPost2010Prop30
280
     1
102
RTVSPost2010PropOp30
 70
     1
102
RTVSPost2010Prop31
280
     0
102
RTVSPost2010PropOp31
 70
     1
102
RTVSPost2010Prop32
280
     0
102
RTVSPost2010PropOp32
 70
     1
102
RTVSPost2010Prop33
280
     0
102
RTVSPost2010PropOp33
 70
     1
102
RTVSPost2010Prop34
280
     0
102
RTVSPost2010PropOp34
 70
     1
102
RTVSPost2010Prop35
280
     0
102
RTVSPost2010PropOp35
 70
     1
102
RTVSPost2010Prop36
280
     0
102
RTVSPost2010PropOp36
 70
     1
102
RTVSPost2010Prop37
 90
       50
102
RTVSPost2010PropOp37
 70
     1
102
RTVSPost2010Prop38
140
0.0
102
RTVSPost2010PropOp38
 70
     1
102
RTVSPost2010Prop39
140
1.0
102
RTVSPost2010PropOp39
 70
     1
102
RTVSPost2010Prop40
 90
        0
102
RTVSPost2010PropOp40
 70
     1
102
RTVSPost2010Prop41ColorIndex
 90
       18
102
RTVSPost2010Prop41ColorRGB
 90
        0
102
RTVSPost2010PropOp41
 70
     1
102
RTVSPost2010Prop42
 90
       50
102
RTVSPost2010PropOp42
 70
     1
102
RTVSPost2010Prop43
 90
        3
102
RTVSPost2010PropOp43
 70
     1
102
RTVSPost2010Prop44ColorIndex
 90
        5
102
RTVSPost2010Prop44ColorRGB
 90
      255
102
RTVSPost2010PropOp44
 70
     1
102
RTVSPost2010Prop45
280
     0
102
RTVSPost2010PropOp45
 70
     1
102
RTVSPost2010Prop46
 90
       50
102
RTVSPost2010PropOp46
 70
     1
102
RTVSPost2010Prop47
 90
       50
102
RTVSPost2010PropOp47
 70
     1
102
RTVSPost2010Prop48
 90
       50
102
RTVSPost2010PropOp48
 70
     1
102
RTVSPost2010Prop49
280
     0
102
RTVSPost2010PropOp49
 70
     1
102
RTVSPost2010Prop50
 90
       50
102
RTVSPost2010PropOp50
 70
     1
102
RTVSPost2010Prop51ColorIndex
 90
      256
102
RTVSPost2010Prop51ColorRGB
 90
-16777216
102
RTVSPost2010PropOp51
 70
     0
102
RTVSPost2010Prop52
140
1.0
102
RTVSPost2010PropOp52
 70
     0
102
RTVSPost2010Prop53
 90
        2
102
RTVSPost2010PropOp53
 70
     1
102
RTVSPost2010Prop54
  1
strokes_ogs.tif
102
RTVSPost2010PropOp54
 70
     1
102
RTVSPost2010Prop55
280
     0
102
RTVSPost2010PropOp55
 70
     1
102
RTVSPost2010Prop56
140
1.0
102
RTVSPost2010PropOp56
 70
     1
102
RTVSPost2010Prop57
140
1.0
102
RTVSPost2010PropOp57
 70
     1
102
RTVSPropertyOp0
 70
     1
102
RTVSPropertyOp1
 70
     1
102
RTVSPropertyOp2
 70
     1
102
RTVSPropertyOp3
 70
     1
102
RTVSPropertyOp4
 70
     1
102
RTVSPropertyOp5
 70
     1
102
RTVSPropertyOp6
 70
     1
102
RTVSPropertyOp7
 70
     1
102
RTVSPropertyOp8
 70
     1
102
RTVSPropertyOp9
 70
     1
102
RTVSPropertyOp10
 70
     1
102
RTVSPropertyOp11
 70
     1
102
RTVSPropertyOp12
 70
     1
102
RTVSPropertyOp13
 70
     1
102
RTVSPropertyOp14
 70
     1
102
RTVSPropertyOp15
 70
     1
102
RTVSPropertyOp16
 70
     1
102
RTVSPropertyOp17
 70
     1
102
RTVSPropertyOp18
 70
     1
102
RTVSPropertyOp19
 70
     1
102
RTVSPropertyOp20
 70
     1
102
RTVSPropertyOp21
 70
     1
102
RTVSPropertyOp22
 70
     1
102
RTVSPropertyOp23
 70
     1
102
RTVSPropertyOp24
 70
     1
102
RTVSPropertyOp25
 70
     1
102
RTVSPropertyOp26
 70
     1
102
RTVSPropertyOp27
 70
     1
102
RTVSPropertyOp28
 70
     1
102
RTVSPropertyOp29
 70
     1
102
RTVSPropertyOp30
 70
     1
102
RTVSPropertyOp31
 70
     1
102
RTVSPropertyOp32
 70
     1
102
RTVSPropertyOp33
 70
     1
102
RTVSPropertyOp34
 70
     1
102
RTVSPropertyOp35
 70
     1
102
RTVSPropertyOp36
 70
     1
102
RTVSPropertyOp37
 70
     1
102
RTVSPropertyOp38
 70
     1
102
RTVSPropertyOp39
 70
     1
102
RTVSPropertyOp40
 70
     1
102
RTVSPropertyOp41
 70
     1
102
RTVSPropertyOp42
 70
     1
102
RTVSPropertyOp43
 70
     1
102
RTVSPropertyOp44
 70
     1
102
RTVSPropertyOp45
 70
     1
102
RTVSPropertyOp46
 70
     1
102
RTVSPropertyOp47
 70
     1
102
RTVSPropertyOp48
 70
     1
102
RTVSPropertyOp49
 70
     1
102
RTVSPropertyOp50
 70
     1
102
RTVSPropertyOp51
 70
     0
102
RTVSPropertyOp52
 70
     0
102
RTVSPropertyOp53
 70
     1
102
RTVSPropertyOp54
 70
     1
102
RTVSPropertyOp55
 70
     1
102
RTVSPropertyOp56
 70
     1
102
RTVSPropertyOp57
 70
     1
102
RTVSPropertyOp58
 70
     1
102
RTVSPropertyOp59
 70
     1
102
RTVSPropertyOp60
 70
     1
102
RTVSPropertyOp61
 70
     1
102
RTVSPropertyOp62
 70
     1
  0
XRECORD
  5
10C7
102
{ACAD_REACTORS
330
10C6
102
}
330
10C6
100
AcDbXrecord
280
     1
102
RTVSPost2010Prop28
280
     0
102
RTVSPost2010PropOp28
 70
     1
102
RTVSPost2010Prop29
280
     1
102
RTVSPost2010PropOp29
 70
     1
102
RTVSPost2010Prop30
280
     1
102
RTVSPost2010PropOp30
 70
     1
102
RTVSPost2010Prop31
280
     0
102
RTVSPost2010PropOp31
 70
     1
102
RTVSPost2010Prop32
280
     0
102
RTVSPost2010PropOp32
 70
     1
102
RTVSPost2010Prop33
280
     0
102
RTVSPost2010PropOp33
 70
     1
102
RTVSPost2010Prop34
280
     0
102
RTVSPost2010PropOp34
 70
     1
102
RTVSPost2010Prop35
280
     0
102
RTVSPost2010PropOp35
 70
     1
102
RTVSPost2010Prop36
280
     0
102
RTVSPost2010PropOp36
 70
     1
102
RTVSPost2010Prop37
 90
       50
102
RTVSPost2010PropOp37
 70
     1
102
RTVSPost2010Prop38
140
0.0
102
RTVSPost2010PropOp38
 70
     1
102
RTVSPost2010Prop39
140
1.0
102
RTVSPost2010PropOp39
 70
     1
102
RTVSPost2010Prop40
 90
        0
102
RTVSPost2010PropOp40
 70
     1
102
RTVSPost2010Prop41ColorIndex
 90
       18
102
RTVSPost2010Prop41ColorRGB
 90
        0
102
RTVSPost2010PropOp41
 70
     1
102
RTVSPost2010Prop42
 90
       50
102
RTVSPost2010PropOp42
 70
     1
102
RTVSPost2010Prop43
 90
        3
102
RTVSPost2010PropOp43
 70
     1
102
RTVSPost2010Prop44ColorIndex
 90
        5
102
RTVSPost2010Prop44ColorRGB
 90
      255
102
RTVSPost2010PropOp44
 70
     1
102
RTVSPost2010Prop45
280
     0
102
RTVSPost2010PropOp45
 70
     1
102
RTVSPost2010Prop46
 90
       50
102
RTVSPost2010PropOp46
 70
     1
102
RTVSPost2010Prop47
 90
       50
102
RTVSPost2010PropOp47
 70
     1
102
RTVSPost2010Prop48
 90
       50
102
RTVSPost2010PropOp48
 70
     1
102
RTVSPost2010Prop49
280
     0
102
RTVSPost2010PropOp49
 70
     1
102
RTVSPost2010Prop50
 90
       50
102
RTVSPost2010PropOp50
 70
     1
102
RTVSPost2010Prop51ColorIndex
 90
      256
102
RTVSPost2010Prop51ColorRGB
 90
-16777216
102
RTVSPost2010PropOp51
 70
     0
102
RTVSPost2010Prop52
140
1.0
102
RTVSPost2010PropOp52
 70
     0
102
RTVSPost2010Prop53
 90
        2
102
RTVSPost2010PropOp53
 70
     1
102
RTVSPost2010Prop54
  1
strokes_ogs.tif
102
RTVSPost2010PropOp54
 70
     1
102
RTVSPost2010Prop55
280
     0
102
RTVSPost2010PropOp55
 70
     1
102
RTVSPost2010Prop56
140
1.0
102
RTVSPost2010PropOp56
 70
     1
102
RTVSPost2010Prop57
140
1.0
102
RTVSPost2010PropOp57
 70
     1
102
RTVSPropertyOp0
 70
     1
102
RTVSPropertyOp1
 70
     1
102
RTVSPropertyOp2
 70
     1
102
RTVSPropertyOp3
 70
     1
102
RTVSPropertyOp4
 70
     1
102
RTVSPropertyOp5
 70
     1
102
RTVSPropertyOp6
 70
     1
102
RTVSPropertyOp7
 70
     1
102
RTVSPropertyOp8
 70
     1
102
RTVSPropertyOp9
 70
     1
102
RTVSPropertyOp10
 70
     1
102
RTVSPropertyOp11
 70
     1
102
RTVSPropertyOp12
 70
     1
102
RTVSPropertyOp13
 70
     1
102
RTVSPropertyOp14
 70
     1
102
RTVSPropertyOp15
 70
     1
102
RTVSPropertyOp16
 70
     1
102
RTVSPropertyOp17
 70
     1
102
RTVSPropertyOp18
 70
     1
102
RTVSPropertyOp19
 70
     1
102
RTVSPropertyOp20
 70
     1
102
RTVSPropertyOp21
 70
     1
102
RTVSPropertyOp22
 70
     1
102
RTVSPropertyOp23
 70
     1
102
RTVSPropertyOp24
 70
     1
102
RTVSPropertyOp25
 70
     1
102
RTVSPropertyOp26
 70
     1
102
RTVSPropertyOp27
 70
     1
102
RTVSPropertyOp28
 70
     1
102
RTVSPropertyOp29
 70
     1
102
RTVSPropertyOp30
 70
     1
102
RTVSPropertyOp31
 70
     1
102
RTVSPropertyOp32
 70
     1
102
RTVSPropertyOp33
 70
     1
102
RTVSPropertyOp34
 70
     1
102
RTVSPropertyOp35
 70
     1
102
RTVSPropertyOp36
 70
     1
102
RTVSPropertyOp37
 70
     1
102
RTVSPropertyOp38
 70
     1
102
RTVSPropertyOp39
 70
     1
102
RTVSPropertyOp40
 70
     1
102
RTVSPropertyOp41
 70
     1
102
RTVSPropertyOp42
 70
     1
102
RTVSPropertyOp43
 70
     1
102
RTVSPropertyOp44
 70
     1
102
RTVSPropertyOp45
 70
     1
102
RTVSPropertyOp46
 70
     1
102
RTVSPropertyOp47
 70
     1
102
RTVSPropertyOp48
 70
     1
102
RTVSPropertyOp49
 70
     1
102
RTVSPropertyOp50
 70
     1
102
RTVSPropertyOp51
 70
     0
102
RTVSPropertyOp52
 70
     0
102
RTVSPropertyOp53
 70
     1
102
RTVSPropertyOp54
 70
     1
102
RTVSPropertyOp55
 70
     1
102
RTVSPropertyOp56
 70
     1
102
RTVSPropertyOp57
 70
     1
102
RTVSPropertyOp58
 70
     1
102
RTVSPropertyOp59
 70
     1
102
RTVSPropertyOp60
 70
     1
102
RTVSPropertyOp61
 70
     1
102
RTVSPropertyOp62
 70
     1
  0
XRECORD
  5
10E3
102
{ACAD_REACTORS
330
10E2
102
}
330
10E2
100
AcDbXrecord
280
     1
102
RTVSPost2010Prop28
280
     0
102
RTVSPost2010PropOp28
 70
     0
102
RTVSPost2010Prop29
280
     1
102
RTVSPost2010PropOp29
 70
     0
102
RTVSPost2010Prop30
280
     1
102
RTVSPost2010PropOp30
 70
     0
102
RTVSPost2010Prop31
280
     0
102
RTVSPost2010PropOp31
 70
     0
102
RTVSPost2010Prop32
280
     0
102
RTVSPost2010PropOp32
 70
     0
102
RTVSPost2010Prop33
280
     0
102
RTVSPost2010PropOp33
 70
     0
102
RTVSPost2010Prop34
280
     0
102
RTVSPost2010PropOp34
 70
     0
102
RTVSPost2010Prop35
280
     0
102
RTVSPost2010PropOp35
 70
     0
102
RTVSPost2010Prop36
280
     0
102
RTVSPost2010PropOp36
 70
     0
102
RTVSPost2010Prop37
 90
       50
102
RTVSPost2010PropOp37
 70
     0
102
RTVSPost2010Prop38
140
0.0
102
RTVSPost2010PropOp38
 70
     0
102
RTVSPost2010Prop39
140
1.0
102
RTVSPost2010PropOp39
 70
     0
102
RTVSPost2010Prop40
 90
        0
102
RTVSPost2010PropOp40
 70
     0
102
RTVSPost2010Prop41ColorIndex
 90
       18
102
RTVSPost2010Prop41ColorRGB
 90
        0
102
RTVSPost2010PropOp41
 70
     0
102
RTVSPost2010Prop42
 90
       50
102
RTVSPost2010PropOp42
 70
     0
102
RTVSPost2010Prop43
 90
        3
102
RTVSPost2010PropOp43
 70
     0
102
RTVSPost2010Prop44ColorIndex
 90
        5
102
RTVSPost2010Prop44ColorRGB
 90
      255
102
RTVSPost2010PropOp44
 70
     0
102
RTVSPost2010Prop45
280
     0
102
RTVSPost2010PropOp45
 70
     0
102
RTVSPost2010Prop46
 90
       50
102
RTVSPost2010PropOp46
 70
     0
102
RTVSPost2010Prop47
 90
       50
102
RTVSPost2010PropOp47
 70
     0
102
RTVSPost2010Prop48
 90
       50
102
RTVSPost2010PropOp48
 70
     0
102
RTVSPost2010Prop49
280
     0
102
RTVSPost2010PropOp49
 70
     0
102
RTVSPost2010Prop50
 90
       50
102
RTVSPost2010PropOp50
 70
     0
102
RTVSPost2010Prop51ColorIndex
 90
      256
102
RTVSPost2010Prop51ColorRGB
 90
-16777216
102
RTVSPost2010PropOp51
 70
     0
102
RTVSPost2010Prop52
140
1.0
102
RTVSPost2010PropOp52
 70
     0
102
RTVSPost2010Prop53
 90
        2
102
RTVSPost2010PropOp53
 70
     0
102
RTVSPost2010Prop54
  1
strokes_ogs.tif
102
RTVSPost2010PropOp54
 70
     0
102
RTVSPost2010Prop55
280
     0
102
RTVSPost2010PropOp55
 70
     0
102
RTVSPost2010Prop56
140
1.0
102
RTVSPost2010PropOp56
 70
     0
102
RTVSPost2010Prop57
140
1.0
102
RTVSPost2010PropOp57
 70
     0
102
RTVSPropertyOp0
 70
     0
102
RTVSPropertyOp1
 70
     0
102
RTVSPropertyOp2
 70
     0
102
RTVSPropertyOp3
 70
     0
102
RTVSPropertyOp4
 70
     0
102
RTVSPropertyOp5
 70
     0
102
RTVSPropertyOp6
 70
     0
102
RTVSPropertyOp7
 70
     0
102
RTVSPropertyOp8
 70
     0
102
RTVSPropertyOp9
 70
     0
102
RTVSPropertyOp10
 70
     0
102
RTVSPropertyOp11
 70
     0
102
RTVSPropertyOp12
 70
     0
102
RTVSPropertyOp13
 70
     0
102
RTVSPropertyOp14
 70
     2
102
RTVSPropertyOp15
 70
     0
102
RTVSPropertyOp16
 70
     0
102
RTVSPropertyOp17
 70
     0
102
RTVSPropertyOp18
 70
     0
102
RTVSPropertyOp19
 70
     0
102
RTVSPropertyOp20
 70
     0
102
RTVSPropertyOp21
 70
     0
102
RTVSPropertyOp22
 70
     0
102
RTVSPropertyOp23
 70
     0
102
RTVSPropertyOp24
 70
     0
102
RTVSPropertyOp25
 70
     0
102
RTVSPropertyOp26
 70
     0
102
RTVSPropertyOp27
 70
     0
102
RTVSPropertyOp28
 70
     0
102
RTVSPropertyOp29
 70
     0
102
RTVSPropertyOp30
 70
     0
102
RTVSPropertyOp31
 70
     0
102
RTVSPropertyOp32
 70
     0
102
RTVSPropertyOp33
 70
     0
102
RTVSPropertyOp34
 70
     0
102
RTVSPropertyOp35
 70
     0
102
RTVSPropertyOp36
 70
     0
102
RTVSPropertyOp37
 70
     0
102
RTVSPropertyOp38
 70
     0
102
RTVSPropertyOp39
 70
     0
102
RTVSPropertyOp40
 70
     0
102
RTVSPropertyOp41
 70
     0
102
RTVSPropertyOp42
 70
     0
102
RTVSPropertyOp43
 70
     0
102
RTVSPropertyOp44
 70
     0
102
RTVSPropertyOp45
 70
     0
102
RTVSPropertyOp46
 70
     0
102
RTVSPropertyOp47
 70
     0
102
RTVSPropertyOp48
 70
     0
102
RTVSPropertyOp49
 70
     0
102
RTVSPropertyOp50
 70
     0
102
RTVSPropertyOp51
 70
     0
102
RTVSPropertyOp52
 70
     0
102
RTVSPropertyOp53
 70
     0
102
RTVSPropertyOp54
 70
     0
102
RTVSPropertyOp55
 70
     0
102
RTVSPropertyOp56
 70
     0
102
RTVSPropertyOp57
 70
     0
102
RTVSPropertyOp58
 70
     1
102
RTVSPropertyOp59
 70
     1
102
RTVSPropertyOp60
 70
     1
102
RTVSPropertyOp61
 70
     1
102
RTVSPropertyOp62
 70
     1
  0
XRECORD
  5
10D3
102
{ACAD_REACTORS
330
10D2
102
}
330
10D2
100
AcDbXrecord
280
     1
102
RTVSPost2010Prop28
280
     0
102
RTVSPost2010PropOp28
 70
     1
102
RTVSPost2010Prop29
280
     1
102
RTVSPost2010PropOp29
 70
     1
102
RTVSPost2010Prop30
280
     1
102
RTVSPost2010PropOp30
 70
     1
102
RTVSPost2010Prop31
280
     0
102
RTVSPost2010PropOp31
 70
     1
102
RTVSPost2010Prop32
280
     0
102
RTVSPost2010PropOp32
 70
     1
102
RTVSPost2010Prop33
280
     0
102
RTVSPost2010PropOp33
 70
     1
102
RTVSPost2010Prop34
280
     0
102
RTVSPost2010PropOp34
 70
     1
102
RTVSPost2010Prop35
280
     0
102
RTVSPost2010PropOp35
 70
     1
102
RTVSPost2010Prop36
280
     0
102
RTVSPost2010PropOp36
 70
     1
102
RTVSPost2010Prop37
 90
       50
102
RTVSPost2010PropOp37
 70
     1
102
RTVSPost2010Prop38
140
0.0
102
RTVSPost2010PropOp38
 70
     1
102
RTVSPost2010Prop39
140
1.0
102
RTVSPost2010PropOp39
 70
     1
102
RTVSPost2010Prop40
 90
        0
102
RTVSPost2010PropOp40
 70
     1
102
RTVSPost2010Prop41ColorIndex
 90
       18
102
RTVSPost2010Prop41ColorRGB
 90
        0
102
RTVSPost2010PropOp41
 70
     1
102
RTVSPost2010Prop42
 90
       50
102
RTVSPost2010PropOp42
 70
     1
102
RTVSPost2010Prop43
 90
        3
102
RTVSPost2010PropOp43
 70
     1
102
RTVSPost2010Prop44ColorIndex
 90
        5
102
RTVSPost2010Prop44ColorRGB
 90
      255
102
RTVSPost2010PropOp44
 70
     1
102
RTVSPost2010Prop45
280
     0
102
RTVSPost2010PropOp45
 70
     1
102
RTVSPost2010Prop46
 90
       50
102
RTVSPost2010PropOp46
 70
     1
102
RTVSPost2010Prop47
 90
       50
102
RTVSPost2010PropOp47
 70
     1
102
RTVSPost2010Prop48
 90
       50
102
RTVSPost2010PropOp48
 70
     1
102
RTVSPost2010Prop49
280
     0
102
RTVSPost2010PropOp49
 70
     1
102
RTVSPost2010Prop50
 90
       50
102
RTVSPost2010PropOp50
 70
     1
102
RTVSPost2010Prop51ColorIndex
 90
      256
102
RTVSPost2010Prop51ColorRGB
 90
-16777216
102
RTVSPost2010PropOp51
 70
     0
102
RTVSPost2010Prop52
140
1.0
102
RTVSPost2010PropOp52
 70
     0
102
RTVSPost2010Prop53
 90
        2
102
RTVSPost2010PropOp53
 70
     1
102
RTVSPost2010Prop54
  1
strokes_ogs.tif
102
RTVSPost2010PropOp54
 70
     1
102
RTVSPost2010Prop55
280
     0
102
RTVSPost2010PropOp55
 70
     1
102
RTVSPost2010Prop56
140
1.0
102
RTVSPost2010PropOp56
 70
     1
102
RTVSPost2010Prop57
140
1.0
102
RTVSPost2010PropOp57
 70
     1
102
RTVSPropertyOp0
 70
     1
102
RTVSPropertyOp1
 70
     1
102
RTVSPropertyOp2
 70
     1
102
RTVSPropertyOp3
 70
     1
102
RTVSPropertyOp4
 70
     1
102
RTVSPropertyOp5
 70
     1
102
RTVSPropertyOp6
 70
     1
102
RTVSPropertyOp7
 70
     1
102
RTVSPropertyOp8
 70
     1
102
RTVSPropertyOp9
 70
     1
102
RTVSPropertyOp10
 70
     1
102
RTVSPropertyOp11
 70
     1
102
RTVSPropertyOp12
 70
     1
102
RTVSPropertyOp13
 70
     1
102
RTVSPropertyOp14
 70
     1
102
RTVSPropertyOp15
 70
     1
102
RTVSPropertyOp16
 70
     1
102
RTVSPropertyOp17
 70
     1
102
RTVSPropertyOp18
 70
     1
102
RTVSPropertyOp19
 70
     1
102
RTVSPropertyOp20
 70
     1
102
RTVSPropertyOp21
 70
     1
102
RTVSPropertyOp22
 70
     1
102
RTVSPropertyOp23
 70
     1
102
RTVSPropertyOp24
 70
     1
102
RTVSPropertyOp25
 70
     1
102
RTVSPropertyOp26
 70
     1
102
RTVSPropertyOp27
 70
     1
102
RTVSPropertyOp28
 70
     1
102
RTVSPropertyOp29
 70
     1
102
RTVSPropertyOp30
 70
     1
102
RTVSPropertyOp31
 70
     1
102
RTVSPropertyOp32
 70
     1
102
RTVSPropertyOp33
 70
     1
102
RTVSPropertyOp34
 70
     1
102
RTVSPropertyOp35
 70
     1
102
RTVSPropertyOp36
 70
     1
102
RTVSPropertyOp37
 70
     1
102
RTVSPropertyOp38
 70
     1
102
RTVSPropertyOp39
 70
     1
102
RTVSPropertyOp40
 70
     1
102
RTVSPropertyOp41
 70
     1
102
RTVSPropertyOp42
 70
     1
102
RTVSPropertyOp43
 70
     1
102
RTVSPropertyOp44
 70
     1
102
RTVSPropertyOp45
 70
     1
102
RTVSPropertyOp46
 70
     1
102
RTVSPropertyOp47
 70
     1
102
RTVSPropertyOp48
 70
     1
102
RTVSPropertyOp49
 70
     1
102
RTVSPropertyOp50
 70
     1
102
RTVSPropertyOp51
 70
     0
102
RTVSPropertyOp52
 70
     0
102
RTVSPropertyOp53
 70
     1
102
RTVSPropertyOp54
 70
     1
102
RTVSPropertyOp55
 70
     1
102
RTVSPropertyOp56
 70
     1
102
RTVSPropertyOp57
 70
     1
102
RTVSPropertyOp58
 70
     1
102
RTVSPropertyOp59
 70
     1
102
RTVSPropertyOp60
 70
     1
102
RTVSPropertyOp61
 70
     1
102
RTVSPropertyOp62
 70
     1
  0
XRECORD
  5
10E5
102
{ACAD_REACTORS
330
10E4
102
}
330
10E4
100
AcDbXrecord
280
     1
102
RTVSPost2010Prop28
280
     0
102
RTVSPost2010PropOp28
 70
     0
102
RTVSPost2010Prop29
280
     1
102
RTVSPost2010PropOp29
 70
     0
102
RTVSPost2010Prop30
280
     1
102
RTVSPost2010PropOp30
 70
     0
102
RTVSPost2010Prop31
280
     0
102
RTVSPost2010PropOp31
 70
     0
102
RTVSPost2010Prop32
280
     0
102
RTVSPost2010PropOp32
 70
     0
102
RTVSPost2010Prop33
280
     0
102
RTVSPost2010PropOp33
 70
     0
102
RTVSPost2010Prop34
280
     0
102
RTVSPost2010PropOp34
 70
     0
102
RTVSPost2010Prop35
280
     0
102
RTVSPost2010PropOp35
 70
     0
102
RTVSPost2010Prop36
280
     0
102
RTVSPost2010PropOp36
 70
     0
102
RTVSPost2010Prop37
 90
       50
102
RTVSPost2010PropOp37
 70
     0
102
RTVSPost2010Prop38
140
0.0
102
RTVSPost2010PropOp38
 70
     0
102
RTVSPost2010Prop39
140
1.0
102
RTVSPost2010PropOp39
 70
     0
102
RTVSPost2010Prop40
 90
        0
102
RTVSPost2010PropOp40
 70
     0
102
RTVSPost2010Prop41ColorIndex
 90
       18
102
RTVSPost2010Prop41ColorRGB
 90
        0
102
RTVSPost2010PropOp41
 70
     0
102
RTVSPost2010Prop42
 90
       50
102
RTVSPost2010PropOp42
 70
     0
102
RTVSPost2010Prop43
 90
        3
102
RTVSPost2010PropOp43
 70
     0
102
RTVSPost2010Prop44ColorIndex
 90
        5
102
RTVSPost2010Prop44ColorRGB
 90
      255
102
RTVSPost2010PropOp44
 70
     0
102
RTVSPost2010Prop45
280
     0
102
RTVSPost2010PropOp45
 70
     0
102
RTVSPost2010Prop46
 90
       50
102
RTVSPost2010PropOp46
 70
     0
102
RTVSPost2010Prop47
 90
       50
102
RTVSPost2010PropOp47
 70
     0
102
RTVSPost2010Prop48
 90
       50
102
RTVSPost2010PropOp48
 70
     0
102
RTVSPost2010Prop49
280
     0
102
RTVSPost2010PropOp49
 70
     0
102
RTVSPost2010Prop50
 90
       50
102
RTVSPost2010PropOp50
 70
     0
102
RTVSPost2010Prop51ColorIndex
 90
      256
102
RTVSPost2010Prop51ColorRGB
 90
-16777216
102
RTVSPost2010PropOp51
 70
     0
102
RTVSPost2010Prop52
140
1.0
102
RTVSPost2010PropOp52
 70
     0
102
RTVSPost2010Prop53
 90
        2
102
RTVSPost2010PropOp53
 70
     0
102
RTVSPost2010Prop54
  1
strokes_ogs.tif
102
RTVSPost2010PropOp54
 70
     0
102
RTVSPost2010Prop55
280
     0
102
RTVSPost2010PropOp55
 70
     0
102
RTVSPost2010Prop56
140
1.0
102
RTVSPost2010PropOp56
 70
     0
102
RTVSPost2010Prop57
140
1.0
102
RTVSPost2010PropOp57
 70
     0
102
RTVSPropertyOp0
 70
     0
102
RTVSPropertyOp1
 70
     0
102
RTVSPropertyOp2
 70
     0
102
RTVSPropertyOp3
 70
     0
102
RTVSPropertyOp4
 70
     0
102
RTVSPropertyOp5
 70
     0
102
RTVSPropertyOp6
 70
     0
102
RTVSPropertyOp7
 70
     0
102
RTVSPropertyOp8
 70
     0
102
RTVSPropertyOp9
 70
     0
102
RTVSPropertyOp10
 70
     0
102
RTVSPropertyOp11
 70
     0
102
RTVSPropertyOp12
 70
     0
102
RTVSPropertyOp13
 70
     0
102
RTVSPropertyOp14
 70
     2
102
RTVSPropertyOp15
 70
     0
102
RTVSPropertyOp16
 70
     0
102
RTVSPropertyOp17
 70
     0
102
RTVSPropertyOp18
 70
     0
102
RTVSPropertyOp19
 70
     0
102
RTVSPropertyOp20
 70
     0
102
RTVSPropertyOp21
 70
     0
102
RTVSPropertyOp22
 70
     0
102
RTVSPropertyOp23
 70
     0
102
RTVSPropertyOp24
 70
     0
102
RTVSPropertyOp25
 70
     0
102
RTVSPropertyOp26
 70
     0
102
RTVSPropertyOp27
 70
     0
102
RTVSPropertyOp28
 70
     0
102
RTVSPropertyOp29
 70
     0
102
RTVSPropertyOp30
 70
     0
102
RTVSPropertyOp31
 70
     0
102
RTVSPropertyOp32
 70
     0
102
RTVSPropertyOp33
 70
     0
102
RTVSPropertyOp34
 70
     0
102
RTVSPropertyOp35
 70
     0
102
RTVSPropertyOp36
 70
     0
102
RTVSPropertyOp37
 70
     0
102
RTVSPropertyOp38
 70
     0
102
RTVSPropertyOp39
 70
     0
102
RTVSPropertyOp40
 70
     0
102
RTVSPropertyOp41
 70
     0
102
RTVSPropertyOp42
 70
     0
102
RTVSPropertyOp43
 70
     0
102
RTVSPropertyOp44
 70
     0
102
RTVSPropertyOp45
 70
     0
102
RTVSPropertyOp46
 70
     0
102
RTVSPropertyOp47
 70
     0
102
RTVSPropertyOp48
 70
     0
102
RTVSPropertyOp49
 70
     0
102
RTVSPropertyOp50
 70
     0
102
RTVSPropertyOp51
 70
     0
102
RTVSPropertyOp52
 70
     0
102
RTVSPropertyOp53
 70
     0
102
RTVSPropertyOp54
 70
     0
102
RTVSPropertyOp55
 70
     0
102
RTVSPropertyOp56
 70
     0
102
RTVSPropertyOp57
 70
     0
102
RTVSPropertyOp58
 70
     1
102
RTVSPropertyOp59
 70
     1
102
RTVSPropertyOp60
 70
     1
102
RTVSPropertyOp61
 70
     1
102
RTVSPropertyOp62
 70
     1
  0
XRECORD
  5
10CB
102
{ACAD_REACTORS
330
10CA
102
}
330
10CA
100
AcDbXrecord
280
     1
102
RTVSPost2010Prop28
280
     0
102
RTVSPost2010PropOp28
 70
     1
102
RTVSPost2010Prop29
280
     1
102
RTVSPost2010PropOp29
 70
     1
102
RTVSPost2010Prop30
280
     1
102
RTVSPost2010PropOp30
 70
     1
102
RTVSPost2010Prop31
280
     0
102
RTVSPost2010PropOp31
 70
     1
102
RTVSPost2010Prop32
280
     0
102
RTVSPost2010PropOp32
 70
     1
102
RTVSPost2010Prop33
280
     0
102
RTVSPost2010PropOp33
 70
     1
102
RTVSPost2010Prop34
280
     0
102
RTVSPost2010PropOp34
 70
     1
102
RTVSPost2010Prop35
280
     0
102
RTVSPost2010PropOp35
 70
     1
102
RTVSPost2010Prop36
280
     0
102
RTVSPost2010PropOp36
 70
     1
102
RTVSPost2010Prop37
 90
       50
102
RTVSPost2010PropOp37
 70
     1
102
RTVSPost2010Prop38
140
0.0
102
RTVSPost2010PropOp38
 70
     1
102
RTVSPost2010Prop39
140
1.0
102
RTVSPost2010PropOp39
 70
     1
102
RTVSPost2010Prop40
 90
        0
102
RTVSPost2010PropOp40
 70
     1
102
RTVSPost2010Prop41ColorIndex
 90
       18
102
RTVSPost2010Prop41ColorRGB
 90
        0
102
RTVSPost2010PropOp41
 70
     1
102
RTVSPost2010Prop42
 90
       50
102
RTVSPost2010PropOp42
 70
     1
102
RTVSPost2010Prop43
 90
        3
102
RTVSPost2010PropOp43
 70
     1
102
RTVSPost2010Prop44ColorIndex
 90
        5
102
RTVSPost2010Prop44ColorRGB
 90
      255
102
RTVSPost2010PropOp44
 70
     1
102
RTVSPost2010Prop45
280
     0
102
RTVSPost2010PropOp45
 70
     1
102
RTVSPost2010Prop46
 90
       50
102
RTVSPost2010PropOp46
 70
     1
102
RTVSPost2010Prop47
 90
       50
102
RTVSPost2010PropOp47
 70
     1
102
RTVSPost2010Prop48
 90
       50
102
RTVSPost2010PropOp48
 70
     1
102
RTVSPost2010Prop49
280
     0
102
RTVSPost2010PropOp49
 70
     1
102
RTVSPost2010Prop50
 90
       50
102
RTVSPost2010PropOp50
 70
     1
102
RTVSPost2010Prop51ColorIndex
 90
      256
102
RTVSPost2010Prop51ColorRGB
 90
-16777216
102
RTVSPost2010PropOp51
 70
     0
102
RTVSPost2010Prop52
140
1.0
102
RTVSPost2010PropOp52
 70
     0
102
RTVSPost2010Prop53
 90
        2
102
RTVSPost2010PropOp53
 70
     1
102
RTVSPost2010Prop54
  1
strokes_ogs.tif
102
RTVSPost2010PropOp54
 70
     1
102
RTVSPost2010Prop55
280
     0
102
RTVSPost2010PropOp55
 70
     1
102
RTVSPost2010Prop56
140
1.0
102
RTVSPost2010PropOp56
 70
     1
102
RTVSPost2010Prop57
140
1.0
102
RTVSPost2010PropOp57
 70
     1
102
RTVSPropertyOp0
 70
     1
102
RTVSPropertyOp1
 70
     1
102
RTVSPropertyOp2
 70
     1
102
RTVSPropertyOp3
 70
     1
102
RTVSPropertyOp4
 70
     1
102
RTVSPropertyOp5
 70
     1
102
RTVSPropertyOp6
 70
     1
102
RTVSPropertyOp7
 70
     1
102
RTVSPropertyOp8
 70
     1
102
RTVSPropertyOp9
 70
     1
102
RTVSPropertyOp10
 70
     1
102
RTVSPropertyOp11
 70
     1
102
RTVSPropertyOp12
 70
     1
102
RTVSPropertyOp13
 70
     1
102
RTVSPropertyOp14
 70
     1
102
RTVSPropertyOp15
 70
     1
102
RTVSPropertyOp16
 70
     1
102
RTVSPropertyOp17
 70
     1
102
RTVSPropertyOp18
 70
     1
102
RTVSPropertyOp19
 70
     1
102
RTVSPropertyOp20
 70
     1
102
RTVSPropertyOp21
 70
     1
102
RTVSPropertyOp22
 70
     1
102
RTVSPropertyOp23
 70
     1
102
RTVSPropertyOp24
 70
     1
102
RTVSPropertyOp25
 70
     1
102
RTVSPropertyOp26
 70
     1
102
RTVSPropertyOp27
 70
     1
102
RTVSPropertyOp28
 70
     1
102
RTVSPropertyOp29
 70
     1
102
RTVSPropertyOp30
 70
     1
102
RTVSPropertyOp31
 70
     1
102
RTVSPropertyOp32
 70
     1
102
RTVSPropertyOp33
 70
     1
102
RTVSPropertyOp34
 70
     1
102
RTVSPropertyOp35
 70
     1
102
RTVSPropertyOp36
 70
     1
102
RTVSPropertyOp37
 70
     1
102
RTVSPropertyOp38
 70
     1
102
RTVSPropertyOp39
 70
     1
102
RTVSPropertyOp40
 70
     1
102
RTVSPropertyOp41
 70
     1
102
RTVSPropertyOp42
 70
     1
102
RTVSPropertyOp43
 70
     1
102
RTVSPropertyOp44
 70
     1
102
RTVSPropertyOp45
 70
     1
102
RTVSPropertyOp46
 70
     1
102
RTVSPropertyOp47
 70
     1
102
RTVSPropertyOp48
 70
     1
102
RTVSPropertyOp49
 70
     1
102
RTVSPropertyOp50
 70
     1
102
RTVSPropertyOp51
 70
     0
102
RTVSPropertyOp52
 70
     0
102
RTVSPropertyOp53
 70
     1
102
RTVSPropertyOp54
 70
     1
102
RTVSPropertyOp55
 70
     1
102
RTVSPropertyOp56
 70
     1
102
RTVSPropertyOp57
 70
     1
102
RTVSPropertyOp58
 70
     1
102
RTVSPropertyOp59
 70
     1
102
RTVSPropertyOp60
 70
     1
102
RTVSPropertyOp61
 70
     1
102
RTVSPropertyOp62
 70
     1
  0
XRECORD
  5
10E1
102
{ACAD_REACTORS
330
10E0
102
}
330
10E0
100
AcDbXrecord
280
     1
102
RTVSPost2010Prop28
280
     0
102
RTVSPost2010PropOp28
 70
     1
102
RTVSPost2010Prop29
280
     1
102
RTVSPost2010PropOp29
 70
     1
102
RTVSPost2010Prop30
280
     1
102
RTVSPost2010PropOp30
 70
     1
102
RTVSPost2010Prop31
280
     0
102
RTVSPost2010PropOp31
 70
     1
102
RTVSPost2010Prop32
280
     0
102
RTVSPost2010PropOp32
 70
     1
102
RTVSPost2010Prop33
280
     0
102
RTVSPost2010PropOp33
 70
     1
102
RTVSPost2010Prop34
280
     0
102
RTVSPost2010PropOp34
 70
     1
102
RTVSPost2010Prop35
280
     0
102
RTVSPost2010PropOp35
 70
     1
102
RTVSPost2010Prop36
280
     0
102
RTVSPost2010PropOp36
 70
     1
102
RTVSPost2010Prop37
 90
       50
102
RTVSPost2010PropOp37
 70
     1
102
RTVSPost2010Prop38
140
0.0
102
RTVSPost2010PropOp38
 70
     1
102
RTVSPost2010Prop39
140
1.0
102
RTVSPost2010PropOp39
 70
     1
102
RTVSPost2010Prop40
 90
        0
102
RTVSPost2010PropOp40
 70
     1
102
RTVSPost2010Prop41ColorIndex
 90
       18
102
RTVSPost2010Prop41ColorRGB
 90
        0
102
RTVSPost2010PropOp41
 70
     1
102
RTVSPost2010Prop42
 90
       50
102
RTVSPost2010PropOp42
 70
     1
102
RTVSPost2010Prop43
 90
        3
102
RTVSPost2010PropOp43
 70
     1
102
RTVSPost2010Prop44ColorIndex
 90
        5
102
RTVSPost2010Prop44ColorRGB
 90
      255
102
RTVSPost2010PropOp44
 70
     1
102
RTVSPost2010Prop45
280
     0
102
RTVSPost2010PropOp45
 70
     1
102
RTVSPost2010Prop46
 90
       50
102
RTVSPost2010PropOp46
 70
     1
102
RTVSPost2010Prop47
 90
       50
102
RTVSPost2010PropOp47
 70
     1
102
RTVSPost2010Prop48
 90
       50
102
RTVSPost2010PropOp48
 70
     1
102
RTVSPost2010Prop49
280
     0
102
RTVSPost2010PropOp49
 70
     1
102
RTVSPost2010Prop50
 90
       50
102
RTVSPost2010PropOp50
 70
     1
102
RTVSPost2010Prop51ColorIndex
 90
      256
102
RTVSPost2010Prop51ColorRGB
 90
-16777216
102
RTVSPost2010PropOp51
 70
     0
102
RTVSPost2010Prop52
140
1.0
102
RTVSPost2010PropOp52
 70
     0
102
RTVSPost2010Prop53
 90
        2
102
RTVSPost2010PropOp53
 70
     1
102
RTVSPost2010Prop54
  1
strokes_ogs.tif
102
RTVSPost2010PropOp54
 70
     1
102
RTVSPost2010Prop55
280
     0
102
RTVSPost2010PropOp55
 70
     1
102
RTVSPost2010Prop56
140
1.0
102
RTVSPost2010PropOp56
 70
     1
102
RTVSPost2010Prop57
140
1.0
102
RTVSPost2010PropOp57
 70
     1
102
RTVSPropertyOp0
 70
     1
102
RTVSPropertyOp1
 70
     1
102
RTVSPropertyOp2
 70
     1
102
RTVSPropertyOp3
 70
     1
102
RTVSPropertyOp4
 70
     1
102
RTVSPropertyOp5
 70
     1
102
RTVSPropertyOp6
 70
     1
102
RTVSPropertyOp7
 70
     1
102
RTVSPropertyOp8
 70
     1
102
RTVSPropertyOp9
 70
     1
102
RTVSPropertyOp10
 70
     1
102
RTVSPropertyOp11
 70
     1
102
RTVSPropertyOp12
 70
     1
102
RTVSPropertyOp13
 70
     1
102
RTVSPropertyOp14
 70
     1
102
RTVSPropertyOp15
 70
     1
102
RTVSPropertyOp16
 70
     1
102
RTVSPropertyOp17
 70
     1
102
RTVSPropertyOp18
 70
     1
102
RTVSPropertyOp19
 70
     1
102
RTVSPropertyOp20
 70
     1
102
RTVSPropertyOp21
 70
     1
102
RTVSPropertyOp22
 70
     1
102
RTVSPropertyOp23
 70
     1
102
RTVSPropertyOp24
 70
     1
102
RTVSPropertyOp25
 70
     1
102
RTVSPropertyOp26
 70
     1
102
RTVSPropertyOp27
 70
     1
102
RTVSPropertyOp28
 70
     1
102
RTVSPropertyOp29
 70
     1
102
RTVSPropertyOp30
 70
     1
102
RTVSPropertyOp31
 70
     1
102
RTVSPropertyOp32
 70
     1
102
RTVSPropertyOp33
 70
     1
102
RTVSPropertyOp34
 70
     1
102
RTVSPropertyOp35
 70
     1
102
RTVSPropertyOp36
 70
     1
102
RTVSPropertyOp37
 70
     1
102
RTVSPropertyOp38
 70
     1
102
RTVSPropertyOp39
 70
     1
102
RTVSPropertyOp40
 70
     1
102
RTVSPropertyOp41
 70
     1
102
RTVSPropertyOp42
 70
     1
102
RTVSPropertyOp43
 70
     1
102
RTVSPropertyOp44
 70
     1
102
RTVSPropertyOp45
 70
     1
102
RTVSPropertyOp46
 70
     1
102
RTVSPropertyOp47
 70
     1
102
RTVSPropertyOp48
 70
     1
102
RTVSPropertyOp49
 70
     1
102
RTVSPropertyOp50
 70
     1
102
RTVSPropertyOp51
 70
     0
102
RTVSPropertyOp52
 70
     0
102
RTVSPropertyOp53
 70
     1
102
RTVSPropertyOp54
 70
     1
102
RTVSPropertyOp55
 70
     1
102
RTVSPropertyOp56
 70
     1
102
RTVSPropertyOp57
 70
     1
102
RTVSPropertyOp58
 70
     1
102
RTVSPropertyOp59
 70
     1
102
RTVSPropertyOp60
 70
     1
102
RTVSPropertyOp61
 70
     1
102
RTVSPropertyOp62
 70
     1
  0
XRECORD
  5
10DF
102
{ACAD_REACTORS
330
10DE
102
}
330
10DE
100
AcDbXrecord
280
     1
102
RTVSPost2010Prop28
280
     0
102
RTVSPost2010PropOp28
 70
     1
102
RTVSPost2010Prop29
280
     1
102
RTVSPost2010PropOp29
 70
     1
102
RTVSPost2010Prop30
280
     1
102
RTVSPost2010PropOp30
 70
     1
102
RTVSPost2010Prop31
280
     0
102
RTVSPost2010PropOp31
 70
     1
102
RTVSPost2010Prop32
280
     0
102
RTVSPost2010PropOp32
 70
     1
102
RTVSPost2010Prop33
280
     0
102
RTVSPost2010PropOp33
 70
     1
102
RTVSPost2010Prop34
280
     0
102
RTVSPost2010PropOp34
 70
     1
102
RTVSPost2010Prop35
280
     0
102
RTVSPost2010PropOp35
 70
     1
102
RTVSPost2010Prop36
280
     0
102
RTVSPost2010PropOp36
 70
     1
102
RTVSPost2010Prop37
 90
       50
102
RTVSPost2010PropOp37
 70
     1
102
RTVSPost2010Prop38
140
0.0
102
RTVSPost2010PropOp38
 70
     1
102
RTVSPost2010Prop39
140
1.0
102
RTVSPost2010PropOp39
 70
     1
102
RTVSPost2010Prop40
 90
        0
102
RTVSPost2010PropOp40
 70
     1
102
RTVSPost2010Prop41ColorIndex
 90
       18
102
RTVSPost2010Prop41ColorRGB
 90
        0
102
RTVSPost2010PropOp41
 70
     1
102
RTVSPost2010Prop42
 90
       50
102
RTVSPost2010PropOp42
 70
     1
102
RTVSPost2010Prop43
 90
        3
102
RTVSPost2010PropOp43
 70
     1
102
RTVSPost2010Prop44ColorIndex
 90
        5
102
RTVSPost2010Prop44ColorRGB
 90
      255
102
RTVSPost2010PropOp44
 70
     1
102
RTVSPost2010Prop45
280
     0
102
RTVSPost2010PropOp45
 70
     1
102
RTVSPost2010Prop46
 90
       50
102
RTVSPost2010PropOp46
 70
     1
102
RTVSPost2010Prop47
 90
       50
102
RTVSPost2010PropOp47
 70
     1
102
RTVSPost2010Prop48
 90
       50
102
RTVSPost2010PropOp48
 70
     1
102
RTVSPost2010Prop49
280
     0
102
RTVSPost2010PropOp49
 70
     1
102
RTVSPost2010Prop50
 90
       50
102
RTVSPost2010PropOp50
 70
     1
102
RTVSPost2010Prop51ColorIndex
 90
      256
102
RTVSPost2010Prop51ColorRGB
 90
-16777216
102
RTVSPost2010PropOp51
 70
     0
102
RTVSPost2010Prop52
140
1.0
102
RTVSPost2010PropOp52
 70
     0
102
RTVSPost2010Prop53
 90
        2
102
RTVSPost2010PropOp53
 70
     1
102
RTVSPost2010Prop54
  1
strokes_ogs.tif
102
RTVSPost2010PropOp54
 70
     1
102
RTVSPost2010Prop55
280
     0
102
RTVSPost2010PropOp55
 70
     1
102
RTVSPost2010Prop56
140
1.0
102
RTVSPost2010PropOp56
 70
     1
102
RTVSPost2010Prop57
140
1.0
102
RTVSPost2010PropOp57
 70
     1
102
RTVSPropertyOp0
 70
     1
102
RTVSPropertyOp1
 70
     1
102
RTVSPropertyOp2
 70
     1
102
RTVSPropertyOp3
 70
     1
102
RTVSPropertyOp4
 70
     1
102
RTVSPropertyOp5
 70
     1
102
RTVSPropertyOp6
 70
     1
102
RTVSPropertyOp7
 70
     1
102
RTVSPropertyOp8
 70
     1
102
RTVSPropertyOp9
 70
     1
102
RTVSPropertyOp10
 70
     1
102
RTVSPropertyOp11
 70
     1
102
RTVSPropertyOp12
 70
     1
102
RTVSPropertyOp13
 70
     1
102
RTVSPropertyOp14
 70
     1
102
RTVSPropertyOp15
 70
     1
102
RTVSPropertyOp16
 70
     1
102
RTVSPropertyOp17
 70
     1
102
RTVSPropertyOp18
 70
     1
102
RTVSPropertyOp19
 70
     1
102
RTVSPropertyOp20
 70
     1
102
RTVSPropertyOp21
 70
     1
102
RTVSPropertyOp22
 70
     1
102
RTVSPropertyOp23
 70
     1
102
RTVSPropertyOp24
 70
     1
102
RTVSPropertyOp25
 70
     1
102
RTVSPropertyOp26
 70
     1
102
RTVSPropertyOp27
 70
     1
102
RTVSPropertyOp28
 70
     1
102
RTVSPropertyOp29
 70
     1
102
RTVSPropertyOp30
 70
     1
102
RTVSPropertyOp31
 70
     1
102
RTVSPropertyOp32
 70
     1
102
RTVSPropertyOp33
 70
     1
102
RTVSPropertyOp34
 70
     1
102
RTVSPropertyOp35
 70
     1
102
RTVSPropertyOp36
 70
     1
102
RTVSPropertyOp37
 70
     1
102
RTVSPropertyOp38
 70
     1
102
RTVSPropertyOp39
 70
     1
102
RTVSPropertyOp40
 70
     1
102
RTVSPropertyOp41
 70
     1
102
RTVSPropertyOp42
 70
     1
102
RTVSPropertyOp43
 70
     1
102
RTVSPropertyOp44
 70
     1
102
RTVSPropertyOp45
 70
     1
102
RTVSPropertyOp46
 70
     1
102
RTVSPropertyOp47
 70
     1
102
RTVSPropertyOp48
 70
     1
102
RTVSPropertyOp49
 70
     1
102
RTVSPropertyOp50
 70
     1
102
RTVSPropertyOp51
 70
     0
102
RTVSPropertyOp52
 70
     0
102
RTVSPropertyOp53
 70
     1
102
RTVSPropertyOp54
 70
     1
102
RTVSPropertyOp55
 70
     1
102
RTVSPropertyOp56
 70
     1
102
RTVSPropertyOp57
 70
     1
102
RTVSPropertyOp58
 70
     1
102
RTVSPropertyOp59
 70
     1
102
RTVSPropertyOp60
 70
     1
102
RTVSPropertyOp61
 70
     1
102
RTVSPropertyOp62
 70
     1
  0
XRECORD
  5
10D9
102
{ACAD_REACTORS
330
10D8
102
}
330
10D8
100
AcDbXrecord
280
     1
102
RTVSPost2010Prop28
280
     0
102
RTVSPost2010PropOp28
 70
     1
102
RTVSPost2010Prop29
280
     1
102
RTVSPost2010PropOp29
 70
     1
102
RTVSPost2010Prop30
280
     1
102
RTVSPost2010PropOp30
 70
     1
102
RTVSPost2010Prop31
280
     0
102
RTVSPost2010PropOp31
 70
     1
102
RTVSPost2010Prop32
280
     0
102
RTVSPost2010PropOp32
 70
     1
102
RTVSPost2010Prop33
280
     0
102
RTVSPost2010PropOp33
 70
     1
102
RTVSPost2010Prop34
280
     0
102
RTVSPost2010PropOp34
 70
     1
102
RTVSPost2010Prop35
280
     0
102
RTVSPost2010PropOp35
 70
     1
102
RTVSPost2010Prop36
280
     0
102
RTVSPost2010PropOp36
 70
     1
102
RTVSPost2010Prop37
 90
       50
102
RTVSPost2010PropOp37
 70
     1
102
RTVSPost2010Prop38
140
0.0
102
RTVSPost2010PropOp38
 70
     1
102
RTVSPost2010Prop39
140
1.0
102
RTVSPost2010PropOp39
 70
     1
102
RTVSPost2010Prop40
 90
        0
102
RTVSPost2010PropOp40
 70
     1
102
RTVSPost2010Prop41ColorIndex
 90
       18
102
RTVSPost2010Prop41ColorRGB
 90
        0
102
RTVSPost2010PropOp41
 70
     1
102
RTVSPost2010Prop42
 90
       50
102
RTVSPost2010PropOp42
 70
     1
102
RTVSPost2010Prop43
 90
        3
102
RTVSPost2010PropOp43
 70
     1
102
RTVSPost2010Prop44ColorIndex
 90
        5
102
RTVSPost2010Prop44ColorRGB
 90
      255
102
RTVSPost2010PropOp44
 70
     1
102
RTVSPost2010Prop45
280
     0
102
RTVSPost2010PropOp45
 70
     1
102
RTVSPost2010Prop46
 90
       50
102
RTVSPost2010PropOp46
 70
     1
102
RTVSPost2010Prop47
 90
       50
102
RTVSPost2010PropOp47
 70
     1
102
RTVSPost2010Prop48
 90
       50
102
RTVSPost2010PropOp48
 70
     1
102
RTVSPost2010Prop49
280
     0
102
RTVSPost2010PropOp49
 70
     1
102
RTVSPost2010Prop50
 90
       50
102
RTVSPost2010PropOp50
 70
     1
102
RTVSPost2010Prop51ColorIndex
 90
      256
102
RTVSPost2010Prop51ColorRGB
 90
-16777216
102
RTVSPost2010PropOp51
 70
     0
102
RTVSPost2010Prop52
140
1.0
102
RTVSPost2010PropOp52
 70
     0
102
RTVSPost2010Prop53
 90
        2
102
RTVSPost2010PropOp53
 70
     1
102
RTVSPost2010Prop54
  1
strokes_ogs.tif
102
RTVSPost2010PropOp54
 70
     1
102
RTVSPost2010Prop55
280
     0
102
RTVSPost2010PropOp55
 70
     1
102
RTVSPost2010Prop56
140
1.0
102
RTVSPost2010PropOp56
 70
     1
102
RTVSPost2010Prop57
140
1.0
102
RTVSPost2010PropOp57
 70
     1
102
RTVSPropertyOp0
 70
     1
102
RTVSPropertyOp1
 70
     1
102
RTVSPropertyOp2
 70
     1
102
RTVSPropertyOp3
 70
     1
102
RTVSPropertyOp4
 70
     1
102
RTVSPropertyOp5
 70
     1
102
RTVSPropertyOp6
 70
     1
102
RTVSPropertyOp7
 70
     1
102
RTVSPropertyOp8
 70
     1
102
RTVSPropertyOp9
 70
     1
102
RTVSPropertyOp10
 70
     1
102
RTVSPropertyOp11
 70
     1
102
RTVSPropertyOp12
 70
     1
102
RTVSPropertyOp13
 70
     1
102
RTVSPropertyOp14
 70
     1
102
RTVSPropertyOp15
 70
     1
102
RTVSPropertyOp16
 70
     1
102
RTVSPropertyOp17
 70
     1
102
RTVSPropertyOp18
 70
     1
102
RTVSPropertyOp19
 70
     1
102
RTVSPropertyOp20
 70
     1
102
RTVSPropertyOp21
 70
     1
102
RTVSPropertyOp22
 70
     1
102
RTVSPropertyOp23
 70
     1
102
RTVSPropertyOp24
 70
     1
102
RTVSPropertyOp25
 70
     1
102
RTVSPropertyOp26
 70
     1
102
RTVSPropertyOp27
 70
     1
102
RTVSPropertyOp28
 70
     1
102
RTVSPropertyOp29
 70
     1
102
RTVSPropertyOp30
 70
     1
102
RTVSPropertyOp31
 70
     1
102
RTVSPropertyOp32
 70
     1
102
RTVSPropertyOp33
 70
     1
102
RTVSPropertyOp34
 70
     1
102
RTVSPropertyOp35
 70
     1
102
RTVSPropertyOp36
 70
     1
102
RTVSPropertyOp37
 70
     1
102
RTVSPropertyOp38
 70
     1
102
RTVSPropertyOp39
 70
     1
102
RTVSPropertyOp40
 70
     1
102
RTVSPropertyOp41
 70
     1
102
RTVSPropertyOp42
 70
     1
102
RTVSPropertyOp43
 70
     1
102
RTVSPropertyOp44
 70
     1
102
RTVSPropertyOp45
 70
     1
102
RTVSPropertyOp46
 70
     1
102
RTVSPropertyOp47
 70
     1
102
RTVSPropertyOp48
 70
     1
102
RTVSPropertyOp49
 70
     1
102
RTVSPropertyOp50
 70
     1
102
RTVSPropertyOp51
 70
     0
102
RTVSPropertyOp52
 70
     0
102
RTVSPropertyOp53
 70
     1
102
RTVSPropertyOp54
 70
     1
102
RTVSPropertyOp55
 70
     1
102
RTVSPropertyOp56
 70
     1
102
RTVSPropertyOp57
 70
     1
102
RTVSPropertyOp58
 70
     1
102
RTVSPropertyOp59
 70
     1
102
RTVSPropertyOp60
 70
     1
102
RTVSPropertyOp61
 70
     1
102
RTVSPropertyOp62
 70
     1
  0
XRECORD
  5
10DB
102
{ACAD_REACTORS
330
10DA
102
}
330
10DA
100
AcDbXrecord
280
     1
102
RTVSPost2010Prop28
280
     0
102
RTVSPost2010PropOp28
 70
     1
102
RTVSPost2010Prop29
280
     1
102
RTVSPost2010PropOp29
 70
     1
102
RTVSPost2010Prop30
280
     1
102
RTVSPost2010PropOp30
 70
     1
102
RTVSPost2010Prop31
280
     0
102
RTVSPost2010PropOp31
 70
     1
102
RTVSPost2010Prop32
280
     0
102
RTVSPost2010PropOp32
 70
     1
102
RTVSPost2010Prop33
280
     0
102
RTVSPost2010PropOp33
 70
     1
102
RTVSPost2010Prop34
280
     0
102
RTVSPost2010PropOp34
 70
     1
102
RTVSPost2010Prop35
280
     0
102
RTVSPost2010PropOp35
 70
     1
102
RTVSPost2010Prop36
280
     0
102
RTVSPost2010PropOp36
 70
     1
102
RTVSPost2010Prop37
 90
       50
102
RTVSPost2010PropOp37
 70
     1
102
RTVSPost2010Prop38
140
0.0
102
RTVSPost2010PropOp38
 70
     1
102
RTVSPost2010Prop39
140
1.0
102
RTVSPost2010PropOp39
 70
     1
102
RTVSPost2010Prop40
 90
        0
102
RTVSPost2010PropOp40
 70
     1
102
RTVSPost2010Prop41ColorIndex
 90
       18
102
RTVSPost2010Prop41ColorRGB
 90
        0
102
RTVSPost2010PropOp41
 70
     1
102
RTVSPost2010Prop42
 90
       50
102
RTVSPost2010PropOp42
 70
     1
102
RTVSPost2010Prop43
 90
        3
102
RTVSPost2010PropOp43
 70
     1
102
RTVSPost2010Prop44ColorIndex
 90
        5
102
RTVSPost2010Prop44ColorRGB
 90
      255
102
RTVSPost2010PropOp44
 70
     1
102
RTVSPost2010Prop45
280
     0
102
RTVSPost2010PropOp45
 70
     1
102
RTVSPost2010Prop46
 90
       50
102
RTVSPost2010PropOp46
 70
     1
102
RTVSPost2010Prop47
 90
       50
102
RTVSPost2010PropOp47
 70
     1
102
RTVSPost2010Prop48
 90
       50
102
RTVSPost2010PropOp48
 70
     1
102
RTVSPost2010Prop49
280
     0
102
RTVSPost2010PropOp49
 70
     1
102
RTVSPost2010Prop50
 90
       50
102
RTVSPost2010PropOp50
 70
     1
102
RTVSPost2010Prop51ColorIndex
 90
      256
102
RTVSPost2010Prop51ColorRGB
 90
-16777216
102
RTVSPost2010PropOp51
 70
     0
102
RTVSPost2010Prop52
140
1.0
102
RTVSPost2010PropOp52
 70
     0
102
RTVSPost2010Prop53
 90
        2
102
RTVSPost2010PropOp53
 70
     1
102
RTVSPost2010Prop54
  1
strokes_ogs.tif
102
RTVSPost2010PropOp54
 70
     1
102
RTVSPost2010Prop55
280
     0
102
RTVSPost2010PropOp55
 70
     1
102
RTVSPost2010Prop56
140
1.0
102
RTVSPost2010PropOp56
 70
     1
102
RTVSPost2010Prop57
140
1.0
102
RTVSPost2010PropOp57
 70
     1
102
RTVSPropertyOp0
 70
     1
102
RTVSPropertyOp1
 70
     1
102
RTVSPropertyOp2
 70
     1
102
RTVSPropertyOp3
 70
     1
102
RTVSPropertyOp4
 70
     1
102
RTVSPropertyOp5
 70
     1
102
RTVSPropertyOp6
 70
     1
102
RTVSPropertyOp7
 70
     1
102
RTVSPropertyOp8
 70
     1
102
RTVSPropertyOp9
 70
     1
102
RTVSPropertyOp10
 70
     1
102
RTVSPropertyOp11
 70
     1
102
RTVSPropertyOp12
 70
     1
102
RTVSPropertyOp13
 70
     1
102
RTVSPropertyOp14
 70
     1
102
RTVSPropertyOp15
 70
     1
102
RTVSPropertyOp16
 70
     1
102
RTVSPropertyOp17
 70
     1
102
RTVSPropertyOp18
 70
     1
102
RTVSPropertyOp19
 70
     1
102
RTVSPropertyOp20
 70
     1
102
RTVSPropertyOp21
 70
     1
102
RTVSPropertyOp22
 70
     1
102
RTVSPropertyOp23
 70
     1
102
RTVSPropertyOp24
 70
     1
102
RTVSPropertyOp25
 70
     1
102
RTVSPropertyOp26
 70
     1
102
RTVSPropertyOp27
 70
     1
102
RTVSPropertyOp28
 70
     1
102
RTVSPropertyOp29
 70
     1
102
RTVSPropertyOp30
 70
     1
102
RTVSPropertyOp31
 70
     1
102
RTVSPropertyOp32
 70
     1
102
RTVSPropertyOp33
 70
     1
102
RTVSPropertyOp34
 70
     1
102
RTVSPropertyOp35
 70
     1
102
RTVSPropertyOp36
 70
     1
102
RTVSPropertyOp37
 70
     1
102
RTVSPropertyOp38
 70
     1
102
RTVSPropertyOp39
 70
     1
102
RTVSPropertyOp40
 70
     1
102
RTVSPropertyOp41
 70
     1
102
RTVSPropertyOp42
 70
     1
102
RTVSPropertyOp43
 70
     1
102
RTVSPropertyOp44
 70
     1
102
RTVSPropertyOp45
 70
     1
102
RTVSPropertyOp46
 70
     1
102
RTVSPropertyOp47
 70
     1
102
RTVSPropertyOp48
 70
     1
102
RTVSPropertyOp49
 70
     1
102
RTVSPropertyOp50
 70
     1
102
RTVSPropertyOp51
 70
     0
102
RTVSPropertyOp52
 70
     0
102
RTVSPropertyOp53
 70
     1
102
RTVSPropertyOp54
 70
     1
102
RTVSPropertyOp55
 70
     1
102
RTVSPropertyOp56
 70
     1
102
RTVSPropertyOp57
 70
     1
102
RTVSPropertyOp58
 70
     1
102
RTVSPropertyOp59
 70
     1
102
RTVSPropertyOp60
 70
     1
102
RTVSPropertyOp61
 70
     1
102
RTVSPropertyOp62
 70
     1
  0
XRECORD
  5
10D1
102
{ACAD_REACTORS
330
10D0
102
}
330
10D0
100
AcDbXrecord
280
     1
102
RTVSPost2010Prop28
280
     0
102
RTVSPost2010PropOp28
 70
     1
102
RTVSPost2010Prop29
280
     1
102
RTVSPost2010PropOp29
 70
     1
102
RTVSPost2010Prop30
280
     1
102
RTVSPost2010PropOp30
 70
     1
102
RTVSPost2010Prop31
280
     0
102
RTVSPost2010PropOp31
 70
     1
102
RTVSPost2010Prop32
280
     0
102
RTVSPost2010PropOp32
 70
     1
102
RTVSPost2010Prop33
280
     0
102
RTVSPost2010PropOp33
 70
     1
102
RTVSPost2010Prop34
280
     0
102
RTVSPost2010PropOp34
 70
     1
102
RTVSPost2010Prop35
280
     0
102
RTVSPost2010PropOp35
 70
     1
102
RTVSPost2010Prop36
280
     0
102
RTVSPost2010PropOp36
 70
     1
102
RTVSPost2010Prop37
 90
       50
102
RTVSPost2010PropOp37
 70
     1
102
RTVSPost2010Prop38
140
0.0
102
RTVSPost2010PropOp38
 70
     1
102
RTVSPost2010Prop39
140
1.0
102
RTVSPost2010PropOp39
 70
     1
102
RTVSPost2010Prop40
 90
        0
102
RTVSPost2010PropOp40
 70
     1
102
RTVSPost2010Prop41ColorIndex
 90
       18
102
RTVSPost2010Prop41ColorRGB
 90
        0
102
RTVSPost2010PropOp41
 70
     1
102
RTVSPost2010Prop42
 90
       50
102
RTVSPost2010PropOp42
 70
     1
102
RTVSPost2010Prop43
 90
        3
102
RTVSPost2010PropOp43
 70
     1
102
RTVSPost2010Prop44ColorIndex
 90
        5
102
RTVSPost2010Prop44ColorRGB
 90
      255
102
RTVSPost2010PropOp44
 70
     1
102
RTVSPost2010Prop45
280
     0
102
RTVSPost2010PropOp45
 70
     1
102
RTVSPost2010Prop46
 90
       50
102
RTVSPost2010PropOp46
 70
     1
102
RTVSPost2010Prop47
 90
       50
102
RTVSPost2010PropOp47
 70
     1
102
RTVSPost2010Prop48
 90
       50
102
RTVSPost2010PropOp48
 70
     1
102
RTVSPost2010Prop49
280
     0
102
RTVSPost2010PropOp49
 70
     1
102
RTVSPost2010Prop50
 90
       50
102
RTVSPost2010PropOp50
 70
     1
102
RTVSPost2010Prop51ColorIndex
 90
      256
102
RTVSPost2010Prop51ColorRGB
 90
-16777216
102
RTVSPost2010PropOp51
 70
     0
102
RTVSPost2010Prop52
140
1.0
102
RTVSPost2010PropOp52
 70
     0
102
RTVSPost2010Prop53
 90
        2
102
RTVSPost2010PropOp53
 70
     1
102
RTVSPost2010Prop54
  1
strokes_ogs.tif
102
RTVSPost2010PropOp54
 70
     1
102
RTVSPost2010Prop55
280
     0
102
RTVSPost2010PropOp55
 70
     1
102
RTVSPost2010Prop56
140
1.0
102
RTVSPost2010PropOp56
 70
     1
102
RTVSPost2010Prop57
140
1.0
102
RTVSPost2010PropOp57
 70
     1
102
RTVSPropertyOp0
 70
     1
102
RTVSPropertyOp1
 70
     1
102
RTVSPropertyOp2
 70
     1
102
RTVSPropertyOp3
 70
     1
102
RTVSPropertyOp4
 70
     1
102
RTVSPropertyOp5
 70
     1
102
RTVSPropertyOp6
 70
     1
102
RTVSPropertyOp7
 70
     1
102
RTVSPropertyOp8
 70
     1
102
RTVSPropertyOp9
 70
     1
102
RTVSPropertyOp10
 70
     1
102
RTVSPropertyOp11
 70
     1
102
RTVSPropertyOp12
 70
     1
102
RTVSPropertyOp13
 70
     1
102
RTVSPropertyOp14
 70
     1
102
RTVSPropertyOp15
 70
     1
102
RTVSPropertyOp16
 70
     1
102
RTVSPropertyOp17
 70
     1
102
RTVSPropertyOp18
 70
     1
102
RTVSPropertyOp19
 70
     1
102
RTVSPropertyOp20
 70
     1
102
RTVSPropertyOp21
 70
     1
102
RTVSPropertyOp22
 70
     1
102
RTVSPropertyOp23
 70
     1
102
RTVSPropertyOp24
 70
     1
102
RTVSPropertyOp25
 70
     1
102
RTVSPropertyOp26
 70
     1
102
RTVSPropertyOp27
 70
     1
102
RTVSPropertyOp28
 70
     1
102
RTVSPropertyOp29
 70
     1
102
RTVSPropertyOp30
 70
     1
102
RTVSPropertyOp31
 70
     1
102
RTVSPropertyOp32
 70
     1
102
RTVSPropertyOp33
 70
     1
102
RTVSPropertyOp34
 70
     1
102
RTVSPropertyOp35
 70
     1
102
RTVSPropertyOp36
 70
     1
102
RTVSPropertyOp37
 70
     1
102
RTVSPropertyOp38
 70
     1
102
RTVSPropertyOp39
 70
     1
102
RTVSPropertyOp40
 70
     1
102
RTVSPropertyOp41
 70
     1
102
RTVSPropertyOp42
 70
     1
102
RTVSPropertyOp43
 70
     1
102
RTVSPropertyOp44
 70
     1
102
RTVSPropertyOp45
 70
     1
102
RTVSPropertyOp46
 70
     1
102
RTVSPropertyOp47
 70
     1
102
RTVSPropertyOp48
 70
     1
102
RTVSPropertyOp49
 70
     1
102
RTVSPropertyOp50
 70
     1
102
RTVSPropertyOp51
 70
     0
102
RTVSPropertyOp52
 70
     0
102
RTVSPropertyOp53
 70
     1
102
RTVSPropertyOp54
 70
     1
102
RTVSPropertyOp55
 70
     1
102
RTVSPropertyOp56
 70
     1
102
RTVSPropertyOp57
 70
     1
102
RTVSPropertyOp58
 70
     1
102
RTVSPropertyOp59
 70
     1
102
RTVSPropertyOp60
 70
     1
102
RTVSPropertyOp61
 70
     1
102
RTVSPropertyOp62
 70
     1
  0
XRECORD
  5
10C5
102
{ACAD_REACTORS
330
10C4
102
}
330
10C4
100
AcDbXrecord
280
     1
102
RTVSPost2010Prop28
280
     0
102
RTVSPost2010PropOp28
 70
     1
102
RTVSPost2010Prop29
280
     1
102
RTVSPost2010PropOp29
 70
     1
102
RTVSPost2010Prop30
280
     1
102
RTVSPost2010PropOp30
 70
     1
102
RTVSPost2010Prop31
280
     0
102
RTVSPost2010PropOp31
 70
     1
102
RTVSPost2010Prop32
280
     0
102
RTVSPost2010PropOp32
 70
     1
102
RTVSPost2010Prop33
280
     0
102
RTVSPost2010PropOp33
 70
     1
102
RTVSPost2010Prop34
280
     0
102
RTVSPost2010PropOp34
 70
     1
102
RTVSPost2010Prop35
280
     0
102
RTVSPost2010PropOp35
 70
     1
102
RTVSPost2010Prop36
280
     0
102
RTVSPost2010PropOp36
 70
     1
102
RTVSPost2010Prop37
 90
       50
102
RTVSPost2010PropOp37
 70
     1
102
RTVSPost2010Prop38
140
0.0
102
RTVSPost2010PropOp38
 70
     1
102
RTVSPost2010Prop39
140
1.0
102
RTVSPost2010PropOp39
 70
     1
102
RTVSPost2010Prop40
 90
        0
102
RTVSPost2010PropOp40
 70
     1
102
RTVSPost2010Prop41ColorIndex
 90
       18
102
RTVSPost2010Prop41ColorRGB
 90
        0
102
RTVSPost2010PropOp41
 70
     1
102
RTVSPost2010Prop42
 90
       50
102
RTVSPost2010PropOp42
 70
     1
102
RTVSPost2010Prop43
 90
        3
102
RTVSPost2010PropOp43
 70
     1
102
RTVSPost2010Prop44ColorIndex
 90
        5
102
RTVSPost2010Prop44ColorRGB
 90
      255
102
RTVSPost2010PropOp44
 70
     1
102
RTVSPost2010Prop45
280
     0
102
RTVSPost2010PropOp45
 70
     1
102
RTVSPost2010Prop46
 90
       50
102
RTVSPost2010PropOp46
 70
     1
102
RTVSPost2010Prop47
 90
       50
102
RTVSPost2010PropOp47
 70
     1
102
RTVSPost2010Prop48
 90
       50
102
RTVSPost2010PropOp48
 70
     1
102
RTVSPost2010Prop49
280
     0
102
RTVSPost2010PropOp49
 70
     1
102
RTVSPost2010Prop50
 90
       50
102
RTVSPost2010PropOp50
 70
     1
102
RTVSPost2010Prop51ColorIndex
 90
      256
102
RTVSPost2010Prop51ColorRGB
 90
-16777216
102
RTVSPost2010PropOp51
 70
     0
102
RTVSPost2010Prop52
140
1.0
102
RTVSPost2010PropOp52
 70
     0
102
RTVSPost2010Prop53
 90
        2
102
RTVSPost2010PropOp53
 70
     1
102
RTVSPost2010Prop54
  1
strokes_ogs.tif
102
RTVSPost2010PropOp54
 70
     1
102
RTVSPost2010Prop55
280
     0
102
RTVSPost2010PropOp55
 70
     1
102
RTVSPost2010Prop56
140
1.0
102
RTVSPost2010PropOp56
 70
     1
102
RTVSPost2010Prop57
140
1.0
102
RTVSPost2010PropOp57
 70
     1
102
RTVSPropertyOp0
 70
     1
102
RTVSPropertyOp1
 70
     1
102
RTVSPropertyOp2
 70
     1
102
RTVSPropertyOp3
 70
     1
102
RTVSPropertyOp4
 70
     1
102
RTVSPropertyOp5
 70
     1
102
RTVSPropertyOp6
 70
     1
102
RTVSPropertyOp7
 70
     1
102
RTVSPropertyOp8
 70
     1
102
RTVSPropertyOp9
 70
     1
102
RTVSPropertyOp10
 70
     1
102
RTVSPropertyOp11
 70
     1
102
RTVSPropertyOp12
 70
     1
102
RTVSPropertyOp13
 70
     1
102
RTVSPropertyOp14
 70
     1
102
RTVSPropertyOp15
 70
     1
102
RTVSPropertyOp16
 70
     1
102
RTVSPropertyOp17
 70
     1
102
RTVSPropertyOp18
 70
     1
102
RTVSPropertyOp19
 70
     1
102
RTVSPropertyOp20
 70
     1
102
RTVSPropertyOp21
 70
     1
102
RTVSPropertyOp22
 70
     1
102
RTVSPropertyOp23
 70
     1
102
RTVSPropertyOp24
 70
     1
102
RTVSPropertyOp25
 70
     1
102
RTVSPropertyOp26
 70
     1
102
RTVSPropertyOp27
 70
     1
102
RTVSPropertyOp28
 70
     1
102
RTVSPropertyOp29
 70
     1
102
RTVSPropertyOp30
 70
     1
102
RTVSPropertyOp31
 70
     1
102
RTVSPropertyOp32
 70
     1
102
RTVSPropertyOp33
 70
     1
102
RTVSPropertyOp34
 70
     1
102
RTVSPropertyOp35
 70
     1
102
RTVSPropertyOp36
 70
     1
102
RTVSPropertyOp37
 70
     1
102
RTVSPropertyOp38
 70
     1
102
RTVSPropertyOp39
 70
     1
102
RTVSPropertyOp40
 70
     1
102
RTVSPropertyOp41
 70
     1
102
RTVSPropertyOp42
 70
     1
102
RTVSPropertyOp43
 70
     1
102
RTVSPropertyOp44
 70
     1
102
RTVSPropertyOp45
 70
     1
102
RTVSPropertyOp46
 70
     1
102
RTVSPropertyOp47
 70
     1
102
RTVSPropertyOp48
 70
     1
102
RTVSPropertyOp49
 70
     1
102
RTVSPropertyOp50
 70
     1
102
RTVSPropertyOp51
 70
     0
102
RTVSPropertyOp52
 70
     0
102
RTVSPropertyOp53
 70
     1
102
RTVSPropertyOp54
 70
     1
102
RTVSPropertyOp55
 70
     1
102
RTVSPropertyOp56
 70
     1
102
RTVSPropertyOp57
 70
     1
102
RTVSPropertyOp58
 70
     1
102
RTVSPropertyOp59
 70
     1
102
RTVSPropertyOp60
 70
     1
102
RTVSPropertyOp61
 70
     1
102
RTVSPropertyOp62
 70
     1
  0
XRECORD
  5
10DD
102
{ACAD_REACTORS
330
10DC
102
}
330
10DC
100
AcDbXrecord
280
     1
102
RTVSPost2010Prop28
280
     0
102
RTVSPost2010PropOp28
 70
     1
102
RTVSPost2010Prop29
280
     1
102
RTVSPost2010PropOp29
 70
     1
102
RTVSPost2010Prop30
280
     1
102
RTVSPost2010PropOp30
 70
     1
102
RTVSPost2010Prop31
280
     0
102
RTVSPost2010PropOp31
 70
     1
102
RTVSPost2010Prop32
280
     0
102
RTVSPost2010PropOp32
 70
     1
102
RTVSPost2010Prop33
280
     0
102
RTVSPost2010PropOp33
 70
     1
102
RTVSPost2010Prop34
280
     0
102
RTVSPost2010PropOp34
 70
     1
102
RTVSPost2010Prop35
280
     0
102
RTVSPost2010PropOp35
 70
     1
102
RTVSPost2010Prop36
280
     0
102
RTVSPost2010PropOp36
 70
     1
102
RTVSPost2010Prop37
 90
       50
102
RTVSPost2010PropOp37
 70
     1
102
RTVSPost2010Prop38
140
0.0
102
RTVSPost2010PropOp38
 70
     1
102
RTVSPost2010Prop39
140
1.0
102
RTVSPost2010PropOp39
 70
     1
102
RTVSPost2010Prop40
 90
        0
102
RTVSPost2010PropOp40
 70
     1
102
RTVSPost2010Prop41ColorIndex
 90
       18
102
RTVSPost2010Prop41ColorRGB
 90
        0
102
RTVSPost2010PropOp41
 70
     1
102
RTVSPost2010Prop42
 90
       50
102
RTVSPost2010PropOp42
 70
     1
102
RTVSPost2010Prop43
 90
        3
102
RTVSPost2010PropOp43
 70
     1
102
RTVSPost2010Prop44ColorIndex
 90
        5
102
RTVSPost2010Prop44ColorRGB
 90
      255
102
RTVSPost2010PropOp44
 70
     1
102
RTVSPost2010Prop45
280
     0
102
RTVSPost2010PropOp45
 70
     1
102
RTVSPost2010Prop46
 90
       50
102
RTVSPost2010PropOp46
 70
     1
102
RTVSPost2010Prop47
 90
       50
102
RTVSPost2010PropOp47
 70
     1
102
RTVSPost2010Prop48
 90
       50
102
RTVSPost2010PropOp48
 70
     1
102
RTVSPost2010Prop49
280
     0
102
RTVSPost2010PropOp49
 70
     1
102
RTVSPost2010Prop50
 90
       50
102
RTVSPost2010PropOp50
 70
     1
102
RTVSPost2010Prop51ColorIndex
 90
      256
102
RTVSPost2010Prop51ColorRGB
 90
-16777216
102
RTVSPost2010PropOp51
 70
     0
102
RTVSPost2010Prop52
140
1.0
102
RTVSPost2010PropOp52
 70
     0
102
RTVSPost2010Prop53
 90
        2
102
RTVSPost2010PropOp53
 70
     1
102
RTVSPost2010Prop54
  1
strokes_ogs.tif
102
RTVSPost2010PropOp54
 70
     1
102
RTVSPost2010Prop55
280
     0
102
RTVSPost2010PropOp55
 70
     1
102
RTVSPost2010Prop56
140
1.0
102
RTVSPost2010PropOp56
 70
     1
102
RTVSPost2010Prop57
140
1.0
102
RTVSPost2010PropOp57
 70
     1
102
RTVSPropertyOp0
 70
     1
102
RTVSPropertyOp1
 70
     1
102
RTVSPropertyOp2
 70
     1
102
RTVSPropertyOp3
 70
     1
102
RTVSPropertyOp4
 70
     1
102
RTVSPropertyOp5
 70
     1
102
RTVSPropertyOp6
 70
     1
102
RTVSPropertyOp7
 70
     1
102
RTVSPropertyOp8
 70
     1
102
RTVSPropertyOp9
 70
     1
102
RTVSPropertyOp10
 70
     1
102
RTVSPropertyOp11
 70
     1
102
RTVSPropertyOp12
 70
     1
102
RTVSPropertyOp13
 70
     1
102
RTVSPropertyOp14
 70
     1
102
RTVSPropertyOp15
 70
     1
102
RTVSPropertyOp16
 70
     1
102
RTVSPropertyOp17
 70
     1
102
RTVSPropertyOp18
 70
     1
102
RTVSPropertyOp19
 70
     1
102
RTVSPropertyOp20
 70
     1
102
RTVSPropertyOp21
 70
     1
102
RTVSPropertyOp22
 70
     1
102
RTVSPropertyOp23
 70
     1
102
RTVSPropertyOp24
 70
     1
102
RTVSPropertyOp25
 70
     1
102
RTVSPropertyOp26
 70
     1
102
RTVSPropertyOp27
 70
     1
102
RTVSPropertyOp28
 70
     1
102
RTVSPropertyOp29
 70
     1
102
RTVSPropertyOp30
 70
     1
102
RTVSPropertyOp31
 70
     1
102
RTVSPropertyOp32
 70
     1
102
RTVSPropertyOp33
 70
     1
102
RTVSPropertyOp34
 70
     1
102
RTVSPropertyOp35
 70
     1
102
RTVSPropertyOp36
 70
     1
102
RTVSPropertyOp37
 70
     1
102
RTVSPropertyOp38
 70
     1
102
RTVSPropertyOp39
 70
     1
102
RTVSPropertyOp40
 70
     1
102
RTVSPropertyOp41
 70
     1
102
RTVSPropertyOp42
 70
     1
102
RTVSPropertyOp43
 70
     1
102
RTVSPropertyOp44
 70
     1
102
RTVSPropertyOp45
 70
     1
102
RTVSPropertyOp46
 70
     1
102
RTVSPropertyOp47
 70
     1
102
RTVSPropertyOp48
 70
     1
102
RTVSPropertyOp49
 70
     1
102
RTVSPropertyOp50
 70
     1
102
RTVSPropertyOp51
 70
     0
102
RTVSPropertyOp52
 70
     0
102
RTVSPropertyOp53
 70
     1
102
RTVSPropertyOp54
 70
     1
102
RTVSPropertyOp55
 70
     1
102
RTVSPropertyOp56
 70
     1
102
RTVSPropertyOp57
 70
     1
102
RTVSPropertyOp58
 70
     1
102
RTVSPropertyOp59
 70
     1
102
RTVSPropertyOp60
 70
     1
102
RTVSPropertyOp61
 70
     1
102
RTVSPropertyOp62
 70
     1
  0
ENDSEC
  0
EOF
