  0
SECTION
  2
HEADER
  9
$ACADVER
  1
AC1018
  9
$ACADMAINTVER
 70
     2
  9
$DWGCODEPAGE
  3
ANSI_1252
  9
$INSBASE
 10
0.0
 20
0.0
 30
0.0
  9
$EXTMIN
 10
-0.0133237737233003
 20
-0.0362318533991584
 30
-0.0000000000000129
  9
$EXTMAX
 10
420.0292977066725
 20
594.027198215394
 30
0.0000000000000023
  9
$LIMMIN
 10
0.0
 20
0.0
  9
$LIMMAX
 10
419.9999999999999
 20
594.0000000000002
  9
$ORTHOMODE
 70
     1
  9
$REGENMODE
 70
     1
  9
$FILLMODE
 70
     1
  9
$QTEXTMODE
 70
     0
  9
$MIRRTEXT
 70
     1
  9
$LTSCALE
 40
20.0
  9
$ATTMODE
 70
     1
  9
$TEXTSIZE
 40
3.5
  9
$TRACEWID
 40
0.5
  9
$TEXTSTYLE
  7
STANDARD
  9
$CLAYER
  8
BEM
  9
$CELTYPE
  6
ByLayer
  9
$CECOLOR
 62
   256
  9
$CELTSCALE
 40
1.0
  9
$DISPSILH
 70
     0
  9
$DIMSCALE
 40
2.0
  9
$DIMASZ
 40
3.5
  9
$DIMEXO
 40
1.0
  9
$DIMDLI
 40
7.0
  9
$DIMRND
 40
0.0
  9
$DIMDLE
 40
0.0
  9
$DIMEXE
 40
1.0
  9
$DIMTP
 40
0.15
  9
$DIMTM
 40
0.15
  9
$DIMTXT
 40
3.5
  9
$DIMCEN
 40
1.5
  9
$DIMTSZ
 40
0.0
  9
$DIMTOL
 70
     0
  9
$DIMLIM
 70
     0
  9
$DIMTIH
 70
     0
  9
$DIMTOH
 70
     0
  9
$DIMSE1
 70
     0
  9
$DIMSE2
 70
     0
  9
$DIMTAD
 70
     1
  9
$DIMZIN
 70
     8
  9
$DIMBLK
  1

  9
$DIMASO
 70
     1
  9
$DIMSHO
 70
     0
  9
$DIMPOST
  1

  9
$DIMAPOST
  1

  9
$DIMALT
 70
     0
  9
$DIMALTD
 70
     2
  9
$DIMALTF
 40
25.4
  9
$DIMLFAC
 40
1.0
  9
$DIMTOFL
 70
     1
  9
$DIMTVP
 40
0.0
  9
$DIMTIX
 70
     0
  9
$DIMSOXD
 70
     0
  9
$DIMSAH
 70
     0
  9
$DIMBLK1
  1

  9
$DIMBLK2
  1

  9
$DIMSTYLE
  2
Standard
  9
$DIMCLRD
 70
     0
  9
$DIMCLRE
 70
     0
  9
$DIMCLRT
 70
     1
  9
$DIMTFAC
 40
0.5142857142857144
  9
$DIMGAP
 40
1.5
  9
$DIMJUST
 70
     0
  9
$DIMSD1
 70
     0
  9
$DIMSD2
 70
     0
  9
$DIMTOLJ
 70
     1
  9
$DIMTZIN
 70
     8
  9
$DIMALTZ
 70
     8
  9
$DIMALTTZ
 70
     8
  9
$DIMUPT
 70
     0
  9
$DIMDEC
 70
     2
  9
$DIMTDEC
 70
     2
  9
$DIMALTU
 70
     2
  9
$DIMALTTD
 70
     2
  9
$DIMTXSTY
  7
STANDARD
  9
$DIMAUNIT
 70
     0
  9
$DIMADEC
 70
     2
  9
$DIMALTRND
 40
0.0
  9
$DIMAZIN
 70
     2
  9
$DIMDSEP
 70
    46
  9
$DIMATFIT
 70
     3
  9
$DIMFRAC
 70
     0
  9
$DIMLDRBLK
  1

  9
$DIMLUNIT
 70
     2
  9
$DIMLWD
 70
    -2
  9
$DIMLWE
 70
    -2
  9
$DIMTMOVE
 70
     0
  9
$LUNITS
 70
     2
  9
$LUPREC
 70
     2
  9
$SKETCHINC
 40
1.0
  9
$FILLETRAD
 40
0.0
  9
$AUNITS
 70
     0
  9
$AUPREC
 70
     0
  9
$MENU
  1
ACAD
  9
$ELEVATION
 40
0.0
  9
$PELEVATION
 40
0.0
  9
$THICKNESS
 40
0.0
  9
$LIMCHECK
 70
     0
  9
$CHAMFERA
 40
0.0
  9
$CHAMFERB
 40
0.0
  9
$CHAMFERC
 40
0.0
  9
$CHAMFERD
 40
0.0
  9
$SKPOLY
 70
     0
  9
$TDCREATE
 40
2455573.065619792
  9
$TDUCREATE
 40
2455573.023953125
  9
$TDUPDATE
 40
2455532.571680532
  9
$TDUUPDATE
 40
2455532.530013866
  9
$TDINDWG
 40
0.2320814005
  9
$TDUSRTIMER
 40
0.2320814005
  9
$USRTIMER
 70
     1
  9
$ANGBASE
 50
0.0
  9
$ANGDIR
 70
     0
  9
$PDMODE
 70
     0
  9
$PDSIZE
 40
0.0
  9
$PLINEWID
 40
0.0
  9
$SPLFRAME
 70
     0
  9
$SPLINETYPE
 70
     6
  9
$SPLINESEGS
 70
     8
  9
$HANDSEED
  5
274B
  9
$SURFTAB1
 70
     6
  9
$SURFTAB2
 70
     6
  9
$SURFTYPE
 70
     6
  9
$SURFU
 70
     6
  9
$SURFV
 70
     6
  9
$UCSBASE
  2

  9
$UCSNAME
  2

  9
$UCSORG
 10
0.0
 20
0.0
 30
0.0
  9
$UCSXDIR
 10
1.0
 20
0.0
 30
0.0
  9
$UCSYDIR
 10
0.0
 20
1.0
 30
0.0
  9
$UCSORTHOREF
  2

  9
$UCSORTHOVIEW
 70
     0
  9
$UCSORGTOP
 10
0.0
 20
0.0
 30
0.0
  9
$UCSORGBOTTOM
 10
0.0
 20
0.0
 30
0.0
  9
$UCSORGLEFT
 10
0.0
 20
0.0
 30
0.0
  9
$UCSORGRIGHT
 10
0.0
 20
0.0
 30
0.0
  9
$UCSORGFRONT
 10
0.0
 20
0.0
 30
0.0
  9
$UCSORGBACK
 10
0.0
 20
0.0
 30
0.0
  9
$PUCSBASE
  2

  9
$PUCSNAME
  2

  9
$PUCSORG
 10
0.0
 20
0.0
 30
0.0
  9
$PUCSXDIR
 10
1.0
 20
0.0
 30
0.0
  9
$PUCSYDIR
 10
0.0
 20
1.0
 30
0.0
  9
$PUCSORTHOREF
  2

  9
$PUCSORTHOVIEW
 70
     0
  9
$PUCSORGTOP
 10
0.0
 20
0.0
 30
0.0
  9
$PUCSORGBOTTOM
 10
0.0
 20
0.0
 30
0.0
  9
$PUCSORGLEFT
 10
0.0
 20
0.0
 30
0.0
  9
$PUCSORGRIGHT
 10
0.0
 20
0.0
 30
0.0
  9
$PUCSORGFRONT
 10
0.0
 20
0.0
 30
0.0
  9
$PUCSORGBACK
 10
0.0
 20
0.0
 30
0.0
  9
$USERI1
 70
     0
  9
$USERI2
 70
     0
  9
$USERI3
 70
     0
  9
$USERI4
 70
     0
  9
$USERI5
 70
     0
  9
$USERR1
 40
0.0
  9
$USERR2
 40
0.0
  9
$USERR3
 40
0.0
  9
$USERR4
 40
0.0
  9
$USERR5
 40
0.0
  9
$WORLDVIEW
 70
     1
  9
$SHADEDGE
 70
     3
  9
$SHADEDIF
 70
    70
  9
$TILEMODE
 70
     1
  9
$MAXACTVP
 70
    16
  9
$PINSBASE
 10
0.0
 20
0.0
 30
0.0
  9
$PLIMCHECK
 70
     0
  9
$PEXTMIN
 10
1.000000000000000E+20
 20
1.000000000000000E+20
 30
1.000000000000000E+20
  9
$PEXTMAX
 10
-1.000000000000000E+20
 20
-1.000000000000000E+20
 30
-1.000000000000000E+20
  9
$PLIMMIN
 10
0.0
 20
0.0
  9
$PLIMMAX
 10
12.0
 20
9.0
  9
$UNITMODE
 70
     0
  9
$VISRETAIN
 70
     0
  9
$PLINEGEN
 70
     0
  9
$PSLTSCALE
 70
     0
  9
$TREEDEPTH
 70
  3020
  9
$CMLSTYLE
  2
Standard
  9
$CMLJUST
 70
     0
  9
$CMLSCALE
 40
1.0
  9
$PROXYGRAPHICS
 70
     1
  9
$MEASUREMENT
 70
     0
  9
$CELWEIGHT
370
    -1
  9
$ENDCAPS
280
     0
  9
$JOINSTYLE
280
     0
  9
$LWDISPLAY
290
     0
  9
$INSUNITS
 70
     0
  9
$HYPERLINKBASE
  1

  9
$STYLESHEET
  1
monochrome 1.ctb
  9
$XEDIT
290
     1
  9
$CEPSNTYPE
380
     0
  9
$PSTYLEMODE
290
     1
  9
$FINGERPRINTGUID
  2
{CF47490D-A8B5-11D8-B772-000102183313}
  9
$VERSIONGUID
  2
{0D152E95-FCA1-44E5-9456-8C170CF4E55F}
  9
$EXTNAMES
290
     1
  9
$PSVPSCALE
 40
0.0
  9
$OLESTARTUP
290
     0
  9
$SORTENTS
280
    96
  9
$INDEXCTL
280
     0
  9
$HIDETEXT
280
     0
  9
$XCLIPFRAME
290
     0
  9
$HALOGAP
280
     0
  9
$OBSCOLOR
 70
   257
  9
$OBSLTYPE
280
     0
  9
$INTERSECTIONDISPLAY
280
     0
  9
$INTERSECTIONCOLOR
 70
   257
  9
$DIMASSOC
280
     1
  9
$PROJECTNAME
  1

  0
ENDSEC
  0
SECTION
  2
CLASSES
  0
CLASS
  1
ACDBDICTIONARYWDFLT
  2
AcDbDictionaryWithDefault
  3
ObjectDBX Classes
 90
        0
 91
        1
280
     0
281
     0
  0
CLASS
  1
DICTIONARYVAR
  2
AcDbDictionaryVar
  3
ObjectDBX Classes
 90
        0
 91
        3
280
     0
281
     0
  0
ENDSEC
  0
SECTION
  2
TABLES
  0
TABLE
  2
VPORT
  5
8
330
0
100
AcDbSymbolTable
 70
     2
  0
VPORT
  5
274A
330
8
100
AcDbSymbolTableRecord
100
AcDbViewportTableRecord
  2
*Active
 70
     0
 10
0.0
 20
0.0
 11
1.0
 21
1.0
 12
210.0079869664746
 22
296.9954831809975
 13
0.0
 23
0.0
 14
1.0
 24
1.0
 15
10.0
 25
10.0
 16
0.0
 26
0.0
 36
1.0
 17
0.0
 27
0.0
 37
0.0
 40
598.8607121420271
 41
1.336927223719676
 42
50.0
 43
0.0
 44
0.0
 50
0.0
 51
0.0
 71
     0
 72
  1500
 73
     1
 74
     0
 75
     0
 76
     0
 77
     0
 78
     0
281
     0
 65
     1
110
0.0
120
0.0
130
0.0
111
1.0
121
0.0
131
0.0
112
0.0
122
1.0
132
0.0
 79
     0
146
0.0
  0
ENDTAB
  0
TABLE
  2
LTYPE
  5
5
330
0
100
AcDbSymbolTable
 70
     2
  0
LTYPE
  5
13
330
5
100
AcDbSymbolTableRecord
100
AcDbLinetypeTableRecord
  2
ByBlock
 70
     0
  3

 72
    65
 73
     0
 40
0.0
  0
LTYPE
  5
14
330
5
100
AcDbSymbolTableRecord
100
AcDbLinetypeTableRecord
  2
ByLayer
 70
     0
  3

 72
    65
 73
     0
 40
0.0
  0
LTYPE
  5
15
330
5
100
AcDbSymbolTableRecord
100
AcDbLinetypeTableRecord
  2
Continuous
 70
     0
  3
Solid line
 72
    65
 73
     0
 40
0.0
  0
LTYPE
  5
32
330
5
100
AcDbSymbolTableRecord
100
AcDbLinetypeTableRecord
  2
STRICHPUNKT
 70
     0
  3
__ . __ . __ . __ . __ . __ . __ . __ . __ . __
 72
    65
 73
     4
 40
1.0
 49
0.5
 74
     0
 49
-0.25
 74
     0
 49
0.0
 74
     0
 49
-0.25
 74
     0
  0
ENDTAB
  0
TABLE
  2
LAYER
  5
2
330
0
100
AcDbSymbolTable
 70
     9
  0
LAYER
  5
10
330
2
100
AcDbSymbolTableRecord
100
AcDbLayerTableRecord
  2
0
 70
     0
 62
     7
  6
Continuous
370
    -3
390
F
  0
LAYER
  5
35
330
2
100
AcDbSymbolTableRecord
100
AcDbLayerTableRecord
  2
VOLL
 70
     0
 62
     1
  6
Continuous
370
    -3
390
F
  0
LAYER
  5
36
330
2
100
AcDbSymbolTableRecord
100
AcDbLayerTableRecord
  2
HILF
 70
     0
 62
     2
  6
Continuous
370
    -3
390
F
  0
LAYER
  5
37
330
2
100
AcDbSymbolTableRecord
100
AcDbLayerTableRecord
  2
MITTEL
 70
     0
 62
     2
  6
STRICHPUNKT
370
    -3
390
F
  0
LAYER
  5
38
330
2
100
AcDbSymbolTableRecord
100
AcDbLayerTableRecord
  2
BEM
 70
     0
 62
     7
  6
Continuous
370
    -3
390
F
  0
LAYER
  5
39
330
2
100
AcDbSymbolTableRecord
100
AcDbLayerTableRecord
  2
DEFPOINTS
 70
     0
 62
     7
  6
Continuous
290
     0
370
    -3
390
F
  0
LAYER
  5
3A
330
2
100
AcDbSymbolTableRecord
100
AcDbLayerTableRecord
  2
STEMPEL
 70
     0
 62
     3
  6
Continuous
370
    -3
390
F
  0
LAYER
  5
3B
330
2
100
AcDbSymbolTableRecord
100
AcDbLayerTableRecord
  2
TEXT
 70
     0
 62
     7
  6
Continuous
370
    -3
390
F
  0
LAYER
  5
3C
330
2
100
AcDbSymbolTableRecord
100
AcDbLayerTableRecord
  2
SCHRAFF
 70
     0
 62
     7
  6
Continuous
370
    -3
390
F
  0
ENDTAB
  0
TABLE
  2
STYLE
  5
3
330
0
100
AcDbSymbolTable
 70
     2
  0
STYLE
  5
11
330
3
100
AcDbSymbolTableRecord
100
AcDbTextStyleTableRecord
  2
STANDARD
 70
     0
 40
0.0
 41
0.8
 50
0.0
 71
     0
 42
3.5
  3
simplex.shx
  4

  0
STYLE
  5
31
330
3
100
AcDbSymbolTableRecord
100
AcDbTextStyleTableRecord
  2
GREEKS
 70
     0
 40
0.0
 41
0.8
 50
0.0
 71
     0
 42
2.5
  3
SIMPLEX.shx
  4

  0
ENDTAB
  0
TABLE
  2
VIEW
  5
6
330
0
100
AcDbSymbolTable
 70
     0
  0
ENDTAB
  0
TABLE
  2
UCS
  5
7
330
0
100
AcDbSymbolTable
 70
     0
  0
ENDTAB
  0
TABLE
  2
APPID
  5
9
330
0
100
AcDbSymbolTable
 70
     1
  0
APPID
  5
12
330
9
100
AcDbSymbolTableRecord
100
AcDbRegAppTableRecord
  2
ACAD
 70
     0
  0
ENDTAB
  0
TABLE
  2
DIMSTYLE
  5
A
330
0
100
AcDbSymbolTable
 70
     1
100
AcDbDimStyleTable
 71
     1
340
26B
  0
DIMSTYLE
105
26B
102
{ACAD_REACTORS
330
24AD
330
25E0
330
26F4
330
2733
102
}
330
A
100
AcDbSymbolTableRecord
100
AcDbDimStyleTableRecord
  2
Standard
 70
     0
340
11
  0
ENDTAB
  0
TABLE
  2
BLOCK_RECORD
  5
1
330
0
100
AcDbSymbolTable
 70
     5
  0
BLOCK_RECORD
  5
1E
330
1
100
AcDbSymbolTableRecord
100
AcDbBlockTableRecord
  2
*Model_Space
340
21
  0
BLOCK_RECORD
  5
1A
330
1
100
AcDbSymbolTableRecord
100
AcDbBlockTableRecord
  2
*Paper_Space
340
1D
  0
BLOCK_RECORD
  5
22
330
1
100
AcDbSymbolTableRecord
100
AcDbBlockTableRecord
  2
LOGO
340
0
102
{BLKREFS
331
1E2
102
}
  0
BLOCK_RECORD
  5
24FA
330
1
100
AcDbSymbolTableRecord
100
AcDbBlockTableRecord
  2
*D1
340
0
  0
BLOCK_RECORD
  5
25FC
330
1
100
AcDbSymbolTableRecord
100
AcDbBlockTableRecord
  2
*D2
340
0
  0
BLOCK_RECORD
  5
26F5
330
1
100
AcDbSymbolTableRecord
100
AcDbBlockTableRecord
  2
*D3
340
0
  0
BLOCK_RECORD
  5
2734
330
1
100
AcDbSymbolTableRecord
100
AcDbBlockTableRecord
  2
*D4
340
0
  0
ENDTAB
  0
ENDSEC
  0
SECTION
  2
BLOCKS
  0
BLOCK
  5
40
330
1E
100
AcDbEntity
  8
0
100
AcDbBlockBegin
  2
*Model_Space
 70
     0
 10
0.0
 20
0.0
 30
0.0
  3
*Model_Space
  1

  0
ENDBLK
  5
41
330
1E
100
AcDbEntity
  8
0
100
AcDbBlockEnd
  0
BLOCK
  5
3E
330
1A
100
AcDbEntity
 67
     1
  8
0
100
AcDbBlockBegin
  2
*Paper_Space
 70
     0
 10
0.0
 20
0.0
 30
0.0
  3
*Paper_Space
  1

  0
ENDBLK
  5
3F
330
1A
100
AcDbEntity
 67
     1
  8
0
100
AcDbBlockEnd
  0
BLOCK
  5
42
330
22
100
AcDbEntity
  8
0
100
AcDbBlockBegin
  2
LOGO
 70
     0
 10
0.0
 20
0.0
 30
0.0
  3
LOGO
  1

  0
ARC
  5
43
330
22
100
AcDbEntity
  8
0
100
AcDbCircle
 10
11.59973089678112
 20
-9.271599258481501
 30
0.0
 40
4.5
100
AcDbArc
 50
270.0
 51
231.0575587310159
  0
LINE
  5
44
330
22
100
AcDbEntity
  8
0
100
AcDbLine
 10
3.599730896781125
 20
-4.771599258481529
 30
0.0
 11
3.599730896781153
 21
-11.77159925848133
 31
0.0
  0
LINE
  5
45
330
22
100
AcDbEntity
  8
0
100
AcDbLine
 10
2.599730896781125
 20
-4.771599258481529
 30
0.0
 11
2.599730896781153
 21
-11.77159925848133
 31
0.0
  0
CIRCLE
  5
46
330
22
100
AcDbEntity
  8
0
100
AcDbCircle
 10
11.59973089678112
 20
-9.271599258481501
 30
0.0
 40
3.5
  0
ARC
  5
47
330
22
100
AcDbEntity
  8
0
100
AcDbCircle
 10
31.59973089678115
 20
-9.271599258481472
 30
0.0
 40
4.5
100
AcDbArc
 50
270.0
 51
231.0575587310182
  0
LINE
  5
48
330
22
100
AcDbEntity
  8
0
100
AcDbLine
 10
17.59973089678112
 20
-4.771599258481472
 30
0.0
 11
17.59973089678115
 21
-13.77159925848147
 31
0.0
  0
ARC
  5
49
330
22
100
AcDbEntity
  8
0
100
AcDbCircle
 10
22.59973089678116
 20
-7.271599258481472
 30
0.0
 40
2.5
100
AcDbArc
 50
293.1161887722295
 51
90.0
  0
CIRCLE
  5
4A
330
22
100
AcDbEntity
  8
0
100
AcDbCircle
 10
31.59973089678115
 20
-9.271599258481472
 30
0.0
 40
3.5
  0
ARC
  5
4B
330
22
100
AcDbEntity
  8
0
100
AcDbCircle
 10
4.599730896781153
 20
-11.77159925848133
 30
0.0
 40
1.0
100
AcDbArc
 50
180.0
 51
270.0
  0
ARC
  5
4C
330
22
100
AcDbEntity
  8
0
100
AcDbCircle
 10
4.599730896781153
 20
-11.77159925848133
 30
0.0
 40
2.0
100
AcDbArc
 50
179.9999999999992
 51
270.0
  0
LINE
  5
4D
330
22
100
AcDbEntity
  8
0
100
AcDbLine
 10
11.59973089678115
 20
-13.77159925848144
 30
0.0
 11
4.599730896781153
 21
-13.77159925848147
 31
0.0
  0
LINE
  5
4E
330
22
100
AcDbEntity
  8
0
100
AcDbLine
 10
8.771303772034769
 20
-12.77159925848136
 30
0.0
 11
4.599730896781153
 21
-12.77159925848133
 31
0.0
  0
LINE
  5
4F
330
22
100
AcDbEntity
  8
0
100
AcDbLine
 10
31.59973089678115
 20
-13.77159925848147
 30
0.0
 11
23.6715276665056
 21
-13.77159925848144
 31
0.0
  0
LINE
  5
50
330
22
100
AcDbEntity
  8
0
100
AcDbLine
 10
23.56565672307022
 20
-9.51278021337896
 30
0.0
 11
24.4388546544846
 21
-12.77159925848144
 31
0.0
  0
LINE
  5
51
330
22
100
AcDbEntity
  8
0
100
AcDbLine
 10
22.59973089678116
 20
-9.771599258481472
 30
0.0
 11
18.59973089678112
 21
-9.771599258481472
 31
0.0
  0
LINE
  5
52
330
22
100
AcDbEntity
  8
0
100
AcDbLine
 10
18.59973089678115
 20
-13.77159925848144
 30
0.0
 11
17.59973089678115
 21
-13.77159925848144
 31
0.0
  0
LINE
  5
53
330
22
100
AcDbEntity
  8
0
100
AcDbLine
 10
18.59973089678115
 20
-9.771599258481472
 30
0.0
 11
18.59973089678115
 21
-13.77159925848144
 31
0.0
  0
LINE
  5
54
330
22
100
AcDbEntity
  8
0
100
AcDbLine
 10
22.59973089678116
 20
-9.771599258481472
 30
0.0
 11
23.67152766650562
 21
-13.77159925848147
 31
0.0
  0
ARC
  5
55
330
22
100
AcDbEntity
  8
0
100
AcDbCircle
 10
22.59973089678116
 20
-7.271599258481472
 30
0.0
 40
2.5
100
AcDbArc
 50
270.0
 51
270.0000000000007
  0
LINE
  5
56
330
22
100
AcDbEntity
  8
0
100
AcDbLine
 10
28.77130377203494
 20
-12.77159925848147
 30
0.0
 11
24.43885465448463
 21
-12.77159925848144
 31
0.0
  0
LINE
  5
57
330
22
100
AcDbEntity
  8
0
100
AcDbLine
 10
3.599730896781125
 20
-4.771599258481472
 30
0.0
 11
2.599730896781125
 21
-4.771599258481472
 31
0.0
  0
LINE
  5
58
330
22
100
AcDbEntity
  8
0
100
AcDbLine
 10
22.59973089678116
 20
-8.771599258481472
 30
0.0
 11
18.59973089678115
 21
-8.771599258481472
 31
0.0
  0
LINE
  5
59
330
22
100
AcDbEntity
  8
0
100
AcDbLine
 10
22.59973089678116
 20
-5.771599258481472
 30
0.0
 11
18.59973089678115
 21
-5.771599258481472
 31
0.0
  0
LINE
  5
5A
330
22
100
AcDbEntity
  8
0
100
AcDbLine
 10
22.59973089678116
 20
-4.771599258481472
 30
0.0
 11
17.59973089678115
 21
-4.771599258481472
 31
0.0
  0
LINE
  5
5B
330
22
100
AcDbEntity
  8
0
100
AcDbLine
 10
18.59973089678115
 20
-5.771599258481472
 30
0.0
 11
18.59973089678115
 21
-8.771599258481472
 31
0.0
  0
ARC
  5
5C
330
22
100
AcDbEntity
  8
0
100
AcDbCircle
 10
22.59973089678116
 20
-7.271599258481472
 30
0.0
 40
1.5
100
AcDbArc
 50
270.0
 51
90.0
  0
ENDBLK
  5
5D
330
22
100
AcDbEntity
  8
0
100
AcDbBlockEnd
  0
BLOCK
  5
2504
330
24FA
100
AcDbEntity
  8
0
100
AcDbBlockBegin
  2
*D1
 70
     1
 10
0.0
 20
0.0
 30
0.0
  3
*D1
  1

  0
LINE
  5
2550
330
24FA
100
AcDbEntity
  8
BEM
 62
     0
370
    -2
100
AcDbLine
 10
169.9999999999999
 20
323.789654568174
 30
0.0
 11
169.9999999999999
 21
294.9311004973729
 31
0.0
  0
LINE
  5
2551
330
24FA
100
AcDbEntity
  8
BEM
 62
     0
370
    -2
100
AcDbLine
 10
279.9999999999999
 20
323.7896545681743
 30
0.0
 11
279.9999999999999
 21
294.9311004973729
 31
0.0
  0
LINE
  5
2552
330
24FA
100
AcDbEntity
  8
BEM
 62
     0
370
    -2
100
AcDbLine
 10
176.9999999999999
 20
296.9311004973729
 30
0.0
 11
272.9999999999999
 21
296.9311004973729
 31
0.0
  0
SOLID
  5
2553
330
24FA
100
AcDbEntity
  8
BEM
 62
     0
100
AcDbTrace
 10
176.9999999999999
 20
298.0977671640395
 30
0.0
 11
176.9999999999999
 21
295.7644338307062
 31
0.0
 12
169.9999999999999
 22
296.9311004973729
 32
0.0
 13
169.9999999999999
 23
296.9311004973729
 33
0.0
  0
SOLID
  5
2554
330
24FA
100
AcDbEntity
  8
BEM
 62
     0
100
AcDbTrace
 10
272.9999999999999
 20
298.0977671640395
 30
0.0
 11
272.9999999999999
 21
295.7644338307062
 31
0.0
 12
279.9999999999999
 22
296.9311004973729
 32
0.0
 13
279.9999999999999
 23
296.9311004973729
 33
0.0
  0
MTEXT
  5
2555
330
24FA
100
AcDbEntity
  8
BEM
 62
     1
100
AcDbMText
 10
224.9999999999999
 20
303.4311004973729
 30
0.0
 40
7.0
 41
0.0
 71
     5
 72
     1
  1
\A1;%%C110
 73
     1
 44
1.0
  0
POINT
  5
2556
330
24FA
100
AcDbEntity
  8
DEFPOINTS
 62
     0
100
AcDbPoint
 10
169.9999999999999
 20
325.789654568174
 30
0.0
  0
POINT
  5
2557
330
24FA
100
AcDbEntity
  8
DEFPOINTS
 62
     0
100
AcDbPoint
 10
279.9999999999999
 20
325.7896545681743
 30
0.0
  0
POINT
  5
2558
330
24FA
100
AcDbEntity
  8
DEFPOINTS
 62
     0
100
AcDbPoint
 10
279.9999999999999
 20
296.9311004973729
 30
0.0
  0
ENDBLK
  5
2505
330
24FA
100
AcDbEntity
  8
0
100
AcDbBlockEnd
  0
BLOCK
  5
2606
330
25FC
100
AcDbEntity
  8
0
100
AcDbBlockBegin
  2
*D2
 70
     1
 10
0.0
 20
0.0
 30
0.0
  3
*D2
  1

  0
LINE
  5
272A
330
25FC
100
AcDbEntity
  8
BEM
 62
     0
370
    -2
100
AcDbLine
 10
158.4999999999998
 20
501.2638566117539
 30
0.0
 11
158.4999999999998
 21
511.7106791101748
 31
0.0
  0
LINE
  5
272B
330
25FC
100
AcDbEntity
  8
BEM
 62
     0
370
    -2
100
AcDbLine
 10
291.4999999999999
 20
501.2638566117539
 30
0.0
 11
291.4999999999999
 21
511.7106791101748
 31
0.0
  0
LINE
  5
272C
330
25FC
100
AcDbEntity
  8
BEM
 62
     0
370
    -2
100
AcDbLine
 10
165.4999999999998
 20
509.7106791101748
 30
0.0
 11
284.4999999999999
 21
509.7106791101748
 31
0.0
  0
SOLID
  5
272D
330
25FC
100
AcDbEntity
  8
BEM
 62
     0
100
AcDbTrace
 10
165.4999999999998
 20
510.8773457768415
 30
0.0
 11
165.4999999999998
 21
508.5440124435081
 31
0.0
 12
158.4999999999998
 22
509.7106791101748
 32
0.0
 13
158.4999999999998
 23
509.7106791101748
 33
0.0
  0
SOLID
  5
272E
330
25FC
100
AcDbEntity
  8
BEM
 62
     0
100
AcDbTrace
 10
284.4999999999999
 20
510.8773457768415
 30
0.0
 11
284.4999999999999
 21
508.5440124435081
 31
0.0
 12
291.4999999999999
 22
509.7106791101748
 32
0.0
 13
291.4999999999999
 23
509.7106791101748
 33
0.0
  0
MTEXT
  5
272F
330
25FC
100
AcDbEntity
  8
BEM
 62
     1
100
AcDbMText
 10
224.9999999999998
 20
516.2106791101748
 30
0.0
 40
7.0
 41
0.0
 71
     5
 72
     1
  1
\A1;%%c133
  7
GREEKS
 73
     1
 44
1.0
  0
POINT
  5
2730
330
25FC
100
AcDbEntity
  8
DEFPOINTS
 62
     0
100
AcDbPoint
 10
158.4999999999998
 20
499.2638566117538
 30
0.0
  0
POINT
  5
2731
330
25FC
100
AcDbEntity
  8
DEFPOINTS
 62
     0
100
AcDbPoint
 10
291.4999999999999
 20
499.2638566117538
 30
0.0
  0
POINT
  5
2732
330
25FC
100
AcDbEntity
  8
DEFPOINTS
 62
     0
100
AcDbPoint
 10
291.4999999999999
 20
509.7106791101748
 30
0.0
  0
ENDBLK
  5
2607
330
25FC
100
AcDbEntity
  8
0
100
AcDbBlockEnd
  0
BLOCK
  5
26FF
330
26F5
100
AcDbEntity
  8
0
100
AcDbBlockBegin
  2
*D3
 70
     1
 10
0.0
 20
0.0
 30
0.0
  3
*D3
  1

  0
LINE
  5
26F6
330
26F5
100
AcDbEntity
  8
BEM
 62
     0
370
    -2
100
AcDbLine
 10
156.4999999999998
 20
499.2638566117538
 30
0.0
 11
127.9926857145583
 21
499.2638566117539
 31
0.0
  0
LINE
  5
26F7
330
26F5
100
AcDbEntity
  8
BEM
 62
     0
370
    -2
100
AcDbLine
 10
168.8748866352592
 20
319.263856611754
 30
0.0
 11
127.9926857145583
 21
319.2638566117541
 31
0.0
  0
LINE
  5
26F8
330
26F5
100
AcDbEntity
  8
BEM
 62
     0
370
    -2
100
AcDbLine
 10
129.9926857145583
 20
492.2638566117539
 30
0.0
 11
129.9926857145583
 21
326.263856611754
 31
0.0
  0
SOLID
  5
26F9
330
26F5
100
AcDbEntity
  8
BEM
 62
     0
100
AcDbTrace
 10
128.8260190478917
 20
492.2638566117539
 30
0.0
 11
131.159352381225
 21
492.2638566117539
 31
0.0
 12
129.9926857145583
 22
499.2638566117538
 32
0.0
 13
129.9926857145583
 23
499.2638566117538
 33
0.0
  0
SOLID
  5
26FA
330
26F5
100
AcDbEntity
  8
BEM
 62
     0
100
AcDbTrace
 10
128.8260190478916
 20
326.263856611754
 30
0.0
 11
131.159352381225
 21
326.263856611754
 31
0.0
 12
129.9926857145583
 22
319.263856611754
 32
0.0
 13
129.9926857145583
 23
319.263856611754
 33
0.0
  0
MTEXT
  5
26FB
330
26F5
100
AcDbEntity
  8
BEM
 62
     1
100
AcDbMText
 10
123.4926857145582
 20
409.263856611754
 30
0.0
 40
7.0
 41
0.0
 71
     5
 72
     1
  1
\A1;180
 11
0.0000000000000001
 21
1.0
 31
0.0
 73
     1
 44
1.0
  0
POINT
  5
26FC
330
26F5
100
AcDbEntity
  8
DEFPOINTS
 62
     0
100
AcDbPoint
 10
158.4999999999998
 20
499.2638566117538
 30
0.0
  0
POINT
  5
26FD
330
26F5
100
AcDbEntity
  8
DEFPOINTS
 62
     0
100
AcDbPoint
 10
170.8748866352592
 20
319.263856611754
 30
0.0
  0
POINT
  5
26FE
330
26F5
100
AcDbEntity
  8
DEFPOINTS
 62
     0
100
AcDbPoint
 10
129.9926857145583
 20
319.263856611754
 30
0.0
  0
ENDBLK
  5
2700
330
26F5
100
AcDbEntity
  8
0
100
AcDbBlockEnd
  0
BLOCK
  5
273E
330
2734
100
AcDbEntity
  8
0
100
AcDbBlockBegin
  2
*D4
 70
     1
 10
0.0
 20
0.0
 30
0.0
  3
*D4
  1

  0
LINE
  5
2735
330
2734
100
AcDbEntity
  8
BEM
 62
     0
370
    -2
100
AcDbLine
 10
168.8748866352592
 20
319.263856611754
 30
0.0
 11
142.9706441605662
 21
319.263856611754
 31
0.0
  0
LINE
  5
2736
330
2734
100
AcDbEntity
  8
BEM
 62
     0
370
    -2
100
AcDbLine
 10
156.4999999999997
 20
379.2638566117541
 30
0.0
 11
142.9706441605663
 21
379.2638566117541
 31
0.0
  0
LINE
  5
2737
330
2734
100
AcDbEntity
  8
BEM
 62
     0
370
    -2
100
AcDbLine
 10
144.9706441605663
 20
326.263856611754
 30
0.0
 11
144.9706441605663
 21
372.2638566117541
 31
0.0
  0
SOLID
  5
2738
330
2734
100
AcDbEntity
  8
BEM
 62
     0
100
AcDbTrace
 10
143.8039774938996
 20
326.263856611754
 30
0.0
 11
146.1373108272329
 21
326.263856611754
 31
0.0
 12
144.9706441605662
 22
319.263856611754
 32
0.0
 13
144.9706441605662
 23
319.263856611754
 33
0.0
  0
SOLID
  5
2739
330
2734
100
AcDbEntity
  8
BEM
 62
     0
100
AcDbTrace
 10
143.8039774938996
 20
372.2638566117541
 30
0.0
 11
146.1373108272329
 21
372.2638566117541
 31
0.0
 12
144.9706441605663
 22
379.2638566117541
 32
0.0
 13
144.9706441605663
 23
379.2638566117541
 33
0.0
  0
MTEXT
  5
273A
330
2734
100
AcDbEntity
  8
BEM
 62
     1
100
AcDbMText
 10
138.4706441605662
 20
349.2638566117542
 30
0.0
 40
7.0
 41
0.0
 71
     5
 72
     1
  1
\A1;60
 11
0.0000000000000001
 21
1.0
 31
0.0
 73
     1
 44
1.0
  0
POINT
  5
273B
330
2734
100
AcDbEntity
  8
DEFPOINTS
 62
     0
100
AcDbPoint
 10
170.8748866352592
 20
319.263856611754
 30
0.0
  0
POINT
  5
273C
330
2734
100
AcDbEntity
  8
DEFPOINTS
 62
     0
100
AcDbPoint
 10
158.4999999999997
 20
379.2638566117541
 30
0.0
  0
POINT
  5
273D
330
2734
100
AcDbEntity
  8
DEFPOINTS
 62
     0
100
AcDbPoint
 10
144.9706441605663
 20
379.2638566117541
 30
0.0
  0
ENDBLK
  5
273F
330
2734
100
AcDbEntity
  8
0
100
AcDbBlockEnd
  0
ENDSEC
  0
SECTION
  2
ENTITIES
  0
LINE
  5
19F
330
1E
100
AcDbEntity
  8
STEMPEL
100
AcDbLine
 10
409.9999999999999
 20
110.0
 30
0.0
 11
39.99999999999995
 21
110.0
 31
0.0
  0
LINE
  5
1A0
330
1E
100
AcDbEntity
  8
STEMPEL
100
AcDbLine
 10
136.0000000000001
 20
109.9999999999999
 30
0.0
 11
136.0
 21
9.999999999999971
 31
0.0
  0
LINE
  5
1A1
330
1E
100
AcDbEntity
  8
STEMPEL
100
AcDbLine
 10
220.0
 20
110.0
 30
0.0
 11
220.0
 21
9.999999999999971
 31
0.0
  0
LINE
  5
1A2
330
1E
100
AcDbEntity
  8
STEMPEL
100
AcDbLine
 10
331.9999999999999
 20
109.9999999999997
 30
0.0
 11
331.9999999999999
 21
40.0
 31
0.0
  0
LINE
  5
1A3
330
1E
100
AcDbEntity
  8
STEMPEL
100
AcDbLine
 10
135.9999999999999
 20
29.99999999999997
 30
0.0
 11
39.99999999999995
 21
29.99999999999997
 31
0.0
  0
LINE
  5
1A4
330
1E
100
AcDbEntity
  8
STEMPEL
100
AcDbLine
 10
409.9999999999999
 20
40.0
 30
0.0
 11
136.0000000000001
 21
39.99999999999997
 31
0.0
  0
LINE
  5
1A5
330
1E
100
AcDbEntity
  8
STEMPEL
100
AcDbLine
 10
409.9999999999999
 20
80.0
 30
0.0
 11
136.0000000000001
 21
79.99999999999994
 31
0.0
  0
LINE
  5
1A6
330
1E
100
AcDbEntity
  8
VOLL
100
AcDbLine
 10
54.00000000000005
 20
110.0
 30
0.0
 11
53.99999999999995
 21
9.999999999999971
 31
0.0
  0
LINE
  5
1A7
330
1E
100
AcDbEntity
  8
VOLL
100
AcDbLine
 10
94.00000000000011
 20
109.9999999999999
 30
0.0
 11
94.0
 21
9.999999999999971
 31
0.0
  0
LINE
  5
1A8
330
1E
100
AcDbEntity
  8
VOLL
100
AcDbLine
 10
114.0000000000001
 20
109.9999999999999
 30
0.0
 11
114.0
 21
9.999999999999971
 31
0.0
  0
LINE
  5
1A9
330
1E
100
AcDbEntity
  8
VOLL
100
AcDbLine
 10
154.0000000000001
 20
79.99999999999994
 30
0.0
 11
154.0000000000001
 21
39.99999999999997
 31
0.0
  0
LINE
  5
1AA
330
1E
100
AcDbEntity
  8
VOLL
100
AcDbLine
 10
180.0000000000001
 20
109.9999999999998
 30
0.0
 11
180.0
 21
39.99999999999997
 31
0.0
  0
LINE
  5
1AB
330
1E
100
AcDbEntity
  8
HILF
100
AcDbLine
 10
40.00000000000006
 20
100.0
 30
0.0
 11
136.0000000000001
 21
100.0
 31
0.0
  0
LINE
  5
1AC
330
1E
100
AcDbEntity
  8
HILF
100
AcDbLine
 10
40.00000000000006
 20
90.00000000000005
 30
0.0
 11
136.0000000000001
 21
90.00000000000005
 31
0.0
  0
LINE
  5
1AD
330
1E
100
AcDbEntity
  8
HILF
100
AcDbLine
 10
40.00000000000006
 20
79.99999999999994
 30
0.0
 11
136.0000000000001
 21
79.99999999999994
 31
0.0
  0
LINE
  5
1AE
330
1E
100
AcDbEntity
  8
HILF
100
AcDbLine
 10
40.00000000000006
 20
69.99999999999994
 30
0.0
 11
136.0000000000001
 21
69.99999999999994
 31
0.0
  0
LINE
  5
1AF
330
1E
100
AcDbEntity
  8
HILF
100
AcDbLine
 10
40.00000000000006
 20
59.99999999999997
 30
0.0
 11
136.0000000000001
 21
59.99999999999997
 31
0.0
  0
LINE
  5
1B0
330
1E
100
AcDbEntity
  8
HILF
100
AcDbLine
 10
40.00000000000006
 20
49.99999999999997
 30
0.0
 11
136.0000000000001
 21
49.99999999999997
 31
0.0
  0
LINE
  5
1B1
330
1E
100
AcDbEntity
  8
HILF
100
AcDbLine
 10
40.00000000000006
 20
39.99999999999997
 30
0.0
 11
136.0000000000001
 21
39.99999999999997
 31
0.0
  0
LINE
  5
1B2
330
1E
100
AcDbEntity
  8
HILF
100
AcDbLine
 10
136.0000000000001
 20
69.99999999999994
 30
0.0
 11
220.0
 21
69.99999999999994
 31
0.0
  0
LINE
  5
1B3
330
1E
100
AcDbEntity
  8
HILF
100
AcDbLine
 10
136.0000000000001
 20
59.99999999999997
 30
0.0
 11
220.0
 21
59.99999999999997
 31
0.0
  0
LINE
  5
1B4
330
1E
100
AcDbEntity
  8
HILF
100
AcDbLine
 10
136.0000000000001
 20
49.99999999999997
 30
0.0
 11
220.0
 21
49.99999999999997
 31
0.0
  0
LINE
  5
1B5
330
1E
100
AcDbEntity
  8
HILF
100
AcDbLine
 10
224.7736801096948
 20
84.03758247564139
 30
0.0
 11
324.8353916556311
 21
84.03758247564139
 31
0.0
  0
LINE
  5
1B6
330
1E
100
AcDbEntity
  8
HILF
100
AcDbLine
 10
224.7736801096948
 20
69.99999999999994
 30
0.0
 11
324.835391655631
 21
69.99999999999994
 31
0.0
  0
LINE
  5
1B7
330
1E
100
AcDbEntity
  8
HILF
100
AcDbLine
 10
224.7736801096948
 20
59.99999999999997
 30
0.0
 11
324.835391655631
 21
59.99999999999997
 31
0.0
  0
LINE
  5
1B8
330
1E
100
AcDbEntity
  8
HILF
100
AcDbLine
 10
224.7736801096948
 20
49.99999999999997
 30
0.0
 11
324.835391655631
 21
49.99999999999997
 31
0.0
  0
LINE
  5
1B9
330
1E
100
AcDbEntity
  8
VOLL
100
AcDbLine
 10
331.9999999999999
 20
60.0
 30
0.0
 11
409.9999999999999
 21
60.0
 31
0.0
  0
LINE
  5
1BA
330
1E
100
AcDbEntity
  8
HILF
100
AcDbLine
 10
336.7238616296992
 20
83.77983636955827
 30
0.0
 11
404.8588839326727
 21
83.77983636955827
 31
0.0
  0
LINE
  5
1BB
330
1E
100
AcDbEntity
  8
HILF
100
AcDbLine
 10
223.4909699289885
 20
14.89398258028314
 30
0.0
 11
404.8588839326727
 21
14.89398258028314
 31
0.0
  0
TEXT
  5
1BC
330
1E
100
AcDbEntity
  8
TEXT
100
AcDbText
 10
63.30818695982741
 20
18.59145467910836
 30
0.0
 40
4.0
  1
Änderung
 41
0.8
  7
GREEKS
 72
     4
 11
74.05104410268456
 21
20.30574039339407
 31
0.0
100
AcDbText
  0
TEXT
  5
1BD
330
1E
100
AcDbEntity
  8
TEXT
100
AcDbText
 10
143.5163572150377
 20
102.4620895087088
 30
0.0
 40
5.0
  1
Maßstab
 41
0.8
  7
GREEKS
100
AcDbText
  0
TEXT
  5
1BE
330
1E
100
AcDbEntity
  8
TEXT
100
AcDbText
 10
184.2858954734051
 20
102.4184168434819
 30
0.0
 40
5.0
  1
Zul. Abw.
 41
0.8
  7
GREEKS
100
AcDbText
  0
TEXT
  5
1BF
330
1E
100
AcDbEntity
  8
TEXT
100
AcDbText
 10
224.877940380901
 20
102.5489328011779
 30
0.0
 40
5.0
  1
Benennung
 41
0.8
  7
GREEKS
100
AcDbText
  0
TEXT
  5
1C0
330
1E
100
AcDbEntity
  8
TEXT
100
AcDbText
 10
336.178754957634
 20
102.3132034537136
 30
0.0
 40
5.0
  1
Zeichnungs Nr.
 41
0.8
  7
GREEKS
100
AcDbText
  0
TEXT
  5
1C1
330
1E
100
AcDbEntity
  8
TEXT
100
AcDbText
 10
224.742238391136
 20
30.84560570193057
 30
0.0
 40
5.0
  1
Bauvorhaben
 41
0.8
  7
GREEKS
100
AcDbText
  0
TEXT
  5
1C2
330
1E
100
AcDbEntity
  8
TEXT
100
AcDbText
 10
336.7238616296992
 20
73.1811823709997
 30
0.0
 40
5.0
  1
Ersatz für:
 41
0.8
  7
GREEKS
100
AcDbText
  0
TEXT
  5
1C3
330
1E
100
AcDbEntity
  8
TEXT
100
AcDbText
 10
48.26641107045753
 20
13.65465846027192
 30
0.0
 40
3.6
  1
Index
 50
90.0
 41
0.8
  7
GREEKS
100
AcDbText
  0
TEXT
  5
1C6
330
1E
100
AcDbEntity
  8
TEXT
100
AcDbText
 10
162.3311673153651
 20
73.31880501229926
 30
0.0
 40
3.6
  1
Tag
 41
0.8
  7
GREEKS
100
AcDbText
  0
TEXT
  5
1C7
330
1E
100
AcDbEntity
  8
TEXT
100
AcDbText
 10
192.4626584226295
 20
73.30961091915225
 30
0.0
 40
3.6
  1
Name
 41
0.8
  7
GREEKS
100
AcDbText
  0
TEXT
  5
1C8
330
1E
100
AcDbEntity
  8
TEXT
100
AcDbText
 10
137.5836127167615
 20
63.62990369617964
 30
0.0
 40
3.6
  1
Gez.
 41
0.8
  7
GREEKS
100
AcDbText
  0
TEXT
  5
1C9
330
1E
100
AcDbEntity
  8
TEXT
100
AcDbText
 10
137.5515086571672
 20
53.68926291428377
 30
0.0
 40
3.6
  1
Gepr.
 41
0.8
  7
GREEKS
100
AcDbText
  0
TEXT
  5
1CA
330
1E
100
AcDbEntity
  8
TEXT
100
AcDbText
 10
137.6006777387304
 20
43.52946389649807
 30
0.0
 40
3.6
  1
Norm.
 41
0.8
  7
GREEKS
100
AcDbText
  0
LINE
  5
1CB
330
1E
100
AcDbEntity
  8
STEMPEL
100
AcDbLine
 10
49.99999999999989
 20
10.0
 30
0.0
 11
409.9999999999999
 21
10.0
 31
0.0
  0
LINE
  5
1CC
330
1E
100
AcDbEntity
  8
STEMPEL
100
AcDbLine
 10
409.9999999999999
 20
110.0
 30
0.0
 11
409.9999999999999
 21
10.0
 31
0.0
  0
TEXT
  5
1CD
330
1E
100
AcDbEntity
  8
TEXT
100
AcDbText
 10
337.2400861497005
 20
52.07416177878602
 30
0.0
 40
5.0
  1
ersetzt durch:
 41
0.8
  7
GREEKS
100
AcDbText
  0
LINE
  5
1CE
330
1E
100
AcDbEntity
  8
STEMPEL
100
AcDbLine
 10
409.9999999999999
 20
10.0
 30
0.0
 11
39.99999999999989
 21
10.0
 31
0.0
  0
LINE
  5
1CF
330
1E
100
AcDbEntity
  8
STEMPEL
100
AcDbLine
 10
409.9999999999999
 20
110.0
 30
0.0
 11
409.9999999999999
 21
584.0
 31
0.0
  0
LINE
  5
1D0
330
1E
100
AcDbEntity
  8
STEMPEL
100
AcDbLine
 10
40.0
 20
10.0
 30
0.0
 11
39.99999999999989
 21
584.0
 31
0.0
  0
LINE
  5
1D1
330
1E
100
AcDbEntity
  8
STEMPEL
100
AcDbLine
 10
409.9999999999999
 20
584.0
 30
0.0
 11
39.99999999999989
 21
584.0
 31
0.0
  0
LINE
  5
1D2
330
1E
100
AcDbEntity
  8
HILF
100
AcDbLine
 10
0.0
 20
0.0
 30
0.0
 11
-0.0000000000001137
 21
594.0
 31
0.0
  0
LINE
  5
1D3
330
1E
100
AcDbEntity
  8
HILF
100
AcDbLine
 10
419.9999999999999
 20
594.0000000000002
 30
0.0
 11
0.0
 21
594.0
 31
0.0
  0
LINE
  5
1D4
330
1E
100
AcDbEntity
  8
HILF
100
AcDbLine
 10
419.9999999999999
 20
0.0
 30
0.0
 11
0.0
 21
0.0
 31
0.0
  0
LINE
  5
1D5
330
1E
100
AcDbEntity
  8
HILF
100
AcDbLine
 10
31.08767135713856
 20
297.0
 30
0.0
 11
0.0000000000001137
 21
297.0
 31
0.0
  0
TEXT
  5
1D6
330
1E
100
AcDbEntity
  8
TEXT
100
AcDbText
 10
139.8886662448949
 20
73.33699103545173
 30
0.0
 40
3.6
  1
2007
 41
0.8
  7
GREEKS
100
AcDbText
  0
LINE
  5
1D7
330
1E
100
AcDbEntity
  8
HILF
100
AcDbLine
 10
419.9999999999999
 20
-0.0000000000001137
 30
0.0
 11
419.9999999999999
 21
594.0
 31
0.0
  0
TEXT
  5
1D8
330
1E
100
AcDbEntity
  8
VOLL
100
AcDbText
 10
78.07675471698113
 20
31.02594776470585
 30
0.0
 40
1.8
  1

  7
GREEKS
100
AcDbText
  0
TEXT
  5
1D9
330
1E
100
AcDbEntity
  8
TEXT
100
AcDbText
 10
42.25669815425914
 20
111.6719999999999
 30
0.0
 40
5.0
  1
Erstellt mit AUTOCAD 2004
 41
0.8
  7
GREEKS
100
AcDbText
  0
TEXT
  5
1DA
330
1E
100
AcDbEntity
  8
TEXT
100
AcDbText
 10
194.4216048581257
 20
63.0896391972351
 30
0.0
 40
4.0
  1
Koeh
 41
0.8
  7
GREEKS
 72
     1
 11
199.6787477152685
 21
63.0896391972351
 31
0.0
100
AcDbText
  0
TEXT
  5
1DB
330
1E
100
AcDbEntity
  8
TEXT
 62
     1
100
AcDbText
 10
347.772909698401
 20
88.14901428913959
 30
0.0
 40
7.0
  1
58063100W
 41
0.8
  7
GREEKS
 72
     1
 11
371.2395763650676
 21
88.14901428913959
 31
0.0
100
AcDbText
  0
TEXT
  5
1DC
330
1E
100
AcDbEntity
  8
TEXT
 62
     1
100
AcDbText
 10
150.5006306481887
 20
88.14901428913959
 30
0.0
 40
7.0
  1
1:2
  7
GREEKS
100
AcDbText
  0
TEXT
  5
1DD
330
1E
100
AcDbEntity
  8
TEXT
100
AcDbText
 10
161.0085209177598
 20
63.10765040825732
 30
0.0
 40
4.0
  1
01.10.
 41
0.8
  7
GREEKS
 72
     1
 11
167.4085209177598
 21
63.10765040825732
 31
0.0
100
AcDbText
  0
TEXT
  5
1DE
330
1E
100
AcDbEntity
  8
TEXT
 62
     1
100
AcDbText
 10
225.3291095064849
 20
87.41748789253779
 30
0.0
 40
7.0
  1
Verbundrohr
 41
0.8
  7
GREEKS
100
AcDbText
  0
TEXT
  5
1DF
330
1E
100
AcDbEntity
  8
TEXT
100
AcDbText
 10
225.1296391125315
 20
72.50168891988375
 30
0.0
 40
5.0
  1
Abgleichstück DN100/100
 41
0.8
  7
GREEKS
100
AcDbText
  0
TEXT
  5
1E0
330
1E
100
AcDbEntity
  8
TEXT
100
AcDbText
 10
225.1296391125315
 20
51.64011943042158
 30
0.0
 40
5.0
  1
EDV-Art.Nr. 58063.100X
 41
0.8
  7
GREEKS
100
AcDbText
  0
TEXT
  5
1E1
330
1E
100
AcDbEntity
  8
TEXT
100
AcDbText
 10
224.9837501577827
 20
42.62974153022634
 30
0.0
 40
3.6
  1
58063100W.DWG
 41
0.8
  7
GREEKS
100
AcDbText
  0
INSERT
  5
1E2
330
1E
100
AcDbEntity
  8
STEMPEL
100
AcDbBlockReference
  2
LOGO
 10
140.9955485457794
 20
45.02105276448321
 30
0.0
 41
2.0
 42
2.0
 43
2.0
  0
TEXT
  5
1E4
330
1E
100
AcDbEntity
  8
VOLL
100
AcDbText
 10
339.7958237333797
 20
71.91957633833147
 30
0.0
 40
1.8
  1

  7
GREEKS
100
AcDbText
  0
TEXT
  5
1E5
330
1E
100
AcDbEntity
  8
TEXT
100
AcDbText
 10
671.6280919369726
 20
77.47781187155701
 30
0.0
 40
2.5
  1
  
  7
GREEKS
 72
     1
 11
673.8899966988774
 21
77.47781187155701
 31
0.0
100
AcDbText
  0
TEXT
  5
1E6
330
1E
100
AcDbEntity
  8
BEM
100
AcDbText
 10
915.7478092494546
 20
213.0366939019592
 30
0.0
 40
2.5
  1
 
 72
     4
 11
916.878761630407
 21
213.0366939019592
 31
0.0
100
AcDbText
  0
TEXT
  5
1E8
330
1E
100
AcDbEntity
  8
BEM
100
AcDbText
 10
454.2848421115471
 20
134.8585024391051
 30
0.0
 40
2.5
  1

  7
GREEKS
100
AcDbText
  0
TEXT
  5
1E9
330
1E
100
AcDbEntity
  8
VOLL
100
AcDbText
 10
440.2186490918256
 20
114.67524178207
 30
0.0
 40
1.8
  1

  7
GREEKS
100
AcDbText
  0
TEXT
  5
1EA
330
1E
100
AcDbEntity
  8
BEM
100
AcDbText
 10
474.7067139311102
 20
119.4009661052905
 30
0.0
 40
2.5
  1

 41
0.8
  7
GREEKS
100
AcDbText
  0
TEXT
  5
1EB
330
1E
100
AcDbEntity
  8
BEM
100
AcDbText
 10
474.7067139311102
 20
114.7071975512384
 30
0.0
 40
2.5
  1

 41
0.8
  7
GREEKS
100
AcDbText
  0
TEXT
  5
1EC
330
1E
100
AcDbEntity
  8
BEM
100
AcDbText
 10
474.7067139311102
 20
109.4693537325749
 30
0.0
 40
2.5
  1

 41
0.8
  7
GREEKS
100
AcDbText
  0
TEXT
  5
1ED
330
1E
100
AcDbEntity
  8
BEM
100
AcDbText
 10
474.6337694537358
 20
104.9641647824773
 30
0.0
 40
1.8
  1

 41
0.8
  7
GREEKS
100
AcDbText
  0
TEXT
  5
1EE
330
1E
100
AcDbEntity
  8
BEM
100
AcDbText
 10
461.9501985741246
 20
130.5557538787025
 30
0.0
 40
2.0
  1

 41
0.8
  7
GREEKS
 72
     1
 11
461.9501985741246
 21
130.5557538787025
 31
0.0
100
AcDbText
  0
TEXT
  5
1EF
330
1E
100
AcDbEntity
  8
TEXT
100
AcDbText
 10
772.0509172954185
 20
120.2334773152955
 30
0.0
 40
2.5
  1
  
  7
GREEKS
 72
     1
 11
774.3128220573233
 21
120.2334773152955
 31
0.0
100
AcDbText
  0
TEXT
  5
1F0
330
1E
100
AcDbEntity
  8
BEM
100
AcDbText
 10
1016.1706346079
 20
255.7923593456977
 30
0.0
 40
2.5
  1
 
 72
     4
 11
1017.301586988853
 21
255.7923593456977
 31
0.0
100
AcDbText
  0
TEXT
  5
1F1
330
1E
100
AcDbEntity
  8
VOLL
100
AcDbText
 10
228.6383494536079
 20
31.18631511162239
 30
0.0
 40
1.8
  1

  7
GREEKS
100
AcDbText
  0
TEXT
  5
1F2
330
1E
100
AcDbEntity
  8
TEXT
100
AcDbText
 10
560.4706176572007
 20
36.74455064484793
 30
0.0
 40
2.5
  1
  
  7
GREEKS
 72
     1
 11
562.7325224191056
 21
36.74455064484793
 31
0.0
100
AcDbText
  0
TEXT
  5
1F3
330
1E
100
AcDbEntity
  8
BEM
100
AcDbText
 10
804.5903349696828
 20
172.3034326752502
 30
0.0
 40
2.5
  1
 
 72
     4
 11
805.7212873506353
 21
172.3034326752502
 31
0.0
100
AcDbText
  0
TEXT
  5
1F4
330
1E
100
AcDbEntity
  8
BEM
100
AcDbText
 10
393.9839625332579
 20
71.33954581020805
 30
0.0
 40
2.5
  1

  7
GREEKS
100
AcDbText
  0
TEXT
  5
1F5
330
1E
100
AcDbEntity
  8
VOLL
100
AcDbText
 10
379.9177695135364
 20
51.15628515317294
 30
0.0
 40
1.8
  1

  7
GREEKS
100
AcDbText
  0
TEXT
  5
1F6
330
1E
100
AcDbEntity
  8
BEM
100
AcDbText
 10
414.4058343528211
 20
55.88200947639354
 30
0.0
 40
2.5
  1

 41
0.8
  7
GREEKS
100
AcDbText
  0
TEXT
  5
1F7
330
1E
100
AcDbEntity
  8
BEM
100
AcDbText
 10
414.4058343528211
 20
51.18824092234138
 30
0.0
 40
2.5
  1

 41
0.8
  7
GREEKS
100
AcDbText
  0
TEXT
  5
1F8
330
1E
100
AcDbEntity
  8
BEM
100
AcDbText
 10
414.4058343528211
 20
45.95039710367788
 30
0.0
 40
2.5
  1

 41
0.8
  7
GREEKS
100
AcDbText
  0
TEXT
  5
1F9
330
1E
100
AcDbEntity
  8
BEM
100
AcDbText
 10
414.3328898754466
 20
41.44520815358026
 30
0.0
 40
1.8
  1

 41
0.8
  7
GREEKS
100
AcDbText
  0
TEXT
  5
1FA
330
1E
100
AcDbEntity
  8
BEM
100
AcDbText
 10
401.6493189958354
 20
67.03679724980554
 30
0.0
 40
2.0
  1

 41
0.8
  7
GREEKS
 72
     1
 11
401.6493189958354
 21
67.03679724980554
 31
0.0
100
AcDbText
  0
TEXT
  5
1FB
330
1E
100
AcDbEntity
  8
TEXT
100
AcDbText
 10
711.7500377171293
 20
56.71452068639848
 30
0.0
 40
2.5
  1
  
  7
GREEKS
 72
     1
 11
714.0119424790341
 21
56.71452068639848
 31
0.0
100
AcDbText
  0
TEXT
  5
1FC
330
1E
100
AcDbEntity
  8
BEM
100
AcDbText
 10
955.8697550296114
 20
192.2734027168007
 30
0.0
 40
2.5
  1
 
 72
     4
 11
957.0007074105637
 21
192.2734027168007
 31
0.0
100
AcDbText
  0
TEXT
  5
24B
330
1E
100
AcDbEntity
  8
TEXT
 62
     1
100
AcDbText
 10
82.08872711257143
 20
252.441438925272
 30
0.0
 40
7.0
  1
Rohrende leicht eingezogen
 41
0.8
  7
GREEKS
100
AcDbText
  0
TEXT
  5
26A
330
1E
100
AcDbEntity
  8
TEXT
100
AcDbText
 10
184.2858954734051
 20
90.23051188311759
 30
0.0
 40
4.0
  1
DIN EN1123-2
 41
0.8
  7
GREEKS
100
AcDbText
  0
TEXT
  5
2ED
330
1E
100
AcDbEntity
  8
TEXT
100
AcDbText
 10
99.98381106419387
 20
18.97240706006074
 30
0.0
 40
4.0
  1
Tag
 41
0.8
  7
GREEKS
 72
     4
 11
103.7171443975272
 21
20.30574039339407
 31
0.0
100
AcDbText
  0
TEXT
  5
2EE
330
1E
100
AcDbEntity
  8
TEXT
100
AcDbText
 10
118.0779538781902
 20
18.30574039339407
 30
0.0
 40
4.0
  1
Name
 41
0.8
  7
GREEKS
 72
     4
 11
124.4017634019997
 21
20.30574039339407
 31
0.0
100
AcDbText
  0
TEXT
  5
54A
330
1E
100
AcDbEntity
  8
VOLL
100
AcDbText
 10
305.2666505177693
 20
60.9917365573275
 30
0.0
 40
1.8
  1

  7
GREEKS
100
AcDbText
  0
TEXT
  5
558
330
1E
100
AcDbEntity
  8
BEM
100
AcDbText
 10
779.8708637178527
 20
75.83979991258411
 30
0.0
 40
2.5
  1

 41
0.8
  7
GREEKS
 72
     4
 11
779.8708637178527
 21
75.83979991258411
 31
0.0
100
AcDbText
  0
TEXT
  5
6F0
330
1E
100
AcDbEntity
  8
TEXT
100
AcDbText
 10
416.5811541437436
 20
12.14804815338303
 30
0.0
 40
4.0
  1
Diese Zeichnung ist urheberrechtlich geschützt und bleibt unser Eigentum. Sie darf weder ganz noch teilweise vervielfältigt und nicht an Dritte weitergegeben werden.
 50
90.0
 41
0.8
  7
GREEKS
100
AcDbText
  0
TEXT
  5
6FA
330
1E
100
AcDbEntity
  8
TEXT
 62
     1
100
AcDbText
 10
182.3890270894183
 20
136.1336838108334
 30
0.0
 40
7.0
  1
und innenbeschichtet
 41
0.8
  7
GREEKS
100
AcDbText
  0
TEXT
  5
6FB
330
1E
100
AcDbEntity
  8
TEXT
 62
     1
100
AcDbText
 10
127.2400875687074
 20
123.5388484254513
 30
0.0
 40
7.0
  1
Dämmung: 2 K-PU-Schaum
 41
0.8
  7
GREEKS
100
AcDbText
  0
TEXT
  5
6FC
330
1E
100
AcDbEntity
  8
TEXT
 62
     1
100
AcDbText
 10
134.7344982134045
 20
147.4027376500592
 30
0.0
 40
7.0
  1
Innenrohr: E195 EN10305 feuerverzinkt
 41
0.8
  7
GREEKS
100
AcDbText
  0
TEXT
  5
6FD
330
1E
100
AcDbEntity
  8
TEXT
 62
     1
100
AcDbText
 10
130.9622808425405
 20
158.7558056864142
 30
0.0
 40
7.0
  1
Außenrohr: E195 EN10305, P235 TR1 EN10217-1 feuerverzinkt
 41
0.8
  7
GREEKS
100
AcDbText
  0
TEXT
  5
2209
330
1E
100
AcDbEntity
  8
TEXT
 62
     1
100
AcDbText
 10
220.3843365043948
 20
462.5948834116891
 30
0.0
 40
7.0
  1
DN100
 50
90.0
 41
0.8
  7
GREEKS
100
AcDbText
  0
LINE
  5
248A
330
1E
100
AcDbEntity
  8
MITTEL
100
AcDbLine
 10
224.9999999999999
 20
387.5285029909321
 30
0.0
 11
224.9999999999999
 21
314.2638566117539
 31
0.0
  0
LINE
  5
2490
102
{ACAD_REACTORS
330
26A7
102
}
330
1E
100
AcDbEntity
  8
STEMPEL
100
AcDbLine
 10
279.1251133647407
 20
319.2638566117538
 30
0.0
 11
170.8748866352592
 21
319.263856611754
 31
0.0
  0
LINE
  5
2491
330
1E
100
AcDbEntity
  8
HILF
100
AcDbLine
 10
275.2533894004019
 20
399.2638566117538
 30
0.0
 11
174.7466105995978
 21
399.263856611754
 31
0.0
  0
LINE
  5
2492
102
{ACAD_REACTORS
330
26A7
330
26E6
102
}
330
1E
100
AcDbEntity
  8
STEMPEL
100
AcDbLine
 10
169.9999999999999
 20
395.2803900556345
 30
0.0
 11
169.9999999999999
 21
325.789654568174
 31
0.0
  0
LINE
  5
2493
102
{ACAD_REACTORS
330
26A7
330
26E6
102
}
330
1E
100
AcDbEntity
  8
STEMPEL
100
AcDbLine
 10
279.9999999999999
 20
395.2803900556341
 30
0.0
 11
279.9999999999999
 21
325.7896545681743
 31
0.0
  0
LINE
  5
2494
330
1E
100
AcDbEntity
  8
HILF
100
AcDbLine
 10
275.9642127875074
 20
325.7896545681737
 30
0.0
 11
174.0357872124924
 21
325.7896545681739
 31
0.0
  0
LINE
  5
2495
102
{ACAD_REACTORS
330
26A7
102
}
330
1E
100
AcDbEntity
  8
STEMPEL
100
AcDbLine
 10
169.9999999999999
 20
325.789654568174
 30
0.0
 11
170.8748866352592
 21
319.263856611754
 31
0.0
  0
LINE
  5
2496
102
{ACAD_REACTORS
330
26A7
102
}
330
1E
100
AcDbEntity
  8
STEMPEL
100
AcDbLine
 10
279.9999999999999
 20
325.7896545681743
 30
0.0
 11
279.1251133647407
 21
319.2638566117538
 31
0.0
  0
LINE
  5
24AC
330
1E
100
AcDbEntity
  8
MITTEL
100
AcDbLine
 10
224.9999999999999
 20
504.2638566117538
 30
0.0
 11
224.9999999999999
 21
396.4561878906532
 31
0.0
  0
DIMENSION
  5
24AD
330
1E
100
AcDbEntity
  8
BEM
100
AcDbDimension
  2
*D1
 10
279.9999999999999
 20
296.9311004973729
 30
0.0
 11
224.9999999999999
 21
303.4311004973729
 31
0.0
 70
    32
  1
%%C<>
 71
     5
 42
109.9999999999999
  3
Standard
100
AcDbAlignedDimension
 13
169.9999999999999
 23
325.789654568174
 33
0.0
 14
279.9999999999999
 24
325.7896545681743
 34
0.0
100
AcDbRotatedDimension
1001
ACAD
1000
DSTYLE
1002
{
1070
    40
1040
2.0
1070
    41
1040
3.5
1070
    42
1040
1.0
1070
    43
1040
7.0
1070
    44
1040
1.0
1070
    47
1040
0.15
1070
    48
1040
0.15
1070
    73
1070
     0
1070
    74
1070
     0
1070
    77
1070
     1
1070
    78
1070
     8
1070
    79
1070
     2
1070
   140
1040
3.5
1070
   141
1040
1.5
1070
   146
1040
0.5142857142857144
1070
   147
1040
1.5
1070
   172
1070
     1
1070
   178
1070
     1
1070
   179
1070
     2
1070
   271
1070
     2
1070
   272
1070
     2
1070
   284
1070
     8
1070
   285
1070
     8
1070
   286
1070
     8
1002
}
  0
LINE
  5
24C1
330
1E
100
AcDbEntity
  8
HILF
100
AcDbLine
 10
272.189562501553
 20
406.2638566117538
 30
0.0
 11
177.8104374984467
 21
406.2638566117541
 31
0.0
  0
LINE
  5
24C2
102
{ACAD_REACTORS
330
26A7
330
26E6
102
}
330
1E
100
AcDbEntity
  8
STEMPEL
100
AcDbLine
 10
277.0540548630041
 20
404.4192606014962
 30
0.0
 11
278.0236471318667
 21
402.7224741309867
 31
0.0
  0
LINE
  5
24C3
102
{ACAD_REACTORS
330
26A7
330
26E6
102
}
330
1E
100
AcDbEntity
  8
STEMPEL
100
AcDbLine
 10
171.976352868133
 20
402.7224741309869
 30
0.0
 11
172.9459451369955
 21
404.4192606014965
 31
0.0
  0
ARC
  5
24C4
102
{ACAD_REACTORS
330
26A7
330
26E6
102
}
330
1E
100
AcDbEntity
  8
STEMPEL
100
AcDbCircle
 10
283.9999999999999
 20
408.3883721083508
 30
0.0
 40
8.0
100
AcDbArc
 50
180.0
 51
209.7448812969434
  0
ARC
  5
24C5
102
{ACAD_REACTORS
330
26A7
330
26E6
102
}
330
1E
100
AcDbEntity
  8
STEMPEL
100
AcDbCircle
 10
165.9999999999999
 20
408.3883721083511
 30
0.0
 40
8.0
100
AcDbArc
 50
330.2551187030565
 51
0.0
  0
ARC
  5
24C6
102
{ACAD_REACTORS
330
26A7
330
26E6
102
}
330
1E
100
AcDbEntity
  8
STEMPEL
100
AcDbCircle
 10
264.9999999999999
 20
395.2803900556341
 30
0.0
 40
15.0
100
AcDbArc
 50
0.0
 51
29.74488129694344
  0
ARC
  5
24C7
102
{ACAD_REACTORS
330
26A7
330
26E6
102
}
330
1E
100
AcDbEntity
  8
STEMPEL
100
AcDbCircle
 10
184.9999999999999
 20
395.2803900556345
 30
0.0
 40
15.0
100
AcDbArc
 50
150.2551187030566
 51
180.0
  0
TEXT
  5
253C
330
1E
100
AcDbEntity
  8
TEXT
 62
     1
100
AcDbText
 10
220.3843365043948
 20
349.1842560708599
 30
0.0
 40
7.0
  1
DN100
 50
90.0
 41
0.8
  7
GREEKS
100
AcDbText
  0
LINE
  5
25BD
102
{ACAD_REACTORS
330
26C5
330
26E6
102
}
330
1E
100
AcDbEntity
  8
STEMPEL
100
AcDbLine
 10
284.0000000000001
 20
485.2638566117538
 30
0.0
 11
288.9999999999999
 21
485.2638566117538
 31
0.0
  0
LINE
  5
25BE
102
{ACAD_REACTORS
330
26A7
330
26C5
102
}
330
1E
100
AcDbEntity
  8
STEMPEL
100
AcDbLine
 10
280.7067558379248
 20
499.2638566117538
 30
0.0
 11
281.6576946759161
 21
497.2245616927
 31
0.0
  0
LINE
  5
25BF
102
{ACAD_REACTORS
330
26A7
102
}
330
1E
100
AcDbEntity
  8
STEMPEL
100
AcDbLine
 10
278.4999999999999
 20
499.2638566117538
 30
0.0
 11
279.8450791018428
 21
496.3793251692186
 31
0.0
  0
ARC
  5
25C0
102
{ACAD_REACTORS
330
26A7
102
}
330
1E
100
AcDbEntity
  8
STEMPEL
100
AcDbCircle
 10
258.9999999999999
 20
486.6591051491826
 30
0.0
 40
23.0
100
AcDbArc
 50
0.0
 51
24.99999999999276
  0
ARC
  5
25C1
102
{ACAD_REACTORS
330
26A7
330
26C5
102
}
330
1E
100
AcDbEntity
  8
STEMPEL
100
AcDbCircle
 10
258.9999999999999
 20
486.6591051491826
 30
0.0
 40
25.0
100
AcDbArc
 50
0.0
 51
24.99999999999276
  0
LINE
  5
25C2
102
{ACAD_REACTORS
330
26A7
330
26C5
330
26E6
102
}
330
1E
100
AcDbEntity
  8
STEMPEL
100
AcDbLine
 10
283.9999999999999
 20
486.6591051491826
 30
0.0
 11
283.9999999999999
 21
468.4970571424353
 31
0.0
  0
LINE
  5
25C3
102
{ACAD_REACTORS
330
26A7
102
}
330
1E
100
AcDbEntity
  8
STEMPEL
100
AcDbLine
 10
281.9999999999999
 20
486.6591051491826
 30
0.0
 11
281.9999999999999
 21
468.4968566117537
 31
0.0
  0
ARC
  5
25C4
102
{ACAD_REACTORS
330
26A7
102
}
330
1E
100
AcDbEntity
  8
STEMPEL
100
AcDbCircle
 10
291.9999999999999
 20
451.7638566117536
 30
0.0
 40
14.0
100
AcDbArc
 50
152.9496314366176
 51
180.0
  0
ARC
  5
25C5
102
{ACAD_REACTORS
330
26A7
330
26E6
102
}
330
1E
100
AcDbEntity
  8
STEMPEL
100
AcDbCircle
 10
291.9999999999999
 20
451.7638566117536
 30
0.0
 40
12.0
100
AcDbArc
 50
153.1119523822725
 51
180.0
  0
ARC
  5
25C6
102
{ACAD_REACTORS
330
26A7
102
}
330
1E
100
AcDbEntity
  8
STEMPEL
100
AcDbCircle
 10
264.9999999999999
 20
436.1913454887013
 30
0.0
 40
13.0
100
AcDbArc
 50
325.6988472432103
 51
0.0
  0
ARC
  5
25C7
102
{ACAD_REACTORS
330
26A7
330
26E6
102
}
330
1E
100
AcDbEntity
  8
STEMPEL
100
AcDbCircle
 10
264.9999999999999
 20
436.1913454887013
 30
0.0
 40
15.0
100
AcDbArc
 50
325.6988472432103
 51
0.0
  0
ARC
  5
25C8
102
{ACAD_REACTORS
330
26A7
330
26E6
102
}
330
1E
100
AcDbEntity
  8
STEMPEL
100
AcDbCircle
 10
283.9999999999997
 20
423.2298640918855
 30
0.0
 40
8.0
100
AcDbArc
 50
145.6988472432103
 51
180.0
  0
LINE
  5
25C9
102
{ACAD_REACTORS
330
26A7
330
26E6
102
}
330
1E
100
AcDbEntity
  8
STEMPEL
100
AcDbLine
 10
279.9999999999999
 20
451.7638566117538
 30
0.0
 11
279.9999999999997
 21
436.1913454887012
 31
0.0
  0
LINE
  5
25CA
102
{ACAD_REACTORS
330
26A7
102
}
330
1E
100
AcDbEntity
  8
STEMPEL
100
AcDbLine
 10
277.9999999999999
 20
451.7638566117536
 30
0.0
 11
277.9999999999999
 21
436.1913454887013
 31
0.0
  0
ARC
  5
25CB
102
{ACAD_REACTORS
330
26A7
102
}
330
1E
100
AcDbEntity
  8
STEMPEL
100
AcDbCircle
 10
283.9999999999997
 20
423.2298640918855
 30
0.0
 40
10.0
100
AcDbArc
 50
145.6988472432103
 51
180.0
  0
ARC
  5
25CC
102
{ACAD_REACTORS
330
26A7
330
26E6
102
}
330
1E
100
AcDbEntity
  8
STEMPEL
100
AcDbCircle
 10
258.9999999999999
 20
468.4970571424353
 30
0.0
 40
25.0
100
AcDbArc
 50
333.1119523822725
 51
0.0
  0
ARC
  5
25CD
102
{ACAD_REACTORS
330
26A7
102
}
330
1E
100
AcDbEntity
  8
STEMPEL
100
AcDbCircle
 10
258.9999999999999
 20
468.4968566117539
 30
0.0
 40
23.0
100
AcDbArc
 50
333.211201894792
 51
0.0
  0
LINE
  5
25CE
102
{ACAD_REACTORS
330
26A7
102
}
330
1E
100
AcDbEntity
  8
STEMPEL
100
AcDbLine
 10
171.4999999999998
 20
499.2638566117538
 30
0.0
 11
170.1549208981568
 21
496.3793251692187
 31
0.0
  0
LINE
  5
25CF
102
{ACAD_REACTORS
330
26C5
330
26E6
102
}
330
1E
100
AcDbEntity
  8
STEMPEL
100
AcDbLine
 10
160.9999999999998
 20
485.2638566117538
 30
0.0
 11
165.9999999999999
 21
485.2638566117538
 31
0.0
  0
ARC
  5
25D0
102
{ACAD_REACTORS
330
26A7
330
26C5
102
}
330
1E
100
AcDbEntity
  8
STEMPEL
100
AcDbCircle
 10
190.9999999999998
 20
486.6591051491827
 30
0.0
 40
25.0
100
AcDbArc
 50
155.0000000000072
 51
180.0
  0
ARC
  5
25D1
102
{ACAD_REACTORS
330
26A7
102
}
330
1E
100
AcDbEntity
  8
STEMPEL
100
AcDbCircle
 10
190.9999999999998
 20
486.6591051491827
 30
0.0
 40
23.0
100
AcDbArc
 50
155.0000000000072
 51
180.0
  0
LINE
  5
25D2
102
{ACAD_REACTORS
330
26A7
330
26C5
102
}
330
1E
100
AcDbEntity
  8
STEMPEL
100
AcDbLine
 10
169.2932441620748
 20
499.2638566117538
 30
0.0
 11
168.3423053240835
 21
497.2245616927001
 31
0.0
  0
LINE
  5
25D3
102
{ACAD_REACTORS
330
26A7
330
26C5
330
26E6
102
}
330
1E
100
AcDbEntity
  8
STEMPEL
100
AcDbLine
 10
165.9999999999998
 20
486.6591051491827
 30
0.0
 11
165.9999999999998
 21
468.4970571424354
 31
0.0
  0
LINE
  5
25D4
102
{ACAD_REACTORS
330
26A7
102
}
330
1E
100
AcDbEntity
  8
STEMPEL
100
AcDbLine
 10
167.9999999999998
 20
486.6591051491827
 30
0.0
 11
167.9999999999998
 21
468.4968566117539
 31
0.0
  0
ARC
  5
25D6
102
{ACAD_REACTORS
330
26A7
102
}
330
1E
100
AcDbEntity
  8
STEMPEL
100
AcDbCircle
 10
157.9999999999998
 20
451.7638566117538
 30
0.0
 40
14.0
100
AcDbArc
 50
0.0
 51
27.05036856338237
  0
ARC
  5
25D7
102
{ACAD_REACTORS
330
26A7
330
26E6
102
}
330
1E
100
AcDbEntity
  8
STEMPEL
100
AcDbCircle
 10
157.9999999999998
 20
451.7638566117538
 30
0.0
 40
12.0
100
AcDbArc
 50
0.0
 51
26.88804761772753
  0
ARC
  5
25D8
102
{ACAD_REACTORS
330
26A7
330
26E6
102
}
330
1E
100
AcDbEntity
  8
STEMPEL
100
AcDbCircle
 10
184.9999999999998
 20
436.1913454887013
 30
0.0
 40
15.0
100
AcDbArc
 50
180.0
 51
214.3011527567897
  0
ARC
  5
25D9
102
{ACAD_REACTORS
330
26A7
102
}
330
1E
100
AcDbEntity
  8
STEMPEL
100
AcDbCircle
 10
184.9999999999998
 20
436.1913454887013
 30
0.0
 40
13.0
100
AcDbArc
 50
180.0
 51
214.3011527567897
  0
ARC
  5
25DA
102
{ACAD_REACTORS
330
26A7
330
26E6
102
}
330
1E
100
AcDbEntity
  8
STEMPEL
100
AcDbCircle
 10
165.9999999999998
 20
423.2298640918856
 30
0.0
 40
8.0
100
AcDbArc
 50
0.0
 51
34.30115275678971
  0
ARC
  5
25DB
102
{ACAD_REACTORS
330
26A7
102
}
330
1E
100
AcDbEntity
  8
STEMPEL
100
AcDbCircle
 10
165.9999999999998
 20
423.2298640918856
 30
0.0
 40
10.0
100
AcDbArc
 50
0.0
 51
34.30115275678971
  0
LINE
  5
25DC
102
{ACAD_REACTORS
330
26A7
330
26E6
102
}
330
1E
100
AcDbEntity
  8
STEMPEL
100
AcDbLine
 10
169.9999999999998
 20
451.7638566117538
 30
0.0
 11
169.9999999999999
 21
436.1913454887013
 31
0.0
  0
LINE
  5
25DD
102
{ACAD_REACTORS
330
26A7
102
}
330
1E
100
AcDbEntity
  8
STEMPEL
100
AcDbLine
 10
171.9999999999998
 20
451.7638566117538
 30
0.0
 11
171.9999999999998
 21
436.1913454887014
 31
0.0
  0
ARC
  5
25DE
102
{ACAD_REACTORS
330
26A7
102
}
330
1E
100
AcDbEntity
  8
STEMPEL
100
AcDbCircle
 10
190.9999999999998
 20
468.4968566117539
 30
0.0
 40
23.0
100
AcDbArc
 50
180.0
 51
206.788798105208
  0
ARC
  5
25DF
102
{ACAD_REACTORS
330
26A7
330
26E6
102
}
330
1E
100
AcDbEntity
  8
STEMPEL
100
AcDbCircle
 10
190.9999999999998
 20
468.4970571424353
 30
0.0
 40
25.0
100
AcDbArc
 50
180.0
 51
206.8880476177275
  0
DIMENSION
  5
25E0
330
1E
100
AcDbEntity
  8
BEM
100
AcDbDimension
  2
*D2
 10
291.4999999999999
 20
509.7106791101748
 30
0.0
 11
224.9999999999998
 21
516.2106791101748
 31
0.0
 70
    32
  1
%%c<>
 71
     5
 42
133.0000000000001
  3
Standard
100
AcDbAlignedDimension
 13
158.4999999999998
 23
499.2638566117538
 33
0.0
 14
291.4999999999999
 24
499.2638566117538
 34
0.0
100
AcDbRotatedDimension
1001
ACAD
1000
DSTYLE
1002
{
1070
    40
1040
2.0
1070
    41
1040
3.5
1070
    42
1040
1.0
1070
    43
1040
7.0
1070
    44
1040
1.0
1070
    73
1070
     0
1070
    74
1070
     0
1070
    77
1070
     1
1070
    78
1070
     8
1070
    79
1070
     2
1070
   140
1040
3.5
1070
   141
1040
1.5
1070
   146
1040
0.5142857142857144
1070
   147
1040
1.5
1070
   172
1070
     1
1070
   178
1070
     1
1070
   179
1070
     2
1070
   271
1070
     2
1070
   272
1070
     2
1070
   284
1070
     8
1070
   285
1070
     8
1070
   286
1070
     8
1070
   289
1070
     0
1070
   340
1005
31
1002
}
  0
LINE
  5
25E1
102
{ACAD_REACTORS
330
26A7
330
26B4
330
26C5
102
}
330
1E
100
AcDbEntity
  8
STEMPEL
100
AcDbLine
 10
158.4999999999998
 20
499.2638566117538
 30
0.0
 11
291.4999999999999
 21
499.2638566117538
 31
0.0
  0
LINE
  5
25E3
330
1E
100
AcDbEntity
  8
HILF
100
AcDbLine
 10
173.661401395078
 20
455.0380750440276
 30
0.0
 11
276.3385986049217
 21
455.0380750440276
 31
0.0
  0
LINE
  5
25E4
330
1E
100
AcDbEntity
  8
HILF
100
AcDbLine
 10
275.3103999838066
 20
432.357854628674
 30
0.0
 11
174.6896000161929
 21
432.357854628674
 31
0.0
  0
LINE
  5
25E5
330
1E
100
AcDbEntity
  8
HILF
100
AcDbLine
 10
177.6320397104757
 20
426.1787032149836
 30
0.0
 11
272.3679602895239
 21
426.1787032149836
 31
0.0
  0
LINE
  5
25E6
102
{ACAD_REACTORS
330
26A7
330
26E6
102
}
330
1E
100
AcDbEntity
  8
STEMPEL
100
AcDbLine
 10
275.9999999999997
 20
423.2298640918855
 30
0.0
 11
275.9999999999997
 21
408.3883721083508
 31
0.0
  0
LINE
  5
25E7
102
{ACAD_REACTORS
330
26A7
102
}
330
1E
100
AcDbEntity
  8
STEMPEL
100
AcDbLine
 10
273.9999999999997
 20
423.2298640918855
 30
0.0
 11
273.9999999999997
 21
408.3883721083508
 31
0.0
  0
LINE
  5
25E8
102
{ACAD_REACTORS
330
26B4
330
26C5
330
26E6
102
}
330
1E
100
AcDbEntity
  8
STEMPEL
100
AcDbLine
 10
288.9999999999999
 20
499.2638566117538
 30
0.0
 11
288.9999999999998
 21
379.2638566117537
 31
0.0
  0
LINE
  5
25E9
102
{ACAD_REACTORS
330
26B4
102
}
330
1E
100
AcDbEntity
  8
STEMPEL
100
AcDbLine
 10
291.4999999999999
 20
499.2638566117538
 30
0.0
 11
291.4999999999999
 21
379.2638566117537
 31
0.0
  0
LINE
  5
25EA
102
{ACAD_REACTORS
330
26A7
330
26E6
102
}
330
1E
100
AcDbEntity
  8
STEMPEL
100
AcDbLine
 10
173.9999999999998
 20
423.2298640918856
 30
0.0
 11
173.9999999999999
 21
408.3883721083511
 31
0.0
  0
LINE
  5
25EB
102
{ACAD_REACTORS
330
26A7
102
}
330
1E
100
AcDbEntity
  8
STEMPEL
100
AcDbLine
 10
175.9999999999998
 20
423.2298640918856
 30
0.0
 11
175.9999999999998
 21
408.3883721083511
 31
0.0
  0
LINE
  5
25EC
102
{ACAD_REACTORS
330
26B4
330
26C5
330
26E6
102
}
330
1E
100
AcDbEntity
  8
STEMPEL
100
AcDbLine
 10
160.9999999999998
 20
499.2638566117538
 30
0.0
 11
160.9999999999997
 21
379.2638566117541
 31
0.0
  0
LINE
  5
25ED
102
{ACAD_REACTORS
330
26B4
102
}
330
1E
100
AcDbEntity
  8
STEMPEL
100
AcDbLine
 10
158.4999999999998
 20
499.2638566117538
 30
0.0
 11
158.4999999999997
 21
379.2638566117541
 31
0.0
  0
ARC
  5
2631
102
{ACAD_REACTORS
330
26A7
102
}
330
1E
100
AcDbEntity
  8
STEMPEL
100
AcDbCircle
 10
264.9999999999999
 20
395.2803900556341
 30
0.0
 40
13.0
100
AcDbArc
 50
0.0
 51
29.74488129694344
  0
ARC
  5
2633
102
{ACAD_REACTORS
330
26A7
102
}
330
1E
100
AcDbEntity
  8
STEMPEL
100
AcDbCircle
 10
283.9999999999999
 20
408.3883721083508
 30
0.0
 40
10.0
100
AcDbArc
 50
180.0
 51
209.7448812969434
  0
LINE
  5
2635
102
{ACAD_REACTORS
330
26A7
102
}
330
1E
100
AcDbEntity
  8
STEMPEL
100
AcDbLine
 10
277.9999999999999
 20
395.2803900556341
 30
0.0
 11
277.9999999999999
 21
325.9231233564364
 31
0.0
  0
LINE
  5
2636
102
{ACAD_REACTORS
330
26A7
102
}
330
1E
100
AcDbEntity
  8
STEMPEL
100
AcDbLine
 10
275.3175685787553
 20
403.4269827247825
 30
0.0
 11
276.2871608476178
 21
401.730196254273
 31
0.0
  0
LINE
  5
2637
102
{ACAD_REACTORS
330
26A7
102
}
330
1E
100
AcDbEntity
  8
STEMPEL
100
AcDbLine
 10
277.9999999999999
 20
325.9231233564364
 30
0.0
 11
277.1072197584945
 21
319.2638566117537
 31
0.0
  0
LINE
  5
2639
102
{ACAD_REACTORS
330
26A7
102
}
330
1E
100
AcDbEntity
  8
STEMPEL
100
AcDbLine
 10
171.9999999999999
 20
395.2803900556345
 30
0.0
 11
171.9999999999999
 21
325.9231233564362
 31
0.0
  0
LINE
  5
263B
102
{ACAD_REACTORS
330
26A7
102
}
330
1E
100
AcDbEntity
  8
STEMPEL
100
AcDbLine
 10
171.9999999999999
 20
325.9231233564362
 30
0.0
 11
172.8927802415055
 21
319.263856611754
 31
0.0
  0
ARC
  5
263D
102
{ACAD_REACTORS
330
26A7
102
}
330
1E
100
AcDbEntity
  8
STEMPEL
100
AcDbCircle
 10
165.9999999999999
 20
408.3883721083511
 30
0.0
 40
10.0
100
AcDbArc
 50
330.2551187030565
 51
0.0
  0
LINE
  5
263F
102
{ACAD_REACTORS
330
26A7
102
}
330
1E
100
AcDbEntity
  8
STEMPEL
100
AcDbLine
 10
173.7128391523819
 20
401.7301962542732
 30
0.0
 11
174.6824314212444
 21
403.4269827247828
 31
0.0
  0
ARC
  5
2641
102
{ACAD_REACTORS
330
26A7
102
}
330
1E
100
AcDbEntity
  8
STEMPEL
100
AcDbCircle
 10
184.9999999999999
 20
395.2803900556345
 30
0.0
 40
13.0
100
AcDbArc
 50
150.2551187030566
 51
180.0
  0
LINE
  5
2665
102
{ACAD_REACTORS
330
26B4
330
26E6
102
}
330
1E
100
AcDbEntity
  8
STEMPEL
100
AcDbLine
 10
291.4999999999999
 20
379.2638566117537
 30
0.0
 11
279.9999999999999
 21
379.2638566117539
 31
0.0
  0
LINE
  5
2666
102
{ACAD_REACTORS
330
26B4
330
26E6
102
}
330
1E
100
AcDbEntity
  8
STEMPEL
100
AcDbLine
 10
169.9999999999999
 20
379.2638566117541
 30
0.0
 11
158.4999999999997
 21
379.2638566117541
 31
0.0
  0
HATCH
  5
26A7
330
1E
100
AcDbEntity
  8
SCHRAFF
100
AcDbHatch
 10
0.0
 20
0.0
 30
0.0
210
0.0
220
0.0
230
1.0
  2
_USER
 70
     0
 71
     1
 91
        2
 92
        7
 72
     1
 73
     1
 93
       30
 10
279.9999999999999
 20
451.7638566117538
 42
-0.1178625008509487
 10
281.2972972972975
 20
457.190840567651
 42
0.1178625008509296
 10
283.9999999999999
 20
468.4970571424353
 42
0.0
 10
283.9999999999999
 20
486.6591051491826
 42
0.1095178116832401
 10
281.6576946759161
 20
497.2245616927
 42
0.0
 10
280.7067558379248
 20
499.2638566117538
 42
0.0
 10
278.4999999999998
 20
499.2638566117538
 42
0.0
 10
279.8450791018428
 20
496.3793251692186
 42
-0.1095178116832427
 10
281.9999999999999
 20
486.6591051491824
 42
0.0
 10
281.9999999999999
 20
468.4968566117537
 42
-0.1182991460890934
 10
279.4955654706375
 20
458.0598169913056
 42
0.1171420130224849
 10
277.9999999999999
 20
451.7638566117535
 42
0.0
 10
277.9999999999999
 20
436.1913454887013
 42
-0.1507946423586957
 10
275.7391304347827
 20
428.8652907861536
 42
0.1507946423587254
 10
273.9999999999997
 20
423.2298640918853
 42
0.0
 10
273.9999999999997
 20
408.3883721083508
 42
0.1305202039157461
 10
275.3175685787551
 20
403.4269827247828
 42
0.0
 10
276.2871608476178
 20
401.730196254273
 42
-0.1305202039157559
 10
277.9999999999999
 20
395.2803900556341
 42
0.0
 10
277.9999999999998
 20
325.9231233564362
 42
0.0
 10
277.1072197584945
 20
319.2638566117538
 42
0.0
 10
279.1251133647407
 20
319.2638566117538
 42
0.0
 10
279.9999999999999
 20
325.7896545681745
 42
0.0
 10
279.9999999999999
 20
395.2803900556341
 42
0.1305202039157555
 10
278.0236471318667
 20
402.7224741309867
 42
0.0
 10
277.0540548630041
 20
404.4192606014962
 42
-0.1305202039157568
 10
275.9999999999997
 20
408.3883721083508
 42
0.0
 10
275.9999999999997
 20
423.2298640918855
 42
-0.1507946423586957
 10
277.3913043478256
 20
427.7382054472995
 42
0.1507946423587065
 10
279.9999999999997
 20
436.1913454887012
 42
0.0
 97
       30
330
25C5
330
25CC
330
25C2
330
25C1
330
25BE
330
25E1
330
25BF
330
25C0
330
25C3
330
25CD
330
25C4
330
25CA
330
25C6
330
25CB
330
25E7
330
2633
330
2636
330
2631
330
2635
330
2637
330
2490
330
2496
330
2493
330
24C6
330
24C2
330
24C4
330
25E6
330
25C8
330
25C7
330
25C9
 92
        7
 72
     1
 73
     1
 93
       30
 10
171.9999999999998
 20
451.7638566117538
 42
0.117142013021842
 10
170.5044345293782
 20
458.059816991274
 42
-0.1182991460894842
 10
167.9999999999998
 20
468.4968566117539
 42
0.0
 10
167.9999999999998
 20
486.6591051491827
 42
-0.1095178116832405
 10
170.1549208981568
 20
496.3793251692187
 42
0.0
 10
171.4999999999998
 20
499.2638566117539
 42
0.0
 10
169.2932441620748
 20
499.2638566117539
 42
0.0
 10
168.3423053240835
 20
497.2245616927001
 42
0.1095178116832405
 10
165.9999999999998
 20
486.6591051491827
 42
0.0
 10
165.9999999999998
 20
468.4970571424354
 42
0.1178625008509373
 10
168.7027027027025
 20
457.1908405676504
 42
-0.1178625008509363
 10
169.9999999999998
 20
451.7638566117537
 42
0.0
 10
169.9999999999999
 20
436.1913454887013
 42
0.1507946423587036
 10
172.6086956521738
 20
427.7382054472998
 42
-0.1507946423587023
 10
173.9999999999998
 20
423.2298640918856
 42
0.0
 10
173.9999999999999
 20
408.3883721083511
 42
-0.1305202039157536
 10
172.9459451369955
 20
404.4192606014965
 42
0.0
 10
171.976352868133
 20
402.7224741309869
 42
0.1305202039157531
 10
169.9999999999999
 20
395.2803900556345
 42
0.0
 10
169.9999999999999
 20
325.7896545681742
 42
0.0
 10
170.8748866352592
 20
319.263856611754
 42
0.0
 10
172.8927802415055
 20
319.263856611754
 42
0.0
 10
171.9999999999999
 20
325.9231233564363
 42
0.0
 10
171.9999999999999
 20
395.2803900556345
 42
-0.1305202039157521
 10
173.7128391523819
 20
401.7301962542732
 42
0.0
 10
174.6824314212444
 20
403.4269827247828
 42
0.1305202039157533
 10
175.9999999999998
 20
408.3883721083511
 42
0.0
 10
175.9999999999998
 20
423.2298640918856
 42
0.150794642358703
 10
174.2608695652172
 20
428.8652907861533
 42
-0.1507946423587049
 10
171.9999999999998
 20
436.1913454887014
 42
0.0
 97
       30
330
25D6
330
25DE
330
25D4
330
25D1
330
25CE
330
25E1
330
25D2
330
25D0
330
25D3
330
25DF
330
25D7
330
25DC
330
25D8
330
25DA
330
25EA
330
24C5
330
24C3
330
24C7
330
2492
330
2495
330
2490
330
263B
330
2639
330
2641
330
263F
330
263D
330
25EB
330
25DB
330
25D9
330
25DD
 75
     0
 76
     0
 52
45.0
 41
2.0
 77
     0
 78
     1
 53
45.0
 43
0.0
 44
0.0
 45
-1.414213562373094
 46
1.414213562373095
 79
     0
 47
0.4518627468284988
 98
        2
 10
279.0497010535432
 20
443.7879802295267
 10
170.9781218352432
 20
442.8842547909648
  0
HATCH
  5
26B4
330
1E
100
AcDbEntity
  8
SCHRAFF
100
AcDbHatch
 10
0.0
 20
0.0
 30
0.0
210
0.0
220
0.0
230
1.0
  2
_USER
 70
     0
 71
     1
 91
        2
 92
        7
 72
     0
 73
     1
 93
        4
 10
291.4999999999999
 20
499.2638566117538
 10
288.9999999999999
 20
499.2638566117538
 10
288.9999999999998
 20
379.2638566117537
 10
291.4999999999998
 20
379.2638566117537
 97
        4
330
25E1
330
25E8
330
2665
330
25E9
 92
        7
 72
     0
 73
     1
 93
        4
 10
160.9999999999997
 20
499.2638566117538
 10
158.4999999999998
 20
499.2638566117538
 10
158.4999999999997
 20
379.2638566117541
 10
160.9999999999997
 20
379.2638566117541
 97
        4
330
25E1
330
25ED
330
2666
330
25EC
 75
     0
 76
     0
 52
135.0
 41
2.0
 77
     0
 78
     1
 53
135.0
 43
0.0
 44
0.0
 45
-1.414213562373095
 46
-1.414213562373094
 79
     0
 47
0.4518627468284988
 98
        2
 10
290.3542599328584
 20
458.2475886459317
 10
160.1257450491039
 20
455.9882743498203
  0
HATCH
  5
26C5
330
1E
100
AcDbEntity
  8
SCHRAFF
100
AcDbHatch
 10
0.0
 20
0.0
 30
0.0
210
0.0
220
0.0
230
1.0
  2
NET
 70
     0
 71
     1
 91
        2
 92
        7
 72
     1
 73
     1
 93
        6
 10
288.9999999999998
 20
499.2638566117538
 42
0.0
 10
280.7067558379248
 20
499.2638566117538
 42
0.0
 10
281.6576946759161
 20
497.2245616927
 42
-0.1095178116832424
 10
283.9999999999999
 20
486.6591051491824
 42
0.0
 10
283.9999999999999
 20
485.2638566117538
 42
0.0
 10
288.9999999999999
 20
485.2638566117539
 42
0.0
 97
        6
330
25E1
330
25BE
330
25C1
330
25C2
330
25BD
330
25E8
 92
        7
 72
     1
 73
     1
 93
        6
 10
168.3423053240835
 20
497.2245616927001
 42
0.0
 10
169.2932441620748
 20
499.2638566117538
 42
0.0
 10
160.9999999999998
 20
499.2638566117538
 42
0.0
 10
160.9999999999997
 20
485.2638566117538
 42
0.0
 10
165.9999999999998
 20
485.2638566117537
 42
0.0
 10
165.9999999999998
 20
486.6591051491827
 42
-0.1095178116832405
 97
        6
330
25D2
330
25E1
330
25EC
330
25CF
330
25D3
330
25D0
 75
     0
 76
     1
 52
45.0
 41
15.0
 77
     0
 78
     2
 53
45.0
 43
0.0
 44
0.0
 45
-1.325825214724776
 46
1.325825214724776
 79
     0
 53
135.0
 43
0.0
 44
0.0
 45
-1.325825214724776
 46
-1.325825214724776
 79
     0
 47
0.4518627468284988
 98
        2
 10
286.2846189109696
 20
491.6854326715515
 10
165.099750257345
 20
492.5891581101137
  0
HATCH
  5
26E6
330
1E
100
AcDbEntity
  8
SCHRAFF
100
AcDbHatch
 10
0.0
 20
0.0
 30
0.0
210
0.0
220
0.0
230
1.0
  2
HONEY
 70
     0
 71
     1
 91
        2
 92
        7
 72
     1
 73
     1
 93
       14
 10
288.9999999999998
 20
485.2638566117539
 42
0.0
 10
283.9999999999999
 20
485.2638566117539
 42
0.0
 10
283.9999999999999
 20
468.4970571424353
 42
-0.1178625008509511
 10
281.2972972972965
 20
457.1908405676492
 42
0.1178625008509003
 10
279.9999999999999
 20
451.7638566117539
 42
0.0
 10
279.9999999999997
 20
436.1913454887012
 42
-0.1507946423586925
 10
277.3913043478263
 20
427.7382054473001
 42
0.1507946423587327
 10
275.9999999999997
 20
423.2298640918852
 42
0.0
 10
275.9999999999997
 20
408.3883721083508
 42
0.1305202039157445
 10
277.054054863004
 20
404.4192606014965
 42
0.0
 10
278.0236471318667
 20
402.7224741309867
 42
-0.1305202039157564
 10
279.9999999999999
 20
395.2803900556341
 42
0.0
 10
279.9999999999999
 20
379.2638566117538
 42
0.0
 10
288.9999999999998
 20
379.2638566117537
 42
0.0
 97
       14
330
25BD
330
25C2
330
25CC
330
25C5
330
25C9
330
25C7
330
25C8
330
25E6
330
24C4
330
24C2
330
24C6
330
2493
330
2665
330
25E8
 92
        7
 72
     1
 73
     1
 93
       14
 10
172.6086956521737
 20
427.7382054472998
 42
-0.1507946423587035
 10
169.9999999999999
 20
436.1913454887013
 42
0.0
 10
169.9999999999998
 20
451.7638566117538
 42
0.1178625008509351
 10
168.7027027027025
 20
457.1908405676505
 42
-0.1178625008509367
 10
165.9999999999998
 20
468.4970571424354
 42
0.0
 10
165.9999999999999
 20
485.2638566117538
 42
0.0
 10
160.9999999999998
 20
485.2638566117539
 42
0.0
 10
160.9999999999997
 20
379.2638566117541
 42
0.0
 10
169.9999999999999
 20
379.2638566117541
 42
0.0
 10
169.9999999999999
 20
395.2803900556345
 42
-0.1305202039157533
 10
171.976352868133
 20
402.7224741309869
 42
0.0
 10
172.9459451369955
 20
404.4192606014965
 42
0.1305202039157536
 10
173.9999999999999
 20
408.3883721083511
 42
0.0
 10
173.9999999999998
 20
423.2298640918856
 42
0.1507946423587025
 97
       14
330
25D8
330
25DC
330
25D7
330
25DF
330
25D3
330
25CF
330
25EC
330
2666
330
2492
330
24C7
330
24C3
330
24C5
330
25EA
330
25DA
 75
     0
 76
     1
 52
0.0
 41
25.0
 77
     0
 78
     3
 53
0.0
 43
0.0
 44
0.0
 45
4.6875
 46
2.706329374999999
 79
     2
 49
3.125
 49
-6.25
 53
120.0
 43
0.0
 44
0.0
 45
-4.687499989758061
 46
2.706329392739557
 79
     2
 49
3.125
 49
-6.25
 53
60.0
 43
0.0
 44
0.0
 45
0.0000000102419385
 46
5.412658767739556
 79
     2
 49
-6.25
 49
3.125
 47
0.4518627468284988
 98
        2
 10
283.1193420754325
 20
432.4914115477954
 10
167.3606629065298
 20
426.1653334778613
  0
DIMENSION
  5
26F4
330
1E
100
AcDbEntity
  8
BEM
100
AcDbDimension
  2
*D3
 10
129.9926857145583
 20
319.263856611754
 30
0.0
 11
123.4926857145582
 21
409.263856611754
 31
0.0
 70
    32
 71
     5
 42
179.9999999999999
  3
Standard
100
AcDbAlignedDimension
 13
158.4999999999998
 23
499.2638566117538
 33
0.0
 14
170.8748866352592
 24
319.263856611754
 34
0.0
 50
90.0
100
AcDbRotatedDimension
1001
ACAD
1000
DSTYLE
1002
{
1070
    40
1040
2.0
1070
    41
1040
3.5
1070
    42
1040
1.0
1070
    43
1040
7.0
1070
    44
1040
1.0
1070
    47
1040
0.15
1070
    48
1040
0.15
1070
    73
1070
     0
1070
    74
1070
     0
1070
    77
1070
     1
1070
    78
1070
     8
1070
    79
1070
     2
1070
   140
1040
3.5
1070
   141
1040
1.5
1070
   146
1040
0.5142857142857144
1070
   147
1040
1.5
1070
   172
1070
     1
1070
   178
1070
     1
1070
   179
1070
     2
1070
   271
1070
     2
1070
   272
1070
     2
1070
   284
1070
     8
1070
   285
1070
     8
1070
   286
1070
     8
1002
}
  0
DIMENSION
  5
2733
330
1E
100
AcDbEntity
  8
BEM
100
AcDbDimension
  2
*D4
 10
144.9706441605663
 20
379.2638566117541
 30
0.0
 11
138.4706441605662
 21
349.2638566117542
 31
0.0
 70
    32
 71
     5
 42
60.00000000000006
  3
Standard
100
AcDbAlignedDimension
 13
170.8748866352592
 23
319.263856611754
 33
0.0
 14
158.4999999999997
 24
379.2638566117541
 34
0.0
 50
90.0
100
AcDbRotatedDimension
1001
ACAD
1000
DSTYLE
1002
{
1070
    40
1040
2.0
1070
    41
1040
3.5
1070
    42
1040
1.0
1070
    43
1040
7.0
1070
    44
1040
1.0
1070
    47
1040
0.15
1070
    48
1040
0.15
1070
    73
1070
     0
1070
    74
1070
     0
1070
    77
1070
     1
1070
    78
1070
     8
1070
    79
1070
     2
1070
   140
1040
3.5
1070
   141
1040
1.5
1070
   146
1040
0.5142857142857144
1070
   147
1040
1.5
1070
   172
1070
     1
1070
   178
1070
     1
1070
   179
1070
     2
1070
   271
1070
     2
1070
   272
1070
     2
1070
   284
1070
     8
1070
   285
1070
     8
1070
   286
1070
     8
1002
}
  0
ENDSEC
  0
SECTION
  2
OBJECTS
  0
DICTIONARY
  5
C
330
0
100
AcDbDictionary
281
     1
  3
ACAD_COLOR
350
39F
  3
ACAD_GROUP
350
D
  3
ACAD_LAYOUT
350
19
  3
ACAD_MATERIAL
350
39E
  3
ACAD_MLINESTYLE
350
16
  3
ACAD_PLOTSETTINGS
350
18
  3
ACAD_PLOTSTYLENAME
350
E
  3
AcDbVariableDictionary
350
31A
  0
DICTIONARY
  5
39F
102
{ACAD_REACTORS
330
C
102
}
330
C
100
AcDbDictionary
281
     1
  0
DICTIONARY
  5
D
102
{ACAD_REACTORS
330
C
102
}
330
C
100
AcDbDictionary
281
     1
  0
DICTIONARY
  5
19
102
{ACAD_REACTORS
330
C
102
}
330
C
100
AcDbDictionary
281
     1
  3
Layout1
350
1D
  3
Model
350
21
  0
DICTIONARY
  5
39E
102
{ACAD_REACTORS
330
C
102
}
330
C
100
AcDbDictionary
281
     1
  0
DICTIONARY
  5
16
102
{ACAD_REACTORS
330
C
102
}
330
C
100
AcDbDictionary
281
     1
  3
Standard
350
17
  0
DICTIONARY
  5
18
102
{ACAD_REACTORS
330
C
102
}
330
C
100
AcDbDictionary
281
     1
  0
ACDBDICTIONARYWDFLT
  5
E
102
{ACAD_REACTORS
330
C
102
}
330
C
100
AcDbDictionary
281
     1
  3
Normal
350
F
100
AcDbDictionaryWithDefault
340
F
  0
DICTIONARY
  5
31A
102
{ACAD_REACTORS
330
C
102
}
330
C
100
AcDbDictionary
281
     1
  3
DIMASSOC
350
696
  3
PROJECTNAME
350
697
  3
SORTENTS
350
31B
  0
LAYOUT
  5
1D
102
{ACAD_REACTORS
330
19
102
}
330
19
100
AcDbPlotSettings
  1

  2
Tektronix Phaser 740
  4

  6

 40
0.0
 41
0.0
 42
0.0
 43
0.0
 44
0.0
 45
0.0
 46
0.0
 47
0.0
 48
0.0
 49
0.0
140
0.0
141
0.0
142
1.0
143
1.0
 70
   688
 72
     0
 73
     0
 74
     5
  7
monochrome.ctb
 75
    16
147
1.0
 76
     0
 77
     2
 78
   300
148
0.0
149
0.0
100
AcDbLayout
  1
Layout1
 70
     0
 71
     1
 10
0.0
 20
0.0
 11
12.0
 21
9.0
 12
0.0
 22
0.0
 32
0.0
 14
1.000000000000000E+20
 24
1.000000000000000E+20
 34
1.000000000000000E+20
 15
-1.000000000000000E+20
 25
-1.000000000000000E+20
 35
-1.000000000000000E+20
146
0.0
 13
0.0
 23
0.0
 33
0.0
 16
1.0
 26
0.0
 36
0.0
 17
0.0
 27
1.0
 37
0.0
 76
     0
330
1A
  0
LAYOUT
  5
21
102
{ACAD_REACTORS
330
19
102
}
330
19
100
AcDbPlotSettings
  1

  2
none_device
  4
Letter_(8.50_x_11.00_Inches)
  6

 40
6.349999904632568
 41
6.349999904632568
 42
6.350006103515625
 43
6.350006103515625
 44
215.8999938964844
 45
279.3999938964844
 46
0.0
 47
0.0
 48
0.0
 49
0.0
140
0.0
141
0.0
142
1.0
143
1.0
 70
 11952
 72
     0
 73
     1
 74
     0
  7
monochrome.ctb
 75
     0
147
1.0
 76
     0
 77
     2
 78
   300
148
-427.6236799849804
149
44.87778572714498
100
AcDbLayout
  1
Model
 70
     1
 71
     0
 10
0.0
 20
0.0
 11
12.0
 21
9.0
 12
0.0
 22
0.0
 32
0.0
 14
0.0
 24
0.0
 34
0.0
 15
0.0
 25
0.0
 35
0.0
146
0.0
 13
0.0
 23
0.0
 33
0.0
 16
1.0
 26
0.0
 36
0.0
 17
0.0
 27
1.0
 37
0.0
 76
     0
330
1E
  0
MLINESTYLE
  5
17
102
{ACAD_REACTORS
330
16
102
}
330
16
100
AcDbMlineStyle
  2
STANDARD
 70
     0
  3

 62
   256
 51
90.0
 52
90.0
 71
     2
 49
0.5
 62
   256
  6
BYLAYER
 49
-0.5
 62
   256
  6
BYLAYER
  0
ACDBPLACEHOLDER
  5
F
102
{ACAD_REACTORS
330
E
102
}
330
E
  0
DICTIONARYVAR
  5
696
102
{ACAD_REACTORS
330
31A
102
}
330
31A
100
DictionaryVariables
280
     0
  1
1
  0
DICTIONARYVAR
  5
697
102
{ACAD_REACTORS
330
31A
102
}
330
31A
100
DictionaryVariables
280
     0
  1

  0
DICTIONARYVAR
  5
31B
102
{ACAD_REACTORS
330
31A
102
}
330
31A
100
DictionaryVariables
280
     0
  1
96
  0
ENDSEC
  0
EOF
