  0
SECTION
  2
HEADER
  9
$ACADVER
  1
AC1018
  9
$ACADMAINTVER
 70
     2
  9
$DWGCODEPAGE
  3
ANSI_1252
  9
$INSBASE
 10
0.0
 20
0.0
 30
0.0
  9
$EXTMIN
 10
-0.0288269351949566
 20
-0.0407695226328997
 30
-0.0000000000000129
  9
$EXTMAX
 10
420.0032069865897
 20
594.00453559532
 30
0.0000000000000023
  9
$LIMMIN
 10
0.0
 20
0.0
  9
$LIMMAX
 10
419.9999999999999
 20
594.0
  9
$ORTHOMODE
 70
     1
  9
$REGENMODE
 70
     1
  9
$FILLMODE
 70
     1
  9
$QTEXTMODE
 70
     0
  9
$MIRRTEXT
 70
     1
  9
$LTSCALE
 40
20.0
  9
$ATTMODE
 70
     1
  9
$TEXTSIZE
 40
3.5
  9
$TRACEWID
 40
0.5
  9
$TEXTSTYLE
  7
STANDARD
  9
$CLAYER
  8
BEM
  9
$CELTYPE
  6
ByLayer
  9
$CECOLOR
 62
   256
  9
$CELTSCALE
 40
1.0
  9
$DISPSILH
 70
     0
  9
$DIMSCALE
 40
2.0
  9
$DIMASZ
 40
3.5
  9
$DIMEXO
 40
1.0
  9
$DIMDLI
 40
7.0
  9
$DIMRND
 40
0.0
  9
$DIMDLE
 40
0.0
  9
$DIMEXE
 40
1.0
  9
$DIMTP
 40
0.0
  9
$DIMTM
 40
0.0
  9
$DIMTXT
 40
3.5
  9
$DIMCEN
 40
1.5
  9
$DIMTSZ
 40
0.0
  9
$DIMTOL
 70
     0
  9
$DIMLIM
 70
     0
  9
$DIMTIH
 70
     0
  9
$DIMTOH
 70
     0
  9
$DIMSE1
 70
     0
  9
$DIMSE2
 70
     0
  9
$DIMTAD
 70
     1
  9
$DIMZIN
 70
     8
  9
$DIMBLK
  1

  9
$DIMASO
 70
     1
  9
$DIMSHO
 70
     0
  9
$DIMPOST
  1

  9
$DIMAPOST
  1

  9
$DIMALT
 70
     0
  9
$DIMALTD
 70
     2
  9
$DIMALTF
 40
25.4
  9
$DIMLFAC
 40
1.0
  9
$DIMTOFL
 70
     1
  9
$DIMTVP
 40
0.0
  9
$DIMTIX
 70
     0
  9
$DIMSOXD
 70
     0
  9
$DIMSAH
 70
     0
  9
$DIMBLK1
  1

  9
$DIMBLK2
  1

  9
$DIMSTYLE
  2
Standard
  9
$DIMCLRD
 70
     0
  9
$DIMCLRE
 70
     0
  9
$DIMCLRT
 70
     1
  9
$DIMTFAC
 40
0.5142857142857144
  9
$DIMGAP
 40
1.5
  9
$DIMJUST
 70
     0
  9
$DIMSD1
 70
     0
  9
$DIMSD2
 70
     0
  9
$DIMTOLJ
 70
     1
  9
$DIMTZIN
 70
     8
  9
$DIMALTZ
 70
     8
  9
$DIMALTTZ
 70
     8
  9
$DIMUPT
 70
     0
  9
$DIMDEC
 70
     2
  9
$DIMTDEC
 70
     2
  9
$DIMALTU
 70
     2
  9
$DIMALTTD
 70
     2
  9
$DIMTXSTY
  7
STANDARD
  9
$DIMAUNIT
 70
     0
  9
$DIMADEC
 70
     2
  9
$DIMALTRND
 40
0.0
  9
$DIMAZIN
 70
     2
  9
$DIMDSEP
 70
    46
  9
$DIMATFIT
 70
     3
  9
$DIMFRAC
 70
     0
  9
$DIMLDRBLK
  1

  9
$DIMLUNIT
 70
     2
  9
$DIMLWD
 70
    -2
  9
$DIMLWE
 70
    -2
  9
$DIMTMOVE
 70
     0
  9
$LUNITS
 70
     2
  9
$LUPREC
 70
     2
  9
$SKETCHINC
 40
1.0
  9
$FILLETRAD
 40
0.0
  9
$AUNITS
 70
     0
  9
$AUPREC
 70
     0
  9
$MENU
  1
ACAD
  9
$ELEVATION
 40
0.0
  9
$PELEVATION
 40
0.0
  9
$THICKNESS
 40
0.0
  9
$LIMCHECK
 70
     0
  9
$CHAMFERA
 40
0.0
  9
$CHAMFERB
 40
0.0
  9
$CHAMFERC
 40
0.0
  9
$CHAMFERD
 40
0.0
  9
$SKPOLY
 70
     0
  9
$TDCREATE
 40
2455397.864709028
  9
$TDUCREATE
 40
2455397.781375695
  9
$TDUPDATE
 40
2456198.532306551
  9
$TDUUPDATE
 40
2456198.448973218
  9
$TDINDWG
 40
0.1314811458
  9
$TDUSRTIMER
 40
0.1314811458
  9
$USRTIMER
 70
     1
  9
$ANGBASE
 50
0.0
  9
$ANGDIR
 70
     0
  9
$PDMODE
 70
     0
  9
$PDSIZE
 40
0.0
  9
$PLINEWID
 40
0.0
  9
$SPLFRAME
 70
     0
  9
$SPLINETYPE
 70
     6
  9
$SPLINESEGS
 70
     8
  9
$HANDSEED
  5
2352
  9
$SURFTAB1
 70
     6
  9
$SURFTAB2
 70
     6
  9
$SURFTYPE
 70
     6
  9
$SURFU
 70
     6
  9
$SURFV
 70
     6
  9
$UCSBASE
  2

  9
$UCSNAME
  2

  9
$UCSORG
 10
0.0
 20
0.0
 30
0.0
  9
$UCSXDIR
 10
1.0
 20
0.0
 30
0.0
  9
$UCSYDIR
 10
0.0
 20
1.0
 30
0.0
  9
$UCSORTHOREF
  2

  9
$UCSORTHOVIEW
 70
     0
  9
$UCSORGTOP
 10
0.0
 20
0.0
 30
0.0
  9
$UCSORGBOTTOM
 10
0.0
 20
0.0
 30
0.0
  9
$UCSORGLEFT
 10
0.0
 20
0.0
 30
0.0
  9
$UCSORGRIGHT
 10
0.0
 20
0.0
 30
0.0
  9
$UCSORGFRONT
 10
0.0
 20
0.0
 30
0.0
  9
$UCSORGBACK
 10
0.0
 20
0.0
 30
0.0
  9
$PUCSBASE
  2

  9
$PUCSNAME
  2

  9
$PUCSORG
 10
0.0
 20
0.0
 30
0.0
  9
$PUCSXDIR
 10
1.0
 20
0.0
 30
0.0
  9
$PUCSYDIR
 10
0.0
 20
1.0
 30
0.0
  9
$PUCSORTHOREF
  2

  9
$PUCSORTHOVIEW
 70
     0
  9
$PUCSORGTOP
 10
0.0
 20
0.0
 30
0.0
  9
$PUCSORGBOTTOM
 10
0.0
 20
0.0
 30
0.0
  9
$PUCSORGLEFT
 10
0.0
 20
0.0
 30
0.0
  9
$PUCSORGRIGHT
 10
0.0
 20
0.0
 30
0.0
  9
$PUCSORGFRONT
 10
0.0
 20
0.0
 30
0.0
  9
$PUCSORGBACK
 10
0.0
 20
0.0
 30
0.0
  9
$USERI1
 70
     0
  9
$USERI2
 70
     0
  9
$USERI3
 70
     0
  9
$USERI4
 70
     0
  9
$USERI5
 70
     0
  9
$USERR1
 40
0.0
  9
$USERR2
 40
0.0
  9
$USERR3
 40
0.0
  9
$USERR4
 40
0.0
  9
$USERR5
 40
0.0
  9
$WORLDVIEW
 70
     1
  9
$SHADEDGE
 70
     3
  9
$SHADEDIF
 70
    70
  9
$TILEMODE
 70
     1
  9
$MAXACTVP
 70
    16
  9
$PINSBASE
 10
0.0
 20
0.0
 30
0.0
  9
$PLIMCHECK
 70
     0
  9
$PEXTMIN
 10
1.000000000000000E+20
 20
1.000000000000000E+20
 30
1.000000000000000E+20
  9
$PEXTMAX
 10
-1.000000000000000E+20
 20
-1.000000000000000E+20
 30
-1.000000000000000E+20
  9
$PLIMMIN
 10
0.0
 20
0.0
  9
$PLIMMAX
 10
12.0
 20
9.0
  9
$UNITMODE
 70
     0
  9
$VISRETAIN
 70
     0
  9
$PLINEGEN
 70
     0
  9
$PSLTSCALE
 70
     0
  9
$TREEDEPTH
 70
  3020
  9
$CMLSTYLE
  2
Standard
  9
$CMLJUST
 70
     0
  9
$CMLSCALE
 40
1.0
  9
$PROXYGRAPHICS
 70
     1
  9
$MEASUREMENT
 70
     0
  9
$CELWEIGHT
370
    -1
  9
$ENDCAPS
280
     0
  9
$JOINSTYLE
280
     0
  9
$LWDISPLAY
290
     0
  9
$INSUNITS
 70
     0
  9
$HYPERLINKBASE
  1

  9
$STYLESHEET
  1
monochrome 1.ctb
  9
$XEDIT
290
     1
  9
$CEPSNTYPE
380
     0
  9
$PSTYLEMODE
290
     1
  9
$FINGERPRINTGUID
  2
{D68B0D02-A558-11D7-B632-000102183313}
  9
$VERSIONGUID
  2
{93448877-D75A-480A-B3F2-8C2F25E58DAE}
  9
$EXTNAMES
290
     1
  9
$PSVPSCALE
 40
0.0
  9
$OLESTARTUP
290
     0
  9
$SORTENTS
280
   127
  9
$INDEXCTL
280
     0
  9
$HIDETEXT
280
     0
  9
$XCLIPFRAME
290
     0
  9
$HALOGAP
280
     0
  9
$OBSCOLOR
 70
   257
  9
$OBSLTYPE
280
     0
  9
$INTERSECTIONDISPLAY
280
     0
  9
$INTERSECTIONCOLOR
 70
   257
  9
$DIMASSOC
280
     1
  9
$PROJECTNAME
  1

  0
ENDSEC
  0
SECTION
  2
CLASSES
  0
CLASS
  1
ACDBDICTIONARYWDFLT
  2
AcDbDictionaryWithDefault
  3
ObjectDBX Classes
 90
        0
 91
        1
280
     0
281
     0
  0
CLASS
  1
DICTIONARYVAR
  2
AcDbDictionaryVar
  3
ObjectDBX Classes
 90
        0
 91
        2
280
     0
281
     0
  0
ENDSEC
  0
SECTION
  2
TABLES
  0
TABLE
  2
VPORT
  5
8
330
0
100
AcDbSymbolTable
 70
     3
  0
VPORT
  5
2351
330
8
100
AcDbSymbolTableRecord
100
AcDbViewportTableRecord
  2
*Active
 70
     0
 10
0.0
 20
0.0
 11
1.0
 21
1.0
 12
209.9999999999999
 22
297.0
 13
0.0
 23
0.0
 14
1.0
 24
1.0
 15
10.0
 25
10.0
 16
0.0
 26
0.0
 36
1.0
 17
0.0
 27
0.0
 37
0.0
 40
594.0
 41
1.404858299595141
 42
50.0
 43
0.0
 44
0.0
 50
0.0
 51
0.0
 71
     0
 72
  1500
 73
     1
 74
     0
 75
     0
 76
     0
 77
     0
 78
     0
281
     0
 65
     1
110
0.0
120
0.0
130
0.0
111
1.0
121
0.0
131
0.0
112
0.0
122
1.0
132
0.0
 79
     0
146
0.0
  0
ENDTAB
  0
TABLE
  2
LTYPE
  5
5
330
0
100
AcDbSymbolTable
 70
     3
  0
LTYPE
  5
13
330
5
100
AcDbSymbolTableRecord
100
AcDbLinetypeTableRecord
  2
ByBlock
 70
     0
  3

 72
    65
 73
     0
 40
0.0
  0
LTYPE
  5
14
330
5
100
AcDbSymbolTableRecord
100
AcDbLinetypeTableRecord
  2
ByLayer
 70
     0
  3

 72
    65
 73
     0
 40
0.0
  0
LTYPE
  5
15
330
5
100
AcDbSymbolTableRecord
100
AcDbLinetypeTableRecord
  2
Continuous
 70
     0
  3
Solid line
 72
    65
 73
     0
 40
0.0
  0
LTYPE
  5
25
330
5
100
AcDbSymbolTableRecord
100
AcDbLinetypeTableRecord
  2
STRICHPUNKT
 70
     0
  3
__ . __ . __ . __ . __ . __ . __ . __ . __ . __
 72
    65
 73
     4
 40
1.0
 49
0.5
 74
     0
 49
-0.25
 74
     0
 49
0.0
 74
     0
 49
-0.25
 74
     0
  0
LTYPE
  5
32
330
5
100
AcDbSymbolTableRecord
100
AcDbLinetypeTableRecord
  2
AUSGEZOGEN
 70
     0
  3
Ausgezogene Linie
 72
    65
 73
     0
 40
0.0
  0
ENDTAB
  0
TABLE
  2
LAYER
  5
2
330
0
100
AcDbSymbolTable
 70
     9
  0
LAYER
  5
10
330
2
100
AcDbSymbolTableRecord
100
AcDbLayerTableRecord
  2
0
 70
     0
 62
     7
  6
Continuous
370
    -3
390
F
  0
LAYER
  5
2A
330
2
100
AcDbSymbolTableRecord
100
AcDbLayerTableRecord
  2
VOLL
 70
     0
 62
     1
  6
Continuous
370
    -3
390
F
  0
LAYER
  5
2B
330
2
100
AcDbSymbolTableRecord
100
AcDbLayerTableRecord
  2
HILF
 70
     0
 62
     2
  6
Continuous
370
    -3
390
F
  0
LAYER
  5
2C
330
2
100
AcDbSymbolTableRecord
100
AcDbLayerTableRecord
  2
MITTEL
 70
     0
 62
     2
  6
STRICHPUNKT
370
    -3
390
F
  0
LAYER
  5
2F
330
2
100
AcDbSymbolTableRecord
100
AcDbLayerTableRecord
  2
BEM
 70
     0
 62
     7
  6
Continuous
370
    -3
390
F
  0
LAYER
  5
30
330
2
100
AcDbSymbolTableRecord
100
AcDbLayerTableRecord
  2
STEMPEL
 70
     0
 62
     3
  6
Continuous
370
    -3
390
F
  0
LAYER
  5
31
330
2
100
AcDbSymbolTableRecord
100
AcDbLayerTableRecord
  2
TEXT
 70
     0
 62
     7
  6
Continuous
370
    -3
390
F
  0
LAYER
  5
195
330
2
100
AcDbSymbolTableRecord
100
AcDbLayerTableRecord
  2
DEFPOINTS
 70
     0
 62
     7
  6
AUSGEZOGEN
290
     0
370
    -3
390
F
  0
LAYER
  5
3B7
330
2
100
AcDbSymbolTableRecord
100
AcDbLayerTableRecord
  2
SCHRAFF
 70
     0
 62
     7
  6
Continuous
370
    -3
390
F
  0
ENDTAB
  0
TABLE
  2
STYLE
  5
3
330
0
100
AcDbSymbolTable
 70
     2
  0
STYLE
  5
11
330
3
100
AcDbSymbolTableRecord
100
AcDbTextStyleTableRecord
  2
STANDARD
 70
     0
 40
0.0
 41
0.8
 50
0.0
 71
     0
 42
3.5
  3
simplex.shx
  4

  0
STYLE
  5
24
330
3
100
AcDbSymbolTableRecord
100
AcDbTextStyleTableRecord
  2
GREEKS
 70
     0
 40
0.0
 41
0.8
 50
0.0
 71
     0
 42
2.5
  3
SIMPLEX.shx
  4

  0
ENDTAB
  0
TABLE
  2
VIEW
  5
6
330
0
100
AcDbSymbolTable
 70
     0
  0
ENDTAB
  0
TABLE
  2
UCS
  5
7
330
0
100
AcDbSymbolTable
 70
     0
  0
ENDTAB
  0
TABLE
  2
APPID
  5
9
330
0
100
AcDbSymbolTable
 70
     1
  0
APPID
  5
12
330
9
100
AcDbSymbolTableRecord
100
AcDbRegAppTableRecord
  2
ACAD
 70
     0
  0
ENDTAB
  0
TABLE
  2
DIMSTYLE
  5
A
330
0
100
AcDbSymbolTable
 70
     1
100
AcDbDimStyleTable
 71
     1
340
9D
  0
DIMSTYLE
105
9D
102
{ACAD_REACTORS
330
2002
330
2027
330
2128
330
216E
330
218A
330
21C4
102
}
330
A
100
AcDbSymbolTableRecord
100
AcDbDimStyleTableRecord
  2
Standard
 70
     0
340
11
  0
ENDTAB
  0
TABLE
  2
BLOCK_RECORD
  5
1
330
0
100
AcDbSymbolTable
 70
     9
  0
BLOCK_RECORD
  5
1E
102
{ACAD_XDICTIONARY
360
A0
102
}
330
1
100
AcDbSymbolTableRecord
100
AcDbBlockTableRecord
  2
*Model_Space
340
21
  0
BLOCK_RECORD
  5
1A
102
{ACAD_XDICTIONARY
360
A2
102
}
330
1
100
AcDbSymbolTableRecord
100
AcDbBlockTableRecord
  2
*Paper_Space
340
1D
  0
BLOCK_RECORD
  5
22
330
1
100
AcDbSymbolTableRecord
100
AcDbBlockTableRecord
  2
LOGO
340
0
102
{BLKREFS
331
9B
102
}
  0
BLOCK_RECORD
  5
203F
330
1
100
AcDbSymbolTableRecord
100
AcDbBlockTableRecord
  2
*D1
340
0
  0
BLOCK_RECORD
  5
2063
330
1
100
AcDbSymbolTableRecord
100
AcDbBlockTableRecord
  2
*D2
340
0
  0
BLOCK_RECORD
  5
2145
330
1
100
AcDbSymbolTableRecord
100
AcDbBlockTableRecord
  2
*D3
340
0
  0
BLOCK_RECORD
  5
216F
330
1
100
AcDbSymbolTableRecord
100
AcDbBlockTableRecord
  2
*D4
340
0
  0
BLOCK_RECORD
  5
218B
330
1
100
AcDbSymbolTableRecord
100
AcDbBlockTableRecord
  2
*D6
340
0
  0
BLOCK_RECORD
  5
21C5
330
1
100
AcDbSymbolTableRecord
100
AcDbBlockTableRecord
  2
*D7
340
0
  0
ENDTAB
  0
ENDSEC
  0
SECTION
  2
BLOCKS
  0
BLOCK
  5
35
330
1E
100
AcDbEntity
  8
0
100
AcDbBlockBegin
  2
*Model_Space
 70
     0
 10
0.0
 20
0.0
 30
0.0
  3
*Model_Space
  1

  0
ENDBLK
  5
36
330
1E
100
AcDbEntity
  8
0
100
AcDbBlockEnd
  0
BLOCK
  5
33
330
1A
100
AcDbEntity
 67
     1
  8
0
100
AcDbBlockBegin
  2
*Paper_Space
 70
     0
 10
0.0
 20
0.0
 30
0.0
  3
*Paper_Space
  1

  0
ENDBLK
  5
34
330
1A
100
AcDbEntity
 67
     1
  8
0
100
AcDbBlockEnd
  0
BLOCK
  5
37
330
22
100
AcDbEntity
  8
0
100
AcDbBlockBegin
  2
LOGO
 70
     0
 10
0.0
 20
0.0
 30
0.0
  3
LOGO
  1

  0
ARC
  5
38
330
22
100
AcDbEntity
  8
0
100
AcDbCircle
 10
11.59973089678112
 20
-9.271599258481501
 30
0.0
 40
4.5
100
AcDbArc
 50
270.0
 51
231.0575587310159
  0
LINE
  5
39
330
22
100
AcDbEntity
  8
0
100
AcDbLine
 10
3.599730896781125
 20
-4.771599258481529
 30
0.0
 11
3.599730896781153
 21
-11.77159925848133
 31
0.0
  0
LINE
  5
3A
330
22
100
AcDbEntity
  8
0
100
AcDbLine
 10
2.599730896781125
 20
-4.771599258481529
 30
0.0
 11
2.599730896781153
 21
-11.77159925848133
 31
0.0
  0
CIRCLE
  5
3B
330
22
100
AcDbEntity
  8
0
100
AcDbCircle
 10
11.59973089678112
 20
-9.271599258481501
 30
0.0
 40
3.5
  0
ARC
  5
3C
330
22
100
AcDbEntity
  8
0
100
AcDbCircle
 10
31.59973089678115
 20
-9.271599258481472
 30
0.0
 40
4.5
100
AcDbArc
 50
270.0
 51
231.0575587310182
  0
LINE
  5
3D
330
22
100
AcDbEntity
  8
0
100
AcDbLine
 10
17.59973089678112
 20
-4.771599258481472
 30
0.0
 11
17.59973089678115
 21
-13.77159925848147
 31
0.0
  0
ARC
  5
3E
330
22
100
AcDbEntity
  8
0
100
AcDbCircle
 10
22.59973089678116
 20
-7.271599258481472
 30
0.0
 40
2.5
100
AcDbArc
 50
293.1161887722295
 51
90.0
  0
CIRCLE
  5
3F
330
22
100
AcDbEntity
  8
0
100
AcDbCircle
 10
31.59973089678115
 20
-9.271599258481472
 30
0.0
 40
3.5
  0
ARC
  5
40
330
22
100
AcDbEntity
  8
0
100
AcDbCircle
 10
4.599730896781153
 20
-11.77159925848133
 30
0.0
 40
1.0
100
AcDbArc
 50
180.0
 51
270.0
  0
ARC
  5
41
330
22
100
AcDbEntity
  8
0
100
AcDbCircle
 10
4.599730896781153
 20
-11.77159925848133
 30
0.0
 40
2.0
100
AcDbArc
 50
179.9999999999992
 51
270.0
  0
LINE
  5
42
330
22
100
AcDbEntity
  8
0
100
AcDbLine
 10
11.59973089678115
 20
-13.77159925848144
 30
0.0
 11
4.599730896781153
 21
-13.77159925848147
 31
0.0
  0
LINE
  5
43
330
22
100
AcDbEntity
  8
0
100
AcDbLine
 10
8.771303772034769
 20
-12.77159925848136
 30
0.0
 11
4.599730896781153
 21
-12.77159925848133
 31
0.0
  0
LINE
  5
44
330
22
100
AcDbEntity
  8
0
100
AcDbLine
 10
31.59973089678115
 20
-13.77159925848147
 30
0.0
 11
23.6715276665056
 21
-13.77159925848144
 31
0.0
  0
LINE
  5
45
330
22
100
AcDbEntity
  8
0
100
AcDbLine
 10
23.56565672307022
 20
-9.51278021337896
 30
0.0
 11
24.4388546544846
 21
-12.77159925848144
 31
0.0
  0
LINE
  5
46
330
22
100
AcDbEntity
  8
0
100
AcDbLine
 10
22.59973089678116
 20
-9.771599258481472
 30
0.0
 11
18.59973089678112
 21
-9.771599258481472
 31
0.0
  0
LINE
  5
47
330
22
100
AcDbEntity
  8
0
100
AcDbLine
 10
18.59973089678115
 20
-13.77159925848144
 30
0.0
 11
17.59973089678115
 21
-13.77159925848144
 31
0.0
  0
LINE
  5
48
330
22
100
AcDbEntity
  8
0
100
AcDbLine
 10
18.59973089678115
 20
-9.771599258481472
 30
0.0
 11
18.59973089678115
 21
-13.77159925848144
 31
0.0
  0
LINE
  5
49
330
22
100
AcDbEntity
  8
0
100
AcDbLine
 10
22.59973089678116
 20
-9.771599258481472
 30
0.0
 11
23.67152766650562
 21
-13.77159925848147
 31
0.0
  0
ARC
  5
4A
330
22
100
AcDbEntity
  8
0
100
AcDbCircle
 10
22.59973089678116
 20
-7.271599258481472
 30
0.0
 40
2.5
100
AcDbArc
 50
270.0
 51
270.0000000000007
  0
LINE
  5
4B
330
22
100
AcDbEntity
  8
0
100
AcDbLine
 10
28.77130377203494
 20
-12.77159925848147
 30
0.0
 11
24.43885465448463
 21
-12.77159925848144
 31
0.0
  0
LINE
  5
4C
330
22
100
AcDbEntity
  8
0
100
AcDbLine
 10
3.599730896781125
 20
-4.771599258481472
 30
0.0
 11
2.599730896781125
 21
-4.771599258481472
 31
0.0
  0
LINE
  5
4D
330
22
100
AcDbEntity
  8
0
100
AcDbLine
 10
22.59973089678116
 20
-8.771599258481472
 30
0.0
 11
18.59973089678115
 21
-8.771599258481472
 31
0.0
  0
LINE
  5
4E
330
22
100
AcDbEntity
  8
0
100
AcDbLine
 10
22.59973089678116
 20
-5.771599258481472
 30
0.0
 11
18.59973089678115
 21
-5.771599258481472
 31
0.0
  0
LINE
  5
4F
330
22
100
AcDbEntity
  8
0
100
AcDbLine
 10
22.59973089678116
 20
-4.771599258481472
 30
0.0
 11
17.59973089678115
 21
-4.771599258481472
 31
0.0
  0
LINE
  5
50
330
22
100
AcDbEntity
  8
0
100
AcDbLine
 10
18.59973089678115
 20
-5.771599258481472
 30
0.0
 11
18.59973089678115
 21
-8.771599258481472
 31
0.0
  0
ARC
  5
51
330
22
100
AcDbEntity
  8
0
100
AcDbCircle
 10
22.59973089678116
 20
-7.271599258481472
 30
0.0
 40
1.5
100
AcDbArc
 50
270.0
 51
90.0
  0
ENDBLK
  5
52
330
22
100
AcDbEntity
  8
0
100
AcDbBlockEnd
  0
BLOCK
  5
2049
330
203F
100
AcDbEntity
  8
0
100
AcDbBlockBegin
  2
*D1
 70
     1
 10
0.0
 20
0.0
 30
0.0
  3
*D1
  1

  0
LINE
  5
2341
330
203F
100
AcDbEntity
  8
BEM
 62
     0
370
    -2
100
AcDbLine
 10
152.6898883260666
 20
267.5090824930016
 30
0.0
 11
98.47795366761229
 21
267.5090824930016
 31
0.0
  0
LINE
  5
2342
330
203F
100
AcDbEntity
  8
BEM
 62
     0
370
    -2
100
AcDbLine
 10
136.3150016908075
 20
467.5090824930016
 30
0.0
 11
98.47795366761232
 21
467.5090824930017
 31
0.0
  0
LINE
  5
2343
330
203F
100
AcDbEntity
  8
BEM
 62
     0
370
    -2
100
AcDbLine
 10
100.4779536676122
 20
274.5090824930016
 30
0.0
 11
100.4779536676123
 21
460.5090824930017
 31
0.0
  0
SOLID
  5
2344
330
203F
100
AcDbEntity
  8
BEM
 62
     0
100
AcDbTrace
 10
99.31128700094561
 20
274.5090824930016
 30
0.0
 11
101.6446203342789
 21
274.5090824930016
 31
0.0
 12
100.4779536676122
 22
267.5090824930016
 32
0.0
 13
100.4779536676122
 23
267.5090824930016
 33
0.0
  0
SOLID
  5
2345
330
203F
100
AcDbEntity
  8
BEM
 62
     0
100
AcDbTrace
 10
99.31128700094566
 20
460.5090824930017
 30
0.0
 11
101.644620334279
 21
460.5090824930017
 31
0.0
 12
100.4779536676123
 22
467.5090824930017
 32
0.0
 13
100.4779536676123
 23
467.5090824930017
 33
0.0
  0
MTEXT
  5
2346
330
203F
100
AcDbEntity
  8
BEM
 62
     1
100
AcDbMText
 10
93.97795366761226
 20
367.5090824930017
 30
0.0
 40
7.0
 41
0.0
 71
     5
 72
     1
  1
\A1;200
 11
0.0000000000000001
 21
1.0
 31
0.0
 73
     1
 44
1.0
  0
POINT
  5
2347
330
203F
100
AcDbEntity
  8
DEFPOINTS
 62
     0
100
AcDbPoint
 10
154.6898883260666
 20
267.5090824930016
 30
0.0
  0
POINT
  5
2348
330
203F
100
AcDbEntity
  8
DEFPOINTS
 62
     0
100
AcDbPoint
 10
138.3150016908075
 20
467.5090824930016
 30
0.0
  0
POINT
  5
2349
330
203F
100
AcDbEntity
  8
DEFPOINTS
 62
     0
100
AcDbPoint
 10
100.4779536676123
 20
467.5090824930017
 30
0.0
  0
ENDBLK
  5
204A
330
203F
100
AcDbEntity
  8
0
100
AcDbBlockEnd
  0
BLOCK
  5
206D
330
2063
100
AcDbEntity
  8
0
100
AcDbBlockBegin
  2
*D2
 70
     1
 10
0.0
 20
0.0
 30
0.0
  3
*D2
  1

  0
LINE
  5
2338
330
2063
100
AcDbEntity
  8
BEM
 62
     0
370
    -2
100
AcDbLine
 10
153.8150016908075
 20
275.5090824930014
 30
0.0
 11
153.8150016908075
 21
245.7351596655706
 31
0.0
  0
LINE
  5
2339
330
2063
100
AcDbEntity
  8
BEM
 62
     0
370
    -2
100
AcDbLine
 10
255.8150016908075
 20
275.5090824930018
 30
0.0
 11
255.8150016908075
 21
245.7351596655706
 31
0.0
  0
LINE
  5
233A
330
2063
100
AcDbEntity
  8
BEM
 62
     0
370
    -2
100
AcDbLine
 10
160.8150016908075
 20
247.7351596655706
 30
0.0
 11
248.8150016908075
 21
247.7351596655706
 31
0.0
  0
SOLID
  5
233B
330
2063
100
AcDbEntity
  8
BEM
 62
     0
100
AcDbTrace
 10
160.8150016908075
 20
248.9018263322372
 30
0.0
 11
160.8150016908075
 21
246.5684929989039
 31
0.0
 12
153.8150016908075
 22
247.7351596655706
 32
0.0
 13
153.8150016908075
 23
247.7351596655706
 33
0.0
  0
SOLID
  5
233C
330
2063
100
AcDbEntity
  8
BEM
 62
     0
100
AcDbTrace
 10
248.8150016908075
 20
248.9018263322372
 30
0.0
 11
248.8150016908075
 21
246.5684929989039
 31
0.0
 12
255.8150016908075
 22
247.7351596655706
 32
0.0
 13
255.8150016908075
 23
247.7351596655706
 33
0.0
  0
MTEXT
  5
233D
330
2063
100
AcDbEntity
  8
BEM
 62
     1
100
AcDbMText
 10
204.8150016908075
 20
254.2351596655706
 30
0.0
 40
7.0
 41
0.0
 71
     5
 72
     1
  1
\A1;%%c102
 73
     1
 44
1.0
  0
POINT
  5
233E
330
2063
100
AcDbEntity
  8
DEFPOINTS
 62
     0
100
AcDbPoint
 10
153.8150016908075
 20
277.5090824930014
 30
0.0
  0
POINT
  5
233F
330
2063
100
AcDbEntity
  8
DEFPOINTS
 62
     0
100
AcDbPoint
 10
255.8150016908075
 20
277.5090824930018
 30
0.0
  0
POINT
  5
2340
330
2063
100
AcDbEntity
  8
DEFPOINTS
 62
     0
100
AcDbPoint
 10
255.8150016908075
 20
247.7351596655706
 30
0.0
  0
ENDBLK
  5
206E
330
2063
100
AcDbEntity
  8
0
100
AcDbBlockEnd
  0
BLOCK
  5
214F
330
2145
100
AcDbEntity
  8
0
100
AcDbBlockBegin
  2
*D3
 70
     1
 10
0.0
 20
0.0
 30
0.0
  3
*D3
  1

  0
LINE
  5
232F
330
2145
100
AcDbEntity
  8
BEM
 62
     0
370
    -2
100
AcDbLine
 10
136.3150016908075
 20
327.5090824930016
 30
0.0
 11
113.3036052922599
 21
327.5090824930017
 31
0.0
  0
LINE
  5
2330
330
2145
100
AcDbEntity
  8
BEM
 62
     0
370
    -2
100
AcDbLine
 10
152.5072713239282
 20
267.5090824930016
 30
0.0
 11
113.3036052922598
 21
267.5090824930017
 31
0.0
  0
LINE
  5
2331
330
2145
100
AcDbEntity
  8
BEM
 62
     0
370
    -2
100
AcDbLine
 10
115.3036052922599
 20
320.5090824930017
 30
0.0
 11
115.3036052922598
 21
274.5090824930017
 31
0.0
  0
SOLID
  5
2332
330
2145
100
AcDbEntity
  8
BEM
 62
     0
100
AcDbTrace
 10
114.1369386255932
 20
320.5090824930017
 30
0.0
 11
116.4702719589265
 21
320.5090824930017
 31
0.0
 12
115.3036052922599
 22
327.5090824930017
 32
0.0
 13
115.3036052922599
 23
327.5090824930017
 33
0.0
  0
SOLID
  5
2333
330
2145
100
AcDbEntity
  8
BEM
 62
     0
100
AcDbTrace
 10
114.1369386255932
 20
274.5090824930017
 30
0.0
 11
116.4702719589265
 21
274.5090824930017
 31
0.0
 12
115.3036052922598
 22
267.5090824930017
 32
0.0
 13
115.3036052922598
 23
267.5090824930017
 33
0.0
  0
MTEXT
  5
2334
330
2145
100
AcDbEntity
  8
BEM
 62
     1
100
AcDbMText
 10
108.8036052922598
 20
297.5090824930017
 30
0.0
 40
7.0
 41
0.0
 71
     5
 72
     1
  1
\A1;60
 11
0.0000000000000001
 21
1.0
 31
0.0
 73
     1
 44
1.0
  0
POINT
  5
2335
330
2145
100
AcDbEntity
  8
DEFPOINTS
 62
     0
100
AcDbPoint
 10
138.3150016908075
 20
327.5090824930016
 30
0.0
  0
POINT
  5
2336
330
2145
100
AcDbEntity
  8
DEFPOINTS
 62
     0
100
AcDbPoint
 10
154.5072713239282
 20
267.5090824930016
 30
0.0
  0
POINT
  5
2337
330
2145
100
AcDbEntity
  8
DEFPOINTS
 62
     0
100
AcDbPoint
 10
115.3036052922598
 20
267.5090824930017
 30
0.0
  0
ENDBLK
  5
2150
330
2145
100
AcDbEntity
  8
0
100
AcDbBlockEnd
  0
BLOCK
  5
2179
330
216F
100
AcDbEntity
  8
0
100
AcDbBlockBegin
  2
*D4
 70
     1
 10
0.0
 20
0.0
 30
0.0
  3
*D4
  1

  0
LINE
  5
2326
330
216F
100
AcDbEntity
  8
SCHRAFF
 62
     0
370
    -2
100
AcDbLine
 10
158.8150016908075
 20
469.5090824930016
 30
0.0
 11
158.8150016908075
 21
482.6015523577711
 31
0.0
  0
LINE
  5
2327
330
216F
100
AcDbEntity
  8
SCHRAFF
 62
     0
370
    -2
100
AcDbLine
 10
250.8150016908074
 20
469.5090824930014
 30
0.0
 11
250.8150016908074
 21
482.6015523577711
 31
0.0
  0
LINE
  5
2328
330
216F
100
AcDbEntity
  8
SCHRAFF
 62
     0
370
    -2
100
AcDbLine
 10
165.8150016908075
 20
480.6015523577712
 30
0.0
 11
243.8150016908074
 21
480.6015523577712
 31
0.0
  0
SOLID
  5
2329
330
216F
100
AcDbEntity
  8
SCHRAFF
 62
     0
100
AcDbTrace
 10
165.8150016908075
 20
481.7682190244378
 30
0.0
 11
165.8150016908075
 21
479.4348856911045
 31
0.0
 12
158.8150016908075
 22
480.6015523577712
 32
0.0
 13
158.8150016908075
 23
480.6015523577712
 33
0.0
  0
SOLID
  5
232A
330
216F
100
AcDbEntity
  8
SCHRAFF
 62
     0
100
AcDbTrace
 10
243.8150016908074
 20
481.7682190244378
 30
0.0
 11
243.8150016908074
 21
479.4348856911045
 31
0.0
 12
250.8150016908074
 22
480.6015523577712
 32
0.0
 13
250.8150016908074
 23
480.6015523577712
 33
0.0
  0
MTEXT
  5
232B
330
216F
100
AcDbEntity
  8
SCHRAFF
 62
     1
100
AcDbMText
 10
204.8150016908074
 20
487.1015523577711
 30
0.0
 40
7.0
 41
0.0
 71
     5
 72
     1
  1
\A1;%%c92
 73
     1
 44
1.0
  0
POINT
  5
232C
330
216F
100
AcDbEntity
  8
DEFPOINTS
 62
     0
100
AcDbPoint
 10
158.8150016908075
 20
467.5090824930016
 30
0.0
  0
POINT
  5
232D
330
216F
100
AcDbEntity
  8
DEFPOINTS
 62
     0
100
AcDbPoint
 10
250.8150016908074
 20
467.5090824930014
 30
0.0
  0
POINT
  5
232E
330
216F
100
AcDbEntity
  8
DEFPOINTS
 62
     0
100
AcDbPoint
 10
250.8150016908074
 20
480.6015523577712
 30
0.0
  0
ENDBLK
  5
217A
330
216F
100
AcDbEntity
  8
0
100
AcDbBlockEnd
  0
BLOCK
  5
2195
330
218B
100
AcDbEntity
  8
0
100
AcDbBlockBegin
  2
*D6
 70
     1
 10
0.0
 20
0.0
 30
0.0
  3
*D6
  1

  0
LINE
  5
2312
330
218B
100
AcDbEntity
  8
SCHRAFF
 62
     0
370
    -2
100
AcDbLine
 10
138.3150016908075
 20
469.5090824930017
 30
0.0
 11
138.3150016908075
 21
497.2744527444742
 31
0.0
  0
LINE
  5
2313
330
218B
100
AcDbEntity
  8
SCHRAFF
 62
     0
370
    -2
100
AcDbLine
 10
271.3150016908072
 20
469.5090824930014
 30
0.0
 11
271.3150016908072
 21
497.2744527444742
 31
0.0
  0
LINE
  5
2314
330
218B
100
AcDbEntity
  8
SCHRAFF
 62
     0
370
    -2
100
AcDbLine
 10
145.3150016908075
 20
495.2744527444743
 30
0.0
 11
264.3150016908072
 21
495.2744527444743
 31
0.0
  0
SOLID
  5
2315
330
218B
100
AcDbEntity
  8
SCHRAFF
 62
     0
100
AcDbTrace
 10
145.3150016908075
 20
496.4411194111409
 30
0.0
 11
145.3150016908075
 21
494.1077860778076
 31
0.0
 12
138.3150016908075
 22
495.2744527444743
 32
0.0
 13
138.3150016908075
 23
495.2744527444743
 33
0.0
  0
SOLID
  5
2316
330
218B
100
AcDbEntity
  8
SCHRAFF
 62
     0
100
AcDbTrace
 10
264.3150016908072
 20
496.4411194111409
 30
0.0
 11
264.3150016908072
 21
494.1077860778076
 31
0.0
 12
271.3150016908072
 22
495.2744527444743
 32
0.0
 13
271.3150016908072
 23
495.2744527444743
 33
0.0
  0
MTEXT
  5
2317
330
218B
100
AcDbEntity
  8
SCHRAFF
 62
     1
100
AcDbMText
 10
204.8150016908073
 20
501.7744527444742
 30
0.0
 40
7.0
 41
0.0
 71
     5
 72
     1
  1
\A1;%%c133
 73
     1
 44
1.0
  0
POINT
  5
2318
330
218B
100
AcDbEntity
  8
DEFPOINTS
 62
     0
100
AcDbPoint
 10
138.3150016908075
 20
467.5090824930016
 30
0.0
  0
POINT
  5
2319
330
218B
100
AcDbEntity
  8
DEFPOINTS
 62
     0
100
AcDbPoint
 10
271.3150016908072
 20
467.5090824930014
 30
0.0
  0
POINT
  5
231A
330
218B
100
AcDbEntity
  8
DEFPOINTS
 62
     0
100
AcDbPoint
 10
271.3150016908072
 20
495.2744527444743
 30
0.0
  0
ENDBLK
  5
2196
330
218B
100
AcDbEntity
  8
0
100
AcDbBlockEnd
  0
BLOCK
  5
21CF
330
21C5
100
AcDbEntity
  8
0
100
AcDbBlockBegin
  2
*D7
 70
     1
 10
0.0
 20
0.0
 30
0.0
  3
*D7
  1

  0
LINE
  5
2309
330
21C5
100
AcDbEntity
  8
SCHRAFF
 62
     0
370
    -2
100
AcDbLine
 10
136.3150016908075
 20
467.5090824930016
 30
0.0
 11
113.30360529226
 21
467.5090824930017
 31
0.0
  0
LINE
  5
230A
330
21C5
100
AcDbEntity
  8
SCHRAFF
 62
     0
370
    -2
100
AcDbLine
 10
136.3150016908075
 20
327.5090824930016
 30
0.0
 11
113.30360529226
 21
327.5090824930017
 31
0.0
  0
LINE
  5
230B
330
21C5
100
AcDbEntity
  8
SCHRAFF
 62
     0
370
    -2
100
AcDbLine
 10
115.30360529226
 20
460.5090824930017
 30
0.0
 11
115.30360529226
 21
334.5090824930017
 31
0.0
  0
SOLID
  5
230C
330
21C5
100
AcDbEntity
  8
SCHRAFF
 62
     0
100
AcDbTrace
 10
114.1369386255933
 20
460.5090824930017
 30
0.0
 11
116.4702719589267
 21
460.5090824930017
 31
0.0
 12
115.30360529226
 22
467.5090824930017
 32
0.0
 13
115.30360529226
 23
467.5090824930017
 33
0.0
  0
SOLID
  5
230D
330
21C5
100
AcDbEntity
  8
SCHRAFF
 62
     0
100
AcDbTrace
 10
114.1369386255933
 20
334.5090824930017
 30
0.0
 11
116.4702719589266
 21
334.5090824930017
 31
0.0
 12
115.30360529226
 22
327.5090824930017
 32
0.0
 13
115.30360529226
 23
327.5090824930017
 33
0.0
  0
MTEXT
  5
230E
330
21C5
100
AcDbEntity
  8
SCHRAFF
 62
     1
100
AcDbMText
 10
108.8036052922599
 20
397.5090824930018
 30
0.0
 40
7.0
 41
0.0
 71
     5
 72
     1
  1
\A1;140
 11
0.0000000000000001
 21
1.0
 31
0.0
 73
     1
 44
1.0
  0
POINT
  5
230F
330
21C5
100
AcDbEntity
  8
DEFPOINTS
 62
     0
100
AcDbPoint
 10
138.3150016908075
 20
467.5090824930016
 30
0.0
  0
POINT
  5
2310
330
21C5
100
AcDbEntity
  8
DEFPOINTS
 62
     0
100
AcDbPoint
 10
138.3150016908075
 20
327.5090824930016
 30
0.0
  0
POINT
  5
2311
330
21C5
100
AcDbEntity
  8
DEFPOINTS
 62
     0
100
AcDbPoint
 10
115.30360529226
 20
327.5090824930017
 30
0.0
  0
ENDBLK
  5
21D0
330
21C5
100
AcDbEntity
  8
0
100
AcDbBlockEnd
  0
ENDSEC
  0
SECTION
  2
ENTITIES
  0
LINE
  5
57
330
1E
100
AcDbEntity
  8
STEMPEL
100
AcDbLine
 10
410.0
 20
110.0
 30
0.0
 11
39.99999999999997
 21
110.0
 31
0.0
  0
LINE
  5
58
330
1E
100
AcDbEntity
  8
STEMPEL
100
AcDbLine
 10
136.0000000000001
 20
109.9999999999999
 30
0.0
 11
136.0
 21
9.999999999999971
 31
0.0
  0
LINE
  5
59
330
1E
100
AcDbEntity
  8
STEMPEL
100
AcDbLine
 10
220.0
 20
110.0
 30
0.0
 11
220.0
 21
9.999999999999971
 31
0.0
  0
LINE
  5
5A
330
1E
100
AcDbEntity
  8
STEMPEL
100
AcDbLine
 10
332.0
 20
109.9999999999997
 30
0.0
 11
332.0
 21
40.0
 31
0.0
  0
LINE
  5
5B
330
1E
100
AcDbEntity
  8
STEMPEL
100
AcDbLine
 10
135.9999999999999
 20
29.99999999999997
 30
0.0
 11
39.99999999999997
 21
29.99999999999997
 31
0.0
  0
LINE
  5
5C
330
1E
100
AcDbEntity
  8
STEMPEL
100
AcDbLine
 10
410.0
 20
40.0
 30
0.0
 11
136.0000000000001
 21
39.99999999999997
 31
0.0
  0
LINE
  5
5D
330
1E
100
AcDbEntity
  8
STEMPEL
100
AcDbLine
 10
410.0
 20
80.0
 30
0.0
 11
136.0000000000001
 21
79.99999999999994
 31
0.0
  0
LINE
  5
5E
330
1E
100
AcDbEntity
  8
VOLL
100
AcDbLine
 10
54.00000000000009
 20
110.0
 30
0.0
 11
53.99999999999997
 21
9.999999999999971
 31
0.0
  0
LINE
  5
5F
330
1E
100
AcDbEntity
  8
VOLL
100
AcDbLine
 10
94.00000000000011
 20
109.9999999999999
 30
0.0
 11
94.0
 21
9.999999999999971
 31
0.0
  0
LINE
  5
60
330
1E
100
AcDbEntity
  8
VOLL
100
AcDbLine
 10
114.0000000000001
 20
109.9999999999999
 30
0.0
 11
114.0
 21
9.999999999999971
 31
0.0
  0
LINE
  5
61
330
1E
100
AcDbEntity
  8
VOLL
100
AcDbLine
 10
154.0000000000001
 20
79.99999999999994
 30
0.0
 11
154.0000000000001
 21
39.99999999999997
 31
0.0
  0
LINE
  5
62
330
1E
100
AcDbEntity
  8
VOLL
100
AcDbLine
 10
180.0000000000001
 20
109.9999999999998
 30
0.0
 11
180.0
 21
39.99999999999997
 31
0.0
  0
LINE
  5
63
330
1E
100
AcDbEntity
  8
HILF
100
AcDbLine
 10
40.00000000000008
 20
100.0
 30
0.0
 11
136.0000000000001
 21
100.0
 31
0.0
  0
LINE
  5
64
330
1E
100
AcDbEntity
  8
HILF
100
AcDbLine
 10
40.00000000000008
 20
90.00000000000005
 30
0.0
 11
136.0000000000001
 21
90.00000000000005
 31
0.0
  0
LINE
  5
65
330
1E
100
AcDbEntity
  8
HILF
100
AcDbLine
 10
40.00000000000008
 20
79.99999999999994
 30
0.0
 11
136.0000000000001
 21
79.99999999999994
 31
0.0
  0
LINE
  5
66
330
1E
100
AcDbEntity
  8
HILF
100
AcDbLine
 10
40.00000000000008
 20
69.99999999999994
 30
0.0
 11
136.0000000000001
 21
69.99999999999994
 31
0.0
  0
LINE
  5
67
330
1E
100
AcDbEntity
  8
HILF
100
AcDbLine
 10
40.00000000000008
 20
59.99999999999997
 30
0.0
 11
136.0000000000001
 21
59.99999999999997
 31
0.0
  0
LINE
  5
68
330
1E
100
AcDbEntity
  8
HILF
100
AcDbLine
 10
40.00000000000008
 20
49.99999999999997
 30
0.0
 11
136.0000000000001
 21
49.99999999999997
 31
0.0
  0
LINE
  5
69
330
1E
100
AcDbEntity
  8
HILF
100
AcDbLine
 10
40.00000000000008
 20
39.99999999999997
 30
0.0
 11
136.0000000000001
 21
39.99999999999997
 31
0.0
  0
LINE
  5
6A
330
1E
100
AcDbEntity
  8
HILF
100
AcDbLine
 10
136.0000000000001
 20
69.99999999999994
 30
0.0
 11
220.0
 21
69.99999999999994
 31
0.0
  0
LINE
  5
6B
330
1E
100
AcDbEntity
  8
HILF
100
AcDbLine
 10
136.0000000000001
 20
59.99999999999997
 30
0.0
 11
220.0
 21
59.99999999999997
 31
0.0
  0
LINE
  5
6C
330
1E
100
AcDbEntity
  8
HILF
100
AcDbLine
 10
136.0000000000001
 20
49.99999999999997
 30
0.0
 11
220.0
 21
49.99999999999997
 31
0.0
  0
LINE
  5
6D
330
1E
100
AcDbEntity
  8
HILF
100
AcDbLine
 10
224.7736801096948
 20
84.03758247564139
 30
0.0
 11
324.8353916556311
 21
84.03758247564139
 31
0.0
  0
LINE
  5
6E
330
1E
100
AcDbEntity
  8
HILF
100
AcDbLine
 10
224.7736801096948
 20
69.99999999999994
 30
0.0
 11
324.835391655631
 21
69.99999999999994
 31
0.0
  0
LINE
  5
6F
330
1E
100
AcDbEntity
  8
HILF
100
AcDbLine
 10
224.7736801096948
 20
59.99999999999997
 30
0.0
 11
324.835391655631
 21
59.99999999999997
 31
0.0
  0
LINE
  5
70
330
1E
100
AcDbEntity
  8
HILF
100
AcDbLine
 10
224.7736801096948
 20
49.99999999999997
 30
0.0
 11
324.835391655631
 21
49.99999999999997
 31
0.0
  0
LINE
  5
71
330
1E
100
AcDbEntity
  8
VOLL
100
AcDbLine
 10
332.0
 20
60.0
 30
0.0
 11
410.0
 21
60.0
 31
0.0
  0
LINE
  5
72
330
1E
100
AcDbEntity
  8
HILF
100
AcDbLine
 10
336.7238616296993
 20
83.77983636955827
 30
0.0
 11
404.8588839326728
 21
83.77983636955827
 31
0.0
  0
LINE
  5
73
330
1E
100
AcDbEntity
  8
HILF
100
AcDbLine
 10
223.4909699289885
 20
14.89398258028314
 30
0.0
 11
404.8588839326728
 21
14.89398258028314
 31
0.0
  0
TEXT
  5
74
330
1E
100
AcDbEntity
  8
TEXT
100
AcDbText
 10
63.86165979631819
 20
18.67381894984132
 30
0.0
 40
4.0
  1
Änderung
 41
0.8
  7
GREEKS
 72
     1
 11
74.60451693917534
 21
18.67381894984132
 31
0.0
100
AcDbText
  0
TEXT
  5
75
330
1E
100
AcDbEntity
  8
TEXT
100
AcDbText
 10
143.5163572150377
 20
102.4620895087088
 30
0.0
 40
5.0
  1
Maßstab
 41
0.8
  7
GREEKS
100
AcDbText
  0
TEXT
  5
76
330
1E
100
AcDbEntity
  8
TEXT
100
AcDbText
 10
184.2858954734051
 20
102.4184168434819
 30
0.0
 40
5.0
  1
Zul. Abw.
 41
0.8
  7
GREEKS
100
AcDbText
  0
TEXT
  5
77
330
1E
100
AcDbEntity
  8
TEXT
100
AcDbText
 10
224.877940380901
 20
102.5489328011779
 30
0.0
 40
5.0
  1
Benennung
 41
0.8
  7
GREEKS
100
AcDbText
  0
TEXT
  5
78
330
1E
100
AcDbEntity
  8
TEXT
100
AcDbText
 10
336.178754957634
 20
102.3132034537136
 30
0.0
 40
5.0
  1
Zeichnungs Nr.
 41
0.8
  7
GREEKS
100
AcDbText
  0
TEXT
  5
79
330
1E
100
AcDbEntity
  8
TEXT
100
AcDbText
 10
224.742238391136
 20
30.84560570193057
 30
0.0
 40
5.0
  1
Bauvorhaben
 41
0.8
  7
GREEKS
100
AcDbText
  0
TEXT
  5
7A
330
1E
100
AcDbEntity
  8
TEXT
100
AcDbText
 10
336.7238616296993
 20
73.1811823709997
 30
0.0
 40
5.0
  1
Ersatz für:
 41
0.8
  7
GREEKS
100
AcDbText
  0
TEXT
  5
7B
330
1E
100
AcDbEntity
  8
TEXT
100
AcDbText
 10
48.26641107045756
 20
13.65465846027192
 30
0.0
 40
4.0
  1
Index
 50
90.0
 41
0.8
  7
GREEKS
100
AcDbText
  0
TEXT
  5
7C
330
1E
100
AcDbEntity
  8
TEXT
100
AcDbText
 10
100.0934676075481
 20
18.6715626933981
 30
0.0
 40
4.0
  1
Tag
 41
0.8
  7
GREEKS
 72
     1
 11
103.8268009408814
 21
18.6715626933981
 31
0.0
100
AcDbText
  0
TEXT
  5
7D
330
1E
100
AcDbEntity
  8
TEXT
100
AcDbText
 10
119.0122744386592
 20
18.59324216966408
 30
0.0
 40
4.0
  1
Name
 41
0.8
  7
GREEKS
 72
     1
 11
125.3360839624688
 21
18.59324216966408
 31
0.0
100
AcDbText
  0
TEXT
  5
7E
330
1E
100
AcDbEntity
  8
TEXT
100
AcDbText
 10
162.3311673153651
 20
73.31880501229926
 30
0.0
 40
4.0
  1
Tag
 41
0.8
  7
GREEKS
100
AcDbText
  0
TEXT
  5
7F
330
1E
100
AcDbEntity
  8
TEXT
100
AcDbText
 10
192.4626584226295
 20
73.30961091915225
 30
0.0
 40
4.0
  1
Name
 41
0.8
  7
GREEKS
100
AcDbText
  0
TEXT
  5
80
330
1E
100
AcDbEntity
  8
TEXT
100
AcDbText
 10
137.5836127167615
 20
63.62990369617964
 30
0.0
 40
4.0
  1
Gez.
 41
0.8
  7
GREEKS
100
AcDbText
  0
TEXT
  5
81
330
1E
100
AcDbEntity
  8
TEXT
100
AcDbText
 10
137.5515086571672
 20
53.68926291428377
 30
0.0
 40
4.0
  1
Gepr.
 41
0.8
  7
GREEKS
100
AcDbText
  0
TEXT
  5
82
330
1E
100
AcDbEntity
  8
TEXT
100
AcDbText
 10
137.6006777387304
 20
43.52946389649807
 30
0.0
 40
4.0
  1
Norm.
 41
0.8
  7
GREEKS
100
AcDbText
  0
LINE
  5
83
330
1E
100
AcDbEntity
  8
STEMPEL
100
AcDbLine
 10
49.99999999999989
 20
10.0
 30
0.0
 11
410.0
 21
10.0
 31
0.0
  0
TEXT
  5
84
330
1E
100
AcDbEntity
  8
TEXT
100
AcDbText
 10
337.2400861497006
 20
52.07416177878602
 30
0.0
 40
5.0
  1
ersetzt durch:
 41
0.8
  7
GREEKS
100
AcDbText
  0
LINE
  5
85
330
1E
100
AcDbEntity
  8
STEMPEL
100
AcDbLine
 10
410.0
 20
10.0
 30
0.0
 11
39.99999999999989
 21
10.0
 31
0.0
  0
LINE
  5
86
330
1E
100
AcDbEntity
  8
STEMPEL
100
AcDbLine
 10
410.0
 20
10.0
 30
0.0
 11
410.0
 21
584.0
 31
0.0
  0
LINE
  5
87
330
1E
100
AcDbEntity
  8
STEMPEL
100
AcDbLine
 10
40.0
 20
10.0
 30
0.0
 11
39.99999999999989
 21
584.0
 31
0.0
  0
LINE
  5
88
330
1E
100
AcDbEntity
  8
STEMPEL
100
AcDbLine
 10
410.0
 20
584.0
 30
0.0
 11
39.99999999999989
 21
584.0
 31
0.0
  0
LINE
  5
89
330
1E
100
AcDbEntity
  8
HILF
100
AcDbLine
 10
0.0
 20
0.0
 30
0.0
 11
-0.0000000000001137
 21
594.0
 31
0.0
  0
LINE
  5
8A
330
1E
100
AcDbEntity
  8
HILF
100
AcDbLine
 10
419.9999999999999
 20
594.0000000000002
 30
0.0
 11
0.0
 21
594.0
 31
0.0
  0
LINE
  5
8B
330
1E
100
AcDbEntity
  8
HILF
100
AcDbLine
 10
420.0
 20
0.0
 30
0.0
 11
0.0
 21
0.0
 31
0.0
  0
LINE
  5
8C
330
1E
100
AcDbEntity
  8
HILF
100
AcDbLine
 10
31.08767135713856
 20
297.0
 30
0.0
 11
0.0000000000001137
 21
297.0
 31
0.0
  0
TEXT
  5
8D
330
1E
100
AcDbEntity
  8
TEXT
100
AcDbText
 10
138.622109822104
 20
73.14025471151666
 30
0.0
 40
4.0
  1
2012
 41
0.8
  7
GREEKS
100
AcDbText
  0
LINE
  5
8E
330
1E
100
AcDbEntity
  8
HILF
100
AcDbLine
 10
420.0
 20
-0.0000000000001137
 30
0.0
 11
419.9999999999999
 21
594.0
 31
0.0
  0
TEXT
  5
8F
330
1E
100
AcDbEntity
  8
VOLL
100
AcDbText
 10
78.07675471698113
 20
31.02594776470585
 30
0.0
 40
1.8
  1

  7
GREEKS
100
AcDbText
  0
TEXT
  5
90
330
1E
100
AcDbEntity
  8
TEXT
100
AcDbText
 10
41.85509950977674
 20
111.6719999999999
 30
0.0
 40
5.0
  1
Erstellt mit AUTOCAD 2004
 41
0.8
  7
GREEKS
100
AcDbText
  0
TEXT
  5
91
330
1E
100
AcDbEntity
  8
TEXT
100
AcDbText
 10
194.4216048581257
 20
63.0896391972351
 30
0.0
 40
4.0
  1
Koeh
 41
0.8
  7
GREEKS
 72
     1
 11
199.6787477152685
 21
63.0896391972351
 31
0.0
100
AcDbText
  0
TEXT
  5
92
330
1E
100
AcDbEntity
  8
TEXT
 62
     1
100
AcDbText
 10
346.4850229399057
 20
88.14901428913959
 30
0.0
 40
7.0
  1
58060MD0W
 41
0.8
  7
GREEKS
 72
     1
 11
371.1516896065724
 21
88.14901428913959
 31
0.0
100
AcDbText
  0
TEXT
  5
93
330
1E
100
AcDbEntity
  8
TEXT
 62
     1
100
AcDbText
 10
150.5006306481887
 20
88.14901428913959
 30
0.0
 40
7.0
  1
1:2
 41
0.8
  7
GREEKS
100
AcDbText
  0
TEXT
  5
94
330
1E
100
AcDbEntity
  8
TEXT
100
AcDbText
 10
160.398997108236
 20
63.10765040825732
 30
0.0
 40
4.0
  1
27.09.
 41
0.8
  7
GREEKS
 72
     1
 11
167.4085209177598
 21
63.10765040825732
 31
0.0
100
AcDbText
  0
TEXT
  5
95
330
1E
100
AcDbEntity
  8
TEXT
 62
     1
100
AcDbText
 10
224.2909241008022
 20
87.41748789253779
 30
0.0
 40
7.0
  1
Verbundrohr DN80/100
 41
0.8
  7
GREEKS
100
AcDbText
  0
TEXT
  5
96
330
1E
100
AcDbEntity
  8
TEXT
100
AcDbText
 10
225.1296391125315
 20
71.50334417585288
 30
0.0
 40
5.0
  1
Übergangsrohr konzentrisch
 41
0.8
  7
GREEKS
100
AcDbText
  0
TEXT
  5
98
330
1E
100
AcDbEntity
  8
TEXT
100
AcDbText
 10
225.1296391125315
 20
51.64011943042158
 30
0.0
 40
5.0
  1
EDV-Art.Nr. 58060.MD0X
 41
0.8
  7
GREEKS
100
AcDbText
  0
TEXT
  5
99
330
1E
100
AcDbEntity
  8
TEXT
100
AcDbText
 10
224.9837501577827
 20
42.62974153022632
 30
0.0
 40
4.0
  1
58060MD0X.DWG
 41
0.8
  7
GREEKS
100
AcDbText
  0
TEXT
  5
9A
330
1E
100
AcDbEntity
  8
TEXT
100
AcDbText
 10
182.626132208084
 20
90.76363841023022
 30
0.0
 40
4.0
  1
DIN EN1123-2
 41
0.8
  7
GREEKS
 72
     1
 11
199.6166083985602
 21
90.76363841023022
 31
0.0
100
AcDbText
  0
INSERT
  5
9B
330
1E
100
AcDbEntity
  8
STEMPEL
100
AcDbBlockReference
  2
LOGO
 10
140.9955485457794
 20
45.02105276448322
 30
0.0
 41
2.0
 42
2.0
 43
2.0
  0
TEXT
  5
118
330
1E
100
AcDbEntity
  8
TEXT
100
AcDbText
 10
417.3022923857165
 20
10.16790107998849
 30
0.0
 40
4.0
  1
Diese Zeichnung ist urheberrechtlich geschützt und bleibt unser Eigentum. Sie darf weder ganz noch teilweise verfielfältigt und nicht an Dritte weitergegeben werden.
 50
90.0
 41
0.8
  7
GREEKS
100
AcDbText
  0
TEXT
  5
2B5
330
1E
100
AcDbEntity
  8
TEXT
 62
     1
100
AcDbText
 10
265.4438845027806
 20
200.3535999333948
 30
0.0
 40
7.0
  1
Rohrende leicht eingezogen
 41
0.8
  7
GREEKS
100
AcDbText
  0
TEXT
  5
3C2
330
1E
100
AcDbEntity
  8
TEXT
 62
     1
100
AcDbText
 10
371.1516896065724
 20
62.21640786355101
 30
0.0
 40
7.0
  1

 41
0.8
  7
GREEKS
 72
     1
 11
371.1516896065724
 21
62.21640786355101
 31
0.0
100
AcDbText
  0
TEXT
  5
1C24
330
1E
100
AcDbEntity
  8
TEXT
 62
     1
100
AcDbText
 10
245.030129115258
 20
129.7422179729062
 30
0.0
 40
7.0
  1
und innenbeschichtet
 41
0.8
  7
GREEKS
100
AcDbText
  0
TEXT
  5
1C25
330
1E
100
AcDbEntity
  8
TEXT
 62
     1
100
AcDbText
 10
193.7736704325036
 20
117.1473825875242
 30
0.0
 40
7.0
  1
Dämmung: 2 K-PU-Schaum
 41
0.8
  7
GREEKS
100
AcDbText
  0
TEXT
  5
1C26
330
1E
100
AcDbEntity
  8
TEXT
 62
     1
100
AcDbText
 10
197.3756002392442
 20
141.011271812132
 30
0.0
 40
7.0
  1
Innenrohr: E195 EN10305 feuerverzinkt
 41
0.8
  7
GREEKS
100
AcDbText
  0
TEXT
  5
1C27
330
1E
100
AcDbEntity
  8
TEXT
 62
     1
100
AcDbText
 10
193.6033828683802
 20
152.364339848487
 30
0.0
 40
7.0
  1
Außenrohr: E195 EN10305 feuerverzinkt
 41
0.8
  7
GREEKS
100
AcDbText
  0
LINE
  5
1FFF
330
1E
100
AcDbEntity
  8
HILF
100
AcDbLine
 10
163.2913398780172
 20
404.429588573565
 30
0.0
 11
246.3386635035977
 21
404.429588573565
 31
0.0
  0
LINE
  5
2000
330
1E
100
AcDbEntity
  8
HILF
100
AcDbLine
 10
161.0737487159884
 20
409.5571502927207
 30
0.0
 11
248.5562546656266
 21
409.5571502927205
 31
0.0
  0
LINE
  5
2001
330
1E
100
AcDbEntity
  8
HILF
100
AcDbLine
 10
160.1892859538095
 20
434.7787024470116
 30
0.0
 11
249.4407174278055
 21
434.7787024470116
 31
0.0
  0
DIMENSION
  5
2002
330
1E
100
AcDbEntity
  8
BEM
100
AcDbDimension
  2
*D1
 10
100.4779536676123
 20
467.5090824930017
 30
0.0
 11
93.97795366761226
 21
367.5090824930017
 31
0.0
 70
    32
 71
     5
 42
200.0000000000001
  3
Standard
100
AcDbAlignedDimension
 13
154.6898883260666
 23
267.5090824930016
 33
0.0
 14
138.3150016908075
 24
467.5090824930016
 34
0.0
 50
90.0
100
AcDbRotatedDimension
1001
ACAD
1000
DSTYLE
1002
{
1070
    40
1040
2.0
1070
    41
1040
3.5
1070
    42
1040
1.0
1070
    43
1040
7.0
1070
    44
1040
1.0
1070
    73
1070
     0
1070
    74
1070
     0
1070
    77
1070
     1
1070
    78
1070
     8
1070
    79
1070
     2
1070
   140
1040
3.5
1070
   141
1040
1.5
1070
   146
1040
0.5142857142857144
1070
   147
1040
1.5
1070
   172
1070
     1
1070
   178
1070
     1
1070
   179
1070
     2
1070
   271
1070
     2
1070
   272
1070
     2
1070
   284
1070
     8
1070
   285
1070
     8
1070
   286
1070
     8
1002
}
  0
ARC
  5
2004
102
{ACAD_REACTORS
330
221E
330
227F
102
}
330
1E
100
AcDbEntity
  8
STEMPEL
100
AcDbCircle
 10
169.2150016908074
 20
412.8978089104185
 30
0.0
 40
12.0
100
AcDbArc
 50
180.0
 51
212.3280641221608
  0
ARC
  5
2005
102
{ACAD_REACTORS
330
221E
330
227F
102
}
330
1E
100
AcDbEntity
  8
STEMPEL
100
AcDbCircle
 10
240.4150016908075
 20
412.8978089104185
 30
0.0
 40
12.0
100
AcDbArc
 50
327.6719358778392
 51
0.0
  0
LINE
  5
2006
102
{ACAD_REACTORS
330
221E
330
227F
102
}
330
1E
100
AcDbEntity
  8
STEMPEL
100
AcDbLine
 10
160.3150016908075
 20
402.202482828433
 30
0.0
 11
160.3150016908075
 21
379.8806030368496
 31
0.0
  0
ARC
  5
2007
102
{ACAD_REACTORS
330
221E
330
227F
102
}
330
1E
100
AcDbEntity
  8
STEMPEL
100
AcDbCircle
 10
152.3150016908075
 20
402.202482828433
 30
0.0
 40
8.0
100
AcDbArc
 50
0.0
 51
32.32806412216083
  0
LINE
  5
2008
102
{ACAD_REACTORS
330
221E
330
227F
102
}
330
1E
100
AcDbEntity
  8
STEMPEL
100
AcDbLine
 10
249.3150016908075
 20
402.202482828433
 30
0.0
 11
249.3150016908075
 21
379.8806030368494
 31
0.0
  0
ARC
  5
2009
102
{ACAD_REACTORS
330
221E
330
227F
102
}
330
1E
100
AcDbEntity
  8
STEMPEL
100
AcDbCircle
 10
257.3150016908075
 20
402.202482828433
 30
0.0
 40
8.0
100
AcDbArc
 50
147.6719358778391
 51
180.0
  0
LINE
  5
200A
102
{ACAD_REACTORS
330
221E
330
222E
330
2242
102
}
330
1E
100
AcDbEntity
  8
STEMPEL
100
AcDbLine
 10
271.3150016908072
 20
467.5090824930014
 30
0.0
 11
138.3150016908075
 21
467.5090824930016
 31
0.0
  0
ARC
  5
200B
102
{ACAD_REACTORS
330
221E
330
2242
102
}
330
1E
100
AcDbEntity
  8
STEMPEL
  6
Continuous
100
AcDbCircle
 10
178.3150016908075
 20
454.9043310304305
 30
0.0
 40
24.6
100
AcDbArc
 50
155.0000000000036
 51
180.0
  0
ARC
  5
200C
102
{ACAD_REACTORS
330
221E
330
227F
102
}
330
1E
100
AcDbEntity
  8
STEMPEL
100
AcDbCircle
 10
145.2150016908074
 20
432.1689494298064
 30
0.0
 40
12.0
100
AcDbArc
 50
0.0
 51
25.12206018663242
  0
LINE
  5
200D
102
{ACAD_REACTORS
330
221E
330
227F
102
}
330
1E
100
AcDbEntity
  8
STEMPEL
100
AcDbLine
 10
157.2150016908074
 20
432.1689494298064
 30
0.0
 11
157.2150016908074
 21
412.8978089104185
 31
0.0
  0
ARC
  5
200E
102
{ACAD_REACTORS
330
221E
330
227F
102
}
330
1E
100
AcDbEntity
  8
STEMPEL
100
AcDbCircle
 10
178.7150016908074
 20
447.8772275022113
 30
0.0
 40
25.00009324312574
100
AcDbArc
 50
179.8435140456689
 51
205.2111779316807
  0
LINE
  5
200F
102
{ACAD_REACTORS
330
221E
330
2242
330
227F
102
}
330
1E
100
AcDbEntity
  8
STEMPEL
100
AcDbLine
 10
153.7150016908074
 20
454.9043310304305
 30
0.0
 11
153.7150016908074
 21
447.8089474540208
 31
0.0
  0
LINE
  5
2010
102
{ACAD_REACTORS
330
221E
330
2242
102
}
330
1E
100
AcDbEntity
  8
STEMPEL
  6
Continuous
100
AcDbLine
 10
157.0495970204675
 20
467.5090824930016
 30
0.0
 11
156.0198301297059
 21
465.3007402692518
 31
0.0
  0
ARC
  5
2011
102
{ACAD_REACTORS
330
221E
330
2242
102
}
330
1E
100
AcDbEntity
  8
STEMPEL
  6
Continuous
100
AcDbCircle
 10
231.3150016908075
 20
454.9043310304305
 30
0.0
 40
24.6
100
AcDbArc
 50
0.0
 51
24.99999999999344
  0
ARC
  5
2012
102
{ACAD_REACTORS
330
221E
330
227F
102
}
330
1E
100
AcDbEntity
  8
STEMPEL
100
AcDbCircle
 10
264.4150016908075
 20
432.1689494298064
 30
0.0
 40
12.0
100
AcDbArc
 50
154.8779398133632
 51
180.0
  0
LINE
  5
2013
102
{ACAD_REACTORS
330
221E
330
227F
102
}
330
1E
100
AcDbEntity
  8
STEMPEL
100
AcDbLine
 10
252.4150016908075
 20
432.1689494298064
 30
0.0
 11
252.4150016908075
 21
412.8978089104185
 31
0.0
  0
ARC
  5
2014
102
{ACAD_REACTORS
330
221E
330
227F
102
}
330
1E
100
AcDbEntity
  8
STEMPEL
100
AcDbCircle
 10
230.9150016908074
 20
447.8772275022113
 30
0.0
 40
25.00009324312574
100
AcDbArc
 50
334.7888220683149
 51
0.1564859543310882
  0
LINE
  5
2015
102
{ACAD_REACTORS
330
221E
330
2242
330
227F
102
}
330
1E
100
AcDbEntity
  8
STEMPEL
100
AcDbLine
 10
255.9150016908074
 20
454.9043310304305
 30
0.0
 11
255.9150016908074
 21
447.8089474540208
 31
0.0
  0
LINE
  5
2016
102
{ACAD_REACTORS
330
221E
330
2242
102
}
330
1E
100
AcDbEntity
  8
STEMPEL
  6
Continuous
100
AcDbLine
 10
252.5804063611475
 20
467.5090824930016
 30
0.0
 11
253.610173251909
 21
465.3007402692518
 31
0.0
  0
LINE
  5
2017
102
{ACAD_REACTORS
330
221E
102
}
330
1E
100
AcDbEntity
  8
STEMPEL
100
AcDbLine
 10
254.9401150555481
 20
267.5090824930015
 30
0.0
 11
154.6898883260666
 21
267.5090824930016
 31
0.0
  0
LINE
  5
2018
102
{ACAD_REACTORS
330
221E
330
227F
102
}
330
1E
100
AcDbEntity
  8
STEMPEL
100
AcDbLine
 10
153.8150016908073
 20
363.9518016772294
 30
0.0
 11
153.8150016908075
 21
277.5090824930014
 31
0.0
  0
LINE
  5
2019
102
{ACAD_REACTORS
330
221E
330
227F
102
}
330
1E
100
AcDbEntity
  8
STEMPEL
100
AcDbLine
 10
255.8150016908075
 20
363.9518016772294
 30
0.0
 11
255.8150016908075
 21
277.5090824930018
 31
0.0
  0
LINE
  5
201A
330
1E
100
AcDbEntity
  8
HILF
100
AcDbLine
 10
251.8639614495429
 20
367.5090824930015
 30
0.0
 11
157.7660419320721
 21
367.5090824930016
 31
0.0
  0
LINE
  5
201B
102
{ACAD_REACTORS
330
221E
330
227F
102
}
330
1E
100
AcDbEntity
  8
STEMPEL
100
AcDbLine
 10
253.8763250864151
 20
370.4916618843744
 30
0.0
 11
250.6074527604023
 21
375.5206962320861
 31
0.0
  0
LINE
  5
201C
330
1E
100
AcDbEntity
  8
HILF
100
AcDbLine
 10
246.3689571855943
 20
377.5090824930015
 30
0.0
 11
163.2610461960205
 21
377.5090824930016
 31
0.0
  0
LINE
  5
201D
102
{ACAD_REACTORS
330
221E
330
227F
102
}
330
1E
100
AcDbEntity
  8
STEMPEL
100
AcDbLine
 10
159.0225506212126
 20
375.5206962320863
 30
0.0
 11
155.7536782951998
 21
370.4916618843744
 31
0.0
  0
ARC
  5
201E
102
{ACAD_REACTORS
330
221E
330
227F
102
}
330
1E
100
AcDbEntity
  8
STEMPEL
100
AcDbCircle
 10
257.3150016908075
 20
379.8806030368494
 30
0.0
 40
8.0
100
AcDbArc
 50
180.0
 51
213.0238675557964
  0
ARC
  5
201F
102
{ACAD_REACTORS
330
221E
330
227F
102
}
330
1E
100
AcDbEntity
  8
STEMPEL
100
AcDbCircle
 10
152.3150016908075
 20
379.8806030368496
 30
0.0
 40
8.0
100
AcDbArc
 50
326.9761324442037
 51
0.0
  0
ARC
  5
2020
102
{ACAD_REACTORS
330
221E
330
227F
102
}
330
1E
100
AcDbEntity
  8
STEMPEL
100
AcDbCircle
 10
243.8150016908075
 20
363.9518016772294
 30
0.0
 40
12.0
100
AcDbArc
 50
0.0
 51
33.02386755579638
  0
ARC
  5
2021
102
{ACAD_REACTORS
330
221E
330
227F
102
}
330
1E
100
AcDbEntity
  8
STEMPEL
100
AcDbCircle
 10
165.8150016908074
 20
363.9518016772294
 30
0.0
 40
12.0
100
AcDbArc
 50
146.9761324442036
 51
180.0
  0
LINE
  5
2022
330
1E
100
AcDbEntity
  8
HILF
100
AcDbLine
 10
252.6027782106687
 20
277.5090824930015
 30
0.0
 11
157.0272251709462
 21
277.5090824930015
 31
0.0
  0
LINE
  5
2023
102
{ACAD_REACTORS
330
221E
102
}
330
1E
100
AcDbEntity
  8
STEMPEL
100
AcDbLine
 10
153.8150016908075
 20
277.5090824930014
 30
0.0
 11
154.6898883260666
 21
267.5090824930016
 31
0.0
  0
LINE
  5
2024
102
{ACAD_REACTORS
330
221E
102
}
330
1E
100
AcDbEntity
  8
STEMPEL
100
AcDbLine
 10
255.8150016908075
 20
277.5090824930018
 30
0.0
 11
254.9401150555481
 21
267.5090824930015
 31
0.0
  0
DIMENSION
  5
2027
330
1E
100
AcDbEntity
  8
BEM
100
AcDbDimension
  2
*D2
 10
255.8150016908075
 20
247.7351596655706
 30
0.0
 11
204.8150016908075
 21
254.2351596655706
 31
0.0
 70
    32
  1
%%c<>
 71
     5
 42
102.0
  3
Standard
100
AcDbAlignedDimension
 13
153.8150016908075
 23
277.5090824930014
 33
0.0
 14
255.8150016908075
 24
277.5090824930018
 34
0.0
100
AcDbRotatedDimension
1001
ACAD
1000
DSTYLE
1002
{
1070
    40
1040
2.0
1070
    41
1040
3.5
1070
    42
1040
1.0
1070
    43
1040
7.0
1070
    44
1040
1.0
1070
    73
1070
     0
1070
    74
1070
     0
1070
    77
1070
     1
1070
    78
1070
     8
1070
    79
1070
     2
1070
   140
1040
3.5
1070
   141
1040
1.5
1070
   146
1040
0.5142857142857144
1070
   147
1040
1.5
1070
   172
1070
     1
1070
   178
1070
     1
1070
   179
1070
     2
1070
   271
1070
     2
1070
   272
1070
     2
1070
   284
1070
     8
1070
   285
1070
     8
1070
   286
1070
     8
1002
}
  0
LINE
  5
203B
330
1E
100
AcDbEntity
  8
MITTEL
  6
STRICHPUNKT
100
AcDbLine
 10
204.8150016908075
 20
472.509082493002
 30
0.0
 11
204.8150016908075
 21
262.5090824930015
 31
0.0
  0
TEXT
  5
203D
330
1E
100
AcDbEntity
  8
TEXT
 62
     1
100
AcDbText
 10
198.1085885664433
 20
293.2631712409759
 30
0.0
 40
7.0
  1
DN100
 50
90.0
 41
0.8
  7
GREEKS
100
AcDbText
  0
TEXT
  5
203E
330
1E
100
AcDbEntity
  8
TEXT
 62
     1
100
AcDbText
 10
198.1085885664433
 20
438.7721831138382
 30
0.0
 40
7.0
  1
DN80
 50
90.0
 41
0.8
  7
GREEKS
100
AcDbText
  0
LINE
  5
20ED
102
{ACAD_REACTORS
330
221E
102
}
330
1E
100
AcDbEntity
  8
STEMPEL
100
AcDbLine
 10
250.8150016908075
 20
432.1689494298064
 30
0.0
 11
250.8150016908075
 21
412.8978089104185
 31
0.0
  0
ARC
  5
20EE
102
{ACAD_REACTORS
330
221E
102
}
330
1E
100
AcDbEntity
  8
STEMPEL
100
AcDbCircle
 10
264.4150016908075
 20
432.1689494298064
 30
0.0
 40
13.6
100
AcDbArc
 50
154.8779398133632
 51
180.0
  0
ARC
  5
20F0
102
{ACAD_REACTORS
330
221E
102
}
330
1E
100
AcDbEntity
  8
STEMPEL
100
AcDbCircle
 10
230.9150016908074
 20
447.8772275022113
 30
0.0
 40
23.40009324312573
100
AcDbArc
 50
334.7888220683149
 51
0.1564859543310882
  0
LINE
  5
20F1
102
{ACAD_REACTORS
330
221E
102
}
330
1E
100
AcDbEntity
  8
STEMPEL
100
AcDbLine
 10
254.3150016908074
 20
454.9043310304305
 30
0.0
 11
254.3150016908074
 21
447.8089474540208
 31
0.0
  0
ARC
  5
20F2
102
{ACAD_REACTORS
330
221E
102
}
330
1E
100
AcDbEntity
  8
STEMPEL
  6
Continuous
100
AcDbCircle
 10
231.3150016908075
 20
454.9043310304305
 30
0.0
 40
23.0
100
AcDbArc
 50
0.0
 51
24.99999999999344
  0
LINE
  5
20F3
102
{ACAD_REACTORS
330
221E
102
}
330
1E
100
AcDbEntity
  8
STEMPEL
  6
Continuous
100
AcDbLine
 10
250.8150016908074
 20
467.5090824930014
 30
0.0
 11
252.1600807926503
 21
464.6245510504668
 31
0.0
  0
ARC
  5
20F4
102
{ACAD_REACTORS
330
221E
102
}
330
1E
100
AcDbEntity
  8
STEMPEL
100
AcDbCircle
 10
240.4150016908075
 20
412.8978089104185
 30
0.0
 40
10.4
100
AcDbArc
 50
327.6719358778392
 51
0.0
  0
ARC
  5
20F6
102
{ACAD_REACTORS
330
221E
102
}
330
1E
100
AcDbEntity
  8
STEMPEL
100
AcDbCircle
 10
257.3150016908075
 20
402.202482828433
 30
0.0
 40
9.599999999999999
100
AcDbArc
 50
147.6719358778391
 51
180.0
  0
LINE
  5
20F8
102
{ACAD_REACTORS
330
221E
102
}
330
1E
100
AcDbEntity
  8
STEMPEL
100
AcDbLine
 10
247.7150016908075
 20
402.202482828433
 30
0.0
 11
247.7150016908075
 21
379.8806030368494
 31
0.0
  0
ARC
  5
20F9
102
{ACAD_REACTORS
330
221E
102
}
330
1E
100
AcDbEntity
  8
STEMPEL
100
AcDbCircle
 10
257.3150016908075
 20
379.8806030368494
 30
0.0
 40
9.599999999999999
100
AcDbArc
 50
180.0
 51
213.0238675557964
  0
ARC
  5
20FA
102
{ACAD_REACTORS
330
221E
102
}
330
1E
100
AcDbEntity
  8
STEMPEL
100
AcDbCircle
 10
243.8150016908075
 20
363.9518016772294
 30
0.0
 40
10.4
100
AcDbArc
 50
0.0
 51
33.02386755579638
  0
LINE
  5
20FB
102
{ACAD_REACTORS
330
221E
102
}
330
1E
100
AcDbEntity
  8
STEMPEL
100
AcDbLine
 10
252.5348153003341
 20
369.6196805234217
 30
0.0
 11
249.2659429743213
 21
374.6487148711334
 31
0.0
  0
LINE
  5
20FE
102
{ACAD_REACTORS
330
221E
102
}
330
1E
100
AcDbEntity
  8
STEMPEL
100
AcDbLine
 10
254.2150016908075
 20
363.9518016772294
 30
0.0
 11
254.2150016908075
 21
277.578940001656
 31
0.0
  0
ARC
  5
20FF
102
{ACAD_REACTORS
330
221E
102
}
330
1E
100
AcDbEntity
  8
STEMPEL
  6
Continuous
100
AcDbCircle
 10
178.3150016908075
 20
454.9043310304305
 30
0.0
 40
23.0
100
AcDbArc
 50
155.0000000000036
 51
180.0
  0
LINE
  5
2100
102
{ACAD_REACTORS
330
221E
102
}
330
1E
100
AcDbEntity
  8
STEMPEL
  6
Continuous
100
AcDbLine
 10
158.8150016908075
 20
467.5090824930015
 30
0.0
 11
157.4699225889645
 21
464.6245510504667
 31
0.0
  0
LINE
  5
2101
102
{ACAD_REACTORS
330
221E
102
}
330
1E
100
AcDbEntity
  8
STEMPEL
100
AcDbLine
 10
155.3150016908075
 20
454.9043310304305
 30
0.0
 11
155.3150016908075
 21
447.8089474540208
 31
0.0
  0
ARC
  5
2102
102
{ACAD_REACTORS
330
221E
102
}
330
1E
100
AcDbEntity
  8
STEMPEL
100
AcDbCircle
 10
178.7150016908074
 20
447.8772275022113
 30
0.0
 40
23.40009324312573
100
AcDbArc
 50
179.8435140456689
 51
205.2111779316807
  0
ARC
  5
2103
102
{ACAD_REACTORS
330
221E
102
}
330
1E
100
AcDbEntity
  8
STEMPEL
100
AcDbCircle
 10
145.2150016908074
 20
432.1689494298064
 30
0.0
 40
13.6
100
AcDbArc
 50
0.0
 51
25.12206018663242
  0
LINE
  5
2105
102
{ACAD_REACTORS
330
221E
102
}
330
1E
100
AcDbEntity
  8
STEMPEL
100
AcDbLine
 10
158.8150016908075
 20
432.1689494298064
 30
0.0
 11
158.8150016908075
 21
412.8978089104185
 31
0.0
  0
ARC
  5
2106
102
{ACAD_REACTORS
330
221E
102
}
330
1E
100
AcDbEntity
  8
STEMPEL
100
AcDbCircle
 10
169.2150016908074
 20
412.8978089104185
 30
0.0
 40
10.4
100
AcDbArc
 50
180.0
 51
212.3280641221608
  0
ARC
  5
2108
102
{ACAD_REACTORS
330
221E
102
}
330
1E
100
AcDbEntity
  8
STEMPEL
100
AcDbCircle
 10
152.3150016908075
 20
402.202482828433
 30
0.0
 40
9.599999999999999
100
AcDbArc
 50
0.0
 51
32.32806412216083
  0
LINE
  5
210A
102
{ACAD_REACTORS
330
221E
102
}
330
1E
100
AcDbEntity
  8
STEMPEL
100
AcDbLine
 10
161.9150016908075
 20
402.202482828433
 30
0.0
 11
161.9150016908075
 21
379.8806030368496
 31
0.0
  0
ARC
  5
210B
102
{ACAD_REACTORS
330
221E
102
}
330
1E
100
AcDbEntity
  8
STEMPEL
100
AcDbCircle
 10
152.3150016908075
 20
379.8806030368496
 30
0.0
 40
9.599999999999999
100
AcDbArc
 50
326.9761324442037
 51
0.0
  0
ARC
  5
210D
102
{ACAD_REACTORS
330
221E
102
}
330
1E
100
AcDbEntity
  8
STEMPEL
100
AcDbCircle
 10
165.8150016908074
 20
363.9518016772294
 30
0.0
 40
10.4
100
AcDbArc
 50
146.9761324442036
 51
180.0
  0
LINE
  5
210E
102
{ACAD_REACTORS
330
221E
102
}
330
1E
100
AcDbEntity
  8
STEMPEL
100
AcDbLine
 10
160.3640604072936
 20
374.6487148711336
 30
0.0
 11
157.0951880812808
 21
369.6196805234217
 31
0.0
  0
LINE
  5
2110
102
{ACAD_REACTORS
330
221E
102
}
330
1E
100
AcDbEntity
  8
STEMPEL
100
AcDbLine
 10
155.4150016908074
 20
363.9518016772294
 30
0.0
 11
155.4150016908075
 21
277.5789400016545
 31
0.0
  0
LINE
  5
2112
102
{ACAD_REACTORS
330
221E
102
}
330
1E
100
AcDbEntity
  8
STEMPEL
100
AcDbLine
 10
155.4150016908075
 20
277.5789400016545
 30
0.0
 11
156.2960000661359
 21
267.5090824930015
 31
0.0
  0
LINE
  5
2114
102
{ACAD_REACTORS
330
221E
102
}
330
1E
100
AcDbEntity
  8
STEMPEL
100
AcDbLine
 10
254.2150016908075
 20
277.578940001656
 30
0.0
 11
253.3340033154787
 21
267.5090824930015
 31
0.0
  0
LINE
  5
2116
330
1E
100
AcDbEntity
  8
STEMPEL
100
AcDbLine
 10
148.8150016908075
 20
333.5090824930016
 30
0.0
 11
144.1961995372904
 21
325.5090824930015
 31
0.0
  0
LINE
  5
2117
330
1E
100
AcDbEntity
  8
STEMPEL
100
AcDbLine
 10
138.3150016908075
 20
325.5090824930016
 30
0.0
 11
153.8150016908077
 21
325.5090824930015
 31
0.0
  0
LINE
  5
2118
330
1E
100
AcDbEntity
  8
STEMPEL
100
AcDbLine
 10
260.8150016908075
 20
333.5090824930016
 30
0.0
 11
265.4338038443246
 21
325.5090824930013
 31
0.0
  0
LINE
  5
2119
330
1E
100
AcDbEntity
  8
STEMPEL
100
AcDbLine
 10
255.8150016908075
 20
325.5090824930013
 30
0.0
 11
271.3150016908077
 21
325.5090824930012
 31
0.0
  0
HATCH
  5
211A
330
1E
100
AcDbEntity
  8
SCHRAFF
100
AcDbHatch
 10
0.0
 20
0.0
 30
0.0
210
0.0
220
0.0
230
1.0
  2
NET
 70
     0
 71
     0
 91
        2
 92
        7
 72
     0
 73
     1
 93
        9
 10
268.8150016908076
 20
343.5090824930014
 10
267.3150016908074
 20
345.0090824930017
 10
255.8150016908076
 20
345.0090824930017
 10
255.8150016908076
 20
333.5090824930016
 10
260.8150016908075
 20
333.5090824930016
 10
265.4338038443247
 20
325.5090824930012
 10
271.3150016908077
 20
325.5090824930012
 10
271.3150016908077
 20
327.5090824930015
 10
268.8150016908077
 20
327.5090824930015
 97
        0
 92
        7
 72
     0
 73
     1
 93
        9
 10
153.8150016908077
 20
345.0090824930015
 10
142.3150016908076
 20
345.0090824930017
 10
140.8150016908075
 20
343.5090824930016
 10
140.8150016908075
 20
327.5090824930015
 10
138.3150016908075
 20
327.5090824930016
 10
138.3150016908075
 20
325.5090824930016
 10
144.1961995372904
 20
325.5090824930015
 10
148.8150016908075
 20
333.5090824930016
 10
153.8150016908076
 20
333.5090824930015
 97
        0
 75
     0
 76
     1
 52
45.0
 41
20.0
 77
     0
 78
     2
 53
45.0
 43
-20.18499830919217
 44
15.63408843381594
 45
-1.767766952966368
 46
1.767766952966368
 79
     0
 53
135.0
 43
-20.18499830919217
 44
15.63408843381594
 45
-1.767766952966368
 46
-1.767766952966368
 79
     0
 47
0.1961114262777251
 98
        2
 10
264.5963670910376
 20
338.7069928825557
 10
152.1567304459757
 20
339.8836614212445
  0
LINE
  5
211B
102
{ACAD_REACTORS
330
222E
102
}
330
1E
100
AcDbEntity
  8
STEMPEL
100
AcDbLine
 10
138.3150016908076
 20
327.5090824930016
 30
0.0
 11
140.8150016908075
 21
327.5090824930016
 31
0.0
  0
LINE
  5
211C
330
1E
100
AcDbEntity
  8
STEMPEL
100
AcDbLine
 10
153.8150016908075
 20
333.5090824930016
 30
0.0
 11
148.8150016908075
 21
333.5090824930016
 31
0.0
  0
LINE
  5
211D
102
{ACAD_REACTORS
330
227F
102
}
330
1E
100
AcDbEntity
  8
STEMPEL
100
AcDbLine
 10
153.8150016908075
 20
345.0090824930015
 30
0.0
 11
142.3150016908076
 21
345.0090824930017
 31
0.0
  0
LINE
  5
211E
102
{ACAD_REACTORS
330
227F
102
}
330
1E
100
AcDbEntity
  8
STEMPEL
100
AcDbLine
 10
140.8150016908075
 20
343.5090824930016
 30
0.0
 11
142.3150016908076
 21
345.0090824930017
 31
0.0
  0
LINE
  5
211F
102
{ACAD_REACTORS
330
222E
102
}
330
1E
100
AcDbEntity
  8
STEMPEL
100
AcDbLine
 10
271.3150016908075
 20
327.5090824930015
 30
0.0
 11
268.8150016908076
 21
327.5090824930015
 31
0.0
  0
LINE
  5
2120
330
1E
100
AcDbEntity
  8
STEMPEL
100
AcDbLine
 10
260.8150016908075
 20
333.5090824930016
 30
0.0
 11
255.8150016908075
 21
333.5090824930016
 31
0.0
  0
LINE
  5
2121
102
{ACAD_REACTORS
330
227F
102
}
330
1E
100
AcDbEntity
  8
STEMPEL
100
AcDbLine
 10
267.3150016908074
 20
345.0090824930017
 30
0.0
 11
255.8150016908075
 21
345.0090824930017
 31
0.0
  0
LINE
  5
2122
102
{ACAD_REACTORS
330
227F
102
}
330
1E
100
AcDbEntity
  8
STEMPEL
100
AcDbLine
 10
268.8150016908075
 20
343.5090824930016
 30
0.0
 11
267.3150016908074
 21
345.0090824930017
 31
0.0
  0
LINE
  5
2126
102
{ACAD_REACTORS
330
222E
102
}
330
1E
100
AcDbEntity
  8
STEMPEL
100
AcDbLine
 10
271.3150016908072
 20
467.5090824930014
 30
0.0
 11
271.3150016908077
 21
325.5090824930012
 31
0.0
  0
LINE
  5
2127
102
{ACAD_REACTORS
330
222E
330
2242
330
227F
102
}
330
1E
100
AcDbEntity
  8
STEMPEL
100
AcDbLine
 10
268.8150016908076
 20
467.5090824930014
 30
0.0
 11
268.8150016908076
 21
327.5090824930015
 31
0.0
  0
DIMENSION
  5
2128
330
1E
100
AcDbEntity
  8
BEM
100
AcDbDimension
  2
*D3
 10
115.3036052922598
 20
267.5090824930017
 30
0.0
 11
108.8036052922598
 21
297.5090824930017
 31
0.0
 70
    32
 71
     5
 42
60.0
  3
Standard
100
AcDbAlignedDimension
 13
138.3150016908075
 23
327.5090824930016
 33
0.0
 14
154.5072713239282
 24
267.5090824930016
 34
0.0
 50
90.0
100
AcDbRotatedDimension
1001
ACAD
1000
DSTYLE
1002
{
1070
   279
1070
     1
1070
    40
1040
2.0
1070
    41
1040
3.5
1070
    42
1040
1.0
1070
    43
1040
7.0
1070
    44
1040
1.0
1070
    73
1070
     0
1070
    74
1070
     0
1070
    77
1070
     1
1070
    78
1070
     8
1070
    79
1070
     2
1070
   140
1040
3.5
1070
   141
1040
1.5
1070
   146
1040
0.5142857142857144
1070
   147
1040
1.5
1070
   172
1070
     1
1070
   178
1070
     1
1070
   179
1070
     2
1070
   271
1070
     2
1070
   272
1070
     2
1070
   284
1070
     8
1070
   285
1070
     8
1070
   286
1070
     8
1002
}
  0
LINE
  5
2129
102
{ACAD_REACTORS
330
222E
102
}
330
1E
100
AcDbEntity
  8
STEMPEL
100
AcDbLine
 10
138.3150016908075
 20
467.5090824930016
 30
0.0
 11
138.3150016908075
 21
325.5090824930016
 31
0.0
  0
LINE
  5
212A
102
{ACAD_REACTORS
330
222E
330
2242
330
227F
102
}
330
1E
100
AcDbEntity
  8
STEMPEL
100
AcDbLine
 10
140.8150016908076
 20
467.5090824930016
 30
0.0
 11
140.8150016908075
 21
327.5090824930016
 31
0.0
  0
DIMENSION
  5
216E
330
1E
100
AcDbEntity
  8
SCHRAFF
100
AcDbDimension
  2
*D4
 10
250.8150016908074
 20
480.6015523577712
 30
0.0
 11
204.8150016908074
 21
487.1015523577711
 31
0.0
 70
    32
  1
%%c<>
 71
     5
 42
91.99999999999988
  3
Standard
100
AcDbAlignedDimension
 13
158.8150016908075
 23
467.5090824930016
 33
0.0
 14
250.8150016908074
 24
467.5090824930014
 34
0.0
100
AcDbRotatedDimension
1001
ACAD
1000
DSTYLE
1002
{
1070
    40
1040
2.0
1070
    41
1040
3.5
1070
    42
1040
1.0
1070
    43
1040
7.0
1070
    44
1040
1.0
1070
    73
1070
     0
1070
    74
1070
     0
1070
    77
1070
     1
1070
    78
1070
     8
1070
    79
1070
     2
1070
   140
1040
3.5
1070
   141
1040
1.5
1070
   146
1040
0.5142857142857144
1070
   147
1040
1.5
1070
   172
1070
     1
1070
   178
1070
     1
1070
   179
1070
     2
1070
   271
1070
     2
1070
   272
1070
     2
1070
   284
1070
     8
1070
   285
1070
     8
1070
   286
1070
     8
1002
}
  0
DIMENSION
  5
218A
330
1E
100
AcDbEntity
  8
SCHRAFF
100
AcDbDimension
  2
*D6
 10
271.3150016908072
 20
495.2744527444743
 30
0.0
 11
204.8150016908073
 21
501.7744527444742
 31
0.0
 70
    32
  1
%%c<>
 71
     5
 42
132.9999999999996
  3
Standard
100
AcDbAlignedDimension
 13
138.3150016908075
 23
467.5090824930016
 33
0.0
 14
271.3150016908072
 24
467.5090824930014
 34
0.0
100
AcDbRotatedDimension
1001
ACAD
1000
DSTYLE
1002
{
1070
    40
1040
2.0
1070
    41
1040
3.5
1070
    42
1040
1.0
1070
    43
1040
7.0
1070
    44
1040
1.0
1070
    73
1070
     0
1070
    74
1070
     0
1070
    77
1070
     1
1070
    78
1070
     8
1070
    79
1070
     2
1070
   140
1040
3.5
1070
   141
1040
1.5
1070
   146
1040
0.5142857142857144
1070
   147
1040
1.5
1070
   172
1070
     1
1070
   178
1070
     1
1070
   179
1070
     2
1070
   271
1070
     2
1070
   272
1070
     2
1070
   284
1070
     8
1070
   285
1070
     8
1070
   286
1070
     8
1002
}
  0
DIMENSION
  5
21C4
330
1E
100
AcDbEntity
  8
SCHRAFF
100
AcDbDimension
  2
*D7
 10
115.30360529226
 20
327.5090824930017
 30
0.0
 11
108.8036052922599
 21
397.5090824930018
 31
0.0
 70
    32
 71
     5
 42
140.0
  3
Standard
100
AcDbAlignedDimension
 13
138.3150016908075
 23
467.5090824930016
 33
0.0
 14
138.3150016908075
 24
327.5090824930016
 34
0.0
 50
90.0
100
AcDbRotatedDimension
1001
ACAD
1000
DSTYLE
1002
{
1070
    40
1040
2.0
1070
    41
1040
3.5
1070
    42
1040
1.0
1070
    43
1040
7.0
1070
    44
1040
1.0
1070
    73
1070
     0
1070
    74
1070
     0
1070
    77
1070
     1
1070
    78
1070
     8
1070
    79
1070
     2
1070
   140
1040
3.5
1070
   141
1040
1.5
1070
   146
1040
0.5142857142857144
1070
   147
1040
1.5
1070
   172
1070
     1
1070
   178
1070
     1
1070
   179
1070
     2
1070
   271
1070
     2
1070
   272
1070
     2
1070
   284
1070
     8
1070
   285
1070
     8
1070
   286
1070
     8
1002
}
  0
LINE
  5
21D9
102
{ACAD_REACTORS
330
2242
330
227F
102
}
330
1E
100
AcDbEntity
  8
STEMPEL
100
AcDbLine
 10
268.8150016908077
 20
453.5090824930015
 30
0.0
 11
255.9150016908073
 21
453.5090824930015
 31
0.0
  0
LINE
  5
21DA
102
{ACAD_REACTORS
330
2242
330
227F
102
}
330
1E
100
AcDbEntity
  8
STEMPEL
100
AcDbLine
 10
153.7150016908073
 20
453.5090824930016
 30
0.0
 11
140.8150016908076
 21
453.5090824930017
 31
0.0
  0
HATCH
  5
221E
330
1E
100
AcDbEntity
  8
SCHRAFF
100
AcDbHatch
 10
0.0
 20
0.0
 30
0.0
210
0.0
220
0.0
230
1.0
  2
_USER
 70
     0
 71
     1
 91
        2
 92
        7
 72
     1
 73
     1
 93
       30
 10
255.8150016908075
 20
363.9518016772294
 42
0.1450994323300686
 10
253.876325086415
 20
370.4916618843745
 42
0.0
 10
250.6074527604023
 20
375.5206962320861
 42
-0.1450994323300631
 10
249.3150016908075
 20
379.8806030368494
 42
0.0
 10
249.3150016908075
 20
402.202482828433
 42
-0.1420008527982231
 10
250.5550016908074
 20
406.4806132612271
 42
0.1420008527982333
 10
252.4150016908075
 20
412.8978089104185
 42
0.0
 10
252.4150016908075
 20
432.1689494298064
 42
-0.110876812141291
 10
253.5667024541244
 20
437.2987061171533
 42
0.1089723179974622
 10
255.9150016908074
 20
447.8089474540238
 42
0.0
 10
255.9150016908074
 20
454.9043310304305
 42
0.1095178116832416
 10
253.610173251909
 20
465.3007402692518
 42
0.0
 10
252.5804063611475
 20
467.5090824930014
 42
0.0
 10
250.8150016908074
 20
467.5090824930014
 42
0.0
 10
252.1600807926503
 20
464.6245510504668
 42
-0.109517811683246
 10
254.3150016908074
 20
454.9043310304303
 42
0.0
 10
254.3150016908074
 20
447.9432864681423
 42
-0.1112043308288331
 10
252.0845385223854
 20
437.906516688862
 42
0.109311752196145
 10
250.8150016908075
 20
432.1689494298064
 42
0.0
 10
250.8150016908075
 20
412.8978089104185
 42
-0.1420008527982229
 10
249.2030016908076
 20
407.3362393477863
 42
0.142000852798236
 10
247.7150016908075
 20
402.202482828433
 42
0.0
 10
247.7150016908075
 20
379.8806030368494
 42
0.145099432330065
 10
249.2659429743213
 20
374.6487148711334
 42
0.0
 10
252.5348153003341
 20
369.6196805234217
 42
-0.1450994323300685
 10
254.2150016908075
 20
363.9518016772293
 42
0.0
 10
254.2150016908075
 20
277.5789400016559
 42
0.0
 10
253.3340033154787
 20
267.5090824930015
 42
0.0
 10
254.9401150555481
 20
267.5090824930015
 42
0.0
 10
255.8150016908075
 20
277.5090824930015
 42
0.0
 97
       30
330
2020
330
201B
330
201E
330
2008
330
2009
330
2005
330
2013
330
2012
330
2014
330
2015
330
2011
330
2016
330
200A
330
20F3
330
20F2
330
20F1
330
20F0
330
20EE
330
20ED
330
20F4
330
20F6
330
20F8
330
20F9
330
20FB
330
20FA
330
20FE
330
2114
330
2017
330
2024
330
2019
 92
        7
 72
     1
 73
     1
 93
       30
 10
160.3150016908075
 20
379.8806030368496
 42
-0.1450994323300681
 10
159.0225506212125
 20
375.5206962320863
 42
0.0
 10
155.7536782951998
 20
370.4916618843744
 42
0.1450994323300681
 10
153.8150016908073
 20
363.9518016772294
 42
0.0
 10
153.8150016908075
 20
277.5090824930013
 42
0.0
 10
154.6898883260666
 20
267.5090824930016
 42
0.0
 10
156.2960000661359
 20
267.5090824930016
 42
0.0
 10
155.4150016908075
 20
277.5789400016541
 42
0.0
 10
155.4150016908074
 20
363.9518016772294
 42
-0.1450994323300658
 10
157.0951880812808
 20
369.6196805234217
 42
0.0
 10
160.3640604072936
 20
374.6487148711336
 42
0.1450994323300674
 10
161.9150016908075
 20
379.8806030368496
 42
0.0
 10
161.9150016908075
 20
402.202482828433
 42
0.1420008527982289
 10
160.4270016908075
 20
407.3362393477861
 42
-0.1420008527982296
 10
158.8150016908075
 20
412.8978089104185
 42
0.0
 10
158.8150016908075
 20
432.1689494298064
 42
0.1093117521956582
 10
157.5454648592406
 20
437.9065166888383
 42
-0.1112043308291914
 10
155.3150016908075
 20
447.9432864681491
 42
0.0
 10
155.3150016908075
 20
454.9043310304305
 42
-0.1095178116832414
 10
157.4699225889645
 20
464.6245510504667
 42
0.0
 10
158.8150016908075
 20
467.5090824930015
 42
0.0
 10
157.0495970204675
 20
467.5090824930016
 42
0.0
 10
156.0198301297059
 20
465.3007402692518
 42
0.1095178116832412
 10
153.7150016908074
 20
454.9043310304306
 42
0.0
 10
153.7150016908074
 20
447.8089474540239
 42
0.1089723179973776
 10
156.063300927487
 20
437.298706117161
 42
-0.1108768121414707
 10
157.2150016908074
 20
432.1689494298064
 42
0.0
 10
157.2150016908074
 20
412.8978089104185
 42
0.1420008527982289
 10
159.0750016908075
 20
406.4806132612273
 42
-0.1420008527982296
 10
160.3150016908075
 20
402.202482828433
 42
0.0
 97
       30
330
2108
330
2106
330
2105
330
2103
330
2102
330
2101
330
20FF
330
2100
330
200A
330
2010
330
200B
330
200F
330
200E
330
200C
330
200D
330
2004
330
2007
330
2006
330
201F
330
201D
330
2021
330
2018
330
2023
330
2017
330
2112
330
2110
330
210D
330
210E
330
210B
330
210A
 75
     0
 76
     0
 52
45.0
 41
2.0
 77
     0
 78
     1
 53
45.0
 43
-452.4083715971074
 44
38.77320868429615
 45
-1.414213562373094
 46
1.414213562373095
 79
     0
 47
0.4088730969791932
 98
        2
 10
255.5163499528825
 20
342.7337468485716
 10
161.0096413347527
 20
390.1630251094866
  0
HATCH
  5
222E
330
1E
100
AcDbEntity
  8
SCHRAFF
100
AcDbHatch
 10
0.0
 20
0.0
 30
0.0
210
0.0
220
0.0
230
1.0
  2
_USER
 70
     0
 71
     1
 91
        2
 92
        7
 72
     0
 73
     1
 93
        4
 10
268.8150016908076
 20
327.5090824930015
 10
271.3150016908078
 20
327.5090824930015
 10
271.3150016908071
 20
467.5090824930014
 10
268.8150016908076
 20
467.5090824930014
 97
        4
330
200A
330
2127
330
211F
330
2126
 92
        7
 72
     0
 73
     1
 93
        4
 10
138.3150016908075
 20
327.5090824930016
 10
140.8150016908075
 20
327.5090824930016
 10
140.8150016908076
 20
467.5090824930017
 10
138.3150016908074
 20
467.5090824930015
 97
        4
330
200A
330
2129
330
211B
330
212A
 75
     0
 76
     0
 52
135.0
 41
2.0
 77
     0
 78
     1
 53
135.0
 43
-452.4083715971074
 44
38.77320868429615
 45
-1.414213562373095
 46
-1.414213562373094
 79
     0
 47
0.4088730969791932
 98
        2
 10
269.8355486246682
 20
426.9616051432278
 10
139.3262822250548
 20
418.3752690564972
  0
HATCH
  5
2242
330
1E
100
AcDbEntity
  8
SCHRAFF
100
AcDbHatch
 10
0.0
 20
0.0
 30
0.0
210
0.0
220
0.0
230
1.0
  2
NET
 70
     0
 71
     1
 91
        2
 92
        7
 72
     1
 73
     1
 93
        6
 10
268.8150016908076
 20
467.5090824930014
 42
0.0
 10
252.5804063611476
 20
467.5090824930015
 42
0.0
 10
253.610173251909
 20
465.3007402692518
 42
-0.1095178116832439
 10
255.9150016908074
 20
454.9043310304304
 42
0.0
 10
255.9150016908074
 20
453.5090824930014
 42
0.0
 10
268.8150016908076
 20
453.5090824930015
 42
0.0
 97
        6
330
200A
330
2016
330
2011
330
2015
330
21D9
330
2127
 92
        7
 72
     1
 73
     1
 93
        6
 10
156.0198301297059
 20
465.3007402692518
 42
0.0
 10
157.0495970204675
 20
467.5090824930016
 42
0.0
 10
140.8150016908076
 20
467.5090824930017
 42
0.0
 10
140.8150016908076
 20
453.5090824930017
 42
0.0
 10
153.7150016908074
 20
453.5090824930016
 42
0.0
 10
153.7150016908074
 20
454.9043310304305
 42
-0.1095178116832417
 97
        6
330
2010
330
200A
330
212A
330
21DA
330
200F
330
200B
 75
     0
 76
     1
 52
45.0
 41
20.0
 77
     0
 78
     2
 53
45.0
 43
-452.4083715971074
 44
38.77320868429615
 45
-1.767766952966368
 46
1.767766952966368
 79
     0
 53
135.0
 43
-452.4083715971074
 44
38.77320868429615
 45
-1.767766952966368
 46
-1.767766952966368
 79
     0
 47
0.4088730969791932
 98
        2
 10
264.5169887443403
 20
460.4891982038252
 10
152.0090025432955
 20
463.3513102327356
  0
HATCH
  5
227F
330
1E
100
AcDbEntity
  8
SCHRAFF
100
AcDbHatch
 10
0.0
 20
0.0
 30
0.0
210
0.0
220
0.0
230
1.0
  2
HONEY
 70
     0
 71
     1
 91
        2
 92
        7
 72
     1
 73
     1
 93
       15
 10
250.5550016908077
 20
406.4806132612274
 42
0.1420008527982403
 10
249.3150016908075
 20
402.202482828433
 42
0.0
 10
249.3150016908075
 20
379.8806030368494
 42
0.1450994323300631
 10
250.6074527604023
 20
375.5206962320861
 42
0.0
 10
253.8763250864151
 20
370.4916618843744
 42
-0.1450994323300669
 10
255.8150016908075
 20
363.9518016772294
 42
0.0
 10
255.8150016908075
 20
345.0090824930017
 42
0.0
 10
267.3150016908074
 20
345.0090824930017
 42
0.0
 10
268.8150016908076
 20
343.5090824930016
 42
0.0
 10
268.8150016908076
 20
453.5090824930014
 42
0.0
 10
255.9150016908074
 20
453.5090824930016
 42
0.0
 10
255.9150016908074
 20
447.9455075504079
 42
-0.1111415761503782
 10
253.533685282881
 20
437.2282925917782
 42
0.1092369723640028
 10
252.4150016908075
 20
432.1689494298064
 42
0.0
 10
252.4150016908075
 20
412.8978089104185
 42
-0.1420008527982231
 97
       15
330
21D9
330
2015
330
2014
330
2012
330
2013
330
2005
330
2009
330
2008
330
201E
330
201B
330
2020
330
2019
330
2121
330
2122
330
2127
 92
        7
 72
     1
 73
     1
 93
       15
 10
157.2150016908074
 20
412.8978089104185
 42
0.0
 10
157.2150016908074
 20
432.1689494298064
 42
0.1092369723637379
 10
156.0963180987392
 20
437.2282925917668
 42
-0.1111415761504294
 10
153.7150016908074
 20
447.9455075504003
 42
0.0
 10
153.7150016908074
 20
453.5090824930017
 42
0.0
 10
140.8150016908076
 20
453.5090824930017
 42
0.0
 10
140.8150016908075
 20
343.5090824930017
 42
0.0
 10
142.3150016908076
 20
345.0090824930016
 42
0.0
 10
153.8150016908074
 20
345.0090824930016
 42
0.0
 10
153.8150016908073
 20
363.9518016772294
 42
-0.1450994323300669
 10
155.7536782951998
 20
370.4916618843744
 42
0.0
 10
159.0225506212126
 20
375.5206962320863
 42
0.145099432330066
 10
160.3150016908075
 20
379.8806030368496
 42
0.0
 10
160.3150016908075
 20
402.202482828433
 42
0.1420008527982296
 10
159.0750016908075
 20
406.4806132612273
 42
-0.1420008527982289
 97
       15
330
200D
330
200C
330
200E
330
200F
330
21DA
330
212A
330
211E
330
211D
330
2018
330
2021
330
201D
330
201F
330
2006
330
2007
330
2004
 75
     0
 76
     1
 52
0.0
 41
30.0
 77
     0
 78
     3
 53
0.0
 43
-452.4083715971074
 44
38.77320868429615
 45
5.625
 46
3.247595249999999
 79
     2
 49
3.75
 49
-7.5
 53
120.0
 43
-452.4083715971074
 44
38.77320868429615
 45
-5.624999987709673
 46
3.247595271287468
 79
     2
 49
3.749999999999999
 49
-7.499999999999998
 53
60.0
 43
-452.4083715971074
 44
38.77320868429615
 45
0.0000000122903263
 46
6.495190521287468
 79
     2
 49
-7.5
 49
3.75
 47
0.4088730969791932
 98
        2
 10
257.1528309220811
 20
410.6066814603752
 10
150.3725215740973
 20
409.3800608212495
  0
ENDSEC
  0
SECTION
  2
OBJECTS
  0
DICTIONARY
  5
C
330
0
100
AcDbDictionary
281
     1
  3
ACAD_COLOR
350
DF
  3
ACAD_GROUP
350
D
  3
ACAD_LAYOUT
350
19
  3
ACAD_MATERIAL
350
DE
  3
ACAD_MLINESTYLE
350
16
  3
ACAD_PLOTSETTINGS
350
18
  3
ACAD_PLOTSTYLENAME
350
E
  3
AcDbVariableDictionary
350
EA
  0
DICTIONARY
  5
A0
330
1E
100
AcDbDictionary
280
     1
281
     1
  3
ACAD_LAYOUTSELFREF
360
D4
  0
DICTIONARY
  5
A2
330
1A
100
AcDbDictionary
280
     1
281
     1
  3
ACAD_LAYOUTSELFREF
360
D3
  0
DICTIONARY
  5
DF
102
{ACAD_REACTORS
330
C
102
}
330
C
100
AcDbDictionary
281
     1
  0
DICTIONARY
  5
D
102
{ACAD_REACTORS
330
C
102
}
330
C
100
AcDbDictionary
281
     1
  0
DICTIONARY
  5
19
102
{ACAD_REACTORS
330
C
102
}
330
C
100
AcDbDictionary
281
     1
  3
Layout1
350
1D
  3
Model
350
21
  0
DICTIONARY
  5
DE
102
{ACAD_REACTORS
330
C
102
}
330
C
100
AcDbDictionary
281
     1
  0
DICTIONARY
  5
16
102
{ACAD_REACTORS
330
C
102
}
330
C
100
AcDbDictionary
281
     1
  3
Standard
350
17
  0
DICTIONARY
  5
18
102
{ACAD_REACTORS
330
C
102
}
330
C
100
AcDbDictionary
281
     1
  0
ACDBDICTIONARYWDFLT
  5
E
102
{ACAD_REACTORS
330
C
102
}
330
C
100
AcDbDictionary
281
     1
  3
Normal
350
F
100
AcDbDictionaryWithDefault
340
F
  0
DICTIONARY
  5
EA
102
{ACAD_REACTORS
330
C
102
}
330
C
100
AcDbDictionary
281
     1
  3
DIMASSOC
350
EB
  3
PROJECTNAME
350
EC
  0
XRECORD
  5
D4
102
{ACAD_REACTORS
330
A0
102
}
330
A0
100
AcDbXrecord
280
     1
340
1E
  0
XRECORD
  5
D3
102
{ACAD_REACTORS
330
A2
102
}
330
A2
100
AcDbXrecord
280
     1
340
1A
  0
LAYOUT
  5
1D
102
{ACAD_REACTORS
330
19
102
}
330
19
100
AcDbPlotSettings
  1

  2
\\NT_WORK01\HP LaserJet 5000 PCL 6
  4

  6

 40
0.0
 41
0.0
 42
0.0
 43
0.0
 44
0.0
 45
0.0
 46
0.0
 47
0.0
 48
0.0
 49
0.0
140
0.0
141
0.0
142
1.0
143
1.0
 70
   688
 72
     0
 73
     0
 74
     5
  7

 75
    16
147
1.0
 76
     0
 77
     2
 78
   300
148
0.0
149
0.0
100
AcDbLayout
  1
Layout1
 70
     0
 71
     1
 10
0.0
 20
0.0
 11
12.0
 21
9.0
 12
0.0
 22
0.0
 32
0.0
 14
1.000000000000000E+20
 24
1.000000000000000E+20
 34
1.000000000000000E+20
 15
-1.000000000000000E+20
 25
-1.000000000000000E+20
 35
-1.000000000000000E+20
146
0.0
 13
0.0
 23
0.0
 33
0.0
 16
1.0
 26
0.0
 36
0.0
 17
0.0
 27
1.0
 37
0.0
 76
     0
330
1A
  0
LAYOUT
  5
21
102
{ACAD_REACTORS
330
19
102
}
330
19
100
AcDbPlotSettings
  1

  2
none_device
  4
Letter_(8.50_x_11.00_Inches)
  6

 40
6.349999904632568
 41
6.349999904632568
 42
6.350006103515625
 43
6.350006103515625
 44
215.8999938964844
 45
279.3999938964844
 46
0.0
 47
0.0
 48
0.0
 49
0.0
140
0.0
141
0.0
142
1.0
143
1.0
 70
 11952
 72
     0
 73
     1
 74
     0
  7

 75
     0
147
1.0
 76
     0
 77
     2
 78
   300
148
2305.466113510413
149
95.63236042095818
100
AcDbLayout
  1
Model
 70
     1
 71
     0
 10
0.0
 20
0.0
 11
12.0
 21
9.0
 12
0.0
 22
0.0
 32
0.0
 14
0.0
 24
0.0
 34
0.0
 15
0.0
 25
0.0
 35
0.0
146
0.0
 13
0.0
 23
0.0
 33
0.0
 16
1.0
 26
0.0
 36
0.0
 17
0.0
 27
1.0
 37
0.0
 76
     0
330
1E
  0
MLINESTYLE
  5
17
102
{ACAD_REACTORS
330
16
102
}
330
16
100
AcDbMlineStyle
  2
STANDARD
 70
     0
  3

 62
   256
 51
90.0
 52
90.0
 71
     2
 49
0.5
 62
   256
  6
BYLAYER
 49
-0.5
 62
   256
  6
BYLAYER
  0
ACDBPLACEHOLDER
  5
F
102
{ACAD_REACTORS
330
E
102
}
330
E
  0
DICTIONARYVAR
  5
EB
102
{ACAD_REACTORS
330
EA
102
}
330
EA
100
DictionaryVariables
280
     0
  1
1
  0
DICTIONARYVAR
  5
EC
102
{ACAD_REACTORS
330
EA
102
}
330
EA
100
DictionaryVariables
280
     0
  1

  0
ENDSEC
  0
EOF
