  0
SECTION
  2
HEADER
  9
$ACADVER
  1
AC1027
  9
$ACADMAINTVER
 70
    10
  9
$DWGCODEPAGE
  3
ANSI_1252
  9
$LASTSAVEDBY
  1
w.koehlhoff
  9
$REQUIREDVERSIONS
160
                 0
  9
$INSBASE
 10
0.0
 20
0.0
 30
0.0
  9
$EXTMIN
 10
-0.0096009592126052
 20
-0.0135784994583901
 30
-0.0000000000000129
  9
$EXTMAX
 10
210.0096188069425
 20
297.0136037412465
 30
0.0000000000000023
  9
$LIMMIN
 10
0.0
 20
0.0
  9
$LIMMAX
 10
210.0
 20
297.0
  9
$ORTHOMODE
 70
     1
  9
$REGENMODE
 70
     1
  9
$FILLMODE
 70
     1
  9
$QTEXTMODE
 70
     0
  9
$MIRRTEXT
 70
     1
  9
$LTSCALE
 40
10.0
  9
$ATTMODE
 70
     1
  9
$TEXTSIZE
 40
3.5
  9
$TRACEWID
 40
0.5
  9
$TEXTSTYLE
  7
STANDARD
  9
$CLAYER
  8
SCHRAFF
  9
$CELTYPE
  6
ByLayer
  9
$CECOLOR
 62
   256
  9
$CELTSCALE
 40
1.0
  9
$DISPSILH
 70
     0
  9
$DIMSCALE
 40
1.0
  9
$DIMASZ
 40
3.5
  9
$DIMEXO
 40
1.0
  9
$DIMDLI
 40
7.0
  9
$DIMRND
 40
0.0
  9
$DIMDLE
 40
0.0
  9
$DIMEXE
 40
1.0
  9
$DIMTP
 40
0.0
  9
$DIMTM
 40
0.0
  9
$DIMTXT
 40
3.5
  9
$DIMCEN
 40
1.5
  9
$DIMTSZ
 40
0.0
  9
$DIMTOL
 70
     0
  9
$DIMLIM
 70
     0
  9
$DIMTIH
 70
     0
  9
$DIMTOH
 70
     0
  9
$DIMSE1
 70
     0
  9
$DIMSE2
 70
     0
  9
$DIMTAD
 70
     1
  9
$DIMZIN
 70
     8
  9
$DIMBLK
  1

  9
$DIMASO
 70
     1
  9
$DIMSHO
 70
     0
  9
$DIMPOST
  1

  9
$DIMAPOST
  1

  9
$DIMALT
 70
     0
  9
$DIMALTD
 70
     2
  9
$DIMALTF
 40
25.4
  9
$DIMLFAC
 40
1.0
  9
$DIMTOFL
 70
     1
  9
$DIMTVP
 40
0.0
  9
$DIMTIX
 70
     0
  9
$DIMSOXD
 70
     0
  9
$DIMSAH
 70
     0
  9
$DIMBLK1
  1

  9
$DIMBLK2
  1

  9
$DIMSTYLE
  2
Standard
  9
$DIMCLRD
 70
     0
  9
$DIMCLRE
 70
     0
  9
$DIMCLRT
 70
     1
  9
$DIMTFAC
 40
0.5
  9
$DIMGAP
 40
1.5
  9
$DIMJUST
 70
     0
  9
$DIMSD1
 70
     0
  9
$DIMSD2
 70
     0
  9
$DIMTOLJ
 70
     1
  9
$DIMTZIN
 70
     8
  9
$DIMALTZ
 70
     8
  9
$DIMALTTZ
 70
     8
  9
$DIMUPT
 70
     0
  9
$DIMDEC
 70
     2
  9
$DIMTDEC
 70
     2
  9
$DIMALTU
 70
     2
  9
$DIMALTTD
 70
     2
  9
$DIMTXSTY
  7
STANDARD
  9
$DIMAUNIT
 70
     0
  9
$DIMADEC
 70
     2
  9
$DIMALTRND
 40
0.0
  9
$DIMAZIN
 70
     2
  9
$DIMDSEP
 70
    46
  9
$DIMATFIT
 70
     3
  9
$DIMFRAC
 70
     0
  9
$DIMLDRBLK
  1

  9
$DIMLUNIT
 70
     2
  9
$DIMLWD
 70
    -2
  9
$DIMLWE
 70
    -2
  9
$DIMTMOVE
 70
     0
  9
$DIMFXL
 40
1.0
  9
$DIMFXLON
 70
     0
  9
$DIMJOGANG
 40
0.7853981633974483
  9
$DIMTFILL
 70
     0
  9
$DIMTFILLCLR
 70
     0
  9
$DIMARCSYM
 70
     0
  9
$DIMLTYPE
  6

  9
$DIMLTEX1
  6

  9
$DIMLTEX2
  6

  9
$DIMTXTDIRECTION
 70
     0
  9
$LUNITS
 70
     2
  9
$LUPREC
 70
     2
  9
$SKETCHINC
 40
1.0
  9
$FILLETRAD
 40
0.0
  9
$AUNITS
 70
     0
  9
$AUPREC
 70
     0
  9
$MENU
  1
ACAD
  9
$ELEVATION
 40
0.0
  9
$PELEVATION
 40
0.0
  9
$THICKNESS
 40
0.0
  9
$LIMCHECK
 70
     0
  9
$CHAMFERA
 40
0.0
  9
$CHAMFERB
 40
0.0
  9
$CHAMFERC
 40
0.0
  9
$CHAMFERD
 40
0.0
  9
$SKPOLY
 70
     0
  9
$TDCREATE
 40
2455397.864709028
  9
$TDUCREATE
 40
2455397.781375695
  9
$TDUPDATE
 40
2456393.324768542
  9
$TDUUPDATE
 40
2456393.241435208
  9
$TDINDWG
 40
0.0580867245
  9
$TDUSRTIMER
 40
0.0580867245
  9
$USRTIMER
 70
     1
  9
$ANGBASE
 50
0.0
  9
$ANGDIR
 70
     0
  9
$PDMODE
 70
     0
  9
$PDSIZE
 40
0.0
  9
$PLINEWID
 40
0.0
  9
$SPLFRAME
 70
     0
  9
$SPLINETYPE
 70
     6
  9
$SPLINESEGS
 70
     8
  9
$HANDSEED
  5
97D
  9
$SURFTAB1
 70
     6
  9
$SURFTAB2
 70
     6
  9
$SURFTYPE
 70
     6
  9
$SURFU
 70
     6
  9
$SURFV
 70
     6
  9
$UCSBASE
  2

  9
$UCSNAME
  2

  9
$UCSORG
 10
0.0
 20
0.0
 30
0.0
  9
$UCSXDIR
 10
1.0
 20
0.0
 30
0.0
  9
$UCSYDIR
 10
0.0
 20
1.0
 30
0.0
  9
$UCSORTHOREF
  2

  9
$UCSORTHOVIEW
 70
     0
  9
$UCSORGTOP
 10
0.0
 20
0.0
 30
0.0
  9
$UCSORGBOTTOM
 10
0.0
 20
0.0
 30
0.0
  9
$UCSORGLEFT
 10
0.0
 20
0.0
 30
0.0
  9
$UCSORGRIGHT
 10
0.0
 20
0.0
 30
0.0
  9
$UCSORGFRONT
 10
0.0
 20
0.0
 30
0.0
  9
$UCSORGBACK
 10
0.0
 20
0.0
 30
0.0
  9
$PUCSBASE
  2

  9
$PUCSNAME
  2

  9
$PUCSORG
 10
0.0
 20
0.0
 30
0.0
  9
$PUCSXDIR
 10
1.0
 20
0.0
 30
0.0
  9
$PUCSYDIR
 10
0.0
 20
1.0
 30
0.0
  9
$PUCSORTHOREF
  2

  9
$PUCSORTHOVIEW
 70
     0
  9
$PUCSORGTOP
 10
0.0
 20
0.0
 30
0.0
  9
$PUCSORGBOTTOM
 10
0.0
 20
0.0
 30
0.0
  9
$PUCSORGLEFT
 10
0.0
 20
0.0
 30
0.0
  9
$PUCSORGRIGHT
 10
0.0
 20
0.0
 30
0.0
  9
$PUCSORGFRONT
 10
0.0
 20
0.0
 30
0.0
  9
$PUCSORGBACK
 10
0.0
 20
0.0
 30
0.0
  9
$USERI1
 70
     0
  9
$USERI2
 70
     0
  9
$USERI3
 70
     0
  9
$USERI4
 70
     0
  9
$USERI5
 70
     0
  9
$USERR1
 40
0.0
  9
$USERR2
 40
0.0
  9
$USERR3
 40
0.0
  9
$USERR4
 40
0.0
  9
$USERR5
 40
0.0
  9
$WORLDVIEW
 70
     1
  9
$SHADEDGE
 70
     3
  9
$SHADEDIF
 70
    70
  9
$TILEMODE
 70
     1
  9
$MAXACTVP
 70
    16
  9
$PINSBASE
 10
0.0
 20
0.0
 30
0.0
  9
$PLIMCHECK
 70
     0
  9
$PEXTMIN
 10
1.000000000000000E+20
 20
1.000000000000000E+20
 30
1.000000000000000E+20
  9
$PEXTMAX
 10
-1.000000000000000E+20
 20
-1.000000000000000E+20
 30
-1.000000000000000E+20
  9
$PLIMMIN
 10
0.0
 20
0.0
  9
$PLIMMAX
 10
12.0
 20
9.0
  9
$UNITMODE
 70
     0
  9
$VISRETAIN
 70
     0
  9
$PLINEGEN
 70
     0
  9
$PSLTSCALE
 70
     0
  9
$TREEDEPTH
 70
  3020
  9
$CMLSTYLE
  2
Standard
  9
$CMLJUST
 70
     0
  9
$CMLSCALE
 40
1.0
  9
$PROXYGRAPHICS
 70
     1
  9
$MEASUREMENT
 70
     0
  9
$CELWEIGHT
370
    -1
  9
$ENDCAPS
280
     0
  9
$JOINSTYLE
280
     0
  9
$LWDISPLAY
290
     0
  9
$INSUNITS
 70
     0
  9
$HYPERLINKBASE
  1

  9
$STYLESHEET
  1
monochrome1.ctb
  9
$XEDIT
290
     1
  9
$CEPSNTYPE
380
     0
  9
$PSTYLEMODE
290
     1
  9
$FINGERPRINTGUID
  2
{D68B0D02-A558-11D7-B632-000102183313}
  9
$VERSIONGUID
  2
{0BEFC1B3-3588-4C63-8F11-234AFBA8AF89}
  9
$EXTNAMES
290
     1
  9
$PSVPSCALE
 40
0.0
  9
$OLESTARTUP
290
     0
  9
$SORTENTS
280
   127
  9
$INDEXCTL
280
     0
  9
$HIDETEXT
280
     0
  9
$XCLIPFRAME
280
     0
  9
$HALOGAP
280
     0
  9
$OBSCOLOR
 70
   257
  9
$OBSLTYPE
280
     0
  9
$INTERSECTIONDISPLAY
280
     0
  9
$INTERSECTIONCOLOR
 70
   257
  9
$DIMASSOC
280
     1
  9
$PROJECTNAME
  1

  9
$CAMERADISPLAY
290
     0
  9
$LENSLENGTH
 40
50.0
  9
$CAMERAHEIGHT
 40
0.0
  9
$STEPSPERSEC
 40
2.0
  9
$STEPSIZE
 40
6.0
  9
$3DDWFPREC
 40
2.0
  9
$PSOLWIDTH
 40
0.25
  9
$PSOLHEIGHT
 40
4.0
  9
$LOFTANG1
 40
1.570796326794896
  9
$LOFTANG2
 40
1.570796326794896
  9
$LOFTMAG1
 40
0.0
  9
$LOFTMAG2
 40
0.0
  9
$LOFTPARAM
 70
     7
  9
$LOFTNORMALS
280
     1
  9
$LATITUDE
 40
37.795
  9
$LONGITUDE
 40
-122.394
  9
$NORTHDIRECTION
 40
0.0
  9
$TIMEZONE
 70
 -8000
  9
$LIGHTGLYPHDISPLAY
280
     1
  9
$TILEMODELIGHTSYNCH
280
     1
  9
$CMATERIAL
347
444
  9
$SOLIDHIST
280
     0
  9
$SHOWHIST
280
     1
  9
$DWFFRAME
280
     2
  9
$DGNFRAME
280
     0
  9
$REALWORLDSCALE
290
     1
  9
$INTERFERECOLOR
 62
     1
  9
$INTERFEREOBJVS
345
466
  9
$INTERFEREVPVS
346
463
  9
$CSHADOW
280
     0
  9
$SHADOWPLANELOCATION
 40
0.0
  0
ENDSEC
  0
SECTION
  2
CLASSES
  0
CLASS
  1
ACDBDICTIONARYWDFLT
  2
AcDbDictionaryWithDefault
  3
ObjectDBX Classes
 90
        0
 91
        1
280
     0
281
     0
  0
CLASS
  1
DICTIONARYVAR
  2
AcDbDictionaryVar
  3
ObjectDBX Classes
 90
        0
 91
       11
280
     0
281
     0
  0
CLASS
  1
MATERIAL
  2
AcDbMaterial
  3
ObjectDBX Classes
 90
     1153
 91
        3
280
     0
281
     0
  0
CLASS
  1
VISUALSTYLE
  2
AcDbVisualStyle
  3
ObjectDBX Classes
 90
     4095
 91
       24
280
     0
281
     0
  0
CLASS
  1
TABLESTYLE
  2
AcDbTableStyle
  3
ObjectDBX Classes
 90
     4095
 91
        1
280
     0
281
     0
  0
CLASS
  1
SCALE
  2
AcDbScale
  3
ObjectDBX Classes
 90
     1153
 91
       17
280
     0
281
     0
  0
CLASS
  1
MLEADERSTYLE
  2
AcDbMLeaderStyle
  3
ACDB_MLEADERSTYLE_CLASS
 90
     4095
 91
        1
280
     0
281
     0
  0
CLASS
  1
ACDBSECTIONVIEWSTYLE
  2
AcDbSectionViewStyle
  3
ObjectDBX Classes
 90
     1025
 91
        1
280
     0
281
     0
  0
CLASS
  1
ACDBDETAILVIEWSTYLE
  2
AcDbDetailViewStyle
  3
ObjectDBX Classes
 90
     1025
 91
        1
280
     0
281
     0
  0
CLASS
  1
SORTENTSTABLE
  2
AcDbSortentsTable
  3
ObjectDBX Classes
 90
        0
 91
        1
280
     0
281
     0
  0
CLASS
  1
CELLSTYLEMAP
  2
AcDbCellStyleMap
  3
ObjectDBX Classes
 90
     1152
 91
        3
280
     0
281
     0
  0
ENDSEC
  0
SECTION
  2
TABLES
  0
TABLE
  2
VPORT
  5
8
102
{ACAD_XDICTIONARY
360
883
102
}
330
0
100
AcDbSymbolTable
 70
     1
  0
VPORT
  5
442
330
8
100
AcDbSymbolTableRecord
100
AcDbViewportTableRecord
  2
*Active
 70
     0
 10
0.0
 20
0.0
 11
1.0
 21
1.0
 12
105.0000089238649
 22
148.500012620894
 13
0.0
 23
0.0
 14
1.0
 24
1.0
 15
10.0
 25
10.0
 16
0.0
 26
0.0
 36
1.0
 17
0.0
 27
0.0
 37
0.0
 40
299.0318651354678
 41
1.699324324324324
 42
50.0
 43
0.0
 44
0.0
 50
0.0
 51
0.0
 71
     0
 72
  1500
 73
     1
 74
     0
 75
     0
 76
     0
 77
     0
 78
     0
281
     0
 65
     1
110
0.0
120
0.0
130
0.0
111
1.0
121
0.0
131
0.0
112
0.0
122
1.0
132
0.0
 79
     0
146
0.0
348
462
 60
     3
 61
     5
292
     1
282
     1
141
0.0
142
0.0
 63
   250
421
  3355443
1001
ACAD_NAV_VCDISPLAY
1070
     3
  0
ENDTAB
  0
TABLE
  2
LTYPE
  5
5
330
0
100
AcDbSymbolTable
 70
     4
  0
LTYPE
  5
13
330
5
100
AcDbSymbolTableRecord
100
AcDbLinetypeTableRecord
  2
ByBlock
 70
     0
  3

 72
    65
 73
     0
 40
0.0
  0
LTYPE
  5
14
330
5
100
AcDbSymbolTableRecord
100
AcDbLinetypeTableRecord
  2
ByLayer
 70
     0
  3

 72
    65
 73
     0
 40
0.0
  0
LTYPE
  5
15
330
5
100
AcDbSymbolTableRecord
100
AcDbLinetypeTableRecord
  2
Continuous
 70
     0
  3
Solid line
 72
    65
 73
     0
 40
0.0
  0
LTYPE
  5
25
330
5
100
AcDbSymbolTableRecord
100
AcDbLinetypeTableRecord
  2
STRICHPUNKT
 70
     0
  3
__ . __ . __ . __ . __ . __ . __ . __ . __ . __
 72
    65
 73
     4
 40
1.0
 49
0.5
 74
     0
 49
-0.25
 74
     0
 49
0.0
 74
     0
 49
-0.25
 74
     0
  0
LTYPE
  5
48C
330
5
100
AcDbSymbolTableRecord
100
AcDbLinetypeTableRecord
  2
PHANTOM2
 70
     0
  3
Phantom (.5x) ___ _ _ ___ _ _ ___ _ _ ___ _ _
 72
    65
 73
     6
 40
1.25
 49
0.625
 74
     0
 49
-0.125
 74
     0
 49
0.125
 74
     0
 49
-0.125
 74
     0
 49
0.125
 74
     0
 49
-0.125
 74
     0
  0
ENDTAB
  0
TABLE
  2
LAYER
  5
2
102
{ACAD_XDICTIONARY
360
6B1
102
}
330
0
100
AcDbSymbolTable
 70
     9
  0
LAYER
  5
10
102
{ACAD_XDICTIONARY
360
4F5
102
}
330
2
100
AcDbSymbolTableRecord
100
AcDbLayerTableRecord
  2
0
 70
     0
 62
     7
  6
Continuous
370
    -3
390
F
347
454
348
0
  0
LAYER
  5
2A
102
{ACAD_XDICTIONARY
360
4F7
102
}
330
2
100
AcDbSymbolTableRecord
100
AcDbLayerTableRecord
  2
VOLL
 70
     0
 62
     1
  6
Continuous
370
    -3
390
F
347
454
348
0
  0
LAYER
  5
2B
102
{ACAD_XDICTIONARY
360
4F9
102
}
330
2
100
AcDbSymbolTableRecord
100
AcDbLayerTableRecord
  2
HILF
 70
     0
 62
     2
  6
Continuous
370
    -3
390
F
347
454
348
0
  0
LAYER
  5
2C
102
{ACAD_XDICTIONARY
360
4FB
102
}
330
2
100
AcDbSymbolTableRecord
100
AcDbLayerTableRecord
  2
MITTEL
 70
     0
 62
     2
  6
STRICHPUNKT
370
    -3
390
F
347
454
348
0
  0
LAYER
  5
2F
102
{ACAD_XDICTIONARY
360
4FD
102
}
330
2
100
AcDbSymbolTableRecord
100
AcDbLayerTableRecord
  2
BEM
 70
     0
 62
     7
  6
Continuous
370
    -3
390
F
347
454
348
0
  0
LAYER
  5
30
102
{ACAD_XDICTIONARY
360
4FF
102
}
330
2
100
AcDbSymbolTableRecord
100
AcDbLayerTableRecord
  2
STEMPEL
 70
     0
 62
     3
  6
Continuous
370
    -3
390
F
347
454
348
0
  0
LAYER
  5
31
102
{ACAD_XDICTIONARY
360
501
102
}
330
2
100
AcDbSymbolTableRecord
100
AcDbLayerTableRecord
  2
TEXT
 70
     0
 62
     7
  6
Continuous
370
    -3
390
F
347
454
348
0
  0
LAYER
  5
1D3
330
2
100
AcDbSymbolTableRecord
100
AcDbLayerTableRecord
  2
Defpoints
 70
     0
 62
     7
  6
Continuous
290
     0
370
    -3
390
F
347
454
348
0
  0
LAYER
  5
22F
102
{ACAD_XDICTIONARY
360
503
102
}
330
2
100
AcDbSymbolTableRecord
100
AcDbLayerTableRecord
  2
SCHRAFF
 70
     0
 62
     7
  6
Continuous
370
    -3
390
F
347
454
348
0
  0
ENDTAB
  0
TABLE
  2
STYLE
  5
3
330
0
100
AcDbSymbolTable
 70
     3
  0
STYLE
  5
11
330
3
100
AcDbSymbolTableRecord
100
AcDbTextStyleTableRecord
  2
STANDARD
 70
     0
 40
0.0
 41
0.8
 50
0.0
 71
     0
 42
3.5
  3
simplex.shx
  4

  0
STYLE
  5
24
330
3
100
AcDbSymbolTableRecord
100
AcDbTextStyleTableRecord
  2
GREEKS
 70
     0
 40
0.0
 41
0.8
 50
0.0
 71
     0
 42
2.5
  3
SIMPLEX.shx
  4

  0
ENDTAB
  0
TABLE
  2
VIEW
  5
6
330
0
100
AcDbSymbolTable
 70
     0
  0
ENDTAB
  0
TABLE
  2
UCS
  5
7
330
0
100
AcDbSymbolTable
 70
     0
  0
ENDTAB
  0
TABLE
  2
APPID
  5
9
330
0
100
AcDbSymbolTable
 70
     8
  0
APPID
  5
12
330
9
100
AcDbSymbolTableRecord
100
AcDbRegAppTableRecord
  2
ACAD
 70
     0
  0
APPID
  5
505
330
9
100
AcDbSymbolTableRecord
100
AcDbRegAppTableRecord
  2
ACAD_NAV_VCDISPLAY
 70
     0
  0
APPID
  5
5F3
330
9
100
AcDbSymbolTableRecord
100
AcDbRegAppTableRecord
  2
AcadAnnoMonitorAlertIconDisabled
 70
     0
  0
APPID
  5
5F4
330
9
100
AcDbSymbolTableRecord
100
AcDbRegAppTableRecord
  2
ACAD_EXEMPT_FROM_CAD_STANDARDS
 70
     0
  0
APPID
  5
784
330
9
100
AcDbSymbolTableRecord
100
AcDbRegAppTableRecord
  2
GradientColor1ACI
 70
     0
  0
APPID
  5
785
330
9
100
AcDbSymbolTableRecord
100
AcDbRegAppTableRecord
  2
GradientColor2ACI
 70
     0
  0
APPID
  5
8BB
330
9
100
AcDbSymbolTableRecord
100
AcDbRegAppTableRecord
  2
ACAD_MLEADERVER
 70
     0
  0
APPID
  5
96D
330
9
100
AcDbSymbolTableRecord
100
AcDbRegAppTableRecord
  2
ACAD_PSEXT
 70
     0
  0
ENDTAB
  0
TABLE
  2
DIMSTYLE
  5
A
330
0
100
AcDbSymbolTable
 70
     2
100
AcDbDimStyleTable
 71
     1
340
9D
  0
DIMSTYLE
105
9D
102
{ACAD_REACTORS
330
39A
330
424
330
5B0
330
5BD
330
5CA
330
5E6
102
}
330
A
100
AcDbSymbolTableRecord
100
AcDbDimStyleTableRecord
  2
Standard
 70
     0
340
11
  0
ENDTAB
  0
TABLE
  2
BLOCK_RECORD
  5
1
330
0
100
AcDbSymbolTable
 70
    12
  0
BLOCK_RECORD
  5
1E
102
{ACAD_XDICTIONARY
360
A0
102
}
330
1
100
AcDbSymbolTableRecord
100
AcDbBlockTableRecord
  2
*Model_Space
340
21
 70
     0
280
     1
281
     0
  0
BLOCK_RECORD
  5
1A
102
{ACAD_XDICTIONARY
360
A2
102
}
330
1
100
AcDbSymbolTableRecord
100
AcDbBlockTableRecord
  2
*Paper_Space
340
1D
 70
     0
280
     1
281
     0
  0
BLOCK_RECORD
  5
22
330
1
100
AcDbSymbolTableRecord
100
AcDbBlockTableRecord
  2
LOGO
340
0
102
{BLKREFS
331
9B
102
}
 70
     0
280
     1
281
     0
  0
BLOCK_RECORD
  5
39B
330
1
100
AcDbSymbolTableRecord
100
AcDbBlockTableRecord
  2
*D4
340
0
 70
     0
280
     1
281
     0
  0
BLOCK_RECORD
  5
425
330
1
100
AcDbSymbolTableRecord
100
AcDbBlockTableRecord
  2
*D5
340
0
 70
     0
280
     1
281
     0
  0
BLOCK_RECORD
  5
5B1
330
1
100
AcDbSymbolTableRecord
100
AcDbBlockTableRecord
  2
*D6
340
0
 70
     0
280
     1
281
     0
  0
BLOCK_RECORD
  5
5BE
330
1
100
AcDbSymbolTableRecord
100
AcDbBlockTableRecord
  2
*D7
340
0
 70
     0
280
     1
281
     0
  0
BLOCK_RECORD
  5
5CB
330
1
100
AcDbSymbolTableRecord
100
AcDbBlockTableRecord
  2
*D8
340
0
 70
     0
280
     1
281
     0
  0
BLOCK_RECORD
  5
5E7
330
1
100
AcDbSymbolTableRecord
100
AcDbBlockTableRecord
  2
*D10
340
0
 70
     0
280
     1
281
     0
  0
ENDTAB
  0
ENDSEC
  0
SECTION
  2
BLOCKS
  0
BLOCK
  5
35
330
1E
100
AcDbEntity
  8
0
100
AcDbBlockBegin
  2
*Model_Space
 70
     0
 10
0.0
 20
0.0
 30
0.0
  3
*Model_Space
  1

  0
ENDBLK
  5
36
330
1E
100
AcDbEntity
  8
0
100
AcDbBlockEnd
  0
BLOCK
  5
33
330
1A
100
AcDbEntity
 67
     1
  8
0
100
AcDbBlockBegin
  2
*Paper_Space
 70
     0
 10
0.0
 20
0.0
 30
0.0
  3
*Paper_Space
  1

  0
ENDBLK
  5
34
330
1A
100
AcDbEntity
 67
     1
  8
0
100
AcDbBlockEnd
  0
BLOCK
  5
37
330
22
100
AcDbEntity
  8
0
100
AcDbBlockBegin
  2
LOGO
 70
     0
 10
0.0
 20
0.0
 30
0.0
  3
LOGO
  1

  0
ARC
  5
38
330
22
100
AcDbEntity
  8
0
100
AcDbCircle
 10
11.59973089678112
 20
-9.271599258481501
 30
0.0
 40
4.5
100
AcDbArc
 50
270.0
 51
231.0575587310159
  0
LINE
  5
39
330
22
100
AcDbEntity
  8
0
100
AcDbLine
 10
3.599730896781125
 20
-4.771599258481529
 30
0.0
 11
3.599730896781153
 21
-11.77159925848133
 31
0.0
  0
LINE
  5
3A
330
22
100
AcDbEntity
  8
0
100
AcDbLine
 10
2.599730896781125
 20
-4.771599258481529
 30
0.0
 11
2.599730896781153
 21
-11.77159925848133
 31
0.0
  0
CIRCLE
  5
3B
330
22
100
AcDbEntity
  8
0
100
AcDbCircle
 10
11.59973089678112
 20
-9.271599258481501
 30
0.0
 40
3.5
  0
ARC
  5
3C
330
22
100
AcDbEntity
  8
0
100
AcDbCircle
 10
31.59973089678115
 20
-9.271599258481472
 30
0.0
 40
4.5
100
AcDbArc
 50
270.0
 51
231.0575587310182
  0
LINE
  5
3D
330
22
100
AcDbEntity
  8
0
100
AcDbLine
 10
17.59973089678112
 20
-4.771599258481472
 30
0.0
 11
17.59973089678115
 21
-13.77159925848147
 31
0.0
  0
ARC
  5
3E
330
22
100
AcDbEntity
  8
0
100
AcDbCircle
 10
22.59973089678116
 20
-7.271599258481472
 30
0.0
 40
2.5
100
AcDbArc
 50
293.1161887722295
 51
90.0
  0
CIRCLE
  5
3F
330
22
100
AcDbEntity
  8
0
100
AcDbCircle
 10
31.59973089678115
 20
-9.271599258481472
 30
0.0
 40
3.5
  0
ARC
  5
40
330
22
100
AcDbEntity
  8
0
100
AcDbCircle
 10
4.599730896781153
 20
-11.77159925848133
 30
0.0
 40
1.0
100
AcDbArc
 50
180.0
 51
270.0
  0
ARC
  5
41
330
22
100
AcDbEntity
  8
0
100
AcDbCircle
 10
4.599730896781153
 20
-11.77159925848133
 30
0.0
 40
2.0
100
AcDbArc
 50
179.9999999999992
 51
270.0
  0
LINE
  5
42
330
22
100
AcDbEntity
  8
0
100
AcDbLine
 10
11.59973089678115
 20
-13.77159925848144
 30
0.0
 11
4.599730896781153
 21
-13.77159925848147
 31
0.0
  0
LINE
  5
43
330
22
100
AcDbEntity
  8
0
100
AcDbLine
 10
8.771303772034769
 20
-12.77159925848136
 30
0.0
 11
4.599730896781153
 21
-12.77159925848133
 31
0.0
  0
LINE
  5
44
330
22
100
AcDbEntity
  8
0
100
AcDbLine
 10
31.59973089678115
 20
-13.77159925848147
 30
0.0
 11
23.6715276665056
 21
-13.77159925848144
 31
0.0
  0
LINE
  5
45
330
22
100
AcDbEntity
  8
0
100
AcDbLine
 10
23.56565672307022
 20
-9.51278021337896
 30
0.0
 11
24.4388546544846
 21
-12.77159925848144
 31
0.0
  0
LINE
  5
46
330
22
100
AcDbEntity
  8
0
100
AcDbLine
 10
22.59973089678116
 20
-9.771599258481472
 30
0.0
 11
18.59973089678112
 21
-9.771599258481472
 31
0.0
  0
LINE
  5
47
330
22
100
AcDbEntity
  8
0
100
AcDbLine
 10
18.59973089678115
 20
-13.77159925848144
 30
0.0
 11
17.59973089678115
 21
-13.77159925848144
 31
0.0
  0
LINE
  5
48
330
22
100
AcDbEntity
  8
0
100
AcDbLine
 10
18.59973089678115
 20
-9.771599258481472
 30
0.0
 11
18.59973089678115
 21
-13.77159925848144
 31
0.0
  0
LINE
  5
49
330
22
100
AcDbEntity
  8
0
100
AcDbLine
 10
22.59973089678116
 20
-9.771599258481472
 30
0.0
 11
23.67152766650562
 21
-13.77159925848147
 31
0.0
  0
ARC
  5
4A
330
22
100
AcDbEntity
  8
0
100
AcDbCircle
 10
22.59973089678116
 20
-7.271599258481472
 30
0.0
 40
2.5
100
AcDbArc
 50
270.0
 51
270.0000000000007
  0
LINE
  5
4B
330
22
100
AcDbEntity
  8
0
100
AcDbLine
 10
28.77130377203494
 20
-12.77159925848147
 30
0.0
 11
24.43885465448463
 21
-12.77159925848144
 31
0.0
  0
LINE
  5
4C
330
22
100
AcDbEntity
  8
0
100
AcDbLine
 10
3.599730896781125
 20
-4.771599258481472
 30
0.0
 11
2.599730896781125
 21
-4.771599258481472
 31
0.0
  0
LINE
  5
4D
330
22
100
AcDbEntity
  8
0
100
AcDbLine
 10
22.59973089678116
 20
-8.771599258481472
 30
0.0
 11
18.59973089678115
 21
-8.771599258481472
 31
0.0
  0
LINE
  5
4E
330
22
100
AcDbEntity
  8
0
100
AcDbLine
 10
22.59973089678116
 20
-5.771599258481472
 30
0.0
 11
18.59973089678115
 21
-5.771599258481472
 31
0.0
  0
LINE
  5
4F
330
22
100
AcDbEntity
  8
0
100
AcDbLine
 10
22.59973089678116
 20
-4.771599258481472
 30
0.0
 11
17.59973089678115
 21
-4.771599258481472
 31
0.0
  0
LINE
  5
50
330
22
100
AcDbEntity
  8
0
100
AcDbLine
 10
18.59973089678115
 20
-5.771599258481472
 30
0.0
 11
18.59973089678115
 21
-8.771599258481472
 31
0.0
  0
ARC
  5
51
330
22
100
AcDbEntity
  8
0
100
AcDbCircle
 10
22.59973089678116
 20
-7.271599258481472
 30
0.0
 40
1.5
100
AcDbArc
 50
270.0
 51
90.0
  0
ENDBLK
  5
52
330
22
100
AcDbEntity
  8
0
100
AcDbBlockEnd
  0
BLOCK
  5
3A5
330
39B
100
AcDbEntity
  8
0
100
AcDbBlockBegin
  2
*D4
 70
     1
 10
0.0
 20
0.0
 30
0.0
  3
*D4
  1

  0
LINE
  5
693
330
39B
100
AcDbEntity
  8
BEM
 62
     0
440
 16777216
370
    -2
100
AcDbLine
 10
89.85228017813742
 20
134.4208204340445
 30
0.0
 11
89.85228017813742
 21
114.8944077794467
 31
0.0
  0
LINE
  5
694
330
39B
100
AcDbEntity
  8
BEM
 62
     0
440
 16777216
370
    -2
100
AcDbLine
 10
142.8522801781374
 20
134.4208204340443
 30
0.0
 11
142.8522801781374
 21
114.8944077794467
 31
0.0
  0
LINE
  5
695
330
39B
100
AcDbEntity
  8
BEM
 62
     0
440
 16777216
370
    -2
100
AcDbLine
 10
93.35228017813742
 20
115.8944077794467
 30
0.0
 11
139.3522801781374
 21
115.8944077794467
 31
0.0
  0
SOLID
  5
696
330
39B
100
AcDbEntity
  8
BEM
 62
     0
440
 16777216
100
AcDbTrace
 10
93.35228017813742
 20
116.47774111278
 30
0.0
 11
93.35228017813742
 21
115.3110744461134
 31
0.0
 12
89.85228017813742
 22
115.8944077794467
 32
0.0
 13
89.85228017813742
 23
115.8944077794467
 33
0.0
  0
SOLID
  5
697
330
39B
100
AcDbEntity
  8
BEM
 62
     0
440
 16777216
100
AcDbTrace
 10
139.3522801781374
 20
116.47774111278
 30
0.0
 11
139.3522801781374
 21
115.3110744461134
 31
0.0
 12
142.8522801781374
 22
115.8944077794467
 32
0.0
 13
142.8522801781374
 23
115.8944077794467
 33
0.0
  0
MTEXT
  5
698
330
39B
100
AcDbEntity
  8
BEM
 62
     1
440
 16777216
100
AcDbMText
 10
116.3522801781374
 20
119.1444077794467
 30
0.0
 40
3.5
 41
0.0
 46
0.0
 71
     5
 72
     1
  1
\A1;%%c53
 73
     1
 44
1.0
  0
POINT
  5
699
330
39B
100
AcDbEntity
  8
Defpoints
 62
     0
440
 16777216
100
AcDbPoint
 10
89.85228017813742
 20
135.4208204340445
 30
0.0
  0
POINT
  5
69A
330
39B
100
AcDbEntity
  8
Defpoints
 62
     0
440
 16777216
100
AcDbPoint
 10
142.8522801781374
 20
135.4208204340443
 30
0.0
  0
POINT
  5
69B
330
39B
100
AcDbEntity
  8
Defpoints
 62
     0
440
 16777216
100
AcDbPoint
 10
142.8522801781374
 20
115.8944077794467
 30
0.0
  0
ENDBLK
  5
3A6
330
39B
100
AcDbEntity
  8
0
100
AcDbBlockEnd
  0
BLOCK
  5
42F
330
425
100
AcDbEntity
  8
0
100
AcDbBlockBegin
  2
*D5
 70
     1
 10
0.0
 20
0.0
 30
0.0
  3
*D5
  1

  0
LINE
  5
929
330
425
100
AcDbEntity
  8
BEM
 62
     0
440
 16777216
370
    -2
100
AcDbLine
 10
70.85228017813742
 20
243.4208204340444
 30
0.0
 11
52.11711440780713
 21
243.4208204340445
 31
0.0
  0
LINE
  5
92A
330
425
100
AcDbEntity
  8
BEM
 62
     0
440
 16777216
370
    -2
100
AcDbLine
 10
89.46470082281891
 20
128.4208204340445
 30
0.0
 11
52.1171144078071
 21
128.4208204340445
 31
0.0
  0
LINE
  5
92B
330
425
100
AcDbEntity
  8
BEM
 62
     0
440
 16777216
370
    -2
100
AcDbLine
 10
53.11711440780712
 20
239.9208204340445
 30
0.0
 11
53.1171144078071
 21
131.9208204340445
 31
0.0
  0
SOLID
  5
92C
330
425
100
AcDbEntity
  8
BEM
 62
     0
440
 16777216
100
AcDbTrace
 10
52.53378107447378
 20
239.9208204340445
 30
0.0
 11
53.70044774114045
 21
239.9208204340445
 31
0.0
 12
53.11711440780713
 22
243.4208204340445
 32
0.0
 13
53.11711440780713
 23
243.4208204340445
 33
0.0
  0
SOLID
  5
92D
330
425
100
AcDbEntity
  8
BEM
 62
     0
440
 16777216
100
AcDbTrace
 10
52.53378107447376
 20
131.9208204340445
 30
0.0
 11
53.70044774114044
 21
131.9208204340445
 31
0.0
 12
53.1171144078071
 22
128.4208204340445
 32
0.0
 13
53.1171144078071
 23
128.4208204340445
 33
0.0
  0
MTEXT
  5
92E
330
425
100
AcDbEntity
  8
BEM
 62
     1
440
 16777216
100
AcDbMText
 10
49.86711440780709
 20
185.9208204340445
 30
0.0
 40
3.5
 41
0.0
 46
0.0
 71
     5
 72
     1
  1
\A1;115
 11
0.0000000000000001
 21
1.0
 31
0.0
 73
     1
 44
1.0
  0
POINT
  5
92F
330
425
100
AcDbEntity
  8
Defpoints
 62
     0
440
 16777216
100
AcDbPoint
 10
71.85228017813741
 20
243.4208204340444
 30
0.0
  0
POINT
  5
930
330
425
100
AcDbEntity
  8
Defpoints
 62
     0
440
 16777216
100
AcDbPoint
 10
90.4647008228189
 20
128.4208204340445
 30
0.0
  0
POINT
  5
931
330
425
100
AcDbEntity
  8
Defpoints
 62
     0
440
 16777216
100
AcDbPoint
 10
53.1171144078071
 20
128.4208204340445
 30
0.0
  0
ENDBLK
  5
430
330
425
100
AcDbEntity
  8
0
100
AcDbBlockEnd
  0
BLOCK
  5
5B2
330
5B1
100
AcDbEntity
  8
0
100
AcDbBlockBegin
  2
*D6
 70
     1
 10
0.0
 20
0.0
 30
0.0
  3
*D6
  1

  0
LINE
  5
917
330
5B1
100
AcDbEntity
  8
BEM
 62
     0
440
 16777216
370
    -2
100
AcDbLine
 10
70.85228017813739
 20
243.4208204340444
 30
0.0
 11
59.71067600334933
 21
243.4208204340445
 31
0.0
  0
LINE
  5
918
330
5B1
100
AcDbEntity
  8
BEM
 62
     0
440
 16777216
370
    -2
100
AcDbLine
 10
70.85228017813742
 20
158.4208204340445
 30
0.0
 11
59.7106760033493
 21
158.4208204340445
 31
0.0
  0
LINE
  5
919
330
5B1
100
AcDbEntity
  8
BEM
 62
     0
440
 16777216
370
    -2
100
AcDbLine
 10
60.71067600334932
 20
239.9208204340445
 30
0.0
 11
60.71067600334931
 21
161.9208204340445
 31
0.0
  0
SOLID
  5
91A
330
5B1
100
AcDbEntity
  8
BEM
 62
     0
440
 16777216
100
AcDbTrace
 10
60.12734267001598
 20
239.9208204340445
 30
0.0
 11
61.29400933668265
 21
239.9208204340445
 31
0.0
 12
60.71067600334933
 22
243.4208204340445
 32
0.0
 13
60.71067600334933
 23
243.4208204340445
 33
0.0
  0
SOLID
  5
91B
330
5B1
100
AcDbEntity
  8
BEM
 62
     0
440
 16777216
100
AcDbTrace
 10
60.12734267001597
 20
161.9208204340445
 30
0.0
 11
61.29400933668264
 21
161.9208204340445
 31
0.0
 12
60.71067600334931
 22
158.4208204340445
 32
0.0
 13
60.71067600334931
 23
158.4208204340445
 33
0.0
  0
MTEXT
  5
91C
330
5B1
100
AcDbEntity
  8
BEM
 62
     1
440
 16777216
100
AcDbMText
 10
57.46067600334928
 20
200.9208204340445
 30
0.0
 40
3.5
 41
0.0
 46
0.0
 71
     5
 72
     1
  1
\A1;85
 11
0.0000000000000001
 21
1.0
 31
0.0
 73
     1
 44
1.0
  0
POINT
  5
91D
330
5B1
100
AcDbEntity
  8
Defpoints
 62
     0
440
 16777216
100
AcDbPoint
 10
71.85228017813739
 20
243.4208204340444
 30
0.0
  0
POINT
  5
91E
330
5B1
100
AcDbEntity
  8
Defpoints
 62
     0
440
 16777216
100
AcDbPoint
 10
71.85228017813741
 20
158.4208204340445
 30
0.0
  0
POINT
  5
91F
330
5B1
100
AcDbEntity
  8
Defpoints
 62
     0
440
 16777216
100
AcDbPoint
 10
60.71067600334931
 20
158.4208204340445
 30
0.0
  0
ENDBLK
  5
5B3
330
5B1
100
AcDbEntity
  8
0
100
AcDbBlockEnd
  0
BLOCK
  5
5BF
330
5BE
100
AcDbEntity
  8
0
100
AcDbBlockBegin
  2
*D7
 70
     1
 10
0.0
 20
0.0
 30
0.0
  3
*D7
  1

  0
LINE
  5
920
330
5BE
100
AcDbEntity
  8
BEM
 62
     0
440
 16777216
370
    -2
100
AcDbLine
 10
70.85228017813742
 20
158.4208204340445
 30
0.0
 11
59.71067600334931
 21
158.4208204340445
 31
0.0
  0
LINE
  5
921
330
5BE
100
AcDbEntity
  8
BEM
 62
     0
440
 16777216
370
    -2
100
AcDbLine
 10
89.46470082281891
 20
128.4208204340445
 30
0.0
 11
59.7106760033493
 21
128.4208204340445
 31
0.0
  0
LINE
  5
922
330
5BE
100
AcDbEntity
  8
BEM
 62
     0
440
 16777216
370
    -2
100
AcDbLine
 10
60.71067600334931
 20
154.9208204340445
 30
0.0
 11
60.71067600334931
 21
131.9208204340445
 31
0.0
  0
SOLID
  5
923
330
5BE
100
AcDbEntity
  8
BEM
 62
     0
440
 16777216
100
AcDbTrace
 10
60.12734267001597
 20
154.9208204340445
 30
0.0
 11
61.29400933668264
 21
154.9208204340445
 31
0.0
 12
60.71067600334931
 22
158.4208204340445
 32
0.0
 13
60.71067600334931
 23
158.4208204340445
 33
0.0
  0
SOLID
  5
924
330
5BE
100
AcDbEntity
  8
BEM
 62
     0
440
 16777216
100
AcDbTrace
 10
60.12734267001597
 20
131.9208204340445
 30
0.0
 11
61.29400933668264
 21
131.9208204340445
 31
0.0
 12
60.71067600334931
 22
128.4208204340445
 32
0.0
 13
60.71067600334931
 23
128.4208204340445
 33
0.0
  0
MTEXT
  5
925
330
5BE
100
AcDbEntity
  8
BEM
 62
     1
440
 16777216
100
AcDbMText
 10
57.46067600334928
 20
143.4208204340445
 30
0.0
 40
3.5
 41
0.0
 46
0.0
 71
     5
 72
     1
  1
\A1;30
 11
0.0000000000000001
 21
1.0
 31
0.0
 73
     1
 44
1.0
  0
POINT
  5
926
330
5BE
100
AcDbEntity
  8
Defpoints
 62
     0
440
 16777216
100
AcDbPoint
 10
71.85228017813741
 20
158.4208204340445
 30
0.0
  0
POINT
  5
927
330
5BE
100
AcDbEntity
  8
Defpoints
 62
     0
440
 16777216
100
AcDbPoint
 10
90.4647008228189
 20
128.4208204340445
 30
0.0
  0
POINT
  5
928
330
5BE
100
AcDbEntity
  8
Defpoints
 62
     0
440
 16777216
100
AcDbPoint
 10
60.71067600334931
 20
128.4208204340445
 30
0.0
  0
ENDBLK
  5
5C0
330
5BE
100
AcDbEntity
  8
0
100
AcDbBlockEnd
  0
BLOCK
  5
5CC
330
5CB
100
AcDbEntity
  8
0
100
AcDbBlockBegin
  2
*D8
 70
     1
 10
0.0
 20
0.0
 30
0.0
  3
*D8
  1

  0
LINE
  5
678
330
5CB
100
AcDbEntity
  8
BEM
 62
     0
440
 16777216
370
    -2
100
AcDbLine
 10
99.35413672597105
 20
244.4208204340445
 30
0.0
 11
99.35413672597105
 21
254.0810155038069
 31
0.0
  0
LINE
  5
679
330
5CB
100
AcDbEntity
  8
BEM
 62
     0
440
 16777216
370
    -2
100
AcDbLine
 10
133.3504236303037
 20
244.4208204340445
 30
0.0
 11
133.3504236303037
 21
254.0810155038069
 31
0.0
  0
LINE
  5
67A
330
5CB
100
AcDbEntity
  8
BEM
 62
     0
440
 16777216
370
    -2
100
AcDbLine
 10
102.854136725971
 20
253.081015503807
 30
0.0
 11
129.8504236303037
 21
253.081015503807
 31
0.0
  0
SOLID
  5
67B
330
5CB
100
AcDbEntity
  8
BEM
 62
     0
440
 16777216
100
AcDbTrace
 10
102.854136725971
 20
253.6643488371403
 30
0.0
 11
102.854136725971
 21
252.4976821704736
 31
0.0
 12
99.35413672597105
 22
253.081015503807
 32
0.0
 13
99.35413672597105
 23
253.081015503807
 33
0.0
  0
SOLID
  5
67C
330
5CB
100
AcDbEntity
  8
BEM
 62
     0
440
 16777216
100
AcDbTrace
 10
129.8504236303037
 20
253.6643488371403
 30
0.0
 11
129.8504236303037
 21
252.4976821704736
 31
0.0
 12
133.3504236303037
 22
253.081015503807
 32
0.0
 13
133.3504236303037
 23
253.081015503807
 33
0.0
  0
MTEXT
  5
67D
330
5CB
100
AcDbEntity
  8
BEM
 62
     1
440
 16777216
100
AcDbMText
 10
116.3522801781374
 20
256.3310155038069
 30
0.0
 40
3.5
 41
0.0
 46
0.0
 71
     5
 72
     1
  1
\A1;%%C34
 73
     1
 44
1.0
  0
POINT
  5
67E
330
5CB
100
AcDbEntity
  8
Defpoints
 62
     0
440
 16777216
100
AcDbPoint
 10
99.35413672597105
 20
243.4208204340444
 30
0.0
  0
POINT
  5
67F
330
5CB
100
AcDbEntity
  8
Defpoints
 62
     0
440
 16777216
100
AcDbPoint
 10
133.3504236303037
 20
243.4208204340444
 30
0.0
  0
POINT
  5
680
330
5CB
100
AcDbEntity
  8
Defpoints
 62
     0
440
 16777216
100
AcDbPoint
 10
133.3504236303037
 20
253.081015503807
 30
0.0
  0
ENDBLK
  5
5CD
330
5CB
100
AcDbEntity
  8
0
100
AcDbBlockEnd
  0
BLOCK
  5
5E8
330
5E7
100
AcDbEntity
  8
0
100
AcDbBlockBegin
  2
*D10
 70
     1
 10
0.0
 20
0.0
 30
0.0
  3
*D10
  1

  0
LINE
  5
664
330
5E7
100
AcDbEntity
  8
BEM
 62
     0
440
 16777216
370
    -2
100
AcDbLine
 10
71.85228017813741
 20
244.4208204340445
 30
0.0
 11
71.85228017813741
 21
261.6970315776339
 31
0.0
  0
LINE
  5
665
330
5E7
100
AcDbEntity
  8
BEM
 62
     0
440
 16777216
370
    -2
100
AcDbLine
 10
160.8522801781374
 20
244.4208204340445
 30
0.0
 11
160.8522801781374
 21
261.6970315776339
 31
0.0
  0
LINE
  5
666
330
5E7
100
AcDbEntity
  8
BEM
 62
     0
440
 16777216
370
    -2
100
AcDbLine
 10
75.35228017813742
 20
260.6970315776339
 30
0.0
 11
157.3522801781374
 21
260.6970315776339
 31
0.0
  0
SOLID
  5
667
330
5E7
100
AcDbEntity
  8
BEM
 62
     0
440
 16777216
100
AcDbTrace
 10
75.35228017813742
 20
261.2803649109672
 30
0.0
 11
75.35228017813742
 21
260.1136982443005
 31
0.0
 12
71.85228017813741
 22
260.6970315776339
 32
0.0
 13
71.85228017813741
 23
260.6970315776339
 33
0.0
  0
SOLID
  5
668
330
5E7
100
AcDbEntity
  8
BEM
 62
     0
440
 16777216
100
AcDbTrace
 10
157.3522801781374
 20
261.2803649109672
 30
0.0
 11
157.3522801781374
 21
260.1136982443005
 31
0.0
 12
160.8522801781374
 22
260.6970315776339
 32
0.0
 13
160.8522801781374
 23
260.6970315776339
 33
0.0
  0
MTEXT
  5
669
330
5E7
100
AcDbEntity
  8
BEM
 62
     1
440
 16777216
100
AcDbMText
 10
116.3522801781374
 20
263.9470315776339
 30
0.0
 40
3.5
 41
0.0
 46
0.0
 71
     5
 72
     1
  1
\A1;%%C89
 73
     1
 44
1.0
  0
POINT
  5
66A
330
5E7
100
AcDbEntity
  8
Defpoints
 62
     0
440
 16777216
100
AcDbPoint
 10
71.85228017813741
 20
243.4208204340444
 30
0.0
  0
POINT
  5
66B
330
5E7
100
AcDbEntity
  8
Defpoints
 62
     0
440
 16777216
100
AcDbPoint
 10
160.8522801781374
 20
243.4208204340444
 30
0.0
  0
POINT
  5
66C
330
5E7
100
AcDbEntity
  8
Defpoints
 62
     0
440
 16777216
100
AcDbPoint
 10
160.8522801781374
 20
260.6970315776339
 30
0.0
  0
ENDBLK
  5
5E9
330
5E7
100
AcDbEntity
  8
0
100
AcDbBlockEnd
  0
ENDSEC
  0
SECTION
  2
ENTITIES
  0
LINE
  5
57
330
1E
100
AcDbEntity
  8
STEMPEL
100
AcDbLine
 10
205.0
 20
55.00000000000003
 30
0.0
 11
19.99999999999998
 21
55.0
 31
0.0
  0
LINE
  5
58
330
1E
100
AcDbEntity
  8
STEMPEL
100
AcDbLine
 10
73.00000000000006
 20
54.99999999999997
 30
0.0
 11
73.0
 21
4.999999999999985
 31
0.0
  0
LINE
  5
59
330
1E
100
AcDbEntity
  8
STEMPEL
100
AcDbLine
 10
115.0
 20
55.00000000000003
 30
0.0
 11
115.0
 21
4.999999999999985
 31
0.0
  0
LINE
  5
5A
330
1E
100
AcDbEntity
  8
STEMPEL
100
AcDbLine
 10
166.0
 20
54.99999999999989
 30
0.0
 11
166.0
 21
20.0
 31
0.0
  0
LINE
  5
5B
330
1E
100
AcDbEntity
  8
STEMPEL
100
AcDbLine
 10
72.99999999999994
 20
14.99999999999998
 30
0.0
 11
19.99999999999998
 21
14.99999999999998
 31
0.0
  0
LINE
  5
5C
330
1E
100
AcDbEntity
  8
STEMPEL
100
AcDbLine
 10
205.0
 20
20.0
 30
0.0
 11
73.00000000000006
 21
19.99999999999998
 31
0.0
  0
LINE
  5
5D
330
1E
100
AcDbEntity
  8
STEMPEL
100
AcDbLine
 10
205.0
 20
40.0
 30
0.0
 11
73.00000000000006
 21
39.99999999999997
 31
0.0
  0
LINE
  5
5E
330
1E
100
AcDbEntity
  8
VOLL
100
AcDbLine
 10
27.00000000000005
 20
55.00000000000003
 30
0.0
 11
26.99999999999999
 21
4.999999999999985
 31
0.0
  0
LINE
  5
5F
330
1E
100
AcDbEntity
  8
VOLL
100
AcDbLine
 10
52.00000000000006
 20
54.99999999999997
 30
0.0
 11
52.0
 21
4.999999999999985
 31
0.0
  0
LINE
  5
60
330
1E
100
AcDbEntity
  8
VOLL
100
AcDbLine
 10
62.00000000000006
 20
54.99999999999997
 30
0.0
 11
62.0
 21
4.999999999999985
 31
0.0
  0
LINE
  5
61
330
1E
100
AcDbEntity
  8
VOLL
100
AcDbLine
 10
82.00000000000006
 20
39.99999999999997
 30
0.0
 11
82.00000000000006
 21
19.99999999999998
 31
0.0
  0
LINE
  5
62
330
1E
100
AcDbEntity
  8
VOLL
100
AcDbLine
 10
95.00000000000005
 20
54.99999999999992
 30
0.0
 11
95.0
 21
19.99999999999998
 31
0.0
  0
LINE
  5
63
330
1E
100
AcDbEntity
  8
HILF
100
AcDbLine
 10
20.00000000000004
 20
50.00000000000003
 30
0.0
 11
73.00000000000006
 21
50.00000000000003
 31
0.0
  0
LINE
  5
64
330
1E
100
AcDbEntity
  8
HILF
100
AcDbLine
 10
20.00000000000004
 20
45.00000000000002
 30
0.0
 11
73.00000000000006
 21
45.00000000000002
 31
0.0
  0
LINE
  5
65
330
1E
100
AcDbEntity
  8
HILF
100
AcDbLine
 10
20.00000000000004
 20
39.99999999999997
 30
0.0
 11
73.00000000000006
 21
39.99999999999997
 31
0.0
  0
LINE
  5
66
330
1E
100
AcDbEntity
  8
HILF
100
AcDbLine
 10
20.00000000000004
 20
34.99999999999997
 30
0.0
 11
73.00000000000006
 21
34.99999999999997
 31
0.0
  0
LINE
  5
67
330
1E
100
AcDbEntity
  8
HILF
100
AcDbLine
 10
20.00000000000004
 20
29.99999999999999
 30
0.0
 11
73.00000000000006
 21
29.99999999999999
 31
0.0
  0
LINE
  5
68
330
1E
100
AcDbEntity
  8
HILF
100
AcDbLine
 10
20.00000000000004
 20
24.99999999999999
 30
0.0
 11
73.00000000000006
 21
24.99999999999999
 31
0.0
  0
LINE
  5
69
330
1E
100
AcDbEntity
  8
HILF
100
AcDbLine
 10
20.00000000000004
 20
19.99999999999998
 30
0.0
 11
73.00000000000006
 21
19.99999999999998
 31
0.0
  0
LINE
  5
6A
330
1E
100
AcDbEntity
  8
HILF
100
AcDbLine
 10
73.00000000000006
 20
34.99999999999997
 30
0.0
 11
115.0
 21
34.99999999999997
 31
0.0
  0
LINE
  5
6B
330
1E
100
AcDbEntity
  8
HILF
100
AcDbLine
 10
73.00000000000006
 20
29.99999999999999
 30
0.0
 11
115.0
 21
29.99999999999999
 31
0.0
  0
LINE
  5
6C
330
1E
100
AcDbEntity
  8
HILF
100
AcDbLine
 10
73.00000000000006
 20
24.99999999999999
 30
0.0
 11
115.0
 21
24.99999999999999
 31
0.0
  0
LINE
  5
6D
330
1E
100
AcDbEntity
  8
HILF
100
AcDbLine
 10
117.3868400548473
 20
42.01879123782069
 30
0.0
 11
162.4176958278155
 21
42.01879123782069
 31
0.0
  0
LINE
  5
6E
330
1E
100
AcDbEntity
  8
HILF
100
AcDbLine
 10
117.3868400548473
 20
34.99999999999997
 30
0.0
 11
162.4176958278155
 21
34.99999999999997
 31
0.0
  0
LINE
  5
6F
330
1E
100
AcDbEntity
  8
HILF
100
AcDbLine
 10
117.3868400548473
 20
29.99999999999999
 30
0.0
 11
162.4176958278155
 21
29.99999999999999
 31
0.0
  0
LINE
  5
70
330
1E
100
AcDbEntity
  8
HILF
100
AcDbLine
 10
117.3868400548473
 20
24.99999999999999
 30
0.0
 11
162.4176958278155
 21
24.99999999999999
 31
0.0
  0
LINE
  5
71
330
1E
100
AcDbEntity
  8
VOLL
100
AcDbLine
 10
166.0
 20
30.0
 30
0.0
 11
205.0
 21
30.0
 31
0.0
  0
LINE
  5
72
330
1E
100
AcDbEntity
  8
HILF
100
AcDbLine
 10
168.3619308148496
 20
41.88991818477913
 30
0.0
 11
202.4294419663364
 21
41.88991818477913
 31
0.0
  0
LINE
  5
73
330
1E
100
AcDbEntity
  8
HILF
100
AcDbLine
 10
116.7454849644942
 20
7.446991290141568
 30
0.0
 11
202.4294419663364
 21
7.446991290141568
 31
0.0
  0
TEXT
  5
74
330
1E
100
AcDbEntity
  8
TEXT
100
AcDbText
 10
34.4308298981591
 20
9.336909474920659
 30
0.0
 40
2.0
  1
Änderung
 41
0.8
  7
GREEKS
 72
     1
 11
39.80225846958767
 21
9.336909474920659
 31
0.0
100
AcDbText
  0
TEXT
  5
75
330
1E
100
AcDbEntity
  8
TEXT
100
AcDbText
 10
76.75817860751886
 20
51.23104475435443
 30
0.0
 40
2.5
  1
Maßstab
 41
0.8
  7
GREEKS
100
AcDbText
  0
TEXT
  5
76
330
1E
100
AcDbEntity
  8
TEXT
100
AcDbText
 10
97.14294773670257
 20
51.20920842174095
 30
0.0
 40
2.5
  1
Zul. Abw.
 41
0.8
  7
GREEKS
100
AcDbText
  0
TEXT
  5
77
330
1E
100
AcDbEntity
  8
TEXT
100
AcDbText
 10
117.4389701904505
 20
51.27446640058898
 30
0.0
 40
2.5
  1
Benennung
 41
0.8
  7
GREEKS
100
AcDbText
  0
TEXT
  5
78
330
1E
100
AcDbEntity
  8
TEXT
100
AcDbText
 10
168.089377478817
 20
51.15660172685682
 30
0.0
 40
2.5
  1
Zeichnungs Nr.
 41
0.8
  7
GREEKS
100
AcDbText
  0
TEXT
  5
79
330
1E
100
AcDbEntity
  8
TEXT
100
AcDbText
 10
117.371119195568
 20
15.42280285096528
 30
0.0
 40
2.5
  1
Bauvorhaben
 41
0.8
  7
GREEKS
100
AcDbText
  0
TEXT
  5
7A
330
1E
100
AcDbEntity
  8
TEXT
100
AcDbText
 10
168.3619308148496
 20
36.59059118549985
 30
0.0
 40
2.5
  1
Ersatz für:
 41
0.8
  7
GREEKS
100
AcDbText
  0
TEXT
  5
7B
330
1E
100
AcDbEntity
  8
TEXT
100
AcDbText
 10
24.13320553522878
 20
6.827329230135958
 30
0.0
 40
2.0
  1
Index
 50
90.0
 41
0.8
  7
GREEKS
100
AcDbText
  0
TEXT
  5
7C
330
1E
100
AcDbEntity
  8
TEXT
100
AcDbText
 10
55.04673380377405
 20
9.33578134669905
 30
0.0
 40
2.0
  1
Tag
 41
0.8
  7
GREEKS
 72
     1
 11
56.91340047044072
 21
9.33578134669905
 31
0.0
100
AcDbText
  0
TEXT
  5
7D
330
1E
100
AcDbEntity
  8
TEXT
100
AcDbText
 10
64.50613721932963
 20
9.29662108483204
 30
0.0
 40
2.0
  1
Name
 41
0.8
  7
GREEKS
 72
     1
 11
67.66804198123439
 21
9.29662108483204
 31
0.0
100
AcDbText
  0
TEXT
  5
7E
330
1E
100
AcDbEntity
  8
TEXT
100
AcDbText
 10
86.16558365768254
 20
36.65940250614963
 30
0.0
 40
2.0
  1
Tag
 41
0.8
  7
GREEKS
100
AcDbText
  0
TEXT
  5
7F
330
1E
100
AcDbEntity
  8
TEXT
100
AcDbText
 10
101.2313292113147
 20
36.65480545957612
 30
0.0
 40
2.0
  1
Name
 41
0.8
  7
GREEKS
100
AcDbText
  0
TEXT
  5
80
330
1E
100
AcDbEntity
  8
TEXT
100
AcDbText
 10
73.79180635838077
 20
31.81495184808982
 30
0.0
 40
2.0
  1
Gez.
 41
0.8
  7
GREEKS
100
AcDbText
  0
TEXT
  5
81
330
1E
100
AcDbEntity
  8
TEXT
100
AcDbText
 10
73.77575432858361
 20
26.84463145714189
 30
0.0
 40
2.0
  1
Gepr.
 41
0.8
  7
GREEKS
100
AcDbText
  0
TEXT
  5
82
330
1E
100
AcDbEntity
  8
TEXT
100
AcDbText
 10
73.80033886936519
 20
21.76473194824904
 30
0.0
 40
2.0
  1
Norm.
 41
0.8
  7
GREEKS
100
AcDbText
  0
LINE
  5
83
330
1E
100
AcDbEntity
  8
STEMPEL
100
AcDbLine
 10
24.99999999999995
 20
5.0
 30
0.0
 11
205.0
 21
5.0
 31
0.0
  0
TEXT
  5
84
330
1E
100
AcDbEntity
  8
TEXT
100
AcDbText
 10
168.6200430748503
 20
26.03708088939301
 30
0.0
 40
2.5
  1
ersetzt durch:
 41
0.8
  7
GREEKS
100
AcDbText
  0
LINE
  5
85
330
1E
100
AcDbEntity
  8
STEMPEL
100
AcDbLine
 10
205.0
 20
5.0
 30
0.0
 11
19.99999999999994
 21
5.0
 31
0.0
  0
LINE
  5
86
330
1E
100
AcDbEntity
  8
STEMPEL
100
AcDbLine
 10
205.0
 20
5.0
 30
0.0
 11
205.0
 21
292.0
 31
0.0
  0
LINE
  5
87
330
1E
100
AcDbEntity
  8
STEMPEL
100
AcDbLine
 10
20.0
 20
5.0
 30
0.0
 11
19.99999999999994
 21
292.0
 31
0.0
  0
LINE
  5
88
330
1E
100
AcDbEntity
  8
STEMPEL
100
AcDbLine
 10
205.0
 20
292.0
 30
0.0
 11
19.99999999999994
 21
292.0
 31
0.0
  0
LINE
  5
89
330
1E
100
AcDbEntity
  8
HILF
100
AcDbLine
 10
0.0
 20
0.0
 30
0.0
 11
-0.0000000000000568
 21
297.0
 31
0.0
  0
LINE
  5
8A
330
1E
100
AcDbEntity
  8
HILF
100
AcDbLine
 10
210.0
 20
297.0000000000001
 30
0.0
 11
0.0
 21
297.0
 31
0.0
  0
LINE
  5
8B
330
1E
100
AcDbEntity
  8
HILF
100
AcDbLine
 10
210.0
 20
0.0
 30
0.0
 11
0.0
 21
0.0
 31
0.0
  0
LINE
  5
8C
330
1E
100
AcDbEntity
  8
HILF
100
AcDbLine
 10
15.54383567856928
 20
148.5
 30
0.0
 11
0.0000000000000568
 21
148.5
 31
0.0
  0
TEXT
  5
8D
330
1E
100
AcDbEntity
  8
TEXT
100
AcDbText
 10
74.31105491105199
 20
36.57012735575833
 30
0.0
 40
2.0
  1
2013
 41
0.8
  7
GREEKS
100
AcDbText
  0
LINE
  5
8E
330
1E
100
AcDbEntity
  8
HILF
100
AcDbLine
 10
210.0
 20
-0.0000000000000568
 30
0.0
 11
210.0
 21
297.0
 31
0.0
  0
TEXT
  5
8F
330
1E
100
AcDbEntity
  8
VOLL
100
AcDbText
 10
78.07675471698113
 20
31.02594776470585
 30
0.0
 40
1.8
  1

  7
GREEKS
100
AcDbText
  0
TEXT
  5
90
330
1E
100
AcDbEntity
  8
TEXT
100
AcDbText
 10
20.92754975488837
 20
55.83599999999997
 30
0.0
 40
2.5
  1
Erstellt mit AUTOCAD 2004
 41
0.8
  7
GREEKS
100
AcDbText
  0
TEXT
  5
91
330
1E
100
AcDbEntity
  8
TEXT
100
AcDbText
 10
102.2108024290628
 20
31.54481959861755
 30
0.0
 40
2.0
  1
Koeh
 41
0.8
  7
GREEKS
 72
     1
 11
104.8393738576343
 21
31.54481959861755
 31
0.0
100
AcDbText
  0
TEXT
  5
92
330
1E
100
AcDbEntity
  8
TEXT
 62
     1
100
AcDbText
 10
172.7945014517681
 20
44.07450714456979
 30
0.0
 40
3.5
  1
58060LB0W
 41
0.8
  7
GREEKS
 72
     1
 11
184.6611681184348
 21
44.07450714456979
 31
0.0
100
AcDbText
  0
TEXT
  5
93
330
1E
100
AcDbEntity
  8
TEXT
 62
     1
100
AcDbText
 10
80.25031532409434
 20
44.07450714456979
 30
0.0
 40
3.5
  1
1:1
 41
0.8
  7
GREEKS
100
AcDbText
  0
TEXT
  5
94
330
1E
100
AcDbEntity
  8
TEXT
100
AcDbText
 10
85.35187950649897
 20
31.55382520412866
 30
0.0
 40
2.0
  1
10.04.
 41
0.8
  7
GREEKS
 72
     1
 11
88.70426045887993
 21
31.55382520412866
 31
0.0
100
AcDbText
  0
TEXT
  5
95
330
1E
100
AcDbEntity
  8
TEXT
 62
     1
100
AcDbText
 10
118.4467865528701
 20
43.70874394626889
 30
0.0
 40
3.5
  1
Verbundrohr DN32/50
 41
0.75
  7
GREEKS
100
AcDbText
  0
TEXT
  5
96
330
1E
100
AcDbEntity
  8
TEXT
100
AcDbText
 10
117.5648195562657
 20
35.75167208792644
 30
0.0
 40
2.5
  1
Übergangsrohr konzentrisch
 41
0.8
  7
GREEKS
100
AcDbText
  0
TEXT
  5
98
330
1E
100
AcDbEntity
  8
TEXT
100
AcDbText
 10
117.5648195562657
 20
25.82005971521079
 30
0.0
 40
2.5
  1
EDV-Art.Nr. 58060.LB0X
 41
0.8
  7
GREEKS
100
AcDbText
  0
TEXT
  5
99
330
1E
100
AcDbEntity
  8
TEXT
100
AcDbText
 10
117.4918750788913
 20
21.31487076511316
 30
0.0
 40
2.0
  1
58060LB0W.DWG
 41
0.8
  7
GREEKS
100
AcDbText
  0
TEXT
  5
9A
330
1E
100
AcDbEntity
  8
TEXT
100
AcDbText
 10
96.31306610404202
 20
45.38181920511511
 30
0.0
 40
2.0
  1
DIN EN1123-2
 41
0.8
  7
GREEKS
 72
     1
 11
104.8083041992801
 21
45.38181920511511
 31
0.0
100
AcDbText
  0
INSERT
  5
9B
330
1E
100
AcDbEntity
  8
STEMPEL
100
AcDbBlockReference
  2
LOGO
 10
75.4977742728897
 20
22.51052638224161
 30
0.0
  0
TEXT
  5
118
330
1E
100
AcDbEntity
  8
BEM
100
AcDbText
 10
208.6511461928583
 20
5.083950539994247
 30
0.0
 40
2.0
  1
Diese Zeichnung ist urheberrechtlich geschützt und bleibt unser Eigentum. Sie darf weder ganz noch teilweise verfielfältigt und nicht an Dritte weitergegeben werden.
 50
90.0
 41
0.8
  7
GREEKS
100
AcDbText
  0
TEXT
  5
28E
330
1E
100
AcDbEntity
  8
TEXT
 62
     1
100
AcDbText
 10
112.1690253670473
 20
229.9960916234429
 30
0.0
 40
3.5
  1
DN32
 50
90.0
 41
0.8
  7
GREEKS
100
AcDbText
  0
TEXT
  5
28F
330
1E
100
AcDbEntity
  8
TEXT
 62
     1
100
AcDbText
 10
112.1690253670473
 20
156.2574651104695
 30
0.0
 40
3.5
  1
DN50
 50
90.0
 41
0.8
  7
GREEKS
100
AcDbText
  0
ARC
  5
2FF
102
{ACAD_REACTORS
330
7F7
102
}
330
1E
100
AcDbEntity
  8
STEMPEL
100
AcDbCircle
 10
138.3522801781374
 20
210.723236465427
 30
0.0
 40
6.0
100
AcDbArc
 50
180.0
 51
221.9872124958168
  0
ARC
  5
300
102
{ACAD_REACTORS
330
7C1
330
7F7
102
}
330
1E
100
AcDbEntity
  8
STEMPEL
100
AcDbCircle
 10
94.3522801781374
 20
210.7232364654269
 30
0.0
 40
6.0
100
AcDbArc
 50
318.0127875041832
 51
0.0
  0
LINE
  5
301
102
{ACAD_REACTORS
330
7C1
330
7F7
102
}
330
1E
100
AcDbEntity
  8
STEMPEL
100
AcDbLine
 10
98.8120450556204
 20
206.7094480756922
 30
0.0
 11
91.35228017813743
 21
198.4208204340445
 31
0.0
  0
LINE
  5
302
102
{ACAD_REACTORS
330
413
330
7F7
102
}
330
1E
100
AcDbEntity
  8
STEMPEL
100
AcDbLine
 10
133.8925153006544
 20
206.7094480756923
 30
0.0
 11
141.3522801781374
 21
198.4208204340444
 31
0.0
  0
ARC
  5
316
102
{ACAD_REACTORS
330
786
330
7F7
102
}
330
1E
100
AcDbEntity
  8
STEMPEL
100
AcDbCircle
 10
109.8522801781374
 20
189.999464196735
 30
0.0
 40
20.0
100
AcDbArc
 50
171.8698976458451
 51
180.0
  0
ARC
  5
317
102
{ACAD_REACTORS
330
786
330
7F7
102
}
330
1E
100
AcDbEntity
  8
STEMPEL
100
AcDbCircle
 10
122.8522801781374
 20
189.999464196735
 30
0.0
 40
20.0
100
AcDbArc
 50
0.0
 51
8.130102354154827
  0
LINE
  5
318
102
{ACAD_REACTORS
330
786
330
7F7
102
}
330
1E
100
AcDbEntity
  8
STEMPEL
100
AcDbLine
 10
90.05329030491404
 20
192.8278913214811
 30
0.0
 11
90.85228017813742
 21
198.4208204340445
 31
0.0
  0
LINE
  5
319
102
{ACAD_REACTORS
330
413
330
786
330
7F7
102
}
330
1E
100
AcDbEntity
  8
STEMPEL
100
AcDbLine
 10
142.6512700513607
 20
192.8278913214812
 30
0.0
 11
141.8522801781374
 21
198.4208204340444
 31
0.0
  0
LINE
  5
31B
102
{ACAD_REACTORS
330
786
102
}
330
1E
100
AcDbEntity
  8
STEMPEL
100
AcDbLine
 10
142.8522801781374
 20
135.4208204340443
 30
0.0
 11
142.2398595334559
 21
128.4208204340445
 31
0.0
  0
LINE
  5
31C
102
{ACAD_REACTORS
330
786
102
}
330
1E
100
AcDbEntity
  8
STEMPEL
100
AcDbLine
 10
89.85228017813742
 20
135.4208204340445
 30
0.0
 11
90.4647008228189
 21
128.4208204340445
 31
0.0
  0
LINE
  5
31D
330
1E
100
AcDbEntity
  8
HILF
100
AcDbLine
 10
139.8522801781374
 20
135.4208204340445
 30
0.0
 11
92.85228017813743
 21
135.4208204340445
 31
0.0
  0
LINE
  5
31E
102
{ACAD_REACTORS
330
413
330
786
330
7C1
102
}
330
1E
100
AcDbEntity
  8
STEMPEL
100
AcDbLine
 10
141.8522801781374
 20
198.4208204340444
 30
0.0
 11
90.85228017813742
 21
198.4208204340445
 31
0.0
  0
LINE
  5
31F
330
1E
100
AcDbEntity
  8
HILF
100
AcDbLine
 10
139.7927567489621
 20
191.4208204340445
 30
0.0
 11
92.91180360731269
 21
191.4208204340444
 31
0.0
  0
LINE
  5
320
102
{ACAD_REACTORS
330
786
330
7F7
330
817
102
}
330
1E
100
AcDbEntity
  8
STEMPEL
100
AcDbLine
 10
142.8522801781374
 20
189.999464196735
 30
0.0
 11
142.8522801781374
 21
135.4208204340443
 31
0.0
  0
LINE
  5
321
102
{ACAD_REACTORS
330
786
330
7F7
330
817
102
}
330
1E
100
AcDbEntity
  8
STEMPEL
100
AcDbLine
 10
89.85228017813742
 20
189.999464196735
 30
0.0
 11
89.85228017813742
 21
135.4208204340445
 31
0.0
  0
LINE
  5
322
102
{ACAD_REACTORS
330
786
102
}
330
1E
100
AcDbEntity
  8
STEMPEL
100
AcDbLine
 10
142.2398595334559
 20
128.4208204340445
 30
0.0
 11
90.4647008228189
 21
128.4208204340445
 31
0.0
  0
LINE
  5
326
330
1E
100
AcDbEntity
  8
HILF
100
AcDbLine
 10
130.6907607192812
 20
208.4208204340444
 30
0.0
 11
102.0137996369936
 21
208.4208204340445
 31
0.0
  0
LINE
  5
327
102
{ACAD_REACTORS
330
7F7
102
}
330
1E
100
AcDbEntity
  8
STEMPEL
100
AcDbLine
 10
135.8522801781374
 20
236.8786401136361
 30
0.0
 11
135.8522801781374
 21
233.5198204340445
 31
0.0
  0
LINE
  5
328
330
1E
100
AcDbEntity
  8
STEMPEL
100
AcDbLine
 10
135.8521502027151
 20
233.5198204340445
 30
0.0
 11
135.8522801781374
 21
233.5198204340445
 31
0.0
  0
ARC
  5
329
102
{ACAD_REACTORS
330
7F7
102
}
330
1E
100
AcDbEntity
  8
STEMPEL
100
AcDbCircle
 10
119.8522801781374
 20
236.878640113636
 30
0.0
 40
16.0
100
AcDbArc
 50
0.0
 51
24.13489120762139
  0
ARC
  5
32A
102
{ACAD_REACTORS
330
7F7
102
}
330
1E
100
AcDbEntity
  8
STEMPEL
100
AcDbCircle
 10
139.3522801781374
 20
225.9208204340445
 30
0.0
 40
5.0
100
AcDbArc
 50
157.6692614761385
 51
180.0
  0
ARC
  5
32B
102
{ACAD_REACTORS
330
7F7
102
}
330
1E
100
AcDbEntity
  8
STEMPEL
100
AcDbCircle
 10
126.3522801781373
 20
222.0263717095084
 30
0.0
 40
8.0
100
AcDbArc
 50
327.7957724960275
 51
0.0
  0
LINE
  5
32C
102
{ACAD_REACTORS
330
7F7
102
}
330
1E
100
AcDbEntity
  8
STEMPEL
100
AcDbLine
 10
134.3522801781373
 20
225.9208204340445
 30
0.0
 11
134.3522801781374
 21
222.0263717095085
 31
0.0
  0
LINE
  5
32D
102
{ACAD_REACTORS
330
7F7
102
}
330
1E
100
AcDbEntity
  8
STEMPEL
100
AcDbLine
 10
132.3522801781374
 20
215.098168479233
 30
0.0
 11
132.3522801781374
 21
210.723236465427
 31
0.0
  0
ARC
  5
32E
102
{ACAD_REACTORS
330
7F7
102
}
330
1E
100
AcDbEntity
  8
STEMPEL
100
AcDbCircle
 10
137.3522801781374
 20
215.098168479233
 30
0.0
 40
5.0
100
AcDbArc
 50
147.7957724960275
 51
180.0
  0
ARC
  5
32F
102
{ACAD_REACTORS
330
7F7
102
}
330
1E
100
AcDbEntity
  8
STEMPEL
100
AcDbCircle
 10
120.8522801781374
 20
233.5198204340445
 30
0.0
 40
14.99987002457764
100
AcDbArc
 50
337.6692614761385
 51
0.0
  0
LINE
  5
330
102
{ACAD_REACTORS
330
7C1
330
7F7
102
}
330
1E
100
AcDbEntity
  8
STEMPEL
100
AcDbLine
 10
96.85241015355977
 20
233.5198204340445
 30
0.0
 11
96.85228017813741
 21
233.5198204340445
 31
0.0
  0
LINE
  5
331
102
{ACAD_REACTORS
330
7C1
330
7F7
102
}
330
1E
100
AcDbEntity
  8
STEMPEL
100
AcDbLine
 10
96.85228017813736
 20
236.8786401136361
 30
0.0
 11
96.85228017813736
 21
233.5198204340445
 31
0.0
  0
ARC
  5
332
102
{ACAD_REACTORS
330
7C1
330
7F7
102
}
330
1E
100
AcDbEntity
  8
STEMPEL
100
AcDbCircle
 10
112.8522801781373
 20
236.878640113636
 30
0.0
 40
16.0
100
AcDbArc
 50
155.8651087923749
 51
180.0
  0
ARC
  5
333
102
{ACAD_REACTORS
330
7C1
330
7F7
102
}
330
1E
100
AcDbEntity
  8
STEMPEL
100
AcDbCircle
 10
93.35228017813742
 20
225.9208204340445
 30
0.0
 40
5.0
100
AcDbArc
 50
0.0
 51
22.33073852386146
  0
ARC
  5
334
102
{ACAD_REACTORS
330
7C1
330
7F7
102
}
330
1E
100
AcDbEntity
  8
STEMPEL
  6
Continuous
100
AcDbCircle
 10
106.3522801781374
 20
222.0263717095084
 30
0.0
 40
8.0
100
AcDbArc
 50
180.0
 51
212.2042275039725
  0
LINE
  5
335
102
{ACAD_REACTORS
330
7C1
330
7F7
102
}
330
1E
100
AcDbEntity
  8
STEMPEL
100
AcDbLine
 10
98.35228017813747
 20
225.9208204340445
 30
0.0
 11
98.35228017813742
 21
222.0263717095085
 31
0.0
  0
LINE
  5
336
102
{ACAD_REACTORS
330
7C1
330
7F7
102
}
330
1E
100
AcDbEntity
  8
STEMPEL
  6
Continuous
100
AcDbLine
 10
100.3522801781374
 20
215.098168479233
 30
0.0
 11
100.3522801781374
 21
210.7232364654269
 31
0.0
  0
ARC
  5
337
102
{ACAD_REACTORS
330
7C1
330
7F7
102
}
330
1E
100
AcDbEntity
  8
STEMPEL
  6
Continuous
100
AcDbCircle
 10
95.35228017813741
 20
215.098168479233
 30
0.0
 40
5.0
100
AcDbArc
 50
0.0
 51
32.20422750397252
  0
ARC
  5
338
102
{ACAD_REACTORS
330
7C1
330
7F7
102
}
330
1E
100
AcDbEntity
  8
STEMPEL
100
AcDbCircle
 10
111.8522801781373
 20
233.5198204340445
 30
0.0
 40
14.99987002457764
100
AcDbArc
 50
180.0
 51
202.3307385238615
  0
LINE
  5
339
102
{ACAD_REACTORS
330
79D
330
7C1
330
7F7
102
}
330
1E
100
AcDbEntity
  8
STEMPEL
100
AcDbLine
 10
160.8522801781374
 20
243.4208204340444
 30
0.0
 11
71.85228017813741
 21
243.4208204340444
 31
0.0
  0
LINE
  5
361
330
1E
100
AcDbEntity
  8
HILF
100
AcDbLine
 10
132.4195624467906
 20
226.8890274663834
 30
0.0
 11
100.2849979094841
 21
226.8890274663834
 31
0.0
  0
LINE
  5
362
330
1E
100
AcDbEntity
  8
HILF
100
AcDbLine
 10
131.9269481572122
 20
219.8075709246075
 30
0.0
 11
100.7776121990626
 21
219.8075709246074
 31
0.0
  0
LINE
  5
363
330
1E
100
AcDbEntity
  8
HILF
100
AcDbLine
 10
130.491017679375
 20
216.484918969796
 30
0.0
 11
102.2135426768998
 21
216.4849189697961
 31
0.0
  0
DIMENSION
  5
39A
330
1E
100
AcDbEntity
  8
BEM
100
AcDbDimension
280
     0
  2
*D4
 10
142.8522801781374
 20
115.8944077794467
 30
0.0
 11
116.3522801781374
 21
119.1444077794467
 31
0.0
 70
    32
  1
%%c<>
 71
     5
 42
53.0
 73
     0
 74
     0
 75
     0
  3
Standard
100
AcDbAlignedDimension
 13
89.85228017813742
 23
135.4208204340445
 33
0.0
 14
142.8522801781374
 24
135.4208204340443
 34
0.0
100
AcDbRotatedDimension
1001
ACAD
1000
DSTYLE
1002
{
1070
    41
1040
3.5
1070
    42
1040
1.0
1070
    43
1040
7.0
1070
    44
1040
1.0
1070
    73
1070
     0
1070
    74
1070
     0
1070
    77
1070
     1
1070
    78
1070
     8
1070
    79
1070
     2
1070
   140
1040
3.5
1070
   141
1040
1.5
1070
   146
1040
0.5
1070
   147
1040
1.5
1070
   172
1070
     1
1070
   178
1070
     1
1070
   179
1070
     2
1070
   271
1070
     2
1070
   272
1070
     2
1070
   284
1070
     8
1070
   285
1070
     8
1070
   286
1070
     8
1002
}
  0
LINE
  5
3C6
330
1E
100
AcDbEntity
  8
MITTEL
100
AcDbLine
 10
116.3522801781374
 20
248.4208204340445
 30
0.0
 11
116.3522801781374
 21
123.4208204340445
 31
0.0
  0
ARC
  5
409
102
{ACAD_REACTORS
330
413
330
7F7
102
}
330
1E
100
AcDbEntity
  8
SCHRAFF
100
AcDbCircle
 10
140.1359101632445
 20
197.9623557356418
 30
0.0
 40
2.526790975290231
100
AcDbArc
 50
322.4049794857862
 51
103.3545843257583
  0
HATCH
  5
413
330
1E
100
AcDbEntity
  8
SCHRAFF
100
AcDbHatch
 10
0.0
 20
0.0
 30
0.0
210
0.0
220
0.0
230
1.0
  2
_USER
 70
     0
 71
     1
 91
        1
 92
        7
 72
     1
 73
     1
 93
        4
 10
139.5522801781374
 20
200.4208204340445
 42
0.0
 10
141.3522801781374
 20
198.4208204340444
 42
0.0
 10
141.8522801781374
 20
198.4208204340444
 42
0.0
 10
142.1379944638517
 20
196.4208204340445
 42
0.7064004598269082
 97
        4
330
302
330
31E
330
319
330
409
 75
     0
 76
     0
 52
0.0
 41
0.1
 77
     0
 78
     1
 53
0.0
 43
0.0
 44
0.0
 45
0.0
 46
0.1
 79
     0
 47
0.095513112541832
 98
        1
 10
141.2926899966071
 20
199.3490166042779
  0
HATCH
  5
414
330
1E
100
AcDbEntity
  8
SCHRAFF
100
AcDbHatch
 10
0.0
 20
0.0
 30
0.0
210
0.0
220
0.0
230
1.0
  2
_USER
 70
     0
 71
     0
 91
        1
 92
        7
 72
     1
 73
     1
 93
        4
 10
93.1522801781374
 20
200.4208204340445
 42
0.0
 10
91.35228017813744
 20
198.4208204340444
 42
0.0
 10
90.85228017813738
 20
198.4208204340444
 42
0.0
 10
90.56656589242313
 20
196.4208204340445
 42
-0.7064004598269082
 97
        0
 75
     0
 76
     0
 52
0.0
 41
0.1
 77
     0
 78
     1
 53
180.0
 43
232.7045603562748
 44
0.0
 45
0.0
 46
0.1
 79
     0
 47
0.095513112541832
 98
        1
 10
91.41187035966771
 20
199.3490166042779
  0
ARC
  5
415
102
{ACAD_REACTORS
330
7F7
102
}
330
1E
100
AcDbEntity
  8
SCHRAFF
100
AcDbCircle
 10
92.56865019303029
 20
197.9623557356418
 30
0.0
 40
2.526790975290231
100
AcDbArc
 50
76.64541567424172
 51
217.5950205142139
  0
DIMENSION
  5
424
330
1E
100
AcDbEntity
  8
BEM
100
AcDbDimension
280
     0
  2
*D5
 10
53.1171144078071
 20
128.4208204340445
 30
0.0
 11
49.86711440780709
 21
185.9208204340445
 31
0.0
 70
    32
 71
     5
 42
114.9999999999999
 73
     0
 74
     0
 75
     0
  3
Standard
100
AcDbAlignedDimension
 13
71.85228017813741
 23
243.4208204340444
 33
0.0
 14
90.4647008228189
 24
128.4208204340445
 34
0.0
 50
90.0
100
AcDbRotatedDimension
1001
ACAD
1000
DSTYLE
1002
{
1070
    41
1040
3.5
1070
    42
1040
1.0
1070
    43
1040
7.0
1070
    44
1040
1.0
1070
    73
1070
     0
1070
    74
1070
     0
1070
    77
1070
     1
1070
    78
1070
     8
1070
    79
1070
     2
1070
   140
1040
3.5
1070
   141
1040
1.5
1070
   146
1040
0.5
1070
   147
1040
1.5
1070
   172
1070
     1
1070
   178
1070
     1
1070
   179
1070
     2
1070
   271
1070
     2
1070
   272
1070
     2
1070
   284
1070
     8
1070
   285
1070
     8
1070
   286
1070
     8
1002
}
  0
LINE
  5
4CD
102
{ACAD_REACTORS
330
786
102
}
330
1E
100
AcDbEntity
  8
STEMPEL
100
AcDbLine
 10
141.3522801781374
 20
189.999464196735
 30
0.0
 11
141.3522801781374
 21
135.486311848407
 31
0.0
  0
LINE
  5
4CF
102
{ACAD_REACTORS
330
786
102
}
330
1E
100
AcDbEntity
  8
STEMPEL
100
AcDbLine
 10
141.3522801781374
 20
135.486311848407
 30
0.0
 11
140.7341297771409
 21
128.4208204340445
 31
0.0
  0
LINE
  5
4D0
102
{ACAD_REACTORS
330
786
102
}
330
1E
100
AcDbEntity
  8
STEMPEL
100
AcDbLine
 10
91.35228017813743
 20
135.4863118484074
 30
0.0
 11
91.97043057913395
 21
128.4208204340445
 31
0.0
  0
LINE
  5
4D1
102
{ACAD_REACTORS
330
786
102
}
330
1E
100
AcDbEntity
  8
STEMPEL
100
AcDbLine
 10
91.35228017813743
 20
189.999464196735
 30
0.0
 11
91.35228017813743
 21
135.4863118484074
 31
0.0
  0
ARC
  5
4D3
102
{ACAD_REACTORS
330
786
102
}
330
1E
100
AcDbEntity
  8
STEMPEL
100
AcDbCircle
 10
122.8522801781374
 20
189.999464196735
 30
0.0
 40
18.5
100
AcDbArc
 50
0.0
 51
8.130102354154827
  0
LINE
  5
4D5
102
{ACAD_REACTORS
330
413
330
786
102
}
330
1E
100
AcDbEntity
  8
STEMPEL
100
AcDbLine
 10
141.1663458108689
 20
192.6157592871253
 30
0.0
 11
140.3370513613091
 21
198.4208204340444
 31
0.0
  0
ARC
  5
4D6
102
{ACAD_REACTORS
330
786
102
}
330
1E
100
AcDbEntity
  8
STEMPEL
100
AcDbCircle
 10
109.8522801781374
 20
189.999464196735
 30
0.0
 40
18.5
100
AcDbArc
 50
171.8698976458451
 51
180.0
  0
LINE
  5
4D8
102
{ACAD_REACTORS
330
786
102
}
330
1E
100
AcDbEntity
  8
STEMPEL
100
AcDbLine
 10
91.5382145454058
 20
192.6157592871252
 30
0.0
 11
92.36750899496572
 21
198.4208204340444
 31
0.0
  0
LINE
  5
4D9
102
{ACAD_REACTORS
330
7C1
102
}
330
1E
100
AcDbEntity
  8
STEMPEL
100
AcDbLine
 10
99.55533920186757
 20
206.0404833440698
 30
0.0
 11
92.69764258284478
 21
198.4208204340445
 31
0.0
  0
ARC
  5
4DA
102
{ACAD_REACTORS
330
7C1
102
}
330
1E
100
AcDbEntity
  8
STEMPEL
100
AcDbCircle
 10
94.3522801781374
 20
210.7232364654269
 30
0.0
 40
7.0
100
AcDbArc
 50
318.0127875041832
 51
0.0
  0
LINE
  5
4DC
102
{ACAD_REACTORS
330
7C1
102
}
330
1E
100
AcDbEntity
  8
STEMPEL
  6
Continuous
100
AcDbLine
 10
101.3522801781374
 20
215.098168479233
 30
0.0
 11
101.3522801781374
 21
210.7232364654269
 31
0.0
  0
ARC
  5
4DD
102
{ACAD_REACTORS
330
7C1
102
}
330
1E
100
AcDbEntity
  8
STEMPEL
  6
Continuous
100
AcDbCircle
 10
95.35228017813741
 20
215.098168479233
 30
0.0
 40
6.0
100
AcDbArc
 50
0.0
 51
32.20422750397252
  0
ARC
  5
4DF
102
{ACAD_REACTORS
330
7C1
102
}
330
1E
100
AcDbEntity
  8
STEMPEL
  6
Continuous
100
AcDbCircle
 10
106.3522801781374
 20
222.0263717095084
 30
0.0
 40
7.0
100
AcDbArc
 50
180.0
 51
212.2042275039725
  0
LINE
  5
4E1
102
{ACAD_REACTORS
330
413
102
}
330
1E
100
AcDbEntity
  8
STEMPEL
100
AcDbLine
 10
133.1492211544072
 20
206.0404833440698
 30
0.0
 11
140.00691777343
 21
198.4208204340444
 31
0.0
  0
ARC
  5
4E2
330
1E
100
AcDbEntity
  8
STEMPEL
100
AcDbCircle
 10
138.3522801781374
 20
210.723236465427
 30
0.0
 40
7.0
100
AcDbArc
 50
180.0
 51
221.9872124958168
  0
LINE
  5
4E4
330
1E
100
AcDbEntity
  8
STEMPEL
100
AcDbLine
 10
131.3522801781374
 20
215.098168479233
 30
0.0
 11
131.3522801781374
 21
210.723236465427
 31
0.0
  0
ARC
  5
4E5
330
1E
100
AcDbEntity
  8
STEMPEL
100
AcDbCircle
 10
137.3522801781374
 20
215.098168479233
 30
0.0
 40
6.0
100
AcDbArc
 50
147.7957724960275
 51
180.0
  0
ARC
  5
4E7
330
1E
100
AcDbEntity
  8
STEMPEL
100
AcDbCircle
 10
126.3522801781373
 20
222.0263717095084
 30
0.0
 40
7.0
100
AcDbArc
 50
327.7957724960275
 51
0.0
  0
LINE
  5
4E9
330
1E
100
AcDbEntity
  8
STEMPEL
100
AcDbLine
 10
133.3522801781373
 20
225.9208204340444
 30
0.0
 11
133.3522801781374
 21
222.0263717095084
 31
0.0
  0
ARC
  5
4EA
330
1E
100
AcDbEntity
  8
STEMPEL
100
AcDbCircle
 10
139.3522801781374
 20
225.9208204340445
 30
0.0
 40
6.0
100
AcDbArc
 50
157.6692614761385
 51
180.0
  0
LINE
  5
4EC
102
{ACAD_REACTORS
330
7C1
102
}
330
1E
100
AcDbEntity
  8
STEMPEL
100
AcDbLine
 10
99.35228017813749
 20
225.9208204340444
 30
0.0
 11
99.35228017813741
 21
222.0263717095084
 31
0.0
  0
ARC
  5
4ED
102
{ACAD_REACTORS
330
7C1
102
}
330
1E
100
AcDbEntity
  8
STEMPEL
100
AcDbCircle
 10
93.35228017813742
 20
225.9208204340445
 30
0.0
 40
6.0
100
AcDbArc
 50
0.0
 51
22.33073852386146
  0
ARC
  5
4EF
102
{ACAD_REACTORS
330
7C1
102
}
330
1E
100
AcDbEntity
  8
STEMPEL
100
AcDbCircle
 10
111.8522801781373
 20
233.5198204340445
 30
0.0
 40
13.99987002457764
100
AcDbArc
 50
180.0
 51
202.3307385238615
  0
ARC
  5
4F0
330
1E
100
AcDbEntity
  8
STEMPEL
100
AcDbCircle
 10
120.8522801781374
 20
233.5198204340445
 30
0.0
 40
13.99987002457764
100
AcDbArc
 50
337.6692614761385
 51
0.0
  0
LINE
  5
4F1
330
1E
100
AcDbEntity
  8
STEMPEL
100
AcDbLine
 10
134.8522801781374
 20
236.8786401136361
 30
0.0
 11
134.8522801781374
 21
233.5198204340445
 31
0.0
  0
ARC
  5
4F2
330
1E
100
AcDbEntity
  8
STEMPEL
100
AcDbCircle
 10
119.8522801781374
 20
236.878640113636
 30
0.0
 40
15.0
100
AcDbArc
 50
0.0
 51
25.85819699174205
  0
ARC
  5
4F3
102
{ACAD_REACTORS
330
7C1
102
}
330
1E
100
AcDbEntity
  8
STEMPEL
100
AcDbCircle
 10
112.8522801781373
 20
236.878640113636
 30
0.0
 40
15.0
100
AcDbArc
 50
154.1418030082579
 51
180.0
  0
LINE
  5
4F4
102
{ACAD_REACTORS
330
7C1
102
}
330
1E
100
AcDbEntity
  8
STEMPEL
100
AcDbLine
 10
97.85228017813736
 20
236.8786401136361
 30
0.0
 11
97.85228017813736
 21
233.5198204340445
 31
0.0
  0
LINE
  5
56C
102
{ACAD_REACTORS
330
79D
102
}
330
1E
100
AcDbEntity
  8
STEMPEL
100
AcDbLine
 10
160.8522801781374
 20
243.4208204340444
 30
0.0
 11
160.8522801781374
 21
158.4208204340445
 31
0.0
  0
LINE
  5
56D
102
{ACAD_REACTORS
330
79D
102
}
330
1E
100
AcDbEntity
  8
STEMPEL
100
AcDbLine
 10
71.85228017813741
 20
243.4208204340444
 30
0.0
 11
71.85228017813741
 21
158.4208204340445
 31
0.0
  0
LINE
  5
580
102
{ACAD_REACTORS
330
79D
330
817
102
}
330
1E
100
AcDbEntity
  8
STEMPEL
100
AcDbLine
 10
160.8522801781374
 20
158.4208204340445
 30
0.0
 11
159.2522801781374
 21
158.4208204340445
 31
0.0
  0
LINE
  5
581
102
{ACAD_REACTORS
330
79D
330
7F7
102
}
330
1E
100
AcDbEntity
  8
STEMPEL
100
AcDbLine
 10
159.2522801781374
 20
243.4208204340444
 30
0.0
 11
159.2522801781374
 21
158.4208204340445
 31
0.0
  0
LINE
  5
582
102
{ACAD_REACTORS
330
79D
330
7F7
102
}
330
1E
100
AcDbEntity
  8
STEMPEL
100
AcDbLine
 10
73.45228017813742
 20
243.4208204340444
 30
0.0
 11
73.45228017813742
 21
158.4208204340445
 31
0.0
  0
DIMENSION
  5
5B0
330
1E
100
AcDbEntity
  8
BEM
100
AcDbDimension
280
     0
  2
*D6
 10
60.71067600334931
 20
158.4208204340445
 30
0.0
 11
57.46067600334928
 21
200.9208204340445
 31
0.0
 70
    32
 71
     5
 42
84.99999999999998
 73
     0
 74
     0
 75
     0
  3
Standard
100
AcDbAlignedDimension
 13
71.85228017813739
 23
243.4208204340444
 33
0.0
 14
71.85228017813741
 24
158.4208204340445
 34
0.0
 50
90.0
100
AcDbRotatedDimension
1001
ACAD
1000
DSTYLE
1002
{
1070
    41
1040
3.5
1070
    42
1040
1.0
1070
    43
1040
7.0
1070
    44
1040
1.0
1070
    73
1070
     0
1070
    74
1070
     0
1070
    77
1070
     1
1070
    78
1070
     8
1070
    79
1070
     2
1070
   140
1040
3.5
1070
   141
1040
1.5
1070
   146
1040
0.5
1070
   147
1040
1.5
1070
   172
1070
     1
1070
   178
1070
     1
1070
   179
1070
     2
1070
   271
1070
     2
1070
   272
1070
     2
1070
   284
1070
     8
1070
   285
1070
     8
1070
   286
1070
     8
1002
}
  0
DIMENSION
  5
5BD
330
1E
100
AcDbEntity
  8
BEM
100
AcDbDimension
280
     0
  2
*D7
 10
60.71067600334931
 20
128.4208204340445
 30
0.0
 11
57.46067600334928
 21
143.4208204340445
 31
0.0
 70
    32
 71
     5
 42
30.0
 73
     0
 74
     0
 75
     0
  3
Standard
100
AcDbAlignedDimension
 13
71.85228017813741
 23
158.4208204340445
 33
0.0
 14
90.4647008228189
 24
128.4208204340445
 34
0.0
 50
90.0
100
AcDbRotatedDimension
1001
ACAD
1000
DSTYLE
1002
{
1070
   279
1070
     1
1070
    41
1040
3.5
1070
    42
1040
1.0
1070
    43
1040
7.0
1070
    44
1040
1.0
1070
    73
1070
     0
1070
    74
1070
     0
1070
    77
1070
     1
1070
    78
1070
     8
1070
    79
1070
     2
1070
   140
1040
3.5
1070
   141
1040
1.5
1070
   146
1040
0.5
1070
   147
1040
1.5
1070
   172
1070
     1
1070
   178
1070
     1
1070
   179
1070
     2
1070
   271
1070
     2
1070
   272
1070
     2
1070
   284
1070
     8
1070
   285
1070
     8
1070
   286
1070
     8
1002
}
  0
DIMENSION
  5
5CA
330
1E
100
AcDbEntity
  8
BEM
100
AcDbDimension
280
     0
  2
*D8
 10
133.3504236303037
 20
253.081015503807
 30
0.0
 11
116.3522801781374
 21
256.3310155038069
 31
0.0
 70
    32
  1
%%C<>
 71
     5
 42
33.99628690433269
 73
     0
 74
     0
 75
     0
  3
Standard
100
AcDbAlignedDimension
 13
99.35413672597105
 23
243.4208204340444
 33
0.0
 14
133.3504236303037
 24
243.4208204340444
 34
0.0
100
AcDbRotatedDimension
1001
ACAD
1000
DSTYLE
1002
{
1070
    41
1040
3.5
1070
    42
1040
1.0
1070
    43
1040
7.0
1070
    44
1040
1.0
1070
    73
1070
     0
1070
    74
1070
     0
1070
    77
1070
     1
1070
    78
1070
     8
1070
    79
1070
     2
1070
   140
1040
3.5
1070
   141
1040
1.5
1070
   146
1040
0.5
1070
   147
1040
1.5
1070
   172
1070
     1
1070
   178
1070
     1
1070
   179
1070
     2
1070
   271
1070
     2
1070
   272
1070
     2
1070
   284
1070
     8
1070
   285
1070
     8
1070
   286
1070
     8
1002
}
  0
DIMENSION
  5
5E6
330
1E
100
AcDbEntity
  8
BEM
100
AcDbDimension
280
     0
  2
*D10
 10
160.8522801781374
 20
260.6970315776339
 30
0.0
 11
116.3522801781374
 21
263.9470315776339
 31
0.0
 70
    32
  1
%%C<>
 71
     5
 42
89.00000000000003
 73
     0
 74
     0
 75
     0
  3
Standard
100
AcDbAlignedDimension
 13
71.85228017813741
 23
243.4208204340444
 33
0.0
 14
160.8522801781374
 24
243.4208204340444
 34
0.0
100
AcDbRotatedDimension
1001
ACAD
1000
DSTYLE
1002
{
1070
    41
1040
3.5
1070
    42
1040
1.0
1070
    43
1040
7.0
1070
    44
1040
1.0
1070
    73
1070
     0
1070
    74
1070
     0
1070
    77
1070
     1
1070
    78
1070
     8
1070
    79
1070
     2
1070
   140
1040
3.5
1070
   141
1040
1.5
1070
   146
1040
0.5
1070
   147
1040
1.5
1070
   172
1070
     1
1070
   178
1070
     1
1070
   179
1070
     2
1070
   271
1070
     2
1070
   272
1070
     2
1070
   284
1070
     8
1070
   285
1070
     8
1070
   286
1070
     8
1002
}
  0
LINE
  5
733
102
{ACAD_REACTORS
330
817
102
}
330
1E
100
AcDbEntity
  8
STEMPEL
100
AcDbLine
 10
71.85228017813741
 20
158.4208204340444
 30
0.0
 11
71.85228017813741
 21
156.4208204340444
 31
0.0
  0
LINE
  5
734
102
{ACAD_REACTORS
330
817
102
}
330
1E
100
AcDbEntity
  8
STEMPEL
100
AcDbLine
 10
71.85228017813741
 20
156.4208204340444
 30
0.0
 11
89.85228017813744
 21
156.4208204340445
 31
0.0
  0
LINE
  5
735
102
{ACAD_REACTORS
330
7F7
330
817
102
}
330
1E
100
AcDbEntity
  8
STEMPEL
100
AcDbLine
 10
74.01101249000536
 20
174.4208204340445
 30
0.0
 11
89.85228017813742
 21
174.4208204340444
 31
0.0
  0
LINE
  5
737
102
{ACAD_REACTORS
330
7F7
330
817
102
}
330
1E
100
AcDbEntity
  8
STEMPEL
100
AcDbLine
 10
73.45228017813738
 20
158.4208204340444
 30
0.0
 11
74.01101249000536
 21
174.4208204340445
 31
0.0
  0
LINE
  5
738
102
{ACAD_REACTORS
330
817
102
}
330
1E
100
AcDbEntity
  8
STEMPEL
100
AcDbLine
 10
85.85228017813742
 20
164.4208204340444
 30
0.0
 11
89.85228017813742
 21
164.4208204340445
 31
0.0
  0
LINE
  5
73A
102
{ACAD_REACTORS
330
817
102
}
330
1E
100
AcDbEntity
  8
STEMPEL
100
AcDbLine
 10
85.85228017813742
 20
164.4208204340444
 30
0.0
 11
82.38817856299963
 21
158.4208204340444
 31
0.0
  0
LINE
  5
73B
102
{ACAD_REACTORS
330
817
102
}
330
1E
100
AcDbEntity
  8
STEMPEL
100
AcDbLine
 10
77.85228017813742
 20
158.4208204340444
 30
0.0
 11
77.85228017813742
 21
156.4208204340444
 31
0.0
  0
LINE
  5
73C
102
{ACAD_REACTORS
330
817
102
}
330
1E
100
AcDbEntity
  8
STEMPEL
100
AcDbLine
 10
77.85228017813742
 20
158.4208204340444
 30
0.0
 11
89.85228017813742
 21
158.4208204340444
 31
0.0
  0
LINE
  5
742
102
{ACAD_REACTORS
330
7F7
330
817
102
}
330
1E
100
AcDbEntity
  8
STEMPEL
100
AcDbLine
 10
159.2522801781374
 20
158.4208204340444
 30
0.0
 11
158.6935478662694
 21
174.4208204340445
 31
0.0
  0
LINE
  5
747
102
{ACAD_REACTORS
330
817
102
}
330
1E
100
AcDbEntity
  8
STEMPEL
100
AcDbLine
 10
160.8522801781374
 20
158.4208204340444
 30
0.0
 11
160.8522801781374
 21
156.4208204340444
 31
0.0
  0
LINE
  5
748
102
{ACAD_REACTORS
330
817
102
}
330
1E
100
AcDbEntity
  8
STEMPEL
100
AcDbLine
 10
146.8522801781374
 20
164.4208204340444
 30
0.0
 11
150.3163817932751
 21
158.4208204340444
 31
0.0
  0
LINE
  5
749
102
{ACAD_REACTORS
330
817
102
}
330
1E
100
AcDbEntity
  8
STEMPEL
100
AcDbLine
 10
154.8522801781374
 20
158.4208204340444
 30
0.0
 11
154.8522801781374
 21
156.4208204340444
 31
0.0
  0
POINT
  5
74A
330
1E
100
AcDbEntity
  8
STEMPEL
100
AcDbPoint
 10
85.85228017813742
 20
164.4208204340444
 30
0.0
  0
POINT
  5
74B
330
1E
100
AcDbEntity
  8
STEMPEL
100
AcDbPoint
 10
146.8522801781374
 20
164.4208204340444
 30
0.0
  0
POINT
  5
74C
330
1E
100
AcDbEntity
  8
STEMPEL
100
AcDbPoint
 10
148.8522801781374
 20
160.9567188189067
 30
0.0
  0
POINT
  5
74D
330
1E
100
AcDbEntity
  8
STEMPEL
100
AcDbPoint
 10
158.6935478662694
 20
174.4208204340445
 30
0.0
  0
POINT
  5
74F
330
1E
100
AcDbEntity
  8
STEMPEL
100
AcDbPoint
 10
160.8522801781374
 20
156.4208204340444
 30
0.0
  0
POINT
  5
750
330
1E
100
AcDbEntity
  8
STEMPEL
100
AcDbPoint
 10
146.8522801781374
 20
164.4208204340444
 30
0.0
  0
POINT
  5
751
330
1E
100
AcDbEntity
  8
STEMPEL
100
AcDbPoint
 10
77.85228017813742
 20
156.4208204340444
 30
0.0
  0
POINT
  5
752
330
1E
100
AcDbEntity
  8
STEMPEL
100
AcDbPoint
 10
154.8522801781374
 20
156.4208204340444
 30
0.0
  0
POINT
  5
753
330
1E
100
AcDbEntity
  8
STEMPEL
100
AcDbPoint
 10
71.85228017813741
 20
156.4208204340444
 30
0.0
  0
POINT
  5
754
330
1E
100
AcDbEntity
  8
STEMPEL
100
AcDbPoint
 10
160.8522801781374
 20
156.4208204340444
 30
0.0
  0
POINT
  5
756
330
1E
100
AcDbEntity
  8
STEMPEL
100
AcDbPoint
 10
159.2522801781374
 20
158.4208204340444
 30
0.0
  0
POINT
  5
75C
330
1E
100
AcDbEntity
  8
STEMPEL
100
AcDbPoint
 10
74.01101249000536
 20
174.4208204340445
 30
0.0
  0
LINE
  5
75E
102
{ACAD_REACTORS
330
79D
330
817
102
}
330
1E
100
AcDbEntity
  8
STEMPEL
100
AcDbLine
 10
73.4522801781374
 20
158.4208204340445
 30
0.0
 11
71.85228017813741
 21
158.4208204340445
 31
0.0
  0
LINE
  5
75F
102
{ACAD_REACTORS
330
7F7
330
817
102
}
330
1E
100
AcDbEntity
  8
STEMPEL
100
AcDbLine
 10
142.8522801781374
 20
174.4208204340444
 30
0.0
 11
158.6935478662693
 21
174.4208204340443
 31
0.0
  0
LINE
  5
760
102
{ACAD_REACTORS
330
817
102
}
330
1E
100
AcDbEntity
  8
STEMPEL
100
AcDbLine
 10
142.8522801781374
 20
164.4208204340444
 30
0.0
 11
146.8522801781374
 21
164.4208204340444
 31
0.0
  0
LINE
  5
761
102
{ACAD_REACTORS
330
817
102
}
330
1E
100
AcDbEntity
  8
STEMPEL
100
AcDbLine
 10
142.8522801781374
 20
158.4208204340445
 30
0.0
 11
154.8522801781374
 21
158.4208204340445
 31
0.0
  0
LINE
  5
762
102
{ACAD_REACTORS
330
817
102
}
330
1E
100
AcDbEntity
  8
STEMPEL
100
AcDbLine
 10
142.8522801781374
 20
156.4208204340445
 30
0.0
 11
160.8522801781375
 21
156.4208204340445
 31
0.0
  0
HATCH
  5
786
330
1E
100
AcDbEntity
  8
SCHRAFF
100
AcDbHatch
 10
0.0
 20
0.0
 30
0.0
210
0.0
220
0.0
230
1.0
  2
_USER
 70
     0
 71
     1
 91
        2
 92
        7
 72
     1
 73
     1
 93
       10
 10
142.8522801781374
 20
189.999464196735
 42
0.0354891516928757
 10
142.6512700513607
 20
192.827891321481
 42
0.0
 10
141.8522801781374
 20
198.4208204340444
 42
0.0
 10
140.3370513613091
 20
198.4208204340444
 42
0.0
 10
141.166345810869
 20
192.615759287125
 42
-0.0354891516928752
 10
141.3522801781374
 20
189.999464196735
 42
0.0
 10
141.3522801781374
 20
135.486311848407
 42
0.0
 10
140.7341297771409
 20
128.4208204340445
 42
0.0
 10
142.2398595334559
 20
128.4208204340445
 42
0.0
 10
142.8522801781374
 20
135.4208204340443
 42
0.0
 97
       10
330
317
330
319
330
31E
330
4D5
330
4D3
330
4CD
330
4CF
330
322
330
31B
330
320
 92
        7
 72
     1
 73
     1
 93
       10
 10
91.35228017813743
 20
189.9994641967349
 42
-0.0354891516928787
 10
91.53821454540585
 20
192.6157592871252
 42
0.0
 10
92.36750899496573
 20
198.4208204340445
 42
0.0
 10
90.85228017813742
 20
198.4208204340445
 42
0.0
 10
90.05329030491409
 20
192.8278913214813
 42
0.0354891516928792
 10
89.85228017813742
 20
189.999464196735
 42
0.0
 10
89.85228017813742
 20
135.4208204340445
 42
0.0
 10
90.4647008228189
 20
128.4208204340445
 42
0.0
 10
91.97043057913395
 20
128.4208204340445
 42
0.0
 10
91.35228017813743
 20
135.4863118484072
 42
0.0
 97
       10
330
4D6
330
4D8
330
31E
330
318
330
316
330
321
330
31C
330
322
330
4D0
330
4D1
 75
     1
 76
     0
 52
45.0
 41
2.0
 77
     0
 78
     1
 53
45.0
 43
0.0
 44
0.0
 45
-1.414213562373094
 46
1.414213562373095
 79
     0
 47
0.2109548335437419
 98
        2
 10
142.0295170580243
 20
174.6974582899839
 10
90.95480373384225
 20
180.3932393920315
1001
GradientColor1ACI
1070
     5
1001
GradientColor2ACI
1070
     2
1001
ACAD
1010
0.0
1020
0.0
1030
0.0
  0
HATCH
  5
79D
330
1E
100
AcDbEntity
  8
SCHRAFF
100
AcDbHatch
 10
0.0
 20
0.0
 30
0.0
210
0.0
220
0.0
230
1.0
  2
_USER
 70
     0
 71
     1
 91
        2
 92
        7
 72
     0
 73
     1
 93
        4
 10
73.45228017813742
 20
243.4208204340444
 10
71.85228017813741
 20
243.4208204340444
 10
71.85228017813741
 20
158.4208204340445
 10
73.45228017813742
 20
158.4208204340445
 97
        4
330
339
330
56D
330
75E
330
582
 92
        7
 72
     0
 73
     1
 93
        4
 10
160.8522801781374
 20
243.4208204340444
 10
159.2522801781374
 20
243.4208204340444
 10
159.2522801781374
 20
158.4208204340445
 10
160.8522801781374
 20
158.4208204340445
 97
        4
330
339
330
581
330
580
330
56C
 75
     1
 76
     0
 52
45.0
 41
2.0
 77
     0
 78
     1
 53
45.0
 43
0.0
 44
0.0
 45
-1.414213562373094
 46
1.414213562373095
 79
     0
 47
0.2121589056170863
 98
        2
 10
73.08430286999191
 20
227.9989639156224
 10
159.472967294203
 20
223.9679450318315
1001
GradientColor1ACI
1070
     5
1001
GradientColor2ACI
1070
     2
1001
ACAD
1010
0.0
1020
0.0
1030
0.0
  0
HATCH
  5
7C1
330
1E
100
AcDbEntity
  8
SCHRAFF
100
AcDbHatch
 10
0.0
 20
0.0
 30
0.0
210
0.0
220
0.0
230
1.0
  2
_USER
 70
     0
 71
     1
 91
        1
 92
        7
 72
     1
 73
     1
 93
       23
 10
99.35413672597105
 20
243.4208204340444
 42
0.0
 10
98.25091460312144
 20
243.4208204340444
 42
0.1056993479927631
 10
96.85228017813736
 20
236.878640113636
 42
0.0
 10
96.85228017813736
 20
233.5198204340445
 42
0.0
 10
96.85241015355972
 20
233.5198204340445
 42
0.0977457506731789
 10
97.97731023514916
 20
227.8205827801651
 42
-0.0977457506731828
 10
98.35228017813742
 20
225.9208204340444
 42
0.0
 10
98.35228017813747
 20
222.0263717095084
 42
0.1414496603262336
 10
99.58304940890666
 20
217.7628620293389
 42
-0.1414496603262345
 10
100.3522801781374
 20
215.098168479233
 42
0.0
 10
100.3522801781374
 20
210.7232364654269
 42
-0.1852813328911344
 10
98.81204505562038
 20
206.7094480756922
 42
0.0
 10
91.35228017813743
 20
198.4208204340445
 42
0.0
 10
92.69764258284476
 20
198.4208204340445
 42
0.0
 10
99.55533920186754
 20
206.0404833440698
 42
0.1852813328911348
 10
101.3522801781374
 20
210.7232364654269
 42
0.0
 10
101.3522801781374
 20
215.098168479233
 42
0.1414496603262344
 10
100.4292032550605
 20
218.2958007393601
 42
-0.1414496603262373
 10
99.35228017813749
 20
222.0263717095086
 42
0.0
 10
99.35228017813741
 20
225.9208204340445
 42
0.0977457506731793
 10
98.9023162465515
 20
228.2005352493893
 42
-0.0977457506731795
 10
97.85241015355971
 20
233.5198204340445
 42
0.0
 10
97.85228022306053
 20
236.8774792109022
 42
-0.1133284849264134
 97
       23
330
339
330
332
330
331
330
330
330
338
330
333
330
335
330
334
330
337
330
336
330
300
330
301
330
31E
330
4D9
330
4DA
330
4DC
330
4DD
330
4DF
330
4EC
330
4ED
330
4EF
330
4F4
330
4F3
 75
     1
 76
     0
 52
135.0
 41
2.0
 77
     0
 78
     1
 53
135.0
 43
0.0
 44
0.0
 45
-1.414213562373095
 46
-1.414213562373094
 79
     0
 47
0.0835603488971415
 98
        1
 10
97.40964309731522
 20
234.7535886663079
1001
GradientColor1ACI
1070
     5
1001
GradientColor2ACI
1070
     2
1001
ACAD
1010
0.0
1020
0.0
1030
0.0
  0
HATCH
  5
7C2
330
1E
100
AcDbEntity
  8
SCHRAFF
100
AcDbHatch
 10
0.0
 20
0.0
 30
0.0
210
0.0
220
0.0
230
1.0
  2
_USER
 70
     0
 71
     0
 91
        1
 92
        7
 72
     1
 73
     1
 93
       23
 10
133.3504236303038
 20
243.4208204340444
 42
0.0
 10
134.4536457531534
 20
243.4208204340444
 42
-0.1056993479927631
 10
135.8522801781375
 20
236.878640113636
 42
0.0
 10
135.8522801781375
 20
233.5198204340445
 42
0.0
 10
135.8521502027151
 20
233.5198204340445
 42
-0.0977457506731789
 10
134.7272501211256
 20
227.8205827801651
 42
0.0977457506731828
 10
134.3522801781374
 20
225.9208204340444
 42
0.0
 10
134.3522801781373
 20
222.0263717095084
 42
-0.1414496603262336
 10
133.1215109473681
 20
217.7628620293389
 42
0.1414496603262345
 10
132.3522801781374
 20
215.098168479233
 42
0.0
 10
132.3522801781374
 20
210.7232364654269
 42
0.1852813328911344
 10
133.8925153006544
 20
206.7094480756922
 42
0.0
 10
141.3522801781374
 20
198.4208204340445
 42
0.0
 10
140.0069177734301
 20
198.4208204340445
 42
0.0
 10
133.1492211544073
 20
206.0404833440698
 42
-0.1852813328911348
 10
131.3522801781374
 20
210.7232364654269
 42
0.0
 10
131.3522801781374
 20
215.098168479233
 42
-0.1414496603262344
 10
132.2753571012143
 20
218.2958007393601
 42
0.1414496603262373
 10
133.3522801781373
 20
222.0263717095086
 42
0.0
 10
133.3522801781374
 20
225.9208204340445
 42
-0.0977457506731793
 10
133.8022441097233
 20
228.2005352493893
 42
0.0977457506731795
 10
134.8521502027151
 20
233.5198204340445
 42
0.0
 10
134.8522801332143
 20
236.8774792109022
 42
0.1133284849264134
 97
        0
 75
     1
 76
     0
 52
135.0
 41
2.0
 77
     0
 78
     1
 53
135.0
 43
0.0
 44
0.0
 45
-1.414213562373095
 46
-1.414213562373094
 79
     0
 47
0.0835603488971415
 98
        1
 10
135.2949172589596
 20
234.7535886663079
1001
GradientColor1ACI
1070
     5
1001
GradientColor2ACI
1070
     2
1001
ACAD
1010
0.0
1020
0.0
1030
0.0
  0
HATCH
  5
7F7
330
1E
100
AcDbEntity
  8
SCHRAFF
100
AcDbHatch
 10
0.0
 20
0.0
 30
0.0
210
0.0
220
0.0
230
1.0
  2
HONEY
 70
     0
 71
     1
 91
        2
 92
        7
 72
     1
 73
     1
 93
       19
 10
99.58304940890668
 20
217.7628620293389
 42
-0.141449660326237
 10
98.35228017813747
 20
222.0263717095086
 42
0.0
 10
98.35228017813742
 20
225.9208204340445
 42
0.0977457506731791
 10
97.97731023514913
 20
227.8205827801651
 42
-0.097745750673179
 10
96.85241015355972
 20
233.5198204340445
 42
0.0
 10
96.85228017813736
 20
233.5198204340445
 42
0.0
 10
96.85228017813736
 20
236.8786401136361
 42
-0.1056993479927629
 10
98.25091460312144
 20
243.4208204340444
 42
0.0
 10
73.45228017813742
 20
243.4208204340444
 42
0.0
 10
73.45228017813742
 20
158.4208204340453
 42
0.0
 10
74.01101249000536
 20
174.4208204340445
 42
0.0
 10
89.85228017813742
 20
174.4208204340444
 42
0.0
 10
89.85228017813742
 20
189.999464196735
 42
-0.0354891516928793
 10
90.05329030491409
 20
192.8278913214813
 42
0.0
 10
90.56656589242313
 20
196.4208204340445
 42
-0.7064004598268933
 10
93.15228017813739
 20
200.4208204340445
 42
0.0
 10
98.81204505562038
 20
206.7094480756922
 42
0.1852813328911341
 10
100.3522801781374
 20
210.7232364654269
 42
0.0
 10
100.3522801781374
 20
215.098168479233
 42
0.1414496603262347
 97
       19
330
334
330
335
330
333
330
338
330
330
330
331
330
332
330
339
330
582
330
737
330
735
330
321
330
316
330
318
330
415
330
301
330
300
330
336
330
337
 92
        7
 72
     1
 73
     1
 93
       18
 10
159.2522801781374
 20
243.4208204340444
 42
0.0
 10
134.4536457531533
 20
243.4208204340444
 42
-0.1056993479927633
 10
135.8522801781374
 20
236.878640113636
 42
0.0
 10
135.852150202715
 20
233.5198204340445
 42
-0.0977457506731787
 10
134.7272501211256
 20
227.8205827801651
 42
0.0977457506731826
 10
134.3522801781374
 20
225.9208204340444
 42
0.0
 10
134.3522801781373
 20
222.0263717095084
 42
-0.1414496603262335
 10
133.1215109473681
 20
217.7628620293389
 42
0.1414496603262331
 10
132.3522801781374
 20
215.098168479233
 42
0.0
 10
132.3522801781374
 20
210.723236465427
 42
0.1852813328911338
 10
133.8925153006544
 20
206.7094480756923
 42
0.0
 10
139.5522801781374
 20
200.4208204340445
 42
-0.7064004598269053
 10
142.1379944638516
 20
196.4208204340445
 42
0.0
 10
142.6512700513607
 20
192.827891321481
 42
-0.0354891516928754
 10
142.8522801781374
 20
189.999464196735
 42
0.0
 10
142.8522801781374
 20
174.4208204340444
 42
0.0
 10
158.6935478662694
 20
174.4208204340443
 42
0.0
 10
159.2522801781374
 20
158.4208204340437
 42
0.0
 97
       18
330
339
330
329
330
327
330
32F
330
32A
330
32C
330
32B
330
32E
330
32D
330
2FF
330
302
330
409
330
319
330
317
330
320
330
75F
330
742
330
581
 75
     1
 76
     1
 52
0.0
 41
20.0
 77
     0
 78
     3
 53
0.0
 43
0.0
 44
0.0
 45
3.75
 46
2.165063509461096
 79
     2
 49
2.5
 49
-5.0
 53
120.0
 43
0.0
 44
0.0
 45
-3.749999999999999
 46
2.165063509461097
 79
     2
 49
2.499999999999999
 49
-4.999999999999999
 53
60.0
 43
0.0
 44
0.0
 45
0.0000000000000008
 46
4.330127018922193
 79
     2
 49
-5.0
 49
2.5
 47
0.1336212790099136
 98
        2
 10
91.96784743693729
 20
217.4661952718641
 10
150.2537070782007
 20
205.5739011901206
1001
GradientColor1ACI
1070
     5
1001
GradientColor2ACI
1070
     2
1001
ACAD
1010
0.0
1020
0.0
1030
0.0
  0
HATCH
  5
817
330
1E
100
AcDbEntity
  8
SCHRAFF
100
AcDbHatch
 10
0.0
 20
0.0
 30
0.0
210
0.0
220
0.0
230
1.0
  2
NET
 70
     0
 71
     1
 91
        2
 92
        7
 72
     0
 73
     1
 93
       10
 10
89.85228017813742
 20
174.4208204340444
 10
74.01101249000536
 20
174.4208204340445
 10
73.45228017813738
 20
158.4208204340445
 10
71.85228017813741
 20
158.4208204340445
 10
71.85228017813741
 20
156.4208204340444
 10
77.85228017813742
 20
156.4208204340444
 10
77.85228017813742
 20
158.4208204340444
 10
82.38817856299963
 20
158.4208204340444
 10
85.85228017813742
 20
164.4208204340444
 10
89.85228017813742
 20
164.4208204340445
 97
       10
330
735
330
737
330
75E
330
733
330
734
330
73B
330
73C
330
73A
330
738
330
321
 92
        7
 72
     0
 73
     1
 93
       10
 10
158.6935478662694
 20
174.4208204340443
 10
142.8522801781374
 20
174.4208204340444
 10
142.8522801781374
 20
164.4208204340444
 10
146.8522801781374
 20
164.4208204340444
 10
150.3163817932751
 20
158.4208204340445
 10
154.8522801781374
 20
158.4208204340445
 10
154.8522801781374
 20
156.4208204340445
 10
160.8522801781374
 20
156.4208204340445
 10
160.8522801781374
 20
158.4208204340445
 10
159.2522801781374
 20
158.4208204340445
 97
       10
330
75F
330
320
330
760
330
748
330
761
330
749
330
762
330
747
330
580
330
742
 75
     1
 76
     1
 52
45.0
 41
20.0
 77
     0
 78
     2
 53
45.0
 43
0.0
 44
0.0
 45
-1.767766952966368
 46
1.767766952966368
 79
     0
 53
135.0
 43
0.0
 44
0.0
 45
-1.767766952966368
 46
-1.767766952966368
 79
     0
 47
0.1336212790099136
 98
        2
 10
77.39638252662166
 20
167.7590790165974
 10
150.1200239247757
 20
166.4228663867865
1001
GradientColor1ACI
1070
     5
1001
GradientColor2ACI
1070
     2
1001
ACAD
1010
0.0
1020
0.0
1030
0.0
  0
TEXT
  5
874
330
1E
100
AcDbEntity
  8
TEXT
 62
     1
100
AcDbText
 10
123.6727087431187
 20
68.47410385093031
 30
0.0
 40
3.5
  1
und innenbeschichtet
 41
0.8
  7
GREEKS
100
AcDbText
  0
TEXT
  5
875
330
1E
100
AcDbEntity
  8
TEXT
 62
     1
100
AcDbText
 10
96.0982389827633
 20
62.17668615823928
 30
0.0
 40
3.5
  1
Dämmung: 2 K-PU-Schaum
 41
0.8
  7
GREEKS
100
AcDbText
  0
TEXT
  5
876
330
1E
100
AcDbEntity
  8
TEXT
 62
     1
100
AcDbText
 10
99.84544430511187
 20
74.10863077054319
 30
0.0
 40
3.5
  1
Innenrohr: E195 EN10305 feuerverzinkt
 41
0.8
  7
GREEKS
100
AcDbText
  0
TEXT
  5
877
330
1E
100
AcDbEntity
  8
TEXT
 62
     1
100
AcDbText
 10
97.95933561967984
 20
79.78516478872069
 30
0.0
 40
3.5
  1
Außenrohr: E195 EN10305 feuerverzinkt
 41
0.8
  7
GREEKS
100
AcDbText
  0
ENDSEC
  0
SECTION
  2
OBJECTS
  0
DICTIONARY
  5
C
330
0
100
AcDbDictionary
281
     1
  3
ACAD_CIP_PREVIOUS_PRODUCT_INFO
350
492
  3
ACAD_COLOR
350
DF
  3
ACAD_DETAILVIEWSTYLE
350
48E
  3
ACAD_GROUP
350
D
  3
ACAD_LAYOUT
350
19
  3
ACAD_MATERIAL
350
DE
  3
ACAD_MLEADERSTYLE
350
489
  3
ACAD_MLINESTYLE
350
16
  3
ACAD_PLOTSETTINGS
350
18
  3
ACAD_PLOTSTYLENAME
350
E
  3
ACAD_SCALELIST
350
477
  3
ACAD_SECTIONVIEWSTYLE
350
48B
  3
ACAD_TABLESTYLE
350
475
  3
ACAD_VISUALSTYLE
350
45C
  3
ACDB_RECOMPOSE_DATA
350
97C
  3
AcDbVariableDictionary
350
EA
  0
DICTIONARY
  5
883
330
8
100
AcDbDictionary
280
     1
281
     1
  0
DICTIONARY
  5
6B1
330
2
100
AcDbDictionary
280
     1
281
     1
  3
ACAD_LAYERSTATES
360
6B2
  0
DICTIONARY
  5
4F5
330
10
100
AcDbDictionary
280
     1
281
     1
  3
ADSK_XREC_LAYER_RECONCILED
360
4F6
  0
DICTIONARY
  5
4F7
330
2A
100
AcDbDictionary
280
     1
281
     1
  3
ADSK_XREC_LAYER_RECONCILED
360
4F8
  0
DICTIONARY
  5
4F9
330
2B
100
AcDbDictionary
280
     1
281
     1
  3
ADSK_XREC_LAYER_RECONCILED
360
4FA
  0
DICTIONARY
  5
4FB
330
2C
100
AcDbDictionary
280
     1
281
     1
  3
ADSK_XREC_LAYER_RECONCILED
360
4FC
  0
DICTIONARY
  5
4FD
330
2F
100
AcDbDictionary
280
     1
281
     1
  3
ADSK_XREC_LAYER_RECONCILED
360
4FE
  0
DICTIONARY
  5
4FF
330
30
100
AcDbDictionary
280
     1
281
     1
  3
ADSK_XREC_LAYER_RECONCILED
360
500
  0
DICTIONARY
  5
501
330
31
100
AcDbDictionary
280
     1
281
     1
  3
ADSK_XREC_LAYER_RECONCILED
360
502
  0
DICTIONARY
  5
503
330
22F
100
AcDbDictionary
280
     1
281
     1
  3
ADSK_XREC_LAYER_RECONCILED
360
504
  0
DICTIONARY
  5
A0
330
1E
100
AcDbDictionary
280
     1
281
     1
  3
ACAD_LAYOUTSELFREF
360
D4
  3
ACAD_SORTENTS
360
4CA
  0
DICTIONARY
  5
A2
330
1A
100
AcDbDictionary
280
     1
281
     1
  3
ACAD_LAYOUTSELFREF
360
D3
  0
XRECORD
  5
492
102
{ACAD_REACTORS
330
C
102
}
330
C
100
AcDbXrecord
280
     1
300
ACD
300
2013
300
ACD_F_S
  0
DICTIONARY
  5
DF
102
{ACAD_REACTORS
330
C
102
}
330
C
100
AcDbDictionary
281
     1
  0
DICTIONARY
  5
48E
102
{ACAD_REACTORS
330
C
102
}
330
C
100
AcDbDictionary
281
     1
  3
Imperial24
350
48F
  0
DICTIONARY
  5
D
102
{ACAD_REACTORS
330
C
102
}
330
C
100
AcDbDictionary
281
     1
  0
DICTIONARY
  5
19
102
{ACAD_REACTORS
330
C
102
}
330
C
100
AcDbDictionary
281
     1
  3
Layout1
350
1D
  3
Model
350
21
  0
DICTIONARY
  5
DE
102
{ACAD_REACTORS
330
C
102
}
330
C
100
AcDbDictionary
281
     1
  3
ByBlock
350
44C
  3
ByLayer
350
444
  3
Global
350
454
  0
DICTIONARY
  5
489
102
{ACAD_REACTORS
330
C
102
}
330
C
100
AcDbDictionary
281
     1
  3
Standard
350
48A
  0
DICTIONARY
  5
16
102
{ACAD_REACTORS
330
C
102
}
330
C
100
AcDbDictionary
281
     1
  3
Standard
350
17
  0
DICTIONARY
  5
18
102
{ACAD_REACTORS
330
C
102
}
330
C
100
AcDbDictionary
281
     1
  0
ACDBDICTIONARYWDFLT
  5
E
102
{ACAD_REACTORS
330
C
102
}
330
C
100
AcDbDictionary
281
     1
  3
Normal
350
F
100
AcDbDictionaryWithDefault
340
F
  0
DICTIONARY
  5
477
102
{ACAD_REACTORS
330
C
102
}
330
C
100
AcDbDictionary
281
     1
  3
A0
350
478
  3
A1
350
479
  3
A2
350
47A
  3
A3
350
47B
  3
A4
350
47C
  3
A5
350
47D
  3
A6
350
47E
  3
A7
350
47F
  3
A8
350
480
  3
A9
350
481
  3
B0
350
482
  3
B1
350
483
  3
B2
350
484
  3
B3
350
485
  3
B4
350
486
  3
B5
350
487
  3
B6
350
488
  0
DICTIONARY
  5
48B
102
{ACAD_REACTORS
330
C
102
}
330
C
100
AcDbDictionary
281
     1
  3
Imperial24
350
48D
  0
DICTIONARY
  5
475
102
{ACAD_REACTORS
330
C
102
}
330
C
100
AcDbDictionary
281
     1
  3
Standard
350
476
  0
DICTIONARY
  5
45C
102
{ACAD_REACTORS
330
C
102
}
330
C
100
AcDbDictionary
281
     1
  3
2dWireframe
350
462
  3
Basic
350
461
  3
Brighten
350
468
  3
ColorChange
350
46C
  3
Conceptual
350
465
  3
Dim
350
467
  3
EdgeColorOff
350
474
  3
Facepattern
350
46B
  3
Flat
350
45D
  3
FlatWithEdges
350
45E
  3
Gouraud
350
45F
  3
GouraudWithEdges
350
460
  3
Hidden
350
464
  3
JitterOff
350
472
  3
Linepattern
350
46A
  3
OverhangOff
350
473
  3
Realistic
350
466
  3
Shaded
350
471
  3
Shaded with edges
350
470
  3
Shades of Gray
350
46D
  3
Sketchy
350
46E
  3
Thicken
350
469
  3
Wireframe
350
463
  3
X-Ray
350
46F
  0
XRECORD
  5
97C
102
{ACAD_REACTORS
330
C
102
}
330
C
100
AcDbXrecord
280
     1
 90
        1
330
476
  0
DICTIONARY
  5
EA
102
{ACAD_REACTORS
330
C
102
}
330
C
100
AcDbDictionary
281
     1
  3
CANNOSCALE
350
8C2
  3
CMLEADERSTYLE
350
8BF
  3
CTABLESTYLE
350
8BE
  3
CVIEWDETAILSTYLE
350
8C0
  3
CVIEWSECTIONSTYLE
350
8C1
  3
DIMASSOC
350
EB
  3
LAYEREVAL
350
979
  3
LAYERNOTIFY
350
97A
  3
LIGHTINGUNITS
350
978
  3
MSLTSCALE
350
977
  3
PROJECTNAME
350
EC
  0
DICTIONARY
  5
6B2
102
{ACAD_REACTORS
330
6B1
102
}
330
6B1
100
AcDbDictionary
281
     1
  0
XRECORD
  5
4F6
102
{ACAD_REACTORS
330
4F5
102
}
330
4F5
100
AcDbXrecord
280
     1
290
     1
  0
XRECORD
  5
4F8
102
{ACAD_REACTORS
330
4F7
102
}
330
4F7
100
AcDbXrecord
280
     1
290
     1
  0
XRECORD
  5
4FA
102
{ACAD_REACTORS
330
4F9
102
}
330
4F9
100
AcDbXrecord
280
     1
290
     1
  0
XRECORD
  5
4FC
102
{ACAD_REACTORS
330
4FB
102
}
330
4FB
100
AcDbXrecord
280
     1
290
     1
  0
XRECORD
  5
4FE
102
{ACAD_REACTORS
330
4FD
102
}
330
4FD
100
AcDbXrecord
280
     1
290
     1
  0
XRECORD
  5
500
102
{ACAD_REACTORS
330
4FF
102
}
330
4FF
100
AcDbXrecord
280
     1
290
     1
  0
XRECORD
  5
502
102
{ACAD_REACTORS
330
501
102
}
330
501
100
AcDbXrecord
280
     1
290
     1
  0
XRECORD
  5
504
102
{ACAD_REACTORS
330
503
102
}
330
503
100
AcDbXrecord
280
     1
290
     1
  0
XRECORD
  5
D4
102
{ACAD_REACTORS
330
A0
102
}
330
A0
100
AcDbXrecord
280
     1
340
1E
  0
SORTENTSTABLE
  5
4CA
102
{ACAD_REACTORS
330
A0
102
}
330
A0
100
AcDbSortentsTable
330
1E
331
74
  5
74
331
70
  5
70
331
302
  5
335
331
751
  5
7C4
331
6C
  5
6C
331
68
  5
68
331
64
  5
64
331
28E
  5
28E
331
74D
  5
7A1
331
339
  5
735
331
60
  5
60
331
9B
  5
9B
331
749
  5
78A
331
335
  5
582
331
4F1
  5
4DE
331
5B0
  5
74E
331
331
  5
4F0
331
4ED
  5
56D
331
4E9
  5
4E8
331
5C
  5
5C
331
58
  5
58
331
32D
  5
4E9
331
93
  5
93
331
8F
  5
8F
331
329
  5
4E0
331
4E5
  5
4EC
331
8B
  5
8B
331
735
  5
758
331
4E1
  5
336
331
321
  5
4D5
331
4DD
  5
5E6
331
4D9
  5
334
331
87
  5
87
331
31D
  5
4CD
331
83
  5
83
331
319
  5
413
331
7F
  5
7F
331
7B
  5
7B
331
4D5
  5
414
331
4D1
  5
4D6
331
580
  5
4D8
331
760
  5
762
331
413
  5
742
331
56C
  5
33A
331
4CD
  5
4D4
331
77
  5
77
331
73
  5
73
331
75C
  5
7FF
331
301
  5
333
331
754
  5
7FC
331
750
  5
7C2
331
6F
  5
6F
331
6B
  5
6B
331
67
  5
67
331
817
  5
4D2
331
63
  5
63
331
338
  5
733
331
74C
  5
79F
331
9A
  5
9A
331
334
  5
580
331
7F7
  5
327
331
4F4
  5
4F1
331
748
  5
789
331
5E6
  5
752
331
4F0
  5
4EE
331
330
  5
4EF
331
4EC
  5
5B0
331
5F
  5
5F
331
5B
  5
5B
331
96
  5
96
331
57
  5
57
331
32C
  5
4E7
331
92
  5
92
331
8E
  5
8E
331
328
  5
4DF
331
73C
  5
767
331
8A
  5
8A
331
363
  5
73C
331
4E4
  5
4EA
331
738
  5
75E
331
320
  5
4D3
331
734
  5
756
331
4DC
  5
5CA
331
4D8
  5
3C6
331
86
  5
86
331
31C
  5
4CB
331
82
  5
82
331
7E
  5
7E
331
318
  5
3B0
331
5CA
  5
750
331
7A
  5
7A
331
4D0
  5
4CC
331
76
  5
76
331
75F
  5
759
331
72
  5
72
331
300
  5
331
331
753
  5
7C8
331
6E
  5
6E
331
6A
  5
6A
331
3C6
  5
740
331
66
  5
66
331
74F
  5
7A2
331
62
  5
62
331
337
  5
5D7
331
74B
  5
791
331
99
  5
99
331
333
  5
56C
331
4F3
  5
4F4
331
747
  5
788
331
4EF
  5
734
331
5E
  5
5E
331
5A
  5
5A
331
32F
  5
4ED
331
95
  5
95
331
32B
  5
4E5
331
39A
  5
73F
331
91
  5
91
331
8D
  5
8D
331
327
  5
4DD
331
4E7
  5
4E6
331
73B
  5
766
331
7C2
  5
800
331
89
  5
89
331
362
  5
73B
331
737
  5
75C
331
4DF
  5
581
331
733
  5
754
331
31F
  5
4D0
331
85
  5
85
331
118
  5
118
331
31B
  5
424
331
81
  5
81
331
786
  5
354
331
7D
  5
7D
331
317
  5
363
331
4D3
  5
39A
331
582
  5
339
331
79
  5
79
331
415
  5
74C
331
4CF
  5
4C9
331
762
  5
757
331
75E
  5
4DA
331
75
  5
75
331
71
  5
71
331
409
  5
741
331
756
  5
7FE
331
752
  5
7C7
331
5BD
  5
74F
331
2FF
  5
329
331
6D
  5
6D
331
69
  5
69
331
28F
  5
28F
331
65
  5
65
331
336
  5
5BD
331
74A
  5
790
331
61
  5
61
331
98
  5
98
331
332
  5
4F2
331
4F2
  5
4E1
331
742
  5
76B
331
4EA
  5
4E4
331
5D
  5
5D
331
32E
  5
4EB
331
94
  5
94
331
59
  5
59
331
32A
  5
4E2
331
90
  5
90
331
8C
  5
8C
331
326
  5
4DB
331
73A
  5
764
331
7C1
  5
32C
331
88
  5
88
331
361
  5
73A
331
322
  5
4D7
331
79D
  5
337
331
4E2
  5
32B
331
4DA
  5
332
331
31E
  5
4CE
331
84
  5
84
331
80
  5
80
331
7C
  5
7C
331
316
  5
361
331
4D6
  5
362
331
424
  5
74D
331
78
  5
78
331
581
  5
347
331
761
  5
76A
331
414
  5
748
331
56D
  5
338
  0
XRECORD
  5
D3
102
{ACAD_REACTORS
330
A2
102
}
330
A2
100
AcDbXrecord
280
     1
340
1A
  0
ACDBDETAILVIEWSTYLE
  5
48F
102
{ACAD_REACTORS
330
48E
102
}
330
48E
100
AcDbModelDocViewStyle
 70
     0
  3
Imperial24
290
     0
100
AcDbDetailViewStyle
 70
     0
 71
     0
 90
        3
 71
     1
340
11
 62
   256
 40
0.24
340
0
 62
   256
 40
0.24
300

 40
0.36
280
     3
 71
     2
340
15
 90
       25
 62
   256
 71
     3
340
11
 62
   256
 40
0.24
 90
        1
 40
0.75
 90
        1
300
%<\AcVar ViewType \f "%tc1">% %<\AcVar ViewDetailId>%\PVARIA %<\AcVar ViewScale \f "%sn">%
 71
     4
340
15
 90
       25
 62
   256
340
15
 90
       25
 62
   256
280
     0
  0
LAYOUT
  5
1D
102
{ACAD_REACTORS
330
19
102
}
330
19
100
AcDbPlotSettings
  1

  2
\\NT_WORK01\HP LaserJet 5000 PCL 6
  4

  6

 40
0.0
 41
0.0
 42
0.0
 43
0.0
 44
0.0
 45
0.0
 46
0.0
 47
0.0
 48
0.0
 49
0.0
140
0.0
141
0.0
142
1.0
143
1.0
 70
   688
 72
     0
 73
     0
 74
     5
  7

 75
    16
147
1.0
 76
     0
 77
     2
 78
   300
148
0.0
149
0.0
100
AcDbLayout
  1
Layout1
 70
     0
 71
     1
 10
0.0
 20
0.0
 11
12.0
 21
9.0
 12
0.0
 22
0.0
 32
0.0
 14
1.000000000000000E+20
 24
1.000000000000000E+20
 34
1.000000000000000E+20
 15
-1.000000000000000E+20
 25
-1.000000000000000E+20
 35
-1.000000000000000E+20
146
0.0
 13
0.0
 23
0.0
 33
0.0
 16
1.0
 26
0.0
 36
0.0
 17
0.0
 27
1.0
 37
0.0
 76
     0
330
1A
  0
LAYOUT
  5
21
102
{ACAD_XDICTIONARY
360
885
102
}
102
{ACAD_REACTORS
330
19
102
}
330
19
100
AcDbPlotSettings
  1

  2
none_device
  4
Letter_(8.50_x_11.00_Inches)
  6

 40
6.349999904632568
 41
6.349999904632568
 42
6.350006103515625
 43
6.350006103515625
 44
215.8999938964844
 45
279.3999938964844
 46
0.0
 47
0.0
 48
0.0
 49
0.0
140
0.0
141
0.0
142
1.0
143
48.39544240471585
 70
 11952
 72
     0
 73
     1
 74
     0
  7

 75
     0
147
0.0206631027698293
 76
     0
 77
     2
 78
   300
148
3786.531724928027
149
25.8043666497324
100
AcDbLayout
  1
Model
 70
     1
 71
     0
 10
0.0
 20
0.0
 11
12.0
 21
9.0
 12
0.0
 22
0.0
 32
0.0
 14
0.0
 24
0.0
 34
0.0
 15
0.0
 25
0.0
 35
0.0
146
0.0
 13
0.0
 23
0.0
 33
0.0
 16
1.0
 26
0.0
 36
0.0
 17
0.0
 27
1.0
 37
0.0
 76
     0
330
1E
331
442
1001
ACAD_PSEXT
1000
Kein
1000
Kein
1000
Nicht anwendbar
1000
Das Layout wird erst geplottet, wenn ein neuer Plotter-Konfigurationsname ausgewählt wird.
1070
     0
  0
MATERIAL
  5
44C
102
{ACAD_XDICTIONARY
360
44D
102
}
102
{ACAD_REACTORS
330
DE
102
}
330
DE
100
AcDbMaterial
  1
ByBlock
 72
     0
 43
0.0208333333333333
 43
0.0
 43
0.0
 43
0.0
 43
0.0
 43
0.0208333333333333
 43
0.0
 43
0.0
 43
0.0
 43
0.0
 43
1.0
 43
0.0
 43
0.0
 43
0.0
 43
0.0
 43
1.0
 77
     0
 47
0.0208333333333333
 47
0.0
 47
0.0
 47
0.0
 47
0.0
 47
0.0208333333333333
 47
0.0
 47
0.0
 47
0.0
 47
0.0
 47
1.0
 47
0.0
 47
0.0
 47
0.0
 47
0.0
 47
1.0
171
     0
 49
0.0208333333333333
 49
0.0
 49
0.0
 49
0.0
 49
0.0
 49
0.0208333333333333
 49
0.0
 49
0.0
 49
0.0
 49
0.0
 49
1.0
 49
0.0
 49
0.0
 49
0.0
 49
0.0
 49
1.0
175
     0
142
0.0208333333333333
142
0.0
142
0.0
142
0.0
142
0.0
142
0.0208333333333333
142
0.0
142
0.0
142
0.0
142
0.0
142
1.0
142
0.0
142
0.0
142
0.0
142
0.0
142
1.0
179
     0
144
0.0208333333333333
144
0.0
144
0.0
144
0.0
144
0.0
144
0.0208333333333333
144
0.0
144
0.0
144
0.0
144
0.0
144
1.0
144
0.0
144
0.0
144
0.0
144
0.0
144
1.0
147
0.0208333333333333
147
0.0
147
0.0
147
0.0
147
0.0
147
0.0208333333333333
147
0.0
147
0.0
147
0.0
147
0.0
147
1.0
147
0.0
147
0.0
147
0.0
147
0.0
147
1.0
  0
MATERIAL
  5
444
102
{ACAD_XDICTIONARY
360
445
102
}
102
{ACAD_REACTORS
330
DE
102
}
330
DE
100
AcDbMaterial
  1
ByLayer
 72
     0
 43
0.0208333333333333
 43
0.0
 43
0.0
 43
0.0
 43
0.0
 43
0.0208333333333333
 43
0.0
 43
0.0
 43
0.0
 43
0.0
 43
1.0
 43
0.0
 43
0.0
 43
0.0
 43
0.0
 43
1.0
 77
     0
 47
0.0208333333333333
 47
0.0
 47
0.0
 47
0.0
 47
0.0
 47
0.0208333333333333
 47
0.0
 47
0.0
 47
0.0
 47
0.0
 47
1.0
 47
0.0
 47
0.0
 47
0.0
 47
0.0
 47
1.0
171
     0
 49
0.0208333333333333
 49
0.0
 49
0.0
 49
0.0
 49
0.0
 49
0.0208333333333333
 49
0.0
 49
0.0
 49
0.0
 49
0.0
 49
1.0
 49
0.0
 49
0.0
 49
0.0
 49
0.0
 49
1.0
175
     0
142
0.0208333333333333
142
0.0
142
0.0
142
0.0
142
0.0
142
0.0208333333333333
142
0.0
142
0.0
142
0.0
142
0.0
142
1.0
142
0.0
142
0.0
142
0.0
142
0.0
142
1.0
179
     0
144
0.0208333333333333
144
0.0
144
0.0
144
0.0
144
0.0
144
0.0208333333333333
144
0.0
144
0.0
144
0.0
144
0.0
144
1.0
144
0.0
144
0.0
144
0.0
144
0.0
144
1.0
147
0.0208333333333333
147
0.0
147
0.0
147
0.0
147
0.0
147
0.0208333333333333
147
0.0
147
0.0
147
0.0
147
0.0
147
1.0
147
0.0
147
0.0
147
0.0
147
0.0
147
1.0
  0
MATERIAL
  5
454
102
{ACAD_XDICTIONARY
360
455
102
}
102
{ACAD_REACTORS
330
DE
102
}
330
DE
100
AcDbMaterial
  1
Global
 72
     0
 43
0.0208333333333333
 43
0.0
 43
0.0
 43
0.0
 43
0.0
 43
0.0208333333333333
 43
0.0
 43
0.0
 43
0.0
 43
0.0
 43
1.0
 43
0.0
 43
0.0
 43
0.0
 43
0.0
 43
1.0
 77
     0
 47
0.0208333333333333
 47
0.0
 47
0.0
 47
0.0
 47
0.0
 47
0.0208333333333333
 47
0.0
 47
0.0
 47
0.0
 47
0.0
 47
1.0
 47
0.0
 47
0.0
 47
0.0
 47
0.0
 47
1.0
171
     0
 49
0.0208333333333333
 49
0.0
 49
0.0
 49
0.0
 49
0.0
 49
0.0208333333333333
 49
0.0
 49
0.0
 49
0.0
 49
0.0
 49
1.0
 49
0.0
 49
0.0
 49
0.0
 49
0.0
 49
1.0
175
     0
142
0.0208333333333333
142
0.0
142
0.0
142
0.0
142
0.0
142
0.0208333333333333
142
0.0
142
0.0
142
0.0
142
0.0
142
1.0
142
0.0
142
0.0
142
0.0
142
0.0
142
1.0
179
     0
144
0.0208333333333333
144
0.0
144
0.0
144
0.0
144
0.0
144
0.0208333333333333
144
0.0
144
0.0
144
0.0
144
0.0
144
1.0
144
0.0
144
0.0
144
0.0
144
0.0
144
1.0
147
0.0208333333333333
147
0.0
147
0.0
147
0.0
147
0.0
147
0.0208333333333333
147
0.0
147
0.0
147
0.0
147
0.0
147
1.0
147
0.0
147
0.0
147
0.0
147
0.0
147
1.0
  0
MLEADERSTYLE
  5
48A
102
{ACAD_REACTORS
330
489
102
}
330
489
100
AcDbMLeaderStyle
179
     2
170
     2
171
     1
172
     0
 90
        2
 40
0.0
 41
0.0
173
     1
 91
-1056964608
340
13
 92
       -2
290
     1
 42
0.09
291
     1
 43
0.36
  3
Standard
 44
0.18
300

342
11
174
     1
178
     6
175
     1
176
     0
 93
-1056964608
 45
0.18
292
     0
297
     0
 46
0.18
 94
-1056964608
 47
1.0
 49
1.0
140
1.0
293
     1
141
0.0
294
     1
177
     0
142
1.0
295
     0
296
     0
143
0.125
271
     0
272
     9
273
     9
298
     1
  0
MLINESTYLE
  5
17
102
{ACAD_REACTORS
330
16
102
}
330
16
100
AcDbMlineStyle
  2
STANDARD
 70
     0
  3

 62
   256
 51
90.0
 52
90.0
 71
     2
 49
0.5
 62
   256
  6
BYLAYER
 49
-0.5
 62
   256
  6
BYLAYER
  0
ACDBPLACEHOLDER
  5
F
102
{ACAD_REACTORS
330
E
102
}
330
E
  0
SCALE
  5
478
102
{ACAD_REACTORS
330
477
102
}
330
477
100
AcDbScale
 70
     0
300
1:1
140
1.0
141
1.0
290
     1
  0
SCALE
  5
479
102
{ACAD_REACTORS
330
477
102
}
330
477
100
AcDbScale
 70
     0
300
1/128" = 1'-0"
140
0.0078125
141
12.0
290
     0
  0
SCALE
  5
47A
102
{ACAD_REACTORS
330
477
102
}
330
477
100
AcDbScale
 70
     0
300
1/64" = 1'-0"
140
0.015625
141
12.0
290
     0
  0
SCALE
  5
47B
102
{ACAD_REACTORS
330
477
102
}
330
477
100
AcDbScale
 70
     0
300
1/32" = 1'-0"
140
0.03125
141
12.0
290
     0
  0
SCALE
  5
47C
102
{ACAD_REACTORS
330
477
102
}
330
477
100
AcDbScale
 70
     0
300
1/16" = 1'-0"
140
0.0625
141
12.0
290
     0
  0
SCALE
  5
47D
102
{ACAD_REACTORS
330
477
102
}
330
477
100
AcDbScale
 70
     0
300
3/32" = 1'-0"
140
0.09375
141
12.0
290
     0
  0
SCALE
  5
47E
102
{ACAD_REACTORS
330
477
102
}
330
477
100
AcDbScale
 70
     0
300
1/8" = 1'-0"
140
0.125
141
12.0
290
     0
  0
SCALE
  5
47F
102
{ACAD_REACTORS
330
477
102
}
330
477
100
AcDbScale
 70
     0
300
3/16" = 1'-0"
140
0.1875
141
12.0
290
     0
  0
SCALE
  5
480
102
{ACAD_REACTORS
330
477
102
}
330
477
100
AcDbScale
 70
     0
300
1/4" = 1'-0"
140
0.25
141
12.0
290
     0
  0
SCALE
  5
481
102
{ACAD_REACTORS
330
477
102
}
330
477
100
AcDbScale
 70
     0
300
3/8" = 1'-0"
140
0.375
141
12.0
290
     0
  0
SCALE
  5
482
102
{ACAD_REACTORS
330
477
102
}
330
477
100
AcDbScale
 70
     0
300
1/2" = 1'-0"
140
0.5
141
12.0
290
     0
  0
SCALE
  5
483
102
{ACAD_REACTORS
330
477
102
}
330
477
100
AcDbScale
 70
     0
300
3/4" = 1'-0"
140
0.75
141
12.0
290
     0
  0
SCALE
  5
484
102
{ACAD_REACTORS
330
477
102
}
330
477
100
AcDbScale
 70
     0
300
1" = 1'-0"
140
1.0
141
12.0
290
     0
  0
SCALE
  5
485
102
{ACAD_REACTORS
330
477
102
}
330
477
100
AcDbScale
 70
     0
300
1-1/2" = 1'-0"
140
1.5
141
12.0
290
     0
  0
SCALE
  5
486
102
{ACAD_REACTORS
330
477
102
}
330
477
100
AcDbScale
 70
     0
300
3" = 1'-0"
140
3.0
141
12.0
290
     0
  0
SCALE
  5
487
102
{ACAD_REACTORS
330
477
102
}
330
477
100
AcDbScale
 70
     0
300
6" = 1'-0"
140
6.0
141
12.0
290
     0
  0
SCALE
  5
488
102
{ACAD_REACTORS
330
477
102
}
330
477
100
AcDbScale
 70
     0
300
1'-0" = 1'-0"
140
12.0
141
12.0
290
     0
  0
ACDBSECTIONVIEWSTYLE
  5
48D
102
{ACAD_REACTORS
330
48B
102
}
330
48B
100
AcDbModelDocViewStyle
 70
     0
  3
Imperial24
290
     0
100
AcDbSectionViewStyle
 70
     0
 71
     0
 90
       78
 71
     1
340
11
 62
   256
 40
0.24
340
0
340
0
 62
   256
 40
0.24
300
I, O, Q, S, X, Z
 40
0.48
 90
        3
 40
0.18
 90
        1
 71
     2
340
48C
 90
       25
 62
   256
340
15
 90
       50
 62
   256
 40
0.24
 40
0.0
 40
0.24
 71
     3
340
11
 62
   256
 40
0.24
 90
        1
 40
0.75
 90
        1
300
%<\AcVar ViewType \f "%tc1">% %<\AcVar ViewSectionStartId>%-%<\AcVar ViewSectionEndId>%\PVARIA %<\AcVar ViewScale \f "%sn">%
 71
     4
 62
   256
 62
   257
300
ANSI31
 40
1.0
 90
        0
290
     0
290
     0
 90
        6
 40
0.0
 40
1.570796326794896
 40
0.2617993877991494
 40
1.308996938995747
 40
-0.2617993877991494
 40
1.832595714594046
  0
TABLESTYLE
  5
476
102
{ACAD_XDICTIONARY
360
878
102
}
102
{ACAD_REACTORS
330
475
102
}
330
475
100
AcDbTableStyle
280
     0
  3
Standard
 70
     0
 71
     0
 40
0.06
 41
0.06
280
     0
281
     0
  7
STANDARD
140
0.18
170
     2
 62
     0
 63
     7
283
     0
 90
      512
 91
        0
  1

274
    -2
284
     1
 64
     0
275
    -2
285
     1
 65
     0
276
    -2
286
     1
 66
     0
277
    -2
287
     1
 67
     0
278
    -2
288
     1
 68
     0
279
    -2
289
     1
 69
     0
  7
STANDARD
140
0.25
170
     5
 62
     0
 63
     7
283
     0
 90
      512
 91
        0
  1

274
    -2
284
     1
 64
     0
275
    -2
285
     1
 65
     0
276
    -2
286
     1
 66
     0
277
    -2
287
     1
 67
     0
278
    -2
288
     1
 68
     0
279
    -2
289
     1
 69
     0
  7
STANDARD
140
0.18
170
     5
 62
     0
 63
     7
283
     0
 90
      512
 91
        0
  1

274
    -2
284
     1
 64
     0
275
    -2
285
     1
 65
     0
276
    -2
286
     1
 66
     0
277
    -2
287
     1
 67
     0
278
    -2
288
     1
 68
     0
279
    -2
289
     1
 69
     0
  0
VISUALSTYLE
  5
462
102
{ACAD_REACTORS
330
45C
102
}
330
45C
100
AcDbVisualStyle
  2
2dWireframe
 70
     4
177
     3
291
     0
 70
    58
 90
        0
176
     1
 90
        2
176
     1
 90
        0
176
     1
 90
        0
176
     1
 40
0.6
176
     1
 40
30.0
176
     1
 62
     7
420
 16777215
176
     1
 90
        1
176
     1
 90
        4
176
     1
 62
     7
176
     1
 62
   257
176
     1
 90
        1
176
     1
 90
        1
176
     1
 40
1.0
176
     1
 90
        0
176
     1
 62
   257
176
     1
 40
1.0
176
     1
 90
        1
176
     1
 90
        6
176
     1
 90
        2
176
     1
 62
     7
176
     1
 90
        5
176
     1
 90
        0
176
     1
 90
        0
176
     1
290
     0
176
     1
 90
        1
176
     1
 40
0.0
176
     1
 90
        0
176
     1
290
     1
176
     1
290
     1
176
     1
290
     0
176
     1
290
     0
176
     1
290
     0
176
     1
290
     0
176
     1
290
     0
176
     1
290
     0
176
     1
290
     0
176
     1
 90
       50
176
     1
 40
0.0
176
     1
 40
1.0
176
     1
 90
        0
176
     1
 62
    18
420
        0
176
     1
 90
       50
176
     1
 90
        3
176
     1
 62
     5
420
      255
176
     1
290
     0
176
     1
 90
       50
176
     1
 90
       50
176
     1
 90
       50
176
     1
290
     0
176
     1
 90
       50
176
     1
 62
   256
176
     0
 40
1.0
176
     0
 90
        2
176
     1
  1
strokes_ogs.tif
176
     1
290
     0
176
     1
 40
1.0
176
     1
 40
1.0
176
     1
  0
VISUALSTYLE
  5
461
102
{ACAD_REACTORS
330
45C
102
}
330
45C
100
AcDbVisualStyle
  2
Basic
 70
     7
177
     3
291
     1
 70
    58
 90
        1
176
     1
 90
        0
176
     1
 90
        1
176
     1
 90
        0
176
     1
 40
0.6
176
     1
 40
30.0
176
     1
 62
     7
420
 16777215
176
     1
 90
        0
176
     1
 90
        4
176
     1
 62
     7
176
     1
 62
   257
176
     1
 90
        1
176
     1
 90
        1
176
     1
 40
1.0
176
     1
 90
        8
176
     1
 62
     7
176
     1
 40
1.0
176
     1
 90
        1
176
     1
 90
        6
176
     1
 90
        2
176
     1
 62
     7
176
     1
 90
        5
176
     1
 90
        0
176
     1
 90
        0
176
     1
290
     0
176
     1
 90
        1
176
     1
 40
0.0
176
     1
 90
        0
176
     1
290
     0
176
     1
290
     1
176
     1
290
     1
176
     1
290
     0
176
     1
290
     0
176
     1
290
     0
176
     1
290
     0
176
     1
290
     0
176
     1
290
     0
176
     1
 90
       50
176
     1
 40
0.0
176
     1
 40
1.0
176
     1
 90
        0
176
     1
 62
    18
420
        0
176
     1
 90
       50
176
     1
 90
        3
176
     1
 62
     5
420
      255
176
     1
290
     0
176
     1
 90
       50
176
     1
 90
       50
176
     1
 90
       50
176
     1
290
     0
176
     1
 90
       50
176
     1
 62
   256
176
     0
 40
1.0
176
     0
 90
        2
176
     1
  1
strokes_ogs.tif
176
     1
290
     0
176
     1
 40
1.0
176
     1
 40
1.0
176
     1
  0
VISUALSTYLE
  5
468
102
{ACAD_REACTORS
330
45C
102
}
330
45C
100
AcDbVisualStyle
  2
Brighten
 70
    12
177
     3
291
     1
 70
    58
 90
        2
176
     1
 90
        2
176
     1
 90
        0
176
     1
 90
        0
176
     1
 40
0.6
176
     1
 40
30.0
176
     1
 62
     7
420
 16777215
176
     1
 90
        1
176
     1
 90
        4
176
     1
 62
     7
176
     1
 62
   257
176
     1
 90
        1
176
     1
 90
        1
176
     1
 40
1.0
176
     1
 90
        8
176
     1
 62
     7
176
     1
 40
1.0
176
     1
 90
        1
176
     1
 90
        6
176
     1
 90
        2
176
     1
 62
     7
176
     1
 90
        5
176
     1
 90
        0
176
     1
 90
        0
176
     1
290
     0
176
     1
 90
        1
176
     1
 40
50.0
176
     1
 90
        0
176
     1
290
     0
176
     1
290
     1
176
     1
290
     1
176
     1
290
     0
176
     1
290
     0
176
     1
290
     0
176
     1
290
     0
176
     1
290
     0
176
     1
290
     0
176
     1
 90
       50
176
     1
 40
0.0
176
     1
 40
1.0
176
     1
 90
        0
176
     1
 62
    18
420
        0
176
     1
 90
       50
176
     1
 90
        3
176
     1
 62
     5
420
      255
176
     1
290
     0
176
     1
 90
       50
176
     1
 90
       50
176
     1
 90
       50
176
     1
290
     0
176
     1
 90
       50
176
     1
 62
   256
176
     0
 40
1.0
176
     0
 90
        2
176
     1
  1
strokes_ogs.tif
176
     1
290
     0
176
     1
 40
1.0
176
     1
 40
1.0
176
     1
  0
VISUALSTYLE
  5
46C
102
{ACAD_REACTORS
330
45C
102
}
330
45C
100
AcDbVisualStyle
  2
ColorChange
 70
    16
177
     3
291
     1
 70
    58
 90
        2
176
     1
 90
        2
176
     1
 90
        3
176
     1
 90
        0
176
     1
 40
0.6
176
     1
 40
30.0
176
     1
 62
     8
420
  8421504
176
     1
 90
        1
176
     1
 90
        4
176
     1
 62
     7
176
     1
 62
   257
176
     1
 90
        1
176
     1
 90
        1
176
     1
 40
1.0
176
     1
 90
        8
176
     1
 62
     8
420
  8421504
176
     1
 40
1.0
176
     1
 90
        1
176
     1
 90
        6
176
     1
 90
        2
176
     1
 62
     7
176
     1
 90
        5
176
     1
 90
        0
176
     1
 90
        0
176
     1
290
     0
176
     1
 90
        1
176
     1
 40
0.0
176
     1
 90
        0
176
     1
290
     0
176
     1
290
     1
176
     1
290
     1
176
     1
290
     0
176
     1
290
     0
176
     1
290
     0
176
     1
290
     0
176
     1
290
     0
176
     1
290
     0
176
     1
 90
       50
176
     1
 40
0.0
176
     1
 40
1.0
176
     1
 90
        0
176
     1
 62
    18
420
        0
176
     1
 90
       50
176
     1
 90
        3
176
     1
 62
     5
420
      255
176
     1
290
     0
176
     1
 90
       50
176
     1
 90
       50
176
     1
 90
       50
176
     1
290
     0
176
     1
 90
       50
176
     1
 62
   256
176
     0
 40
1.0
176
     0
 90
        2
176
     1
  1
strokes_ogs.tif
176
     1
290
     0
176
     1
 40
1.0
176
     1
 40
1.0
176
     1
  0
VISUALSTYLE
  5
465
102
{ACAD_REACTORS
330
45C
102
}
330
45C
100
AcDbVisualStyle
  2
Conceptual
 70
     9
177
     3
291
     0
 70
    58
 90
        3
176
     1
 90
        2
176
     1
 90
        0
176
     1
 90
        0
176
     1
 40
0.6
176
     1
 40
30.0
176
     1
 62
     7
420
 16777215
176
     1
 90
        2
176
     1
 90
        2
176
     1
 62
     7
176
     1
 62
   257
176
     1
 90
        1
176
     1
 90
        1
176
     1
 40
179.0
176
     1
 90
        8
176
     1
 62
     7
176
     1
 40
1.0
176
     1
 90
        1
176
     1
 90
        6
176
     1
 90
        2
176
     1
 62
     7
176
     1
 90
        3
176
     1
 90
        0
176
     1
 90
        0
176
     1
290
     0
176
     1
 90
        1
176
     1
 40
0.0
176
     1
 90
        0
176
     1
290
     0
176
     1
290
     1
176
     1
290
     1
176
     1
290
     0
176
     1
290
     0
176
     1
290
     0
176
     1
290
     0
176
     1
290
     0
176
     1
290
     0
176
     1
 90
       50
176
     1
 40
0.0
176
     1
 40
1.0
176
     1
 90
        0
176
     1
 62
    18
420
        0
176
     1
 90
       50
176
     1
 90
        3
176
     1
 62
     5
420
      255
176
     1
290
     0
176
     1
 90
       50
176
     1
 90
       50
176
     1
 90
       50
176
     1
290
     0
176
     1
 90
       50
176
     1
 62
   256
176
     0
 40
1.0
176
     0
 90
        2
176
     1
  1
strokes_ogs.tif
176
     1
290
     0
176
     1
 40
1.0
176
     1
 40
1.0
176
     1
  0
VISUALSTYLE
  5
467
102
{ACAD_REACTORS
330
45C
102
}
330
45C
100
AcDbVisualStyle
  2
Dim
 70
    11
177
     3
291
     1
 70
    58
 90
        2
176
     1
 90
        2
176
     1
 90
        0
176
     1
 90
        0
176
     1
 40
0.6
176
     1
 40
30.0
176
     1
 62
     7
420
 16777215
176
     1
 90
        1
176
     1
 90
        4
176
     1
 62
     7
176
     1
 62
   257
176
     1
 90
        1
176
     1
 90
        1
176
     1
 40
1.0
176
     1
 90
        8
176
     1
 62
     7
176
     1
 40
1.0
176
     1
 90
        1
176
     1
 90
        6
176
     1
 90
        2
176
     1
 62
     7
176
     1
 90
        5
176
     1
 90
        0
176
     1
 90
        0
176
     1
290
     0
176
     1
 90
        1
176
     1
 40
-50.0
176
     1
 90
        0
176
     1
290
     0
176
     1
290
     1
176
     1
290
     1
176
     1
290
     0
176
     1
290
     0
176
     1
290
     0
176
     1
290
     0
176
     1
290
     0
176
     1
290
     0
176
     1
 90
       50
176
     1
 40
0.0
176
     1
 40
1.0
176
     1
 90
        0
176
     1
 62
    18
420
        0
176
     1
 90
       50
176
     1
 90
        3
176
     1
 62
     5
420
      255
176
     1
290
     0
176
     1
 90
       50
176
     1
 90
       50
176
     1
 90
       50
176
     1
290
     0
176
     1
 90
       50
176
     1
 62
   256
176
     0
 40
1.0
176
     0
 90
        2
176
     1
  1
strokes_ogs.tif
176
     1
290
     0
176
     1
 40
1.0
176
     1
 40
1.0
176
     1
  0
VISUALSTYLE
  5
474
102
{ACAD_REACTORS
330
45C
102
}
330
45C
100
AcDbVisualStyle
  2
EdgeColorOff
 70
    22
177
     3
291
     1
 70
    58
 90
        2
176
     0
 90
        2
176
     0
 90
        0
176
     0
 90
        0
176
     0
 40
0.6
176
     0
 40
30.0
176
     0
 62
     7
420
 16777215
176
     0
 90
        1
176
     0
 90
        4
176
     0
 62
     7
176
     0
 62
   257
176
     0
 90
        1
176
     0
 90
        1
176
     0
 40
1.0
176
     0
 90
        8
176
     2
 62
     7
176
     0
 40
1.0
176
     0
 90
        1
176
     0
 90
        6
176
     0
 90
        2
176
     0
 62
     7
176
     0
 90
        5
176
     0
 90
        0
176
     0
 90
        0
176
     0
290
     0
176
     0
 90
        1
176
     0
 40
0.0
176
     0
 90
        0
176
     0
290
     0
176
     0
290
     1
176
     0
290
     1
176
     0
290
     0
176
     0
290
     0
176
     0
290
     0
176
     0
290
     0
176
     0
290
     0
176
     0
290
     0
176
     0
 90
       50
176
     0
 40
0.0
176
     0
 40
1.0
176
     0
 90
        0
176
     0
 62
    18
420
        0
176
     0
 90
       50
176
     0
 90
        3
176
     0
 62
     5
420
      255
176
     0
290
     0
176
     0
 90
       50
176
     0
 90
       50
176
     0
 90
       50
176
     0
290
     0
176
     0
 90
       50
176
     0
 62
   256
176
     0
 40
1.0
176
     0
 90
        2
176
     0
  1
strokes_ogs.tif
176
     0
290
     0
176
     0
 40
1.0
176
     0
 40
1.0
176
     0
  0
VISUALSTYLE
  5
46B
102
{ACAD_REACTORS
330
45C
102
}
330
45C
100
AcDbVisualStyle
  2
Facepattern
 70
    15
177
     3
291
     1
 70
    58
 90
        2
176
     1
 90
        2
176
     1
 90
        0
176
     1
 90
        0
176
     1
 40
0.6
176
     1
 40
30.0
176
     1
 62
     7
420
 16777215
176
     1
 90
        1
176
     1
 90
        4
176
     1
 62
     7
176
     1
 62
   257
176
     1
 90
        1
176
     1
 90
        1
176
     1
 40
1.0
176
     1
 90
        8
176
     1
 62
     7
176
     1
 40
1.0
176
     1
 90
        1
176
     1
 90
        6
176
     1
 90
        2
176
     1
 62
     7
176
     1
 90
        5
176
     1
 90
        0
176
     1
 90
        0
176
     1
290
     0
176
     1
 90
        1
176
     1
 40
0.0
176
     1
 90
        0
176
     1
290
     0
176
     1
290
     1
176
     1
290
     1
176
     1
290
     0
176
     1
290
     0
176
     1
290
     0
176
     1
290
     0
176
     1
290
     0
176
     1
290
     0
176
     1
 90
       50
176
     1
 40
0.0
176
     1
 40
1.0
176
     1
 90
        0
176
     1
 62
    18
420
        0
176
     1
 90
       50
176
     1
 90
        3
176
     1
 62
     5
420
      255
176
     1
290
     0
176
     1
 90
       50
176
     1
 90
       50
176
     1
 90
       50
176
     1
290
     0
176
     1
 90
       50
176
     1
 62
   256
176
     0
 40
1.0
176
     0
 90
        2
176
     1
  1
strokes_ogs.tif
176
     1
290
     0
176
     1
 40
1.0
176
     1
 40
1.0
176
     1
  0
VISUALSTYLE
  5
45D
102
{ACAD_REACTORS
330
45C
102
}
330
45C
100
AcDbVisualStyle
  2
Flat
 70
     0
177
     3
291
     1
 70
    58
 90
        2
176
     1
 90
        1
176
     1
 90
        1
176
     1
 90
        2
176
     1
 40
0.6
176
     1
 40
30.0
176
     1
 62
     7
420
 16777215
176
     1
 90
        0
176
     1
 90
        0
176
     1
 62
     7
176
     1
 62
   257
176
     1
 90
        1
176
     1
 90
        1
176
     1
 40
1.0
176
     1
 90
        8
176
     1
 62
     7
176
     1
 40
1.0
176
     1
 90
        1
176
     1
 90
        6
176
     1
 90
        2
176
     1
 62
     7
176
     1
 90
        5
176
     1
 90
        0
176
     1
 90
        0
176
     1
290
     0
176
     1
 90
       13
176
     1
 40
0.0
176
     1
 90
        0
176
     1
290
     0
176
     1
290
     1
176
     1
290
     1
176
     1
290
     0
176
     1
290
     0
176
     1
290
     0
176
     1
290
     0
176
     1
290
     0
176
     1
290
     0
176
     1
 90
       50
176
     1
 40
0.0
176
     1
 40
1.0
176
     1
 90
        0
176
     1
 62
    18
420
        0
176
     1
 90
       50
176
     1
 90
        3
176
     1
 62
     5
420
      255
176
     1
290
     0
176
     1
 90
       50
176
     1
 90
       50
176
     1
 90
       50
176
     1
290
     0
176
     1
 90
       50
176
     1
 62
   256
176
     0
 40
1.0
176
     0
 90
        2
176
     1
  1
strokes_ogs.tif
176
     1
290
     0
176
     1
 40
1.0
176
     1
 40
1.0
176
     1
  0
VISUALSTYLE
  5
45E
102
{ACAD_REACTORS
330
45C
102
}
330
45C
100
AcDbVisualStyle
  2
FlatWithEdges
 70
     1
177
     3
291
     1
 70
    58
 90
        2
176
     1
 90
        1
176
     1
 90
        1
176
     1
 90
        2
176
     1
 40
0.6
176
     1
 40
30.0
176
     1
 62
     7
420
 16777215
176
     1
 90
        1
176
     1
 90
        0
176
     1
 62
     7
176
     1
 62
   257
176
     1
 90
        1
176
     1
 90
        1
176
     1
 40
1.0
176
     1
 90
        0
176
     1
 62
   257
176
     1
 40
1.0
176
     1
 90
        1
176
     1
 90
        6
176
     1
 90
        2
176
     1
 62
     7
176
     1
 90
        5
176
     1
 90
        0
176
     1
 90
        0
176
     1
290
     0
176
     1
 90
       13
176
     1
 40
0.0
176
     1
 90
        0
176
     1
290
     0
176
     1
290
     1
176
     1
290
     1
176
     1
290
     0
176
     1
290
     0
176
     1
290
     0
176
     1
290
     0
176
     1
290
     0
176
     1
290
     0
176
     1
 90
       50
176
     1
 40
0.0
176
     1
 40
1.0
176
     1
 90
        0
176
     1
 62
    18
420
        0
176
     1
 90
       50
176
     1
 90
        3
176
     1
 62
     5
420
      255
176
     1
290
     0
176
     1
 90
       50
176
     1
 90
       50
176
     1
 90
       50
176
     1
290
     0
176
     1
 90
       50
176
     1
 62
   256
176
     0
 40
1.0
176
     0
 90
        2
176
     1
  1
strokes_ogs.tif
176
     1
290
     0
176
     1
 40
1.0
176
     1
 40
1.0
176
     1
  0
VISUALSTYLE
  5
45F
102
{ACAD_REACTORS
330
45C
102
}
330
45C
100
AcDbVisualStyle
  2
Gouraud
 70
     2
177
     3
291
     1
 70
    58
 90
        2
176
     1
 90
        2
176
     1
 90
        1
176
     1
 90
        2
176
     1
 40
0.6
176
     1
 40
30.0
176
     1
 62
     7
420
 16777215
176
     1
 90
        0
176
     1
 90
        0
176
     1
 62
     7
176
     1
 62
   257
176
     1
 90
        1
176
     1
 90
        1
176
     1
 40
1.0
176
     1
 90
        0
176
     1
 62
     7
176
     1
 40
1.0
176
     1
 90
        1
176
     1
 90
        6
176
     1
 90
        2
176
     1
 62
     7
176
     1
 90
        5
176
     1
 90
        0
176
     1
 90
        0
176
     1
290
     0
176
     1
 90
       13
176
     1
 40
0.0
176
     1
 90
        0
176
     1
290
     0
176
     1
290
     1
176
     1
290
     1
176
     1
290
     0
176
     1
290
     0
176
     1
290
     0
176
     1
290
     0
176
     1
290
     0
176
     1
290
     0
176
     1
 90
       50
176
     1
 40
0.0
176
     1
 40
1.0
176
     1
 90
        0
176
     1
 62
    18
420
        0
176
     1
 90
       50
176
     1
 90
        3
176
     1
 62
     5
420
      255
176
     1
290
     0
176
     1
 90
       50
176
     1
 90
       50
176
     1
 90
       50
176
     1
290
     0
176
     1
 90
       50
176
     1
 62
   256
176
     0
 40
1.0
176
     0
 90
        2
176
     1
  1
strokes_ogs.tif
176
     1
290
     0
176
     1
 40
1.0
176
     1
 40
1.0
176
     1
  0
VISUALSTYLE
  5
460
102
{ACAD_REACTORS
330
45C
102
}
330
45C
100
AcDbVisualStyle
  2
GouraudWithEdges
 70
     3
177
     3
291
     1
 70
    58
 90
        2
176
     1
 90
        2
176
     1
 90
        1
176
     1
 90
        2
176
     1
 40
0.6
176
     1
 40
30.0
176
     1
 62
     7
420
 16777215
176
     1
 90
        1
176
     1
 90
        0
176
     1
 62
     7
176
     1
 62
   257
176
     1
 90
        1
176
     1
 90
        1
176
     1
 40
1.0
176
     1
 90
        0
176
     1
 62
   257
176
     1
 40
1.0
176
     1
 90
        1
176
     1
 90
        6
176
     1
 90
        2
176
     1
 62
     7
176
     1
 90
        5
176
     1
 90
        0
176
     1
 90
        0
176
     1
290
     0
176
     1
 90
       13
176
     1
 40
0.0
176
     1
 90
        0
176
     1
290
     0
176
     1
290
     1
176
     1
290
     1
176
     1
290
     0
176
     1
290
     0
176
     1
290
     0
176
     1
290
     0
176
     1
290
     0
176
     1
290
     0
176
     1
 90
       50
176
     1
 40
0.0
176
     1
 40
1.0
176
     1
 90
        0
176
     1
 62
    18
420
        0
176
     1
 90
       50
176
     1
 90
        3
176
     1
 62
     5
420
      255
176
     1
290
     0
176
     1
 90
       50
176
     1
 90
       50
176
     1
 90
       50
176
     1
290
     0
176
     1
 90
       50
176
     1
 62
   256
176
     0
 40
1.0
176
     0
 90
        2
176
     1
  1
strokes_ogs.tif
176
     1
290
     0
176
     1
 40
1.0
176
     1
 40
1.0
176
     1
  0
VISUALSTYLE
  5
464
102
{ACAD_REACTORS
330
45C
102
}
330
45C
100
AcDbVisualStyle
  2
Hidden
 70
     6
177
     3
291
     0
 70
    58
 90
        1
176
     1
 90
        2
176
     1
 90
        2
176
     1
 90
        0
176
     1
 40
0.6
176
     1
 40
30.0
176
     1
 62
     7
420
 16777215
176
     1
 90
        2
176
     1
 90
        2
176
     1
 62
     7
176
     1
 62
   257
176
     1
 90
        2
176
     1
 90
        1
176
     1
 40
40.0
176
     1
 90
        0
176
     1
 62
   257
176
     1
 40
1.0
176
     1
 90
        1
176
     1
 90
        6
176
     1
 90
        2
176
     1
 62
     7
176
     1
 90
        3
176
     1
 90
        0
176
     1
 90
        0
176
     1
290
     0
176
     1
 90
        1
176
     1
 40
0.0
176
     1
 90
        0
176
     1
290
     0
176
     1
290
     1
176
     1
290
     1
176
     1
290
     0
176
     1
290
     0
176
     1
290
     0
176
     1
290
     0
176
     1
290
     0
176
     1
290
     0
176
     1
 90
       50
176
     1
 40
0.0
176
     1
 40
1.0
176
     1
 90
        0
176
     1
 62
    18
420
        0
176
     1
 90
       50
176
     1
 90
        3
176
     1
 62
     5
420
      255
176
     1
290
     0
176
     1
 90
       50
176
     1
 90
       50
176
     1
 90
       50
176
     1
290
     0
176
     1
 90
       50
176
     1
 62
   256
176
     0
 40
1.0
176
     0
 90
        2
176
     1
  1
strokes_ogs.tif
176
     1
290
     0
176
     1
 40
1.0
176
     1
 40
1.0
176
     1
  0
VISUALSTYLE
  5
472
102
{ACAD_REACTORS
330
45C
102
}
330
45C
100
AcDbVisualStyle
  2
JitterOff
 70
    20
177
     3
291
     1
 70
    58
 90
        2
176
     0
 90
        2
176
     0
 90
        0
176
     0
 90
        0
176
     0
 40
0.6
176
     0
 40
30.0
176
     0
 62
     7
420
 16777215
176
     0
 90
        1
176
     0
 90
        4
176
     0
 62
     7
176
     0
 62
   257
176
     0
 90
        1
176
     0
 90
        1
176
     0
 40
1.0
176
     0
 90
       10
176
     2
 62
     7
176
     0
 40
1.0
176
     0
 90
        1
176
     0
 90
        6
176
     0
 90
        2
176
     0
 62
     7
176
     0
 90
        5
176
     0
 90
        0
176
     0
 90
        0
176
     0
290
     0
176
     0
 90
        1
176
     0
 40
0.0
176
     0
 90
        0
176
     0
290
     0
176
     0
290
     1
176
     0
290
     1
176
     0
290
     0
176
     0
290
     0
176
     0
290
     0
176
     0
290
     0
176
     0
290
     0
176
     0
290
     0
176
     0
 90
       50
176
     0
 40
0.0
176
     0
 40
1.0
176
     0
 90
        0
176
     0
 62
    18
420
        0
176
     0
 90
       50
176
     0
 90
        3
176
     0
 62
     5
420
      255
176
     0
290
     0
176
     0
 90
       50
176
     0
 90
       50
176
     0
 90
       50
176
     0
290
     0
176
     0
 90
       50
176
     0
 62
   256
176
     0
 40
1.0
176
     0
 90
        2
176
     0
  1
strokes_ogs.tif
176
     0
290
     0
176
     0
 40
1.0
176
     0
 40
1.0
176
     0
  0
VISUALSTYLE
  5
46A
102
{ACAD_REACTORS
330
45C
102
}
330
45C
100
AcDbVisualStyle
  2
Linepattern
 70
    14
177
     3
291
     1
 70
    58
 90
        2
176
     1
 90
        2
176
     1
 90
        0
176
     1
 90
        0
176
     1
 40
0.6
176
     1
 40
30.0
176
     1
 62
     7
420
 16777215
176
     1
 90
        1
176
     1
 90
        4
176
     1
 62
     7
176
     1
 62
   257
176
     1
 90
        7
176
     1
 90
        7
176
     1
 40
1.0
176
     1
 90
        8
176
     1
 62
     7
176
     1
 40
1.0
176
     1
 90
        1
176
     1
 90
        6
176
     1
 90
        2
176
     1
 62
     7
176
     1
 90
        5
176
     1
 90
        0
176
     1
 90
        0
176
     1
290
     0
176
     1
 90
        1
176
     1
 40
0.0
176
     1
 90
        0
176
     1
290
     0
176
     1
290
     1
176
     1
290
     1
176
     1
290
     0
176
     1
290
     0
176
     1
290
     0
176
     1
290
     0
176
     1
290
     0
176
     1
290
     0
176
     1
 90
       50
176
     1
 40
0.0
176
     1
 40
1.0
176
     1
 90
        0
176
     1
 62
    18
420
        0
176
     1
 90
       50
176
     1
 90
        3
176
     1
 62
     5
420
      255
176
     1
290
     0
176
     1
 90
       50
176
     1
 90
       50
176
     1
 90
       50
176
     1
290
     0
176
     1
 90
       50
176
     1
 62
   256
176
     0
 40
1.0
176
     0
 90
        2
176
     1
  1
strokes_ogs.tif
176
     1
290
     0
176
     1
 40
1.0
176
     1
 40
1.0
176
     1
  0
VISUALSTYLE
  5
473
102
{ACAD_REACTORS
330
45C
102
}
330
45C
100
AcDbVisualStyle
  2
OverhangOff
 70
    21
177
     3
291
     1
 70
    58
 90
        2
176
     0
 90
        2
176
     0
 90
        0
176
     0
 90
        0
176
     0
 40
0.6
176
     0
 40
30.0
176
     0
 62
     7
420
 16777215
176
     0
 90
        1
176
     0
 90
        4
176
     0
 62
     7
176
     0
 62
   257
176
     0
 90
        1
176
     0
 90
        1
176
     0
 40
1.0
176
     0
 90
        9
176
     2
 62
     7
176
     0
 40
1.0
176
     0
 90
        1
176
     0
 90
        6
176
     0
 90
        2
176
     0
 62
     7
176
     0
 90
        5
176
     0
 90
        0
176
     0
 90
        0
176
     0
290
     0
176
     0
 90
        1
176
     0
 40
0.0
176
     0
 90
        0
176
     0
290
     0
176
     0
290
     1
176
     0
290
     1
176
     0
290
     0
176
     0
290
     0
176
     0
290
     0
176
     0
290
     0
176
     0
290
     0
176
     0
290
     0
176
     0
 90
       50
176
     0
 40
0.0
176
     0
 40
1.0
176
     0
 90
        0
176
     0
 62
    18
420
        0
176
     0
 90
       50
176
     0
 90
        3
176
     0
 62
     5
420
      255
176
     0
290
     0
176
     0
 90
       50
176
     0
 90
       50
176
     0
 90
       50
176
     0
290
     0
176
     0
 90
       50
176
     0
 62
   256
176
     0
 40
1.0
176
     0
 90
        2
176
     0
  1
strokes_ogs.tif
176
     0
290
     0
176
     0
 40
1.0
176
     0
 40
1.0
176
     0
  0
VISUALSTYLE
  5
466
102
{ACAD_REACTORS
330
45C
102
}
330
45C
100
AcDbVisualStyle
  2
Realistic
 70
     8
177
     3
291
     0
 70
    58
 90
        2
176
     1
 90
        2
176
     1
 90
        0
176
     1
 90
        2
176
     1
 40
0.6
176
     1
 40
30.0
176
     1
 62
     7
420
 16777215
176
     1
 90
        0
176
     1
 90
        0
176
     1
 62
     7
176
     1
 62
   257
176
     1
 90
        1
176
     1
 90
        1
176
     1
 40
1.0
176
     1
 90
        8
176
     1
 62
   257
176
     1
 40
1.0
176
     1
 90
        1
176
     1
 90
        6
176
     1
 90
        2
176
     1
 62
     7
176
     1
 90
        3
176
     1
 90
        0
176
     1
 90
        0
176
     1
290
     0
176
     1
 90
       13
176
     1
 40
0.0
176
     1
 90
        0
176
     1
290
     0
176
     1
290
     1
176
     1
290
     1
176
     1
290
     0
176
     1
290
     0
176
     1
290
     0
176
     1
290
     0
176
     1
290
     0
176
     1
290
     0
176
     1
 90
       50
176
     1
 40
0.0
176
     1
 40
1.0
176
     1
 90
        0
176
     1
 62
    18
420
        0
176
     1
 90
       50
176
     1
 90
        3
176
     1
 62
     5
420
      255
176
     1
290
     0
176
     1
 90
       50
176
     1
 90
       50
176
     1
 90
       50
176
     1
290
     0
176
     1
 90
       50
176
     1
 62
   256
176
     0
 40
1.0
176
     0
 90
        2
176
     1
  1
strokes_ogs.tif
176
     1
290
     0
176
     1
 40
1.0
176
     1
 40
1.0
176
     1
  0
VISUALSTYLE
  5
471
102
{ACAD_REACTORS
330
45C
102
}
330
45C
100
AcDbVisualStyle
  2
Shaded
 70
    27
177
     3
291
     0
 70
    58
 90
        2
176
     1
 90
        2
176
     1
 90
        1
176
     1
 90
        2
176
     1
 40
0.6
176
     1
 40
30.0
176
     1
 62
     7
420
 16777215
176
     1
 90
        0
176
     1
 90
        4
176
     1
 62
     7
176
     1
 62
   257
176
     1
 90
        1
176
     1
 90
        1
176
     1
 40
1.0
176
     1
 90
        8
176
     1
 62
   257
176
     1
 40
1.0
176
     1
 90
        1
176
     1
 90
        6
176
     1
 90
        2
176
     1
 62
     8
420
  7895160
176
     1
 90
        3
176
     1
 90
        0
176
     1
 90
        0
176
     1
290
     0
176
     1
 90
        5
176
     1
 40
0.0
176
     1
 90
        0
176
     1
290
     0
176
     1
290
     1
176
     1
290
     1
176
     1
290
     0
176
     1
290
     0
176
     1
290
     0
176
     1
290
     0
176
     1
290
     0
176
     1
290
     0
176
     1
 90
       50
176
     1
 40
0.0
176
     1
 40
1.0
176
     1
 90
        0
176
     1
 62
    18
420
        0
176
     1
 90
       50
176
     1
 90
        3
176
     1
 62
     5
420
      255
176
     1
290
     0
176
     1
 90
       50
176
     1
 90
       50
176
     1
 90
       50
176
     1
290
     0
176
     1
 90
       50
176
     1
 62
   256
176
     0
 40
1.0
176
     0
 90
        2
176
     1
  1
strokes_ogs.tif
176
     1
290
     0
176
     1
 40
1.0
176
     1
 40
1.0
176
     1
  0
VISUALSTYLE
  5
470
102
{ACAD_REACTORS
330
45C
102
}
330
45C
100
AcDbVisualStyle
  2
Shaded with edges
 70
    26
177
     3
291
     0
 70
    58
 90
        2
176
     1
 90
        2
176
     1
 90
        1
176
     1
 90
        2
176
     1
 40
0.6
176
     1
 40
30.0
176
     1
 62
     7
420
 16777215
176
     1
 90
        1
176
     1
 90
       10
176
     1
 62
     7
176
     1
 62
   257
176
     1
 90
        2
176
     1
 90
        1
176
     1
 40
1.0
176
     1
 90
        8
176
     1
 62
   257
176
     1
 40
1.0
176
     1
 90
        1
176
     1
 90
        6
176
     1
 90
        2
176
     1
 62
     7
176
     1
 90
        3
176
     1
 90
        0
176
     1
 90
        0
176
     1
290
     0
176
     1
 90
        5
176
     1
 40
0.0
176
     1
 90
        0
176
     1
290
     0
176
     1
290
     1
176
     1
290
     1
176
     1
290
     0
176
     1
290
     0
176
     1
290
     0
176
     1
290
     0
176
     1
290
     0
176
     1
290
     0
176
     1
 90
       50
176
     1
 40
0.0
176
     1
 40
1.0
176
     1
 90
        0
176
     1
 62
    18
420
        0
176
     1
 90
       50
176
     1
 90
        3
176
     1
 62
     5
420
      255
176
     1
290
     0
176
     1
 90
       50
176
     1
 90
       50
176
     1
 90
       50
176
     1
290
     0
176
     1
 90
       50
176
     1
 62
   256
176
     0
 40
1.0
176
     0
 90
        2
176
     1
  1
strokes_ogs.tif
176
     1
290
     0
176
     1
 40
1.0
176
     1
 40
1.0
176
     1
  0
VISUALSTYLE
  5
46D
102
{ACAD_REACTORS
330
45C
102
}
330
45C
100
AcDbVisualStyle
  2
Shades of Gray
 70
    23
177
     3
291
     0
 70
    58
 90
        2
176
     1
 90
        2
176
     1
 90
        3
176
     1
 90
        0
176
     1
 40
0.6
176
     1
 40
30.0
176
     1
 62
     7
420
 16777215
176
     1
 90
        2
176
     1
 90
        2
176
     1
 62
     7
176
     1
 62
     7
176
     1
 90
        1
176
     1
 90
        1
176
     1
 40
40.0
176
     1
 90
        8
176
     1
 62
     7
176
     1
 40
1.0
176
     1
 90
        1
176
     1
 90
        6
176
     1
 90
        2
176
     1
 62
     7
176
     1
 90
        3
176
     1
 90
        0
176
     1
 90
        0
176
     1
290
     0
176
     1
 90
        1
176
     1
 40
0.0
176
     1
 90
        0
176
     1
290
     0
176
     1
290
     1
176
     1
290
     1
176
     1
290
     0
176
     1
290
     0
176
     1
290
     0
176
     1
290
     0
176
     1
290
     0
176
     1
290
     0
176
     1
 90
       50
176
     1
 40
0.0
176
     1
 40
1.0
176
     1
 90
        0
176
     1
 62
    18
420
        0
176
     1
 90
       50
176
     1
 90
        3
176
     1
 62
     5
420
      255
176
     1
290
     0
176
     1
 90
       50
176
     1
 90
       50
176
     1
 90
       50
176
     1
290
     0
176
     1
 90
       50
176
     1
 62
   256
176
     0
 40
1.0
176
     0
 90
        2
176
     1
  1
strokes_ogs.tif
176
     1
290
     0
176
     1
 40
1.0
176
     1
 40
1.0
176
     1
  0
VISUALSTYLE
  5
46E
102
{ACAD_REACTORS
330
45C
102
}
330
45C
100
AcDbVisualStyle
  2
Sketchy
 70
    24
177
     3
291
     0
 70
    58
 90
        1
176
     1
 90
        2
176
     1
 90
        2
176
     1
 90
        0
176
     1
 40
0.6
176
     1
 40
30.0
176
     1
 62
     7
420
 16777215
176
     1
 90
        2
176
     1
 90
        2
176
     1
 62
     7
176
     1
 62
     7
176
     1
 90
        1
176
     1
 90
        1
176
     1
 40
40.0
176
     1
 90
       11
176
     1
 62
     7
176
     1
 40
1.0
176
     1
 90
        1
176
     1
 90
        6
176
     1
 90
        2
176
     1
 62
     7
176
     1
 90
        6
176
     1
 90
        0
176
     1
 90
        0
176
     1
290
     0
176
     1
 90
        1
176
     1
 40
0.0
176
     1
 90
        0
176
     1
290
     0
176
     1
290
     1
176
     1
290
     1
176
     1
290
     0
176
     1
290
     0
176
     1
290
     0
176
     1
290
     0
176
     1
290
     0
176
     1
290
     0
176
     1
 90
       50
176
     1
 40
0.0
176
     1
 40
1.0
176
     1
 90
        0
176
     1
 62
    18
420
        0
176
     1
 90
       50
176
     1
 90
        3
176
     1
 62
     5
420
      255
176
     1
290
     0
176
     1
 90
       50
176
     1
 90
       50
176
     1
 90
       50
176
     1
290
     0
176
     1
 90
       50
176
     1
 62
   256
176
     0
 40
1.0
176
     0
 90
        2
176
     1
  1
strokes_ogs.tif
176
     1
290
     0
176
     1
 40
1.0
176
     1
 40
1.0
176
     1
  0
VISUALSTYLE
  5
469
102
{ACAD_REACTORS
330
45C
102
}
330
45C
100
AcDbVisualStyle
  2
Thicken
 70
    13
177
     3
291
     1
 70
    58
 90
        2
176
     1
 90
        2
176
     1
 90
        0
176
     1
 90
        0
176
     1
 40
0.6
176
     1
 40
30.0
176
     1
 62
     7
420
 16777215
176
     1
 90
        1
176
     1
 90
        4
176
     1
 62
     7
176
     1
 62
   257
176
     1
 90
        1
176
     1
 90
        1
176
     1
 40
1.0
176
     1
 90
       12
176
     1
 62
     7
176
     1
 40
1.0
176
     1
 90
        1
176
     1
 90
        6
176
     1
 90
        2
176
     1
 62
     7
176
     1
 90
        5
176
     1
 90
        0
176
     1
 90
        0
176
     1
290
     0
176
     1
 90
        1
176
     1
 40
0.0
176
     1
 90
        0
176
     1
290
     0
176
     1
290
     1
176
     1
290
     1
176
     1
290
     0
176
     1
290
     0
176
     1
290
     0
176
     1
290
     0
176
     1
290
     0
176
     1
290
     0
176
     1
 90
       50
176
     1
 40
0.0
176
     1
 40
1.0
176
     1
 90
        0
176
     1
 62
    18
420
        0
176
     1
 90
       50
176
     1
 90
        3
176
     1
 62
     5
420
      255
176
     1
290
     0
176
     1
 90
       50
176
     1
 90
       50
176
     1
 90
       50
176
     1
290
     0
176
     1
 90
       50
176
     1
 62
   256
176
     0
 40
1.0
176
     0
 90
        2
176
     1
  1
strokes_ogs.tif
176
     1
290
     0
176
     1
 40
1.0
176
     1
 40
1.0
176
     1
  0
VISUALSTYLE
  5
463
102
{ACAD_REACTORS
330
45C
102
}
330
45C
100
AcDbVisualStyle
  2
Wireframe
 70
     5
177
     3
291
     0
 70
    58
 90
        0
176
     1
 90
        2
176
     1
 90
        0
176
     1
 90
        0
176
     1
 40
0.6
176
     1
 40
30.0
176
     1
 62
     7
420
 16777215
176
     1
 90
        1
176
     1
 90
        4
176
     1
 62
     7
176
     1
 62
   257
176
     1
 90
        1
176
     1
 90
        1
176
     1
 40
1.0
176
     1
 90
        0
176
     1
 62
   257
176
     1
 40
1.0
176
     1
 90
        1
176
     1
 90
        6
176
     1
 90
        2
176
     1
 62
     7
176
     1
 90
        3
176
     1
 90
        0
176
     1
 90
        0
176
     1
290
     0
176
     1
 90
        1
176
     1
 40
0.0
176
     1
 90
        0
176
     1
290
     0
176
     1
290
     1
176
     1
290
     1
176
     1
290
     0
176
     1
290
     0
176
     1
290
     0
176
     1
290
     0
176
     1
290
     0
176
     1
290
     0
176
     1
 90
       50
176
     1
 40
0.0
176
     1
 40
1.0
176
     1
 90
        0
176
     1
 62
    18
420
        0
176
     1
 90
       50
176
     1
 90
        3
176
     1
 62
     5
420
      255
176
     1
290
     0
176
     1
 90
       50
176
     1
 90
       50
176
     1
 90
       50
176
     1
290
     0
176
     1
 90
       50
176
     1
 62
   256
176
     0
 40
1.0
176
     0
 90
        2
176
     1
  1
strokes_ogs.tif
176
     1
290
     0
176
     1
 40
1.0
176
     1
 40
1.0
176
     1
  0
VISUALSTYLE
  5
46F
102
{ACAD_REACTORS
330
45C
102
}
330
45C
100
AcDbVisualStyle
  2
X-Ray
 70
    25
177
     3
291
     0
 70
    58
 90
        2
176
     1
 90
        2
176
     1
 90
        1
176
     1
 90
        1
176
     1
 40
0.5
176
     1
 40
30.0
176
     1
 62
     7
420
 16777215
176
     1
 90
        1
176
     1
 90
        0
176
     1
 62
     7
176
     1
 62
   257
176
     1
 90
        1
176
     1
 90
        1
176
     1
 40
1.0
176
     1
 90
        8
176
     1
 62
     7
176
     1
 40
1.0
176
     1
 90
        1
176
     1
 90
        6
176
     1
 90
        2
176
     1
 62
     7
176
     1
 90
        3
176
     1
 90
        0
176
     1
 90
        0
176
     1
290
     0
176
     1
 90
       13
176
     1
 40
0.0
176
     1
 90
        0
176
     1
290
     0
176
     1
290
     1
176
     1
290
     1
176
     1
290
     0
176
     1
290
     0
176
     1
290
     0
176
     1
290
     0
176
     1
290
     0
176
     1
290
     0
176
     1
 90
       50
176
     1
 40
0.0
176
     1
 40
1.0
176
     1
 90
        0
176
     1
 62
    18
420
        0
176
     1
 90
       50
176
     1
 90
        3
176
     1
 62
     5
420
      255
176
     1
290
     0
176
     1
 90
       50
176
     1
 90
       50
176
     1
 90
       50
176
     1
290
     0
176
     1
 90
       50
176
     1
 62
   256
176
     0
 40
1.0
176
     0
 90
        2
176
     1
  1
strokes_ogs.tif
176
     1
290
     0
176
     1
 40
1.0
176
     1
 40
1.0
176
     1
  0
DICTIONARYVAR
  5
8C2
102
{ACAD_REACTORS
330
EA
102
}
330
EA
100
DictionaryVariables
280
     0
  1
1:1
  0
DICTIONARYVAR
  5
8BF
102
{ACAD_REACTORS
330
EA
102
}
330
EA
100
DictionaryVariables
280
     0
  1
STANDARD
  0
DICTIONARYVAR
  5
8BE
102
{ACAD_REACTORS
330
EA
102
}
330
EA
100
DictionaryVariables
280
     0
  1
STANDARD
  0
DICTIONARYVAR
  5
8C0
102
{ACAD_REACTORS
330
EA
102
}
330
EA
100
DictionaryVariables
280
     0
  1
Imperial24
  0
DICTIONARYVAR
  5
8C1
102
{ACAD_REACTORS
330
EA
102
}
330
EA
100
DictionaryVariables
280
     0
  1
Imperial24
  0
DICTIONARYVAR
  5
EB
102
{ACAD_REACTORS
330
EA
102
}
330
EA
100
DictionaryVariables
280
     0
  1
1
  0
DICTIONARYVAR
  5
979
102
{ACAD_REACTORS
330
EA
102
}
330
EA
100
DictionaryVariables
280
     0
  1
1
  0
DICTIONARYVAR
  5
97A
102
{ACAD_REACTORS
330
EA
102
}
330
EA
100
DictionaryVariables
280
     0
  1
15
  0
DICTIONARYVAR
  5
978
102
{ACAD_REACTORS
330
EA
102
}
330
EA
100
DictionaryVariables
280
     0
  1
0
  0
DICTIONARYVAR
  5
977
102
{ACAD_REACTORS
330
EA
102
}
330
EA
100
DictionaryVariables
280
     0
  1
0
  0
DICTIONARYVAR
  5
EC
102
{ACAD_REACTORS
330
EA
102
}
330
EA
100
DictionaryVariables
280
     0
  1

  0
DICTIONARY
  5
885
330
21
100
AcDbDictionary
280
     1
281
     1
  0
DICTIONARY
  5
44D
330
44C
100
AcDbDictionary
280
     1
281
     1
  3
BUMPTILE
360
44F
  3
DIFFUSETILE
360
44E
  3
OPACITYTILE
360
452
  3
REFLECTIONTILE
360
451
  3
REFRACTIONTILE
360
453
  3
SPECULARTILE
360
450
  0
DICTIONARY
  5
445
330
444
100
AcDbDictionary
280
     1
281
     1
  3
BUMPTILE
360
447
  3
DIFFUSETILE
360
446
  3
OPACITYTILE
360
44A
  3
REFLECTIONTILE
360
449
  3
REFRACTIONTILE
360
44B
  3
SPECULARTILE
360
448
  0
DICTIONARY
  5
455
330
454
100
AcDbDictionary
280
     1
281
     1
  3
BUMPTILE
360
457
  3
DIFFUSETILE
360
456
  3
OPACITYTILE
360
45A
  3
REFLECTIONTILE
360
459
  3
REFRACTIONTILE
360
45B
  3
SPECULARTILE
360
458
  0
DICTIONARY
  5
878
330
476
100
AcDbDictionary
280
     1
281
     1
  3
ACAD_ROUNDTRIP_2008_TABLESTYLE_CELLSTYLEMAP
360
97B
  0
XRECORD
  5
44F
102
{ACAD_REACTORS
330
44D
102
}
330
44D
100
AcDbXrecord
280
     1
270
     1
271
     1
  0
XRECORD
  5
44E
102
{ACAD_REACTORS
330
44D
102
}
330
44D
100
AcDbXrecord
280
     1
270
     1
271
     1
  0
XRECORD
  5
452
102
{ACAD_REACTORS
330
44D
102
}
330
44D
100
AcDbXrecord
280
     1
270
     1
271
     1
  0
XRECORD
  5
451
102
{ACAD_REACTORS
330
44D
102
}
330
44D
100
AcDbXrecord
280
     1
270
     1
271
     1
  0
XRECORD
  5
453
102
{ACAD_REACTORS
330
44D
102
}
330
44D
100
AcDbXrecord
280
     1
270
     1
271
     1
  0
XRECORD
  5
450
102
{ACAD_REACTORS
330
44D
102
}
330
44D
100
AcDbXrecord
280
     1
270
     1
271
     1
  0
XRECORD
  5
447
102
{ACAD_REACTORS
330
445
102
}
330
445
100
AcDbXrecord
280
     1
270
     1
271
     1
  0
XRECORD
  5
446
102
{ACAD_REACTORS
330
445
102
}
330
445
100
AcDbXrecord
280
     1
270
     1
271
     1
  0
XRECORD
  5
44A
102
{ACAD_REACTORS
330
445
102
}
330
445
100
AcDbXrecord
280
     1
270
     1
271
     1
  0
XRECORD
  5
449
102
{ACAD_REACTORS
330
445
102
}
330
445
100
AcDbXrecord
280
     1
270
     1
271
     1
  0
XRECORD
  5
44B
102
{ACAD_REACTORS
330
445
102
}
330
445
100
AcDbXrecord
280
     1
270
     1
271
     1
  0
XRECORD
  5
448
102
{ACAD_REACTORS
330
445
102
}
330
445
100
AcDbXrecord
280
     1
270
     1
271
     1
  0
XRECORD
  5
457
102
{ACAD_REACTORS
330
455
102
}
330
455
100
AcDbXrecord
280
     1
270
     1
271
     1
  0
XRECORD
  5
456
102
{ACAD_REACTORS
330
455
102
}
330
455
100
AcDbXrecord
280
     1
270
     1
271
     1
  0
XRECORD
  5
45A
102
{ACAD_REACTORS
330
455
102
}
330
455
100
AcDbXrecord
280
     1
270
     1
271
     1
  0
XRECORD
  5
459
102
{ACAD_REACTORS
330
455
102
}
330
455
100
AcDbXrecord
280
     1
270
     1
271
     1
  0
XRECORD
  5
45B
102
{ACAD_REACTORS
330
455
102
}
330
455
100
AcDbXrecord
280
     1
270
     1
271
     1
  0
XRECORD
  5
458
102
{ACAD_REACTORS
330
455
102
}
330
455
100
AcDbXrecord
280
     1
270
     1
271
     1
  0
CELLSTYLEMAP
  5
97B
102
{ACAD_REACTORS
330
878
102
}
330
878
100
AcDbCellStyleMap
 90
        3
300
CELLSTYLE
  1
TABLEFORMAT_BEGIN
 90
        5
170
     1
 91
        0
 92
    32768
 62
   257
 93
        1
300
CONTENTFORMAT
  1
CONTENTFORMAT_BEGIN
 90
        0
 91
        0
 92
      512
 93
        0
300

 40
0.0
140
1.0
 94
        5
 62
     0
340
11
144
0.25
309
CONTENTFORMAT_END
171
     0
 94
        0
309
TABLEFORMAT_END
  1
CELLSTYLE_BEGIN
 90
        1
 91
        1
300
_TITLE
309
CELLSTYLE_END
300
CELLSTYLE
  1
TABLEFORMAT_BEGIN
 90
        5
170
     1
 91
        0
 92
        0
 62
   257
 93
        1
300
CONTENTFORMAT
  1
CONTENTFORMAT_BEGIN
 90
        0
 91
        0
 92
      512
 93
        0
300

 40
0.0
140
1.0
 94
        5
 62
     0
340
11
144
0.18
309
CONTENTFORMAT_END
171
     0
 94
        0
309
TABLEFORMAT_END
  1
CELLSTYLE_BEGIN
 90
        2
 91
        1
300
_HEADER
309
CELLSTYLE_END
300
CELLSTYLE
  1
TABLEFORMAT_BEGIN
 90
        5
170
     1
 91
        0
 92
        0
 62
   257
 93
        1
300
CONTENTFORMAT
  1
CONTENTFORMAT_BEGIN
 90
        0
 91
        0
 92
      512
 93
        0
300

 40
0.0
140
1.0
 94
        2
 62
     0
340
11
144
0.18
309
CONTENTFORMAT_END
171
     0
 94
        0
309
TABLEFORMAT_END
  1
CELLSTYLE_BEGIN
 90
        3
 91
        2
300
_DATA
309
CELLSTYLE_END
  0
ENDSEC
  0
SECTION
  2
ACDSDATA
 70
     2
 71
     3
  0
ACDSSCHEMA
 90
        0
  1
AcDb_Thumbnail_Schema
  2
AcDbDs::ID
280
    10
 91
        8
  2
Thumbnail_Data
280
    15
 91
        0
101
ACDSRECORD
 95
        0
 90
        1
  2
AcDbDs::TreatedAsObjectData
280
     1
291
     1
101
ACDSRECORD
 95
        0
 90
        2
  2
AcDbDs::Legacy
280
     1
291
     1
101
ACDSRECORD
  1
AcDbDs::ID
 90
        3
  2
AcDs:Indexable
280
     1
291
     1
101
ACDSRECORD
  1
AcDbDs::ID
 90
        4
  2
AcDbDs::HandleAttribute
280
     7
282
     1
  0
ACDSSCHEMA
 90
        1
  1
AcDbDs::TreatedAsObjectDataSchema
  2
AcDbDs::TreatedAsObjectData
280
     1
 91
        0
  0
ACDSSCHEMA
 90
        2
  1
AcDbDs::LegacySchema
  2
AcDbDs::Legacy
280
     1
 91
        0
  0
ACDSSCHEMA
 90
        3
  1
AcDbDs::IndexedPropertySchema
  2
AcDs:Indexable
280
     1
 91
        0
  0
ACDSSCHEMA
 90
        4
  1
AcDbDs::HandleAttributeSchema
  2
AcDbDs::HandleAttribute
280
     7
 91
        1
284
     1
  0
ACDSRECORD
 90
        0
  2
AcDbDs::ID
280
    10
320
21
  2
Thumbnail_Data
280
    15
 94
     1905
310
89504E470D0A1A0A0000000D494844520000010000000096080300000006E4A6BE00000300504C5445000000000000C8C8C80000000000000000000000000000000000000000000000000000330000660000990000CC0000FF0033000033330033660033990033CC0033FF0066000066330066660066990066CC0066FF0099
310
000099330099660099990099CC0099FF00CC0000CC3300CC6600CC9900CCCC00CCFF00FF0000FF3300FF6600FF9900FFCC00FFFF3300003300333300663300993300CC3300FF3333003333333333663333993333CC3333FF3366003366333366663366993366CC3366FF3399003399333399663399993399CC3399FF33CC00
310
33CC3333CC6633CC9933CCCC33CCFF33FF0033FF3333FF6633FF9933FFCC33FFFF6600006600336600666600996600CC6600FF6633006633336633666633996633CC6633FF6666006666336666666666996666CC6666FF6699006699336699666699996699CC6699FF66CC0066CC3366CC6666CC9966CCCC66CCFF66FF0066
310
FF3366FF6666FF9966FFCC66FFFF9900009900339900669900999900CC9900FF9933009933339933669933999933CC9933FF9966009966339966669966999966CC9966FF9999009999339999669999999999CC9999FF99CC0099CC3399CC6699CC9999CCCC99CCFF99FF0099FF3399FF6699FF9999FFCC99FFFFCC0000CC00
310
33CC0066CC0099CC00CCCC00FFCC3300CC3333CC3366CC3399CC33CCCC33FFCC6600CC6633CC6666CC6699CC66CCCC66FFCC9900CC9933CC9966CC9999CC99CCCC99FFCCCC00CCCC33CCCC66CCCC99CCCCCCCCCCFFCCFF00CCFF33CCFF66CCFF99CCFFCCCCFFFFFF0000FF0033FF0066FF0099FF00CCFF00FFFF3300FF3333
310
FF3366FF3399FF33CCFF33FFFF6600FF6633FF6666FF6699FF66CCFF66FFFF9900FF9933FF9966FF9999FF99CCFF99FFFFCC00FFCC33FFCC66FFCC99FFCCCCFFCCFFFFFF00FFFF33FFFF66FFFF99FFFFCCFFFFFF0000000D0D0D1A1A1A2828283535354343435050505D5D5D6B6B6B787878868686939393A1A1A1AEAEAEBB
310
BBBBC9C9C9D6D6D6E4E4E4F1F1F1FFFFFF00000000000000000000000000000000000000000000000000000000000008F1915C0000042C4944415478DAED9D6B92AC200C85B39CEC7F01ACC46DE4FF55440C2F07BB7AA62E2761AA1DB5B5BAF93C4920D248E4E56B65FBB3F2BF0280FBA08FBF17FF6A5901C06F7E8C037000
310
0EC001380007E0001C800370000E000540D88B6500C1120011995540F75004002F0A2280191308148607DB0010AC00484A0F418212FDBE1D1EAC000B40F5A6141B7D270005E0F16D034E50EA331D001E803AB41719FE6B6BAB779C1B7D3FB89A02A4B8B047B5E2A53D5EDC9C2922E9B5AF3377FDC4EA00EA0A166D8078D92F
310
40A000EA0A1E00CC2BE006E00A30AE80E8F9CD28805A27684B01C2CDD00F557D130A601BED80BD733B50400B00520125005780E4BF8E0F90FB5D2027383201AA1520C69C601306846C85C1EC04DE29609027585201358029052C0EA0A70032AA006E7C009B52004B1D0578AA3B0CA3006E53623B955201BA0D81A600E500B6
310
BA3F98010102C8151C24BD055201BDA212E05B910D2F4C045701DC3DF394808528C02300C4A051A0B680E10F82F8A7DEE04A00C2E9C424D7249B000FEF1F329209280022164D605201DB3B056C4B0330EB04BFA880B501F41440AE00E30A30E503EE5FC08E009487009A40EA0A3D29207596604D401E9DA09C87A484119E02
310
684A0104A48094D4D0267067C4CB0112AA3F2C820C4039C116404A8A6001486DE20480553BA00570190A94137C0650B504A31F205800553BA06B0269D86C7FA82C5843680800B31DA09383C3305814076001008100C8133DB902BE0600E9DEA0037000F04ED0C3E00B009DA1E279B0A011002305A00210EB009E1450D60F0B
310
C07076081E0E91F9611E89D514302842932640E400E001945368D803106C02B8AB5102103B005ECD1E0407E0F3E2001C800370000EC001380007E0001C800370000EC026009C99A5AFF9738FE5991609B950CE91141B500A0841D7B72AD50E640074D7976C0120EB0A980040E70A4103A84D8042C726F0C3605706BD69F71D
310
8037845000342E2FB579C6171F1A004DA8DF86020800409A0F8AE4BA054813F7FC907C80AAF5FC4D4F3C006AB40F3713CB33874F9F3ABB860FA81E1B732D381BC5BE9D2754E28701518D82A000A4553C00334FCDD6CDFBA1BDAF1B06870AC8BF140CCA455CFDBDF8EF0E8CD7E12A502228A003A0D709581AC09402B4D2FB99
310
010D20E000E8F880915CB8B76F6D13888FD6E2A35110D45365722341D2BE387F821E380CD30E880062F40FA9C554473B1DF77AF1717105642534BAB8669953AB8861F0BCF6A70E6E05186A071801F0E80493E4B52544E96FC7BE62C2C53304EEACE22309534171825101D72C83B7AF2BBD1EEBBD584EB0D54567CACDABEF44
310
40BDC152016D18B4E0042D00188BFDCE0559CD081DBF1A8E13A4DC8BB10256CD09D6D737DC579C282FF30210400A7203055C18380340CB0AF3EDE2E2B70DB1FD97E79052753F57F001500B80F22AC102784E88E8335F94559CE02F960500A07CD0DBEFF56785BC7CADFC03A197CD236DFF2A020000000049454E44AE426082
  0
ENDSEC
  0
EOF
