  0
SECTION
  2
HEADER
  9
$ACADVER
  1
AC1018
  9
$ACADMAINTVER
 70
     2
  9
$DWGCODEPAGE
  3
ANSI_1252
  9
$INSBASE
 10
0.0
 20
0.0
 30
0.0
  9
$EXTMIN
 10
-0.0063986673383738
 20
-0.0090495438075777
 30
-0.0000000000000053
  9
$EXTMAX
 10
210.0064135811932
 20
297.0090706362583
 30
0.0000000000000099
  9
$LIMMIN
 10
0.0
 20
0.0
  9
$LIMMAX
 10
210.0
 20
297.0
  9
$ORTHOMODE
 70
     1
  9
$REGENMODE
 70
     1
  9
$FILLMODE
 70
     1
  9
$QTEXTMODE
 70
     0
  9
$MIRRTEXT
 70
     1
  9
$LTSCALE
 40
10.0
  9
$ATTMODE
 70
     1
  9
$TEXTSIZE
 40
3.5
  9
$TRACEWID
 40
0.5
  9
$TEXTSTYLE
  7
STANDARD
  9
$CLAYER
  8
BEM
  9
$CELTYPE
  6
ByLayer
  9
$CECOLOR
 62
   256
  9
$CELTSCALE
 40
1.0
  9
$DISPSILH
 70
     0
  9
$DIMSCALE
 40
1.0
  9
$DIMASZ
 40
3.5
  9
$DIMEXO
 40
1.0
  9
$DIMDLI
 40
7.0
  9
$DIMRND
 40
0.0
  9
$DIMDLE
 40
0.0
  9
$DIMEXE
 40
1.0
  9
$DIMTP
 40
0.0
  9
$DIMTM
 40
0.0
  9
$DIMTXT
 40
3.5
  9
$DIMCEN
 40
1.5
  9
$DIMTSZ
 40
0.0
  9
$DIMTOL
 70
     0
  9
$DIMLIM
 70
     0
  9
$DIMTIH
 70
     0
  9
$DIMTOH
 70
     0
  9
$DIMSE1
 70
     0
  9
$DIMSE2
 70
     0
  9
$DIMTAD
 70
     1
  9
$DIMZIN
 70
     8
  9
$DIMBLK
  1

  9
$DIMASO
 70
     1
  9
$DIMSHO
 70
     0
  9
$DIMPOST
  1

  9
$DIMAPOST
  1

  9
$DIMALT
 70
     0
  9
$DIMALTD
 70
     2
  9
$DIMALTF
 40
25.4
  9
$DIMLFAC
 40
1.0
  9
$DIMTOFL
 70
     1
  9
$DIMTVP
 40
0.0
  9
$DIMTIX
 70
     0
  9
$DIMSOXD
 70
     0
  9
$DIMSAH
 70
     0
  9
$DIMBLK1
  1

  9
$DIMBLK2
  1

  9
$DIMSTYLE
  2
Standard
  9
$DIMCLRD
 70
     0
  9
$DIMCLRE
 70
     0
  9
$DIMCLRT
 70
     1
  9
$DIMTFAC
 40
0.5
  9
$DIMGAP
 40
1.5
  9
$DIMJUST
 70
     0
  9
$DIMSD1
 70
     0
  9
$DIMSD2
 70
     0
  9
$DIMTOLJ
 70
     1
  9
$DIMTZIN
 70
     8
  9
$DIMALTZ
 70
     8
  9
$DIMALTTZ
 70
     8
  9
$DIMUPT
 70
     0
  9
$DIMDEC
 70
     2
  9
$DIMTDEC
 70
     2
  9
$DIMALTU
 70
     2
  9
$DIMALTTD
 70
     2
  9
$DIMTXSTY
  7
STANDARD
  9
$DIMAUNIT
 70
     0
  9
$DIMADEC
 70
     2
  9
$DIMALTRND
 40
0.0
  9
$DIMAZIN
 70
     2
  9
$DIMDSEP
 70
    46
  9
$DIMATFIT
 70
     3
  9
$DIMFRAC
 70
     0
  9
$DIMLDRBLK
  1

  9
$DIMLUNIT
 70
     2
  9
$DIMLWD
 70
    -2
  9
$DIMLWE
 70
    -2
  9
$DIMTMOVE
 70
     0
  9
$LUNITS
 70
     2
  9
$LUPREC
 70
     2
  9
$SKETCHINC
 40
1.0
  9
$FILLETRAD
 40
0.0
  9
$AUNITS
 70
     0
  9
$AUPREC
 70
     0
  9
$MENU
  1
ACAD
  9
$ELEVATION
 40
0.0
  9
$PELEVATION
 40
0.0
  9
$THICKNESS
 40
0.0
  9
$LIMCHECK
 70
     0
  9
$CHAMFERA
 40
0.0
  9
$CHAMFERB
 40
0.0
  9
$CHAMFERC
 40
0.0
  9
$CHAMFERD
 40
0.0
  9
$SKPOLY
 70
     0
  9
$TDCREATE
 40
2455397.864709028
  9
$TDUCREATE
 40
2455397.781375695
  9
$TDUPDATE
 40
2456157.436614155
  9
$TDUUPDATE
 40
2456157.353280822
  9
$TDINDWG
 40
0.0566448958
  9
$TDUSRTIMER
 40
0.0566448958
  9
$USRTIMER
 70
     1
  9
$ANGBASE
 50
0.0
  9
$ANGDIR
 70
     0
  9
$PDMODE
 70
     0
  9
$PDSIZE
 40
0.0
  9
$PLINEWID
 40
0.0
  9
$SPLFRAME
 70
     0
  9
$SPLINETYPE
 70
     6
  9
$SPLINESEGS
 70
     8
  9
$HANDSEED
  5
4DA
  9
$SURFTAB1
 70
     6
  9
$SURFTAB2
 70
     6
  9
$SURFTYPE
 70
     6
  9
$SURFU
 70
     6
  9
$SURFV
 70
     6
  9
$UCSBASE
  2

  9
$UCSNAME
  2

  9
$UCSORG
 10
0.0
 20
0.0
 30
0.0
  9
$UCSXDIR
 10
1.0
 20
0.0
 30
0.0
  9
$UCSYDIR
 10
0.0
 20
1.0
 30
0.0
  9
$UCSORTHOREF
  2

  9
$UCSORTHOVIEW
 70
     0
  9
$UCSORGTOP
 10
0.0
 20
0.0
 30
0.0
  9
$UCSORGBOTTOM
 10
0.0
 20
0.0
 30
0.0
  9
$UCSORGLEFT
 10
0.0
 20
0.0
 30
0.0
  9
$UCSORGRIGHT
 10
0.0
 20
0.0
 30
0.0
  9
$UCSORGFRONT
 10
0.0
 20
0.0
 30
0.0
  9
$UCSORGBACK
 10
0.0
 20
0.0
 30
0.0
  9
$PUCSBASE
  2

  9
$PUCSNAME
  2

  9
$PUCSORG
 10
0.0
 20
0.0
 30
0.0
  9
$PUCSXDIR
 10
1.0
 20
0.0
 30
0.0
  9
$PUCSYDIR
 10
0.0
 20
1.0
 30
0.0
  9
$PUCSORTHOREF
  2

  9
$PUCSORTHOVIEW
 70
     0
  9
$PUCSORGTOP
 10
0.0
 20
0.0
 30
0.0
  9
$PUCSORGBOTTOM
 10
0.0
 20
0.0
 30
0.0
  9
$PUCSORGLEFT
 10
0.0
 20
0.0
 30
0.0
  9
$PUCSORGRIGHT
 10
0.0
 20
0.0
 30
0.0
  9
$PUCSORGFRONT
 10
0.0
 20
0.0
 30
0.0
  9
$PUCSORGBACK
 10
0.0
 20
0.0
 30
0.0
  9
$USERI1
 70
     0
  9
$USERI2
 70
     0
  9
$USERI3
 70
     0
  9
$USERI4
 70
     0
  9
$USERI5
 70
     0
  9
$USERR1
 40
0.0
  9
$USERR2
 40
0.0
  9
$USERR3
 40
0.0
  9
$USERR4
 40
0.0
  9
$USERR5
 40
0.0
  9
$WORLDVIEW
 70
     1
  9
$SHADEDGE
 70
     3
  9
$SHADEDIF
 70
    70
  9
$TILEMODE
 70
     1
  9
$MAXACTVP
 70
    16
  9
$PINSBASE
 10
0.0
 20
0.0
 30
0.0
  9
$PLIMCHECK
 70
     0
  9
$PEXTMIN
 10
1.000000000000000E+20
 20
1.000000000000000E+20
 30
1.000000000000000E+20
  9
$PEXTMAX
 10
-1.000000000000000E+20
 20
-1.000000000000000E+20
 30
-1.000000000000000E+20
  9
$PLIMMIN
 10
0.0
 20
0.0
  9
$PLIMMAX
 10
12.0
 20
9.0
  9
$UNITMODE
 70
     0
  9
$VISRETAIN
 70
     0
  9
$PLINEGEN
 70
     0
  9
$PSLTSCALE
 70
     0
  9
$TREEDEPTH
 70
  3020
  9
$CMLSTYLE
  2
Standard
  9
$CMLJUST
 70
     0
  9
$CMLSCALE
 40
1.0
  9
$PROXYGRAPHICS
 70
     1
  9
$MEASUREMENT
 70
     0
  9
$CELWEIGHT
370
    -1
  9
$ENDCAPS
280
     0
  9
$JOINSTYLE
280
     0
  9
$LWDISPLAY
290
     0
  9
$INSUNITS
 70
     0
  9
$HYPERLINKBASE
  1

  9
$STYLESHEET
  1
monochrome 1.ctb
  9
$XEDIT
290
     1
  9
$CEPSNTYPE
380
     0
  9
$PSTYLEMODE
290
     1
  9
$FINGERPRINTGUID
  2
{D68B0D02-A558-11D7-B632-000102183313}
  9
$VERSIONGUID
  2
{8BA3E95A-7C77-4083-8DB9-8EC7F0567F4D}
  9
$EXTNAMES
290
     1
  9
$PSVPSCALE
 40
0.0
  9
$OLESTARTUP
290
     0
  9
$SORTENTS
280
   127
  9
$INDEXCTL
280
     0
  9
$HIDETEXT
280
     0
  9
$XCLIPFRAME
290
     0
  9
$HALOGAP
280
     0
  9
$OBSCOLOR
 70
   257
  9
$OBSLTYPE
280
     0
  9
$INTERSECTIONDISPLAY
280
     0
  9
$INTERSECTIONCOLOR
 70
   257
  9
$DIMASSOC
280
     1
  9
$PROJECTNAME
  1

  0
ENDSEC
  0
SECTION
  2
CLASSES
  0
CLASS
  1
ACDBDICTIONARYWDFLT
  2
AcDbDictionaryWithDefault
  3
ObjectDBX Classes
 90
        0
 91
        1
280
     0
281
     0
  0
CLASS
  1
DICTIONARYVAR
  2
AcDbDictionaryVar
  3
ObjectDBX Classes
 90
        0
 91
        2
280
     0
281
     0
  0
ENDSEC
  0
SECTION
  2
TABLES
  0
TABLE
  2
VPORT
  5
8
330
0
100
AcDbSymbolTable
 70
     3
  0
VPORT
  5
4D9
330
8
100
AcDbSymbolTableRecord
100
AcDbViewportTableRecord
  2
*Active
 70
     0
 10
0.0
 20
0.0
 11
1.0
 21
1.0
 12
104.9999999999999
 22
148.5
 13
0.0
 23
0.0
 14
1.0
 24
1.0
 15
10.0
 25
10.0
 16
0.0
 26
0.0
 36
1.0
 17
0.0
 27
0.0
 37
0.0
 40
297.0
 41
1.404858299595141
 42
50.0
 43
0.0
 44
0.0
 50
0.0
 51
0.0
 71
     0
 72
  1500
 73
     1
 74
     0
 75
     0
 76
     0
 77
     0
 78
     0
281
     0
 65
     1
110
0.0
120
0.0
130
0.0
111
1.0
121
0.0
131
0.0
112
0.0
122
1.0
132
0.0
 79
     0
146
0.0
  0
ENDTAB
  0
TABLE
  2
LTYPE
  5
5
330
0
100
AcDbSymbolTable
 70
     2
  0
LTYPE
  5
13
330
5
100
AcDbSymbolTableRecord
100
AcDbLinetypeTableRecord
  2
ByBlock
 70
     0
  3

 72
    65
 73
     0
 40
0.0
  0
LTYPE
  5
14
330
5
100
AcDbSymbolTableRecord
100
AcDbLinetypeTableRecord
  2
ByLayer
 70
     0
  3

 72
    65
 73
     0
 40
0.0
  0
LTYPE
  5
15
330
5
100
AcDbSymbolTableRecord
100
AcDbLinetypeTableRecord
  2
Continuous
 70
     0
  3
Solid line
 72
    65
 73
     0
 40
0.0
  0
LTYPE
  5
25
330
5
100
AcDbSymbolTableRecord
100
AcDbLinetypeTableRecord
  2
STRICHPUNKT
 70
     0
  3
__ . __ . __ . __ . __ . __ . __ . __ . __ . __
 72
    65
 73
     4
 40
1.0
 49
0.5
 74
     0
 49
-0.25
 74
     0
 49
0.0
 74
     0
 49
-0.25
 74
     0
  0
ENDTAB
  0
TABLE
  2
LAYER
  5
2
330
0
100
AcDbSymbolTable
 70
     9
  0
LAYER
  5
10
330
2
100
AcDbSymbolTableRecord
100
AcDbLayerTableRecord
  2
0
 70
     0
 62
     7
  6
Continuous
370
    -3
390
F
  0
LAYER
  5
2A
330
2
100
AcDbSymbolTableRecord
100
AcDbLayerTableRecord
  2
VOLL
 70
     0
 62
     1
  6
Continuous
370
    -3
390
F
  0
LAYER
  5
2B
330
2
100
AcDbSymbolTableRecord
100
AcDbLayerTableRecord
  2
HILF
 70
     0
 62
     2
  6
Continuous
370
    -3
390
F
  0
LAYER
  5
2C
330
2
100
AcDbSymbolTableRecord
100
AcDbLayerTableRecord
  2
MITTEL
 70
     0
 62
     2
  6
STRICHPUNKT
370
    -3
390
F
  0
LAYER
  5
2F
330
2
100
AcDbSymbolTableRecord
100
AcDbLayerTableRecord
  2
BEM
 70
     0
 62
     7
  6
Continuous
370
    -3
390
F
  0
LAYER
  5
30
330
2
100
AcDbSymbolTableRecord
100
AcDbLayerTableRecord
  2
STEMPEL
 70
     0
 62
     3
  6
Continuous
370
    -3
390
F
  0
LAYER
  5
31
330
2
100
AcDbSymbolTableRecord
100
AcDbLayerTableRecord
  2
TEXT
 70
     0
 62
     7
  6
Continuous
370
    -3
390
F
  0
LAYER
  5
1E4
330
2
100
AcDbSymbolTableRecord
100
AcDbLayerTableRecord
  2
Defpoints
 70
     0
 62
     7
  6
Continuous
290
     0
370
    -3
390
F
  0
LAYER
  5
218
330
2
100
AcDbSymbolTableRecord
100
AcDbLayerTableRecord
  2
SCHRAFF
 70
     0
 62
     7
  6
Continuous
370
    -3
390
F
  0
ENDTAB
  0
TABLE
  2
STYLE
  5
3
330
0
100
AcDbSymbolTable
 70
     2
  0
STYLE
  5
11
330
3
100
AcDbSymbolTableRecord
100
AcDbTextStyleTableRecord
  2
STANDARD
 70
     0
 40
0.0
 41
0.8
 50
0.0
 71
     0
 42
3.5
  3
simplex.shx
  4

  0
STYLE
  5
24
330
3
100
AcDbSymbolTableRecord
100
AcDbTextStyleTableRecord
  2
GREEKS
 70
     0
 40
0.0
 41
0.8
 50
0.0
 71
     0
 42
2.5
  3
SIMPLEX.shx
  4

  0
ENDTAB
  0
TABLE
  2
VIEW
  5
6
330
0
100
AcDbSymbolTable
 70
     0
  0
ENDTAB
  0
TABLE
  2
UCS
  5
7
330
0
100
AcDbSymbolTable
 70
     0
  0
ENDTAB
  0
TABLE
  2
APPID
  5
9
330
0
100
AcDbSymbolTable
 70
     1
  0
APPID
  5
12
330
9
100
AcDbSymbolTableRecord
100
AcDbRegAppTableRecord
  2
ACAD
 70
     0
  0
ENDTAB
  0
TABLE
  2
DIMSTYLE
  5
A
330
0
100
AcDbSymbolTable
 70
     1
100
AcDbDimStyleTable
 71
     1
340
9D
  0
DIMSTYLE
105
9D
102
{ACAD_REACTORS
330
242
330
3F3
330
409
330
41F
330
456
330
463
102
}
330
A
100
AcDbSymbolTableRecord
100
AcDbDimStyleTableRecord
  2
Standard
 70
     0
340
11
  0
ENDTAB
  0
TABLE
  2
BLOCK_RECORD
  5
1
330
0
100
AcDbSymbolTable
 70
     7
  0
BLOCK_RECORD
  5
1E
102
{ACAD_XDICTIONARY
360
A0
102
}
330
1
100
AcDbSymbolTableRecord
100
AcDbBlockTableRecord
  2
*Model_Space
340
21
  0
BLOCK_RECORD
  5
1A
102
{ACAD_XDICTIONARY
360
A2
102
}
330
1
100
AcDbSymbolTableRecord
100
AcDbBlockTableRecord
  2
*Paper_Space
340
1D
  0
BLOCK_RECORD
  5
22
330
1
100
AcDbSymbolTableRecord
100
AcDbBlockTableRecord
  2
LOGO
340
0
102
{BLKREFS
331
9B
102
}
  0
BLOCK_RECORD
  5
243
330
1
100
AcDbSymbolTableRecord
100
AcDbBlockTableRecord
  2
*D1
340
0
  0
BLOCK_RECORD
  5
3F4
330
1
100
AcDbSymbolTableRecord
100
AcDbBlockTableRecord
  2
*D2
340
0
  0
BLOCK_RECORD
  5
40A
330
1
100
AcDbSymbolTableRecord
100
AcDbBlockTableRecord
  2
*D3
340
0
  0
BLOCK_RECORD
  5
420
330
1
100
AcDbSymbolTableRecord
100
AcDbBlockTableRecord
  2
*D4
340
0
  0
BLOCK_RECORD
  5
457
330
1
100
AcDbSymbolTableRecord
100
AcDbBlockTableRecord
  2
*D5
340
0
  0
BLOCK_RECORD
  5
464
330
1
100
AcDbSymbolTableRecord
100
AcDbBlockTableRecord
  2
*D6
340
0
  0
ENDTAB
  0
ENDSEC
  0
SECTION
  2
BLOCKS
  0
BLOCK
  5
35
330
1E
100
AcDbEntity
  8
0
100
AcDbBlockBegin
  2
*Model_Space
 70
     0
 10
0.0
 20
0.0
 30
0.0
  3
*Model_Space
  1

  0
ENDBLK
  5
36
330
1E
100
AcDbEntity
  8
0
100
AcDbBlockEnd
  0
BLOCK
  5
33
330
1A
100
AcDbEntity
 67
     1
  8
0
100
AcDbBlockBegin
  2
*Paper_Space
 70
     0
 10
0.0
 20
0.0
 30
0.0
  3
*Paper_Space
  1

  0
ENDBLK
  5
34
330
1A
100
AcDbEntity
 67
     1
  8
0
100
AcDbBlockEnd
  0
BLOCK
  5
37
330
22
100
AcDbEntity
  8
0
100
AcDbBlockBegin
  2
LOGO
 70
     0
 10
0.0
 20
0.0
 30
0.0
  3
LOGO
  1

  0
ARC
  5
38
330
22
100
AcDbEntity
  8
0
100
AcDbCircle
 10
11.59973089678112
 20
-9.271599258481501
 30
0.0
 40
4.5
100
AcDbArc
 50
270.0
 51
231.0575587310159
  0
LINE
  5
39
330
22
100
AcDbEntity
  8
0
100
AcDbLine
 10
3.599730896781125
 20
-4.771599258481529
 30
0.0
 11
3.599730896781153
 21
-11.77159925848133
 31
0.0
  0
LINE
  5
3A
330
22
100
AcDbEntity
  8
0
100
AcDbLine
 10
2.599730896781125
 20
-4.771599258481529
 30
0.0
 11
2.599730896781153
 21
-11.77159925848133
 31
0.0
  0
CIRCLE
  5
3B
330
22
100
AcDbEntity
  8
0
100
AcDbCircle
 10
11.59973089678112
 20
-9.271599258481501
 30
0.0
 40
3.5
  0
ARC
  5
3C
330
22
100
AcDbEntity
  8
0
100
AcDbCircle
 10
31.59973089678115
 20
-9.271599258481472
 30
0.0
 40
4.5
100
AcDbArc
 50
270.0
 51
231.0575587310182
  0
LINE
  5
3D
330
22
100
AcDbEntity
  8
0
100
AcDbLine
 10
17.59973089678112
 20
-4.771599258481472
 30
0.0
 11
17.59973089678115
 21
-13.77159925848147
 31
0.0
  0
ARC
  5
3E
330
22
100
AcDbEntity
  8
0
100
AcDbCircle
 10
22.59973089678116
 20
-7.271599258481472
 30
0.0
 40
2.5
100
AcDbArc
 50
293.1161887722295
 51
90.0
  0
CIRCLE
  5
3F
330
22
100
AcDbEntity
  8
0
100
AcDbCircle
 10
31.59973089678115
 20
-9.271599258481472
 30
0.0
 40
3.5
  0
ARC
  5
40
330
22
100
AcDbEntity
  8
0
100
AcDbCircle
 10
4.599730896781153
 20
-11.77159925848133
 30
0.0
 40
1.0
100
AcDbArc
 50
180.0
 51
270.0
  0
ARC
  5
41
330
22
100
AcDbEntity
  8
0
100
AcDbCircle
 10
4.599730896781153
 20
-11.77159925848133
 30
0.0
 40
2.0
100
AcDbArc
 50
179.9999999999992
 51
270.0
  0
LINE
  5
42
330
22
100
AcDbEntity
  8
0
100
AcDbLine
 10
11.59973089678115
 20
-13.77159925848144
 30
0.0
 11
4.599730896781153
 21
-13.77159925848147
 31
0.0
  0
LINE
  5
43
330
22
100
AcDbEntity
  8
0
100
AcDbLine
 10
8.771303772034769
 20
-12.77159925848136
 30
0.0
 11
4.599730896781153
 21
-12.77159925848133
 31
0.0
  0
LINE
  5
44
330
22
100
AcDbEntity
  8
0
100
AcDbLine
 10
31.59973089678115
 20
-13.77159925848147
 30
0.0
 11
23.6715276665056
 21
-13.77159925848144
 31
0.0
  0
LINE
  5
45
330
22
100
AcDbEntity
  8
0
100
AcDbLine
 10
23.56565672307022
 20
-9.51278021337896
 30
0.0
 11
24.4388546544846
 21
-12.77159925848144
 31
0.0
  0
LINE
  5
46
330
22
100
AcDbEntity
  8
0
100
AcDbLine
 10
22.59973089678116
 20
-9.771599258481472
 30
0.0
 11
18.59973089678112
 21
-9.771599258481472
 31
0.0
  0
LINE
  5
47
330
22
100
AcDbEntity
  8
0
100
AcDbLine
 10
18.59973089678115
 20
-13.77159925848144
 30
0.0
 11
17.59973089678115
 21
-13.77159925848144
 31
0.0
  0
LINE
  5
48
330
22
100
AcDbEntity
  8
0
100
AcDbLine
 10
18.59973089678115
 20
-9.771599258481472
 30
0.0
 11
18.59973089678115
 21
-13.77159925848144
 31
0.0
  0
LINE
  5
49
330
22
100
AcDbEntity
  8
0
100
AcDbLine
 10
22.59973089678116
 20
-9.771599258481472
 30
0.0
 11
23.67152766650562
 21
-13.77159925848147
 31
0.0
  0
ARC
  5
4A
330
22
100
AcDbEntity
  8
0
100
AcDbCircle
 10
22.59973089678116
 20
-7.271599258481472
 30
0.0
 40
2.5
100
AcDbArc
 50
270.0
 51
270.0000000000007
  0
LINE
  5
4B
330
22
100
AcDbEntity
  8
0
100
AcDbLine
 10
28.77130377203494
 20
-12.77159925848147
 30
0.0
 11
24.43885465448463
 21
-12.77159925848144
 31
0.0
  0
LINE
  5
4C
330
22
100
AcDbEntity
  8
0
100
AcDbLine
 10
3.599730896781125
 20
-4.771599258481472
 30
0.0
 11
2.599730896781125
 21
-4.771599258481472
 31
0.0
  0
LINE
  5
4D
330
22
100
AcDbEntity
  8
0
100
AcDbLine
 10
22.59973089678116
 20
-8.771599258481472
 30
0.0
 11
18.59973089678115
 21
-8.771599258481472
 31
0.0
  0
LINE
  5
4E
330
22
100
AcDbEntity
  8
0
100
AcDbLine
 10
22.59973089678116
 20
-5.771599258481472
 30
0.0
 11
18.59973089678115
 21
-5.771599258481472
 31
0.0
  0
LINE
  5
4F
330
22
100
AcDbEntity
  8
0
100
AcDbLine
 10
22.59973089678116
 20
-4.771599258481472
 30
0.0
 11
17.59973089678115
 21
-4.771599258481472
 31
0.0
  0
LINE
  5
50
330
22
100
AcDbEntity
  8
0
100
AcDbLine
 10
18.59973089678115
 20
-5.771599258481472
 30
0.0
 11
18.59973089678115
 21
-8.771599258481472
 31
0.0
  0
ARC
  5
51
330
22
100
AcDbEntity
  8
0
100
AcDbCircle
 10
22.59973089678116
 20
-7.271599258481472
 30
0.0
 40
1.5
100
AcDbArc
 50
270.0
 51
90.0
  0
ENDBLK
  5
52
330
22
100
AcDbEntity
  8
0
100
AcDbBlockEnd
  0
BLOCK
  5
24D
330
243
100
AcDbEntity
  8
0
100
AcDbBlockBegin
  2
*D1
 70
     1
 10
0.0
 20
0.0
 30
0.0
  3
*D1
  1

  0
LINE
  5
4AE
330
243
100
AcDbEntity
  8
BEM
 62
     0
370
    -2
100
AcDbLine
 10
81.40750178982804
 20
134.2544340254812
 30
0.0
 11
81.40750178982804
 21
117.0364238361336
 31
0.0
  0
LINE
  5
4AF
330
243
100
AcDbEntity
  8
BEM
 62
     0
370
    -2
100
AcDbLine
 10
123.407501789828
 20
134.2544340254812
 30
0.0
 11
123.407501789828
 21
117.0364238361336
 31
0.0
  0
LINE
  5
4B0
330
243
100
AcDbEntity
  8
BEM
 62
     0
370
    -2
100
AcDbLine
 10
84.90750178982805
 20
118.0364238361336
 30
0.0
 11
119.907501789828
 21
118.0364238361336
 31
0.0
  0
SOLID
  5
4B1
330
243
100
AcDbEntity
  8
BEM
 62
     0
100
AcDbTrace
 10
84.90750178982805
 20
118.6197571694669
 30
0.0
 11
84.90750178982805
 21
117.4530905028003
 31
0.0
 12
81.40750178982804
 22
118.0364238361336
 32
0.0
 13
81.40750178982804
 23
118.0364238361336
 33
0.0
  0
SOLID
  5
4B2
330
243
100
AcDbEntity
  8
BEM
 62
     0
100
AcDbTrace
 10
119.907501789828
 20
118.6197571694669
 30
0.0
 11
119.907501789828
 21
117.4530905028003
 31
0.0
 12
123.407501789828
 22
118.0364238361336
 32
0.0
 13
123.407501789828
 23
118.0364238361336
 33
0.0
  0
MTEXT
  5
4B3
330
243
100
AcDbEntity
  8
BEM
 62
     1
100
AcDbMText
 10
102.407501789828
 20
121.2864238361336
 30
0.0
 40
3.5
 41
0.0
 71
     5
 72
     1
  1
\A1;%%c42
 73
     1
 44
1.0
  0
POINT
  5
4B4
330
243
100
AcDbEntity
  8
Defpoints
 62
     0
100
AcDbPoint
 10
81.40750178982804
 20
135.2544340254812
 30
0.0
  0
POINT
  5
4B5
330
243
100
AcDbEntity
  8
Defpoints
 62
     0
100
AcDbPoint
 10
123.407501789828
 20
135.2544340254812
 30
0.0
  0
POINT
  5
4B6
330
243
100
AcDbEntity
  8
Defpoints
 62
     0
100
AcDbPoint
 10
123.407501789828
 20
118.0364238361336
 30
0.0
  0
ENDBLK
  5
24E
330
243
100
AcDbEntity
  8
0
100
AcDbBlockEnd
  0
BLOCK
  5
3FE
330
3F4
100
AcDbEntity
  8
0
100
AcDbBlockBegin
  2
*D2
 70
     1
 10
0.0
 20
0.0
 30
0.0
  3
*D2
  1

  0
LINE
  5
4A5
330
3F4
100
AcDbEntity
  8
BEM
 62
     0
370
    -2
100
AcDbLine
 10
85.96725926291762
 20
241.2544340254811
 30
0.0
 11
85.96725926291762
 21
249.5230474537828
 31
0.0
  0
LINE
  5
4A6
330
3F4
100
AcDbEntity
  8
BEM
 62
     0
370
    -2
100
AcDbLine
 10
118.8477443167385
 20
241.2544340254811
 30
0.0
 11
118.8477443167385
 21
249.5230474537828
 31
0.0
  0
LINE
  5
4A7
330
3F4
100
AcDbEntity
  8
BEM
 62
     0
370
    -2
100
AcDbLine
 10
89.46725926291762
 20
248.5230474537829
 30
0.0
 11
115.3477443167384
 21
248.5230474537829
 31
0.0
  0
SOLID
  5
4A8
330
3F4
100
AcDbEntity
  8
BEM
 62
     0
100
AcDbTrace
 10
89.46725926291762
 20
249.1063807871162
 30
0.0
 11
89.46725926291762
 21
247.9397141204495
 31
0.0
 12
85.96725926291762
 22
248.5230474537829
 32
0.0
 13
85.96725926291762
 23
248.5230474537829
 33
0.0
  0
SOLID
  5
4A9
330
3F4
100
AcDbEntity
  8
BEM
 62
     0
100
AcDbTrace
 10
115.3477443167384
 20
249.1063807871162
 30
0.0
 11
115.3477443167384
 21
247.9397141204495
 31
0.0
 12
118.8477443167385
 22
248.5230474537829
 32
0.0
 13
118.8477443167385
 23
248.5230474537829
 33
0.0
  0
MTEXT
  5
4AA
330
3F4
100
AcDbEntity
  8
BEM
 62
     1
100
AcDbMText
 10
102.407501789828
 20
251.7730474537828
 30
0.0
 40
3.5
 41
0.0
 71
     5
 72
     1
  1
\A1;%%c33
 73
     1
 44
1.0
  0
POINT
  5
4AB
330
3F4
100
AcDbEntity
  8
Defpoints
 62
     0
100
AcDbPoint
 10
85.96725926291762
 20
240.2544340254812
 30
0.0
  0
POINT
  5
4AC
330
3F4
100
AcDbEntity
  8
Defpoints
 62
     0
100
AcDbPoint
 10
118.8477443167385
 20
240.2544340254811
 30
0.0
  0
POINT
  5
4AD
330
3F4
100
AcDbEntity
  8
Defpoints
 62
     0
100
AcDbPoint
 10
118.8477443167385
 20
248.5230474537829
 30
0.0
  0
ENDBLK
  5
3FF
330
3F4
100
AcDbEntity
  8
0
100
AcDbBlockEnd
  0
BLOCK
  5
414
330
40A
100
AcDbEntity
  8
0
100
AcDbBlockBegin
  2
*D3
 70
     1
 10
0.0
 20
0.0
 30
0.0
  3
*D3
  1

  0
LINE
  5
49C
330
40A
100
AcDbEntity
  8
BEM
 62
     0
370
    -2
100
AcDbLine
 10
57.90750178982804
 20
241.2544340254812
 30
0.0
 11
57.90750178982804
 21
256.3978878804755
 31
0.0
  0
LINE
  5
49D
330
40A
100
AcDbEntity
  8
BEM
 62
     0
370
    -2
100
AcDbLine
 10
146.907501789828
 20
241.2544340254811
 30
0.0
 11
146.907501789828
 21
256.3978878804755
 31
0.0
  0
LINE
  5
49E
330
40A
100
AcDbEntity
  8
BEM
 62
     0
370
    -2
100
AcDbLine
 10
61.40750178982805
 20
255.3978878804755
 30
0.0
 11
143.407501789828
 21
255.3978878804755
 31
0.0
  0
SOLID
  5
49F
330
40A
100
AcDbEntity
  8
BEM
 62
     0
100
AcDbTrace
 10
61.40750178982805
 20
255.9812212138089
 30
0.0
 11
61.40750178982805
 21
254.8145545471422
 31
0.0
 12
57.90750178982804
 22
255.3978878804755
 32
0.0
 13
57.90750178982804
 23
255.3978878804755
 33
0.0
  0
SOLID
  5
4A0
330
40A
100
AcDbEntity
  8
BEM
 62
     0
100
AcDbTrace
 10
143.407501789828
 20
255.9812212138089
 30
0.0
 11
143.407501789828
 21
254.8145545471422
 31
0.0
 12
146.907501789828
 22
255.3978878804755
 32
0.0
 13
146.907501789828
 23
255.3978878804755
 33
0.0
  0
MTEXT
  5
4A1
330
40A
100
AcDbEntity
  8
BEM
 62
     1
100
AcDbMText
 10
102.407501789828
 20
258.6478878804755
 30
0.0
 40
3.5
 41
0.0
 71
     5
 72
     1
  1
\A1;%%c89
 73
     1
 44
1.0
  0
POINT
  5
4A2
330
40A
100
AcDbEntity
  8
Defpoints
 62
     0
100
AcDbPoint
 10
57.90750178982804
 20
240.2544340254812
 30
0.0
  0
POINT
  5
4A3
330
40A
100
AcDbEntity
  8
Defpoints
 62
     0
100
AcDbPoint
 10
146.907501789828
 20
240.2544340254812
 30
0.0
  0
POINT
  5
4A4
330
40A
100
AcDbEntity
  8
Defpoints
 62
     0
100
AcDbPoint
 10
146.907501789828
 20
255.3978878804755
 30
0.0
  0
ENDBLK
  5
415
330
40A
100
AcDbEntity
  8
0
100
AcDbBlockEnd
  0
BLOCK
  5
42C
330
420
100
AcDbEntity
  8
0
100
AcDbBlockBegin
  2
*D4
 70
     1
 10
0.0
 20
0.0
 30
0.0
  3
*D4
  1

  0
LINE
  5
491
330
420
100
AcDbEntity
  8
BEM
 62
     0
370
    -2
100
AcDbLine
 10
145.3091220729235
 20
241.2544340254811
 30
0.0
 11
145.3091220729235
 21
249.5230474537828
 31
0.0
  0
LINE
  5
492
330
420
100
AcDbEntity
  8
BEM
 62
     0
370
    -2
100
AcDbLine
 10
146.907501789828
 20
241.2544340254811
 30
0.0
 11
146.907501789828
 21
249.5230474537828
 31
0.0
  0
LINE
  5
493
330
420
100
AcDbEntity
  8
BEM
 62
     0
370
    -2
100
AcDbLine
 10
141.8091220729236
 20
248.5230474537829
 30
0.0
 11
138.3091220729236
 21
248.5230474537829
 31
0.0
  0
LINE
  5
494
330
420
100
AcDbEntity
  8
BEM
 62
     0
370
    -2
100
AcDbLine
 10
150.407501789828
 20
248.5230474537829
 30
0.0
 11
162.107501789828
 21
248.5230474537829
 31
0.0
  0
LINE
  5
495
330
420
100
AcDbEntity
  8
BEM
 62
     0
370
    -2
100
AcDbLine
 10
145.3091220729235
 20
248.5230474537829
 30
0.0
 11
146.907501789828
 21
248.5230474537829
 31
0.0
  0
SOLID
  5
496
330
420
100
AcDbEntity
  8
BEM
 62
     0
100
AcDbTrace
 10
141.8091220729236
 20
249.1063807871162
 30
0.0
 11
141.8091220729236
 21
247.9397141204495
 31
0.0
 12
145.3091220729235
 22
248.5230474537829
 32
0.0
 13
145.3091220729235
 23
248.5230474537829
 33
0.0
  0
SOLID
  5
497
330
420
100
AcDbEntity
  8
BEM
 62
     0
100
AcDbTrace
 10
150.407501789828
 20
249.1063807871162
 30
0.0
 11
150.407501789828
 21
247.9397141204495
 31
0.0
 12
146.907501789828
 22
248.5230474537829
 32
0.0
 13
146.907501789828
 23
248.5230474537829
 33
0.0
  0
MTEXT
  5
498
330
420
100
AcDbEntity
  8
BEM
 62
     1
100
AcDbMText
 10
158.007501789828
 20
251.7730474537828
 30
0.0
 40
3.5
 41
0.0
 71
     5
 72
     1
  1
\A1;1.6
 73
     1
 44
1.0
  0
POINT
  5
499
330
420
100
AcDbEntity
  8
Defpoints
 62
     0
100
AcDbPoint
 10
145.3091220729235
 20
240.2544340254812
 30
0.0
  0
POINT
  5
49A
330
420
100
AcDbEntity
  8
Defpoints
 62
     0
100
AcDbPoint
 10
146.907501789828
 20
240.2544340254812
 30
0.0
  0
POINT
  5
49B
330
420
100
AcDbEntity
  8
Defpoints
 62
     0
100
AcDbPoint
 10
146.907501789828
 20
248.5230474537829
 30
0.0
  0
ENDBLK
  5
42D
330
420
100
AcDbEntity
  8
0
100
AcDbBlockEnd
  0
BLOCK
  5
461
330
457
100
AcDbEntity
  8
0
100
AcDbBlockBegin
  2
*D5
 70
     1
 10
0.0
 20
0.0
 30
0.0
  3
*D5
  1

  0
LINE
  5
4CA
330
457
100
AcDbEntity
  8
BEM
 62
     0
370
    -2
100
AcDbLine
 10
56.90750178982804
 20
240.2544340254812
 30
0.0
 11
48.96201497039899
 21
240.2544340254812
 31
0.0
  0
LINE
  5
4CB
330
457
100
AcDbEntity
  8
BEM
 62
     0
370
    -2
100
AcDbLine
 10
56.90750178982804
 20
150.2544340254812
 30
0.0
 11
48.96201497039896
 21
150.2544340254812
 31
0.0
  0
LINE
  5
4CC
330
457
100
AcDbEntity
  8
BEM
 62
     0
370
    -2
100
AcDbLine
 10
49.96201497039898
 20
236.7544340254812
 30
0.0
 11
49.96201497039897
 21
153.7544340254812
 31
0.0
  0
SOLID
  5
4CD
330
457
100
AcDbEntity
  8
BEM
 62
     0
100
AcDbTrace
 10
49.37868163706564
 20
236.7544340254812
 30
0.0
 11
50.54534830373231
 21
236.7544340254812
 31
0.0
 12
49.96201497039899
 22
240.2544340254812
 32
0.0
 13
49.96201497039899
 23
240.2544340254812
 33
0.0
  0
SOLID
  5
4CE
330
457
100
AcDbEntity
  8
BEM
 62
     0
100
AcDbTrace
 10
49.37868163706563
 20
153.7544340254812
 30
0.0
 11
50.5453483037323
 21
153.7544340254812
 31
0.0
 12
49.96201497039897
 22
150.2544340254812
 32
0.0
 13
49.96201497039897
 23
150.2544340254812
 33
0.0
  0
MTEXT
  5
4CF
330
457
100
AcDbEntity
  8
BEM
 62
     1
100
AcDbMText
 10
46.71201497039894
 20
195.2544340254812
 30
0.0
 40
3.5
 41
0.0
 71
     5
 72
     1
  1
\A1;90
 11
0.0000000000000001
 21
1.0
 31
0.0
 73
     1
 44
1.0
  0
POINT
  5
4D0
330
457
100
AcDbEntity
  8
Defpoints
 62
     0
100
AcDbPoint
 10
57.90750178982804
 20
240.2544340254812
 30
0.0
  0
POINT
  5
4D1
330
457
100
AcDbEntity
  8
Defpoints
 62
     0
100
AcDbPoint
 10
57.90750178982804
 20
150.2544340254812
 30
0.0
  0
POINT
  5
4D2
330
457
100
AcDbEntity
  8
Defpoints
 62
     0
100
AcDbPoint
 10
49.96201497039897
 20
150.2544340254812
 30
0.0
  0
ENDBLK
  5
462
330
457
100
AcDbEntity
  8
0
100
AcDbBlockEnd
  0
BLOCK
  5
46E
330
464
100
AcDbEntity
  8
0
100
AcDbBlockBegin
  2
*D6
 70
     1
 10
0.0
 20
0.0
 30
0.0
  3
*D6
  1

  0
LINE
  5
47F
330
464
100
AcDbEntity
  8
BEM
 62
     0
370
    -2
100
AcDbLine
 10
56.90750178982804
 20
240.2544340254812
 30
0.0
 11
40.71443780983783
 21
240.2544340254812
 31
0.0
  0
LINE
  5
480
330
464
100
AcDbEntity
  8
BEM
 62
     0
370
    -2
100
AcDbLine
 10
80.84494510745768
 20
130.2544340254812
 30
0.0
 11
40.71443780983781
 21
130.2544340254812
 31
0.0
  0
LINE
  5
481
330
464
100
AcDbEntity
  8
BEM
 62
     0
370
    -2
100
AcDbLine
 10
41.71443780983783
 20
236.7544340254812
 30
0.0
 11
41.71443780983781
 21
133.7544340254812
 31
0.0
  0
SOLID
  5
482
330
464
100
AcDbEntity
  8
BEM
 62
     0
100
AcDbTrace
 10
41.13110447650449
 20
236.7544340254812
 30
0.0
 11
42.29777114317117
 21
236.7544340254812
 31
0.0
 12
41.71443780983784
 22
240.2544340254812
 32
0.0
 13
41.71443780983784
 23
240.2544340254812
 33
0.0
  0
SOLID
  5
483
330
464
100
AcDbEntity
  8
BEM
 62
     0
100
AcDbTrace
 10
41.13110447650448
 20
133.7544340254812
 30
0.0
 11
42.29777114317115
 21
133.7544340254812
 31
0.0
 12
41.71443780983781
 22
130.2544340254812
 32
0.0
 13
41.71443780983781
 23
130.2544340254812
 33
0.0
  0
MTEXT
  5
484
330
464
100
AcDbEntity
  8
BEM
 62
     1
100
AcDbMText
 10
38.4644378098378
 20
185.2544340254812
 30
0.0
 40
3.5
 41
0.0
 71
     5
 72
     1
  1
\A1;110
 11
0.0000000000000001
 21
1.0
 31
0.0
 73
     1
 44
1.0
  0
POINT
  5
485
330
464
100
AcDbEntity
  8
Defpoints
 62
     0
100
AcDbPoint
 10
57.90750178982804
 20
240.2544340254812
 30
0.0
  0
POINT
  5
486
330
464
100
AcDbEntity
  8
Defpoints
 62
     0
100
AcDbPoint
 10
81.84494510745768
 20
130.2544340254812
 30
0.0
  0
POINT
  5
487
330
464
100
AcDbEntity
  8
Defpoints
 62
     0
100
AcDbPoint
 10
41.71443780983781
 20
130.2544340254812
 30
0.0
  0
ENDBLK
  5
46F
330
464
100
AcDbEntity
  8
0
100
AcDbBlockEnd
  0
ENDSEC
  0
SECTION
  2
ENTITIES
  0
LINE
  5
57
330
1E
100
AcDbEntity
  8
STEMPEL
100
AcDbLine
 10
205.0
 20
55.00000000000003
 30
0.0
 11
19.99999999999998
 21
55.0
 31
0.0
  0
LINE
  5
58
330
1E
100
AcDbEntity
  8
STEMPEL
100
AcDbLine
 10
73.00000000000006
 20
54.99999999999997
 30
0.0
 11
73.0
 21
4.999999999999985
 31
0.0
  0
LINE
  5
59
330
1E
100
AcDbEntity
  8
STEMPEL
100
AcDbLine
 10
115.0
 20
55.00000000000003
 30
0.0
 11
115.0
 21
4.999999999999985
 31
0.0
  0
LINE
  5
5A
330
1E
100
AcDbEntity
  8
STEMPEL
100
AcDbLine
 10
166.0
 20
54.99999999999989
 30
0.0
 11
166.0
 21
20.0
 31
0.0
  0
LINE
  5
5B
330
1E
100
AcDbEntity
  8
STEMPEL
100
AcDbLine
 10
72.99999999999994
 20
14.99999999999998
 30
0.0
 11
19.99999999999998
 21
14.99999999999998
 31
0.0
  0
LINE
  5
5C
330
1E
100
AcDbEntity
  8
STEMPEL
100
AcDbLine
 10
205.0
 20
20.0
 30
0.0
 11
73.00000000000006
 21
19.99999999999998
 31
0.0
  0
LINE
  5
5D
330
1E
100
AcDbEntity
  8
STEMPEL
100
AcDbLine
 10
205.0
 20
40.0
 30
0.0
 11
73.00000000000006
 21
39.99999999999997
 31
0.0
  0
LINE
  5
5E
330
1E
100
AcDbEntity
  8
VOLL
100
AcDbLine
 10
27.00000000000005
 20
55.00000000000003
 30
0.0
 11
26.99999999999999
 21
4.999999999999985
 31
0.0
  0
LINE
  5
5F
330
1E
100
AcDbEntity
  8
VOLL
100
AcDbLine
 10
52.00000000000006
 20
54.99999999999997
 30
0.0
 11
52.0
 21
4.999999999999985
 31
0.0
  0
LINE
  5
60
330
1E
100
AcDbEntity
  8
VOLL
100
AcDbLine
 10
62.00000000000006
 20
54.99999999999997
 30
0.0
 11
62.0
 21
4.999999999999985
 31
0.0
  0
LINE
  5
61
330
1E
100
AcDbEntity
  8
VOLL
100
AcDbLine
 10
82.00000000000006
 20
39.99999999999997
 30
0.0
 11
82.00000000000006
 21
19.99999999999998
 31
0.0
  0
LINE
  5
62
330
1E
100
AcDbEntity
  8
VOLL
100
AcDbLine
 10
95.00000000000005
 20
54.99999999999992
 30
0.0
 11
95.0
 21
19.99999999999998
 31
0.0
  0
LINE
  5
63
330
1E
100
AcDbEntity
  8
HILF
100
AcDbLine
 10
20.00000000000004
 20
50.00000000000003
 30
0.0
 11
73.00000000000006
 21
50.00000000000003
 31
0.0
  0
LINE
  5
64
330
1E
100
AcDbEntity
  8
HILF
100
AcDbLine
 10
20.00000000000004
 20
45.00000000000002
 30
0.0
 11
73.00000000000006
 21
45.00000000000002
 31
0.0
  0
LINE
  5
65
330
1E
100
AcDbEntity
  8
HILF
100
AcDbLine
 10
20.00000000000004
 20
39.99999999999997
 30
0.0
 11
73.00000000000006
 21
39.99999999999997
 31
0.0
  0
LINE
  5
66
330
1E
100
AcDbEntity
  8
HILF
100
AcDbLine
 10
20.00000000000004
 20
34.99999999999997
 30
0.0
 11
73.00000000000006
 21
34.99999999999997
 31
0.0
  0
LINE
  5
67
330
1E
100
AcDbEntity
  8
HILF
100
AcDbLine
 10
20.00000000000004
 20
29.99999999999999
 30
0.0
 11
73.00000000000006
 21
29.99999999999999
 31
0.0
  0
LINE
  5
68
330
1E
100
AcDbEntity
  8
HILF
100
AcDbLine
 10
20.00000000000004
 20
24.99999999999999
 30
0.0
 11
73.00000000000006
 21
24.99999999999999
 31
0.0
  0
LINE
  5
69
330
1E
100
AcDbEntity
  8
HILF
100
AcDbLine
 10
20.00000000000004
 20
19.99999999999998
 30
0.0
 11
73.00000000000006
 21
19.99999999999998
 31
0.0
  0
LINE
  5
6A
330
1E
100
AcDbEntity
  8
HILF
100
AcDbLine
 10
73.00000000000006
 20
34.99999999999997
 30
0.0
 11
115.0
 21
34.99999999999997
 31
0.0
  0
LINE
  5
6B
330
1E
100
AcDbEntity
  8
HILF
100
AcDbLine
 10
73.00000000000006
 20
29.99999999999999
 30
0.0
 11
115.0
 21
29.99999999999999
 31
0.0
  0
LINE
  5
6C
330
1E
100
AcDbEntity
  8
HILF
100
AcDbLine
 10
73.00000000000006
 20
24.99999999999999
 30
0.0
 11
115.0
 21
24.99999999999999
 31
0.0
  0
LINE
  5
6D
330
1E
100
AcDbEntity
  8
HILF
100
AcDbLine
 10
117.3868400548473
 20
42.01879123782069
 30
0.0
 11
162.4176958278155
 21
42.01879123782069
 31
0.0
  0
LINE
  5
6E
330
1E
100
AcDbEntity
  8
HILF
100
AcDbLine
 10
117.3868400548473
 20
34.99999999999997
 30
0.0
 11
162.4176958278155
 21
34.99999999999997
 31
0.0
  0
LINE
  5
6F
330
1E
100
AcDbEntity
  8
HILF
100
AcDbLine
 10
117.3868400548473
 20
29.99999999999999
 30
0.0
 11
162.4176958278155
 21
29.99999999999999
 31
0.0
  0
LINE
  5
70
330
1E
100
AcDbEntity
  8
HILF
100
AcDbLine
 10
117.3868400548473
 20
24.99999999999999
 30
0.0
 11
162.4176958278155
 21
24.99999999999999
 31
0.0
  0
LINE
  5
71
330
1E
100
AcDbEntity
  8
VOLL
100
AcDbLine
 10
166.0
 20
30.0
 30
0.0
 11
205.0
 21
30.0
 31
0.0
  0
LINE
  5
72
330
1E
100
AcDbEntity
  8
HILF
100
AcDbLine
 10
168.3619308148496
 20
41.88991818477913
 30
0.0
 11
202.4294419663364
 21
41.88991818477913
 31
0.0
  0
LINE
  5
73
330
1E
100
AcDbEntity
  8
HILF
100
AcDbLine
 10
116.7454849644942
 20
7.446991290141568
 30
0.0
 11
202.4294419663364
 21
7.446991290141568
 31
0.0
  0
TEXT
  5
74
330
1E
100
AcDbEntity
  8
TEXT
100
AcDbText
 10
34.4308298981591
 20
9.336909474920659
 30
0.0
 40
2.0
  1
Änderung
 41
0.8
  7
GREEKS
 72
     1
 11
39.80225846958767
 21
9.336909474920659
 31
0.0
100
AcDbText
  0
TEXT
  5
75
330
1E
100
AcDbEntity
  8
TEXT
100
AcDbText
 10
76.75817860751886
 20
51.23104475435443
 30
0.0
 40
2.5
  1
Maßstab
 41
0.8
  7
GREEKS
100
AcDbText
  0
TEXT
  5
76
330
1E
100
AcDbEntity
  8
TEXT
100
AcDbText
 10
97.14294773670257
 20
51.20920842174095
 30
0.0
 40
2.5
  1
Zul. Abw.
 41
0.8
  7
GREEKS
100
AcDbText
  0
TEXT
  5
77
330
1E
100
AcDbEntity
  8
TEXT
100
AcDbText
 10
117.4389701904505
 20
51.27446640058898
 30
0.0
 40
2.5
  1
Benennung
 41
0.8
  7
GREEKS
100
AcDbText
  0
TEXT
  5
78
330
1E
100
AcDbEntity
  8
TEXT
100
AcDbText
 10
168.089377478817
 20
51.15660172685682
 30
0.0
 40
2.5
  1
Zeichnungs Nr.
 41
0.8
  7
GREEKS
100
AcDbText
  0
TEXT
  5
79
330
1E
100
AcDbEntity
  8
TEXT
100
AcDbText
 10
117.371119195568
 20
15.42280285096528
 30
0.0
 40
2.5
  1
Bauvorhaben
 41
0.8
  7
GREEKS
100
AcDbText
  0
TEXT
  5
7A
330
1E
100
AcDbEntity
  8
TEXT
100
AcDbText
 10
168.3619308148496
 20
36.59059118549985
 30
0.0
 40
2.5
  1
Ersatz für:
 41
0.8
  7
GREEKS
100
AcDbText
  0
TEXT
  5
7B
330
1E
100
AcDbEntity
  8
TEXT
100
AcDbText
 10
24.13320553522878
 20
6.827329230135958
 30
0.0
 40
2.0
  1
Index
 50
90.0
 41
0.8
  7
GREEKS
100
AcDbText
  0
TEXT
  5
7C
330
1E
100
AcDbEntity
  8
TEXT
100
AcDbText
 10
55.04673380377405
 20
9.33578134669905
 30
0.0
 40
2.0
  1
Tag
 41
0.8
  7
GREEKS
 72
     1
 11
56.91340047044072
 21
9.33578134669905
 31
0.0
100
AcDbText
  0
TEXT
  5
7D
330
1E
100
AcDbEntity
  8
TEXT
100
AcDbText
 10
64.50613721932963
 20
9.29662108483204
 30
0.0
 40
2.0
  1
Name
 41
0.8
  7
GREEKS
 72
     1
 11
67.66804198123439
 21
9.29662108483204
 31
0.0
100
AcDbText
  0
TEXT
  5
7E
330
1E
100
AcDbEntity
  8
TEXT
100
AcDbText
 10
86.16558365768254
 20
36.65940250614963
 30
0.0
 40
2.0
  1
Tag
 41
0.8
  7
GREEKS
100
AcDbText
  0
TEXT
  5
7F
330
1E
100
AcDbEntity
  8
TEXT
100
AcDbText
 10
101.2313292113147
 20
36.65480545957612
 30
0.0
 40
2.0
  1
Name
 41
0.8
  7
GREEKS
100
AcDbText
  0
TEXT
  5
80
330
1E
100
AcDbEntity
  8
TEXT
100
AcDbText
 10
73.79180635838077
 20
31.81495184808982
 30
0.0
 40
2.0
  1
Gez.
 41
0.8
  7
GREEKS
100
AcDbText
  0
TEXT
  5
81
330
1E
100
AcDbEntity
  8
TEXT
100
AcDbText
 10
73.77575432858361
 20
26.84463145714189
 30
0.0
 40
2.0
  1
Gepr.
 41
0.8
  7
GREEKS
100
AcDbText
  0
TEXT
  5
82
330
1E
100
AcDbEntity
  8
TEXT
100
AcDbText
 10
73.80033886936519
 20
21.76473194824904
 30
0.0
 40
2.0
  1
Norm.
 41
0.8
  7
GREEKS
100
AcDbText
  0
LINE
  5
83
330
1E
100
AcDbEntity
  8
STEMPEL
100
AcDbLine
 10
24.99999999999995
 20
5.0
 30
0.0
 11
205.0
 21
5.0
 31
0.0
  0
TEXT
  5
84
330
1E
100
AcDbEntity
  8
TEXT
100
AcDbText
 10
168.6200430748503
 20
26.03708088939301
 30
0.0
 40
2.5
  1
ersetzt durch:
 41
0.8
  7
GREEKS
100
AcDbText
  0
LINE
  5
85
330
1E
100
AcDbEntity
  8
STEMPEL
100
AcDbLine
 10
205.0
 20
5.0
 30
0.0
 11
19.99999999999994
 21
5.0
 31
0.0
  0
LINE
  5
86
330
1E
100
AcDbEntity
  8
STEMPEL
100
AcDbLine
 10
205.0
 20
5.0
 30
0.0
 11
205.0
 21
292.0
 31
0.0
  0
LINE
  5
87
330
1E
100
AcDbEntity
  8
STEMPEL
100
AcDbLine
 10
20.0
 20
5.0
 30
0.0
 11
19.99999999999994
 21
292.0
 31
0.0
  0
LINE
  5
88
330
1E
100
AcDbEntity
  8
STEMPEL
100
AcDbLine
 10
205.0
 20
292.0
 30
0.0
 11
19.99999999999994
 21
292.0
 31
0.0
  0
LINE
  5
89
330
1E
100
AcDbEntity
  8
HILF
100
AcDbLine
 10
0.0
 20
0.0
 30
0.0
 11
-0.0000000000000568
 21
297.0
 31
0.0
  0
LINE
  5
8A
330
1E
100
AcDbEntity
  8
HILF
100
AcDbLine
 10
210.0
 20
297.0000000000001
 30
0.0
 11
0.0
 21
297.0
 31
0.0
  0
LINE
  5
8B
330
1E
100
AcDbEntity
  8
HILF
100
AcDbLine
 10
210.0
 20
0.0
 30
0.0
 11
0.0
 21
0.0
 31
0.0
  0
LINE
  5
8C
330
1E
100
AcDbEntity
  8
HILF
100
AcDbLine
 10
15.54383567856928
 20
148.5
 30
0.0
 11
0.0000000000000568
 21
148.5
 31
0.0
  0
TEXT
  5
8D
330
1E
100
AcDbEntity
  8
TEXT
100
AcDbText
 10
74.31105491105199
 20
36.57012735575833
 30
0.0
 40
2.0
  1
2012
 41
0.8
  7
GREEKS
100
AcDbText
  0
LINE
  5
8E
330
1E
100
AcDbEntity
  8
HILF
100
AcDbLine
 10
210.0
 20
-0.0000000000000568
 30
0.0
 11
210.0
 21
297.0
 31
0.0
  0
TEXT
  5
8F
330
1E
100
AcDbEntity
  8
VOLL
100
AcDbText
 10
78.07675471698113
 20
31.02594776470585
 30
0.0
 40
1.8
  1

  7
GREEKS
100
AcDbText
  0
TEXT
  5
90
330
1E
100
AcDbEntity
  8
TEXT
100
AcDbText
 10
20.92754975488837
 20
55.83599999999997
 30
0.0
 40
2.5
  1
Erstellt mit AUTOCAD 2004
 41
0.8
  7
GREEKS
100
AcDbText
  0
TEXT
  5
91
330
1E
100
AcDbEntity
  8
TEXT
100
AcDbText
 10
102.2108024290628
 20
31.54481959861755
 30
0.0
 40
2.0
  1
Koeh
 41
0.8
  7
GREEKS
 72
     1
 11
104.8393738576343
 21
31.54481959861755
 31
0.0
100
AcDbText
  0
TEXT
  5
92
330
1E
100
AcDbEntity
  8
TEXT
 62
     1
100
AcDbText
 10
173.2038202691995
 20
44.07450714456979
 30
0.0
 40
3.5
  1
58060LA0W
 41
0.8
  7
GREEKS
 72
     1
 11
185.1371536025329
 21
44.07450714456979
 31
0.0
100
AcDbText
  0
TEXT
  5
93
330
1E
100
AcDbEntity
  8
TEXT
 62
     1
100
AcDbText
 10
80.25031532409434
 20
44.07450714456979
 30
0.0
 40
3.5
  1
1:1
 41
0.8
  7
GREEKS
100
AcDbText
  0
TEXT
  5
94
330
1E
100
AcDbEntity
  8
TEXT
100
AcDbText
 10
85.35187950649897
 20
31.55382520412866
 30
0.0
 40
2.0
  1
16.08.
 41
0.8
  7
GREEKS
 72
     1
 11
88.70426045887993
 21
31.55382520412866
 31
0.0
100
AcDbText
  0
TEXT
  5
95
330
1E
100
AcDbEntity
  8
TEXT
 62
     1
100
AcDbText
 10
117.4563425139255
 20
43.70874394626889
 30
0.0
 40
3.5
  1
Verbundrohr DN32/40
 41
0.75
  7
GREEKS
100
AcDbText
  0
TEXT
  5
96
330
1E
100
AcDbEntity
  8
TEXT
100
AcDbText
 10
117.5648195562657
 20
35.75167208792644
 30
0.0
 40
2.5
  1
Übergangsrohr konzentrisch
 41
0.8
  7
GREEKS
100
AcDbText
  0
TEXT
  5
97
330
1E
100
AcDbEntity
  8
TEXT
100
AcDbText
 10
117.5648195562657
 20
31.05790353387428
 30
0.0
 40
2.5
  1

 41
0.8
  7
GREEKS
100
AcDbText
  0
TEXT
  5
98
330
1E
100
AcDbEntity
  8
TEXT
100
AcDbText
 10
117.5648195562657
 20
25.82005971521079
 30
0.0
 40
2.5
  1
EDV-Art.Nr. 58060.LA0X
 41
0.8
  7
GREEKS
100
AcDbText
  0
TEXT
  5
99
330
1E
100
AcDbEntity
  8
TEXT
100
AcDbText
 10
117.4918750788913
 20
21.31487076511316
 30
0.0
 40
2.0
  1
58060LA0W.DWG
 41
0.8
  7
GREEKS
100
AcDbText
  0
TEXT
  5
9A
330
1E
100
AcDbEntity
  8
TEXT
100
AcDbText
 10
96.31306610404202
 20
45.38181920511511
 30
0.0
 40
2.0
  1
DIN EN1123-2
 41
0.8
  7
GREEKS
 72
     1
 11
104.8083041992801
 21
45.38181920511511
 31
0.0
100
AcDbText
  0
INSERT
  5
9B
330
1E
100
AcDbEntity
  8
STEMPEL
100
AcDbBlockReference
  2
LOGO
 10
75.4977742728897
 20
22.51052638224161
 30
0.0
  0
TEXT
  5
118
330
1E
100
AcDbEntity
  8
BEM
100
AcDbText
 10
208.6511461928583
 20
5.083950539994247
 30
0.0
 40
2.0
  1
Diese Zeichnung ist urheberrechtlich geschützt und bleibt unser Eigentum. Sie darf weder ganz noch teilweise verfielfältigt und nicht an Dritte weitergegeben werden.
 50
90.0
 41
0.8
  7
GREEKS
100
AcDbText
  0
TEXT
  5
19D
330
1E
100
AcDbEntity
  8
TEXT
 62
     1
100
AcDbText
 10
100.8041457186344
 20
226.8994201524944
 30
0.0
 40
3.5
  1
DN32
 50
90.0
 41
0.8
  7
GREEKS
100
AcDbText
  0
TEXT
  5
19E
330
1E
100
AcDbEntity
  8
TEXT
 62
     1
100
AcDbText
 10
100.911445009899
 20
155.5467172054447
 30
0.0
 40
3.5
  1
DN40
 50
90.0
 41
0.8
  7
GREEKS
100
AcDbText
  0
LINE
  5
1A0
330
1E
100
AcDbEntity
  8
HILF
100
AcDbLine
 10
117.2053389934727
 20
217.4525911957557
 30
0.0
 11
87.60966458618332
 21
217.4525911957557
 31
0.0
  0
LINE
  5
1A2
330
1E
100
AcDbEntity
  8
HILF
100
AcDbLine
 10
115.5232395870837
 20
213.2876616812462
 30
0.0
 11
89.29176399257238
 21
213.2876616812462
 31
0.0
  0
LINE
  5
1A3
330
1E
100
AcDbEntity
  8
STEMPEL
100
AcDbLine
 10
123.407501789828
 20
135.2544340254812
 30
0.0
 11
122.9700584721984
 21
130.2544340254812
 31
0.0
  0
LINE
  5
1A5
330
1E
100
AcDbEntity
  8
HILF
100
AcDbLine
 10
120.396042277198
 20
135.2544340254812
 30
0.0
 11
84.41896130245806
 21
135.2544340254812
 31
0.0
  0
ARC
  5
1A6
330
1E
100
AcDbEntity
  8
STEMPEL
100
AcDbCircle
 10
115.407501789828
 20
177.690713598213
 30
0.0
 40
6.5
100
AcDbArc
 50
0.0
 51
35.5376777919759
  0
ARC
  5
1A8
102
{ACAD_REACTORS
330
3E7
102
}
330
1E
100
AcDbEntity
  8
STEMPEL
100
AcDbCircle
 10
115.407501789828
 20
177.690713598213
 30
0.0
 40
8.0
100
AcDbArc
 50
0.0
 51
35.5376777919759
  0
LINE
  5
1A9
330
1E
100
AcDbEntity
  8
HILF
100
AcDbLine
 10
119.9529408025339
 20
179.7737364453684
 30
0.0
 11
84.86206277712216
 21
179.7737364453684
 31
0.0
  0
LINE
  5
1BB
330
1E
100
AcDbEntity
  8
STEMPEL
100
AcDbLine
 10
118.407501789828
 20
187.2544340254812
 30
0.0
 11
117.1869015830179
 21
186.3825767349025
 31
0.0
  0
LINE
  5
1BC
330
1E
100
AcDbEntity
  8
STEMPEL
100
AcDbLine
 10
120.6967693526718
 20
181.4687618573871
 30
0.0
 11
117.1869015830179
 21
186.3825767349025
 31
0.0
  0
LINE
  5
1BE
330
1E
100
AcDbEntity
  8
STEMPEL
100
AcDbLine
 10
118.407501789828
 20
187.2544340254812
 30
0.0
 11
86.40750178982807
 21
187.2544340254812
 31
0.0
  0
LINE
  5
1BF
102
{ACAD_REACTORS
330
3E7
102
}
330
1E
100
AcDbEntity
  8
STEMPEL
100
AcDbLine
 10
121.9173695594819
 20
182.3406191479658
 30
0.0
 11
118.407501789828
 21
187.2544340254812
 31
0.0
  0
LINE
  5
1C2
102
{ACAD_REACTORS
330
3E7
102
}
330
1E
100
AcDbEntity
  8
STEMPEL
100
AcDbLine
 10
123.407501789828
 20
177.690713598213
 30
0.0
 11
123.407501789828
 21
135.2544340254812
 31
0.0
  0
LINE
  5
1C4
330
1E
100
AcDbEntity
  8
STEMPEL
100
AcDbLine
 10
122.9700584721984
 20
130.2544340254812
 30
0.0
 11
81.84494510745768
 21
130.2544340254812
 31
0.0
  0
LINE
  5
1C5
102
{ACAD_REACTORS
330
369
330
3E7
102
}
330
1E
100
AcDbEntity
  8
STEMPEL
100
AcDbLine
 10
121.907501789828
 20
233.7122537050728
 30
0.0
 11
121.907501789828
 21
230.3534340254812
 31
0.0
  0
LINE
  5
1C6
102
{ACAD_REACTORS
330
369
330
3E7
102
}
330
1E
100
AcDbEntity
  8
STEMPEL
100
AcDbLine
 10
121.9073718144057
 20
230.3534340254812
 30
0.0
 11
121.907501789828
 21
230.3534340254812
 31
0.0
  0
ARC
  5
1C7
102
{ACAD_REACTORS
330
369
330
3E7
102
}
330
1E
100
AcDbEntity
  8
STEMPEL
100
AcDbCircle
 10
105.907501789828
 20
233.7122537050727
 30
0.0
 40
16.0
100
AcDbArc
 50
0.0
 51
24.13489120762673
  0
ARC
  5
1C8
102
{ACAD_REACTORS
330
369
330
3E7
102
}
330
1E
100
AcDbEntity
  8
STEMPEL
100
AcDbCircle
 10
125.407501789828
 20
222.7544340254812
 30
0.0
 40
5.0
100
AcDbArc
 50
157.6692614761385
 51
180.0
  0
ARC
  5
1C9
102
{ACAD_REACTORS
330
369
330
3E7
102
}
330
1E
100
AcDbEntity
  8
STEMPEL
100
AcDbCircle
 10
112.407501789828
 20
218.8599853009451
 30
0.0
 40
8.0
100
AcDbArc
 50
327.7957724960275
 51
0.0
  0
LINE
  5
1CA
102
{ACAD_REACTORS
330
369
330
3E7
102
}
330
1E
100
AcDbEntity
  8
STEMPEL
100
AcDbLine
 10
120.407501789828
 20
222.7544340254812
 30
0.0
 11
120.407501789828
 21
218.8599853009452
 31
0.0
  0
LINE
  5
1CB
102
{ACAD_REACTORS
330
369
330
3E7
102
}
330
1E
100
AcDbEntity
  8
STEMPEL
100
AcDbLine
 10
118.407501789828
 20
211.9317820706697
 30
0.0
 11
118.407501789828
 21
187.2544340254812
 31
0.0
  0
ARC
  5
1CC
102
{ACAD_REACTORS
330
369
330
3E7
102
}
330
1E
100
AcDbEntity
  8
STEMPEL
100
AcDbCircle
 10
123.407501789828
 20
211.9317820706697
 30
0.0
 40
5.0
100
AcDbArc
 50
147.7957724960275
 51
180.0
  0
ARC
  5
1CD
102
{ACAD_REACTORS
330
369
330
3E7
102
}
330
1E
100
AcDbEntity
  8
STEMPEL
100
AcDbCircle
 10
106.907501789828
 20
230.3534340254812
 30
0.0
 40
14.99987002457764
100
AcDbArc
 50
337.6692614761385
 51
0.0
  0
LINE
  5
1D7
102
{ACAD_REACTORS
330
3E7
330
3F2
102
}
330
1E
100
AcDbEntity
  8
STEMPEL
100
AcDbLine
 10
146.907501789828
 20
240.2544340254812
 30
0.0
 11
57.90750178982804
 21
240.2544340254812
 31
0.0
  0
LINE
  5
1D8
330
1E
100
AcDbEntity
  8
MITTEL
100
AcDbLine
 10
102.407501789828
 20
245.2544340254812
 30
0.0
 11
102.407501789828
 21
125.2544340254812
 31
0.0
  0
LINE
  5
1E0
330
1E
100
AcDbEntity
  8
HILF
100
AcDbLine
 10
117.4663069715069
 20
223.7226410578201
 30
0.0
 11
87.34869660814911
 21
223.7226410578201
 31
0.0
  0
ARC
  5
232
102
{ACAD_REACTORS
330
3E7
102
}
330
1E
100
AcDbEntity
  8
SCHRAFF
100
AcDbCircle
 10
88.84031420271805
 20
186.0029193882245
 30
0.0
 40
4.898362271935264
100
AcDbArc
 50
119.7791618888591
 51
200.9131899950339
  0
ARC
  5
233
102
{ACAD_REACTORS
330
3E7
102
}
330
1E
100
AcDbEntity
  8
SCHRAFF
100
AcDbCircle
 10
115.974689376938
 20
186.0029193882245
 30
0.0
 40
4.898362271935264
100
AcDbArc
 50
339.0868100049662
 51
60.22083811114086
  0
HATCH
  5
23D
330
1E
100
AcDbEntity
  8
SCHRAFF
100
AcDbHatch
 10
0.0
 20
0.0
 30
0.0
210
0.0
220
0.0
230
1.0
  2
_USER
 70
     0
 71
     0
 91
        2
 92
        7
 72
     1
 73
     1
 93
        3
 10
118.407501789828
 20
190.2544340254811
 42
0.0
 10
118.407501789828
 20
187.2544340254812
 42
0.0
 10
120.5503589326852
 20
184.2544340254812
 42
0.3695840217792668
 97
        0
 92
        7
 72
     1
 73
     1
 93
        3
 10
86.40750178982804
 20
190.2544340254811
 42
0.3695840217792656
 10
84.2646446469709
 20
184.2544340254812
 42
0.0
 10
86.40750178982806
 20
187.2544340254812
 42
0.0
 97
        0
 75
     0
 76
     0
 52
0.0
 41
0.1
 77
     0
 78
     1
 53
0.0
 43
-10.09249821017192
 44
0.0
 45
0.0
 46
0.1
 79
     0
 47
0.0717944687115974
 98
        2
 10
119.8759356596374
 20
188.226107374859
 10
85.96938308147263
 20
188.6568740349564
  0
DIMENSION
  5
242
330
1E
100
AcDbEntity
  8
BEM
100
AcDbDimension
  2
*D1
 10
123.407501789828
 20
118.0364238361336
 30
0.0
 11
102.407501789828
 21
121.2864238361336
 31
0.0
 70
    32
  1
%%c<>
 71
     5
 42
42.0
  3
Standard
100
AcDbAlignedDimension
 13
81.40750178982804
 23
135.2544340254812
 33
0.0
 14
123.407501789828
 24
135.2544340254812
 34
0.0
100
AcDbRotatedDimension
1001
ACAD
1000
DSTYLE
1002
{
1070
    41
1040
3.5
1070
    42
1040
1.0
1070
    43
1040
7.0
1070
    44
1040
1.0
1070
    73
1070
     0
1070
    74
1070
     0
1070
    77
1070
     1
1070
    78
1070
     8
1070
    79
1070
     2
1070
   140
1040
3.5
1070
   141
1040
1.5
1070
   146
1040
0.5
1070
   147
1040
1.5
1070
   172
1070
     1
1070
   178
1070
     1
1070
   179
1070
     2
1070
   271
1070
     2
1070
   272
1070
     2
1070
   284
1070
     8
1070
   285
1070
     8
1070
   286
1070
     8
1002
}
  0
TEXT
  5
293
330
1E
100
AcDbEntity
  8
TEXT
 62
     1
100
AcDbText
 10
40.58528738379471
 20
102.3258597289278
 30
0.0
 40
3.5
  1
Rohrende leicht eingezogen
 41
0.8
  7
GREEKS
100
AcDbText
  0
POINT
  5
2D8
330
1E
100
AcDbEntity
  8
STEMPEL
100
AcDbPoint
 10
59.40750178982819
 20
150.2544340254811
 30
0.0
  0
POINT
  5
2D9
330
1E
100
AcDbEntity
  8
STEMPEL
100
AcDbPoint
 10
145.4075017898281
 20
150.2544340254812
 30
0.0
  0
POINT
  5
2DC
330
1E
100
AcDbEntity
  8
STEMPEL
100
AcDbPoint
 10
77.90750178982818
 20
156.2544340254812
 30
0.0
  0
POINT
  5
2DE
330
1E
100
AcDbEntity
  8
STEMPEL
100
AcDbPoint
 10
65.40750178982818
 20
150.2544340254812
 30
0.0
  0
POINT
  5
2DF
330
1E
100
AcDbEntity
  8
STEMPEL
100
AcDbPoint
 10
65.40750178982818
 20
150.2544340254812
 30
0.0
  0
POINT
  5
2E0
330
1E
100
AcDbEntity
  8
STEMPEL
100
AcDbPoint
 10
65.40750178982818
 20
150.2544340254812
 30
0.0
  0
POINT
  5
2E1
330
1E
100
AcDbEntity
  8
STEMPEL
100
AcDbPoint
 10
69.40750178982819
 20
150.2544340254812
 30
0.0
  0
POINT
  5
2E2
330
1E
100
AcDbEntity
  8
STEMPEL
100
AcDbPoint
 10
57.90750178982818
 20
148.2544340254812
 30
0.0
  0
POINT
  5
2E3
330
1E
100
AcDbEntity
  8
STEMPEL
100
AcDbPoint
 10
146.9075017898281
 20
148.2544340254812
 30
0.0
  0
POINT
  5
2E4
330
1E
100
AcDbEntity
  8
STEMPEL
100
AcDbPoint
 10
63.90750178982819
 20
148.2544340254812
 30
0.0
  0
POINT
  5
2E5
330
1E
100
AcDbEntity
  8
STEMPEL
100
AcDbPoint
 10
140.9075017898281
 20
148.2544340254812
 30
0.0
  0
POINT
  5
2E6
330
1E
100
AcDbEntity
  8
STEMPEL
100
AcDbPoint
 10
130.3716034049658
 20
150.2544340254812
 30
0.0
  0
POINT
  5
2E7
330
1E
100
AcDbEntity
  8
STEMPEL
100
AcDbPoint
 10
126.9075017898281
 20
156.2544340254812
 30
0.0
  0
POINT
  5
2E8
330
1E
100
AcDbEntity
  8
STEMPEL
100
AcDbPoint
 10
126.9075017898281
 20
156.2544340254812
 30
0.0
  0
POINT
  5
2E9
330
1E
100
AcDbEntity
  8
STEMPEL
100
AcDbPoint
 10
77.90750178982818
 20
156.2544340254812
 30
0.0
  0
POINT
  5
2EA
330
1E
100
AcDbEntity
  8
STEMPEL
100
AcDbPoint
 10
126.9075017898281
 20
156.2544340254812
 30
0.0
  0
LINE
  5
2EB
102
{ACAD_REACTORS
330
455
102
}
330
1E
100
AcDbEntity
  8
STEMPEL
100
AcDbLine
 10
77.90750178982818
 20
156.2544340254812
 30
0.0
 11
74.44340017469039
 21
150.2544340254812
 31
0.0
  0
LINE
  5
2EC
102
{ACAD_REACTORS
330
455
102
}
330
1E
100
AcDbEntity
  8
STEMPEL
100
AcDbLine
 10
63.90750178982819
 20
148.2544340254812
 30
0.0
 11
63.90750178982819
 21
150.2544340254812
 31
0.0
  0
LINE
  5
2ED
102
{ACAD_REACTORS
330
455
102
}
330
1E
100
AcDbEntity
  8
STEMPEL
100
AcDbLine
 10
57.90750178982818
 20
148.2544340254812
 30
0.0
 11
57.90750178982818
 21
150.2544340254812
 31
0.0
  0
LINE
  5
2EE
330
1E
100
AcDbEntity
  8
STEMPEL
100
AcDbLine
 10
57.90750178982818
 20
150.2544340254812
 30
0.0
 11
59.40750178982819
 21
150.2544340254811
 31
0.0
  0
LINE
  5
2EF
102
{ACAD_REACTORS
330
3F2
330
455
102
}
330
1E
100
AcDbEntity
  8
STEMPEL
100
AcDbLine
 10
57.90750178982818
 20
150.2544340254812
 30
0.0
 11
59.50750178982804
 21
150.2544340254812
 31
0.0
  0
LINE
  5
2F1
102
{ACAD_REACTORS
330
3E7
330
455
102
}
330
1E
100
AcDbEntity
  8
STEMPEL
100
AcDbLine
 10
59.50750178982804
 20
152.5448105803208
 30
0.0
 11
60.10607687636434
 21
166.2544340254812
 31
0.0
  0
LINE
  5
2F2
330
1E
100
AcDbEntity
  8
STEMPEL
100
AcDbLine
 10
81.40750178982818
 20
156.2544340254812
 30
0.0
 11
81.40750178982818
 21
166.2544340254812
 31
0.0
  0
LINE
  5
2F8
102
{ACAD_REACTORS
330
455
102
}
330
1E
100
AcDbEntity
  8
STEMPEL
100
AcDbLine
 10
126.9075017898281
 20
156.2544340254812
 30
0.0
 11
130.3716034049658
 21
150.2544340254812
 31
0.0
  0
LINE
  5
2F9
102
{ACAD_REACTORS
330
455
102
}
330
1E
100
AcDbEntity
  8
STEMPEL
100
AcDbLine
 10
140.9075017898281
 20
150.2544340254812
 30
0.0
 11
123.407501789828
 21
150.2544340254812
 31
0.0
  0
LINE
  5
2FA
102
{ACAD_REACTORS
330
455
102
}
330
1E
100
AcDbEntity
  8
STEMPEL
100
AcDbLine
 10
140.9075017898281
 20
148.2544340254812
 30
0.0
 11
140.9075017898281
 21
150.2544340254812
 31
0.0
  0
LINE
  5
2FB
330
1E
100
AcDbEntity
  8
STEMPEL
100
AcDbLine
 10
146.9075017898281
 20
150.2544340254812
 30
0.0
 11
145.4075017898281
 21
150.2544340254812
 31
0.0
  0
LINE
  5
2FC
102
{ACAD_REACTORS
330
455
102
}
330
1E
100
AcDbEntity
  8
STEMPEL
100
AcDbLine
 10
126.9075017898281
 20
156.2544340254812
 30
0.0
 11
123.407501789828
 21
156.2544340254812
 31
0.0
  0
LINE
  5
2FD
102
{ACAD_REACTORS
330
455
102
}
330
1E
100
AcDbEntity
  8
STEMPEL
100
AcDbLine
 10
123.4075017898281
 20
156.2544340254812
 30
0.0
 11
123.4075017898281
 21
166.2544340254812
 31
0.0
  0
LINE
  5
2FF
102
{ACAD_REACTORS
330
3E7
330
455
102
}
330
1E
100
AcDbEntity
  8
STEMPEL
100
AcDbLine
 10
145.307501789828
 20
152.5448105803264
 30
0.0
 11
144.7089267032919
 21
166.2544340254811
 31
0.0
  0
LINE
  5
300
102
{ACAD_REACTORS
330
3F2
330
455
102
}
330
1E
100
AcDbEntity
  8
STEMPEL
100
AcDbLine
 10
146.9075017898281
 20
150.2544340254811
 30
0.0
 11
145.307501789828
 21
150.2544340254811
 31
0.0
  0
LINE
  5
301
102
{ACAD_REACTORS
330
455
102
}
330
1E
100
AcDbEntity
  8
STEMPEL
100
AcDbLine
 10
146.9075017898281
 20
148.2544340254812
 30
0.0
 11
123.407501789828
 21
148.2544340254812
 31
0.0
  0
LINE
  5
302
102
{ACAD_REACTORS
330
3E7
330
455
102
}
330
1E
100
AcDbEntity
  8
STEMPEL
100
AcDbLine
 10
144.7089267032919
 20
166.2544340254811
 30
0.0
 11
123.407501789828
 21
166.2544340254811
 31
0.0
  0
LINE
  5
303
102
{ACAD_REACTORS
330
455
102
}
330
1E
100
AcDbEntity
  8
STEMPEL
100
AcDbLine
 10
146.9075017898281
 20
148.2544340254812
 30
0.0
 11
146.9075017898281
 21
150.2544340254811
 31
0.0
  0
LINE
  5
306
102
{ACAD_REACTORS
330
369
102
}
330
1E
100
AcDbEntity
  8
STEMPEL
100
AcDbLine
 10
116.907501789828
 20
211.9317820706697
 30
0.0
 11
116.907501789828
 21
187.2544340254812
 31
0.0
  0
ARC
  5
307
102
{ACAD_REACTORS
330
369
102
}
330
1E
100
AcDbEntity
  8
STEMPEL
100
AcDbCircle
 10
123.407501789828
 20
211.9317820706697
 30
0.0
 40
6.5
100
AcDbArc
 50
147.7957724960284
 51
180.0
  0
ARC
  5
309
102
{ACAD_REACTORS
330
369
102
}
330
1E
100
AcDbEntity
  8
STEMPEL
100
AcDbCircle
 10
112.407501789828
 20
218.8599853009451
 30
0.0
 40
6.5
100
AcDbArc
 50
327.7957724960282
 51
0.0000000000007516
  0
LINE
  5
30A
102
{ACAD_REACTORS
330
369
102
}
330
1E
100
AcDbEntity
  8
STEMPEL
100
AcDbLine
 10
118.907501789828
 20
222.7544340254811
 30
0.0
 11
118.907501789828
 21
218.8599853009453
 31
0.0
  0
ARC
  5
30B
102
{ACAD_REACTORS
330
369
102
}
330
1E
100
AcDbEntity
  8
STEMPEL
100
AcDbCircle
 10
125.407501789828
 20
222.7544340254812
 30
0.0
 40
6.5
100
AcDbArc
 50
157.6692614761376
 51
180.0000000000007
  0
ARC
  5
30D
102
{ACAD_REACTORS
330
369
102
}
330
1E
100
AcDbEntity
  8
STEMPEL
100
AcDbCircle
 10
106.907501789828
 20
230.3534340254812
 30
0.0
 40
13.49987002457764
100
AcDbArc
 50
337.6692614761378
 51
0.0
  0
LINE
  5
30E
102
{ACAD_REACTORS
330
369
102
}
330
1E
100
AcDbEntity
  8
STEMPEL
100
AcDbLine
 10
120.407501789828
 20
233.7122537050728
 30
0.0
 11
120.407501789828
 21
230.3534340254812
 31
0.0
  0
ARC
  5
30F
102
{ACAD_REACTORS
330
369
102
}
330
1E
100
AcDbEntity
  8
STEMPEL
100
AcDbCircle
 10
105.907501789828
 20
233.7122537050727
 30
0.0
 40
14.5
100
AcDbArc
 50
0.0
 51
26.81972811992054
  0
LINE
  5
311
330
1E
100
AcDbEntity
  8
STEMPEL
100
AcDbLine
 10
121.907501789828
 20
177.690713598213
 30
0.0
 11
121.907501789828
 21
135.3199254398438
 31
0.0
  0
LINE
  5
312
330
1E
100
AcDbEntity
  8
STEMPEL
100
AcDbLine
 10
121.907501789828
 20
135.3199254398438
 30
0.0
 11
121.4643287158834
 21
130.2544340254812
 31
0.0
  0
LINE
  5
317
330
1E
100
AcDbEntity
  8
STEMPEL
100
AcDbLine
 10
82.90750178982804
 20
135.3199254398438
 30
0.0
 11
83.35067486377267
 21
130.2544340254812
 31
0.0
  0
LINE
  5
318
330
1E
100
AcDbEntity
  8
STEMPEL
100
AcDbLine
 10
82.90750178982804
 20
177.690713598213
 30
0.0
 11
82.90750178982804
 21
135.3199254398438
 31
0.0
  0
ARC
  5
31A
102
{ACAD_REACTORS
330
36A
102
}
330
1E
100
AcDbEntity
  8
STEMPEL
100
AcDbCircle
 10
98.90750178982804
 20
233.7122537050727
 30
0.0
 40
14.5
100
AcDbArc
 50
153.1802718800794
 51
180.0
  0
LINE
  5
31B
102
{ACAD_REACTORS
330
36A
102
}
330
1E
100
AcDbEntity
  8
STEMPEL
100
AcDbLine
 10
84.40750178982804
 20
233.7122537050728
 30
0.0
 11
84.40750178982804
 21
230.3534340254812
 31
0.0
  0
ARC
  5
31C
102
{ACAD_REACTORS
330
36A
102
}
330
1E
100
AcDbEntity
  8
STEMPEL
100
AcDbCircle
 10
97.90750178982802
 20
230.3534340254812
 30
0.0
 40
13.49987002457764
100
AcDbArc
 50
180.0
 51
202.3307385238615
  0
ARC
  5
31E
102
{ACAD_REACTORS
330
36A
102
}
330
1E
100
AcDbEntity
  8
STEMPEL
100
AcDbCircle
 10
79.40750178982804
 20
222.7544340254812
 30
0.0
 40
6.5
100
AcDbArc
 50
0.000000000000007
 51
22.33073852386146
  0
LINE
  5
31F
102
{ACAD_REACTORS
330
36A
102
}
330
1E
100
AcDbEntity
  8
STEMPEL
100
AcDbLine
 10
85.9075017898281
 20
222.7544340254811
 30
0.0
 11
85.90750178982805
 21
218.8599853009451
 31
0.0
  0
ARC
  5
320
102
{ACAD_REACTORS
330
36A
102
}
330
1E
100
AcDbEntity
  8
STEMPEL
100
AcDbCircle
 10
92.40750178982811
 20
218.8599853009451
 30
0.0
 40
6.5
100
AcDbArc
 50
180.0
 51
212.2042275039725
  0
ARC
  5
322
102
{ACAD_REACTORS
330
36A
102
}
330
1E
100
AcDbEntity
  8
STEMPEL
100
AcDbCircle
 10
81.40750178982804
 20
211.9317820706697
 30
0.0
 40
6.5
100
AcDbArc
 50
0.000000000000007
 51
32.20422750397251
  0
LINE
  5
323
102
{ACAD_REACTORS
330
36A
102
}
330
1E
100
AcDbEntity
  8
STEMPEL
100
AcDbLine
 10
87.90750178982804
 20
211.9317820706697
 30
0.0
 11
87.90750178982804
 21
187.2544340254812
 31
0.0
  0
ARC
  5
324
102
{ACAD_REACTORS
330
36A
330
3E7
102
}
330
1E
100
AcDbEntity
  8
STEMPEL
100
AcDbCircle
 10
97.90750178982802
 20
230.3534340254812
 30
0.0
 40
14.99987002457764
100
AcDbArc
 50
180.0
 51
202.3307385238615
  0
ARC
  5
325
102
{ACAD_REACTORS
330
36A
330
3E7
102
}
330
1E
100
AcDbEntity
  8
STEMPEL
100
AcDbCircle
 10
81.40750178982804
 20
211.9317820706697
 30
0.0
 40
5.0
100
AcDbArc
 50
0.000000000000007
 51
32.20422750397251
  0
LINE
  5
326
102
{ACAD_REACTORS
330
36A
330
3E7
102
}
330
1E
100
AcDbEntity
  8
STEMPEL
100
AcDbLine
 10
86.40750178982804
 20
211.9317820706697
 30
0.0
 11
86.40750178982804
 21
187.2544340254812
 31
0.0
  0
LINE
  5
327
102
{ACAD_REACTORS
330
36A
330
3E7
102
}
330
1E
100
AcDbEntity
  8
STEMPEL
100
AcDbLine
 10
84.4075017898281
 20
222.7544340254812
 30
0.0
 11
84.40750178982804
 21
218.8599853009452
 31
0.0
  0
ARC
  5
328
102
{ACAD_REACTORS
330
36A
330
3E7
102
}
330
1E
100
AcDbEntity
  8
STEMPEL
100
AcDbCircle
 10
92.40750178982811
 20
218.8599853009451
 30
0.0
 40
8.0
100
AcDbArc
 50
180.0
 51
212.2042275039725
  0
ARC
  5
329
102
{ACAD_REACTORS
330
36A
330
3E7
102
}
330
1E
100
AcDbEntity
  8
STEMPEL
100
AcDbCircle
 10
79.40750178982804
 20
222.7544340254812
 30
0.0
 40
5.0
100
AcDbArc
 50
0.000000000000007
 51
22.33073852386146
  0
ARC
  5
32A
102
{ACAD_REACTORS
330
36A
330
3E7
102
}
330
1E
100
AcDbEntity
  8
STEMPEL
100
AcDbCircle
 10
98.90750178982804
 20
233.7122537050727
 30
0.0
 40
16.0
100
AcDbArc
 50
155.8651087923786
 51
180.0
  0
LINE
  5
32B
102
{ACAD_REACTORS
330
36A
330
3E7
102
}
330
1E
100
AcDbEntity
  8
STEMPEL
100
AcDbLine
 10
82.90763176525038
 20
230.3534340254812
 30
0.0
 11
82.90750178982804
 21
230.3534340254812
 31
0.0
  0
LINE
  5
32C
102
{ACAD_REACTORS
330
36A
330
3E7
102
}
330
1E
100
AcDbEntity
  8
STEMPEL
100
AcDbLine
 10
82.90750178982804
 20
233.7122537050728
 30
0.0
 11
82.90750178982804
 21
230.3534340254812
 31
0.0
  0
LINE
  5
32D
102
{ACAD_REACTORS
330
3E7
330
455
102
}
330
1E
100
AcDbEntity
  8
STEMPEL
100
AcDbLine
 10
81.40750178982804
 20
177.690713598213
 30
0.0
 11
81.40750178982804
 21
135.2544340254812
 31
0.0
  0
LINE
  5
32E
102
{ACAD_REACTORS
330
3E7
102
}
330
1E
100
AcDbEntity
  8
STEMPEL
100
AcDbLine
 10
82.89763402017413
 20
182.3406191479658
 30
0.0
 11
86.40750178982804
 21
187.2544340254812
 31
0.0
  0
LINE
  5
32F
330
1E
100
AcDbEntity
  8
STEMPEL
100
AcDbLine
 10
84.1182342269843
 20
181.4687618573871
 30
0.0
 11
87.62810199663816
 21
186.3825767349025
 31
0.0
  0
LINE
  5
330
330
1E
100
AcDbEntity
  8
STEMPEL
100
AcDbLine
 10
86.40750178982804
 20
187.2544340254812
 30
0.0
 11
87.62810199663816
 21
186.3825767349025
 31
0.0
  0
ARC
  5
331
102
{ACAD_REACTORS
330
3E7
102
}
330
1E
100
AcDbEntity
  8
STEMPEL
100
AcDbCircle
 10
89.40750178982804
 20
177.690713598213
 30
0.0
 40
8.0
100
AcDbArc
 50
144.4623222080241
 51
180.0
  0
ARC
  5
332
330
1E
100
AcDbEntity
  8
STEMPEL
100
AcDbCircle
 10
89.40750178982804
 20
177.690713598213
 30
0.0
 40
6.5
100
AcDbArc
 50
144.4623222080241
 51
180.0
  0
LINE
  5
333
330
1E
100
AcDbEntity
  8
STEMPEL
100
AcDbLine
 10
81.40750178982804
 20
135.2544340254812
 30
0.0
 11
81.84494510745768
 21
130.2544340254812
 31
0.0
  0
HATCH
  5
340
330
1E
100
AcDbEntity
  8
SCHRAFF
100
AcDbHatch
 10
0.0
 20
0.0
 30
0.0
210
0.0
220
0.0
230
1.0
  2
_USER
 70
     0
 71
     0
 91
        1
 92
        7
 72
     1
 73
     1
 93
       10
 10
121.907501789828
 20
135.3199254398437
 42
0.0
 10
121.4643287158834
 20
130.2544340254812
 42
0.0
 10
122.9700584721984
 20
130.2544340254812
 42
0.0
 10
123.407501789828
 20
135.2544340254808
 42
0.0
 10
123.407501789828
 20
177.690713598213
 42
0.1563172325457738
 10
121.9173695594819
 20
182.3406191479658
 42
0.0
 10
118.407501789828
 20
187.2544340254812
 42
0.0
 10
117.186901583018
 20
186.3825767349026
 42
0.0
 10
120.6967693526718
 20
181.4687618573871
 42
-0.1563172325457746
 10
121.907501789828
 20
177.690713598213
 42
0.0
 97
        0
 75
     0
 76
     0
 52
45.0
 41
2.0
 77
     0
 78
     1
 53
45.0
 43
-10.09249821017192
 44
0.0
 45
-1.414213562373094
 46
1.414213562373095
 79
     0
 47
0.1623494861780319
 98
        1
 10
122.3575277327893
 20
169.8166420190096
  0
HATCH
  5
369
330
1E
100
AcDbEntity
  8
SCHRAFF
100
AcDbHatch
 10
0.0
 20
0.0
 30
0.0
210
0.0
220
0.0
230
1.0
  2
_USER
 70
     0
 71
     1
 91
        1
 92
       33
 93
       17
 72
     2
 10
105.907501789828
 20
233.7122537050727
 40
14.5
 50
0.0
 51
26.81972811992054
 73
     1
 72
     1
 10
120.407501789828
 20
233.7122537050728
 11
120.407501789828
 21
230.3534340254812
 72
     2
 10
106.907501789828
 20
230.3534340254812
 40
13.49987002457764
 50
337.6692614761378
 51
360.0
 73
     1
 72
     2
 10
125.407501789828
 20
222.7544340254812
 40
6.5
 50
157.6692614761376
 51
180.0000000000007
 73
     1
 72
     1
 10
118.907501789828
 20
222.7544340254811
 11
118.907501789828
 21
218.8599853009453
 72
     2
 10
112.407501789828
 20
218.8599853009451
 40
6.5
 50
327.7957724960282
 51
360.0000000000008
 73
     1
 72
     2
 10
123.407501789828
 20
211.9317820706697
 40
6.5
 50
147.7957724960284
 51
180.0
 73
     1
 72
     1
 10
116.907501789828
 20
211.9317820706697
 11
116.907501789828
 21
187.2544340254812
 72
     2
 10
106.907501789828
 20
230.3534340254812
 40
14.99987002457764
 50
337.6692614761385
 51
360.0
 73
     1
 72
     2
 10
123.407501789828
 20
211.9317820706697
 40
5.0
 50
147.7957724960275
 51
180.0
 73
     1
 72
     1
 10
118.407501789828
 20
211.9317820706697
 11
118.407501789828
 21
187.2544340254812
 72
     1
 10
120.407501789828
 20
222.7544340254812
 11
120.407501789828
 21
218.8599853009452
 72
     2
 10
112.407501789828
 20
218.8599853009451
 40
8.0
 50
327.7957724960275
 51
360.0
 73
     1
 72
     2
 10
125.407501789828
 20
222.7544340254812
 40
5.0
 50
157.6692614761385
 51
180.0
 73
     1
 72
     2
 10
105.907501789828
 20
233.7122537050727
 40
16.0
 50
0.0
 51
24.13489120762673
 73
     1
 72
     1
 10
121.9073718144057
 20
230.3534340254812
 11
121.907501789828
 21
230.3534340254812
 72
     1
 10
121.907501789828
 20
233.7122537050728
 11
121.907501789828
 21
230.3534340254812
 97
       17
330
30F
330
30E
330
30D
330
30B
330
30A
330
309
330
307
330
306
330
1CD
330
1CC
330
1CB
330
1CA
330
1C9
330
1C8
330
1C7
330
1C6
330
1C5
 75
     0
 76
     0
 52
135.0
 41
2.0
 77
     0
 78
     1
 53
135.0
 43
-10.09249821017192
 44
0.0
 45
-1.414213562373095
 46
-1.414213562373094
 79
     0
 98
        1
 10
-10.09249821017192
 20
0.0
  0
HATCH
  5
36A
330
1E
100
AcDbEntity
  8
SCHRAFF
100
AcDbHatch
 10
0.0
 20
0.0
 30
0.0
210
0.0
220
0.0
230
1.0
  2
_USER
 70
     0
 71
     1
 91
        1
 92
       33
 93
       17
 72
     1
 10
82.90750178982804
 20
233.7122537050728
 11
82.90750178982804
 21
230.3534340254812
 72
     1
 10
82.90763176525038
 20
230.3534340254812
 11
82.90750178982804
 21
230.3534340254812
 72
     2
 10
98.90750178982804
 20
233.7122537050727
 40
16.0
 50
155.8651087923786
 51
180.0
 73
     1
 72
     2
 10
79.40750178982804
 20
222.7544340254812
 40
5.0
 50
0.000000000000007
 51
22.33073852386146
 73
     1
 72
     2
 10
92.40750178982811
 20
218.8599853009451
 40
8.0
 50
180.0
 51
212.2042275039725
 73
     1
 72
     1
 10
84.4075017898281
 20
222.7544340254812
 11
84.40750178982804
 21
218.8599853009452
 72
     1
 10
86.40750178982804
 20
211.9317820706697
 11
86.40750178982804
 21
187.2544340254812
 72
     2
 10
81.40750178982804
 20
211.9317820706697
 40
5.0
 50
0.000000000000007
 51
32.20422750397251
 73
     1
 72
     2
 10
97.90750178982802
 20
230.3534340254812
 40
14.99987002457764
 50
180.0
 51
202.3307385238615
 73
     1
 72
     1
 10
87.90750178982804
 20
211.9317820706697
 11
87.90750178982804
 21
187.2544340254812
 72
     2
 10
81.40750178982804
 20
211.9317820706697
 40
6.5
 50
0.000000000000007
 51
32.20422750397251
 73
     1
 72
     2
 10
92.40750178982811
 20
218.8599853009451
 40
6.5
 50
180.0
 51
212.2042275039725
 73
     1
 72
     1
 10
85.9075017898281
 20
222.7544340254811
 11
85.90750178982805
 21
218.8599853009451
 72
     2
 10
79.40750178982804
 20
222.7544340254812
 40
6.5
 50
0.000000000000007
 51
22.33073852386146
 73
     1
 72
     2
 10
97.90750178982802
 20
230.3534340254812
 40
13.49987002457764
 50
180.0
 51
202.3307385238615
 73
     1
 72
     1
 10
84.40750178982804
 20
233.7122537050728
 11
84.40750178982804
 21
230.3534340254812
 72
     2
 10
98.90750178982804
 20
233.7122537050727
 40
14.5
 50
153.1802718800794
 51
180.0
 73
     1
 97
       17
330
32C
330
32B
330
32A
330
329
330
328
330
327
330
326
330
325
330
324
330
323
330
322
330
320
330
31F
330
31E
330
31C
330
31B
330
31A
 75
     0
 76
     0
 52
135.0
 41
2.0
 77
     0
 78
     1
 53
135.0
 43
-10.09249821017192
 44
0.0
 45
-1.414213562373095
 46
-1.414213562373094
 79
     0
 98
        1
 10
-10.09249821017192
 20
0.0
  0
HATCH
  5
377
330
1E
100
AcDbEntity
  8
SCHRAFF
100
AcDbHatch
 10
0.0
 20
0.0
 30
0.0
210
0.0
220
0.0
230
1.0
  2
_USER
 70
     0
 71
     0
 91
        1
 92
        7
 72
     1
 73
     1
 93
       10
 10
82.90750178982804
 20
177.690713598213
 42
-0.1563172325457707
 10
84.11823422698425
 20
181.468761857387
 42
0.0
 10
87.62810199663816
 20
186.3825767349025
 42
0.0
 10
86.40750178982804
 20
187.2544340254812
 42
0.0
 10
82.89763402017413
 20
182.3406191479658
 42
0.15631723254577
 10
81.40750178982804
 20
177.690713598213
 42
0.0
 10
81.40750178982804
 20
135.2544340254812
 42
0.0
 10
81.84494510745766
 20
130.2544340254812
 42
0.0
 10
83.35067486377264
 20
130.2544340254812
 42
0.0
 10
82.90750178982802
 20
135.3199254398439
 42
0.0
 97
        0
 75
     0
 76
     0
 52
45.0
 41
2.0
 77
     0
 78
     1
 53
45.0
 43
-10.09249821017192
 44
0.0
 45
-1.414213562373094
 46
1.414213562373095
 79
     0
 47
0.2178964601374175
 98
        1
 10
82.21709166307755
 20
171.0589784726019
  0
LINE
  5
382
102
{ACAD_REACTORS
330
3E7
330
455
102
}
330
1E
100
AcDbEntity
  8
STEMPEL
100
AcDbLine
 10
81.40750178982802
 20
166.2544340254811
 30
0.0
 11
60.10607687636422
 21
166.2544340254812
 31
0.0
  0
LINE
  5
383
102
{ACAD_REACTORS
330
455
102
}
330
1E
100
AcDbEntity
  8
STEMPEL
100
AcDbLine
 10
81.40750178982807
 20
156.2544340254812
 30
0.0
 11
77.90750178982818
 21
156.2544340254812
 31
0.0
  0
LINE
  5
384
102
{ACAD_REACTORS
330
455
102
}
330
1E
100
AcDbEntity
  8
STEMPEL
100
AcDbLine
 10
81.40750178982807
 20
150.2544340254812
 30
0.0
 11
63.90750178982819
 21
150.2544340254812
 31
0.0
  0
LINE
  5
385
102
{ACAD_REACTORS
330
455
102
}
330
1E
100
AcDbEntity
  8
STEMPEL
100
AcDbLine
 10
81.40750178982807
 20
148.2544340254812
 30
0.0
 11
57.90750178982813
 21
148.2544340254812
 31
0.0
  0
LINE
  5
386
102
{ACAD_REACTORS
330
3F2
102
}
330
1E
100
AcDbEntity
  8
STEMPEL
100
AcDbLine
 10
146.907501789828
 20
240.2544340254812
 30
0.0
 11
146.907501789828
 21
150.2544340254812
 31
0.0
  0
LINE
  5
387
102
{ACAD_REACTORS
330
3F2
102
}
330
1E
100
AcDbEntity
  8
STEMPEL
100
AcDbLine
 10
57.90750178982804
 20
240.2544340254812
 30
0.0
 11
57.90750178982804
 21
150.2544340254812
 31
0.0
  0
LINE
  5
388
102
{ACAD_REACTORS
330
3E7
330
3F2
330
455
102
}
330
1E
100
AcDbEntity
  8
STEMPEL
100
AcDbLine
 10
145.307501789828
 20
240.2544340254812
 30
0.0
 11
145.307501789828
 21
150.2544340254811
 31
0.0
  0
LINE
  5
389
102
{ACAD_REACTORS
330
3E7
330
3F2
330
455
102
}
330
1E
100
AcDbEntity
  8
STEMPEL
100
AcDbLine
 10
59.50750178982804
 20
240.2544340254812
 30
0.0
 11
59.50750178982804
 21
150.2544340254812
 31
0.0
  0
HATCH
  5
3E7
330
1E
100
AcDbEntity
  8
SCHRAFF
100
AcDbHatch
 10
0.0
 20
0.0
 30
0.0
210
0.0
220
0.0
230
1.0
  2
HONEY
 70
     0
 71
     1
 91
        2
 92
        7
 72
     1
 73
     1
 93
       17
 10
145.3075017898281
 20
240.2544340254811
 42
0.0
 10
120.508867364844
 20
240.2544340254812
 42
-0.1056993479927622
 10
121.907501789828
 20
233.7122537050728
 42
0.0
 10
121.907501789828
 20
230.3534340254812
 42
0.0
 10
121.9073718144057
 20
230.3534340254812
 42
-0.0977457506731752
 10
120.7824717328163
 20
224.654196371602
 42
0.0977457506731943
 10
120.407501789828
 20
222.7544340254811
 42
0.0
 10
120.407501789828
 20
218.8599853009452
 42
-0.1414496603262383
 10
119.1767325590587
 20
214.5964756207756
 42
0.1414496603262264
 10
118.407501789828
 20
211.9317820706697
 42
0.0
 10
118.407501789828
 20
190.2544340254811
 42
-0.3695840217792637
 10
120.5503589326852
 20
184.2544340254812
 42
0.0
 10
121.9173695594819
 20
182.3406191479658
 42
-0.1563172325457709
 10
123.407501789828
 20
177.690713598213
 42
0.0
 10
123.407501789828
 20
166.2544340254811
 42
0.0
 10
144.7089267032919
 20
166.2544340254811
 42
0.0
 10
145.307501789828
 20
152.5448105803262
 42
0.0
 97
       17
330
1D7
330
1C7
330
1C5
330
1C6
330
1CD
330
1C8
330
1CA
330
1C9
330
1CC
330
1CB
330
233
330
1BF
330
1A8
330
1C2
330
302
330
2FF
330
388
 92
        7
 72
     1
 73
     1
 93
       17
 10
59.50750178982804
 20
152.5448105803207
 42
0.0
 10
60.10607687636434
 20
166.2544340254811
 42
0.0
 10
81.40750178982804
 20
166.2544340254811
 42
0.0
 10
81.40750178982804
 20
177.690713598213
 42
-0.156317232545774
 10
82.89763402017417
 20
182.3406191479658
 42
0.0
 10
84.26464464697088
 20
184.2544340254812
 42
-0.3695840217792639
 10
86.40750178982804
 20
190.2544340254811
 42
0.0
 10
86.40750178982804
 20
211.9317820706697
 42
0.1414496603262333
 10
85.63827102059731
 20
214.5964756207757
 42
-0.141449660326235
 10
84.40750178982804
 20
218.8599853009452
 42
0.0
 10
84.4075017898281
 20
222.7544340254812
 42
0.0977457506731744
 10
84.03253184683984
 20
224.6541963716018
 42
-0.0977457506731805
 10
82.90763176525036
 20
230.3534340254812
 42
0.0
 10
82.90750178982804
 20
230.3534340254811
 42
0.0
 10
82.90750178982804
 20
233.7122537050728
 42
-0.1056993479927624
 10
84.30613621481212
 20
240.2544340254812
 42
0.0
 10
59.50750178982804
 20
240.2544340254813
 42
0.0
 97
       17
330
325
330
328
330
327
330
329
330
324
330
32B
330
32C
330
32A
330
1D7
330
389
330
2F1
330
382
330
32D
330
331
330
32E
330
232
330
326
 75
     0
 76
     1
 52
0.0
 41
20.0
 77
     0
 78
     3
 53
0.0
 43
-10.09249821017192
 44
0.0
 45
3.75
 46
2.1650635
 79
     2
 49
2.5
 49
-5.0
 53
120.0
 43
-10.09249821017192
 44
0.0
 45
-3.749999991806449
 46
2.165063514191645
 79
     2
 49
2.499999999999999
 49
-4.999999999999999
 53
60.0
 43
-10.09249821017192
 44
0.0
 45
0.0000000081935508
 46
4.330127014191645
 79
     2
 49
-5.0
 49
2.5
 47
0.4035431559756941
 98
        2
 10
135.8830532525223
 20
201.1623915822862
 10
72.90586155646201
 20
199.9517616920326
  0
HATCH
  5
3F2
330
1E
100
AcDbEntity
  8
SCHRAFF
100
AcDbHatch
 10
0.0
 20
0.0
 30
0.0
210
0.0
220
0.0
230
1.0
  2
_USER
 70
     0
 71
     1
 91
        2
 92
        7
 72
     0
 73
     1
 93
        4
 10
145.307501789828
 20
150.2544340254811
 10
146.907501789828
 20
150.2544340254811
 10
146.907501789828
 20
240.2544340254812
 10
145.307501789828
 20
240.2544340254812
 97
        4
330
1D7
330
388
330
300
330
386
 92
        7
 72
     0
 73
     1
 93
        4
 10
57.90750178982804
 20
150.2544340254812
 10
59.50750178982804
 20
150.2544340254812
 10
59.50750178982804
 20
240.2544340254813
 10
57.90750178982804
 20
240.2544340254812
 97
        4
330
1D7
330
387
330
2EF
330
389
 75
     0
 76
     0
 52
45.0
 41
2.0
 77
     0
 78
     1
 53
45.0
 43
-10.09249821017192
 44
0.0
 45
-1.414213562373094
 46
1.414213562373095
 79
     0
 47
0.2826435864569911
 98
        2
 10
145.9668778674568
 20
198.6757810133681
 10
58.59607537845409
 20
175.7816506818359
  0
DIMENSION
  5
3F3
330
1E
100
AcDbEntity
  8
BEM
100
AcDbDimension
  2
*D2
 10
118.8477443167385
 20
248.5230474537829
 30
0.0
 11
102.407501789828
 21
251.7730474537828
 31
0.0
 70
    32
  1
%%c33
 71
     5
 42
32.88048505382085
  3
Standard
100
AcDbAlignedDimension
 13
85.96725926291762
 23
240.2544340254812
 33
0.0
 14
118.8477443167385
 24
240.2544340254811
 34
0.0
100
AcDbRotatedDimension
1001
ACAD
1000
DSTYLE
1002
{
1070
    41
1040
3.5
1070
    42
1040
1.0
1070
    43
1040
7.0
1070
    44
1040
1.0
1070
    73
1070
     0
1070
    74
1070
     0
1070
    77
1070
     1
1070
    78
1070
     8
1070
    79
1070
     2
1070
   140
1040
3.5
1070
   141
1040
1.5
1070
   146
1040
0.5
1070
   147
1040
1.5
1070
   172
1070
     1
1070
   178
1070
     1
1070
   179
1070
     2
1070
   271
1070
     2
1070
   272
1070
     2
1070
   284
1070
     8
1070
   285
1070
     8
1070
   286
1070
     8
1002
}
  0
DIMENSION
  5
409
330
1E
100
AcDbEntity
  8
BEM
100
AcDbDimension
  2
*D3
 10
146.907501789828
 20
255.3978878804755
 30
0.0
 11
102.407501789828
 21
258.6478878804755
 31
0.0
 70
    32
  1
%%c<>
 71
     5
 42
88.99999999999996
  3
Standard
100
AcDbAlignedDimension
 13
57.90750178982804
 23
240.2544340254812
 33
0.0
 14
146.907501789828
 24
240.2544340254812
 34
0.0
100
AcDbRotatedDimension
1001
ACAD
1000
DSTYLE
1002
{
1070
    41
1040
3.5
1070
    42
1040
1.0
1070
    43
1040
7.0
1070
    44
1040
1.0
1070
    73
1070
     0
1070
    74
1070
     0
1070
    77
1070
     1
1070
    78
1070
     8
1070
    79
1070
     2
1070
   140
1040
3.5
1070
   141
1040
1.5
1070
   146
1040
0.5
1070
   147
1040
1.5
1070
   172
1070
     1
1070
   178
1070
     1
1070
   179
1070
     2
1070
   271
1070
     2
1070
   272
1070
     2
1070
   284
1070
     8
1070
   285
1070
     8
1070
   286
1070
     8
1002
}
  0
DIMENSION
  5
41F
330
1E
100
AcDbEntity
  8
BEM
100
AcDbDimension
  2
*D4
 10
146.907501789828
 20
248.5230474537829
 30
0.0
 11
158.007501789828
 21
251.7730474537828
 31
0.0
 70
    32
 71
     5
 42
1.598379716904446
  3
Standard
100
AcDbAlignedDimension
 13
145.3091220729235
 23
240.2544340254812
 33
0.0
 14
146.907501789828
 24
240.2544340254812
 34
0.0
100
AcDbRotatedDimension
1001
ACAD
1000
DSTYLE
1002
{
1070
    41
1040
3.5
1070
    42
1040
1.0
1070
    43
1040
7.0
1070
    44
1040
1.0
1070
    73
1070
     0
1070
    74
1070
     0
1070
    77
1070
     1
1070
    78
1070
     8
1070
    79
1070
     2
1070
   140
1040
3.5
1070
   141
1040
1.5
1070
   146
1040
0.5
1070
   147
1040
1.5
1070
   172
1070
     1
1070
   178
1070
     1
1070
   179
1070
     2
1070
   271
1070
     2
1070
   272
1070
     2
1070
   284
1070
     8
1070
   285
1070
     8
1070
   286
1070
     8
1002
}
  0
HATCH
  5
455
330
1E
100
AcDbEntity
  8
SCHRAFF
100
AcDbHatch
 10
0.0
 20
0.0
 30
0.0
210
0.0
220
0.0
230
1.0
  2
NET
 70
     0
 71
     1
 91
        2
 92
        7
 72
     0
 73
     1
 93
       11
 10
123.4075017898281
 20
166.2544340254811
 10
123.4075017898281
 20
156.2544340254812
 10
126.9075017898281
 20
156.2544340254812
 10
130.3716034049658
 20
150.2544340254812
 10
140.9075017898281
 20
150.2544340254812
 10
140.9075017898282
 20
148.2544340254812
 10
146.9075017898281
 20
148.2544340254812
 10
146.9075017898281
 20
150.2544340254811
 10
145.307501789828
 20
150.2544340254811
 10
145.307501789828
 20
152.5448105803262
 10
144.7089267032919
 20
166.2544340254811
 97
       11
330
302
330
2FD
330
2FC
330
2F8
330
2F9
330
2FA
330
301
330
303
330
300
330
388
330
2FF
 92
        7
 72
     0
 73
     1
 93
       11
 10
60.10607687636436
 20
166.2544340254811
 10
59.50750178982804
 20
152.5448105803209
 10
59.50750178982804
 20
150.2544340254812
 10
57.90750178982818
 20
150.2544340254812
 10
57.90750178982818
 20
148.2544340254812
 10
63.9075017898282
 20
148.2544340254812
 10
63.9075017898282
 20
150.2544340254812
 10
74.44340017469038
 20
150.2544340254812
 10
77.90750178982817
 20
156.2544340254812
 10
81.40750178982806
 20
156.2544340254812
 10
81.40750178982804
 20
166.2544340254811
 97
       11
330
382
330
2F1
330
389
330
2EF
330
2ED
330
385
330
2EC
330
384
330
2EB
330
383
330
32D
 75
     0
 76
     1
 52
45.0
 41
20.0
 77
     0
 78
     2
 53
45.0
 43
-10.09249821017192
 44
5.0
 45
-1.767766952966368
 46
1.767766952966368
 79
     0
 53
135.0
 43
-10.09249821017192
 44
5.0
 45
-1.767766952966368
 46
-1.767766952966368
 79
     0
 47
0.1949285287862257
 98
        2
 10
131.570082192449
 20
160.8792209681413
 10
74.82384024063208
 20
161.6589354964294
  0
DIMENSION
  5
456
330
1E
100
AcDbEntity
  8
BEM
100
AcDbDimension
  2
*D5
 10
49.96201497039897
 20
150.2544340254812
 30
0.0
 11
46.71201497039894
 21
195.2544340254812
 31
0.0
 70
    32
 71
     5
 42
90.0
  3
Standard
100
AcDbAlignedDimension
 13
57.90750178982804
 23
240.2544340254812
 33
0.0
 14
57.90750178982804
 24
150.2544340254812
 34
0.0
 50
90.0
100
AcDbRotatedDimension
1001
ACAD
1000
DSTYLE
1002
{
1070
    41
1040
3.5
1070
    42
1040
1.0
1070
    43
1040
7.0
1070
    44
1040
1.0
1070
    73
1070
     0
1070
    74
1070
     0
1070
    77
1070
     1
1070
    78
1070
     8
1070
    79
1070
     2
1070
   140
1040
3.5
1070
   141
1040
1.5
1070
   146
1040
0.5
1070
   147
1040
1.5
1070
   172
1070
     1
1070
   178
1070
     1
1070
   179
1070
     2
1070
   271
1070
     2
1070
   272
1070
     2
1070
   284
1070
     8
1070
   285
1070
     8
1070
   286
1070
     8
1002
}
  0
DIMENSION
  5
463
330
1E
100
AcDbEntity
  8
BEM
100
AcDbDimension
  2
*D6
 10
41.71443780983781
 20
130.2544340254812
 30
0.0
 11
38.4644378098378
 21
185.2544340254812
 31
0.0
 70
    32
 71
     5
 42
109.9999999999999
  3
Standard
100
AcDbAlignedDimension
 13
57.90750178982804
 23
240.2544340254812
 33
0.0
 14
81.84494510745768
 24
130.2544340254812
 34
0.0
 50
90.0
100
AcDbRotatedDimension
1001
ACAD
1000
DSTYLE
1002
{
1070
    41
1040
3.5
1070
    42
1040
1.0
1070
    43
1040
7.0
1070
    44
1040
1.0
1070
    73
1070
     0
1070
    74
1070
     0
1070
    77
1070
     1
1070
    78
1070
     8
1070
    79
1070
     2
1070
   140
1040
3.5
1070
   141
1040
1.5
1070
   146
1040
0.5
1070
   147
1040
1.5
1070
   172
1070
     1
1070
   178
1070
     1
1070
   179
1070
     2
1070
   271
1070
     2
1070
   272
1070
     2
1070
   284
1070
     8
1070
   285
1070
     8
1070
   286
1070
     8
1002
}
  0
TEXT
  5
47B
330
1E
100
AcDbEntity
  8
TEXT
 62
     1
100
AcDbText
 10
139.4391845675644
 20
131.6811522107893
 30
0.0
 40
3.5
  1
Übergangsrohr DN32/40
 41
0.8
  7
GREEKS
100
AcDbText
  0
LINE
  5
47C
330
1E
100
AcDbEntity
  8
TEXT
 62
     2
100
AcDbLine
 10
138.3792380695417
 20
129.9911995023411
 30
0.0
 11
192.0100820955862
 21
129.9911995023411
 31
0.0
  0
TEXT
  5
47D
330
1E
100
AcDbEntity
  8
TEXT
 62
     1
100
AcDbText
 10
139.4391845675644
 20
124.7483714107945
 30
0.0
 40
3.5
  1
EDV-Art.Nr. 00600.LA0X
 41
0.8
  7
GREEKS
100
AcDbText
  0
LINE
  5
47E
330
1E
100
AcDbEntity
  8
TEXT
 62
     2
100
AcDbLine
 10
138.3792380695417
 20
129.9911995023411
 30
0.0
 11
122.5910714460265
 21
139.9602987600614
 31
0.0
  0
TEXT
  5
4C2
330
1E
100
AcDbEntity
  8
TEXT
 62
     1
100
AcDbText
 10
101.8016914341901
 20
76.18216992424351
 30
0.0
 40
3.5
  1
Außenrohr: E195 EN10305 feuerverzinkt
 41
0.8
  7
GREEKS
100
AcDbText
  0
TEXT
  5
4C3
330
1E
100
AcDbEntity
  8
TEXT
 62
     1
100
AcDbText
 10
103.6878001196221
 20
70.505635906066
 30
0.0
 40
3.5
  1
Innenrohr: E195 EN10305 feuerverzinkt
 41
0.8
  7
GREEKS
100
AcDbText
  0
TEXT
  5
4C4
330
1E
100
AcDbEntity
  8
TEXT
 62
     1
100
AcDbText
 10
101.8868352162518
 20
58.57369129376209
 30
0.0
 40
3.5
  1
Dämmung: 2 K-PU-Schaum
 41
0.8
  7
GREEKS
100
AcDbText
  0
TEXT
  5
4C5
330
1E
100
AcDbEntity
  8
TEXT
 62
     1
100
AcDbText
 10
127.515064557629
 20
64.87110898645312
 30
0.0
 40
3.5
  1
und innenbeschichtet
 41
0.8
  7
GREEKS
100
AcDbText
  0
ENDSEC
  0
SECTION
  2
OBJECTS
  0
DICTIONARY
  5
C
330
0
100
AcDbDictionary
281
     1
  3
ACAD_COLOR
350
DF
  3
ACAD_GROUP
350
D
  3
ACAD_LAYOUT
350
19
  3
ACAD_MATERIAL
350
DE
  3
ACAD_MLINESTYLE
350
16
  3
ACAD_PLOTSETTINGS
350
18
  3
ACAD_PLOTSTYLENAME
350
E
  3
AcDbVariableDictionary
350
EA
  0
DICTIONARY
  5
A0
330
1E
100
AcDbDictionary
280
     1
281
     1
  3
ACAD_LAYOUTSELFREF
360
D4
  0
DICTIONARY
  5
A2
330
1A
100
AcDbDictionary
280
     1
281
     1
  3
ACAD_LAYOUTSELFREF
360
D3
  0
DICTIONARY
  5
DF
102
{ACAD_REACTORS
330
C
102
}
330
C
100
AcDbDictionary
281
     1
  0
DICTIONARY
  5
D
102
{ACAD_REACTORS
330
C
102
}
330
C
100
AcDbDictionary
281
     1
  0
DICTIONARY
  5
19
102
{ACAD_REACTORS
330
C
102
}
330
C
100
AcDbDictionary
281
     1
  3
Layout1
350
1D
  3
Model
350
21
  0
DICTIONARY
  5
DE
102
{ACAD_REACTORS
330
C
102
}
330
C
100
AcDbDictionary
281
     1
  0
DICTIONARY
  5
16
102
{ACAD_REACTORS
330
C
102
}
330
C
100
AcDbDictionary
281
     1
  3
Standard
350
17
  0
DICTIONARY
  5
18
102
{ACAD_REACTORS
330
C
102
}
330
C
100
AcDbDictionary
281
     1
  0
ACDBDICTIONARYWDFLT
  5
E
102
{ACAD_REACTORS
330
C
102
}
330
C
100
AcDbDictionary
281
     1
  3
Normal
350
F
100
AcDbDictionaryWithDefault
340
F
  0
DICTIONARY
  5
EA
102
{ACAD_REACTORS
330
C
102
}
330
C
100
AcDbDictionary
281
     1
  3
DIMASSOC
350
EB
  3
PROJECTNAME
350
EC
  0
XRECORD
  5
D4
102
{ACAD_REACTORS
330
A0
102
}
330
A0
100
AcDbXrecord
280
     1
340
1E
  0
XRECORD
  5
D3
102
{ACAD_REACTORS
330
A2
102
}
330
A2
100
AcDbXrecord
280
     1
340
1A
  0
LAYOUT
  5
1D
102
{ACAD_REACTORS
330
19
102
}
330
19
100
AcDbPlotSettings
  1

  2
\\NT_WORK01\HP LaserJet 5000 PCL 6
  4

  6

 40
0.0
 41
0.0
 42
0.0
 43
0.0
 44
0.0
 45
0.0
 46
0.0
 47
0.0
 48
0.0
 49
0.0
140
0.0
141
0.0
142
1.0
143
1.0
 70
   688
 72
     0
 73
     0
 74
     5
  7

 75
    16
147
1.0
 76
     0
 77
     2
 78
   300
148
0.0
149
0.0
100
AcDbLayout
  1
Layout1
 70
     0
 71
     1
 10
0.0
 20
0.0
 11
12.0
 21
9.0
 12
0.0
 22
0.0
 32
0.0
 14
1.000000000000000E+20
 24
1.000000000000000E+20
 34
1.000000000000000E+20
 15
-1.000000000000000E+20
 25
-1.000000000000000E+20
 35
-1.000000000000000E+20
146
0.0
 13
0.0
 23
0.0
 33
0.0
 16
1.0
 26
0.0
 36
0.0
 17
0.0
 27
1.0
 37
0.0
 76
     0
330
1A
  0
LAYOUT
  5
21
102
{ACAD_REACTORS
330
19
102
}
330
19
100
AcDbPlotSettings
  1

  2
none_device
  4
Letter_(8.50_x_11.00_Inches)
  6

 40
6.349999904632568
 41
6.349999904632568
 42
6.350006103515625
 43
6.350006103515625
 44
215.8999938964844
 45
279.3999938964844
 46
0.0
 47
0.0
 48
0.0
 49
0.0
140
0.0
141
0.0
142
1.0
143
1.0
 70
 11952
 72
     0
 73
     1
 74
     0
  7

 75
     0
147
1.0
 76
     0
 77
     2
 78
   300
148
1104.900000000001
149
0.0
100
AcDbLayout
  1
Model
 70
     1
 71
     0
 10
0.0
 20
0.0
 11
12.0
 21
9.0
 12
0.0
 22
0.0
 32
0.0
 14
0.0
 24
0.0
 34
0.0
 15
0.0
 25
0.0
 35
0.0
146
0.0
 13
0.0
 23
0.0
 33
0.0
 16
1.0
 26
0.0
 36
0.0
 17
0.0
 27
1.0
 37
0.0
 76
     0
330
1E
  0
MLINESTYLE
  5
17
102
{ACAD_REACTORS
330
16
102
}
330
16
100
AcDbMlineStyle
  2
STANDARD
 70
     0
  3

 62
   256
 51
90.0
 52
90.0
 71
     2
 49
0.5
 62
   256
  6
BYLAYER
 49
-0.5
 62
   256
  6
BYLAYER
  0
ACDBPLACEHOLDER
  5
F
102
{ACAD_REACTORS
330
E
102
}
330
E
  0
DICTIONARYVAR
  5
EB
102
{ACAD_REACTORS
330
EA
102
}
330
EA
100
DictionaryVariables
280
     0
  1
1
  0
DICTIONARYVAR
  5
EC
102
{ACAD_REACTORS
330
EA
102
}
330
EA
100
DictionaryVariables
280
     0
  1

  0
ENDSEC
  0
EOF
