  0
SECTION
  2
HEADER
  9
$ACADVER
  1
AC1018
  9
$ACADMAINTVER
 70
     2
  9
$DWGCODEPAGE
  3
ANSI_1252
  9
$INSBASE
 10
0.0
 20
0.0
 30
0.0
  9
$EXTMIN
 10
-0.0288269351949566
 20
-0.0407695226328997
 30
-0.0000000000000129
  9
$EXTMAX
 10
420.0032069865897
 20
594.00453559532
 30
0.0000000000000023
  9
$LIMMIN
 10
0.0
 20
0.0
  9
$LIMMAX
 10
419.9999999999999
 20
594.0
  9
$ORTHOMODE
 70
     1
  9
$REGENMODE
 70
     1
  9
$FILLMODE
 70
     1
  9
$QTEXTMODE
 70
     0
  9
$MIRRTEXT
 70
     1
  9
$LTSCALE
 40
20.0
  9
$ATTMODE
 70
     1
  9
$TEXTSIZE
 40
3.5
  9
$TRACEWID
 40
0.5
  9
$TEXTSTYLE
  7
STANDARD
  9
$CLAYER
  8
BEM
  9
$CELTYPE
  6
ByLayer
  9
$CECOLOR
 62
   256
  9
$CELTSCALE
 40
1.0
  9
$DISPSILH
 70
     0
  9
$DIMSCALE
 40
2.0
  9
$DIMASZ
 40
3.5
  9
$DIMEXO
 40
1.0
  9
$DIMDLI
 40
7.0
  9
$DIMRND
 40
0.0
  9
$DIMDLE
 40
0.0
  9
$DIMEXE
 40
1.0
  9
$DIMTP
 40
0.0
  9
$DIMTM
 40
0.0
  9
$DIMTXT
 40
3.5
  9
$DIMCEN
 40
1.5
  9
$DIMTSZ
 40
0.0
  9
$DIMTOL
 70
     0
  9
$DIMLIM
 70
     0
  9
$DIMTIH
 70
     0
  9
$DIMTOH
 70
     0
  9
$DIMSE1
 70
     0
  9
$DIMSE2
 70
     0
  9
$DIMTAD
 70
     1
  9
$DIMZIN
 70
     8
  9
$DIMBLK
  1

  9
$DIMASO
 70
     1
  9
$DIMSHO
 70
     0
  9
$DIMPOST
  1

  9
$DIMAPOST
  1

  9
$DIMALT
 70
     0
  9
$DIMALTD
 70
     2
  9
$DIMALTF
 40
25.4
  9
$DIMLFAC
 40
1.0
  9
$DIMTOFL
 70
     1
  9
$DIMTVP
 40
0.0
  9
$DIMTIX
 70
     0
  9
$DIMSOXD
 70
     0
  9
$DIMSAH
 70
     0
  9
$DIMBLK1
  1

  9
$DIMBLK2
  1

  9
$DIMSTYLE
  2
Standard
  9
$DIMCLRD
 70
     0
  9
$DIMCLRE
 70
     0
  9
$DIMCLRT
 70
     1
  9
$DIMTFAC
 40
0.5142857142857144
  9
$DIMGAP
 40
1.5
  9
$DIMJUST
 70
     0
  9
$DIMSD1
 70
     0
  9
$DIMSD2
 70
     0
  9
$DIMTOLJ
 70
     1
  9
$DIMTZIN
 70
     8
  9
$DIMALTZ
 70
     8
  9
$DIMALTTZ
 70
     8
  9
$DIMUPT
 70
     0
  9
$DIMDEC
 70
     2
  9
$DIMTDEC
 70
     2
  9
$DIMALTU
 70
     2
  9
$DIMALTTD
 70
     2
  9
$DIMTXSTY
  7
STANDARD
  9
$DIMAUNIT
 70
     0
  9
$DIMADEC
 70
     2
  9
$DIMALTRND
 40
0.0
  9
$DIMAZIN
 70
     2
  9
$DIMDSEP
 70
    46
  9
$DIMATFIT
 70
     3
  9
$DIMFRAC
 70
     0
  9
$DIMLDRBLK
  1

  9
$DIMLUNIT
 70
     2
  9
$DIMLWD
 70
    -2
  9
$DIMLWE
 70
    -2
  9
$DIMTMOVE
 70
     0
  9
$LUNITS
 70
     2
  9
$LUPREC
 70
     2
  9
$SKETCHINC
 40
1.0
  9
$FILLETRAD
 40
0.0
  9
$AUNITS
 70
     0
  9
$AUPREC
 70
     0
  9
$MENU
  1
ACAD
  9
$ELEVATION
 40
0.0
  9
$PELEVATION
 40
0.0
  9
$THICKNESS
 40
0.0
  9
$LIMCHECK
 70
     0
  9
$CHAMFERA
 40
0.0
  9
$CHAMFERB
 40
0.0
  9
$CHAMFERC
 40
0.0
  9
$CHAMFERD
 40
0.0
  9
$SKPOLY
 70
     0
  9
$TDCREATE
 40
2455397.864709028
  9
$TDUCREATE
 40
2455397.781375695
  9
$TDUPDATE
 40
2456198.529602153
  9
$TDUUPDATE
 40
2456198.446268819
  9
$TDINDWG
 40
0.1286749653
  9
$TDUSRTIMER
 40
0.1286749653
  9
$USRTIMER
 70
     1
  9
$ANGBASE
 50
0.0
  9
$ANGDIR
 70
     0
  9
$PDMODE
 70
     0
  9
$PDSIZE
 40
0.0
  9
$PLINEWID
 40
0.0
  9
$SPLFRAME
 70
     0
  9
$SPLINETYPE
 70
     6
  9
$SPLINESEGS
 70
     8
  9
$HANDSEED
  5
2B94
  9
$SURFTAB1
 70
     6
  9
$SURFTAB2
 70
     6
  9
$SURFTYPE
 70
     6
  9
$SURFU
 70
     6
  9
$SURFV
 70
     6
  9
$UCSBASE
  2

  9
$UCSNAME
  2

  9
$UCSORG
 10
0.0
 20
0.0
 30
0.0
  9
$UCSXDIR
 10
1.0
 20
0.0
 30
0.0
  9
$UCSYDIR
 10
0.0
 20
1.0
 30
0.0
  9
$UCSORTHOREF
  2

  9
$UCSORTHOVIEW
 70
     0
  9
$UCSORGTOP
 10
0.0
 20
0.0
 30
0.0
  9
$UCSORGBOTTOM
 10
0.0
 20
0.0
 30
0.0
  9
$UCSORGLEFT
 10
0.0
 20
0.0
 30
0.0
  9
$UCSORGRIGHT
 10
0.0
 20
0.0
 30
0.0
  9
$UCSORGFRONT
 10
0.0
 20
0.0
 30
0.0
  9
$UCSORGBACK
 10
0.0
 20
0.0
 30
0.0
  9
$PUCSBASE
  2

  9
$PUCSNAME
  2

  9
$PUCSORG
 10
0.0
 20
0.0
 30
0.0
  9
$PUCSXDIR
 10
1.0
 20
0.0
 30
0.0
  9
$PUCSYDIR
 10
0.0
 20
1.0
 30
0.0
  9
$PUCSORTHOREF
  2

  9
$PUCSORTHOVIEW
 70
     0
  9
$PUCSORGTOP
 10
0.0
 20
0.0
 30
0.0
  9
$PUCSORGBOTTOM
 10
0.0
 20
0.0
 30
0.0
  9
$PUCSORGLEFT
 10
0.0
 20
0.0
 30
0.0
  9
$PUCSORGRIGHT
 10
0.0
 20
0.0
 30
0.0
  9
$PUCSORGFRONT
 10
0.0
 20
0.0
 30
0.0
  9
$PUCSORGBACK
 10
0.0
 20
0.0
 30
0.0
  9
$USERI1
 70
     0
  9
$USERI2
 70
     0
  9
$USERI3
 70
     0
  9
$USERI4
 70
     0
  9
$USERI5
 70
     0
  9
$USERR1
 40
0.0
  9
$USERR2
 40
0.0
  9
$USERR3
 40
0.0
  9
$USERR4
 40
0.0
  9
$USERR5
 40
0.0
  9
$WORLDVIEW
 70
     1
  9
$SHADEDGE
 70
     3
  9
$SHADEDIF
 70
    70
  9
$TILEMODE
 70
     1
  9
$MAXACTVP
 70
    16
  9
$PINSBASE
 10
0.0
 20
0.0
 30
0.0
  9
$PLIMCHECK
 70
     0
  9
$PEXTMIN
 10
1.000000000000000E+20
 20
1.000000000000000E+20
 30
1.000000000000000E+20
  9
$PEXTMAX
 10
-1.000000000000000E+20
 20
-1.000000000000000E+20
 30
-1.000000000000000E+20
  9
$PLIMMIN
 10
0.0
 20
0.0
  9
$PLIMMAX
 10
12.0
 20
9.0
  9
$UNITMODE
 70
     0
  9
$VISRETAIN
 70
     0
  9
$PLINEGEN
 70
     0
  9
$PSLTSCALE
 70
     0
  9
$TREEDEPTH
 70
  3020
  9
$CMLSTYLE
  2
Standard
  9
$CMLJUST
 70
     0
  9
$CMLSCALE
 40
1.0
  9
$PROXYGRAPHICS
 70
     1
  9
$MEASUREMENT
 70
     0
  9
$CELWEIGHT
370
    -1
  9
$ENDCAPS
280
     0
  9
$JOINSTYLE
280
     0
  9
$LWDISPLAY
290
     0
  9
$INSUNITS
 70
     0
  9
$HYPERLINKBASE
  1

  9
$STYLESHEET
  1
monochrome 1.ctb
  9
$XEDIT
290
     1
  9
$CEPSNTYPE
380
     0
  9
$PSTYLEMODE
290
     1
  9
$FINGERPRINTGUID
  2
{D68B0D02-A558-11D7-B632-000102183313}
  9
$VERSIONGUID
  2
{FFCA207C-E02C-423B-979E-FBEAAFEDF62E}
  9
$EXTNAMES
290
     1
  9
$PSVPSCALE
 40
0.0
  9
$OLESTARTUP
290
     0
  9
$SORTENTS
280
   127
  9
$INDEXCTL
280
     0
  9
$HIDETEXT
280
     0
  9
$XCLIPFRAME
290
     0
  9
$HALOGAP
280
     0
  9
$OBSCOLOR
 70
   257
  9
$OBSLTYPE
280
     0
  9
$INTERSECTIONDISPLAY
280
     0
  9
$INTERSECTIONCOLOR
 70
   257
  9
$DIMASSOC
280
     1
  9
$PROJECTNAME
  1

  0
ENDSEC
  0
SECTION
  2
CLASSES
  0
CLASS
  1
ACDBDICTIONARYWDFLT
  2
AcDbDictionaryWithDefault
  3
ObjectDBX Classes
 90
        0
 91
        1
280
     0
281
     0
  0
CLASS
  1
DICTIONARYVAR
  2
AcDbDictionaryVar
  3
ObjectDBX Classes
 90
        0
 91
        2
280
     0
281
     0
  0
CLASS
  1
DIMASSOC
  2
AcDbDimAssoc
  3
"AcDbDimAssoc|Product Desc:     AcDim ARX App For Dimension|Company:          Autodesk, Inc.|WEB Address:      www.autodesk.com"
 90
        0
 91
        0
280
     0
281
     0
  0
ENDSEC
  0
SECTION
  2
TABLES
  0
TABLE
  2
VPORT
  5
8
330
0
100
AcDbSymbolTable
 70
     3
  0
VPORT
  5
2B93
330
8
100
AcDbSymbolTableRecord
100
AcDbViewportTableRecord
  2
*Active
 70
     0
 10
0.0
 20
0.0
 11
1.0
 21
1.0
 12
209.9999999999999
 22
297.0
 13
0.0
 23
0.0
 14
1.0
 24
1.0
 15
10.0
 25
10.0
 16
0.0
 26
0.0
 36
1.0
 17
0.0
 27
0.0
 37
0.0
 40
594.0
 41
1.404858299595141
 42
50.0
 43
0.0
 44
0.0
 50
0.0
 51
0.0
 71
     0
 72
  1500
 73
     1
 74
     0
 75
     0
 76
     0
 77
     0
 78
     0
281
     0
 65
     1
110
0.0
120
0.0
130
0.0
111
1.0
121
0.0
131
0.0
112
0.0
122
1.0
132
0.0
 79
     0
146
0.0
  0
ENDTAB
  0
TABLE
  2
LTYPE
  5
5
330
0
100
AcDbSymbolTable
 70
     3
  0
LTYPE
  5
13
330
5
100
AcDbSymbolTableRecord
100
AcDbLinetypeTableRecord
  2
ByBlock
 70
     0
  3

 72
    65
 73
     0
 40
0.0
  0
LTYPE
  5
14
330
5
100
AcDbSymbolTableRecord
100
AcDbLinetypeTableRecord
  2
ByLayer
 70
     0
  3

 72
    65
 73
     0
 40
0.0
  0
LTYPE
  5
15
330
5
100
AcDbSymbolTableRecord
100
AcDbLinetypeTableRecord
  2
Continuous
 70
     0
  3
Solid line
 72
    65
 73
     0
 40
0.0
  0
LTYPE
  5
25
330
5
100
AcDbSymbolTableRecord
100
AcDbLinetypeTableRecord
  2
STRICHPUNKT
 70
     0
  3
__ . __ . __ . __ . __ . __ . __ . __ . __ . __
 72
    65
 73
     4
 40
1.0
 49
0.5
 74
     0
 49
-0.25
 74
     0
 49
0.0
 74
     0
 49
-0.25
 74
     0
  0
LTYPE
  5
32
330
5
100
AcDbSymbolTableRecord
100
AcDbLinetypeTableRecord
  2
AUSGEZOGEN
 70
     0
  3
Ausgezogene Linie
 72
    65
 73
     0
 40
0.0
  0
ENDTAB
  0
TABLE
  2
LAYER
  5
2
330
0
100
AcDbSymbolTable
 70
     9
  0
LAYER
  5
10
330
2
100
AcDbSymbolTableRecord
100
AcDbLayerTableRecord
  2
0
 70
     0
 62
     7
  6
Continuous
370
    -3
390
F
  0
LAYER
  5
2A
330
2
100
AcDbSymbolTableRecord
100
AcDbLayerTableRecord
  2
VOLL
 70
     0
 62
     1
  6
Continuous
370
    -3
390
F
  0
LAYER
  5
2B
330
2
100
AcDbSymbolTableRecord
100
AcDbLayerTableRecord
  2
HILF
 70
     0
 62
     2
  6
Continuous
370
    -3
390
F
  0
LAYER
  5
2C
330
2
100
AcDbSymbolTableRecord
100
AcDbLayerTableRecord
  2
MITTEL
 70
     0
 62
     2
  6
STRICHPUNKT
370
    -3
390
F
  0
LAYER
  5
2F
330
2
100
AcDbSymbolTableRecord
100
AcDbLayerTableRecord
  2
BEM
 70
     0
 62
     7
  6
Continuous
370
    -3
390
F
  0
LAYER
  5
30
330
2
100
AcDbSymbolTableRecord
100
AcDbLayerTableRecord
  2
STEMPEL
 70
     0
 62
     3
  6
Continuous
370
    -3
390
F
  0
LAYER
  5
31
330
2
100
AcDbSymbolTableRecord
100
AcDbLayerTableRecord
  2
TEXT
 70
     0
 62
     7
  6
Continuous
370
    -3
390
F
  0
LAYER
  5
195
330
2
100
AcDbSymbolTableRecord
100
AcDbLayerTableRecord
  2
DEFPOINTS
 70
     0
 62
     7
  6
AUSGEZOGEN
290
     0
370
    -3
390
F
  0
LAYER
  5
3B7
330
2
100
AcDbSymbolTableRecord
100
AcDbLayerTableRecord
  2
SCHRAFF
 70
     0
 62
     7
  6
Continuous
370
    -3
390
F
  0
ENDTAB
  0
TABLE
  2
STYLE
  5
3
330
0
100
AcDbSymbolTable
 70
     2
  0
STYLE
  5
11
330
3
100
AcDbSymbolTableRecord
100
AcDbTextStyleTableRecord
  2
STANDARD
 70
     0
 40
0.0
 41
0.8
 50
0.0
 71
     0
 42
3.5
  3
simplex.shx
  4

  0
STYLE
  5
24
330
3
100
AcDbSymbolTableRecord
100
AcDbTextStyleTableRecord
  2
GREEKS
 70
     0
 40
0.0
 41
0.8
 50
0.0
 71
     0
 42
2.5
  3
SIMPLEX.shx
  4

  0
ENDTAB
  0
TABLE
  2
VIEW
  5
6
330
0
100
AcDbSymbolTable
 70
     0
  0
ENDTAB
  0
TABLE
  2
UCS
  5
7
330
0
100
AcDbSymbolTable
 70
     0
  0
ENDTAB
  0
TABLE
  2
APPID
  5
9
330
0
100
AcDbSymbolTable
 70
     1
  0
APPID
  5
12
330
9
100
AcDbSymbolTableRecord
100
AcDbRegAppTableRecord
  2
ACAD
 70
     0
  0
ENDTAB
  0
TABLE
  2
DIMSTYLE
  5
A
330
0
100
AcDbSymbolTable
 70
     1
100
AcDbDimStyleTable
 71
     1
340
9D
  0
DIMSTYLE
105
9D
102
{ACAD_REACTORS
330
28D4
330
2949
330
294A
330
2AA4
330
2ADA
330
2AE7
102
}
330
A
100
AcDbSymbolTableRecord
100
AcDbDimStyleTableRecord
  2
Standard
 70
     0
340
11
  0
ENDTAB
  0
TABLE
  2
BLOCK_RECORD
  5
1
330
0
100
AcDbSymbolTable
 70
    13
  0
BLOCK_RECORD
  5
1E
102
{ACAD_XDICTIONARY
360
A0
102
}
330
1
100
AcDbSymbolTableRecord
100
AcDbBlockTableRecord
  2
*Model_Space
340
21
  0
BLOCK_RECORD
  5
1A
102
{ACAD_XDICTIONARY
360
A2
102
}
330
1
100
AcDbSymbolTableRecord
100
AcDbBlockTableRecord
  2
*Paper_Space
340
1D
  0
BLOCK_RECORD
  5
22
330
1
100
AcDbSymbolTableRecord
100
AcDbBlockTableRecord
  2
LOGO
340
0
102
{BLKREFS
331
9B
102
}
  0
BLOCK_RECORD
  5
2581
330
1
100
AcDbSymbolTableRecord
100
AcDbBlockTableRecord
  2
*X1
340
0
102
{BLKREFS
331
274D
102
}
  0
BLOCK_RECORD
  5
28E1
330
1
100
AcDbSymbolTableRecord
100
AcDbBlockTableRecord
  2
*D2
340
0
  0
BLOCK_RECORD
  5
294F
330
1
100
AcDbSymbolTableRecord
100
AcDbBlockTableRecord
  2
*D4
340
0
  0
BLOCK_RECORD
  5
295B
330
1
100
AcDbSymbolTableRecord
100
AcDbBlockTableRecord
  2
*D5
340
0
  0
BLOCK_RECORD
  5
2AA5
330
1
100
AcDbSymbolTableRecord
100
AcDbBlockTableRecord
  2
*D7
340
0
  0
BLOCK_RECORD
  5
2ADB
330
1
100
AcDbSymbolTableRecord
100
AcDbBlockTableRecord
  2
*D11
340
0
  0
BLOCK_RECORD
  5
2AE8
330
1
100
AcDbSymbolTableRecord
100
AcDbBlockTableRecord
  2
*D12
340
0
  0
ENDTAB
  0
ENDSEC
  0
SECTION
  2
BLOCKS
  0
BLOCK
  5
35
330
1E
100
AcDbEntity
  8
0
100
AcDbBlockBegin
  2
*Model_Space
 70
     0
 10
0.0
 20
0.0
 30
0.0
  3
*Model_Space
  1

  0
ENDBLK
  5
36
330
1E
100
AcDbEntity
  8
0
100
AcDbBlockEnd
  0
BLOCK
  5
33
330
1A
100
AcDbEntity
 67
     1
  8
0
100
AcDbBlockBegin
  2
*Paper_Space
 70
     0
 10
0.0
 20
0.0
 30
0.0
  3
*Paper_Space
  1

  0
ENDBLK
  5
34
330
1A
100
AcDbEntity
 67
     1
  8
0
100
AcDbBlockEnd
  0
BLOCK
  5
37
330
22
100
AcDbEntity
  8
0
100
AcDbBlockBegin
  2
LOGO
 70
     0
 10
0.0
 20
0.0
 30
0.0
  3
LOGO
  1

  0
ARC
  5
38
330
22
100
AcDbEntity
  8
0
100
AcDbCircle
 10
11.59973089678112
 20
-9.271599258481501
 30
0.0
 40
4.5
100
AcDbArc
 50
270.0
 51
231.0575587310159
  0
LINE
  5
39
330
22
100
AcDbEntity
  8
0
100
AcDbLine
 10
3.599730896781125
 20
-4.771599258481529
 30
0.0
 11
3.599730896781153
 21
-11.77159925848133
 31
0.0
  0
LINE
  5
3A
330
22
100
AcDbEntity
  8
0
100
AcDbLine
 10
2.599730896781125
 20
-4.771599258481529
 30
0.0
 11
2.599730896781153
 21
-11.77159925848133
 31
0.0
  0
CIRCLE
  5
3B
330
22
100
AcDbEntity
  8
0
100
AcDbCircle
 10
11.59973089678112
 20
-9.271599258481501
 30
0.0
 40
3.5
  0
ARC
  5
3C
330
22
100
AcDbEntity
  8
0
100
AcDbCircle
 10
31.59973089678115
 20
-9.271599258481472
 30
0.0
 40
4.5
100
AcDbArc
 50
270.0
 51
231.0575587310182
  0
LINE
  5
3D
330
22
100
AcDbEntity
  8
0
100
AcDbLine
 10
17.59973089678112
 20
-4.771599258481472
 30
0.0
 11
17.59973089678115
 21
-13.77159925848147
 31
0.0
  0
ARC
  5
3E
330
22
100
AcDbEntity
  8
0
100
AcDbCircle
 10
22.59973089678116
 20
-7.271599258481472
 30
0.0
 40
2.5
100
AcDbArc
 50
293.1161887722295
 51
90.0
  0
CIRCLE
  5
3F
330
22
100
AcDbEntity
  8
0
100
AcDbCircle
 10
31.59973089678115
 20
-9.271599258481472
 30
0.0
 40
3.5
  0
ARC
  5
40
330
22
100
AcDbEntity
  8
0
100
AcDbCircle
 10
4.599730896781153
 20
-11.77159925848133
 30
0.0
 40
1.0
100
AcDbArc
 50
180.0
 51
270.0
  0
ARC
  5
41
330
22
100
AcDbEntity
  8
0
100
AcDbCircle
 10
4.599730896781153
 20
-11.77159925848133
 30
0.0
 40
2.0
100
AcDbArc
 50
179.9999999999992
 51
270.0
  0
LINE
  5
42
330
22
100
AcDbEntity
  8
0
100
AcDbLine
 10
11.59973089678115
 20
-13.77159925848144
 30
0.0
 11
4.599730896781153
 21
-13.77159925848147
 31
0.0
  0
LINE
  5
43
330
22
100
AcDbEntity
  8
0
100
AcDbLine
 10
8.771303772034769
 20
-12.77159925848136
 30
0.0
 11
4.599730896781153
 21
-12.77159925848133
 31
0.0
  0
LINE
  5
44
330
22
100
AcDbEntity
  8
0
100
AcDbLine
 10
31.59973089678115
 20
-13.77159925848147
 30
0.0
 11
23.6715276665056
 21
-13.77159925848144
 31
0.0
  0
LINE
  5
45
330
22
100
AcDbEntity
  8
0
100
AcDbLine
 10
23.56565672307022
 20
-9.51278021337896
 30
0.0
 11
24.4388546544846
 21
-12.77159925848144
 31
0.0
  0
LINE
  5
46
330
22
100
AcDbEntity
  8
0
100
AcDbLine
 10
22.59973089678116
 20
-9.771599258481472
 30
0.0
 11
18.59973089678112
 21
-9.771599258481472
 31
0.0
  0
LINE
  5
47
330
22
100
AcDbEntity
  8
0
100
AcDbLine
 10
18.59973089678115
 20
-13.77159925848144
 30
0.0
 11
17.59973089678115
 21
-13.77159925848144
 31
0.0
  0
LINE
  5
48
330
22
100
AcDbEntity
  8
0
100
AcDbLine
 10
18.59973089678115
 20
-9.771599258481472
 30
0.0
 11
18.59973089678115
 21
-13.77159925848144
 31
0.0
  0
LINE
  5
49
330
22
100
AcDbEntity
  8
0
100
AcDbLine
 10
22.59973089678116
 20
-9.771599258481472
 30
0.0
 11
23.67152766650562
 21
-13.77159925848147
 31
0.0
  0
ARC
  5
4A
330
22
100
AcDbEntity
  8
0
100
AcDbCircle
 10
22.59973089678116
 20
-7.271599258481472
 30
0.0
 40
2.5
100
AcDbArc
 50
270.0
 51
270.0000000000007
  0
LINE
  5
4B
330
22
100
AcDbEntity
  8
0
100
AcDbLine
 10
28.77130377203494
 20
-12.77159925848147
 30
0.0
 11
24.43885465448463
 21
-12.77159925848144
 31
0.0
  0
LINE
  5
4C
330
22
100
AcDbEntity
  8
0
100
AcDbLine
 10
3.599730896781125
 20
-4.771599258481472
 30
0.0
 11
2.599730896781125
 21
-4.771599258481472
 31
0.0
  0
LINE
  5
4D
330
22
100
AcDbEntity
  8
0
100
AcDbLine
 10
22.59973089678116
 20
-8.771599258481472
 30
0.0
 11
18.59973089678115
 21
-8.771599258481472
 31
0.0
  0
LINE
  5
4E
330
22
100
AcDbEntity
  8
0
100
AcDbLine
 10
22.59973089678116
 20
-5.771599258481472
 30
0.0
 11
18.59973089678115
 21
-5.771599258481472
 31
0.0
  0
LINE
  5
4F
330
22
100
AcDbEntity
  8
0
100
AcDbLine
 10
22.59973089678116
 20
-4.771599258481472
 30
0.0
 11
17.59973089678115
 21
-4.771599258481472
 31
0.0
  0
LINE
  5
50
330
22
100
AcDbEntity
  8
0
100
AcDbLine
 10
18.59973089678115
 20
-5.771599258481472
 30
0.0
 11
18.59973089678115
 21
-8.771599258481472
 31
0.0
  0
ARC
  5
51
330
22
100
AcDbEntity
  8
0
100
AcDbCircle
 10
22.59973089678116
 20
-7.271599258481472
 30
0.0
 40
1.5
100
AcDbArc
 50
270.0
 51
90.0
  0
ENDBLK
  5
52
330
22
100
AcDbEntity
  8
0
100
AcDbBlockEnd
  0
BLOCK
  5
2582
330
2581
100
AcDbEntity
  8
0
100
AcDbBlockBegin
  2
*X1
 70
     1
 10
0.0
 20
0.0
 30
0.0
  3
*X1
  1

  0
LINE
  5
2583
330
2581
100
AcDbEntity
  8
0
 62
     0
100
AcDbLine
 10
158.0974766193748
 20
348.3324000664306
 30
0.0
 11
157.9779012889968
 21
348.4519753968084
 31
0.0
  0
LINE
  5
2584
330
2581
100
AcDbEntity
  8
0
 62
     0
100
AcDbLine
 10
158.0638048678897
 20
348.2246504616783
 30
0.0
 11
157.8308344078516
 21
348.4576209217163
 31
0.0
  0
LINE
  5
2585
330
2581
100
AcDbEntity
  8
0
 62
     0
100
AcDbLine
 10
158.0301331164046
 20
348.1169008569261
 30
0.0
 11
157.6883672304861
 21
348.4586667428446
 31
0.0
  0
LINE
  5
2586
330
2581
100
AcDbEntity
  8
0
 62
     0
100
AcDbLine
 10
157.9964613649195
 20
348.0091512521739
 30
0.0
 11
157.5500905289771
 21
348.4555220881163
 31
0.0
  0
LINE
  5
2587
330
2581
100
AcDbEntity
  8
0
 62
     0
100
AcDbLine
 10
157.9627896134345
 20
347.9014016474217
 30
0.0
 11
157.4156622676688
 21
348.4485289931873
 31
0.0
  0
LINE
  5
2588
330
2581
100
AcDbEntity
  8
0
 62
     0
100
AcDbLine
 10
157.9291178619494
 20
347.7936520426693
 30
0.0
 11
157.284793229401
 21
348.4379766752178
 31
0.0
  0
LINE
  5
2589
330
2581
100
AcDbEntity
  8
0
 62
     0
100
AcDbLine
 10
157.8954461104643
 20
347.6859024379171
 30
0.0
 11
157.1572363962455
 21
348.4241121521359
 31
0.0
  0
LINE
  5
258A
330
2581
100
AcDbEntity
  8
0
 62
     0
100
AcDbLine
 10
157.8617743589793
 20
347.5781528331649
 30
0.0
 11
157.032778950328
 21
348.4071482418162
 31
0.0
  0
LINE
  5
258B
330
2581
100
AcDbEntity
  8
0
 62
     0
100
AcDbLine
 10
157.8281026074942
 20
347.4704032284126
 30
0.0
 11
156.9112361448593
 21
348.3872696910475
 31
0.0
  0
LINE
  5
258C
330
2581
100
AcDbEntity
  8
0
 62
     0
100
AcDbLine
 10
157.7944308560091
 20
347.3626536236604
 30
0.0
 11
156.7924465369804
 21
348.3646379426892
 31
0.0
  0
LINE
  5
258D
330
2581
100
AcDbEntity
  8
0
 62
     0
100
AcDbLine
 10
157.760759104524
 20
347.2549040189082
 30
0.0
 11
156.6762682299364
 21
348.3393948934959
 31
0.0
  0
LINE
  5
258E
330
2581
100
AcDbEntity
  8
0
 62
     0
100
AcDbLine
 10
157.7270873530389
 20
347.1471544141559
 30
0.0
 11
156.5625758752885
 21
348.3116658919063
 31
0.0
  0
LINE
  5
258F
330
2581
100
AcDbEntity
  8
0
 62
     0
100
AcDbLine
 10
157.6934156015539
 20
347.0394048094037
 30
0.0
 11
156.4512582556791
 21
348.2815621552786
 31
0.0
  0
LINE
  5
2590
330
2581
100
AcDbEntity
  8
0
 62
     0
100
AcDbLine
 10
157.6597438500688
 20
346.9316552046515
 30
0.0
 11
156.342216316835
 21
348.2491827378852
 31
0.0
  0
LINE
  5
2591
330
2581
100
AcDbEntity
  8
0
 62
     0
100
AcDbLine
 10
157.6260720985838
 20
346.8239055998993
 30
0.0
 11
156.2353615513366
 21
348.2146161471464
 31
0.0
  0
LINE
  5
2592
330
2581
100
AcDbEntity
  8
0
 62
     0
100
AcDbLine
 10
157.5924003470987
 20
346.716155995147
 30
0.0
 11
156.1306146608293
 21
348.1779416814164
 31
0.0
  0
LINE
  5
2593
330
2581
100
AcDbEntity
  8
0
 62
     0
100
AcDbLine
 10
157.5587285956136
 20
346.6084063903947
 30
0.0
 11
156.0279044408652
 21
348.1392305451431
 31
0.0
  0
LINE
  5
2594
330
2581
100
AcDbEntity
  8
0
 62
     0
100
AcDbLine
 10
157.5250568441285
 20
346.5006567856426
 30
0.0
 11
155.9271668454137
 21
348.0985467843574
 31
0.0
  0
LINE
  5
2595
330
2581
100
AcDbEntity
  8
0
 62
     0
100
AcDbLine
 10
157.4913850926434
 20
346.3929071808903
 30
0.0
 11
155.8283441976392
 21
348.0559480758945
 31
0.0
  0
LINE
  5
2596
330
2581
100
AcDbEntity
  8
0
 62
     0
100
AcDbLine
 10
157.4577133411584
 20
346.2851575761381
 30
0.0
 11
155.731384520742
 21
348.0114863965545
 31
0.0
  0
LINE
  5
2597
330
2581
100
AcDbEntity
  8
0
 62
     0
100
AcDbLine
 10
157.4240415896733
 20
346.1774079713858
 30
0.0
 11
155.6362409681198
 21
347.9652085929394
 31
0.0
  0
LINE
  5
2598
330
2581
100
AcDbEntity
  8
0
 62
     0
100
AcDbLine
 10
157.3903698381882
 20
346.0696583666336
 30
0.0
 11
155.5428713363177
 21
347.917156868504
 31
0.0
  0
LINE
  5
2599
330
2581
100
AcDbEntity
  8
0
 62
     0
100
AcDbLine
 10
157.3566980867032
 20
345.9619087618814
 30
0.0
 11
155.4512376474864
 21
347.8673692010981
 31
0.0
  0
LINE
  5
259A
330
2581
100
AcDbEntity
  8
0
 62
     0
100
AcDbLine
 10
157.3230263352181
 20
345.8541591571291
 30
0.0
 11
155.3613057906196
 21
347.8158797017276
 31
0.0
  0
LINE
  5
259B
330
2581
100
AcDbEntity
  8
0
 62
     0
100
AcDbLine
 10
157.289354583733
 20
345.7464095523769
 30
0.0
 11
155.2730452128576
 21
347.7627189232523
 31
0.0
  0
LINE
  5
259C
330
2581
100
AcDbEntity
  8
0
 62
     0
100
AcDbLine
 10
157.255682832248
 20
345.6386599476247
 30
0.0
 11
155.1864286537389
 21
347.7079141261337
 31
0.0
  0
LINE
  5
259D
330
2581
100
AcDbEntity
  8
0
 62
     0
100
AcDbLine
 10
157.2220110807629
 20
345.5309103428724
 30
0.0
 11
155.1014319165746
 21
347.6514895070606
 31
0.0
  0
LINE
  5
259E
330
2581
100
AcDbEntity
  8
0
 62
     0
100
AcDbLine
 10
157.1883393292778
 20
345.4231607381202
 30
0.0
 11
155.0180336721544
 21
347.5934663952436
 31
0.0
  0
LINE
  5
259F
330
2581
100
AcDbEntity
  8
0
 62
     0
100
AcDbLine
 10
157.1546675777927
 20
345.315411133368
 30
0.0
 11
154.9362152908461
 21
347.5338634203146
 31
0.0
  0
LINE
  5
25A0
330
2581
100
AcDbEntity
  8
0
 62
     0
100
AcDbLine
 10
157.0846287251558
 20
345.2440286297676
 30
0.0
 11
154.855960699849
 21
347.4726966550744
 31
0.0
  0
LINE
  5
25A1
330
2581
100
AcDbEntity
  8
0
 62
     0
100
AcDbLine
 10
156.9432073689185
 20
345.2440286297676
 30
0.0
 11
154.7772562629411
 21
347.4099797357449
 31
0.0
  0
LINE
  5
25A2
330
2581
100
AcDbEntity
  8
0
 62
     0
100
AcDbLine
 10
156.8017860126811
 20
345.2440286297676
 30
0.0
 11
154.700090680553
 21
347.3457239618956
 31
0.0
  0
LINE
  5
25A3
330
2581
100
AcDbEntity
  8
0
 62
     0
100
AcDbLine
 10
156.6603646564439
 20
345.2440286297676
 30
0.0
 11
154.6244549084143
 21
347.2799383777971
 31
0.0
  0
LINE
  5
25A4
330
2581
100
AcDbEntity
  8
0
 62
     0
100
AcDbLine
 10
156.5189433002065
 20
345.2440286297676
 30
0.0
 11
154.5503420933798
 21
347.2126298365943
 31
0.0
  0
LINE
  5
25A5
330
2581
100
AcDbEntity
  8
0
 62
     0
100
AcDbLine
 10
156.3775219439692
 20
345.2440286297676
 30
0.0
 11
154.4777475253603
 21
347.1438030483766
 31
0.0
  0
LINE
  5
25A6
330
2581
100
AcDbEntity
  8
0
 62
     0
100
AcDbLine
 10
156.2361005877319
 20
345.2440286297676
 30
0.0
 11
154.4066686045608
 21
347.0734606129386
 31
0.0
  0
LINE
  5
25A7
330
2581
100
AcDbEntity
  8
0
 62
     0
100
AcDbLine
 10
156.1140029822244
 20
345.2247048790378
 30
0.0
 11
154.3371048234955
 21
347.0016030377666
 31
0.0
  0
LINE
  5
25A8
330
2581
100
AcDbEntity
  8
0
 62
     0
100
AcDbLine
 10
156.0451053984164
 20
345.1521811066085
 30
0.0
 11
154.2690577634839
 21
346.9282287415409
 31
0.0
  0
LINE
  5
25A9
330
2581
100
AcDbEntity
  8
0
 62
     0
100
AcDbLine
 10
155.9762078146085
 20
345.079657334179
 30
0.0
 11
154.2025311055749
 21
346.8533340432127
 31
0.0
  0
LINE
  5
25AA
330
2581
100
AcDbEntity
  8
0
 62
     0
100
AcDbLine
 10
155.9073102308006
 20
345.0071335617497
 30
0.0
 11
154.1375306560737
 21
346.7769131364767
 31
0.0
  0
LINE
  5
25AB
330
2581
100
AcDbEntity
  8
0
 62
     0
100
AcDbLine
 10
155.8384126469927
 20
344.9346097893203
 30
0.0
 11
154.074064387087
 21
346.6989580492259
 31
0.0
  0
LINE
  5
25AC
330
2581
100
AcDbEntity
  8
0
 62
     0
100
AcDbLine
 10
155.7695150631847
 20
344.8620860168909
 30
0.0
 11
154.0121424927519
 21
346.6194585873237
 31
0.0
  0
LINE
  5
25AD
330
2581
100
AcDbEntity
  8
0
 62
     0
100
AcDbLine
 10
155.7006174793768
 20
344.7895622444615
 30
0.0
 11
153.9517774620838
 21
346.5384022617545
 31
0.0
  0
LINE
  5
25AE
330
2581
100
AcDbEntity
  8
0
 62
     0
100
AcDbLine
 10
155.6317198955689
 20
344.7170384720321
 30
0.0
 11
153.8929841696787
 21
346.4557741979223
 31
0.0
  0
LINE
  5
25AF
330
2581
100
AcDbEntity
  8
0
 62
     0
100
AcDbLine
 10
155.562822311761
 20
344.6445146996027
 30
0.0
 11
153.8357799858411
 21
346.3715570255226
 31
0.0
  0
LINE
  5
25B0
330
2581
100
AcDbEntity
  8
0
 62
     0
100
AcDbLine
 10
155.4939247279531
 20
344.5719909271733
 30
0.0
 11
153.7801849080954
 21
346.285730747031
 31
0.0
  0
LINE
  5
25B1
330
2581
100
AcDbEntity
  8
0
 62
     0
100
AcDbLine
 10
155.4250271441451
 20
344.4994671547439
 30
0.0
 11
153.7262217164928
 21
346.1982725823963
 31
0.0
  0
LINE
  5
25B2
330
2581
100
AcDbEntity
  8
0
 62
     0
100
AcDbLine
 10
155.3561295603373
 20
344.4269433823146
 30
0.0
 11
153.6739161556563
 21
346.1091567869954
 31
0.0
  0
LINE
  5
25B3
330
2581
100
AcDbEntity
  8
0
 62
     0
100
AcDbLine
 10
155.2872319765293
 20
344.3544196098851
 30
0.0
 11
153.6232971471476
 21
346.0183544392668
 31
0.0
  0
LINE
  5
25B4
330
2581
100
AcDbEntity
  8
0
 62
     0
100
AcDbLine
 10
155.2183343927214
 20
344.2818958374558
 30
0.0
 11
153.5743970365103
 21
345.9258331936669
 31
0.0
  0
LINE
  5
25B5
330
2581
100
AcDbEntity
  8
0
 62
     0
100
AcDbLine
 10
155.1494368089135
 20
344.2093720650264
 30
0.0
 11
153.5272518802853
 21
345.8315569936545
 31
0.0
  0
LINE
  5
25B6
330
2581
100
AcDbEntity
  8
0
 62
     0
100
AcDbLine
 10
155.0805392251056
 20
344.136848292597
 30
0.0
 11
153.4819017794545
 21
345.7354857382479
 31
0.0
  0
LINE
  5
25B7
330
2581
100
AcDbEntity
  8
0
 62
     0
100
AcDbLine
 10
155.0116416412977
 20
344.0643245201676
 30
0.0
 11
153.4383912672031
 21
345.6375748942622
 31
0.0
  0
LINE
  5
25B8
330
2581
100
AcDbEntity
  8
0
 62
     0
100
AcDbLine
 10
154.9427440574897
 20
343.9918007477382
 30
0.0
 11
153.3967697606932
 21
345.5377750445347
 31
0.0
  0
LINE
  5
25B9
330
2581
100
AcDbEntity
  8
0
 62
     0
100
AcDbLine
 10
154.8738464736818
 20
343.9192769753088
 30
0.0
 11
153.3570920888126
 21
345.436031360178
 31
0.0
  0
LINE
  5
25BA
330
2581
100
AcDbEntity
  8
0
 62
     0
100
AcDbLine
 10
154.8049488898739
 20
343.8467532028794
 30
0.0
 11
153.3194191107457
 21
345.3322829820075
 31
0.0
  0
LINE
  5
25BB
330
2581
100
AcDbEntity
  8
0
 62
     0
100
AcDbLine
 10
154.736051306066
 20
343.77422943045
 30
0.0
 11
153.2838184439295
 21
345.2264622925865
 31
0.0
  0
LINE
  5
25BC
330
2581
100
AcDbEntity
  8
0
 62
     0
100
AcDbLine
 10
154.667153722258
 20
343.7017056580207
 30
0.0
 11
153.2503653247581
 21
345.1184940555206
 31
0.0
  0
LINE
  5
25BD
330
2581
100
AcDbEntity
  8
0
 62
     0
100
AcDbLine
 10
154.5982561384501
 20
343.6291818855913
 30
0.0
 11
153.2191436316901
 21
345.0082943923512
 31
0.0
  0
LINE
  5
25BE
330
2581
100
AcDbEntity
  8
0
 62
     0
100
AcDbLine
 10
154.5293585546422
 20
343.5566581131619
 30
0.0
 11
153.1902471087243
 21
344.8957695590797
 31
0.0
  0
LINE
  5
25BF
330
2581
100
AcDbEntity
  8
0
 62
     0
100
AcDbLine
 10
154.4604609708343
 20
343.4841343407325
 30
0.0
 11
153.163780838326
 21
344.7808144732407
 31
0.0
  0
LINE
  5
25C0
330
2581
100
AcDbEntity
  8
0
 62
     0
100
AcDbLine
 10
154.3915633870263
 20
343.4116105683031
 30
0.0
 11
153.1398630279257
 21
344.6633109274038
 31
0.0
  0
LINE
  5
25C1
330
2581
100
AcDbEntity
  8
0
 62
     0
100
AcDbLine
 10
154.3226658032185
 20
343.3390867958737
 30
0.0
 11
153.1186271947302
 21
344.543125404362
 31
0.0
  0
LINE
  5
25C2
330
2581
100
AcDbEntity
  8
0
 62
     0
100
AcDbLine
 10
154.2537682194105
 20
343.2665630234443
 30
0.0
 11
153.1002248622563
 21
344.4201063805985
 31
0.0
  0
LINE
  5
25C3
330
2581
100
AcDbEntity
  8
0
 62
     0
100
AcDbLine
 10
154.1848706356026
 20
343.194039251015
 30
0.0
 11
153.0848289224799
 21
344.2940809641377
 31
0.0
  0
LINE
  5
25C4
330
2581
100
AcDbEntity
  8
0
 62
     0
100
AcDbLine
 10
154.1159730517947
 20
343.1215154785856
 30
0.0
 11
153.072637875649
 21
344.1648506547312
 31
0.0
  0
LINE
  5
25C5
330
2581
100
AcDbEntity
  8
0
 62
     0
100
AcDbLine
 10
154.0470754679868
 20
343.0489917061561
 30
0.0
 11
153.0638812449195
 21
344.0321859292234
 31
0.0
  0
LINE
  5
25C6
330
2581
100
AcDbEntity
  8
0
 62
     0
100
AcDbLine
 10
153.9781778841789
 20
342.9764679337268
 30
0.0
 11
153.0588265901738
 21
343.8958192277318
 31
0.0
  0
LINE
  5
25C7
330
2581
100
AcDbEntity
  8
0
 62
     0
100
AcDbLine
 10
153.9092803003709
 20
342.9039441612974
 30
0.0
 11
153.0577887399627
 21
343.7554357217055
 31
0.0
  0
LINE
  5
25C8
330
2581
100
AcDbEntity
  8
0
 62
     0
100
AcDbLine
 10
153.840382716563
 20
342.831420388868
 30
0.0
 11
153.0611421660788
 21
343.6106609393522
 31
0.0
  0
LINE
  5
25C9
330
2581
100
AcDbEntity
  8
0
 62
     0
100
AcDbLine
 10
153.7714851327551
 20
342.7588966164386
 30
0.0
 11
153.0693379196148
 21
343.4610438295789
 31
0.0
  0
LINE
  5
25CA
330
2581
100
AcDbEntity
  8
0
 62
     0
100
AcDbLine
 10
153.7025875489472
 20
342.6863728440092
 30
0.0
 11
153.0829273748252
 21
343.3060330181311
 31
0.0
  0
LINE
  5
25CB
330
2581
100
AcDbEntity
  8
0
 62
     0
100
AcDbLine
 10
153.6336899651392
 20
342.6138490715798
 30
0.0
 11
153.1025964677986
 21
343.1449425689204
 31
0.0
  0
LINE
  5
25CC
330
2581
100
AcDbEntity
  8
0
 62
     0
100
AcDbLine
 10
153.5647923813313
 20
342.5413252991504
 30
0.0
 11
153.1292167437951
 21
342.9769009366865
 31
0.0
  0
LINE
  5
25CD
330
2581
100
AcDbEntity
  8
0
 62
     0
100
AcDbLine
 10
153.4958947975234
 20
342.4688015267211
 30
0.0
 11
153.1639245868613
 21
342.8007717373831
 31
0.0
  0
LINE
  5
25CE
330
2581
100
AcDbEntity
  8
0
 62
     0
100
AcDbLine
 10
153.4269972137155
 20
342.3962777542917
 30
0.0
 11
153.2082504213028
 21
342.6150245467043
 31
0.0
  0
LINE
  5
25CF
330
2581
100
AcDbEntity
  8
0
 62
     0
100
AcDbLine
 10
153.3580996299076
 20
342.3237539818622
 30
0.0
 11
153.2643429603158
 21
342.4175106514539
 31
0.0
  0
LINE
  5
25D0
330
2581
100
AcDbEntity
  8
0
 62
     0
100
AcDbLine
 10
295.2532937690074
 20
345.2440286297674
 30
0.0
 11
295.0773908983314
 21
345.4199315004434
 31
0.0
  0
LINE
  5
25D1
330
2581
100
AcDbEntity
  8
0
 62
     0
100
AcDbLine
 10
295.3947151252446
 20
345.2440286297674
 30
0.0
 11
295.0131084636781
 21
345.6256352913339
 31
0.0
  0
LINE
  5
25D2
330
2581
100
AcDbEntity
  8
0
 62
     0
100
AcDbLine
 10
295.536136481482
 20
345.2440286297674
 30
0.0
 11
294.9488260290248
 21
345.8313390822246
 31
0.0
  0
LINE
  5
25D3
330
2581
100
AcDbEntity
  8
0
 62
     0
100
AcDbLine
 10
295.6775578377192
 20
345.2440286297674
 30
0.0
 11
294.8845435943715
 21
346.0370428731152
 31
0.0
  0
LINE
  5
25D4
330
2581
100
AcDbEntity
  8
0
 62
     0
100
AcDbLine
 10
295.8189791939566
 20
345.2440286297674
 30
0.0
 11
294.8202611597181
 21
346.2427466640058
 31
0.0
  0
LINE
  5
25D5
330
2581
100
AcDbEntity
  8
0
 62
     0
100
AcDbLine
 10
295.9604005501939
 20
345.2440286297674
 30
0.0
 11
294.7559787250648
 21
346.4484504548965
 31
0.0
  0
LINE
  5
25D6
330
2581
100
AcDbEntity
  8
0
 62
     0
100
AcDbLine
 10
298.9831357397668
 20
342.3627147964318
 30
0.0
 11
296.7125946861601
 21
344.6332558500385
 31
0.0
  0
LINE
  5
25D7
330
2581
100
AcDbEntity
  8
0
 62
     0
100
AcDbLine
 10
296.1018219064312
 20
345.2440286297674
 30
0.0
 11
294.6916962904115
 21
346.6541542457871
 31
0.0
  0
LINE
  5
25D8
330
2581
100
AcDbEntity
  8
0
 62
     0
100
AcDbLine
 10
299.0164469413224
 20
342.4708249511135
 30
0.0
 11
294.6274138557582
 21
346.8598580366777
 31
0.0
  0
LINE
  5
25D9
330
2581
100
AcDbEntity
  8
0
 62
     0
100
AcDbLine
 10
299.0475209570623
 20
342.5811722916109
 30
0.0
 11
294.5631314211049
 21
347.0655618275683
 31
0.0
  0
LINE
  5
25DA
330
2581
100
AcDbEntity
  8
0
 62
     0
100
AcDbLine
 10
299.0762633560711
 20
342.6938512488395
 30
0.0
 11
294.4988489864516
 21
347.271265618459
 31
0.0
  0
LINE
  5
25DB
330
2581
100
AcDbEntity
  8
0
 62
     0
100
AcDbLine
 10
299.1025682635213
 20
342.8089676976265
 30
0.0
 11
294.4345665517982
 21
347.4769694093496
 31
0.0
  0
LINE
  5
25DC
330
2581
100
AcDbEntity
  8
0
 62
     0
100
AcDbLine
 10
299.1263165511981
 20
342.926640766187
 30
0.0
 11
294.370284117145
 21
347.6826732002402
 31
0.0
  0
LINE
  5
25DD
330
2581
100
AcDbEntity
  8
0
 62
     0
100
AcDbLine
 10
299.1473736233364
 20
343.0470050502861
 30
0.0
 11
294.3060016824916
 21
347.8883769911309
 31
0.0
  0
LINE
  5
25DE
330
2581
100
AcDbEntity
  8
0
 62
     0
100
AcDbLine
 10
299.1655866821469
 20
343.1702133477128
 30
0.0
 11
294.2417192478383
 21
348.0940807820214
 31
0.0
  0
LINE
  5
25DF
330
2581
100
AcDbEntity
  8
0
 62
     0
100
AcDbLine
 10
299.1807813159832
 20
343.2964400701139
 30
0.0
 11
294.177436813185
 21
348.2997845729121
 31
0.0
  0
LINE
  5
25E0
330
2581
100
AcDbEntity
  8
0
 62
     0
100
AcDbLine
 10
299.1927571935295
 20
343.4258855488049
 30
0.0
 11
294.174141151122
 21
348.4445015912125
 31
0.0
  0
LINE
  5
25E1
330
2581
100
AcDbEntity
  8
0
 62
     0
100
AcDbLine
 10
299.2012825600932
 20
343.5587815384784
 30
0.0
 11
294.3070371407955
 21
348.4530269577762
 31
0.0
  0
LINE
  5
25E2
330
2581
100
AcDbEntity
  8
0
 62
     0
100
AcDbLine
 10
299.2060871014267
 20
343.6953983533823
 30
0.0
 11
294.4436539556993
 21
348.4578314991097
 31
0.0
  0
LINE
  5
25E3
330
2581
100
AcDbEntity
  8
0
 62
     0
100
AcDbLine
 10
299.2068525403165
 20
343.8360542707297
 30
0.0
 11
294.5843098730467
 21
348.4585969379995
 31
0.0
  0
LINE
  5
25E4
330
2581
100
AcDbEntity
  8
0
 62
     0
100
AcDbLine
 10
299.2032000162362
 20
343.9811281510475
 30
0.0
 11
294.7293837533645
 21
348.4549444139192
 31
0.0
  0
LINE
  5
25E5
330
2581
100
AcDbEntity
  8
0
 62
     0
100
AcDbLine
 10
299.1946727877878
 20
344.1310767357332
 30
0.0
 11
294.8793323380502
 21
348.4464171854708
 31
0.0
  0
LINE
  5
25E6
330
2581
100
AcDbEntity
  8
0
 62
     0
100
AcDbLine
 10
299.18071194101
 20
344.2864589387482
 30
0.0
 11
295.0347145410652
 21
348.432456338693
 31
0.0
  0
LINE
  5
25E7
330
2581
100
AcDbEntity
  8
0
 62
     0
100
AcDbLine
 10
299.160621290986
 20
344.4479709450096
 30
0.0
 11
295.1962265473266
 21
348.412365688669
 31
0.0
  0
LINE
  5
25E8
330
2581
100
AcDbEntity
  8
0
 62
     0
100
AcDbLine
 10
299.13351492823
 20
344.6164986640028
 30
0.0
 11
295.3647542663198
 21
348.385259325913
 31
0.0
  0
LINE
  5
25E9
330
2581
100
AcDbEntity
  8
0
 62
     0
100
AcDbLine
 10
299.0982355707146
 20
344.7931993777556
 30
0.0
 11
295.5414549800726
 21
348.3499799683976
 31
0.0
  0
LINE
  5
25EA
330
2581
100
AcDbEntity
  8
0
 62
     0
100
AcDbLine
 10
299.0532209387975
 20
344.9796353659101
 30
0.0
 11
295.7278909682271
 21
348.3049653364805
 31
0.0
  0
LINE
  5
25EB
330
2581
100
AcDbEntity
  8
0
 62
     0
100
AcDbLine
 10
298.9962707567377
 20
345.1780069042071
 30
0.0
 11
295.926262506524
 21
348.2480151544207
 31
0.0
  0
LINE
  5
25EC
330
2581
100
AcDbEntity
  8
0
 62
     0
100
AcDbLine
 10
298.9241053480049
 20
345.3915936691773
 30
0.0
 11
296.1398492714943
 21
348.1758497456878
 31
0.0
  0
LINE
  5
25ED
330
2581
100
AcDbEntity
  8
0
 62
     0
100
AcDbLine
 10
298.8314285160914
 20
345.625691857328
 30
0.0
 11
296.3739474596449
 21
348.0831729137744
 31
0.0
  0
LINE
  5
25EE
330
2581
100
AcDbEntity
  8
0
 62
     0
100
AcDbLine
 10
298.7085730940423
 20
345.8899686356145
 30
0.0
 11
296.6382242379315
 21
347.9603174917253
 31
0.0
  0
LINE
  5
25EF
330
2581
100
AcDbEntity
  8
0
 62
     0
100
AcDbLine
 10
298.5336464916175
 20
346.2063165942766
 30
0.0
 11
296.9545721965936
 21
347.7853908893004
 31
0.0
  0
LINE
  5
25F0
330
2581
100
AcDbEntity
  8
0
 62
     0
100
AcDbLine
 10
298.221208651621
 20
346.6601757905103
 30
0.0
 11
297.4084313928273
 21
347.472953049304
 31
0.0
  0
ENDBLK
  5
25F1
330
2581
100
AcDbEntity
  8
0
100
AcDbBlockEnd
  0
BLOCK
  5
28EB
330
28E1
100
AcDbEntity
  8
0
100
AcDbBlockBegin
  2
*D2
 70
     1
 10
0.0
 20
0.0
 30
0.0
  3
*D2
  1

  0
LINE
  5
28F9
330
28E1
100
AcDbEntity
  8
BEM
 62
     0
370
    -2
100
AcDbLine
 10
145.4999999999998
 20
286.7564800232082
 30
0.0
 11
145.4999999999998
 21
258.0175996902524
 31
0.0
  0
LINE
  5
28FA
330
28E1
100
AcDbEntity
  8
BEM
 62
     0
370
    -2
100
AcDbLine
 10
304.5
 20
286.7564800232083
 30
0.0
 11
304.5
 21
258.0175996902524
 31
0.0
  0
LINE
  5
28FB
330
28E1
100
AcDbEntity
  8
BEM
 62
     0
370
    -2
100
AcDbLine
 10
152.4999999999998
 20
260.0175996902524
 30
0.0
 11
297.5
 21
260.0175996902524
 31
0.0
  0
SOLID
  5
28FC
330
28E1
100
AcDbEntity
  8
BEM
 62
     0
100
AcDbTrace
 10
152.4999999999998
 20
261.1842663569191
 30
0.0
 11
152.4999999999998
 21
258.8509330235857
 31
0.0
 12
145.4999999999998
 22
260.0175996902524
 32
0.0
 13
145.4999999999998
 23
260.0175996902524
 33
0.0
  0
SOLID
  5
28FD
330
28E1
100
AcDbEntity
  8
BEM
 62
     0
100
AcDbTrace
 10
297.5
 20
261.1842663569191
 30
0.0
 11
297.5
 21
258.8509330235857
 31
0.0
 12
304.5
 22
260.0175996902524
 32
0.0
 13
304.5
 23
260.0175996902524
 33
0.0
  0
MTEXT
  5
28FE
330
28E1
100
AcDbEntity
  8
BEM
 62
     1
100
AcDbMText
 10
224.9999999999999
 20
266.5175996902524
 30
0.0
 40
7.0
 41
0.0
 71
     5
 72
     1
  1
\A1;%%c159
  7
GREEKS
 73
     1
 44
1.0
  0
POINT
  5
28FF
330
28E1
100
AcDbEntity
  8
DEFPOINTS
 62
     0
100
AcDbPoint
 10
145.4999999999998
 20
288.7564800232082
 30
0.0
  0
POINT
  5
2900
330
28E1
100
AcDbEntity
  8
DEFPOINTS
 62
     0
100
AcDbPoint
 10
304.5
 20
288.7564800232082
 30
0.0
  0
POINT
  5
2901
330
28E1
100
AcDbEntity
  8
DEFPOINTS
 62
     0
100
AcDbPoint
 10
304.5
 20
260.0175996902524
 30
0.0
  0
ENDBLK
  5
28EC
330
28E1
100
AcDbEntity
  8
0
100
AcDbBlockEnd
  0
BLOCK
  5
2959
330
294F
100
AcDbEntity
  8
0
100
AcDbBlockBegin
  2
*D4
 70
     1
 10
0.0
 20
0.0
 30
0.0
  3
*D4
  1

  0
LINE
  5
2975
330
294F
100
AcDbEntity
  8
BEM
 62
     0
370
    -2
100
AcDbLine
 10
154.9999999999999
 20
505.7564800232081
 30
0.0
 11
154.9999999999999
 21
517.0071340062503
 31
0.0
  0
LINE
  5
2976
330
294F
100
AcDbEntity
  8
BEM
 62
     0
370
    -2
100
AcDbLine
 10
294.9999999999999
 20
505.756480023208
 30
0.0
 11
294.9999999999999
 21
517.0071340062503
 31
0.0
  0
LINE
  5
2977
330
294F
100
AcDbEntity
  8
BEM
 62
     0
370
    -2
100
AcDbLine
 10
161.9999999999999
 20
515.0071340062503
 30
0.0
 11
287.9999999999999
 21
515.0071340062503
 31
0.0
  0
SOLID
  5
2978
330
294F
100
AcDbEntity
  8
BEM
 62
     0
100
AcDbTrace
 10
161.9999999999999
 20
516.1738006729169
 30
0.0
 11
161.9999999999999
 21
513.8404673395837
 31
0.0
 12
154.9999999999999
 22
515.0071340062503
 32
0.0
 13
154.9999999999999
 23
515.0071340062503
 33
0.0
  0
SOLID
  5
2979
330
294F
100
AcDbEntity
  8
BEM
 62
     0
100
AcDbTrace
 10
287.9999999999999
 20
516.1738006729169
 30
0.0
 11
287.9999999999999
 21
513.8404673395837
 31
0.0
 12
294.9999999999999
 22
515.0071340062503
 32
0.0
 13
294.9999999999999
 23
515.0071340062503
 33
0.0
  0
MTEXT
  5
297A
330
294F
100
AcDbEntity
  8
BEM
 62
     1
100
AcDbMText
 10
225.0
 20
521.5071340062503
 30
0.0
 40
7.0
 41
0.0
 71
     5
 72
     1
  1
\A1;%%c140
  7
GREEKS
 73
     1
 44
1.0
  0
POINT
  5
297B
330
294F
100
AcDbEntity
  8
DEFPOINTS
 62
     0
100
AcDbPoint
 10
154.9999999999999
 20
503.7564800232082
 30
0.0
  0
POINT
  5
297C
330
294F
100
AcDbEntity
  8
DEFPOINTS
 62
     0
100
AcDbPoint
 10
294.9999999999999
 20
503.756480023208
 30
0.0
  0
POINT
  5
297D
330
294F
100
AcDbEntity
  8
DEFPOINTS
 62
     0
100
AcDbPoint
 10
294.9999999999999
 20
515.0071340062503
 30
0.0
  0
ENDBLK
  5
295A
330
294F
100
AcDbEntity
  8
0
100
AcDbBlockEnd
  0
BLOCK
  5
2965
330
295B
100
AcDbEntity
  8
0
100
AcDbBlockBegin
  2
*D5
 70
     1
 10
0.0
 20
0.0
 30
0.0
  3
*D5
  1

  0
LINE
  5
2B89
330
295B
100
AcDbEntity
  8
BEM
 62
     0
370
    -2
100
AcDbLine
 10
140.8499999999999
 20
505.7564800232081
 30
0.0
 11
140.8499999999999
 21
532.4919418185301
 31
0.0
  0
LINE
  5
2B8A
330
295B
100
AcDbEntity
  8
BEM
 62
     0
370
    -2
100
AcDbLine
 10
309.15
 20
505.756480023208
 30
0.0
 11
309.15
 21
532.4919418185301
 31
0.0
  0
LINE
  5
2B8B
330
295B
100
AcDbEntity
  8
BEM
 62
     0
370
    -2
100
AcDbLine
 10
147.8499999999999
 20
530.4919418185301
 30
0.0
 11
302.15
 21
530.4919418185301
 31
0.0
  0
SOLID
  5
2B8C
330
295B
100
AcDbEntity
  8
BEM
 62
     0
100
AcDbTrace
 10
147.8499999999999
 20
531.6586084851967
 30
0.0
 11
147.8499999999999
 21
529.3252751518634
 31
0.0
 12
140.8499999999999
 22
530.4919418185301
 32
0.0
 13
140.8499999999999
 23
530.4919418185301
 33
0.0
  0
SOLID
  5
2B8D
330
295B
100
AcDbEntity
  8
BEM
 62
     0
100
AcDbTrace
 10
302.15
 20
531.6586084851967
 30
0.0
 11
302.15
 21
529.3252751518634
 31
0.0
 12
309.15
 22
530.4919418185301
 32
0.0
 13
309.15
 23
530.4919418185301
 33
0.0
  0
MTEXT
  5
2B8E
330
295B
100
AcDbEntity
  8
BEM
 62
     1
100
AcDbMText
 10
225.0
 20
536.99194181853
 30
0.0
 40
7.0
 41
0.0
 71
     5
 72
     1
  1
\A1;%%c168.3
  7
GREEKS
 73
     1
 44
1.0
  0
POINT
  5
2B8F
330
295B
100
AcDbEntity
  8
DEFPOINTS
 62
     0
100
AcDbPoint
 10
140.8499999999999
 20
503.7564800232082
 30
0.0
  0
POINT
  5
2B90
330
295B
100
AcDbEntity
  8
DEFPOINTS
 62
     0
100
AcDbPoint
 10
309.15
 20
503.756480023208
 30
0.0
  0
POINT
  5
2B91
330
295B
100
AcDbEntity
  8
DEFPOINTS
 62
     0
100
AcDbPoint
 10
309.15
 20
530.4919418185301
 30
0.0
  0
ENDBLK
  5
2966
330
295B
100
AcDbEntity
  8
0
100
AcDbBlockEnd
  0
BLOCK
  5
2AAF
330
2AA5
100
AcDbEntity
  8
0
100
AcDbBlockBegin
  2
*D7
 70
     1
 10
0.0
 20
0.0
 30
0.0
  3
*D7
  1

  0
LINE
  5
2B33
330
2AA5
100
AcDbEntity
  8
BEM
 62
     0
370
    -2
100
AcDbLine
 10
115.4999999999999
 20
339.7564800232081
 30
0.0
 11
115.4999999999999
 21
240.4688524079929
 31
0.0
  0
LINE
  5
2B34
330
2AA5
100
AcDbEntity
  8
BEM
 62
     0
370
    -2
100
AcDbLine
 10
334.4999999999999
 20
339.7564800232083
 30
0.0
 11
334.4999999999999
 21
240.4688524079929
 31
0.0
  0
LINE
  5
2B35
330
2AA5
100
AcDbEntity
  8
BEM
 62
     0
370
    -2
100
AcDbLine
 10
122.4999999999999
 20
242.4688524079929
 30
0.0
 11
327.4999999999999
 21
242.4688524079929
 31
0.0
  0
SOLID
  5
2B36
330
2AA5
100
AcDbEntity
  8
BEM
 62
     0
100
AcDbTrace
 10
122.4999999999999
 20
243.6355190746596
 30
0.0
 11
122.4999999999999
 21
241.3021857413263
 31
0.0
 12
115.4999999999999
 22
242.4688524079929
 32
0.0
 13
115.4999999999999
 23
242.4688524079929
 33
0.0
  0
SOLID
  5
2B37
330
2AA5
100
AcDbEntity
  8
BEM
 62
     0
100
AcDbTrace
 10
327.4999999999999
 20
243.6355190746596
 30
0.0
 11
327.4999999999999
 21
241.3021857413263
 31
0.0
 12
334.4999999999999
 22
242.4688524079929
 32
0.0
 13
334.4999999999999
 23
242.4688524079929
 33
0.0
  0
MTEXT
  5
2B38
330
2AA5
100
AcDbEntity
  8
BEM
 62
     1
100
AcDbMText
 10
224.9999999999999
 20
248.9688524079929
 30
0.0
 40
7.0
 41
0.0
 71
     5
 72
     1
  1
\A1;%%c219
 73
     1
 44
1.0
  0
POINT
  5
2B39
330
2AA5
100
AcDbEntity
  8
DEFPOINTS
 62
     0
100
AcDbPoint
 10
115.4999999999999
 20
341.7564800232081
 30
0.0
  0
POINT
  5
2B3A
330
2AA5
100
AcDbEntity
  8
DEFPOINTS
 62
     0
100
AcDbPoint
 10
334.4999999999999
 20
341.7564800232083
 30
0.0
  0
POINT
  5
2B3B
330
2AA5
100
AcDbEntity
  8
DEFPOINTS
 62
     0
100
AcDbPoint
 10
334.4999999999999
 20
242.4688524079929
 30
0.0
  0
ENDBLK
  5
2AB0
330
2AA5
100
AcDbEntity
  8
0
100
AcDbBlockEnd
  0
BLOCK
  5
2AE5
330
2ADB
100
AcDbEntity
  8
0
100
AcDbBlockBegin
  2
*D11
 70
     1
 10
0.0
 20
0.0
 30
0.0
  3
*D11
  1

  0
LINE
  5
2ADC
330
2ADB
100
AcDbEntity
  8
BEM
 62
     0
370
    -2
100
AcDbLine
 10
113.4999999999999
 20
343.7564800232081
 30
0.0
 11
93.7065544102038
 21
343.7564800232081
 31
0.0
  0
LINE
  5
2ADD
330
2ADB
100
AcDbEntity
  8
BEM
 62
     0
370
    -2
100
AcDbLine
 10
144.3653370413999
 20
278.7564800232082
 30
0.0
 11
93.70655441020378
 21
278.7564800232082
 31
0.0
  0
LINE
  5
2ADE
330
2ADB
100
AcDbEntity
  8
BEM
 62
     0
370
    -2
100
AcDbLine
 10
95.70655441020379
 20
336.7564800232082
 30
0.0
 11
95.70655441020377
 21
285.7564800232082
 31
0.0
  0
SOLID
  5
2ADF
330
2ADB
100
AcDbEntity
  8
BEM
 62
     0
100
AcDbTrace
 10
94.53988774353712
 20
336.7564800232082
 30
0.0
 11
96.87322107687046
 21
336.7564800232082
 31
0.0
 12
95.70655441020379
 22
343.7564800232081
 32
0.0
 13
95.70655441020379
 23
343.7564800232081
 33
0.0
  0
SOLID
  5
2AE0
330
2ADB
100
AcDbEntity
  8
BEM
 62
     0
100
AcDbTrace
 10
94.5398877435371
 20
285.7564800232082
 30
0.0
 11
96.87322107687045
 21
285.7564800232082
 31
0.0
 12
95.70655441020377
 22
278.7564800232082
 32
0.0
 13
95.70655441020377
 23
278.7564800232082
 33
0.0
  0
MTEXT
  5
2AE1
330
2ADB
100
AcDbEntity
  8
BEM
 62
     1
100
AcDbMText
 10
89.20655441020373
 20
311.2564800232082
 30
0.0
 40
7.0
 41
0.0
 71
     5
 72
     1
  1
\A1;65
 11
0.0000000000000001
 21
1.0
 31
0.0
 73
     1
 44
1.0
  0
POINT
  5
2AE2
330
2ADB
100
AcDbEntity
  8
DEFPOINTS
 62
     0
100
AcDbPoint
 10
115.4999999999999
 20
343.7564800232081
 30
0.0
  0
POINT
  5
2AE3
330
2ADB
100
AcDbEntity
  8
DEFPOINTS
 62
     0
100
AcDbPoint
 10
146.3653370413999
 20
278.7564800232082
 30
0.0
  0
POINT
  5
2AE4
330
2ADB
100
AcDbEntity
  8
DEFPOINTS
 62
     0
100
AcDbPoint
 10
95.70655441020377
 20
278.7564800232082
 30
0.0
  0
ENDBLK
  5
2AE6
330
2ADB
100
AcDbEntity
  8
0
100
AcDbBlockEnd
  0
BLOCK
  5
2AF2
330
2AE8
100
AcDbEntity
  8
0
100
AcDbBlockBegin
  2
*D12
 70
     1
 10
0.0
 20
0.0
 30
0.0
  3
*D12
  1

  0
LINE
  5
2AE9
330
2AE8
100
AcDbEntity
  8
BEM
 62
     0
370
    -2
100
AcDbLine
 10
138.8499999999999
 20
503.7564800232082
 30
0.0
 11
79.60943719700305
 21
503.7564800232082
 31
0.0
  0
LINE
  5
2AEA
330
2AE8
100
AcDbEntity
  8
BEM
 62
     0
370
    -2
100
AcDbLine
 10
144.3653370413999
 20
278.7564800232082
 30
0.0
 11
79.60943719700299
 21
278.7564800232082
 31
0.0
  0
LINE
  5
2AEB
330
2AE8
100
AcDbEntity
  8
BEM
 62
     0
370
    -2
100
AcDbLine
 10
81.60943719700304
 20
496.7564800232083
 30
0.0
 11
81.60943719700298
 21
285.7564800232082
 31
0.0
  0
SOLID
  5
2AEC
330
2AE8
100
AcDbEntity
  8
BEM
 62
     0
100
AcDbTrace
 10
80.44277053033637
 20
496.7564800232083
 30
0.0
 11
82.77610386366971
 21
496.7564800232083
 31
0.0
 12
81.60943719700304
 22
503.7564800232082
 32
0.0
 13
81.60943719700304
 23
503.7564800232082
 33
0.0
  0
SOLID
  5
2AED
330
2AE8
100
AcDbEntity
  8
BEM
 62
     0
100
AcDbTrace
 10
80.44277053033631
 20
285.7564800232082
 30
0.0
 11
82.77610386366966
 21
285.7564800232082
 31
0.0
 12
81.60943719700298
 22
278.7564800232082
 32
0.0
 13
81.60943719700298
 23
278.7564800232082
 33
0.0
  0
MTEXT
  5
2AEE
330
2AE8
100
AcDbEntity
  8
BEM
 62
     1
100
AcDbMText
 10
75.10943719700296
 20
391.2564800232083
 30
0.0
 40
7.0
 41
0.0
 71
     5
 72
     1
  1
\A1;225
 11
0.0000000000000001
 21
1.0
 31
0.0
 73
     1
 44
1.0
  0
POINT
  5
2AEF
330
2AE8
100
AcDbEntity
  8
DEFPOINTS
 62
     0
100
AcDbPoint
 10
140.8499999999999
 20
503.7564800232082
 30
0.0
  0
POINT
  5
2AF0
330
2AE8
100
AcDbEntity
  8
DEFPOINTS
 62
     0
100
AcDbPoint
 10
146.3653370413999
 20
278.7564800232082
 30
0.0
  0
POINT
  5
2AF1
330
2AE8
100
AcDbEntity
  8
DEFPOINTS
 62
     0
100
AcDbPoint
 10
81.60943719700298
 20
278.7564800232082
 30
0.0
  0
ENDBLK
  5
2AF3
330
2AE8
100
AcDbEntity
  8
0
100
AcDbBlockEnd
  0
ENDSEC
  0
SECTION
  2
ENTITIES
  0
LINE
  5
57
330
1E
100
AcDbEntity
  8
STEMPEL
100
AcDbLine
 10
410.0
 20
110.0
 30
0.0
 11
39.99999999999997
 21
110.0
 31
0.0
  0
LINE
  5
58
330
1E
100
AcDbEntity
  8
STEMPEL
100
AcDbLine
 10
136.0000000000001
 20
109.9999999999999
 30
0.0
 11
136.0
 21
9.999999999999971
 31
0.0
  0
LINE
  5
59
330
1E
100
AcDbEntity
  8
STEMPEL
100
AcDbLine
 10
220.0
 20
110.0
 30
0.0
 11
220.0
 21
9.999999999999971
 31
0.0
  0
LINE
  5
5A
330
1E
100
AcDbEntity
  8
STEMPEL
100
AcDbLine
 10
332.0
 20
109.9999999999997
 30
0.0
 11
332.0
 21
40.0
 31
0.0
  0
LINE
  5
5B
330
1E
100
AcDbEntity
  8
STEMPEL
100
AcDbLine
 10
135.9999999999999
 20
29.99999999999997
 30
0.0
 11
39.99999999999997
 21
29.99999999999997
 31
0.0
  0
LINE
  5
5C
330
1E
100
AcDbEntity
  8
STEMPEL
100
AcDbLine
 10
410.0
 20
40.0
 30
0.0
 11
136.0000000000001
 21
39.99999999999997
 31
0.0
  0
LINE
  5
5D
330
1E
100
AcDbEntity
  8
STEMPEL
100
AcDbLine
 10
410.0
 20
80.0
 30
0.0
 11
136.0000000000001
 21
79.99999999999994
 31
0.0
  0
LINE
  5
5E
330
1E
100
AcDbEntity
  8
VOLL
100
AcDbLine
 10
54.00000000000009
 20
110.0
 30
0.0
 11
53.99999999999997
 21
9.999999999999971
 31
0.0
  0
LINE
  5
5F
330
1E
100
AcDbEntity
  8
VOLL
100
AcDbLine
 10
94.00000000000011
 20
109.9999999999999
 30
0.0
 11
94.0
 21
9.999999999999971
 31
0.0
  0
LINE
  5
60
330
1E
100
AcDbEntity
  8
VOLL
100
AcDbLine
 10
114.0000000000001
 20
109.9999999999999
 30
0.0
 11
114.0
 21
9.999999999999971
 31
0.0
  0
LINE
  5
61
330
1E
100
AcDbEntity
  8
VOLL
100
AcDbLine
 10
154.0000000000001
 20
79.99999999999994
 30
0.0
 11
154.0000000000001
 21
39.99999999999997
 31
0.0
  0
LINE
  5
62
330
1E
100
AcDbEntity
  8
VOLL
100
AcDbLine
 10
180.0000000000001
 20
109.9999999999998
 30
0.0
 11
180.0
 21
39.99999999999997
 31
0.0
  0
LINE
  5
63
330
1E
100
AcDbEntity
  8
HILF
100
AcDbLine
 10
40.00000000000008
 20
100.0
 30
0.0
 11
136.0000000000001
 21
100.0
 31
0.0
  0
LINE
  5
64
330
1E
100
AcDbEntity
  8
HILF
100
AcDbLine
 10
40.00000000000008
 20
90.00000000000005
 30
0.0
 11
136.0000000000001
 21
90.00000000000005
 31
0.0
  0
LINE
  5
65
330
1E
100
AcDbEntity
  8
HILF
100
AcDbLine
 10
40.00000000000008
 20
79.99999999999994
 30
0.0
 11
136.0000000000001
 21
79.99999999999994
 31
0.0
  0
LINE
  5
66
330
1E
100
AcDbEntity
  8
HILF
100
AcDbLine
 10
40.00000000000008
 20
69.99999999999994
 30
0.0
 11
136.0000000000001
 21
69.99999999999994
 31
0.0
  0
LINE
  5
67
330
1E
100
AcDbEntity
  8
HILF
100
AcDbLine
 10
40.00000000000008
 20
59.99999999999997
 30
0.0
 11
136.0000000000001
 21
59.99999999999997
 31
0.0
  0
LINE
  5
68
330
1E
100
AcDbEntity
  8
HILF
100
AcDbLine
 10
40.00000000000008
 20
49.99999999999997
 30
0.0
 11
136.0000000000001
 21
49.99999999999997
 31
0.0
  0
LINE
  5
69
330
1E
100
AcDbEntity
  8
HILF
100
AcDbLine
 10
40.00000000000008
 20
39.99999999999997
 30
0.0
 11
136.0000000000001
 21
39.99999999999997
 31
0.0
  0
LINE
  5
6A
330
1E
100
AcDbEntity
  8
HILF
100
AcDbLine
 10
136.0000000000001
 20
69.99999999999994
 30
0.0
 11
220.0
 21
69.99999999999994
 31
0.0
  0
LINE
  5
6B
330
1E
100
AcDbEntity
  8
HILF
100
AcDbLine
 10
136.0000000000001
 20
59.99999999999997
 30
0.0
 11
220.0
 21
59.99999999999997
 31
0.0
  0
LINE
  5
6C
330
1E
100
AcDbEntity
  8
HILF
100
AcDbLine
 10
136.0000000000001
 20
49.99999999999997
 30
0.0
 11
220.0
 21
49.99999999999997
 31
0.0
  0
LINE
  5
6D
330
1E
100
AcDbEntity
  8
HILF
100
AcDbLine
 10
224.7736801096948
 20
84.03758247564139
 30
0.0
 11
324.8353916556311
 21
84.03758247564139
 31
0.0
  0
LINE
  5
6E
330
1E
100
AcDbEntity
  8
HILF
100
AcDbLine
 10
224.7736801096948
 20
69.99999999999994
 30
0.0
 11
324.835391655631
 21
69.99999999999994
 31
0.0
  0
LINE
  5
6F
330
1E
100
AcDbEntity
  8
HILF
100
AcDbLine
 10
224.7736801096948
 20
59.99999999999997
 30
0.0
 11
324.835391655631
 21
59.99999999999997
 31
0.0
  0
LINE
  5
70
330
1E
100
AcDbEntity
  8
HILF
100
AcDbLine
 10
224.7736801096948
 20
49.99999999999997
 30
0.0
 11
324.835391655631
 21
49.99999999999997
 31
0.0
  0
LINE
  5
71
330
1E
100
AcDbEntity
  8
VOLL
100
AcDbLine
 10
332.0
 20
60.0
 30
0.0
 11
410.0
 21
60.0
 31
0.0
  0
LINE
  5
72
330
1E
100
AcDbEntity
  8
HILF
100
AcDbLine
 10
336.7238616296993
 20
83.77983636955827
 30
0.0
 11
404.8588839326728
 21
83.77983636955827
 31
0.0
  0
LINE
  5
73
330
1E
100
AcDbEntity
  8
HILF
100
AcDbLine
 10
223.4909699289885
 20
14.89398258028314
 30
0.0
 11
404.8588839326728
 21
14.89398258028314
 31
0.0
  0
TEXT
  5
74
330
1E
100
AcDbEntity
  8
TEXT
100
AcDbText
 10
63.86165979631819
 20
18.67381894984132
 30
0.0
 40
4.0
  1
Änderung
 41
0.8
  7
GREEKS
 72
     1
 11
74.60451693917534
 21
18.67381894984132
 31
0.0
100
AcDbText
  0
TEXT
  5
75
330
1E
100
AcDbEntity
  8
TEXT
100
AcDbText
 10
143.5163572150377
 20
102.4620895087088
 30
0.0
 40
5.0
  1
Maßstab
 41
0.8
  7
GREEKS
100
AcDbText
  0
TEXT
  5
76
330
1E
100
AcDbEntity
  8
TEXT
100
AcDbText
 10
184.2858954734051
 20
102.4184168434819
 30
0.0
 40
5.0
  1
Zul. Abw.
 41
0.8
  7
GREEKS
100
AcDbText
  0
TEXT
  5
77
330
1E
100
AcDbEntity
  8
TEXT
100
AcDbText
 10
224.877940380901
 20
102.5489328011779
 30
0.0
 40
5.0
  1
Benennung
 41
0.8
  7
GREEKS
100
AcDbText
  0
TEXT
  5
78
330
1E
100
AcDbEntity
  8
TEXT
100
AcDbText
 10
336.178754957634
 20
102.3132034537136
 30
0.0
 40
5.0
  1
Zeichnungs Nr.
 41
0.8
  7
GREEKS
100
AcDbText
  0
TEXT
  5
79
330
1E
100
AcDbEntity
  8
TEXT
100
AcDbText
 10
224.742238391136
 20
30.84560570193057
 30
0.0
 40
5.0
  1
Bauvorhaben
 41
0.8
  7
GREEKS
100
AcDbText
  0
TEXT
  5
7A
330
1E
100
AcDbEntity
  8
TEXT
100
AcDbText
 10
336.7238616296993
 20
73.1811823709997
 30
0.0
 40
5.0
  1
Ersatz für:
 41
0.8
  7
GREEKS
100
AcDbText
  0
TEXT
  5
7B
330
1E
100
AcDbEntity
  8
TEXT
100
AcDbText
 10
48.26641107045756
 20
13.65465846027192
 30
0.0
 40
4.0
  1
Index
 50
90.0
 41
0.8
  7
GREEKS
100
AcDbText
  0
TEXT
  5
7C
330
1E
100
AcDbEntity
  8
TEXT
100
AcDbText
 10
100.0934676075481
 20
18.6715626933981
 30
0.0
 40
4.0
  1
Tag
 41
0.8
  7
GREEKS
 72
     1
 11
103.8268009408814
 21
18.6715626933981
 31
0.0
100
AcDbText
  0
TEXT
  5
7D
330
1E
100
AcDbEntity
  8
TEXT
100
AcDbText
 10
119.0122744386592
 20
18.59324216966408
 30
0.0
 40
4.0
  1
Name
 41
0.8
  7
GREEKS
 72
     1
 11
125.3360839624688
 21
18.59324216966408
 31
0.0
100
AcDbText
  0
TEXT
  5
7E
330
1E
100
AcDbEntity
  8
TEXT
100
AcDbText
 10
162.3311673153651
 20
73.31880501229926
 30
0.0
 40
4.0
  1
Tag
 41
0.8
  7
GREEKS
100
AcDbText
  0
TEXT
  5
7F
330
1E
100
AcDbEntity
  8
TEXT
100
AcDbText
 10
192.4626584226295
 20
73.30961091915225
 30
0.0
 40
4.0
  1
Name
 41
0.8
  7
GREEKS
100
AcDbText
  0
TEXT
  5
80
330
1E
100
AcDbEntity
  8
TEXT
100
AcDbText
 10
137.5836127167615
 20
63.62990369617964
 30
0.0
 40
4.0
  1
Gez.
 41
0.8
  7
GREEKS
100
AcDbText
  0
TEXT
  5
81
330
1E
100
AcDbEntity
  8
TEXT
100
AcDbText
 10
137.5515086571672
 20
53.68926291428377
 30
0.0
 40
4.0
  1
Gepr.
 41
0.8
  7
GREEKS
100
AcDbText
  0
TEXT
  5
82
330
1E
100
AcDbEntity
  8
TEXT
100
AcDbText
 10
137.6006777387304
 20
43.52946389649807
 30
0.0
 40
4.0
  1
Norm.
 41
0.8
  7
GREEKS
100
AcDbText
  0
LINE
  5
83
330
1E
100
AcDbEntity
  8
STEMPEL
100
AcDbLine
 10
49.99999999999989
 20
10.0
 30
0.0
 11
410.0
 21
10.0
 31
0.0
  0
TEXT
  5
84
330
1E
100
AcDbEntity
  8
TEXT
100
AcDbText
 10
337.2400861497006
 20
52.07416177878602
 30
0.0
 40
5.0
  1
ersetzt durch:
 41
0.8
  7
GREEKS
100
AcDbText
  0
LINE
  5
85
330
1E
100
AcDbEntity
  8
STEMPEL
100
AcDbLine
 10
410.0
 20
10.0
 30
0.0
 11
39.99999999999989
 21
10.0
 31
0.0
  0
LINE
  5
86
330
1E
100
AcDbEntity
  8
STEMPEL
100
AcDbLine
 10
410.0
 20
10.0
 30
0.0
 11
410.0
 21
584.0
 31
0.0
  0
LINE
  5
87
330
1E
100
AcDbEntity
  8
STEMPEL
100
AcDbLine
 10
40.0
 20
10.0
 30
0.0
 11
39.99999999999989
 21
584.0
 31
0.0
  0
LINE
  5
88
330
1E
100
AcDbEntity
  8
STEMPEL
100
AcDbLine
 10
410.0
 20
584.0
 30
0.0
 11
39.99999999999989
 21
584.0
 31
0.0
  0
LINE
  5
89
330
1E
100
AcDbEntity
  8
HILF
100
AcDbLine
 10
0.0
 20
0.0
 30
0.0
 11
-0.0000000000001137
 21
594.0
 31
0.0
  0
LINE
  5
8A
330
1E
100
AcDbEntity
  8
HILF
100
AcDbLine
 10
419.9999999999999
 20
594.0000000000002
 30
0.0
 11
0.0
 21
594.0
 31
0.0
  0
LINE
  5
8B
330
1E
100
AcDbEntity
  8
HILF
100
AcDbLine
 10
420.0
 20
0.0
 30
0.0
 11
0.0
 21
0.0
 31
0.0
  0
LINE
  5
8C
330
1E
100
AcDbEntity
  8
HILF
100
AcDbLine
 10
31.08767135713856
 20
297.0
 30
0.0
 11
0.0000000000001137
 21
297.0
 31
0.0
  0
TEXT
  5
8D
330
1E
100
AcDbEntity
  8
TEXT
100
AcDbText
 10
138.622109822104
 20
73.14025471151666
 30
0.0
 40
4.0
  1
2012
 41
0.8
  7
GREEKS
100
AcDbText
  0
LINE
  5
8E
330
1E
100
AcDbEntity
  8
HILF
100
AcDbLine
 10
420.0
 20
-0.0000000000001137
 30
0.0
 11
419.9999999999999
 21
594.0
 31
0.0
  0
TEXT
  5
8F
330
1E
100
AcDbEntity
  8
VOLL
100
AcDbText
 10
78.07675471698113
 20
31.02594776470585
 30
0.0
 40
1.8
  1

  7
GREEKS
100
AcDbText
  0
TEXT
  5
90
330
1E
100
AcDbEntity
  8
TEXT
100
AcDbText
 10
41.85509950977674
 20
111.6719999999999
 30
0.0
 40
5.0
  1
Erstellt mit AUTOCAD 2004
 41
0.8
  7
GREEKS
100
AcDbText
  0
TEXT
  5
91
330
1E
100
AcDbEntity
  8
TEXT
100
AcDbText
 10
194.4216048581257
 20
63.0896391972351
 30
0.0
 40
4.0
  1
Koeh
 41
0.8
  7
GREEKS
 72
     1
 11
199.6787477152685
 21
63.0896391972351
 31
0.0
100
AcDbText
  0
TEXT
  5
92
330
1E
100
AcDbEntity
  8
TEXT
 62
     1
100
AcDbText
 10
347.5516896065724
 20
88.14901428913959
 30
0.0
 40
7.0
  1
58060EF0W
 41
0.8
  7
GREEKS
 72
     1
 11
371.1516896065724
 21
88.14901428913959
 31
0.0
100
AcDbText
  0
TEXT
  5
93
330
1E
100
AcDbEntity
  8
TEXT
 62
     1
100
AcDbText
 10
150.5006306481887
 20
88.14901428913959
 30
0.0
 40
7.0
  1
1:2
 41
0.8
  7
GREEKS
100
AcDbText
  0
TEXT
  5
94
330
1E
100
AcDbEntity
  8
TEXT
100
AcDbText
 10
160.398997108236
 20
63.10765040825732
 30
0.0
 40
4.0
  1
27.09.
 41
0.8
  7
GREEKS
 72
     1
 11
167.4085209177598
 21
63.10765040825732
 31
0.0
100
AcDbText
  0
TEXT
  5
95
330
1E
100
AcDbEntity
  8
TEXT
 62
     1
100
AcDbText
 10
224.2909241008022
 20
87.41748789253779
 30
0.0
 40
7.0
  1
Verbundrohr DN125/150
 41
0.8
  7
GREEKS
100
AcDbText
  0
TEXT
  5
96
330
1E
100
AcDbEntity
  8
TEXT
100
AcDbText
 10
225.1296391125315
 20
71.50334417585288
 30
0.0
 40
5.0
  1
Übergangsrohr konzentrisch
 41
0.8
  7
GREEKS
100
AcDbText
  0
TEXT
  5
98
330
1E
100
AcDbEntity
  8
TEXT
100
AcDbText
 10
225.1296391125315
 20
51.64011943042158
 30
0.0
 40
5.0
  1
EDV-Art.Nr. 58060.EF0X
 41
0.8
  7
GREEKS
100
AcDbText
  0
TEXT
  5
99
330
1E
100
AcDbEntity
  8
TEXT
100
AcDbText
 10
224.9837501577827
 20
42.62974153022632
 30
0.0
 40
4.0
  1
58060EF0X.DWG
 41
0.8
  7
GREEKS
100
AcDbText
  0
TEXT
  5
9A
330
1E
100
AcDbEntity
  8
TEXT
100
AcDbText
 10
182.626132208084
 20
90.76363841023022
 30
0.0
 40
4.0
  1
DIN EN1123-2
 41
0.8
  7
GREEKS
 72
     1
 11
199.6166083985602
 21
90.76363841023022
 31
0.0
100
AcDbText
  0
INSERT
  5
9B
330
1E
100
AcDbEntity
  8
STEMPEL
100
AcDbBlockReference
  2
LOGO
 10
140.9955485457794
 20
45.02105276448322
 30
0.0
 41
2.0
 42
2.0
 43
2.0
  0
TEXT
  5
118
330
1E
100
AcDbEntity
  8
TEXT
100
AcDbText
 10
417.3022923857165
 20
10.16790107998849
 30
0.0
 40
4.0
  1
Diese Zeichnung ist urheberrechtlich geschützt und bleibt unser Eigentum. Sie darf weder ganz noch teilweise verfielfältigt und nicht an Dritte weitergegeben werden.
 50
90.0
 41
0.8
  7
GREEKS
100
AcDbText
  0
TEXT
  5
2B5
330
1E
100
AcDbEntity
  8
TEXT
 62
     1
100
AcDbText
 10
265.4438845027806
 20
200.3535999333948
 30
0.0
 40
7.0
  1
Rohrende leicht eingezogen
 41
0.8
  7
GREEKS
100
AcDbText
  0
TEXT
  5
3C2
330
1E
100
AcDbEntity
  8
TEXT
 62
     1
100
AcDbText
 10
371.1516896065724
 20
62.21640786355101
 30
0.0
 40
7.0
  1

 41
0.8
  7
GREEKS
 72
     1
 11
371.1516896065724
 21
62.21640786355101
 31
0.0
100
AcDbText
  0
TEXT
  5
1C24
330
1E
100
AcDbEntity
  8
TEXT
 62
     1
100
AcDbText
 10
245.030129115258
 20
129.7422179729062
 30
0.0
 40
7.0
  1
und innenbeschichtet
 41
0.8
  7
GREEKS
100
AcDbText
  0
TEXT
  5
1C25
330
1E
100
AcDbEntity
  8
TEXT
 62
     1
100
AcDbText
 10
193.7736704325036
 20
117.1473825875242
 30
0.0
 40
7.0
  1
Dämmung: 2 K-PU-Schaum
 41
0.8
  7
GREEKS
100
AcDbText
  0
TEXT
  5
1C26
330
1E
100
AcDbEntity
  8
TEXT
 62
     1
100
AcDbText
 10
197.3756002392442
 20
141.011271812132
 30
0.0
 40
7.0
  1
Innenrohr: E195 EN10305 feuerverzinkt
 41
0.8
  7
GREEKS
100
AcDbText
  0
TEXT
  5
1C27
330
1E
100
AcDbEntity
  8
TEXT
 62
     1
100
AcDbText
 10
193.6033828683802
 20
152.364339848487
 30
0.0
 40
7.0
  1
Außenrohr: P235 TR1 EN10217-1 feuerverzinkt
 41
0.8
  7
GREEKS
100
AcDbText
  0
LINE
  5
26F1
102
{ACAD_REACTORS
330
29CF
330
2A19
102
}
330
1E
100
AcDbEntity
  8
STEMPEL
100
AcDbLine
 10
294.9999999999999
 20
408.7564800232081
 30
0.0
 11
154.9999999999999
 21
408.7564800232083
 31
0.0
  0
LINE
  5
26F9
102
{ACAD_REACTORS
330
2A19
330
2A8F
102
}
330
1E
100
AcDbEntity
  8
STEMPEL
100
AcDbLine
 10
293.9999999999999
 20
408.7564800232081
 30
0.0
 11
291.9552002196497
 21
415.2998393203291
 31
0.0
  0
LINE
  5
26FA
330
1E
100
AcDbEntity
  8
HILF
100
AcDbLine
 10
286.5778355918873
 20
416.7564800232081
 30
0.0
 11
163.4221644081125
 21
416.7564800232082
 31
0.0
  0
LINE
  5
26FB
102
{ACAD_REACTORS
330
2A19
330
2A8F
102
}
330
1E
100
AcDbEntity
  8
STEMPEL
100
AcDbLine
 10
158.0447997803501
 20
415.2998393203293
 30
0.0
 11
155.9999999999999
 21
408.7564800232083
 31
0.0
  0
ARC
  5
26FC
102
{ACAD_REACTORS
330
2A19
330
2A8F
102
}
330
1E
100
AcDbEntity
  8
STEMPEL
100
AcDbCircle
 10
148.4999999999998
 20
418.2825892516887
 30
0.0
 40
10.0
100
AcDbArc
 50
342.6459753637398
 51
0.0
  0
ARC
  5
26FD
102
{ACAD_REACTORS
330
2A19
330
2A8F
102
}
330
1E
100
AcDbEntity
  8
STEMPEL
100
AcDbCircle
 10
301.5000000000001
 20
418.2825892516885
 30
0.0
 40
10.0
100
AcDbArc
 50
180.0
 51
197.3540246362601
  0
LINE
  5
26FE
102
{ACAD_REACTORS
330
29CF
330
2A8F
102
}
330
1E
100
AcDbEntity
  8
STEMPEL
100
AcDbLine
 10
299.5499898046992
 20
403.9670170708931
 30
0.0
 11
294.9999999999999
 21
408.7564800232081
 31
0.0
  0
LINE
  5
26FF
102
{ACAD_REACTORS
330
29CF
330
2A8F
102
}
330
1E
100
AcDbEntity
  8
STEMPEL
100
AcDbLine
 10
154.9999999999999
 20
408.7564800232083
 30
0.0
 11
150.4500101953003
 21
403.9670170708929
 31
0.0
  0
ARC
  5
2700
102
{ACAD_REACTORS
330
29CF
330
2A8F
102
}
330
1E
100
AcDbEntity
  8
STEMPEL
100
AcDbCircle
 10
286.4999999999999
 20
391.5695267564285
 30
0.0
 40
18.0
100
AcDbArc
 50
0.0
 51
43.53119928561524
  0
ARC
  5
2701
102
{ACAD_REACTORS
330
29CF
330
2A8F
102
}
330
1E
100
AcDbEntity
  8
STEMPEL
100
AcDbCircle
 10
163.4999999999999
 20
391.5695267564286
 30
0.0
 40
18.0
100
AcDbArc
 50
136.4688007143847
 51
180.0
  0
LINE
  5
2708
330
1E
100
AcDbEntity
  8
MITTEL
100
AcDbLine
 10
225.0
 20
508.7564800232079
 30
0.0
 11
224.9999999999999
 21
273.7564800232083
 31
0.0
  0
TEXT
  5
2738
330
1E
100
AcDbEntity
  8
TEXT
 62
     1
100
AcDbText
 10
218.5085576350087
 20
466.2829929380419
 30
0.0
 40
7.0
  1
DN125
 50
90.0
 41
0.8
  7
GREEKS
100
AcDbText
  0
TEXT
  5
2739
330
1E
100
AcDbEntity
  8
TEXT
 62
     1
100
AcDbText
 10
218.5085576350087
 20
313.6134465924258
 30
0.0
 40
7.0
  1
DN150
 50
90.0
 41
0.8
  7
GREEKS
100
AcDbText
  0
ARC
  5
274B
102
{ACAD_REACTORS
330
2A8F
102
}
330
1E
100
AcDbEntity
  8
SCHRAFF
100
AcDbCircle
 10
156.592980679637
 20
407.3035756569042
 30
0.0
 40
4.667688922056902
100
AcDbArc
 50
85.00871992799863
 51
198.9646725278593
  0
ARC
  5
274C
102
{ACAD_REACTORS
330
2A8F
102
}
330
1E
100
AcDbEntity
  8
SCHRAFF
100
AcDbCircle
 10
293.4070193203627
 20
407.3035756569042
 30
0.0
 40
4.667688922056902
100
AcDbArc
 50
341.0353274721407
 51
94.99128007200138
  0
INSERT
  5
274D
330
1E
100
AcDbEntity
  8
SCHRAFF
100
AcDbBlockReference
  2
*X1
 10
-1.132360545417725
 20
63.51245139344076
 30
0.0
1001
ACAD
1000
HATCH
1002
{
1070
    16
1000
_U,I
1040
0.1
1040
2.356194490192344
1070
     0
1002
}
  0
LINE
  5
2836
102
{ACAD_REACTORS
330
2A19
330
2A50
330
2A8F
102
}
330
1E
100
AcDbEntity
  8
STEMPEL
100
AcDbLine
 10
300.9999999999999
 20
490.1541025787438
 30
0.0
 11
300.9999999999999
 21
471.0474800232081
 31
0.0
  0
LINE
  5
2837
102
{ACAD_REACTORS
330
2A19
102
}
330
1E
100
AcDbEntity
  8
STEMPEL
100
AcDbLine
 10
298.4999999999999
 20
490.1541025787438
 30
0.0
 11
298.4999999999999
 21
471.0474800232081
 31
0.0
  0
LINE
  5
2839
102
{ACAD_REACTORS
330
2A19
102
}
330
1E
100
AcDbEntity
  8
STEMPEL
100
AcDbLine
 10
151.4999999999999
 20
490.1541025787439
 30
0.0
 11
151.4999999999999
 21
471.0474800232081
 31
0.0
  0
LINE
  5
283A
102
{ACAD_REACTORS
330
2A19
330
2A50
330
2A8F
102
}
330
1E
100
AcDbEntity
  8
STEMPEL
100
AcDbLine
 10
148.9999999999999
 20
490.1541025787439
 30
0.0
 11
148.9999999999999
 21
471.0474800232081
 31
0.0
  0
LINE
  5
283B
330
1E
100
AcDbEntity
  8
HILF
100
AcDbLine
 10
157.5501559488182
 20
455.2331554227414
 30
0.0
 11
292.4498440511815
 21
455.2331554227414
 31
0.0
  0
LINE
  5
283E
330
1E
100
AcDbEntity
  8
HILF
100
AcDbLine
 10
158.8193412181046
 20
432.5936885847085
 30
0.0
 11
291.1806587818956
 21
432.5936885847085
 31
0.0
  0
LINE
  5
283F
102
{ACAD_REACTORS
330
2A19
102
}
330
1E
100
AcDbEntity
  8
STEMPEL
100
AcDbLine
 10
160.9999999999999
 20
421.2564800232081
 30
0.0
 11
161.0
 21
418.2825892516888
 31
0.0
  0
LINE
  5
2840
102
{ACAD_REACTORS
330
2A19
330
2A8F
102
}
330
1E
100
AcDbEntity
  8
STEMPEL
100
AcDbLine
 10
158.4999999999998
 20
421.2564800232081
 30
0.0
 11
158.4999999999998
 21
418.2825892516887
 31
0.0
  0
LINE
  5
2841
102
{ACAD_REACTORS
330
2A19
102
}
330
1E
100
AcDbEntity
  8
STEMPEL
100
AcDbLine
 10
155.9999999999999
 20
450.7564800232081
 30
0.0
 11
155.9999999999999
 21
437.2251994458793
 31
0.0
  0
LINE
  5
2842
102
{ACAD_REACTORS
330
2A19
330
2A8F
102
}
330
1E
100
AcDbEntity
  8
STEMPEL
100
AcDbLine
 10
153.4999999999999
 20
450.7564800232081
 30
0.0
 11
153.4999999999999
 21
437.2251994458793
 31
0.0
  0
ARC
  5
2843
102
{ACAD_REACTORS
330
2A19
102
}
330
1E
100
AcDbEntity
  8
STEMPEL
100
AcDbCircle
 10
171.4999999999999
 20
437.2251994458793
 30
0.0
 40
15.5
100
AcDbArc
 50
180.0
 51
214.7719440319491
  0
ARC
  5
2844
102
{ACAD_REACTORS
330
2A19
330
2A8F
102
}
330
1E
100
AcDbEntity
  8
STEMPEL
100
AcDbCircle
 10
171.4999999999999
 20
437.2251994458793
 30
0.0
 40
18.0
100
AcDbArc
 50
180.0
 51
214.7719440319491
  0
ARC
  5
2845
102
{ACAD_REACTORS
330
2A19
330
2A8F
102
}
330
1E
100
AcDbEntity
  8
STEMPEL
100
AcDbCircle
 10
148.4999999999998
 20
421.2564800232081
 30
0.0
 40
10.0
100
AcDbArc
 50
0.0
 51
34.77194403194904
  0
ARC
  5
2846
102
{ACAD_REACTORS
330
2A19
102
}
330
1E
100
AcDbEntity
  8
STEMPEL
100
AcDbCircle
 10
148.4999999999998
 20
421.2564800232081
 30
0.0
 40
12.5
100
AcDbArc
 50
0.0
 51
34.77194403194904
  0
ARC
  5
2847
102
{ACAD_REACTORS
330
2A19
102
}
330
1E
100
AcDbEntity
  8
STEMPEL
100
AcDbCircle
 10
135.4999999999999
 20
450.7564800232081
 30
0.0
 40
20.5
100
AcDbArc
 50
0.0
 51
25.22714436590881
  0
ARC
  5
2848
102
{ACAD_REACTORS
330
2A19
330
2A8F
102
}
330
1E
100
AcDbEntity
  8
STEMPEL
100
AcDbCircle
 10
135.4999999999999
 20
450.7564800232081
 30
0.0
 40
18.0
100
AcDbArc
 50
0.0
 51
25.00715833654528
  0
ARC
  5
2849
102
{ACAD_REACTORS
330
2A19
102
}
330
1E
100
AcDbEntity
  8
STEMPEL
100
AcDbCircle
 10
178.9999999999999
 20
471.0474800232081
 30
0.0
 40
27.5
100
AcDbArc
 50
180.0
 51
204.8431689300322
  0
ARC
  5
284A
102
{ACAD_REACTORS
330
2A19
330
2A8F
102
}
330
1E
100
AcDbEntity
  8
STEMPEL
100
AcDbCircle
 10
178.9999999999999
 20
471.0474800232081
 30
0.0
 40
29.99973625969209
100
AcDbArc
 50
180.0
 51
205.0071583365452
  0
LINE
  5
284B
102
{ACAD_REACTORS
330
2A19
330
2A8F
102
}
330
1E
100
AcDbEntity
  8
STEMPEL
100
AcDbLine
 10
149.0002637403078
 20
471.0474800232081
 30
0.0
 11
148.9999999999999
 21
471.0474800232081
 31
0.0
  0
LINE
  5
284C
102
{ACAD_REACTORS
330
2A19
330
2A8F
102
}
330
1E
100
AcDbEntity
  8
STEMPEL
100
AcDbLine
 10
291.5
 20
421.2564800232081
 30
0.0
 11
291.5
 21
418.2825892516885
 31
0.0
  0
LINE
  5
284D
102
{ACAD_REACTORS
330
2A19
102
}
330
1E
100
AcDbEntity
  8
STEMPEL
100
AcDbLine
 10
289.0
 20
421.2564800232081
 30
0.0
 11
289.0
 21
418.2825892516885
 31
0.0
  0
LINE
  5
284F
102
{ACAD_REACTORS
330
2A19
330
2A8F
102
}
330
1E
100
AcDbEntity
  8
STEMPEL
100
AcDbLine
 10
296.4999999999999
 20
450.756480023208
 30
0.0
 11
296.4999999999999
 21
437.2251994458792
 31
0.0
  0
LINE
  5
2850
102
{ACAD_REACTORS
330
2A19
102
}
330
1E
100
AcDbEntity
  8
STEMPEL
100
AcDbLine
 10
293.9999999999999
 20
450.756480023208
 30
0.0
 11
293.9999999999999
 21
437.2251994458792
 31
0.0
  0
ARC
  5
2851
102
{ACAD_REACTORS
330
2A19
102
}
330
1E
100
AcDbEntity
  8
STEMPEL
100
AcDbCircle
 10
278.5
 20
437.2251994458793
 30
0.0
 40
15.5
100
AcDbArc
 50
325.228055968051
 51
0.0
  0
ARC
  5
2852
102
{ACAD_REACTORS
330
2A19
330
2A8F
102
}
330
1E
100
AcDbEntity
  8
STEMPEL
100
AcDbCircle
 10
301.5
 20
421.2564800232081
 30
0.0
 40
10.0
100
AcDbArc
 50
145.2280559680509
 51
180.0
  0
ARC
  5
2853
102
{ACAD_REACTORS
330
2A19
102
}
330
1E
100
AcDbEntity
  8
STEMPEL
100
AcDbCircle
 10
301.5
 20
421.2564800232081
 30
0.0
 40
12.5
100
AcDbArc
 50
145.2280559680509
 51
180.0
  0
ARC
  5
2854
102
{ACAD_REACTORS
330
2A19
330
2A8F
102
}
330
1E
100
AcDbEntity
  8
STEMPEL
100
AcDbCircle
 10
278.5
 20
437.2251994458792
 30
0.0
 40
18.0
100
AcDbArc
 50
325.228055968051
 51
0.0
  0
ARC
  5
2855
102
{ACAD_REACTORS
330
2A19
102
}
330
1E
100
AcDbEntity
  8
STEMPEL
100
AcDbCircle
 10
314.5
 20
450.756480023208
 30
0.0
 40
20.5
100
AcDbArc
 50
154.7728556340941
 51
180.0
  0
ARC
  5
2856
102
{ACAD_REACTORS
330
2A19
330
2A8F
102
}
330
1E
100
AcDbEntity
  8
STEMPEL
100
AcDbCircle
 10
314.5
 20
450.756480023208
 30
0.0
 40
18.0
100
AcDbArc
 50
154.9928416634576
 51
180.0
  0
ARC
  5
2857
102
{ACAD_REACTORS
330
2A19
330
2A8F
102
}
330
1E
100
AcDbEntity
  8
STEMPEL
100
AcDbCircle
 10
270.9999999999999
 20
471.0474800232081
 30
0.0
 40
29.99973625969209
100
AcDbArc
 50
334.9928416634577
 51
0.0
  0
ARC
  5
2858
102
{ACAD_REACTORS
330
2A19
102
}
330
1E
100
AcDbEntity
  8
STEMPEL
100
AcDbCircle
 10
270.9999999999999
 20
471.0474800232081
 30
0.0
 40
27.5
100
AcDbArc
 50
335.1568310699678
 51
0.0
  0
LINE
  5
2859
102
{ACAD_REACTORS
330
2A19
330
2A8F
102
}
330
1E
100
AcDbEntity
  8
STEMPEL
100
AcDbLine
 10
300.999736259692
 20
471.0474800232081
 30
0.0
 11
300.9999999999999
 21
471.0474800232081
 31
0.0
  0
LINE
  5
285A
102
{ACAD_REACTORS
330
29E3
330
2A19
330
2A50
102
}
330
1E
100
AcDbEntity
  8
STEMPEL
100
AcDbLine
 10
309.1500000000001
 20
503.7564800232082
 30
0.0
 11
140.8499999999999
 21
503.7564800232082
 31
0.0
  0
ARC
  5
285B
102
{ACAD_REACTORS
330
2A19
102
}
330
1E
100
AcDbEntity
  8
STEMPEL
100
AcDbCircle
 10
178.9999999999999
 20
490.1541025787439
 30
0.0
 40
27.5
100
AcDbArc
 50
155.0000000000065
 51
180.0
  0
ARC
  5
285C
102
{ACAD_REACTORS
330
2A19
330
2A50
102
}
330
1E
100
AcDbEntity
  8
STEMPEL
100
AcDbCircle
 10
178.9999999999999
 20
490.1541025787439
 30
0.0
 40
30.0
100
AcDbArc
 50
155.0000000000065
 51
180.0
  0
LINE
  5
285D
102
{ACAD_REACTORS
330
2A19
102
}
330
1E
100
AcDbEntity
  8
STEMPEL
100
AcDbLine
 10
154.9999999999999
 20
503.7564800232082
 30
0.0
 11
154.076535856492
 21
501.7761047766131
 31
0.0
  0
LINE
  5
285E
102
{ACAD_REACTORS
330
2A19
330
2A50
102
}
330
1E
100
AcDbEntity
  8
STEMPEL
100
AcDbLine
 10
152.2415552025937
 20
503.7564800232082
 30
0.0
 11
151.8107663889005
 21
502.8326504309651
 31
0.0
  0
ARC
  5
285F
102
{ACAD_REACTORS
330
2A19
330
2A50
102
}
330
1E
100
AcDbEntity
  8
STEMPEL
100
AcDbCircle
 10
270.9999999999999
 20
490.1541025787438
 30
0.0
 40
30.0
100
AcDbArc
 50
0.0
 51
24.99999999999344
  0
ARC
  5
2860
102
{ACAD_REACTORS
330
2A19
102
}
330
1E
100
AcDbEntity
  8
STEMPEL
100
AcDbCircle
 10
270.9999999999999
 20
490.1541025787438
 30
0.0
 40
27.5
100
AcDbArc
 50
0.0
 51
24.9999999999905
  0
LINE
  5
2861
102
{ACAD_REACTORS
330
2A19
330
2A50
102
}
330
1E
100
AcDbEntity
  8
STEMPEL
100
AcDbLine
 10
297.7584447974062
 20
503.7564800232082
 30
0.0
 11
298.1892336110994
 21
502.832650430965
 31
0.0
  0
LINE
  5
2862
102
{ACAD_REACTORS
330
2A19
102
}
330
1E
100
AcDbEntity
  8
STEMPEL
100
AcDbLine
 10
294.9999999999999
 20
503.7564800232082
 30
0.0
 11
295.9234641435078
 21
501.776104776613
 31
0.0
  0
ARC
  5
2873
102
{ACAD_REACTORS
330
2A19
102
}
330
1E
100
AcDbEntity
  8
STEMPEL
100
AcDbCircle
 10
148.4999999999998
 20
418.2825892516887
 30
0.0
 40
12.5
100
AcDbArc
 50
342.6459753637398
 51
0.0
  0
LINE
  5
2874
102
{ACAD_REACTORS
330
2A19
102
}
330
1E
100
AcDbEntity
  8
STEMPEL
100
AcDbLine
 10
160.4309997254377
 20
414.5541518374894
 30
0.0
 11
158.619227283475
 21
408.7564800232083
 31
0.0
  0
LINE
  5
2878
330
1E
100
AcDbEntity
  8
HILF
100
AcDbLine
 10
163.1993683051832
 20
424.2445515465441
 30
0.0
 11
286.8006316948167
 21
424.2445515465441
 31
0.0
  0
LINE
  5
2879
102
{ACAD_REACTORS
330
2A19
102
}
330
1E
100
AcDbEntity
  8
STEMPEL
100
AcDbLine
 10
291.3807727165249
 20
408.7564800232081
 30
0.0
 11
289.5690002745622
 21
414.5541518374892
 31
0.0
  0
ARC
  5
287A
102
{ACAD_REACTORS
330
2A19
102
}
330
1E
100
AcDbEntity
  8
STEMPEL
100
AcDbCircle
 10
301.5000000000001
 20
418.2825892516885
 30
0.0
 40
12.5
100
AcDbArc
 50
180.0
 51
197.3540246362601
  0
LINE
  5
28C7
102
{ACAD_REACTORS
330
2A8F
102
}
330
1E
100
AcDbEntity
  8
STEMPEL
100
AcDbLine
 10
331.5999999999999
 20
357.9064800232081
 30
0.0
 11
329.7499999999998
 21
359.7564800232082
 31
0.0
  0
LINE
  5
28C9
330
1E
100
AcDbEntity
  8
STEMPEL
100
AcDbLine
 10
304.4999999999997
 20
350.7564800232082
 30
0.0
 11
311.7999999999998
 21
350.7564800232082
 31
0.0
  0
LINE
  5
28CA
102
{ACAD_REACTORS
330
2A2C
102
}
330
1E
100
AcDbEntity
  8
STEMPEL
  6
Continuous
100
AcDbLine
 10
334.4999999999999
 20
343.7564800232083
 30
0.0
 11
331.5999999999999
 21
343.7564800232083
 31
0.0
  0
LINE
  5
28CB
102
{ACAD_REACTORS
330
2A8F
102
}
330
1E
100
AcDbEntity
  8
STEMPEL
100
AcDbLine
 10
304.4999999999997
 20
359.7564800232082
 30
0.0
 11
329.75
 21
359.7564800232082
 31
0.0
  0
LINE
  5
28CC
102
{ACAD_REACTORS
330
29CF
102
}
330
1E
100
AcDbEntity
  8
STEMPEL
  6
Continuous
100
AcDbLine
 10
302.0000000000007
 20
391.5695267564286
 30
0.0
 11
302.0000000000014
 21
288.7564800232082
 31
0.0
  0
LINE
  5
28CD
102
{ACAD_REACTORS
330
29CF
330
2A8F
102
}
330
1E
100
AcDbEntity
  8
STEMPEL
  6
Continuous
100
AcDbLine
 10
304.4999999999999
 20
391.5695267564285
 30
0.0
 11
304.5
 21
288.7564800232082
 31
0.0
  0
LINE
  5
28CE
102
{ACAD_REACTORS
330
2A2C
102
}
330
1E
100
AcDbEntity
  8
STEMPEL
100
AcDbLine
 10
334.4999999999999
 20
388.1666274823796
 30
0.0
 11
334.4999999999999
 21
341.7564800232082
 31
0.0
  0
LINE
  5
28CF
102
{ACAD_REACTORS
330
2A2C
330
2A8F
102
}
330
1E
100
AcDbEntity
  8
STEMPEL
100
AcDbLine
 10
331.6
 20
388.1666274823796
 30
0.0
 11
331.5999999999999
 21
343.7564800232084
 31
0.0
  0
LINE
  5
28D0
102
{ACAD_REACTORS
330
29CF
102
}
330
1E
100
AcDbEntity
  8
STEMPEL
100
AcDbLine
 10
304.49048674523
 20
288.538590666339
 30
0.0
 11
303.6346629585998
 21
278.7564800232082
 31
0.0
  0
LINE
  5
28D1
102
{ACAD_REACTORS
330
29CF
102
}
330
1E
100
AcDbEntity
  8
STEMPEL
100
AcDbLine
 10
302.0000000000007
 20
288.7564800232082
 30
0.0
 11
301.1251133647414
 21
278.7564800232082
 31
0.0
  0
LINE
  5
28D2
102
{ACAD_REACTORS
330
29CF
102
}
330
1E
100
AcDbEntity
  8
STEMPEL
  6
Continuous
100
AcDbLine
 10
303.6346629585997
 20
278.7564800232082
 30
0.0
 11
146.3653370413999
 21
278.7564800232082
 31
0.0
  0
LINE
  5
28D3
330
1E
100
AcDbEntity
  8
HILF
  6
Continuous
100
AcDbLine
 10
299.4904504061423
 20
288.7564800232082
 30
0.0
 11
150.5095495938575
 21
288.7564800232082
 31
0.0
  0
DIMENSION
  5
28D4
330
1E
100
AcDbEntity
  8
BEM
100
AcDbDimension
  2
*D2
 10
304.5
 20
260.0175996902524
 30
0.0
 11
224.9999999999999
 21
266.5175996902524
 31
0.0
 70
    32
  1
%%c<>
 71
     5
 42
159.0000000000001
  3
Standard
100
AcDbAlignedDimension
 13
145.4999999999998
 23
288.7564800232082
 33
0.0
 14
304.5
 24
288.7564800232082
 34
0.0
100
AcDbRotatedDimension
1001
ACAD
1000
DSTYLE
1002
{
1070
    40
1040
2.0
1070
    41
1040
3.5
1070
    42
1040
1.0
1070
    43
1040
7.0
1070
    44
1040
1.0
1070
    73
1070
     0
1070
    74
1070
     0
1070
    77
1070
     1
1070
    78
1070
     8
1070
    79
1070
     2
1070
   140
1040
3.5
1070
   141
1040
1.5
1070
   146
1040
0.5142857142857144
1070
   147
1040
1.5
1070
   172
1070
     1
1070
   178
1070
     1
1070
   179
1070
     2
1070
   271
1070
     2
1070
   272
1070
     2
1070
   284
1070
     8
1070
   285
1070
     8
1070
   286
1070
     8
1070
   289
1070
     0
1070
   340
1005
24
1002
}
  0
LINE
  5
28D5
330
1E
100
AcDbEntity
  8
STEMPEL
100
AcDbLine
 10
138.1999999999998
 20
350.7564800232082
 30
0.0
 11
145.5
 21
350.7564800232082
 31
0.0
  0
LINE
  5
28D7
102
{ACAD_REACTORS
330
2A8F
102
}
330
1E
100
AcDbEntity
  8
STEMPEL
100
AcDbLine
 10
118.3999999999998
 20
357.9064800232082
 30
0.0
 11
120.2499999999998
 21
359.7564800232082
 31
0.0
  0
LINE
  5
28D8
102
{ACAD_REACTORS
330
2A2C
102
}
330
1E
100
AcDbEntity
  8
STEMPEL
  6
Continuous
100
AcDbLine
 10
118.3999999999999
 20
343.7564800232081
 30
0.0
 11
115.4999999999999
 21
343.7564800232081
 31
0.0
  0
LINE
  5
28D9
102
{ACAD_REACTORS
330
2A8F
102
}
330
1E
100
AcDbEntity
  8
STEMPEL
100
AcDbLine
 10
120.2499999999998
 20
359.7564800232082
 30
0.0
 11
145.5000000000001
 21
359.7564800232082
 31
0.0
  0
LINE
  5
28DA
102
{ACAD_REACTORS
330
29CF
102
}
330
1E
100
AcDbEntity
  8
STEMPEL
100
AcDbLine
 10
147.9999999999991
 20
288.7564800232082
 30
0.0
 11
148.8748866352584
 21
278.7564800232082
 31
0.0
  0
LINE
  5
28DB
102
{ACAD_REACTORS
330
29CF
102
}
330
1E
100
AcDbEntity
  8
STEMPEL
100
AcDbLine
 10
145.5095132547697
 20
288.538590666339
 30
0.0
 11
146.3653370413999
 21
278.7564800232082
 31
0.0
  0
LINE
  5
28DD
102
{ACAD_REACTORS
330
29CF
330
2A8F
102
}
330
1E
100
AcDbEntity
  8
STEMPEL
  6
Continuous
100
AcDbLine
 10
145.4999999999998
 20
391.5695267564286
 30
0.0
 11
145.4999999999998
 21
288.7564800232082
 31
0.0
  0
LINE
  5
28DE
102
{ACAD_REACTORS
330
29CF
102
}
330
1E
100
AcDbEntity
  8
STEMPEL
  6
Continuous
100
AcDbLine
 10
147.9999999999994
 20
391.5695267564286
 30
0.0
 11
147.9999999999991
 21
288.7564800232082
 31
0.0
  0
LINE
  5
28DF
102
{ACAD_REACTORS
330
2A2C
102
}
330
1E
100
AcDbEntity
  8
STEMPEL
100
AcDbLine
 10
115.4999999999999
 20
388.1666274823796
 30
0.0
 11
115.4999999999999
 21
341.7564800232083
 31
0.0
  0
LINE
  5
28E0
102
{ACAD_REACTORS
330
2A2C
330
2A8F
102
}
330
1E
100
AcDbEntity
  8
STEMPEL
100
AcDbLine
 10
118.3999999999998
 20
388.1666274823796
 30
0.0
 11
118.3999999999998
 21
343.7564800232081
 31
0.0
  0
ARC
  5
290B
102
{ACAD_REACTORS
330
29CF
102
}
330
1E
100
AcDbEntity
  8
STEMPEL
100
AcDbCircle
 10
163.4999999999999
 20
391.5695267564286
 30
0.0
 40
15.5
100
AcDbArc
 50
136.4688007143847
 51
180.0
  0
LINE
  5
290C
102
{ACAD_REACTORS
330
29CF
102
}
330
1E
100
AcDbEntity
  8
STEMPEL
100
AcDbLine
 10
158.4482785560333
 20
408.7564800232082
 30
0.0
 11
152.2625087792863
 21
402.2451434161061
 31
0.0
  0
LINE
  5
290D
102
{ACAD_REACTORS
330
29CF
102
}
330
1E
100
AcDbEntity
  8
STEMPEL
100
AcDbLine
 10
297.7374912207132
 20
402.2451434161063
 30
0.0
 11
291.5517214439665
 21
408.7564800232081
 31
0.0
  0
ARC
  5
290E
102
{ACAD_REACTORS
330
29CF
102
}
330
1E
100
AcDbEntity
  8
STEMPEL
100
AcDbCircle
 10
286.4999999999999
 20
391.5695267564285
 30
0.0
 40
15.5
100
AcDbArc
 50
0.0
 51
43.53119928561524
  0
LINE
  5
2911
330
1E
100
AcDbEntity
  8
HILF
100
AcDbLine
 10
152.3442880889522
 20
398.2441122684815
 30
0.0
 11
297.6557119110477
 21
398.2441122684816
 31
0.0
  0
LINE
  5
2946
102
{ACAD_REACTORS
330
2A50
330
2A8F
102
}
330
1E
100
AcDbEntity
  8
STEMPEL
100
AcDbLine
 10
306.25
 20
487.7564800232081
 30
0.0
 11
300.9999999999999
 21
487.7564800232081
 31
0.0
  0
LINE
  5
2947
102
{ACAD_REACTORS
330
29E3
102
}
330
1E
100
AcDbEntity
  8
STEMPEL
100
AcDbLine
 10
309.15
 20
503.756480023208
 30
0.0
 11
309.15
 21
433.4010788617357
 31
0.0
  0
LINE
  5
2948
102
{ACAD_REACTORS
330
29E3
330
2A50
330
2A8F
102
}
330
1E
100
AcDbEntity
  8
STEMPEL
100
AcDbLine
 10
306.25
 20
503.756480023208
 30
0.0
 11
306.2500000000001
 21
433.4010788617357
 31
0.0
  0
DIMENSION
  5
2949
330
1E
100
AcDbEntity
  8
BEM
100
AcDbDimension
  2
*D4
 10
294.9999999999999
 20
515.0071340062503
 30
0.0
 11
225.0
 21
521.5071340062503
 31
0.0
 70
    32
  1
%%c<>
 71
     5
 42
140.0
  3
Standard
100
AcDbAlignedDimension
 13
154.9999999999999
 23
503.7564800232082
 33
0.0
 14
294.9999999999999
 24
503.756480023208
 34
0.0
100
AcDbRotatedDimension
1001
ACAD
1000
DSTYLE
1002
{
1070
    40
1040
2.0
1070
    41
1040
3.5
1070
    42
1040
1.0
1070
    43
1040
7.0
1070
    44
1040
1.0
1070
    73
1070
     0
1070
    74
1070
     0
1070
    77
1070
     1
1070
    78
1070
     8
1070
    79
1070
     2
1070
   140
1040
3.5
1070
   141
1040
1.5
1070
   146
1040
0.5142857142857144
1070
   147
1040
1.5
1070
   172
1070
     1
1070
   178
1070
     1
1070
   179
1070
     2
1070
   271
1070
     2
1070
   272
1070
     2
1070
   284
1070
     8
1070
   285
1070
     8
1070
   286
1070
     8
1070
   289
1070
     0
1070
   340
1005
24
1002
}
  0
DIMENSION
  5
294A
330
1E
100
AcDbEntity
  8
BEM
100
AcDbDimension
  2
*D5
 10
309.15
 20
530.4919418185301
 30
0.0
 11
225.0
 21
536.99194181853
 31
0.0
 70
    32
  1
%%c<>
 71
     5
 42
168.3
  3
Standard
100
AcDbAlignedDimension
 13
140.8499999999999
 23
503.7564800232082
 33
0.0
 14
309.15
 24
503.756480023208
 34
0.0
100
AcDbRotatedDimension
1001
ACAD
1000
DSTYLE
1002
{
1070
    40
1040
2.0
1070
    41
1040
3.5
1070
    42
1040
1.0
1070
    43
1040
7.0
1070
    44
1040
1.0
1070
    73
1070
     0
1070
    74
1070
     0
1070
    77
1070
     1
1070
    78
1070
     8
1070
    79
1070
     2
1070
   140
1040
3.5
1070
   141
1040
1.5
1070
   146
1040
0.5142857142857144
1070
   147
1040
1.5
1070
   172
1070
     1
1070
   178
1070
     1
1070
   179
1070
     2
1070
   271
1070
     2
1070
   272
1070
     2
1070
   284
1070
     8
1070
   285
1070
     8
1070
   286
1070
     8
1070
   289
1070
     0
1070
   340
1005
24
1002
}
  0
LINE
  5
294C
102
{ACAD_REACTORS
330
2A50
330
2A8F
102
}
330
1E
100
AcDbEntity
  8
STEMPEL
100
AcDbLine
 10
148.9999999999999
 20
487.7564800232081
 30
0.0
 11
143.7499999999999
 21
487.7564800232081
 31
0.0
  0
LINE
  5
294D
102
{ACAD_REACTORS
330
29E3
102
}
330
1E
100
AcDbEntity
  8
STEMPEL
100
AcDbLine
 10
140.8499999999999
 20
503.7564800232082
 30
0.0
 11
140.85
 21
433.4010788617358
 31
0.0
  0
LINE
  5
294E
102
{ACAD_REACTORS
330
29E3
330
2A50
330
2A8F
102
}
330
1E
100
AcDbEntity
  8
STEMPEL
100
AcDbLine
 10
143.7499999999999
 20
503.7564800232082
 30
0.0
 11
143.75
 21
433.4010788617358
 31
0.0
  0
LINE
  5
299F
102
{ACAD_REACTORS
330
29E3
330
2A8F
102
}
330
1E
100
AcDbEntity
  8
STEMPEL
100
AcDbLine
 10
140.8122685217357
 20
423.2810006189553
 30
0.0
 11
128.4337224640322
 21
403.7564800232082
 31
0.0
  0
ARC
  5
29A0
102
{ACAD_REACTORS
330
29E3
330
2A8F
102
}
330
1E
100
AcDbEntity
  8
STEMPEL
100
AcDbCircle
 10
124.8499999999998
 20
433.4010788617358
 30
0.0
 40
18.9
100
AcDbArc
 50
327.6253026475425
 51
0.0
  0
ARC
  5
29A1
102
{ACAD_REACTORS
330
29E3
102
}
330
1E
100
AcDbEntity
  8
STEMPEL
100
AcDbCircle
 10
124.8499999999998
 20
433.4010788617358
 30
0.0
 40
16.0
100
AcDbArc
 50
327.6253026475425
 51
0.0
  0
LINE
  5
29A2
102
{ACAD_REACTORS
330
29E3
330
2A5B
102
}
330
1E
100
AcDbEntity
  8
STEMPEL
100
AcDbLine
 10
138.3630315527921
 20
424.8338168572655
 30
0.0
 11
124.9999999999998
 21
403.7564800232082
 31
0.0
  0
LINE
  5
29A3
102
{ACAD_REACTORS
330
29E3
330
2A2C
330
2A8F
102
}
330
1E
100
AcDbEntity
  8
STEMPEL
  6
Continuous
100
AcDbLine
 10
129.0000031249986
 20
403.7564800232082
 30
0.0
 11
124.9999999999998
 21
403.7564800232082
 31
0.0
  0
ARC
  5
29A4
102
{ACAD_REACTORS
330
2A2C
330
2A8F
102
}
330
1E
100
AcDbEntity
  8
STEMPEL
100
AcDbCircle
 10
129.4999999999999
 20
388.1666274823796
 30
0.0
 40
11.1
100
AcDbArc
 50
136.4688007143847
 51
180.0
  0
LINE
  5
29A5
102
{ACAD_REACTORS
330
2A2C
330
2A8F
102
}
330
1E
100
AcDbEntity
  8
STEMPEL
100
AcDbLine
 10
129.0000031249986
 20
403.7564800232082
 30
0.0
 11
121.4525062871019
 21
395.8117465096327
 31
0.0
  0
ARC
  5
29A6
102
{ACAD_REACTORS
330
2A2C
102
}
330
1E
100
AcDbEntity
  8
STEMPEL
100
AcDbCircle
 10
129.4999999999999
 20
388.1666274823796
 30
0.0
 40
14.0
100
AcDbArc
 50
136.4688007143847
 51
180.0
  0
LINE
  5
29A7
102
{ACAD_REACTORS
330
2A2C
330
2A5B
102
}
330
1E
100
AcDbEntity
  8
STEMPEL
100
AcDbLine
 10
124.9999999999998
 20
403.7564800232082
 30
0.0
 11
119.3500079296781
 21
397.8091199491854
 31
0.0
  0
LINE
  5
29A8
102
{ACAD_REACTORS
330
29E3
330
2A5B
102
}
330
1E
100
AcDbEntity
  8
STEMPEL
100
AcDbLine
 10
311.6369684472076
 20
424.8338168572654
 30
0.0
 11
324.9999999999999
 21
403.7564800232081
 31
0.0
  0
ARC
  5
29A9
102
{ACAD_REACTORS
330
29E3
102
}
330
1E
100
AcDbEntity
  8
STEMPEL
100
AcDbCircle
 10
325.1499999999999
 20
433.4010788617357
 30
0.0
 40
16.0
100
AcDbArc
 50
180.0
 51
212.3746973524575
  0
ARC
  5
29AA
102
{ACAD_REACTORS
330
29E3
330
2A8F
102
}
330
1E
100
AcDbEntity
  8
STEMPEL
100
AcDbCircle
 10
325.1499999999999
 20
433.4010788617357
 30
0.0
 40
18.9
100
AcDbArc
 50
180.0
 51
212.3746973524575
  0
LINE
  5
29AB
102
{ACAD_REACTORS
330
29E3
330
2A8F
102
}
330
1E
100
AcDbEntity
  8
STEMPEL
100
AcDbLine
 10
309.187731478264
 20
423.2810006189552
 30
0.0
 11
321.5662775359676
 21
403.7564800232082
 31
0.0
  0
LINE
  5
29AC
102
{ACAD_REACTORS
330
2A2C
330
2A5B
102
}
330
1E
100
AcDbEntity
  8
STEMPEL
100
AcDbLine
 10
324.9999999999999
 20
403.7564800232081
 30
0.0
 11
330.6499920703217
 21
397.8091199491853
 31
0.0
  0
ARC
  5
29AD
102
{ACAD_REACTORS
330
2A2C
102
}
330
1E
100
AcDbEntity
  8
STEMPEL
100
AcDbCircle
 10
320.4999999999999
 20
388.1666274823796
 30
0.0
 40
14.0
100
AcDbArc
 50
0.0
 51
43.53119928561522
  0
LINE
  5
29AE
102
{ACAD_REACTORS
330
2A2C
330
2A8F
102
}
330
1E
100
AcDbEntity
  8
STEMPEL
100
AcDbLine
 10
320.9999968750011
 20
403.7564800232082
 30
0.0
 11
328.5474937128979
 21
395.8117465096326
 31
0.0
  0
ARC
  5
29AF
102
{ACAD_REACTORS
330
2A2C
330
2A8F
102
}
330
1E
100
AcDbEntity
  8
STEMPEL
100
AcDbCircle
 10
320.4999999999999
 20
388.1666274823796
 30
0.0
 40
11.1
100
AcDbArc
 50
0.0
 51
43.53119928561522
  0
LINE
  5
29B0
102
{ACAD_REACTORS
330
29E3
330
2A2C
330
2A8F
102
}
330
1E
100
AcDbEntity
  8
STEMPEL
  6
Continuous
100
AcDbLine
 10
320.9999968750012
 20
403.7564800232081
 30
0.0
 11
324.9999999999999
 21
403.7564800232081
 31
0.0
  0
HATCH
  5
29CF
330
1E
100
AcDbEntity
  8
SCHRAFF
100
AcDbHatch
 10
0.0
 20
0.0
 30
0.0
210
0.0
220
0.0
230
1.0
  2
_USER
 70
     0
 71
     1
 91
        2
 92
        7
 72
     1
 73
     1
 93
       10
 10
304.4999999999999
 20
391.5695267564285
 42
0.1922583332342658
 10
299.5499898046993
 20
403.967017070893
 42
0.0
 10
295.0
 20
408.7564800232081
 42
0.0
 10
291.5517214439664
 20
408.7564800232081
 42
0.0
 10
297.7374912207132
 20
402.2451434161063
 42
-0.1922583332342719
 10
302.0000000000007
 20
391.5695267564286
 42
0.0
 10
302.0000000000014
 20
288.7564800232167
 42
0.0
 10
301.1251133647414
 20
278.7564800232082
 42
0.0
 10
303.6346629585998
 20
278.7564800232082
 42
0.0
 10
304.5
 20
288.6473276659292
 42
0.0
 97
       10
330
2700
330
26FE
330
26F1
330
290D
330
290E
330
28CC
330
28D1
330
28D2
330
28D0
330
28CD
 92
        7
 72
     1
 73
     1
 93
       10
 10
147.9999999999994
 20
391.5695267564286
 42
-0.1922583332342644
 10
152.2625087792863
 20
402.2451434161061
 42
0.0
 10
158.4482785560333
 20
408.7564800232082
 42
0.0
 10
154.9999999999999
 20
408.7564800232083
 42
0.0
 10
150.4500101953003
 20
403.9670170708929
 42
0.192258333234261
 10
145.4999999999998
 20
391.5695267564287
 42
0.0
 10
145.4999999999998
 20
288.6473276659287
 42
0.0
 10
146.3653370413999
 20
278.7564800232082
 42
0.0
 10
148.8748866352584
 20
278.7564800232082
 42
0.0
 10
147.9999999999991
 20
288.7564800232082
 42
0.0
 97
       10
330
290B
330
290C
330
26F1
330
26FF
330
2701
330
28DD
330
28DB
330
28D2
330
28DA
330
28DE
 75
     0
 76
     0
 52
45.0
 41
2.0
 77
     0
 78
     1
 53
45.0
 43
0.0
 44
0.0
 45
-1.414213562373094
 46
1.414213562373095
 79
     0
 47
0.3400668440609787
 98
        2
 10
302.9933657987349
 20
358.7546222671299
 10
147.4728973176761
 20
353.6536201489091
  0
HATCH
  5
29E3
330
1E
100
AcDbEntity
  8
SCHRAFF
100
AcDbHatch
 10
0.0
 20
0.0
 30
0.0
210
0.0
220
0.0
230
1.0
  2
_USER
 70
     0
 71
     1
 91
        2
 92
        7
 72
     1
 73
     1
 93
        8
 10
309.15
 20
503.7564800232082
 42
0.0
 10
306.25
 20
503.7564800232082
 42
0.0
 10
306.2500000000001
 20
433.4010788617357
 42
0.1422084375877361
 10
309.1877314782643
 20
423.2810006189549
 42
0.0
 10
321.5662775359676
 20
403.7564800232081
 42
0.0
 10
325.0
 20
403.7564800232082
 42
0.0
 10
311.6369684472076
 20
424.8338168572654
 42
-0.1422084375877307
 10
309.15
 20
433.4010788617357
 42
0.0
 97
        8
330
285A
330
2948
330
29AA
330
29AB
330
29B0
330
29A8
330
29A9
330
2947
 92
        7
 72
     1
 73
     1
 93
        8
 10
143.7499999999999
 20
503.7564800232082
 42
0.0
 10
140.8499999999999
 20
503.7564800232082
 42
0.0
 10
140.85
 20
433.4010788617358
 42
-0.1422084375877284
 10
138.3630315527923
 20
424.8338168572657
 42
0.0
 10
124.9999999999999
 20
403.7564800232082
 42
0.0
 10
128.4337224640321
 20
403.7564800232082
 42
0.0
 10
140.8122685217357
 20
423.2810006189553
 42
0.1422084375877315
 10
143.75
 20
433.4010788617358
 42
0.0
 97
        8
330
285A
330
294D
330
29A1
330
29A2
330
29A3
330
299F
330
29A0
330
294E
 75
     0
 76
     0
 52
45.0
 41
2.0
 77
     0
 78
     1
 53
45.0
 43
0.0
 44
0.0
 45
-1.414213562373094
 46
1.414213562373095
 79
     0
 47
0.320809891082382
 98
        2
 10
307.2009367313021
 20
473.7151433314152
 10
142.5090615756885
 20
475.3191930309064
  0
HATCH
  5
2A19
330
1E
100
AcDbEntity
  8
SCHRAFF
100
AcDbHatch
 10
0.0
 20
0.0
 30
0.0
210
0.0
220
0.0
230
1.0
  2
_USER
 70
     0
 71
     1
 91
        2
 92
        7
 72
     1
 73
     1
 93
       25
 10
300.9999999999999
 20
490.1541025787438
 42
0.1095178116832436
 10
298.1892336110994
 20
502.832650430965
 42
0.0
 10
297.7584447974062
 20
503.7564800232082
 42
0.0
 10
294.9999999999999
 20
503.7564800232082
 42
0.0
 10
295.9234641435078
 20
501.776104776613
 42
-0.1095178116832411
 10
298.4999999999999
 20
490.1541025787438
 42
0.0
 10
298.4999999999999
 20
471.0474800232081
 42
-0.1102736034491108
 10
295.8886370172999
 20
459.3510811149506
 42
0.1085781327853839
 10
293.9999999999999
 20
450.7564800232081
 42
0.0
 10
293.9999999999999
 20
437.2251994458792
 42
-0.1528962216020408
 10
291.2321428571427
 20
428.3853726226148
 42
0.1528962216020375
 10
289.0
 20
421.256480023208
 42
0.0
 10
289.0
 20
418.2825892516885
 42
0.0758662707634317
 10
289.5690002745622
 20
414.5541518374892
 42
0.0
 10
291.3807727165249
 20
408.7564800232081
 42
0.0
 10
293.9999999999999
 20
408.756480023208
 42
0.0
 10
291.9552002196497
 20
415.2998393203291
 42
-0.0758662707634322
 10
291.5
 20
418.2825892516885
 42
0.0
 10
291.5
 20
421.2564800232081
 42
-0.1528962216020417
 10
293.2857142857143
 20
426.9595941027335
 42
0.1528962216020372
 10
296.4999999999999
 20
437.2251994458792
 42
0.0
 10
296.4999999999999
 20
450.756480023208
 42
-0.1095494205537222
 10
298.1874103690109
 20
458.3656468324551
 42
0.109549420553793
 10
300.9997362596921
 20
471.0474800232081
 42
0.0
 10
300.9999999999999
 20
471.0474800232081
 42
0.0
 97
       25
330
285F
330
2861
330
285A
330
2862
330
2860
330
2837
330
2858
330
2855
330
2850
330
2851
330
2853
330
284D
330
287A
330
2879
330
26F1
330
26F9
330
26FD
330
284C
330
2852
330
2854
330
284F
330
2856
330
2857
330
2859
330
2836
 92
        7
 72
     1
 73
     1
 93
       25
 10
151.4999999999999
 20
490.1541025787439
 42
-0.1095178116832409
 10
154.076535856492
 20
501.7761047766131
 42
0.0
 10
154.9999999999999
 20
503.7564800232082
 42
0.0
 10
152.2415552025937
 20
503.7564800232082
 42
0.0
 10
151.8107663889005
 20
502.8326504309651
 42
0.1095178116832427
 10
148.9999999999999
 20
490.154102578744
 42
0.0
 10
149.0
 20
471.0474800232081
 42
0.0
 10
149.0002637403078
 20
471.0474800232081
 42
0.1095494205537668
 10
151.8125896309876
 20
458.3656468324581
 42
-0.109549420553767
 10
153.4999999999999
 20
450.7564800232081
 42
0.0
 10
153.4999999999999
 20
437.2251994458793
 42
0.1528962216020395
 10
156.7142857142856
 20
426.9595941027335
 42
-0.1528962216020382
 10
158.4999999999998
 20
421.2564800232081
 42
0.0
 10
158.4999999999998
 20
418.2825892516887
 42
-0.0758662707634305
 10
158.0447997803501
 20
415.2998393203294
 42
0.0
 10
155.9999999999999
 20
408.7564800232082
 42
0.0
 10
158.619227283475
 20
408.7564800232082
 42
0.0
 10
160.4309997254377
 20
414.5541518374894
 42
0.0758662707634343
 10
161.0
 20
418.2825892516888
 42
0.0
 10
160.9999999999999
 20
421.2564800232081
 42
0.1528962216020379
 10
158.7678571428571
 20
428.3853726226149
 42
-0.1528962216020404
 10
155.9999999999999
 20
437.2251994458793
 42
0.0
 10
155.9999999999999
 20
450.7564800232081
 42
0.1085781327854177
 10
154.1113629826988
 20
459.3510811149531
 42
-0.1102736034490859
 10
151.4999999999999
 20
471.0474800232081
 42
0.0
 97
       25
330
285B
330
285D
330
285A
330
285E
330
285C
330
283A
330
284B
330
284A
330
2848
330
2842
330
2844
330
2845
330
2840
330
26FC
330
26FB
330
26F1
330
2874
330
2873
330
283F
330
2846
330
2843
330
2841
330
2847
330
2849
330
2839
 75
     0
 76
     0
 52
135.0
 41
2.0
 77
     0
 78
     1
 53
135.0
 43
0.0
 44
0.0
 45
-1.414213562373095
 46
-1.414213562373094
 79
     0
 47
0.320809891082382
 98
        2
 10
300.1381269711069
 20
476.2816231304882
 10
150.5349826149045
 20
479.168912029799
  0
HATCH
  5
2A2C
330
1E
100
AcDbEntity
  8
SCHRAFF
100
AcDbHatch
 10
0.0
 20
0.0
 30
0.0
210
0.0
220
0.0
230
1.0
  2
_USER
 70
     0
 71
     1
 91
        2
 92
        7
 72
     1
 73
     1
 93
        8
 10
334.4999999999999
 20
388.1666274823796
 42
0.1922583332342646
 10
330.6499920703217
 20
397.8091199491853
 42
0.0
 10
324.9999999999999
 20
403.7564800232081
 42
0.0
 10
320.9999968750012
 20
403.7564800232081
 42
0.0
 10
328.5474937128979
 20
395.8117465096326
 42
-0.192258333234264
 10
331.6
 20
388.1666274823796
 42
0.0
 10
331.5999999999999
 20
343.7564800232083
 42
0.0
 10
334.4999999999999
 20
343.7564800232083
 42
0.0
 97
        8
330
29AD
330
29AC
330
29B0
330
29AE
330
29AF
330
28CF
330
28CA
330
28CE
 92
        7
 72
     1
 73
     1
 93
        8
 10
118.3999999999998
 20
388.1666274823796
 42
-0.1922583332342642
 10
121.4525062871019
 20
395.8117465096327
 42
0.0
 10
129.0000031249986
 20
403.7564800232082
 42
0.0
 10
124.9999999999998
 20
403.7564800232081
 42
0.0
 10
119.3500079296781
 20
397.8091199491854
 42
0.1922583332342649
 10
115.4999999999999
 20
388.1666274823796
 42
0.0
 10
115.4999999999999
 20
343.7564800232081
 42
0.0
 10
118.3999999999999
 20
343.7564800232081
 42
0.0
 97
        8
330
29A4
330
29A5
330
29A3
330
29A7
330
29A6
330
28DF
330
28D8
330
28E0
 75
     0
 76
     0
 52
135.0
 41
2.0
 77
     0
 78
     1
 53
135.0
 43
0.0
 44
0.0
 45
-1.414213562373095
 46
-1.414213562373094
 79
     0
 47
0.3350925228121865
 98
        2
 10
332.8063696347472
 20
370.0127977046065
 10
117.5248146362173
 20
366.661872048785
  0
HATCH
  5
2A50
330
1E
100
AcDbEntity
  8
SCHRAFF
100
AcDbHatch
 10
0.0
 20
0.0
 30
0.0
210
0.0
220
0.0
230
1.0
  2
NET
 70
     0
 71
     1
 91
        2
 92
        7
 72
     1
 73
     1
 93
        6
 10
306.25
 20
503.7564800232082
 42
0.0
 10
297.7584447974063
 20
503.7564800232082
 42
0.0
 10
298.1892336110994
 20
502.832650430965
 42
-0.1095178116832427
 10
300.9999999999999
 20
490.1541025787439
 42
0.0
 10
300.9999999999999
 20
487.756480023208
 42
0.0
 10
306.25
 20
487.756480023208
 42
0.0
 97
        6
330
285A
330
2861
330
285F
330
2836
330
2946
330
2948
 92
        7
 72
     1
 73
     1
 93
        6
 10
151.8107663889005
 20
502.8326504309651
 42
0.0
 10
152.2415552025937
 20
503.7564800232082
 42
0.0
 10
143.7499999999999
 20
503.7564800232082
 42
0.0
 10
143.7499999999999
 20
487.756480023208
 42
0.0
 10
148.9999999999999
 20
487.7564800232081
 42
0.0
 10
148.9999999999999
 20
490.1541025787439
 42
-0.1095178116832432
 97
        6
330
285E
330
285A
330
294E
330
294C
330
283A
330
285C
 75
     0
 76
     1
 52
45.0
 41
20.0
 77
     0
 78
     2
 53
45.0
 43
0.0
 44
0.0
 45
-1.767766952966368
 46
1.767766952966368
 79
     0
 53
135.0
 43
0.0
 44
0.0
 45
-1.767766952966368
 46
-1.767766952966368
 79
     0
 47
0.393639015313982
 98
        2
 10
302.9688882974938
 20
498.1878514715977
 10
148.1593422503997
 20
498.1878514715977
  0
ARC
  5
2A52
102
{ACAD_REACTORS
330
2A5B
102
}
330
1E
100
AcDbEntity
  8
SCHRAFF
100
AcDbCircle
 10
323.5154464383509
 20
402.598581693692
 30
0.0
 40
4.583525552299386
100
AcDbArc
 50
337.6614562982999
 51
98.24444033977023
  0
ARC
  5
2A53
102
{ACAD_REACTORS
330
2A5B
102
}
330
1E
100
AcDbEntity
  8
SCHRAFF
100
AcDbCircle
 10
126.4845535616489
 20
402.598581693692
 30
0.0
 40
4.583525552299386
100
AcDbArc
 50
81.75555966022979
 51
202.3385437017001
  0
HATCH
  5
2A5B
330
1E
100
AcDbEntity
  8
SCHRAFF
100
AcDbHatch
 10
0.0
 20
0.0
 30
0.0
210
0.0
220
0.0
230
1.0
  2
NET
 70
     0
 71
     1
 91
        2
 92
        7
 72
     1
 73
     1
 93
        3
 10
322.8581844988823
 20
407.1347379114062
 42
0.0
 10
325.0
 20
403.756480023208
 42
0.0
 10
327.7549978476586
 20
400.8564822888305
 42
0.5807469286335869
 97
        3
330
29A8
330
29AC
330
2A52
 92
        7
 72
     1
 73
     1
 93
        3
 10
127.1418155011174
 20
407.1347379114062
 42
0.5807469286335713
 10
122.2450021523411
 20
400.8564822888306
 42
0.0
 10
124.9999999999997
 20
403.756480023208
 42
0.0
 97
        3
330
2A53
330
29A7
330
29A2
 75
     0
 76
     1
 52
0.0
 41
0.1
 77
     0
 78
     2
 53
0.0
 43
0.0
 44
0.0
 45
0.0
 46
0.0125
 79
     0
 53
90.0
 43
0.0
 44
0.0
 45
-0.0125
 46
0.0
 79
     0
 47
0.3212095317834472
 98
        2
 10
326.2160408428172
 20
405.4501065714491
 10
124.6752191523947
 20
405.1288972330235
  0
HATCH
  5
2A8F
330
1E
100
AcDbEntity
  8
SCHRAFF
100
AcDbHatch
 10
0.0
 20
0.0
 30
0.0
210
0.0
220
0.0
230
1.0
  2
HONEY
 70
     0
 71
     1
 91
        2
 92
        7
 72
     1
 73
     1
 93
       24
 10
306.2500000000001
 20
433.4010788617357
 42
0.0
 10
306.2500000000001
 20
487.7564800232081
 42
0.0
 10
300.9999999999999
 20
487.7564800232081
 42
0.0
 10
300.9999999999999
 20
471.0474800232081
 42
0.0
 10
300.999736259692
 20
471.0474800232081
 42
-0.1095494205537216
 10
298.1874103690144
 20
458.3656468324628
 42
0.1095494205538402
 10
296.4999999999999
 20
450.7564800232081
 42
0.0
 10
296.4999999999999
 20
437.2251994458792
 42
-0.1528962216020418
 10
293.2857142857141
 20
426.9595941027333
 42
0.1528962216020379
 10
291.5
 20
421.2564800232079
 42
0.0
 10
291.5
 20
418.2825892516885
 42
0.0758662707634322
 10
291.9552002196497
 20
415.2998393203291
 42
0.0
 10
293.0009111092995
 20
411.9535644734498
 42
-0.5427068738815321
 10
297.8213420497088
 20
405.7866462866725
 42
0.0
 10
299.5499898046992
 20
403.9670170708931
 42
-0.1922583332342677
 10
304.4999999999999
 20
391.5695267564284
 42
0.0
 10
304.4999999999999
 20
359.7564800232082
 42
0.0
 10
329.7499999999997
 20
359.7564800232083
 42
0.0
 10
331.6
 20
357.9064800232079
 42
0.0
 10
331.6
 20
388.1666274823796
 42
0.192258333234264
 10
328.5474937128979
 20
395.8117465096326
 42
0.0
 10
320.9999968750012
 20
403.7564800232081
 42
0.0
 10
321.5662775359676
 20
403.7564800232081
 42
0.0
 10
309.187731478264
 20
423.2810006189552
 42
-0.1422084375877305
 97
       24
330
2948
330
2946
330
2836
330
2859
330
2857
330
2856
330
284F
330
2854
330
2852
330
284C
330
26FD
330
26F9
330
274C
330
26FE
330
2700
330
28CD
330
28CB
330
28C7
330
28CF
330
29AF
330
29AE
330
29B0
330
29AB
330
29AA
 92
        7
 72
     1
 73
     1
 93
       24
 10
150.4500101953003
 20
403.9670170708929
 42
0.0
 10
152.178657950291
 20
405.7866462866726
 42
-0.5427068738815351
 10
156.9990888907004
 20
411.9535644734498
 42
0.0
 10
158.0447997803501
 20
415.2998393203293
 42
0.0758662707634319
 10
158.4999999999998
 20
418.2825892516887
 42
0.0
 10
158.4999999999998
 20
421.2564800232081
 42
0.1528962216020382
 10
156.7142857142856
 20
426.9595941027335
 42
-0.1528962216020395
 10
153.4999999999999
 20
437.2251994458793
 42
0.0
 10
153.4999999999999
 20
450.7564800232081
 42
0.109549420553767
 10
151.8125896309876
 20
458.3656468324581
 42
-0.1095494205537668
 10
149.0002637403078
 20
471.0474800232081
 42
0.0
 10
148.9999999999999
 20
471.0474800232081
 42
0.0
 10
149.0
 20
487.7564800232081
 42
0.0
 10
143.7499999999999
 20
487.7564800232081
 42
0.0
 10
143.75
 20
433.4010788617358
 42
-0.1422084375877288
 10
140.8122685217358
 20
423.2810006189555
 42
0.0
 10
128.4337224640321
 20
403.7564800232082
 42
0.0
 10
129.0000031249986
 20
403.7564800232082
 42
0.0
 10
121.4525062871019
 20
395.8117465096327
 42
0.1922583332342642
 10
118.3999999999998
 20
388.1666274823796
 42
0.0
 10
118.3999999999999
 20
357.9064800232083
 42
0.0
 10
120.2499999999999
 20
359.7564800232083
 42
0.0
 10
145.4999999999998
 20
359.7564800232082
 42
0.0
 10
145.4999999999998
 20
391.5695267564286
 42
-0.1922583332342626
 97
       24
330
26FF
330
274B
330
26FB
330
26FC
330
2840
330
2845
330
2844
330
2842
330
2848
330
284A
330
284B
330
283A
330
294C
330
294E
330
29A0
330
299F
330
29A3
330
29A5
330
29A4
330
28E0
330
28D7
330
28D9
330
28DD
330
2701
 75
     0
 76
     1
 52
0.0
 41
30.0
 77
     0
 78
     3
 53
0.0
 43
0.0
 44
0.0
 45
5.625
 46
3.247595249999999
 79
     2
 49
3.75
 49
-7.5
 53
120.0
 43
0.0
 44
0.0
 45
-5.624999987709673
 46
3.247595271287468
 79
     2
 49
3.75
 49
-7.5
 53
60.0
 43
0.0
 44
0.0
 45
0.0000000122903263
 46
6.495190521287468
 79
     2
 49
-7.5
 49
3.75
 47
0.3563714180403618
 98
        2
 10
299.8152211540528
 20
423.79007691335
 10
138.2647851671791
 20
402.7641626704624
  0
DIMENSION
  5
2AA4
330
1E
100
AcDbEntity
  8
BEM
100
AcDbDimension
  2
*D7
 10
334.4999999999999
 20
242.4688524079929
 30
0.0
 11
224.9999999999999
 21
248.9688524079929
 31
0.0
 70
    32
  1
%%c<>
 71
     5
 42
219.0
  3
Standard
100
AcDbAlignedDimension
 13
115.4999999999999
 23
341.7564800232081
 33
0.0
 14
334.4999999999999
 24
341.7564800232083
 34
0.0
100
AcDbRotatedDimension
1001
ACAD
1000
DSTYLE
1002
{
1070
    40
1040
2.0
1070
    41
1040
3.5
1070
    42
1040
1.0
1070
    43
1040
7.0
1070
    44
1040
1.0
1070
    73
1070
     0
1070
    74
1070
     0
1070
    77
1070
     1
1070
    78
1070
     8
1070
    79
1070
     2
1070
   140
1040
3.5
1070
   141
1040
1.5
1070
   146
1040
0.5142857142857144
1070
   147
1040
1.5
1070
   172
1070
     1
1070
   178
1070
     1
1070
   179
1070
     2
1070
   271
1070
     2
1070
   272
1070
     2
1070
   284
1070
     8
1070
   285
1070
     8
1070
   286
1070
     8
1002
}
  0
DIMENSION
  5
2ADA
330
1E
100
AcDbEntity
  8
BEM
100
AcDbDimension
  2
*D11
 10
95.70655441020377
 20
278.7564800232082
 30
0.0
 11
89.20655441020373
 21
311.2564800232082
 31
0.0
 70
    32
 71
     5
 42
64.99999999999994
  3
Standard
100
AcDbAlignedDimension
 13
115.4999999999999
 23
343.7564800232081
 33
0.0
 14
146.3653370413999
 24
278.7564800232082
 34
0.0
 50
90.0
100
AcDbRotatedDimension
1001
ACAD
1000
DSTYLE
1002
{
1070
   279
1070
     1
1070
    40
1040
2.0
1070
    41
1040
3.5
1070
    42
1040
1.0
1070
    43
1040
7.0
1070
    44
1040
1.0
1070
    73
1070
     0
1070
    74
1070
     0
1070
    77
1070
     1
1070
    78
1070
     8
1070
    79
1070
     2
1070
   140
1040
3.5
1070
   141
1040
1.5
1070
   146
1040
0.5142857142857144
1070
   147
1040
1.5
1070
   172
1070
     1
1070
   178
1070
     1
1070
   179
1070
     2
1070
   271
1070
     2
1070
   272
1070
     2
1070
   284
1070
     8
1070
   285
1070
     8
1070
   286
1070
     8
1002
}
  0
DIMENSION
  5
2AE7
330
1E
100
AcDbEntity
  8
BEM
100
AcDbDimension
  2
*D12
 10
81.60943719700298
 20
278.7564800232082
 30
0.0
 11
75.10943719700296
 21
391.2564800232083
 31
0.0
 70
    32
 71
     5
 42
225.0000000000001
  3
Standard
100
AcDbAlignedDimension
 13
140.8499999999999
 23
503.7564800232082
 33
0.0
 14
146.3653370413999
 24
278.7564800232082
 34
0.0
 50
90.0
100
AcDbRotatedDimension
1001
ACAD
1000
DSTYLE
1002
{
1070
    40
1040
2.0
1070
    41
1040
3.5
1070
    42
1040
1.0
1070
    43
1040
7.0
1070
    44
1040
1.0
1070
    73
1070
     0
1070
    74
1070
     0
1070
    77
1070
     1
1070
    78
1070
     8
1070
    79
1070
     2
1070
   140
1040
3.5
1070
   141
1040
1.5
1070
   146
1040
0.5142857142857144
1070
   147
1040
1.5
1070
   172
1070
     1
1070
   178
1070
     1
1070
   179
1070
     2
1070
   271
1070
     2
1070
   272
1070
     2
1070
   284
1070
     8
1070
   285
1070
     8
1070
   286
1070
     8
1002
}
  0
HATCH
  5
2B53
330
1E
100
AcDbEntity
  8
SCHRAFF
100
AcDbHatch
 10
0.0
 20
0.0
 30
0.0
210
0.0
220
0.0
230
1.0
  2
NET
 70
     0
 71
     0
 91
        2
 92
        7
 72
     0
 73
     1
 93
       11
 10
331.5999999999999
 20
357.9064800232079
 10
329.7499999999998
 20
359.7564800232082
 10
304.4999999999999
 20
359.7564800232082
 10
304.4999999999998
 20
350.7564800232082
 10
311.7999999999999
 20
350.7564800232082
 10
315.8414518843272
 20
343.7564800232082
 10
326.9999999999998
 20
343.7564800232082
 10
326.9999999999999
 20
341.7564800232083
 10
334.4999999999998
 20
341.7564800232083
 10
334.4999999999998
 20
343.7564800232083
 10
331.5999999999999
 20
343.7564800232084
 97
        0
 92
        7
 72
     0
 73
     1
 93
       11
 10
145.4999999999997
 20
359.7564800232082
 10
120.2499999999998
 20
359.7564800232082
 10
118.3999999999998
 20
357.9064800232083
 10
118.3999999999998
 20
343.7564800232081
 10
115.4999999999998
 20
343.7564800232081
 10
115.4999999999998
 20
341.7564800232083
 10
123.0999999999998
 20
341.7564800232083
 10
123.0999999999998
 20
343.7564800232084
 10
134.1585481156726
 20
343.7564800232083
 10
138.1999999999999
 20
350.7564800232082
 10
145.4999999999997
 20
350.7564800232082
 97
        0
 75
     0
 76
     1
 52
45.0
 41
20.0
 77
     0
 78
     2
 53
45.0
 43
8.960143095702335
 44
85.76822522545127
 45
-1.767766952966368
 46
1.767766952966368
 79
     0
 53
135.0
 43
8.960143095702335
 44
85.76822522545127
 45
-1.767766952966368
 46
-1.767766952966368
 79
     0
 47
0.2699286479089143
 98
        2
 10
322.4906201674945
 20
354.8085768363153
 10
126.1341078516348
 20
353.1890056241161
  0
LINE
  5
2B54
330
1E
100
AcDbEntity
  8
STEMPEL
100
AcDbLine
 10
334.4999999999998
 20
341.7564800232083
 30
0.0
 11
304.4999999999999
 21
341.7564800232083
 31
0.0
  0
LINE
  5
2B55
330
1E
100
AcDbEntity
  8
STEMPEL
100
AcDbLine
 10
311.7999999999998
 20
350.7564800232082
 30
0.0
 11
315.8414518843273
 21
343.7564800232081
 31
0.0
  0
LINE
  5
2B56
330
1E
100
AcDbEntity
  8
STEMPEL
100
AcDbLine
 10
326.9999999999999
 20
343.7564800232082
 30
0.0
 11
304.4999999999999
 21
343.7564800232082
 31
0.0
  0
LINE
  5
2B57
330
1E
100
AcDbEntity
  8
STEMPEL
100
AcDbLine
 10
326.9999999999999
 20
341.7564800232082
 30
0.0
 11
326.9999999999998
 21
343.7564800232082
 31
0.0
  0
POINT
  5
2B58
330
1E
100
AcDbEntity
  8
DEFPOINTS
  6
ByBlock
 62
     0
100
AcDbPoint
 10
316.9999999999999
 20
343.7564800232082
 30
0.0
  0
POINT
  5
2B59
330
1E
100
AcDbEntity
  8
DEFPOINTS
  6
ByBlock
 62
     0
100
AcDbPoint
 10
326.9999999999999
 20
341.7564800232082
 30
0.0
  0
POINT
  5
2B5A
330
1E
100
AcDbEntity
  8
DEFPOINTS
  6
ByBlock
 62
     0
100
AcDbPoint
 10
315.8414518843273
 20
343.7564800232082
 30
0.0
  0
POINT
  5
2B5B
330
1E
100
AcDbEntity
  8
DEFPOINTS
  6
ByBlock
 62
     0
100
AcDbPoint
 10
315.8414518843273
 20
343.7564800232082
 30
0.0
  0
POINT
  5
2B5C
330
1E
100
AcDbEntity
  8
DEFPOINTS
  6
ByBlock
 62
     0
100
AcDbPoint
 10
315.8414518843273
 20
343.7564800232081
 30
0.0
  0
POINT
  5
2B5D
330
1E
100
AcDbEntity
  8
DEFPOINTS
  6
ByBlock
 62
     0
100
AcDbPoint
 10
326.9999999999999
 20
341.7564800232082
 30
0.0
  0
LINE
  5
2B5E
330
1E
100
AcDbEntity
  8
STEMPEL
100
AcDbLine
 10
145.4999999999997
 20
341.7564800232083
 30
0.0
 11
115.4999999999998
 21
341.7564800232083
 31
0.0
  0
LINE
  5
2B5F
330
1E
100
AcDbEntity
  8
STEMPEL
100
AcDbLine
 10
145.4999999999997
 20
343.7564800232083
 30
0.0
 11
123.0999999999998
 21
343.7564800232083
 31
0.0
  0
LINE
  5
2B60
330
1E
100
AcDbEntity
  8
STEMPEL
100
AcDbLine
 10
123.0999999999998
 20
341.7564800232082
 30
0.0
 11
123.0999999999998
 21
343.7564800232082
 31
0.0
  0
LINE
  5
2B61
330
1E
100
AcDbEntity
  8
STEMPEL
100
AcDbLine
 10
138.1999999999998
 20
350.7564800232082
 30
0.0
 11
134.1585481156725
 21
343.7564800232081
 31
0.0
  0
POINT
  5
2B62
330
1E
100
AcDbEntity
  8
DEFPOINTS
  6
ByBlock
 62
     0
100
AcDbPoint
 10
134.1585481156725
 20
343.7564800232082
 30
0.0
  0
POINT
  5
2B63
330
1E
100
AcDbEntity
  8
DEFPOINTS
  6
ByBlock
 62
     0
100
AcDbPoint
 10
123.0999999999998
 20
341.7564800232082
 30
0.0
  0
POINT
  5
2B64
330
1E
100
AcDbEntity
  8
DEFPOINTS
  6
ByBlock
 62
     0
100
AcDbPoint
 10
123.0999999999998
 20
343.7564800232082
 30
0.0
  0
ENDSEC
  0
SECTION
  2
OBJECTS
  0
DICTIONARY
  5
C
330
0
100
AcDbDictionary
281
     1
  3
ACAD_COLOR
350
DF
  3
ACAD_GROUP
350
D
  3
ACAD_LAYOUT
350
19
  3
ACAD_MATERIAL
350
DE
  3
ACAD_MLINESTYLE
350
16
  3
ACAD_PLOTSETTINGS
350
18
  3
ACAD_PLOTSTYLENAME
350
E
  3
AcDbVariableDictionary
350
EA
  0
DICTIONARY
  5
A0
330
1E
100
AcDbDictionary
280
     1
281
     1
  3
ACAD_LAYOUTSELFREF
360
D4
  0
DICTIONARY
  5
A2
330
1A
100
AcDbDictionary
280
     1
281
     1
  3
ACAD_LAYOUTSELFREF
360
D3
  0
DICTIONARY
  5
DF
102
{ACAD_REACTORS
330
C
102
}
330
C
100
AcDbDictionary
281
     1
  0
DICTIONARY
  5
D
102
{ACAD_REACTORS
330
C
102
}
330
C
100
AcDbDictionary
281
     1
  0
DICTIONARY
  5
19
102
{ACAD_REACTORS
330
C
102
}
330
C
100
AcDbDictionary
281
     1
  3
Layout1
350
1D
  3
Model
350
21
  0
DICTIONARY
  5
DE
102
{ACAD_REACTORS
330
C
102
}
330
C
100
AcDbDictionary
281
     1
  0
DICTIONARY
  5
16
102
{ACAD_REACTORS
330
C
102
}
330
C
100
AcDbDictionary
281
     1
  3
Standard
350
17
  0
DICTIONARY
  5
18
102
{ACAD_REACTORS
330
C
102
}
330
C
100
AcDbDictionary
281
     1
  0
ACDBDICTIONARYWDFLT
  5
E
102
{ACAD_REACTORS
330
C
102
}
330
C
100
AcDbDictionary
281
     1
  3
Normal
350
F
100
AcDbDictionaryWithDefault
340
F
  0
DICTIONARY
  5
EA
102
{ACAD_REACTORS
330
C
102
}
330
C
100
AcDbDictionary
281
     1
  3
DIMASSOC
350
EB
  3
PROJECTNAME
350
EC
  0
XRECORD
  5
D4
102
{ACAD_REACTORS
330
A0
102
}
330
A0
100
AcDbXrecord
280
     1
340
1E
  0
XRECORD
  5
D3
102
{ACAD_REACTORS
330
A2
102
}
330
A2
100
AcDbXrecord
280
     1
340
1A
  0
LAYOUT
  5
1D
102
{ACAD_REACTORS
330
19
102
}
330
19
100
AcDbPlotSettings
  1

  2
\\NT_WORK01\HP LaserJet 5000 PCL 6
  4

  6

 40
0.0
 41
0.0
 42
0.0
 43
0.0
 44
0.0
 45
0.0
 46
0.0
 47
0.0
 48
0.0
 49
0.0
140
0.0
141
0.0
142
1.0
143
1.0
 70
   688
 72
     0
 73
     0
 74
     5
  7

 75
    16
147
1.0
 76
     0
 77
     2
 78
   300
148
0.0
149
0.0
100
AcDbLayout
  1
Layout1
 70
     0
 71
     1
 10
0.0
 20
0.0
 11
12.0
 21
9.0
 12
0.0
 22
0.0
 32
0.0
 14
1.000000000000000E+20
 24
1.000000000000000E+20
 34
1.000000000000000E+20
 15
-1.000000000000000E+20
 25
-1.000000000000000E+20
 35
-1.000000000000000E+20
146
0.0
 13
0.0
 23
0.0
 33
0.0
 16
1.0
 26
0.0
 36
0.0
 17
0.0
 27
1.0
 37
0.0
 76
     0
330
1A
  0
LAYOUT
  5
21
102
{ACAD_REACTORS
330
19
102
}
330
19
100
AcDbPlotSettings
  1

  2
none_device
  4
Letter_(8.50_x_11.00_Inches)
  6

 40
6.349999904632568
 41
6.349999904632568
 42
6.350006103515625
 43
6.350006103515625
 44
215.8999938964844
 45
279.3999938964844
 46
0.0
 47
0.0
 48
0.0
 49
0.0
140
0.0
141
0.0
142
1.0
143
1.0
 70
 11952
 72
     0
 73
     1
 74
     0
  7

 75
     0
147
1.0
 76
     0
 77
     2
 78
   300
148
2305.466113510413
149
95.63236042095818
100
AcDbLayout
  1
Model
 70
     1
 71
     0
 10
0.0
 20
0.0
 11
12.0
 21
9.0
 12
0.0
 22
0.0
 32
0.0
 14
0.0
 24
0.0
 34
0.0
 15
0.0
 25
0.0
 35
0.0
146
0.0
 13
0.0
 23
0.0
 33
0.0
 16
1.0
 26
0.0
 36
0.0
 17
0.0
 27
1.0
 37
0.0
 76
     0
330
1E
  0
MLINESTYLE
  5
17
102
{ACAD_REACTORS
330
16
102
}
330
16
100
AcDbMlineStyle
  2
STANDARD
 70
     0
  3

 62
   256
 51
90.0
 52
90.0
 71
     2
 49
0.5
 62
   256
  6
BYLAYER
 49
-0.5
 62
   256
  6
BYLAYER
  0
ACDBPLACEHOLDER
  5
F
102
{ACAD_REACTORS
330
E
102
}
330
E
  0
DICTIONARYVAR
  5
EB
102
{ACAD_REACTORS
330
EA
102
}
330
EA
100
DictionaryVariables
280
     0
  1
1
  0
DICTIONARYVAR
  5
EC
102
{ACAD_REACTORS
330
EA
102
}
330
EA
100
DictionaryVariables
280
     0
  1

  0
ENDSEC
  0
EOF
