  0
SECTION
  2
HEADER
  9
$ACADVER
  1
AC1018
  9
$ACADMAINTVER
 70
     2
  9
$DWGCODEPAGE
  3
ANSI_1252
  9
$INSBASE
 10
0.0
 20
0.0
 30
0.0
  9
$EXTMIN
 10
-0.0128164049388033
 20
-0.0181260584133725
 30
-0.0015258207003583
  9
$EXTMAX
 10
420.012818360716
 20
594.0181288244416
 30
0.0000000349246037
  9
$LIMMIN
 10
0.0
 20
0.0
  9
$LIMMAX
 10
419.9999999999999
 20
594.0
  9
$ORTHOMODE
 70
     1
  9
$REGENMODE
 70
     1
  9
$FILLMODE
 70
     1
  9
$QTEXTMODE
 70
     0
  9
$MIRRTEXT
 70
     1
  9
$LTSCALE
 40
20.0
  9
$ATTMODE
 70
     1
  9
$TEXTSIZE
 40
3.5
  9
$TRACEWID
 40
0.5
  9
$TEXTSTYLE
  7
STANDARD
  9
$CLAYER
  8
SCHRAFF
  9
$CELTYPE
  6
ByLayer
  9
$CECOLOR
 62
   256
  9
$CELTSCALE
 40
1.0
  9
$DISPSILH
 70
     0
  9
$DIMSCALE
 40
2.0
  9
$DIMASZ
 40
3.5
  9
$DIMEXO
 40
1.0
  9
$DIMDLI
 40
7.0
  9
$DIMRND
 40
0.0
  9
$DIMDLE
 40
0.0
  9
$DIMEXE
 40
1.0
  9
$DIMTP
 40
0.0
  9
$DIMTM
 40
0.0
  9
$DIMTXT
 40
3.5
  9
$DIMCEN
 40
1.5
  9
$DIMTSZ
 40
0.0
  9
$DIMTOL
 70
     0
  9
$DIMLIM
 70
     0
  9
$DIMTIH
 70
     0
  9
$DIMTOH
 70
     0
  9
$DIMSE1
 70
     0
  9
$DIMSE2
 70
     0
  9
$DIMTAD
 70
     1
  9
$DIMZIN
 70
     8
  9
$DIMBLK
  1

  9
$DIMASO
 70
     1
  9
$DIMSHO
 70
     0
  9
$DIMPOST
  1

  9
$DIMAPOST
  1

  9
$DIMALT
 70
     0
  9
$DIMALTD
 70
     2
  9
$DIMALTF
 40
25.4
  9
$DIMLFAC
 40
1.0
  9
$DIMTOFL
 70
     1
  9
$DIMTVP
 40
0.0
  9
$DIMTIX
 70
     0
  9
$DIMSOXD
 70
     0
  9
$DIMSAH
 70
     0
  9
$DIMBLK1
  1

  9
$DIMBLK2
  1

  9
$DIMSTYLE
  2
Standard
  9
$DIMCLRD
 70
     0
  9
$DIMCLRE
 70
     0
  9
$DIMCLRT
 70
     1
  9
$DIMTFAC
 40
0.5142857142857144
  9
$DIMGAP
 40
1.5
  9
$DIMJUST
 70
     0
  9
$DIMSD1
 70
     0
  9
$DIMSD2
 70
     0
  9
$DIMTOLJ
 70
     1
  9
$DIMTZIN
 70
     8
  9
$DIMALTZ
 70
     8
  9
$DIMALTTZ
 70
     8
  9
$DIMUPT
 70
     0
  9
$DIMDEC
 70
     2
  9
$DIMTDEC
 70
     2
  9
$DIMALTU
 70
     2
  9
$DIMALTTD
 70
     2
  9
$DIMTXSTY
  7
STANDARD
  9
$DIMAUNIT
 70
     0
  9
$DIMADEC
 70
     2
  9
$DIMALTRND
 40
0.0
  9
$DIMAZIN
 70
     2
  9
$DIMDSEP
 70
    46
  9
$DIMATFIT
 70
     3
  9
$DIMFRAC
 70
     0
  9
$DIMLDRBLK
  1

  9
$DIMLUNIT
 70
     2
  9
$DIMLWD
 70
    -2
  9
$DIMLWE
 70
    -2
  9
$DIMTMOVE
 70
     0
  9
$LUNITS
 70
     2
  9
$LUPREC
 70
     2
  9
$SKETCHINC
 40
1.0
  9
$FILLETRAD
 40
0.0
  9
$AUNITS
 70
     0
  9
$AUPREC
 70
     0
  9
$MENU
  1
ACAD
  9
$ELEVATION
 40
0.0
  9
$PELEVATION
 40
0.0
  9
$THICKNESS
 40
0.0
  9
$LIMCHECK
 70
     0
  9
$CHAMFERA
 40
0.0
  9
$CHAMFERB
 40
0.0
  9
$CHAMFERC
 40
0.0
  9
$CHAMFERD
 40
0.0
  9
$SKPOLY
 70
     0
  9
$TDCREATE
 40
2455397.864709028
  9
$TDUCREATE
 40
2455397.781375695
  9
$TDUPDATE
 40
2456198.531124687
  9
$TDUUPDATE
 40
2456198.447791354
  9
$TDINDWG
 40
0.1153356944
  9
$TDUSRTIMER
 40
0.1153356944
  9
$USRTIMER
 70
     1
  9
$ANGBASE
 50
0.0
  9
$ANGDIR
 70
     0
  9
$PDMODE
 70
     0
  9
$PDSIZE
 40
0.0
  9
$PLINEWID
 40
0.0
  9
$SPLFRAME
 70
     0
  9
$SPLINETYPE
 70
     6
  9
$SPLINESEGS
 70
     8
  9
$HANDSEED
  5
25C8
  9
$SURFTAB1
 70
     6
  9
$SURFTAB2
 70
     6
  9
$SURFTYPE
 70
     6
  9
$SURFU
 70
     6
  9
$SURFV
 70
     6
  9
$UCSBASE
  2

  9
$UCSNAME
  2

  9
$UCSORG
 10
0.0
 20
0.0
 30
0.0
  9
$UCSXDIR
 10
1.0
 20
0.0
 30
0.0
  9
$UCSYDIR
 10
0.0
 20
1.0
 30
0.0
  9
$UCSORTHOREF
  2

  9
$UCSORTHOVIEW
 70
     0
  9
$UCSORGTOP
 10
0.0
 20
0.0
 30
0.0
  9
$UCSORGBOTTOM
 10
0.0
 20
0.0
 30
0.0
  9
$UCSORGLEFT
 10
0.0
 20
0.0
 30
0.0
  9
$UCSORGRIGHT
 10
0.0
 20
0.0
 30
0.0
  9
$UCSORGFRONT
 10
0.0
 20
0.0
 30
0.0
  9
$UCSORGBACK
 10
0.0
 20
0.0
 30
0.0
  9
$PUCSBASE
  2

  9
$PUCSNAME
  2

  9
$PUCSORG
 10
0.0
 20
0.0
 30
0.0
  9
$PUCSXDIR
 10
1.0
 20
0.0
 30
0.0
  9
$PUCSYDIR
 10
0.0
 20
1.0
 30
0.0
  9
$PUCSORTHOREF
  2

  9
$PUCSORTHOVIEW
 70
     0
  9
$PUCSORGTOP
 10
0.0
 20
0.0
 30
0.0
  9
$PUCSORGBOTTOM
 10
0.0
 20
0.0
 30
0.0
  9
$PUCSORGLEFT
 10
0.0
 20
0.0
 30
0.0
  9
$PUCSORGRIGHT
 10
0.0
 20
0.0
 30
0.0
  9
$PUCSORGFRONT
 10
0.0
 20
0.0
 30
0.0
  9
$PUCSORGBACK
 10
0.0
 20
0.0
 30
0.0
  9
$USERI1
 70
     0
  9
$USERI2
 70
     0
  9
$USERI3
 70
     0
  9
$USERI4
 70
     0
  9
$USERI5
 70
     0
  9
$USERR1
 40
0.0
  9
$USERR2
 40
0.0
  9
$USERR3
 40
0.0
  9
$USERR4
 40
0.0
  9
$USERR5
 40
0.0
  9
$WORLDVIEW
 70
     1
  9
$SHADEDGE
 70
     3
  9
$SHADEDIF
 70
    70
  9
$TILEMODE
 70
     1
  9
$MAXACTVP
 70
    16
  9
$PINSBASE
 10
0.0
 20
0.0
 30
0.0
  9
$PLIMCHECK
 70
     0
  9
$PEXTMIN
 10
1.000000000000000E+20
 20
1.000000000000000E+20
 30
1.000000000000000E+20
  9
$PEXTMAX
 10
-1.000000000000000E+20
 20
-1.000000000000000E+20
 30
-1.000000000000000E+20
  9
$PLIMMIN
 10
0.0
 20
0.0
  9
$PLIMMAX
 10
12.0
 20
9.0
  9
$UNITMODE
 70
     0
  9
$VISRETAIN
 70
     0
  9
$PLINEGEN
 70
     0
  9
$PSLTSCALE
 70
     0
  9
$TREEDEPTH
 70
  3020
  9
$CMLSTYLE
  2
Standard
  9
$CMLJUST
 70
     0
  9
$CMLSCALE
 40
1.0
  9
$PROXYGRAPHICS
 70
     1
  9
$MEASUREMENT
 70
     0
  9
$CELWEIGHT
370
    -1
  9
$ENDCAPS
280
     0
  9
$JOINSTYLE
280
     0
  9
$LWDISPLAY
290
     0
  9
$INSUNITS
 70
     0
  9
$HYPERLINKBASE
  1

  9
$STYLESHEET
  1
monochrome 1.ctb
  9
$XEDIT
290
     1
  9
$CEPSNTYPE
380
     0
  9
$PSTYLEMODE
290
     1
  9
$FINGERPRINTGUID
  2
{D68B0D02-A558-11D7-B632-000102183313}
  9
$VERSIONGUID
  2
{7D8AEEAF-92F3-4154-80FD-B82D4FF14A2F}
  9
$EXTNAMES
290
     1
  9
$PSVPSCALE
 40
0.0
  9
$OLESTARTUP
290
     0
  9
$SORTENTS
280
   127
  9
$INDEXCTL
280
     0
  9
$HIDETEXT
280
     0
  9
$XCLIPFRAME
290
     0
  9
$HALOGAP
280
     0
  9
$OBSCOLOR
 70
   257
  9
$OBSLTYPE
280
     0
  9
$INTERSECTIONDISPLAY
280
     0
  9
$INTERSECTIONCOLOR
 70
   257
  9
$DIMASSOC
280
     1
  9
$PROJECTNAME
  1

  0
ENDSEC
  0
SECTION
  2
CLASSES
  0
CLASS
  1
ACDBDICTIONARYWDFLT
  2
AcDbDictionaryWithDefault
  3
ObjectDBX Classes
 90
        0
 91
        1
280
     0
281
     0
  0
CLASS
  1
DICTIONARYVAR
  2
AcDbDictionaryVar
  3
ObjectDBX Classes
 90
        0
 91
        2
280
     0
281
     0
  0
CLASS
  1
DIMASSOC
  2
AcDbDimAssoc
  3
"AcDbDimAssoc|Product Desc:     AcDim ARX App For Dimension|Company:          Autodesk, Inc.|WEB Address:      www.autodesk.com"
 90
        0
 91
        0
280
     0
281
     0
  0
ENDSEC
  0
SECTION
  2
TABLES
  0
TABLE
  2
VPORT
  5
8
330
0
100
AcDbSymbolTable
 70
     3
  0
VPORT
  5
25C7
330
8
100
AcDbSymbolTableRecord
100
AcDbViewportTableRecord
  2
*Active
 70
     0
 10
0.0
 20
0.0
 11
1.0
 21
1.0
 12
209.9999999999999
 22
297.0
 13
0.0
 23
0.0
 14
1.0
 24
1.0
 15
10.0
 25
10.0
 16
0.0
 26
0.0
 36
1.0
 17
0.0
 27
0.0
 37
0.0
 40
594.0
 41
1.404858299595141
 42
50.0
 43
0.0
 44
0.0
 50
0.0
 51
0.0
 71
     0
 72
  1500
 73
     1
 74
     0
 75
     0
 76
     0
 77
     0
 78
     0
281
     0
 65
     1
110
0.0
120
0.0
130
0.0
111
1.0
121
0.0
131
0.0
112
0.0
122
1.0
132
0.0
 79
     0
146
0.0
  0
ENDTAB
  0
TABLE
  2
LTYPE
  5
5
330
0
100
AcDbSymbolTable
 70
     3
  0
LTYPE
  5
13
330
5
100
AcDbSymbolTableRecord
100
AcDbLinetypeTableRecord
  2
ByBlock
 70
     0
  3

 72
    65
 73
     0
 40
0.0
  0
LTYPE
  5
14
330
5
100
AcDbSymbolTableRecord
100
AcDbLinetypeTableRecord
  2
ByLayer
 70
     0
  3

 72
    65
 73
     0
 40
0.0
  0
LTYPE
  5
15
330
5
100
AcDbSymbolTableRecord
100
AcDbLinetypeTableRecord
  2
Continuous
 70
     0
  3
Solid line
 72
    65
 73
     0
 40
0.0
  0
LTYPE
  5
25
330
5
100
AcDbSymbolTableRecord
100
AcDbLinetypeTableRecord
  2
STRICHPUNKT
 70
     0
  3
__ . __ . __ . __ . __ . __ . __ . __ . __ . __
 72
    65
 73
     4
 40
1.0
 49
0.5
 74
     0
 49
-0.25
 74
     0
 49
0.0
 74
     0
 49
-0.25
 74
     0
  0
LTYPE
  5
32
330
5
100
AcDbSymbolTableRecord
100
AcDbLinetypeTableRecord
  2
AUSGEZOGEN
 70
     0
  3
Ausgezogene Linie
 72
    65
 73
     0
 40
0.0
  0
ENDTAB
  0
TABLE
  2
LAYER
  5
2
330
0
100
AcDbSymbolTable
 70
     9
  0
LAYER
  5
10
330
2
100
AcDbSymbolTableRecord
100
AcDbLayerTableRecord
  2
0
 70
     0
 62
     7
  6
Continuous
370
    -3
390
F
  0
LAYER
  5
2A
330
2
100
AcDbSymbolTableRecord
100
AcDbLayerTableRecord
  2
VOLL
 70
     0
 62
     1
  6
Continuous
370
    -3
390
F
  0
LAYER
  5
2B
330
2
100
AcDbSymbolTableRecord
100
AcDbLayerTableRecord
  2
HILF
 70
     0
 62
     2
  6
Continuous
370
    -3
390
F
  0
LAYER
  5
2C
330
2
100
AcDbSymbolTableRecord
100
AcDbLayerTableRecord
  2
MITTEL
 70
     0
 62
     2
  6
STRICHPUNKT
370
    -3
390
F
  0
LAYER
  5
2F
330
2
100
AcDbSymbolTableRecord
100
AcDbLayerTableRecord
  2
BEM
 70
     0
 62
     7
  6
Continuous
370
    -3
390
F
  0
LAYER
  5
30
330
2
100
AcDbSymbolTableRecord
100
AcDbLayerTableRecord
  2
STEMPEL
 70
     0
 62
     3
  6
Continuous
370
    -3
390
F
  0
LAYER
  5
31
330
2
100
AcDbSymbolTableRecord
100
AcDbLayerTableRecord
  2
TEXT
 70
     0
 62
     7
  6
Continuous
370
    -3
390
F
  0
LAYER
  5
195
330
2
100
AcDbSymbolTableRecord
100
AcDbLayerTableRecord
  2
DEFPOINTS
 70
     0
 62
     7
  6
AUSGEZOGEN
290
     0
370
    -3
390
F
  0
LAYER
  5
3B7
330
2
100
AcDbSymbolTableRecord
100
AcDbLayerTableRecord
  2
SCHRAFF
 70
     0
 62
     7
  6
Continuous
370
    -3
390
F
  0
ENDTAB
  0
TABLE
  2
STYLE
  5
3
330
0
100
AcDbSymbolTable
 70
     2
  0
STYLE
  5
11
330
3
100
AcDbSymbolTableRecord
100
AcDbTextStyleTableRecord
  2
STANDARD
 70
     0
 40
0.0
 41
0.8
 50
0.0
 71
     0
 42
3.5
  3
simplex.shx
  4

  0
STYLE
  5
24
330
3
100
AcDbSymbolTableRecord
100
AcDbTextStyleTableRecord
  2
GREEKS
 70
     0
 40
0.0
 41
0.8
 50
0.0
 71
     0
 42
2.5
  3
SIMPLEX.shx
  4

  0
ENDTAB
  0
TABLE
  2
VIEW
  5
6
330
0
100
AcDbSymbolTable
 70
     0
  0
ENDTAB
  0
TABLE
  2
UCS
  5
7
330
0
100
AcDbSymbolTable
 70
     0
  0
ENDTAB
  0
TABLE
  2
APPID
  5
9
330
0
100
AcDbSymbolTable
 70
     1
  0
APPID
  5
12
330
9
100
AcDbSymbolTableRecord
100
AcDbRegAppTableRecord
  2
ACAD
 70
     0
  0
ENDTAB
  0
TABLE
  2
DIMSTYLE
  5
A
330
0
100
AcDbSymbolTable
 70
     1
100
AcDbDimStyleTable
 71
     1
340
9D
  0
DIMSTYLE
105
9D
102
{ACAD_REACTORS
330
22AC
330
236A
330
2369
330
23DF
330
2423
330
2430
102
}
330
A
100
AcDbSymbolTableRecord
100
AcDbDimStyleTableRecord
  2
Standard
 70
     0
340
11
  0
ENDTAB
  0
TABLE
  2
BLOCK_RECORD
  5
1
330
0
100
AcDbSymbolTable
 70
    13
  0
BLOCK_RECORD
  5
1E
102
{ACAD_XDICTIONARY
360
A0
102
}
330
1
100
AcDbSymbolTableRecord
100
AcDbBlockTableRecord
  2
*Model_Space
340
21
  0
BLOCK_RECORD
  5
1A
102
{ACAD_XDICTIONARY
360
A2
102
}
330
1
100
AcDbSymbolTableRecord
100
AcDbBlockTableRecord
  2
*Paper_Space
340
1D
  0
BLOCK_RECORD
  5
22
330
1
100
AcDbSymbolTableRecord
100
AcDbBlockTableRecord
  2
LOGO
340
0
102
{BLKREFS
331
9B
102
}
  0
BLOCK_RECORD
  5
1F42
330
1
100
AcDbSymbolTableRecord
100
AcDbBlockTableRecord
  2
*X1
340
0
102
{BLKREFS
331
210D
102
}
  0
BLOCK_RECORD
  5
22C5
330
1
100
AcDbSymbolTableRecord
100
AcDbBlockTableRecord
  2
*D2
340
0
  0
BLOCK_RECORD
  5
236C
330
1
100
AcDbSymbolTableRecord
100
AcDbBlockTableRecord
  2
*D4
340
0
  0
BLOCK_RECORD
  5
2379
330
1
100
AcDbSymbolTableRecord
100
AcDbBlockTableRecord
  2
*D5
340
0
  0
BLOCK_RECORD
  5
23E0
330
1
100
AcDbSymbolTableRecord
100
AcDbBlockTableRecord
  2
*D8
340
0
  0
BLOCK_RECORD
  5
2424
330
1
100
AcDbSymbolTableRecord
100
AcDbBlockTableRecord
  2
*D11
340
0
  0
BLOCK_RECORD
  5
2431
330
1
100
AcDbSymbolTableRecord
100
AcDbBlockTableRecord
  2
*D12
340
0
  0
ENDTAB
  0
ENDSEC
  0
SECTION
  2
BLOCKS
  0
BLOCK
  5
35
330
1E
100
AcDbEntity
  8
0
100
AcDbBlockBegin
  2
*Model_Space
 70
     0
 10
0.0
 20
0.0
 30
0.0
  3
*Model_Space
  1

  0
ENDBLK
  5
36
330
1E
100
AcDbEntity
  8
0
100
AcDbBlockEnd
  0
BLOCK
  5
33
330
1A
100
AcDbEntity
 67
     1
  8
0
100
AcDbBlockBegin
  2
*Paper_Space
 70
     0
 10
0.0
 20
0.0
 30
0.0
  3
*Paper_Space
  1

  0
ENDBLK
  5
34
330
1A
100
AcDbEntity
 67
     1
  8
0
100
AcDbBlockEnd
  0
BLOCK
  5
37
330
22
100
AcDbEntity
  8
0
100
AcDbBlockBegin
  2
LOGO
 70
     0
 10
0.0
 20
0.0
 30
0.0
  3
LOGO
  1

  0
ARC
  5
38
330
22
100
AcDbEntity
  8
0
100
AcDbCircle
 10
11.59973089678112
 20
-9.271599258481501
 30
0.0
 40
4.5
100
AcDbArc
 50
270.0
 51
231.0575587310159
  0
LINE
  5
39
330
22
100
AcDbEntity
  8
0
100
AcDbLine
 10
3.599730896781125
 20
-4.771599258481529
 30
0.0
 11
3.599730896781153
 21
-11.77159925848133
 31
0.0
  0
LINE
  5
3A
330
22
100
AcDbEntity
  8
0
100
AcDbLine
 10
2.599730896781125
 20
-4.771599258481529
 30
0.0
 11
2.599730896781153
 21
-11.77159925848133
 31
0.0
  0
CIRCLE
  5
3B
330
22
100
AcDbEntity
  8
0
100
AcDbCircle
 10
11.59973089678112
 20
-9.271599258481501
 30
0.0
 40
3.5
  0
ARC
  5
3C
330
22
100
AcDbEntity
  8
0
100
AcDbCircle
 10
31.59973089678115
 20
-9.271599258481472
 30
0.0
 40
4.5
100
AcDbArc
 50
270.0
 51
231.0575587310182
  0
LINE
  5
3D
330
22
100
AcDbEntity
  8
0
100
AcDbLine
 10
17.59973089678112
 20
-4.771599258481472
 30
0.0
 11
17.59973089678115
 21
-13.77159925848147
 31
0.0
  0
ARC
  5
3E
330
22
100
AcDbEntity
  8
0
100
AcDbCircle
 10
22.59973089678116
 20
-7.271599258481472
 30
0.0
 40
2.5
100
AcDbArc
 50
293.1161887722295
 51
90.0
  0
CIRCLE
  5
3F
330
22
100
AcDbEntity
  8
0
100
AcDbCircle
 10
31.59973089678115
 20
-9.271599258481472
 30
0.0
 40
3.5
  0
ARC
  5
40
330
22
100
AcDbEntity
  8
0
100
AcDbCircle
 10
4.599730896781153
 20
-11.77159925848133
 30
0.0
 40
1.0
100
AcDbArc
 50
180.0
 51
270.0
  0
ARC
  5
41
330
22
100
AcDbEntity
  8
0
100
AcDbCircle
 10
4.599730896781153
 20
-11.77159925848133
 30
0.0
 40
2.0
100
AcDbArc
 50
179.9999999999992
 51
270.0
  0
LINE
  5
42
330
22
100
AcDbEntity
  8
0
100
AcDbLine
 10
11.59973089678115
 20
-13.77159925848144
 30
0.0
 11
4.599730896781153
 21
-13.77159925848147
 31
0.0
  0
LINE
  5
43
330
22
100
AcDbEntity
  8
0
100
AcDbLine
 10
8.771303772034769
 20
-12.77159925848136
 30
0.0
 11
4.599730896781153
 21
-12.77159925848133
 31
0.0
  0
LINE
  5
44
330
22
100
AcDbEntity
  8
0
100
AcDbLine
 10
31.59973089678115
 20
-13.77159925848147
 30
0.0
 11
23.6715276665056
 21
-13.77159925848144
 31
0.0
  0
LINE
  5
45
330
22
100
AcDbEntity
  8
0
100
AcDbLine
 10
23.56565672307022
 20
-9.51278021337896
 30
0.0
 11
24.4388546544846
 21
-12.77159925848144
 31
0.0
  0
LINE
  5
46
330
22
100
AcDbEntity
  8
0
100
AcDbLine
 10
22.59973089678116
 20
-9.771599258481472
 30
0.0
 11
18.59973089678112
 21
-9.771599258481472
 31
0.0
  0
LINE
  5
47
330
22
100
AcDbEntity
  8
0
100
AcDbLine
 10
18.59973089678115
 20
-13.77159925848144
 30
0.0
 11
17.59973089678115
 21
-13.77159925848144
 31
0.0
  0
LINE
  5
48
330
22
100
AcDbEntity
  8
0
100
AcDbLine
 10
18.59973089678115
 20
-9.771599258481472
 30
0.0
 11
18.59973089678115
 21
-13.77159925848144
 31
0.0
  0
LINE
  5
49
330
22
100
AcDbEntity
  8
0
100
AcDbLine
 10
22.59973089678116
 20
-9.771599258481472
 30
0.0
 11
23.67152766650562
 21
-13.77159925848147
 31
0.0
  0
ARC
  5
4A
330
22
100
AcDbEntity
  8
0
100
AcDbCircle
 10
22.59973089678116
 20
-7.271599258481472
 30
0.0
 40
2.5
100
AcDbArc
 50
270.0
 51
270.0000000000007
  0
LINE
  5
4B
330
22
100
AcDbEntity
  8
0
100
AcDbLine
 10
28.77130377203494
 20
-12.77159925848147
 30
0.0
 11
24.43885465448463
 21
-12.77159925848144
 31
0.0
  0
LINE
  5
4C
330
22
100
AcDbEntity
  8
0
100
AcDbLine
 10
3.599730896781125
 20
-4.771599258481472
 30
0.0
 11
2.599730896781125
 21
-4.771599258481472
 31
0.0
  0
LINE
  5
4D
330
22
100
AcDbEntity
  8
0
100
AcDbLine
 10
22.59973089678116
 20
-8.771599258481472
 30
0.0
 11
18.59973089678115
 21
-8.771599258481472
 31
0.0
  0
LINE
  5
4E
330
22
100
AcDbEntity
  8
0
100
AcDbLine
 10
22.59973089678116
 20
-5.771599258481472
 30
0.0
 11
18.59973089678115
 21
-5.771599258481472
 31
0.0
  0
LINE
  5
4F
330
22
100
AcDbEntity
  8
0
100
AcDbLine
 10
22.59973089678116
 20
-4.771599258481472
 30
0.0
 11
17.59973089678115
 21
-4.771599258481472
 31
0.0
  0
LINE
  5
50
330
22
100
AcDbEntity
  8
0
100
AcDbLine
 10
18.59973089678115
 20
-5.771599258481472
 30
0.0
 11
18.59973089678115
 21
-8.771599258481472
 31
0.0
  0
ARC
  5
51
330
22
100
AcDbEntity
  8
0
100
AcDbCircle
 10
22.59973089678116
 20
-7.271599258481472
 30
0.0
 40
1.5
100
AcDbArc
 50
270.0
 51
90.0
  0
ENDBLK
  5
52
330
22
100
AcDbEntity
  8
0
100
AcDbBlockEnd
  0
BLOCK
  5
1F43
330
1F42
100
AcDbEntity
  8
0
100
AcDbBlockBegin
  2
*X1
 70
     1
 10
0.0
 20
0.0
 30
0.0
  3
*X1
  1

  0
LINE
  5
1F44
330
1F42
100
AcDbEntity
  8
0
 62
     0
100
AcDbLine
 10
190.612414432382
 20
351.5
 30
0.0
 11
192.5364949926915
 21
351.5
 31
0.0
  0
LINE
  5
1F45
330
1F42
100
AcDbEntity
  8
0
 62
     0
100
AcDbLine
 10
310.5929569816621
 20
351.5
 30
0.0
 11
312.5170375419712
 21
351.5
 31
0.0
  0
LINE
  5
1F46
330
1F42
100
AcDbEntity
  8
0
 62
     0
100
AcDbLine
 10
190.6288142052983
 20
351.6
 30
0.0
 11
193.5762607495951
 21
351.6
 31
0.0
  0
LINE
  5
1F47
330
1F42
100
AcDbEntity
  8
0
 62
     0
100
AcDbLine
 10
309.5531912247584
 20
351.6
 30
0.0
 11
312.500637769055
 21
351.6
 31
0.0
  0
LINE
  5
1F48
330
1F42
100
AcDbEntity
  8
0
 62
     0
100
AcDbLine
 10
190.6480546303345
 20
351.7
 30
0.0
 11
193.6229274162617
 21
351.7
 31
0.0
  0
LINE
  5
1F49
330
1F42
100
AcDbEntity
  8
0
 62
     0
100
AcDbLine
 10
309.5065245580918
 20
351.7
 30
0.0
 11
312.4813973440187
 21
351.7
 31
0.0
  0
LINE
  5
1F4A
330
1F42
100
AcDbEntity
  8
0
 62
     0
100
AcDbLine
 10
190.670181361743
 20
351.8
 30
0.0
 11
193.6695940829284
 21
351.8
 31
0.0
  0
LINE
  5
1F4B
330
1F42
100
AcDbEntity
  8
0
 62
     0
100
AcDbLine
 10
309.4598578914252
 20
351.8
 30
0.0
 11
312.4592706126102
 21
351.8
 31
0.0
  0
LINE
  5
1F4C
330
1F42
100
AcDbEntity
  8
0
 62
     0
100
AcDbLine
 10
190.6952481211951
 20
351.9000000000001
 30
0.0
 11
193.7162607495951
 21
351.9000000000001
 31
0.0
  0
LINE
  5
1F4D
330
1F42
100
AcDbEntity
  8
0
 62
     0
100
AcDbLine
 10
309.4131912247584
 20
351.9000000000001
 30
0.0
 11
312.434203853158
 21
351.9000000000001
 31
0.0
  0
LINE
  5
1F4E
330
1F42
100
AcDbEntity
  8
0
 62
     0
100
AcDbLine
 10
190.7233173929419
 20
352.0
 30
0.0
 11
193.7629274162617
 21
352.0
 31
0.0
  0
LINE
  5
1F4F
330
1F42
100
AcDbEntity
  8
0
 62
     0
100
AcDbLine
 10
309.3665245580918
 20
352.0
 30
0.0
 11
312.4061345814113
 21
352.0
 31
0.0
  0
LINE
  5
1F50
330
1F42
100
AcDbEntity
  8
0
 62
     0
100
AcDbLine
 10
190.7544612671035
 20
352.1
 30
0.0
 11
193.8095940829284
 21
352.1
 31
0.0
  0
LINE
  5
1F51
330
1F42
100
AcDbEntity
  8
0
 62
     0
100
AcDbLine
 10
309.3198578914252
 20
352.1
 30
0.0
 11
312.3749907072498
 21
352.1
 31
0.0
  0
LINE
  5
1F52
330
1F42
100
AcDbEntity
  8
0
 62
     0
100
AcDbLine
 10
190.7887624596064
 20
352.2000000000001
 30
0.0
 11
193.8562607495951
 21
352.2000000000001
 31
0.0
  0
LINE
  5
1F53
330
1F42
100
AcDbEntity
  8
0
 62
     0
100
AcDbLine
 10
309.2731912247585
 20
352.2000000000001
 30
0.0
 11
312.3406895147468
 21
352.2000000000001
 31
0.0
  0
LINE
  5
1F54
330
1F42
100
AcDbEntity
  8
0
 62
     0
100
AcDbLine
 10
190.826315545384
 20
352.3
 30
0.0
 11
193.9029274162617
 21
352.3
 31
0.0
  0
LINE
  5
1F55
330
1F42
100
AcDbEntity
  8
0
 62
     0
100
AcDbLine
 10
309.2265245580918
 20
352.3
 30
0.0
 11
312.3031364289693
 21
352.3
 31
0.0
  0
LINE
  5
1F56
330
1F42
100
AcDbEntity
  8
0
 62
     0
100
AcDbLine
 10
190.8672284520848
 20
352.4
 30
0.0
 11
193.9495940829284
 21
352.4
 31
0.0
  0
LINE
  5
1F57
330
1F42
100
AcDbEntity
  8
0
 62
     0
100
AcDbLine
 10
309.1798578914251
 20
352.4
 30
0.0
 11
312.2622235222685
 21
352.4
 31
0.0
  0
LINE
  5
1F58
330
1F42
100
AcDbEntity
  8
0
 62
     0
100
AcDbLine
 10
190.9116242756848
 20
352.5
 30
0.0
 11
193.9962607495951
 21
352.5
 31
0.0
  0
LINE
  5
1F59
330
1F42
100
AcDbEntity
  8
0
 62
     0
100
AcDbLine
 10
309.1331912247585
 20
352.5
 30
0.0
 11
312.2178276986685
 21
352.5
 31
0.0
  0
LINE
  5
1F5A
330
1F42
100
AcDbEntity
  8
0
 62
     0
100
AcDbLine
 10
190.9596434984848
 20
352.6
 30
0.0
 11
194.0429274162617
 21
352.6
 31
0.0
  0
LINE
  5
1F5B
330
1F42
100
AcDbEntity
  8
0
 62
     0
100
AcDbLine
 10
309.0865245580918
 20
352.6
 30
0.0
 11
312.1698084758684
 21
352.6
 31
0.0
  0
LINE
  5
1F5C
330
1F42
100
AcDbEntity
  8
0
 62
     0
100
AcDbLine
 10
191.011446716083
 20
352.7000000000001
 30
0.0
 11
194.0895940829284
 21
352.7000000000001
 31
0.0
  0
LINE
  5
1F5D
330
1F42
100
AcDbEntity
  8
0
 62
     0
100
AcDbLine
 10
309.0398578914251
 20
352.7000000000001
 30
0.0
 11
312.1180052582702
 21
352.7000000000001
 31
0.0
  0
LINE
  5
1F5E
330
1F42
100
AcDbEntity
  8
0
 62
     0
100
AcDbLine
 10
191.0672180161611
 20
352.8
 30
0.0
 11
194.1362607495951
 21
352.8
 31
0.0
  0
LINE
  5
1F5F
330
1F42
100
AcDbEntity
  8
0
 62
     0
100
AcDbLine
 10
308.9931912247585
 20
352.8
 30
0.0
 11
312.0622339581921
 21
352.8
 31
0.0
  0
LINE
  5
1F60
330
1F42
100
AcDbEntity
  8
0
 62
     0
100
AcDbLine
 10
191.1271692030514
 20
352.9
 30
0.0
 11
194.1829274162618
 21
352.9
 31
0.0
  0
LINE
  5
1F61
330
1F42
100
AcDbEntity
  8
0
 62
     0
100
AcDbLine
 10
308.9465245580918
 20
352.9
 30
0.0
 11
312.0022827713017
 21
352.9
 31
0.0
  0
LINE
  5
1F62
330
1F42
100
AcDbEntity
  8
0
 62
     0
100
AcDbLine
 10
191.1915451354295
 20
353.0
 30
0.0
 11
194.2295940829284
 21
353.0
 31
0.0
  0
LINE
  5
1F63
330
1F42
100
AcDbEntity
  8
0
 62
     0
100
AcDbLine
 10
308.8998578914251
 20
353.0
 30
0.0
 11
311.9379068389237
 21
353.0
 31
0.0
  0
LINE
  5
1F64
330
1F42
100
AcDbEntity
  8
0
 62
     0
100
AcDbLine
 10
191.2606305517925
 20
353.1
 30
0.0
 11
194.2762607495951
 21
353.1
 31
0.0
  0
LINE
  5
1F65
330
1F42
100
AcDbEntity
  8
0
 62
     0
100
AcDbLine
 10
308.8531912247585
 20
353.1
 30
0.0
 11
311.8688214225607
 21
353.1
 31
0.0
  0
LINE
  5
1F66
330
1F42
100
AcDbEntity
  8
0
 62
     0
100
AcDbLine
 10
191.3347589186628
 20
353.2
 30
0.0
 11
194.3229274162618
 21
353.2
 31
0.0
  0
LINE
  5
1F67
330
1F42
100
AcDbEntity
  8
0
 62
     0
100
AcDbLine
 10
308.8065245580918
 20
353.2
 30
0.0
 11
311.7946930556903
 21
353.2
 31
0.0
  0
LINE
  5
1F68
330
1F42
100
AcDbEntity
  8
0
 62
     0
100
AcDbLine
 10
191.4143240814895
 20
353.3
 30
0.0
 11
194.3695940829284
 21
353.3
 31
0.0
  0
LINE
  5
1F69
330
1F42
100
AcDbEntity
  8
0
 62
     0
100
AcDbLine
 10
308.7598578914251
 20
353.3
 30
0.0
 11
311.7151278928637
 21
353.3
 31
0.0
  0
LINE
  5
1F6A
330
1F42
100
AcDbEntity
  8
0
 62
     0
100
AcDbLine
 10
191.499795882782
 20
353.4
 30
0.0
 11
194.4162607495951
 21
353.4
 31
0.0
  0
LINE
  5
1F6B
330
1F42
100
AcDbEntity
  8
0
 62
     0
100
AcDbLine
 10
308.7131912247585
 20
353.4
 30
0.0
 11
311.6296560915712
 21
353.4
 31
0.0
  0
LINE
  5
1F6C
330
1F42
100
AcDbEntity
  8
0
 62
     0
100
AcDbLine
 10
191.5917415337822
 20
353.5
 30
0.0
 11
194.4629274162617
 21
353.5
 31
0.0
  0
LINE
  5
1F6D
330
1F42
100
AcDbEntity
  8
0
 62
     0
100
AcDbLine
 10
308.6665245580919
 20
353.5
 30
0.0
 11
311.5377104405709
 21
353.5
 31
0.0
  0
LINE
  5
1F6E
330
1F42
100
AcDbEntity
  8
0
 62
     0
100
AcDbLine
 10
191.690855566055
 20
353.6
 30
0.0
 11
194.5095940829284
 21
353.6
 31
0.0
  0
LINE
  5
1F6F
330
1F42
100
AcDbEntity
  8
0
 62
     0
100
AcDbLine
 10
308.6198578914252
 20
353.6
 30
0.0
 11
311.4385964082982
 21
353.6
 31
0.0
  0
LINE
  5
1F70
330
1F42
100
AcDbEntity
  8
0
 62
     0
100
AcDbLine
 10
191.7980029989986
 20
353.7
 30
0.0
 11
194.5562607495951
 21
353.7
 31
0.0
  0
LINE
  5
1F71
330
1F42
100
AcDbEntity
  8
0
 62
     0
100
AcDbLine
 10
308.5731912247585
 20
353.7
 30
0.0
 11
311.3314489753545
 21
353.7
 31
0.0
  0
LINE
  5
1F72
330
1F42
100
AcDbEntity
  8
0
 62
     0
100
AcDbLine
 10
191.9142836563048
 20
353.8
 30
0.0
 11
194.6029274162617
 21
353.8
 31
0.0
  0
LINE
  5
1F73
330
1F42
100
AcDbEntity
  8
0
 62
     0
100
AcDbLine
 10
308.5265245580918
 20
353.8
 30
0.0
 11
311.2151683180483
 21
353.8
 31
0.0
  0
LINE
  5
1F74
330
1F42
100
AcDbEntity
  8
0
 62
     0
100
AcDbLine
 10
192.0411319096494
 20
353.9000000000001
 30
0.0
 11
194.6495940829284
 21
353.9000000000001
 31
0.0
  0
LINE
  5
1F75
330
1F42
100
AcDbEntity
  8
0
 62
     0
100
AcDbLine
 10
308.4798578914251
 20
353.9000000000001
 30
0.0
 11
311.0883200647037
 21
353.9000000000001
 31
0.0
  0
LINE
  5
1F76
330
1F42
100
AcDbEntity
  8
0
 62
     0
100
AcDbLine
 10
192.1804791774855
 20
354.0
 30
0.0
 11
194.6962607495951
 21
354.0
 31
0.0
  0
LINE
  5
1F77
330
1F42
100
AcDbEntity
  8
0
 62
     0
100
AcDbLine
 10
308.4331912247585
 20
354.0
 30
0.0
 11
310.9489727968675
 21
354.0
 31
0.0
  0
LINE
  5
1F78
330
1F42
100
AcDbEntity
  8
0
 62
     0
100
AcDbLine
 10
192.3350356468166
 20
354.1
 30
0.0
 11
194.7429274162617
 21
354.1
 31
0.0
  0
LINE
  5
1F79
330
1F42
100
AcDbEntity
  8
0
 62
     0
100
AcDbLine
 10
308.3865245580918
 20
354.1
 30
0.0
 11
310.7944163275364
 21
354.1
 31
0.0
  0
LINE
  5
1F7A
330
1F42
100
AcDbEntity
  8
0
 62
     0
100
AcDbLine
 10
192.5088199826038
 20
354.2000000000001
 30
0.0
 11
194.7895940829284
 21
354.2000000000001
 31
0.0
  0
LINE
  5
1F7B
330
1F42
100
AcDbEntity
  8
0
 62
     0
100
AcDbLine
 10
308.3398578914251
 20
354.2000000000001
 30
0.0
 11
310.6206319917492
 21
354.2000000000001
 31
0.0
  0
LINE
  5
1F7C
330
1F42
100
AcDbEntity
  8
0
 62
     0
100
AcDbLine
 10
192.7082722673621
 20
354.3
 30
0.0
 11
194.8362607495951
 21
354.3
 31
0.0
  0
LINE
  5
1F7D
330
1F42
100
AcDbEntity
  8
0
 62
     0
100
AcDbLine
 10
308.2931912247585
 20
354.3
 30
0.0
 11
310.4211797069908
 21
354.3
 31
0.0
  0
LINE
  5
1F7E
330
1F42
100
AcDbEntity
  8
0
 62
     0
100
AcDbLine
 10
192.9450063911723
 20
354.4
 30
0.0
 11
194.8829274162617
 21
354.4
 31
0.0
  0
LINE
  5
1F7F
330
1F42
100
AcDbEntity
  8
0
 62
     0
100
AcDbLine
 10
308.2465245580918
 20
354.4
 30
0.0
 11
310.1844455831805
 21
354.4
 31
0.0
  0
LINE
  5
1F80
330
1F42
100
AcDbEntity
  8
0
 62
     0
100
AcDbLine
 10
193.2447349534289
 20
354.5
 30
0.0
 11
194.9295940829284
 21
354.5
 31
0.0
  0
LINE
  5
1F81
330
1F42
100
AcDbEntity
  8
0
 62
     0
100
AcDbLine
 10
308.1998578914252
 20
354.5
 30
0.0
 11
309.8847170209236
 21
354.5
 31
0.0
  0
LINE
  5
1F82
330
1F42
100
AcDbEntity
  8
0
 62
     0
100
AcDbLine
 10
190.5988171554517
 20
351.4
 30
0.0
 11
192.4989949926915
 21
351.4
 31
0.0
  0
LINE
  5
1F83
330
1F42
100
AcDbEntity
  8
0
 62
     0
100
AcDbLine
 10
310.6304569816621
 20
351.4
 30
0.0
 11
312.5306348189015
 21
351.4
 31
0.0
  0
LINE
  5
1F84
330
1F42
100
AcDbEntity
  8
0
 62
     0
100
AcDbLine
 10
190.5879912556757
 20
351.3
 30
0.0
 11
192.4614949926915
 21
351.3
 31
0.0
  0
LINE
  5
1F85
330
1F42
100
AcDbEntity
  8
0
 62
     0
100
AcDbLine
 10
310.6679569816621
 20
351.3
 30
0.0
 11
312.5414607186775
 21
351.3
 31
0.0
  0
LINE
  5
1F86
330
1F42
100
AcDbEntity
  8
0
 62
     0
100
AcDbLine
 10
190.5799122857182
 20
351.2
 30
0.0
 11
192.4239949926915
 21
351.2
 31
0.0
  0
LINE
  5
1F87
330
1F42
100
AcDbEntity
  8
0
 62
     0
100
AcDbLine
 10
310.7054569816621
 20
351.2
 30
0.0
 11
312.5495396886351
 21
351.2
 31
0.0
  0
LINE
  5
1F88
330
1F42
100
AcDbEntity
  8
0
 62
     0
100
AcDbLine
 10
190.574562188627
 20
351.1
 30
0.0
 11
192.3864949926915
 21
351.1
 31
0.0
  0
LINE
  5
1F89
330
1F42
100
AcDbEntity
  8
0
 62
     0
100
AcDbLine
 10
310.7429569816621
 20
351.1
 30
0.0
 11
312.5548897857262
 21
351.1
 31
0.0
  0
LINE
  5
1F8A
330
1F42
100
AcDbEntity
  8
0
 62
     0
100
AcDbLine
 10
190.5719290937263
 20
351.0
 30
0.0
 11
192.3489949926915
 21
351.0
 31
0.0
  0
LINE
  5
1F8B
330
1F42
100
AcDbEntity
  8
0
 62
     0
100
AcDbLine
 10
310.7804569816621
 20
351.0
 30
0.0
 11
312.557522880627
 21
351.0
 31
0.0
  0
LINE
  5
1F8C
330
1F42
100
AcDbEntity
  8
0
 62
     0
100
AcDbLine
 10
190.5720071840594
 20
350.9
 30
0.0
 11
192.3114949926915
 21
350.9
 31
0.0
  0
LINE
  5
1F8D
330
1F42
100
AcDbEntity
  8
0
 62
     0
100
AcDbLine
 10
310.8179569816621
 20
350.9
 30
0.0
 11
312.5574447902939
 21
350.9
 31
0.0
  0
LINE
  5
1F8E
330
1F42
100
AcDbEntity
  8
0
 62
     0
100
AcDbLine
 10
190.5747966319019
 20
350.8
 30
0.0
 11
192.2739949926915
 21
350.8
 31
0.0
  0
LINE
  5
1F8F
330
1F42
100
AcDbEntity
  8
0
 62
     0
100
AcDbLine
 10
310.8554569816621
 20
350.8
 30
0.0
 11
312.5546553424513
 21
350.8
 31
0.0
  0
LINE
  5
1F90
330
1F42
100
AcDbEntity
  8
0
 62
     0
100
AcDbLine
 10
190.5803036006673
 20
350.7000000000001
 30
0.0
 11
192.2364949926915
 21
350.7000000000001
 31
0.0
  0
LINE
  5
1F91
330
1F42
100
AcDbEntity
  8
0
 62
     0
100
AcDbLine
 10
310.8929569816621
 20
350.7000000000001
 30
0.0
 11
312.549148373686
 21
350.7000000000001
 31
0.0
  0
LINE
  5
1F92
330
1F42
100
AcDbEntity
  8
0
 62
     0
100
AcDbLine
 10
190.5885403132538
 20
350.6
 30
0.0
 11
192.1989949926915
 21
350.6
 31
0.0
  0
LINE
  5
1F93
330
1F42
100
AcDbEntity
  8
0
 62
     0
100
AcDbLine
 10
310.9304569816621
 20
350.6
 30
0.0
 11
312.5409116610994
 21
350.6
 31
0.0
  0
LINE
  5
1F94
330
1F42
100
AcDbEntity
  8
0
 62
     0
100
AcDbLine
 10
190.5995251886124
 20
350.5
 30
0.0
 11
192.1614949926915
 21
350.5
 31
0.0
  0
LINE
  5
1F95
330
1F42
100
AcDbEntity
  8
0
 62
     0
100
AcDbLine
 10
310.9679569816621
 20
350.5
 30
0.0
 11
312.5299267857408
 21
350.5
 31
0.0
  0
LINE
  5
1F96
330
1F42
100
AcDbEntity
  8
0
 62
     0
100
AcDbLine
 10
190.6132830501235
 20
350.4
 30
0.0
 11
192.1239949926915
 21
350.4
 31
0.0
  0
LINE
  5
1F97
330
1F42
100
AcDbEntity
  8
0
 62
     0
100
AcDbLine
 10
311.0054569816621
 20
350.4
 30
0.0
 11
312.5161689242298
 21
350.4
 31
0.0
  0
LINE
  5
1F98
330
1F42
100
AcDbEntity
  8
0
 62
     0
100
AcDbLine
 10
190.6298454113575
 20
350.3
 30
0.0
 11
192.0864949926914
 21
350.3
 31
0.0
  0
LINE
  5
1F99
330
1F42
100
AcDbEntity
  8
0
 62
     0
100
AcDbLine
 10
311.0429569816621
 20
350.3
 30
0.0
 11
312.4996065629957
 21
350.3
 31
0.0
  0
LINE
  5
1F9A
330
1F42
100
AcDbEntity
  8
0
 62
     0
100
AcDbLine
 10
190.6492508470496
 20
350.2000000000001
 30
0.0
 11
192.0489949926915
 21
350.2000000000001
 31
0.0
  0
LINE
  5
1F9B
330
1F42
100
AcDbEntity
  8
0
 62
     0
100
AcDbLine
 10
311.0804569816621
 20
350.2000000000001
 30
0.0
 11
312.4802011273037
 21
350.2000000000001
 31
0.0
  0
LINE
  5
1F9C
330
1F42
100
AcDbEntity
  8
0
 62
     0
100
AcDbLine
 10
190.6715454597668
 20
350.1
 30
0.0
 11
192.0114949926915
 21
350.1
 31
0.0
  0
LINE
  5
1F9D
330
1F42
100
AcDbEntity
  8
0
 62
     0
100
AcDbLine
 10
311.1179569816621
 20
350.1
 30
0.0
 11
312.4579065145864
 21
350.1
 31
0.0
  0
LINE
  5
1F9E
330
1F42
100
AcDbEntity
  8
0
 62
     0
100
AcDbLine
 10
190.6967834559488
 20
350.0
 30
0.0
 11
191.9739949926915
 21
350.0
 31
0.0
  0
LINE
  5
1F9F
330
1F42
100
AcDbEntity
  8
0
 62
     0
100
AcDbLine
 10
311.1554569816621
 20
350.0
 30
0.0
 11
312.4326685184044
 21
350.0
 31
0.0
  0
LINE
  5
1FA0
330
1F42
100
AcDbEntity
  8
0
 62
     0
100
AcDbLine
 10
190.7250278489465
 20
349.9
 30
0.0
 11
191.9364949926915
 21
349.9
 31
0.0
  0
LINE
  5
1FA1
330
1F42
100
AcDbEntity
  8
0
 62
     0
100
AcDbLine
 10
311.192956981662
 20
349.9
 30
0.0
 11
312.4044241254066
 21
349.9
 31
0.0
  0
LINE
  5
1FA2
330
1F42
100
AcDbEntity
  8
0
 62
     0
100
AcDbLine
 10
190.7563513116496
 20
349.8
 30
0.0
 11
191.8989949926915
 21
349.8
 31
0.0
  0
LINE
  5
1FA3
330
1F42
100
AcDbEntity
  8
0
 62
     0
100
AcDbLine
 10
311.2304569816621
 20
349.8
 30
0.0
 11
312.3731006627036
 21
349.8
 31
0.0
  0
LINE
  5
1FA4
330
1F42
100
AcDbEntity
  8
0
 62
     0
100
AcDbLine
 10
190.7908372076298
 20
349.7
 30
0.0
 11
191.8614949926915
 21
349.7
 31
0.0
  0
LINE
  5
1FA5
330
1F42
100
AcDbEntity
  8
0
 62
     0
100
AcDbLine
 10
311.267956981662
 20
349.7
 30
0.0
 11
312.3386147667233
 21
349.7
 31
0.0
  0
LINE
  5
1FA6
330
1F42
100
AcDbEntity
  8
0
 62
     0
100
AcDbLine
 10
190.8285808379538
 20
349.6
 30
0.0
 11
191.8239949926915
 21
349.6
 31
0.0
  0
LINE
  5
1FA7
330
1F42
100
AcDbEntity
  8
0
 62
     0
100
AcDbLine
 10
311.3054569816621
 20
349.6
 30
0.0
 11
312.3008711363994
 21
349.6
 31
0.0
  0
LINE
  5
1FA8
330
1F42
100
AcDbEntity
  8
0
 62
     0
100
AcDbLine
 10
190.8696909516178
 20
349.5
 30
0.0
 11
191.7864949926915
 21
349.5
 31
0.0
  0
LINE
  5
1FA9
330
1F42
100
AcDbEntity
  8
0
 62
     0
100
AcDbLine
 10
311.3429569816621
 20
349.5
 30
0.0
 11
312.2597610227354
 21
349.5
 31
0.0
  0
LINE
  5
1FAA
330
1F42
100
AcDbEntity
  8
0
 62
     0
100
AcDbLine
 10
190.9142915819501
 20
349.4
 30
0.0
 11
191.7489949926915
 21
349.4
 31
0.0
  0
LINE
  5
1FAB
330
1F42
100
AcDbEntity
  8
0
 62
     0
100
AcDbLine
 10
311.3804569816621
 20
349.4
 30
0.0
 11
312.2151603924031
 21
349.4
 31
0.0
  0
LINE
  5
1FAC
330
1F42
100
AcDbEntity
  8
0
 62
     0
100
AcDbLine
 10
190.9625242907511
 20
349.3
 30
0.0
 11
191.7114949926915
 21
349.3
 31
0.0
  0
LINE
  5
1FAD
330
1F42
100
AcDbEntity
  8
0
 62
     0
100
AcDbLine
 10
311.4179569816621
 20
349.3
 30
0.0
 11
312.1669276836021
 21
349.3
 31
0.0
  0
LINE
  5
1FAE
330
1F42
100
AcDbEntity
  8
0
 62
     0
100
AcDbLine
 10
191.0145509285394
 20
349.2
 30
0.0
 11
191.6739949926915
 21
349.2
 31
0.0
  0
LINE
  5
1FAF
330
1F42
100
AcDbEntity
  8
0
 62
     0
100
AcDbLine
 10
311.4554569816621
 20
349.2
 30
0.0
 11
312.1149010458138
 21
349.2
 31
0.0
  0
LINE
  5
1FB0
330
1F42
100
AcDbEntity
  8
0
 62
     0
100
AcDbLine
 10
191.0705570562285
 20
349.1
 30
0.0
 11
191.6364949926915
 21
349.1
 31
0.0
  0
LINE
  5
1FB1
330
1F42
100
AcDbEntity
  8
0
 62
     0
100
AcDbLine
 10
311.4929569816621
 20
349.1
 30
0.0
 11
312.0588949181247
 21
349.1
 31
0.0
  0
LINE
  5
1FB2
330
1F42
100
AcDbEntity
  8
0
 62
     0
100
AcDbLine
 10
191.1307562257374
 20
349.0
 30
0.0
 11
191.5989949926915
 21
349.0
 31
0.0
  0
LINE
  5
1FB3
330
1F42
100
AcDbEntity
  8
0
 62
     0
100
AcDbLine
 10
311.5304569816621
 20
349.0
 30
0.0
 11
311.9986957486158
 21
349.0
 31
0.0
  0
LINE
  5
1FB4
330
1F42
100
AcDbEntity
  8
0
 62
     0
100
AcDbLine
 10
191.1953953920023
 20
348.9
 30
0.0
 11
191.5614949926915
 21
348.9
 31
0.0
  0
LINE
  5
1FB5
330
1F42
100
AcDbEntity
  8
0
 62
     0
100
AcDbLine
 10
311.5679569816621
 20
348.9
 30
0.0
 11
311.9340565823509
 21
348.9
 31
0.0
  0
LINE
  5
1FB6
330
1F42
100
AcDbEntity
  8
0
 62
     0
100
AcDbLine
 10
191.2647618386168
 20
348.8
 30
0.0
 11
191.5239949926915
 21
348.8
 31
0.0
  0
LINE
  5
1FB7
330
1F42
100
AcDbEntity
  8
0
 62
     0
100
AcDbLine
 10
311.6054569816621
 20
348.8
 30
0.0
 11
311.8646901357364
 21
348.8
 31
0.0
  0
LINE
  5
1FB8
330
1F42
100
AcDbEntity
  8
0
 62
     0
100
AcDbLine
 10
191.339192163467
 20
348.7
 30
0.0
 11
191.4864949926915
 21
348.7
 31
0.0
  0
LINE
  5
1FB9
330
1F42
100
AcDbEntity
  8
0
 62
     0
100
AcDbLine
 10
311.6429569816621
 20
348.7
 30
0.0
 11
311.7902598108861
 21
348.7
 31
0.0
  0
LINE
  5
1FBA
330
1F42
100
AcDbEntity
  8
0
 62
     0
100
AcDbLine
 10
191.4190841220226
 20
348.6
 30
0.0
 11
191.4489949926915
 21
348.6
 31
0.0
  0
LINE
  5
1FBB
330
1F42
100
AcDbEntity
  8
0
 62
     0
100
AcDbLine
 10
311.6804569816621
 20
348.6
 30
0.0
 11
311.7103678523306
 21
348.6
 31
0.0
  0
ENDBLK
  5
1FBC
330
1F42
100
AcDbEntity
  8
0
100
AcDbBlockEnd
  0
BLOCK
  5
22CF
330
22C5
100
AcDbEntity
  8
0
100
AcDbBlockBegin
  2
*D2
 70
     1
 10
0.0
 20
0.0
 30
0.0
  3
*D2
  1

  0
LINE
  5
22DD
330
22C5
100
AcDbEntity
  8
BEM
 62
     0
370
    -2
100
AcDbLine
 10
158.4999999999997
 20
279.6473276659382
 30
0.0
 11
158.4999999999997
 21
249.4623322985414
 31
0.0
  0
LINE
  5
22DE
330
22C5
100
AcDbEntity
  8
BEM
 62
     0
370
    -2
100
AcDbLine
 10
291.4999999999997
 20
279.756480023208
 30
0.0
 11
291.4999999999997
 21
249.4623322985414
 31
0.0
  0
LINE
  5
22DF
330
22C5
100
AcDbEntity
  8
BEM
 62
     0
370
    -2
100
AcDbLine
 10
165.4999999999997
 20
251.4623322985414
 30
0.0
 11
284.4999999999997
 21
251.4623322985414
 31
0.0
  0
SOLID
  5
22E0
330
22C5
100
AcDbEntity
  8
BEM
 62
     0
100
AcDbTrace
 10
165.4999999999997
 20
252.6289989652081
 30
0.0
 11
165.4999999999997
 21
250.2956656318747
 31
0.0
 12
158.4999999999997
 22
251.4623322985414
 32
0.0
 13
158.4999999999997
 23
251.4623322985414
 33
0.0
  0
SOLID
  5
22E1
330
22C5
100
AcDbEntity
  8
BEM
 62
     0
100
AcDbTrace
 10
284.4999999999997
 20
252.6289989652081
 30
0.0
 11
284.4999999999997
 21
250.2956656318747
 31
0.0
 12
291.4999999999997
 22
251.4623322985414
 32
0.0
 13
291.4999999999997
 23
251.4623322985414
 33
0.0
  0
MTEXT
  5
22E2
330
22C5
100
AcDbEntity
  8
BEM
 62
     1
100
AcDbMText
 10
224.9999999999997
 20
257.9623322985414
 30
0.0
 40
7.0
 41
0.0
 71
     5
 72
     1
  1
\A1;%%c133
  7
GREEKS
 73
     1
 44
1.0
  0
POINT
  5
22E3
330
22C5
100
AcDbEntity
  8
DEFPOINTS
 62
     0
100
AcDbPoint
 10
158.4999999999997
 20
281.6473276659382
 30
0.0
  0
POINT
  5
22E4
330
22C5
100
AcDbEntity
  8
DEFPOINTS
 62
     0
100
AcDbPoint
 10
291.4999999999997
 20
281.756480023208
 30
0.0
  0
POINT
  5
22E5
330
22C5
100
AcDbEntity
  8
DEFPOINTS
 62
     0
100
AcDbPoint
 10
291.4999999999997
 20
251.4623322985414
 30
0.0
  0
ENDBLK
  5
22D0
330
22C5
100
AcDbEntity
  8
0
100
AcDbBlockEnd
  0
BLOCK
  5
2377
330
236C
100
AcDbEntity
  8
0
100
AcDbBlockBegin
  2
*D4
 70
     1
 10
0.0
 20
0.0
 30
0.0
  3
*D4
  1

  0
LINE
  5
23C5
330
236C
100
AcDbEntity
  8
BEM
 62
     0
370
    -2
100
AcDbLine
 10
158.4999999999999
 20
505.7564800232079
 30
0.0
 11
158.4999999999999
 21
532.1221447248883
 31
0.0
  0
LINE
  5
23C6
330
236C
100
AcDbEntity
  8
BEM
 62
     0
370
    -2
100
AcDbLine
 10
291.5
 20
505.7564800232083
 30
0.0
 11
291.5
 21
532.1221447248883
 31
0.0
  0
LINE
  5
23C7
330
236C
100
AcDbEntity
  8
BEM
 62
     0
370
    -2
100
AcDbLine
 10
165.4999999999999
 20
530.1221447248884
 30
0.0
 11
284.4999999999999
 21
530.1221447248884
 31
0.0
  0
SOLID
  5
23C8
330
236C
100
AcDbEntity
  8
BEM
 62
     0
100
AcDbTrace
 10
165.4999999999999
 20
531.2888113915549
 30
0.0
 11
165.4999999999999
 21
528.9554780582217
 31
0.0
 12
158.4999999999999
 22
530.1221447248884
 32
0.0
 13
158.4999999999999
 23
530.1221447248884
 33
0.0
  0
SOLID
  5
23C9
330
236C
100
AcDbEntity
  8
BEM
 62
     0
100
AcDbTrace
 10
284.4999999999999
 20
531.2888113915549
 30
0.0
 11
284.4999999999999
 21
528.9554780582217
 31
0.0
 12
291.5
 22
530.1221447248884
 32
0.0
 13
291.5
 23
530.1221447248884
 33
0.0
  0
MTEXT
  5
23CA
330
236C
100
AcDbEntity
  8
BEM
 62
     1
100
AcDbMText
 10
225.0
 20
536.6221447248883
 30
0.0
 40
7.0
 41
0.0
 71
     5
 72
     1
  1
\A1;%%C133
 73
     1
 44
1.0
  0
POINT
  5
23CB
330
236C
100
AcDbEntity
  8
DEFPOINTS
 62
     0
100
AcDbPoint
 10
158.4999999999999
 20
503.756480023208
 30
0.0
  0
POINT
  5
23CC
330
236C
100
AcDbEntity
  8
DEFPOINTS
 62
     0
100
AcDbPoint
 10
291.5
 20
503.7564800232082
 30
0.0
  0
POINT
  5
23CD
330
236C
100
AcDbEntity
  8
DEFPOINTS
 62
     0
100
AcDbPoint
 10
291.5
 20
530.1221447248884
 30
0.0
  0
ENDBLK
  5
2378
330
236C
100
AcDbEntity
  8
0
100
AcDbBlockEnd
  0
BLOCK
  5
2384
330
2379
100
AcDbEntity
  8
0
100
AcDbBlockBegin
  2
*D5
 70
     1
 10
0.0
 20
0.0
 30
0.0
  3
*D5
  1

  0
LINE
  5
23BC
330
2379
100
AcDbEntity
  8
BEM
 62
     0
370
    -2
100
AcDbLine
 10
171.5000000000001
 20
505.756480023208
 30
0.0
 11
171.5000000000001
 21
515.2049692552814
 31
0.0
  0
LINE
  5
23BD
330
2379
100
AcDbEntity
  8
BEM
 62
     0
370
    -2
100
AcDbLine
 10
278.4999999999997
 20
505.7564800232082
 30
0.0
 11
278.4999999999997
 21
515.2049692552814
 31
0.0
  0
LINE
  5
23BE
330
2379
100
AcDbEntity
  8
BEM
 62
     0
370
    -2
100
AcDbLine
 10
178.5000000000001
 20
513.2049692552814
 30
0.0
 11
271.4999999999997
 21
513.2049692552814
 31
0.0
  0
SOLID
  5
23BF
330
2379
100
AcDbEntity
  8
BEM
 62
     0
100
AcDbTrace
 10
178.5000000000001
 20
514.371635921948
 30
0.0
 11
178.5000000000001
 21
512.0383025886147
 31
0.0
 12
171.5000000000001
 22
513.2049692552814
 32
0.0
 13
171.5000000000001
 23
513.2049692552814
 33
0.0
  0
SOLID
  5
23C0
330
2379
100
AcDbEntity
  8
BEM
 62
     0
100
AcDbTrace
 10
271.4999999999997
 20
514.371635921948
 30
0.0
 11
271.4999999999997
 21
512.0383025886147
 31
0.0
 12
278.4999999999997
 22
513.2049692552814
 32
0.0
 13
278.4999999999997
 23
513.2049692552814
 33
0.0
  0
MTEXT
  5
23C1
330
2379
100
AcDbEntity
  8
BEM
 62
     1
100
AcDbMText
 10
224.9999999999999
 20
519.7049692552814
 30
0.0
 40
7.0
 41
0.0
 71
     5
 72
     1
  1
\A1;%%C107
 73
     1
 44
1.0
  0
POINT
  5
23C2
330
2379
100
AcDbEntity
  8
DEFPOINTS
 62
     0
100
AcDbPoint
 10
171.5000000000001
 20
503.756480023208
 30
0.0
  0
POINT
  5
23C3
330
2379
100
AcDbEntity
  8
DEFPOINTS
 62
     0
100
AcDbPoint
 10
278.4999999999997
 20
503.7564800232082
 30
0.0
  0
POINT
  5
23C4
330
2379
100
AcDbEntity
  8
DEFPOINTS
 62
     0
100
AcDbPoint
 10
278.4999999999997
 20
513.2049692552814
 30
0.0
  0
ENDBLK
  5
2385
330
2379
100
AcDbEntity
  8
0
100
AcDbBlockEnd
  0
BLOCK
  5
23EA
330
23E0
100
AcDbEntity
  8
0
100
AcDbBlockBegin
  2
*D8
 70
     1
 10
0.0
 20
0.0
 30
0.0
  3
*D8
  1

  0
LINE
  5
2566
330
23E0
100
AcDbEntity
  8
BEM
 62
     0
370
    -2
100
AcDbLine
 10
309.1499999999998
 20
329.7564800232079
 30
0.0
 11
309.1499999999998
 21
230.7539778306495
 31
0.0
  0
LINE
  5
2567
330
23E0
100
AcDbEntity
  8
BEM
 62
     0
370
    -2
100
AcDbLine
 10
140.8499999999998
 20
329.7564800232079
 30
0.0
 11
140.8499999999998
 21
230.7539778306495
 31
0.0
  0
LINE
  5
2568
330
23E0
100
AcDbEntity
  8
BEM
 62
     0
370
    -2
100
AcDbLine
 10
302.1499999999998
 20
232.7539778306495
 30
0.0
 11
147.8499999999998
 21
232.7539778306495
 31
0.0
  0
SOLID
  5
2569
330
23E0
100
AcDbEntity
  8
BEM
 62
     0
100
AcDbTrace
 10
302.1499999999998
 20
233.9206444973162
 30
0.0
 11
302.1499999999998
 21
231.5873111639829
 31
0.0
 12
309.1499999999998
 22
232.7539778306495
 32
0.0
 13
309.1499999999998
 23
232.7539778306495
 33
0.0
  0
SOLID
  5
256A
330
23E0
100
AcDbEntity
  8
BEM
 62
     0
100
AcDbTrace
 10
147.8499999999998
 20
233.9206444973162
 30
0.0
 11
147.8499999999998
 21
231.5873111639829
 31
0.0
 12
140.8499999999998
 22
232.7539778306495
 32
0.0
 13
140.8499999999998
 23
232.7539778306495
 33
0.0
  0
MTEXT
  5
256B
330
23E0
100
AcDbEntity
  8
BEM
 62
     1
100
AcDbMText
 10
224.9999999999998
 20
239.2539778306495
 30
0.0
 40
7.0
 41
0.0
 71
     5
 72
     1
  1
\A1;%%c168.3
 73
     1
 44
1.0
  0
POINT
  5
256C
330
23E0
100
AcDbEntity
  8
DEFPOINTS
 62
     0
100
AcDbPoint
 10
309.1499999999998
 20
331.7564800232079
 30
0.0
  0
POINT
  5
256D
330
23E0
100
AcDbEntity
  8
DEFPOINTS
 62
     0
100
AcDbPoint
 10
140.8499999999998
 20
331.7564800232079
 30
0.0
  0
POINT
  5
256E
330
23E0
100
AcDbEntity
  8
DEFPOINTS
 62
     0
100
AcDbPoint
 10
140.8499999999998
 20
232.7539778306495
 30
0.0
  0
ENDBLK
  5
23EB
330
23E0
100
AcDbEntity
  8
0
100
AcDbBlockEnd
  0
BLOCK
  5
242E
330
2424
100
AcDbEntity
  8
0
100
AcDbBlockBegin
  2
*D11
 70
     1
 10
0.0
 20
0.0
 30
0.0
  3
*D11
  1

  0
LINE
  5
2425
330
2424
100
AcDbEntity
  8
BEM
 62
     0
370
    -2
100
AcDbLine
 10
138.8499999999998
 20
333.7564800232079
 30
0.0
 11
115.5046908452982
 21
333.756480023208
 31
0.0
  0
LINE
  5
2426
330
2424
100
AcDbEntity
  8
BEM
 62
     0
370
    -2
100
AcDbLine
 10
157.1903597143489
 20
273.7564800232079
 30
0.0
 11
115.5046908452982
 21
273.756480023208
 31
0.0
  0
LINE
  5
2427
330
2424
100
AcDbEntity
  8
BEM
 62
     0
370
    -2
100
AcDbLine
 10
117.5046908452982
 20
326.756480023208
 30
0.0
 11
117.5046908452982
 21
280.756480023208
 31
0.0
  0
SOLID
  5
2428
330
2424
100
AcDbEntity
  8
BEM
 62
     0
100
AcDbTrace
 10
116.3380241786315
 20
326.756480023208
 30
0.0
 11
118.6713575119649
 21
326.756480023208
 31
0.0
 12
117.5046908452982
 22
333.756480023208
 32
0.0
 13
117.5046908452982
 23
333.756480023208
 33
0.0
  0
SOLID
  5
2429
330
2424
100
AcDbEntity
  8
BEM
 62
     0
100
AcDbTrace
 10
116.3380241786315
 20
280.756480023208
 30
0.0
 11
118.6713575119648
 21
280.756480023208
 31
0.0
 12
117.5046908452982
 22
273.756480023208
 32
0.0
 13
117.5046908452982
 23
273.756480023208
 33
0.0
  0
MTEXT
  5
242A
330
2424
100
AcDbEntity
  8
BEM
 62
     1
100
AcDbMText
 10
111.0046908452981
 20
303.756480023208
 30
0.0
 40
7.0
 41
0.0
 71
     5
 72
     1
  1
\A1;60
 11
0.0000000000000001
 21
1.0
 31
0.0
 73
     1
 44
1.0
  0
POINT
  5
242B
330
2424
100
AcDbEntity
  8
DEFPOINTS
 62
     0
100
AcDbPoint
 10
140.8499999999998
 20
333.7564800232079
 30
0.0
  0
POINT
  5
242C
330
2424
100
AcDbEntity
  8
DEFPOINTS
 62
     0
100
AcDbPoint
 10
159.1903597143489
 20
273.7564800232079
 30
0.0
  0
POINT
  5
242D
330
2424
100
AcDbEntity
  8
DEFPOINTS
 62
     0
100
AcDbPoint
 10
117.5046908452982
 20
273.756480023208
 30
0.0
  0
ENDBLK
  5
242F
330
2424
100
AcDbEntity
  8
0
100
AcDbBlockEnd
  0
BLOCK
  5
243B
330
2431
100
AcDbEntity
  8
0
100
AcDbBlockBegin
  2
*D12
 70
     1
 10
0.0
 20
0.0
 30
0.0
  3
*D12
  1

  0
LINE
  5
2432
330
2431
100
AcDbEntity
  8
BEM
 62
     0
370
    -2
100
AcDbLine
 10
156.4999999999999
 20
503.756480023208
 30
0.0
 11
101.6881218163108
 21
503.756480023208
 31
0.0
  0
LINE
  5
2433
330
2431
100
AcDbEntity
  8
BEM
 62
     0
370
    -2
100
AcDbLine
 10
157.1903597143489
 20
273.7564800232079
 30
0.0
 11
101.6881218163107
 21
273.756480023208
 31
0.0
  0
LINE
  5
2434
330
2431
100
AcDbEntity
  8
BEM
 62
     0
370
    -2
100
AcDbLine
 10
103.6881218163108
 20
496.756480023208
 30
0.0
 11
103.6881218163107
 21
280.756480023208
 31
0.0
  0
SOLID
  5
2435
330
2431
100
AcDbEntity
  8
BEM
 62
     0
100
AcDbTrace
 10
102.5214551496441
 20
496.756480023208
 30
0.0
 11
104.8547884829774
 21
496.756480023208
 31
0.0
 12
103.6881218163108
 22
503.756480023208
 32
0.0
 13
103.6881218163108
 23
503.756480023208
 33
0.0
  0
SOLID
  5
2436
330
2431
100
AcDbEntity
  8
BEM
 62
     0
100
AcDbTrace
 10
102.5214551496441
 20
280.756480023208
 30
0.0
 11
104.8547884829774
 21
280.756480023208
 31
0.0
 12
103.6881218163107
 22
273.756480023208
 32
0.0
 13
103.6881218163107
 23
273.756480023208
 33
0.0
  0
MTEXT
  5
2437
330
2431
100
AcDbEntity
  8
BEM
 62
     1
100
AcDbMText
 10
97.18812181631072
 20
388.756480023208
 30
0.0
 40
7.0
 41
0.0
 71
     5
 72
     1
  1
\A1;230
 11
0.0000000000000001
 21
1.0
 31
0.0
 73
     1
 44
1.0
  0
POINT
  5
2438
330
2431
100
AcDbEntity
  8
DEFPOINTS
 62
     0
100
AcDbPoint
 10
158.4999999999999
 20
503.756480023208
 30
0.0
  0
POINT
  5
2439
330
2431
100
AcDbEntity
  8
DEFPOINTS
 62
     0
100
AcDbPoint
 10
159.1903597143489
 20
273.7564800232079
 30
0.0
  0
POINT
  5
243A
330
2431
100
AcDbEntity
  8
DEFPOINTS
 62
     0
100
AcDbPoint
 10
103.6881218163107
 20
273.756480023208
 30
0.0
  0
ENDBLK
  5
243C
330
2431
100
AcDbEntity
  8
0
100
AcDbBlockEnd
  0
ENDSEC
  0
SECTION
  2
ENTITIES
  0
LINE
  5
57
330
1E
100
AcDbEntity
  8
STEMPEL
100
AcDbLine
 10
410.0
 20
110.0
 30
0.0
 11
39.99999999999997
 21
110.0
 31
0.0
  0
LINE
  5
58
330
1E
100
AcDbEntity
  8
STEMPEL
100
AcDbLine
 10
136.0000000000001
 20
109.9999999999999
 30
0.0
 11
136.0
 21
9.999999999999971
 31
0.0
  0
LINE
  5
59
330
1E
100
AcDbEntity
  8
STEMPEL
100
AcDbLine
 10
220.0
 20
110.0
 30
0.0
 11
220.0
 21
9.999999999999971
 31
0.0
  0
LINE
  5
5A
330
1E
100
AcDbEntity
  8
STEMPEL
100
AcDbLine
 10
332.0
 20
109.9999999999997
 30
0.0
 11
332.0
 21
40.0
 31
0.0
  0
LINE
  5
5B
330
1E
100
AcDbEntity
  8
STEMPEL
100
AcDbLine
 10
135.9999999999999
 20
29.99999999999997
 30
0.0
 11
39.99999999999997
 21
29.99999999999997
 31
0.0
  0
LINE
  5
5C
330
1E
100
AcDbEntity
  8
STEMPEL
100
AcDbLine
 10
410.0
 20
40.0
 30
0.0
 11
136.0000000000001
 21
39.99999999999997
 31
0.0
  0
LINE
  5
5D
330
1E
100
AcDbEntity
  8
STEMPEL
100
AcDbLine
 10
410.0
 20
80.0
 30
0.0
 11
136.0000000000001
 21
79.99999999999994
 31
0.0
  0
LINE
  5
5E
330
1E
100
AcDbEntity
  8
VOLL
100
AcDbLine
 10
54.00000000000009
 20
110.0
 30
0.0
 11
53.99999999999997
 21
9.999999999999971
 31
0.0
  0
LINE
  5
5F
330
1E
100
AcDbEntity
  8
VOLL
100
AcDbLine
 10
94.00000000000011
 20
109.9999999999999
 30
0.0
 11
94.0
 21
9.999999999999971
 31
0.0
  0
LINE
  5
60
330
1E
100
AcDbEntity
  8
VOLL
100
AcDbLine
 10
114.0000000000001
 20
109.9999999999999
 30
0.0
 11
114.0
 21
9.999999999999971
 31
0.0
  0
LINE
  5
61
330
1E
100
AcDbEntity
  8
VOLL
100
AcDbLine
 10
154.0000000000001
 20
79.99999999999994
 30
0.0
 11
154.0000000000001
 21
39.99999999999997
 31
0.0
  0
LINE
  5
62
330
1E
100
AcDbEntity
  8
VOLL
100
AcDbLine
 10
180.0000000000001
 20
109.9999999999998
 30
0.0
 11
180.0
 21
39.99999999999997
 31
0.0
  0
LINE
  5
63
330
1E
100
AcDbEntity
  8
HILF
100
AcDbLine
 10
40.00000000000008
 20
100.0
 30
0.0
 11
136.0000000000001
 21
100.0
 31
0.0
  0
LINE
  5
64
330
1E
100
AcDbEntity
  8
HILF
100
AcDbLine
 10
40.00000000000008
 20
90.00000000000005
 30
0.0
 11
136.0000000000001
 21
90.00000000000005
 31
0.0
  0
LINE
  5
65
330
1E
100
AcDbEntity
  8
HILF
100
AcDbLine
 10
40.00000000000008
 20
79.99999999999994
 30
0.0
 11
136.0000000000001
 21
79.99999999999994
 31
0.0
  0
LINE
  5
66
330
1E
100
AcDbEntity
  8
HILF
100
AcDbLine
 10
40.00000000000008
 20
69.99999999999994
 30
0.0
 11
136.0000000000001
 21
69.99999999999994
 31
0.0
  0
LINE
  5
67
330
1E
100
AcDbEntity
  8
HILF
100
AcDbLine
 10
40.00000000000008
 20
59.99999999999997
 30
0.0
 11
136.0000000000001
 21
59.99999999999997
 31
0.0
  0
LINE
  5
68
330
1E
100
AcDbEntity
  8
HILF
100
AcDbLine
 10
40.00000000000008
 20
49.99999999999997
 30
0.0
 11
136.0000000000001
 21
49.99999999999997
 31
0.0
  0
LINE
  5
69
330
1E
100
AcDbEntity
  8
HILF
100
AcDbLine
 10
40.00000000000008
 20
39.99999999999997
 30
0.0
 11
136.0000000000001
 21
39.99999999999997
 31
0.0
  0
LINE
  5
6A
330
1E
100
AcDbEntity
  8
HILF
100
AcDbLine
 10
136.0000000000001
 20
69.99999999999994
 30
0.0
 11
220.0
 21
69.99999999999994
 31
0.0
  0
LINE
  5
6B
330
1E
100
AcDbEntity
  8
HILF
100
AcDbLine
 10
136.0000000000001
 20
59.99999999999997
 30
0.0
 11
220.0
 21
59.99999999999997
 31
0.0
  0
LINE
  5
6C
330
1E
100
AcDbEntity
  8
HILF
100
AcDbLine
 10
136.0000000000001
 20
49.99999999999997
 30
0.0
 11
220.0
 21
49.99999999999997
 31
0.0
  0
LINE
  5
6D
330
1E
100
AcDbEntity
  8
HILF
100
AcDbLine
 10
224.7736801096948
 20
84.03758247564139
 30
0.0
 11
324.8353916556311
 21
84.03758247564139
 31
0.0
  0
LINE
  5
6E
330
1E
100
AcDbEntity
  8
HILF
100
AcDbLine
 10
224.7736801096948
 20
69.99999999999994
 30
0.0
 11
324.835391655631
 21
69.99999999999994
 31
0.0
  0
LINE
  5
6F
330
1E
100
AcDbEntity
  8
HILF
100
AcDbLine
 10
224.7736801096948
 20
59.99999999999997
 30
0.0
 11
324.835391655631
 21
59.99999999999997
 31
0.0
  0
LINE
  5
70
330
1E
100
AcDbEntity
  8
HILF
100
AcDbLine
 10
224.7736801096948
 20
49.99999999999997
 30
0.0
 11
324.835391655631
 21
49.99999999999997
 31
0.0
  0
LINE
  5
71
330
1E
100
AcDbEntity
  8
VOLL
100
AcDbLine
 10
332.0
 20
60.0
 30
0.0
 11
410.0
 21
60.0
 31
0.0
  0
LINE
  5
72
330
1E
100
AcDbEntity
  8
HILF
100
AcDbLine
 10
336.7238616296993
 20
83.77983636955827
 30
0.0
 11
404.8588839326728
 21
83.77983636955827
 31
0.0
  0
LINE
  5
73
330
1E
100
AcDbEntity
  8
HILF
100
AcDbLine
 10
223.4909699289885
 20
14.89398258028314
 30
0.0
 11
404.8588839326728
 21
14.89398258028314
 31
0.0
  0
TEXT
  5
74
330
1E
100
AcDbEntity
  8
TEXT
100
AcDbText
 10
63.86165979631819
 20
18.67381894984132
 30
0.0
 40
4.0
  1
Änderung
 41
0.8
  7
GREEKS
 72
     1
 11
74.60451693917534
 21
18.67381894984132
 31
0.0
100
AcDbText
  0
TEXT
  5
75
330
1E
100
AcDbEntity
  8
TEXT
100
AcDbText
 10
143.5163572150377
 20
102.4620895087088
 30
0.0
 40
5.0
  1
Maßstab
 41
0.8
  7
GREEKS
100
AcDbText
  0
TEXT
  5
76
330
1E
100
AcDbEntity
  8
TEXT
100
AcDbText
 10
184.2858954734051
 20
102.4184168434819
 30
0.0
 40
5.0
  1
Zul. Abw.
 41
0.8
  7
GREEKS
100
AcDbText
  0
TEXT
  5
77
330
1E
100
AcDbEntity
  8
TEXT
100
AcDbText
 10
224.877940380901
 20
102.5489328011779
 30
0.0
 40
5.0
  1
Benennung
 41
0.8
  7
GREEKS
100
AcDbText
  0
TEXT
  5
78
330
1E
100
AcDbEntity
  8
TEXT
100
AcDbText
 10
336.178754957634
 20
102.3132034537136
 30
0.0
 40
5.0
  1
Zeichnungs Nr.
 41
0.8
  7
GREEKS
100
AcDbText
  0
TEXT
  5
79
330
1E
100
AcDbEntity
  8
TEXT
100
AcDbText
 10
224.742238391136
 20
30.84560570193057
 30
0.0
 40
5.0
  1
Bauvorhaben
 41
0.8
  7
GREEKS
100
AcDbText
  0
TEXT
  5
7A
330
1E
100
AcDbEntity
  8
TEXT
100
AcDbText
 10
336.7238616296993
 20
73.1811823709997
 30
0.0
 40
5.0
  1
Ersatz für:
 41
0.8
  7
GREEKS
100
AcDbText
  0
TEXT
  5
7B
330
1E
100
AcDbEntity
  8
TEXT
100
AcDbText
 10
48.26641107045756
 20
13.65465846027192
 30
0.0
 40
4.0
  1
Index
 50
90.0
 41
0.8
  7
GREEKS
100
AcDbText
  0
TEXT
  5
7C
330
1E
100
AcDbEntity
  8
TEXT
100
AcDbText
 10
100.0934676075481
 20
18.6715626933981
 30
0.0
 40
4.0
  1
Tag
 41
0.8
  7
GREEKS
 72
     1
 11
103.8268009408814
 21
18.6715626933981
 31
0.0
100
AcDbText
  0
TEXT
  5
7D
330
1E
100
AcDbEntity
  8
TEXT
100
AcDbText
 10
119.0122744386592
 20
18.59324216966408
 30
0.0
 40
4.0
  1
Name
 41
0.8
  7
GREEKS
 72
     1
 11
125.3360839624688
 21
18.59324216966408
 31
0.0
100
AcDbText
  0
TEXT
  5
7E
330
1E
100
AcDbEntity
  8
TEXT
100
AcDbText
 10
162.3311673153651
 20
73.31880501229926
 30
0.0
 40
4.0
  1
Tag
 41
0.8
  7
GREEKS
100
AcDbText
  0
TEXT
  5
7F
330
1E
100
AcDbEntity
  8
TEXT
100
AcDbText
 10
192.4626584226295
 20
73.30961091915225
 30
0.0
 40
4.0
  1
Name
 41
0.8
  7
GREEKS
100
AcDbText
  0
TEXT
  5
80
330
1E
100
AcDbEntity
  8
TEXT
100
AcDbText
 10
137.5836127167615
 20
63.62990369617964
 30
0.0
 40
4.0
  1
Gez.
 41
0.8
  7
GREEKS
100
AcDbText
  0
TEXT
  5
81
330
1E
100
AcDbEntity
  8
TEXT
100
AcDbText
 10
137.5515086571672
 20
53.68926291428377
 30
0.0
 40
4.0
  1
Gepr.
 41
0.8
  7
GREEKS
100
AcDbText
  0
TEXT
  5
82
330
1E
100
AcDbEntity
  8
TEXT
100
AcDbText
 10
137.6006777387304
 20
43.52946389649807
 30
0.0
 40
4.0
  1
Norm.
 41
0.8
  7
GREEKS
100
AcDbText
  0
LINE
  5
83
330
1E
100
AcDbEntity
  8
STEMPEL
100
AcDbLine
 10
49.99999999999989
 20
10.0
 30
0.0
 11
410.0
 21
10.0
 31
0.0
  0
TEXT
  5
84
330
1E
100
AcDbEntity
  8
TEXT
100
AcDbText
 10
337.2400861497006
 20
52.07416177878602
 30
0.0
 40
5.0
  1
ersetzt durch:
 41
0.8
  7
GREEKS
100
AcDbText
  0
LINE
  5
85
330
1E
100
AcDbEntity
  8
STEMPEL
100
AcDbLine
 10
410.0
 20
10.0
 30
0.0
 11
39.99999999999989
 21
10.0
 31
0.0
  0
LINE
  5
86
330
1E
100
AcDbEntity
  8
STEMPEL
100
AcDbLine
 10
410.0
 20
10.0
 30
0.0
 11
410.0
 21
584.0
 31
0.0
  0
LINE
  5
87
330
1E
100
AcDbEntity
  8
STEMPEL
100
AcDbLine
 10
40.0
 20
10.0
 30
0.0
 11
39.99999999999989
 21
584.0
 31
0.0
  0
LINE
  5
88
330
1E
100
AcDbEntity
  8
STEMPEL
100
AcDbLine
 10
410.0
 20
584.0
 30
0.0
 11
39.99999999999989
 21
584.0
 31
0.0
  0
LINE
  5
89
330
1E
100
AcDbEntity
  8
HILF
100
AcDbLine
 10
0.0
 20
0.0
 30
0.0
 11
-0.0000000000001137
 21
594.0
 31
0.0
  0
LINE
  5
8A
330
1E
100
AcDbEntity
  8
HILF
100
AcDbLine
 10
419.9999999999999
 20
594.0000000000002
 30
0.0
 11
0.0
 21
594.0
 31
0.0
  0
LINE
  5
8B
330
1E
100
AcDbEntity
  8
HILF
100
AcDbLine
 10
420.0
 20
0.0
 30
0.0
 11
0.0
 21
0.0
 31
0.0
  0
LINE
  5
8C
330
1E
100
AcDbEntity
  8
HILF
100
AcDbLine
 10
31.08767135713856
 20
297.0
 30
0.0
 11
0.0000000000001137
 21
297.0
 31
0.0
  0
TEXT
  5
8D
330
1E
100
AcDbEntity
  8
TEXT
100
AcDbText
 10
138.622109822104
 20
73.14025471151666
 30
0.0
 40
4.0
  1
2012
 41
0.8
  7
GREEKS
100
AcDbText
  0
LINE
  5
8E
330
1E
100
AcDbEntity
  8
HILF
100
AcDbLine
 10
420.0
 20
-0.0000000000001137
 30
0.0
 11
419.9999999999999
 21
594.0
 31
0.0
  0
TEXT
  5
8F
330
1E
100
AcDbEntity
  8
VOLL
100
AcDbText
 10
78.07675471698113
 20
31.02594776470585
 30
0.0
 40
1.8
  1

  7
GREEKS
100
AcDbText
  0
TEXT
  5
90
330
1E
100
AcDbEntity
  8
TEXT
100
AcDbText
 10
41.85509950977674
 20
111.6719999999999
 30
0.0
 40
5.0
  1
Erstellt mit AUTOCAD 2004
 41
0.8
  7
GREEKS
100
AcDbText
  0
TEXT
  5
91
330
1E
100
AcDbEntity
  8
TEXT
100
AcDbText
 10
194.4216048581257
 20
63.0896391972351
 30
0.0
 40
4.0
  1
Koeh
 41
0.8
  7
GREEKS
 72
     1
 11
199.6787477152685
 21
63.0896391972351
 31
0.0
100
AcDbText
  0
TEXT
  5
92
330
1E
100
AcDbEntity
  8
TEXT
 62
     1
100
AcDbText
 10
347.1516896065724
 20
88.14901428913959
 30
0.0
 40
7.0
  1
58060DE0W
 41
0.8
  7
GREEKS
 72
     1
 11
371.1516896065724
 21
88.14901428913959
 31
0.0
100
AcDbText
  0
TEXT
  5
93
330
1E
100
AcDbEntity
  8
TEXT
 62
     1
100
AcDbText
 10
150.5006306481887
 20
88.14901428913959
 30
0.0
 40
7.0
  1
1:2
 41
0.8
  7
GREEKS
100
AcDbText
  0
TEXT
  5
94
330
1E
100
AcDbEntity
  8
TEXT
100
AcDbText
 10
160.398997108236
 20
63.10765040825732
 30
0.0
 40
4.0
  1
27.09.
 41
0.8
  7
GREEKS
 72
     1
 11
167.4085209177598
 21
63.10765040825732
 31
0.0
100
AcDbText
  0
TEXT
  5
95
330
1E
100
AcDbEntity
  8
TEXT
 62
     1
100
AcDbText
 10
224.2909241008022
 20
87.41748789253779
 30
0.0
 40
7.0
  1
Verbundrohr DN100/125
 41
0.8
  7
GREEKS
100
AcDbText
  0
TEXT
  5
96
330
1E
100
AcDbEntity
  8
TEXT
100
AcDbText
 10
225.1296391125315
 20
71.50334417585288
 30
0.0
 40
5.0
  1
Übergangsrohr konzentrisch
 41
0.8
  7
GREEKS
100
AcDbText
  0
TEXT
  5
98
330
1E
100
AcDbEntity
  8
TEXT
100
AcDbText
 10
225.1296391125315
 20
51.64011943042158
 30
0.0
 40
5.0
  1
EDV-Art.Nr. 58060.DE0X
 41
0.8
  7
GREEKS
100
AcDbText
  0
TEXT
  5
99
330
1E
100
AcDbEntity
  8
TEXT
100
AcDbText
 10
224.9837501577827
 20
42.62974153022632
 30
0.0
 40
4.0
  1
58060DE0X.DWG
 41
0.8
  7
GREEKS
100
AcDbText
  0
TEXT
  5
9A
330
1E
100
AcDbEntity
  8
TEXT
100
AcDbText
 10
182.626132208084
 20
90.76363841023022
 30
0.0
 40
4.0
  1
DIN EN1123-2
 41
0.8
  7
GREEKS
 72
     1
 11
199.6166083985602
 21
90.76363841023022
 31
0.0
100
AcDbText
  0
INSERT
  5
9B
330
1E
100
AcDbEntity
  8
STEMPEL
100
AcDbBlockReference
  2
LOGO
 10
140.9955485457794
 20
45.02105276448322
 30
0.0
 41
2.0
 42
2.0
 43
2.0
  0
TEXT
  5
118
330
1E
100
AcDbEntity
  8
TEXT
100
AcDbText
 10
417.3022923857165
 20
10.16790107998849
 30
0.0
 40
4.0
  1
Diese Zeichnung ist urheberrechtlich geschützt und bleibt unser Eigentum. Sie darf weder ganz noch teilweise verfielfältigt und nicht an Dritte weitergegeben werden.
 50
90.0
 41
0.8
  7
GREEKS
100
AcDbText
  0
TEXT
  5
2B5
330
1E
100
AcDbEntity
  8
TEXT
 62
     1
100
AcDbText
 10
265.4438845027806
 20
200.3535999333948
 30
0.0
 40
7.0
  1
Rohrende leicht eingezogen
 41
0.8
  7
GREEKS
100
AcDbText
  0
TEXT
  5
1C24
330
1E
100
AcDbEntity
  8
TEXT
 62
     1
100
AcDbText
 10
245.030129115258
 20
129.7422179729062
 30
0.0
 40
7.0
  1
und innenbeschichtet
 41
0.8
  7
GREEKS
100
AcDbText
  0
TEXT
  5
1C25
330
1E
100
AcDbEntity
  8
TEXT
 62
     1
100
AcDbText
 10
193.7736704325036
 20
117.1473825875242
 30
0.0
 40
7.0
  1
Dämmung: 2 K-PU-Schaum
 41
0.8
  7
GREEKS
100
AcDbText
  0
TEXT
  5
1C26
330
1E
100
AcDbEntity
  8
TEXT
 62
     1
100
AcDbText
 10
197.3756002392442
 20
141.011271812132
 30
0.0
 40
7.0
  1
Innenrohr: E195 EN10305 feuerverzinkt
 41
0.8
  7
GREEKS
100
AcDbText
  0
TEXT
  5
1C27
330
1E
100
AcDbEntity
  8
TEXT
 62
     1
100
AcDbText
 10
193.6033828683802
 20
152.364339848487
 30
0.0
 40
7.0
  1
Außenrohr: E195 EN10305 feuerverzinkt
 41
0.8
  7
GREEKS
100
AcDbText
  0
LINE
  5
20D3
102
{ACAD_REACTORS
330
2491
330
2503
330
255B
102
}
330
1E
100
AcDbEntity
  8
STEMPEL
  6
Continuous
100
AcDbLine
 10
158.4999999999999
 20
503.756480023208
 30
0.0
 11
291.5
 21
503.7564800232082
 31
0.0
  0
LINE
  5
20DC
102
{ACAD_REACTORS
330
24E7
330
255B
102
}
330
1E
100
AcDbEntity
  8
STEMPEL
  6
Continuous
100
AcDbLine
 10
165.9999999999998
 20
393.7564800232081
 30
0.0
 11
283.9999999999998
 21
393.7564800232081
 31
0.0
  0
LINE
  5
20DD
102
{ACAD_REACTORS
330
24E7
102
}
330
1E
100
AcDbEntity
  8
STEMPEL
  6
Continuous
100
AcDbLine
 10
159.1903597143489
 20
273.7564800232079
 30
0.0
 11
290.8096402856508
 21
273.7564800232081
 31
0.0
  0
LINE
  5
20E0
330
1E
100
AcDbEntity
  8
HILF
100
AcDbLine
 10
163.8770327794898
 20
373.756480023208
 30
0.0
 11
286.12296722051
 21
373.7564800232081
 31
0.0
  0
LINE
  5
20E1
102
{ACAD_REACTORS
330
2479
330
24E7
102
}
330
1E
100
AcDbEntity
  8
STEMPEL
100
AcDbLine
 10
290.5449376635354
 20
376.3033129204465
 30
0.0
 11
283.9999999999998
 21
393.7564800232081
 31
0.0
  0
LINE
  5
20E2
102
{ACAD_REACTORS
330
2479
330
24E7
102
}
330
1E
100
AcDbEntity
  8
STEMPEL
100
AcDbLine
 10
165.9999999999998
 20
393.7564800232081
 30
0.0
 11
159.4550623364642
 21
376.3033129204463
 31
0.0
  0
LINE
  5
20E3
330
1E
100
AcDbEntity
  8
HILF
100
AcDbLine
 10
177.8680286397597
 20
408.756480023208
 30
0.0
 11
272.1319713602399
 21
408.7564800232081
 31
0.0
  0
LINE
  5
20E4
102
{ACAD_REACTORS
330
2479
330
255B
102
}
330
1E
100
AcDbEntity
  8
STEMPEL
100
AcDbLine
 10
282.9999999999998
 20
393.7564800232081
 30
0.0
 11
276.7505348800377
 21
407.1481909945557
 31
0.0
  0
LINE
  5
20E5
102
{ACAD_REACTORS
330
2479
330
255B
102
}
330
1E
100
AcDbEntity
  8
STEMPEL
100
AcDbLine
 10
173.2494651199619
 20
407.1481909945553
 30
0.0
 11
166.9999999999998
 21
393.7564800232081
 31
0.0
  0
ARC
  5
20E9
102
{ACAD_REACTORS
330
2479
330
255B
102
}
330
1E
100
AcDbEntity
  8
STEMPEL
100
AcDbCircle
 10
165.9999999999998
 20
410.5312747172044
 30
0.0
 40
8.0
100
AcDbArc
 50
334.9831065219005
 51
0.0
  0
ARC
  5
20EA
102
{ACAD_REACTORS
330
2479
330
255B
102
}
330
1E
100
AcDbEntity
  8
STEMPEL
100
AcDbCircle
 10
283.9999999999998
 20
410.5312747172046
 30
0.0
 40
8.0
100
AcDbArc
 50
180.0
 51
205.0168934780995
  0
ARC
  5
20EB
102
{ACAD_REACTORS
330
2479
330
24E7
102
}
330
1E
100
AcDbEntity
  8
STEMPEL
100
AcDbCircle
 10
173.4999999999999
 20
371.0364612966204
 30
0.0
 40
15.0
100
AcDbArc
 50
159.4439547804173
 51
180.0
  0
ARC
  5
20EC
102
{ACAD_REACTORS
330
2479
330
24E7
102
}
330
1E
100
AcDbEntity
  8
STEMPEL
100
AcDbCircle
 10
276.4999999999998
 20
371.0364612966206
 30
0.0
 40
15.0
100
AcDbArc
 50
0.0
 51
20.55604521958271
  0
LINE
  5
20F2
330
1E
100
AcDbEntity
  8
MITTEL
  6
STRICHPUNKT
100
AcDbLine
 10
225.0
 20
508.7564800232081
 30
0.0
 11
224.9999999999998
 21
268.7564800232081
 31
0.0
  0
ARC
  5
210B
102
{ACAD_REACTORS
330
2479
102
}
330
1E
100
AcDbEntity
  8
SCHRAFF
100
AcDbCircle
 10
282.3030933945544
 20
393.134078642509
 30
0.0
 40
3.690004347471302
100
AcDbArc
 50
319.8841723908597
 51
100.9842991160269
  0
ARC
  5
210C
102
{ACAD_REACTORS
330
2479
102
}
330
1E
100
AcDbEntity
  8
SCHRAFF
100
AcDbCircle
 10
167.6969066054452
 20
393.134078642509
 30
0.0
 40
3.690004347471302
100
AcDbArc
 50
79.01570088397306
 51
220.1158276091403
  0
INSERT
  5
210D
330
1E
100
AcDbEntity
  8
SCHRAFF
100
AcDbBlockReference
  2
*X1
 10
-26.56472598717693
 20
42.18119737124726
 30
0.0
1001
ACAD
1000
HATCH
1002
{
1070
    16
1000
_U,I
1040
0.1
1040
0.0
1070
     0
1002
}
  0
TEXT
  5
210E
330
1E
100
AcDbEntity
  8
TEXT
 62
     1
100
AcDbText
 10
214.7874259010186
 20
465.7023567947106
 30
0.0
 40
7.0
  1
DN100
 50
90.0
 41
0.8
  7
GREEKS
100
AcDbText
  0
TEXT
  5
210F
330
1E
100
AcDbEntity
  8
TEXT
 62
     1
100
AcDbText
 10
214.7874259010186
 20
299.5619681244813
 30
0.0
 40
7.0
  1
DN125
 50
90.0
 41
0.8
  7
GREEKS
100
AcDbText
  0
LINE
  5
2233
330
1E
100
AcDbEntity
  8
HILF
100
AcDbLine
 10
177.6320397104759
 20
430.6713266264379
 30
0.0
 11
272.3679602895241
 21
430.6713266264379
 31
0.0
  0
LINE
  5
2234
330
1E
100
AcDbEntity
  8
HILF
100
AcDbLine
 10
275.3103999838068
 20
436.8504780401283
 30
0.0
 11
174.689600016193
 21
436.8504780401283
 31
0.0
  0
LINE
  5
2235
330
1E
100
AcDbEntity
  8
HILF
100
AcDbLine
 10
173.6614013950781
 20
459.5306984554819
 30
0.0
 11
276.3385986049217
 21
459.5306984554819
 31
0.0
  0
LINE
  5
2239
102
{ACAD_REACTORS
330
255B
102
}
330
1E
100
AcDbEntity
  8
STEMPEL
100
AcDbLine
 10
273.9999999999999
 20
427.7224875033399
 30
0.0
 11
273.9999999999999
 21
410.5312747172047
 31
0.0
  0
LINE
  5
223A
102
{ACAD_REACTORS
330
2479
330
255B
102
}
330
1E
100
AcDbEntity
  8
STEMPEL
100
AcDbLine
 10
275.9999999999999
 20
427.7224875033399
 30
0.0
 11
275.9999999999999
 21
410.5312747172046
 31
0.0
  0
LINE
  5
223B
102
{ACAD_REACTORS
330
255B
102
}
330
1E
100
AcDbEntity
  8
STEMPEL
100
AcDbLine
 10
277.9999999999999
 20
456.2562794925266
 30
0.0
 11
277.9999999999999
 21
440.6839689001556
 31
0.0
  0
LINE
  5
223C
102
{ACAD_REACTORS
330
2479
330
255B
102
}
330
1E
100
AcDbEntity
  8
STEMPEL
100
AcDbLine
 10
279.9999999999999
 20
456.2564800232081
 30
0.0
 11
279.9999999999999
 21
440.6839689001556
 31
0.0
  0
LINE
  5
223D
102
{ACAD_REACTORS
330
255B
102
}
330
1E
100
AcDbEntity
  8
STEMPEL
100
AcDbLine
 10
281.9999999999999
 20
491.1517285606371
 30
0.0
 11
281.9999999999999
 21
472.989480023208
 31
0.0
  0
LINE
  5
223E
102
{ACAD_REACTORS
330
2479
330
2491
330
255B
102
}
330
1E
100
AcDbEntity
  8
STEMPEL
100
AcDbLine
 10
283.9999999999998
 20
491.1517285606371
 30
0.0
 11
283.9999999999999
 21
472.9896805538897
 31
0.0
  0
LINE
  5
223F
102
{ACAD_REACTORS
330
255B
102
}
330
1E
100
AcDbEntity
  8
STEMPEL
100
AcDbLine
 10
278.5
 20
503.7564800232082
 30
0.0
 11
279.8450791018428
 21
500.8719485806732
 31
0.0
  0
LINE
  5
2240
102
{ACAD_REACTORS
330
2491
330
255B
102
}
330
1E
100
AcDbEntity
  8
STEMPEL
100
AcDbLine
 10
280.706755837925
 20
503.7564800232082
 30
0.0
 11
281.6576946759163
 21
501.7171851041542
 31
0.0
  0
ARC
  5
2241
102
{ACAD_REACTORS
330
2479
330
255B
102
}
330
1E
100
AcDbEntity
  8
STEMPEL
100
AcDbCircle
 10
283.9999999999999
 20
427.7224875033399
 30
0.0
 40
8.0
100
AcDbArc
 50
145.6988472432076
 51
180.0
  0
ARC
  5
2242
102
{ACAD_REACTORS
330
255B
102
}
330
1E
100
AcDbEntity
  8
STEMPEL
100
AcDbCircle
 10
283.9999999999999
 20
427.7224875033399
 30
0.0
 40
10.0
100
AcDbArc
 50
145.6988472432076
 51
180.0
  0
ARC
  5
2243
102
{ACAD_REACTORS
330
255B
102
}
330
1E
100
AcDbEntity
  8
STEMPEL
100
AcDbCircle
 10
264.9999999999999
 20
440.6839689001556
 30
0.0
 40
13.0
100
AcDbArc
 50
325.6988472432076
 51
0.0
  0
ARC
  5
2244
102
{ACAD_REACTORS
330
2479
330
255B
102
}
330
1E
100
AcDbEntity
  8
STEMPEL
100
AcDbCircle
 10
264.9999999999999
 20
440.6839689001556
 30
0.0
 40
15.0
100
AcDbArc
 50
325.6988472432076
 51
0.0
  0
ARC
  5
2245
102
{ACAD_REACTORS
330
2479
330
255B
102
}
330
1E
100
AcDbEntity
  8
STEMPEL
100
AcDbCircle
 10
291.9999999999998
 20
456.2564800232081
 30
0.0
 40
12.0
100
AcDbArc
 50
153.1119523822753
 51
180.0
  0
ARC
  5
2246
102
{ACAD_REACTORS
330
255B
102
}
330
1E
100
AcDbEntity
  8
STEMPEL
100
AcDbCircle
 10
291.9999999999999
 20
456.2562794925266
 30
0.0
 40
14.0
100
AcDbArc
 50
153.1119523822753
 51
180.0
  0
ARC
  5
2247
102
{ACAD_REACTORS
330
255B
102
}
330
1E
100
AcDbEntity
  8
STEMPEL
100
AcDbCircle
 10
258.9999999999999
 20
472.989480023208
 30
0.0
 40
23.0
100
AcDbArc
 50
333.1119523822754
 51
0.0
  0
ARC
  5
2248
102
{ACAD_REACTORS
330
2479
330
255B
102
}
330
1E
100
AcDbEntity
  8
STEMPEL
100
AcDbCircle
 10
258.9999999999999
 20
472.9896805538897
 30
0.0
 40
25.0
100
AcDbArc
 50
333.1119523822754
 51
0.0
  0
ARC
  5
2249
102
{ACAD_REACTORS
330
2491
330
255B
102
}
330
1E
100
AcDbEntity
  8
STEMPEL
100
AcDbCircle
 10
258.9999999999998
 20
491.1517285606371
 30
0.0
 40
25.0
100
AcDbArc
 50
0.0
 51
24.99999999999935
  0
ARC
  5
224A
102
{ACAD_REACTORS
330
255B
102
}
330
1E
100
AcDbEntity
  8
STEMPEL
100
AcDbCircle
 10
258.9999999999999
 20
491.1517285606371
 30
0.0
 40
23.0
100
AcDbArc
 50
0.0
 51
24.99999999999935
  0
ARC
  5
224B
102
{ACAD_REACTORS
330
255B
102
}
330
1E
100
AcDbEntity
  8
STEMPEL
100
AcDbCircle
 10
190.9999999999999
 20
491.1517285606371
 30
0.0
 40
23.0
100
AcDbArc
 50
155.0000000000006
 51
180.0
  0
ARC
  5
224C
102
{ACAD_REACTORS
330
2491
330
255B
102
}
330
1E
100
AcDbEntity
  8
STEMPEL
100
AcDbCircle
 10
190.9999999999999
 20
491.1517285606371
 30
0.0
 40
25.0
100
AcDbArc
 50
155.0000000000006
 51
180.0
  0
ARC
  5
224D
102
{ACAD_REACTORS
330
2479
330
255B
102
}
330
1E
100
AcDbEntity
  8
STEMPEL
100
AcDbCircle
 10
190.9999999999999
 20
472.9896805538897
 30
0.0
 40
25.0
100
AcDbArc
 50
180.0
 51
206.8880476177246
  0
ARC
  5
224E
102
{ACAD_REACTORS
330
255B
102
}
330
1E
100
AcDbEntity
  8
STEMPEL
100
AcDbCircle
 10
190.9999999999999
 20
472.989480023208
 30
0.0
 40
23.0
100
AcDbArc
 50
180.0
 51
206.8880476177246
  0
ARC
  5
224F
102
{ACAD_REACTORS
330
255B
102
}
330
1E
100
AcDbEntity
  8
STEMPEL
100
AcDbCircle
 10
157.9999999999998
 20
456.2562794925266
 30
0.0
 40
14.0
100
AcDbArc
 50
0.0
 51
26.88804761772463
  0
ARC
  5
2250
102
{ACAD_REACTORS
330
2479
330
255B
102
}
330
1E
100
AcDbEntity
  8
STEMPEL
100
AcDbCircle
 10
157.9999999999999
 20
456.2564800232081
 30
0.0
 40
12.0
100
AcDbArc
 50
0.0
 51
26.88804761772463
  0
ARC
  5
2251
102
{ACAD_REACTORS
330
2479
330
255B
102
}
330
1E
100
AcDbEntity
  8
STEMPEL
100
AcDbCircle
 10
184.9999999999999
 20
440.6839689001556
 30
0.0
 40
15.0
100
AcDbArc
 50
180.0
 51
214.3011527567924
  0
ARC
  5
2252
102
{ACAD_REACTORS
330
255B
102
}
330
1E
100
AcDbEntity
  8
STEMPEL
100
AcDbCircle
 10
184.9999999999999
 20
440.6839689001556
 30
0.0
 40
13.0
100
AcDbArc
 50
180.0
 51
214.3011527567924
  0
ARC
  5
2253
102
{ACAD_REACTORS
330
255B
102
}
330
1E
100
AcDbEntity
  8
STEMPEL
100
AcDbCircle
 10
165.9999999999999
 20
427.7224875033399
 30
0.0
 40
10.0
100
AcDbArc
 50
0.0
 51
34.3011527567924
  0
ARC
  5
2254
102
{ACAD_REACTORS
330
2479
330
255B
102
}
330
1E
100
AcDbEntity
  8
STEMPEL
100
AcDbCircle
 10
165.9999999999998
 20
427.7224875033399
 30
0.0
 40
8.0
100
AcDbArc
 50
0.0
 51
34.3011527567924
  0
LINE
  5
2255
102
{ACAD_REACTORS
330
2491
330
255B
102
}
330
1E
100
AcDbEntity
  8
STEMPEL
100
AcDbLine
 10
169.2932441620749
 20
503.7564800232082
 30
0.0
 11
168.3423053240835
 21
501.7171851041542
 31
0.0
  0
LINE
  5
2256
102
{ACAD_REACTORS
330
255B
102
}
330
1E
100
AcDbEntity
  8
STEMPEL
100
AcDbLine
 10
171.4999999999999
 20
503.7564800232082
 30
0.0
 11
170.1549208981569
 21
500.8719485806732
 31
0.0
  0
LINE
  5
2257
102
{ACAD_REACTORS
330
2479
330
2491
330
255B
102
}
330
1E
100
AcDbEntity
  8
STEMPEL
100
AcDbLine
 10
165.9999999999999
 20
491.1517285606371
 30
0.0
 11
165.9999999999999
 21
472.9896805538897
 31
0.0
  0
LINE
  5
2258
102
{ACAD_REACTORS
330
255B
102
}
330
1E
100
AcDbEntity
  8
STEMPEL
100
AcDbLine
 10
167.9999999999999
 20
491.1517285606371
 30
0.0
 11
167.9999999999999
 21
472.989480023208
 31
0.0
  0
LINE
  5
2259
102
{ACAD_REACTORS
330
2479
330
255B
102
}
330
1E
100
AcDbEntity
  8
STEMPEL
100
AcDbLine
 10
169.9999999999999
 20
456.2564800232081
 30
0.0
 11
169.9999999999999
 21
440.6839689001556
 31
0.0
  0
LINE
  5
225A
102
{ACAD_REACTORS
330
255B
102
}
330
1E
100
AcDbEntity
  8
STEMPEL
100
AcDbLine
 10
171.9999999999999
 20
456.2562794925266
 30
0.0
 11
171.9999999999999
 21
440.6839689001556
 31
0.0
  0
LINE
  5
225B
102
{ACAD_REACTORS
330
2479
330
255B
102
}
330
1E
100
AcDbEntity
  8
STEMPEL
100
AcDbLine
 10
173.9999999999999
 20
427.7224875033399
 30
0.0
 11
173.9999999999998
 21
410.5312747172044
 31
0.0
  0
LINE
  5
225C
102
{ACAD_REACTORS
330
255B
102
}
330
1E
100
AcDbEntity
  8
STEMPEL
100
AcDbLine
 10
175.9999999999999
 20
427.7224875033399
 30
0.0
 11
175.9999999999998
 21
410.5312747172043
 31
0.0
  0
ARC
  5
225D
102
{ACAD_REACTORS
330
255B
102
}
330
1E
100
AcDbEntity
  8
STEMPEL
100
AcDbCircle
 10
283.9999999999998
 20
410.5312747172046
 30
0.0
 40
10.0
100
AcDbArc
 50
180.0
 51
205.0168934780995
  0
LINE
  5
225F
102
{ACAD_REACTORS
330
255B
102
}
330
1E
100
AcDbEntity
  8
STEMPEL
100
AcDbLine
 10
280.7929406190337
 20
393.7564800232081
 30
0.0
 11
274.9381686000472
 21
406.3024200638934
 31
0.0
  0
ARC
  5
2260
102
{ACAD_REACTORS
330
255B
102
}
330
1E
100
AcDbEntity
  8
STEMPEL
100
AcDbCircle
 10
165.9999999999998
 20
410.5312747172044
 30
0.0
 40
10.0
100
AcDbArc
 50
334.9831065219005
 51
0.0
  0
LINE
  5
2261
102
{ACAD_REACTORS
330
255B
102
}
330
1E
100
AcDbEntity
  8
STEMPEL
100
AcDbLine
 10
175.0618313999525
 20
406.3024200638931
 30
0.0
 11
169.207059380966
 21
393.756480023208
 31
0.0
  0
DIMENSION
  5
22AC
330
1E
100
AcDbEntity
  8
BEM
100
AcDbDimension
  2
*D2
 10
291.4999999999997
 20
251.4623322985414
 30
0.0
 11
224.9999999999997
 21
257.9623322985414
 31
0.0
 70
    32
  1
%%c<>
 71
     5
 42
133.0
  3
Standard
100
AcDbAlignedDimension
 13
158.4999999999997
 23
281.6473276659382
 33
0.0
 14
291.4999999999997
 24
281.756480023208
 34
0.0
100
AcDbRotatedDimension
1001
ACAD
1000
DSTYLE
1002
{
1070
    40
1040
2.0
1070
    41
1040
3.5
1070
    42
1040
1.0
1070
    43
1040
7.0
1070
    44
1040
1.0
1070
    73
1070
     0
1070
    74
1070
     0
1070
    77
1070
     1
1070
    78
1070
     8
1070
    79
1070
     2
1070
   140
1040
3.5
1070
   141
1040
1.5
1070
   146
1040
0.5142857142857144
1070
   147
1040
1.5
1070
   172
1070
     1
1070
   178
1070
     1
1070
   179
1070
     2
1070
   271
1070
     2
1070
   272
1070
     2
1070
   284
1070
     8
1070
   285
1070
     8
1070
   286
1070
     8
1070
   289
1070
     0
1070
   340
1005
24
1002
}
  0
LINE
  5
22AD
102
{ACAD_REACTORS
330
24E7
102
}
330
1E
100
AcDbEntity
  8
STEMPEL
100
AcDbLine
 10
291.5
 20
281.6473276659382
 30
0.0
 11
290.8096402856508
 21
273.756480023208
 31
0.0
  0
LINE
  5
22AE
102
{ACAD_REACTORS
330
24E7
102
}
330
1E
100
AcDbEntity
  8
STEMPEL
100
AcDbLine
 10
289.0
 20
281.7564800232072
 30
0.0
 11
288.3000906917926
 21
273.756480023208
 31
0.0
  0
LINE
  5
22AF
102
{ACAD_REACTORS
330
2479
330
24E7
102
}
330
1E
100
AcDbEntity
  8
STEMPEL
100
AcDbLine
 10
291.4999999999997
 20
371.0364612966206
 30
0.0
 11
291.4999999999997
 21
281.756480023208
 31
0.0
  0
LINE
  5
22B0
102
{ACAD_REACTORS
330
24E7
102
}
330
1E
100
AcDbEntity
  8
STEMPEL
100
AcDbLine
 10
288.9999999999997
 20
371.0364612966206
 30
0.0
 11
288.9999999999997
 21
281.756480023208
 31
0.0
  0
LINE
  5
22B1
330
1E
100
AcDbEntity
  8
HILF
100
AcDbLine
 10
286.4904504061415
 20
281.756480023208
 30
0.0
 11
163.5095495938582
 21
281.7564800232081
 31
0.0
  0
LINE
  5
22B2
102
{ACAD_REACTORS
330
2479
102
}
330
1E
100
AcDbEntity
  8
STEMPEL
100
AcDbLine
 10
306.1499999999998
 20
347.7564800232081
 30
0.0
 11
304.1499999999998
 21
349.7564800232081
 31
0.0
  0
LINE
  5
22B4
102
{ACAD_REACTORS
330
2479
102
}
330
1E
100
AcDbEntity
  8
STEMPEL
100
AcDbLine
 10
304.1499999999998
 20
349.7564800232081
 30
0.0
 11
291.4999999999997
 21
349.7564800232081
 31
0.0
  0
LINE
  5
22B5
330
1E
100
AcDbEntity
  8
STEMPEL
100
AcDbLine
 10
298.8564064605509
 20
339.7564800232081
 30
0.0
 11
291.4999999999997
 21
339.7564800232081
 31
0.0
  0
LINE
  5
22B6
102
{ACAD_REACTORS
330
251F
102
}
330
1E
100
AcDbEntity
  8
STEMPEL
100
AcDbLine
 10
309.1499999999996
 20
333.7564800232079
 30
0.0
 11
306.2499999999999
 21
333.7564800232078
 31
0.0
  0
LINE
  5
22B7
102
{ACAD_REACTORS
330
251F
102
}
330
1E
100
AcDbEntity
  8
STEMPEL
100
AcDbLine
 10
309.1499999999998
 20
368.6541127630988
 30
0.0
 11
309.1499999999999
 21
331.7564800232071
 31
0.0
  0
LINE
  5
22B8
102
{ACAD_REACTORS
330
2479
330
251F
102
}
330
1E
100
AcDbEntity
  8
STEMPEL
100
AcDbLine
 10
306.25
 20
368.6541127630988
 30
0.0
 11
306.25
 21
333.7564800232079
 31
0.0
  0
LINE
  5
22BA
102
{ACAD_REACTORS
330
2479
102
}
330
1E
100
AcDbEntity
  8
STEMPEL
100
AcDbLine
 10
158.5000000000001
 20
349.7564800232081
 30
0.0
 11
145.8499999999999
 21
349.7564800232081
 31
0.0
  0
LINE
  5
22BB
330
1E
100
AcDbEntity
  8
STEMPEL
100
AcDbLine
 10
158.5000000000001
 20
339.7564800232081
 30
0.0
 11
151.1435935394489
 21
339.7564800232081
 31
0.0
  0
LINE
  5
22BC
102
{ACAD_REACTORS
330
251F
102
}
330
1E
100
AcDbEntity
  8
STEMPEL
100
AcDbLine
 10
143.7499999999998
 20
333.7564800232079
 30
0.0
 11
140.8499999999995
 21
333.756480023208
 31
0.0
  0
LINE
  5
22BD
102
{ACAD_REACTORS
330
2479
102
}
330
1E
100
AcDbEntity
  8
STEMPEL
100
AcDbLine
 10
143.7499999999999
 20
347.656480023208
 30
0.0
 11
145.8499999999999
 21
349.7564800232081
 31
0.0
  0
LINE
  5
22BE
102
{ACAD_REACTORS
330
24E7
102
}
330
1E
100
AcDbEntity
  8
STEMPEL
100
AcDbLine
 10
160.9999999999997
 20
371.0364612966204
 30
0.0
 11
160.9999999999997
 21
281.7564800232072
 31
0.0
  0
LINE
  5
22BF
102
{ACAD_REACTORS
330
2479
330
24E7
102
}
330
1E
100
AcDbEntity
  8
STEMPEL
100
AcDbLine
 10
158.4999999999996
 20
371.0364612966204
 30
0.0
 11
158.4999999999997
 21
281.6473276659382
 31
0.0
  0
LINE
  5
22C0
102
{ACAD_REACTORS
330
251F
102
}
330
1E
100
AcDbEntity
  8
STEMPEL
100
AcDbLine
 10
140.8499999999998
 20
368.6541127630985
 30
0.0
 11
140.8499999999998
 21
331.7564800232081
 31
0.0
  0
LINE
  5
22C1
102
{ACAD_REACTORS
330
2479
330
251F
102
}
330
1E
100
AcDbEntity
  8
STEMPEL
100
AcDbLine
 10
143.7499999999998
 20
368.6541127630985
 30
0.0
 11
143.7499999999998
 21
333.7564800232079
 31
0.0
  0
LINE
  5
22C3
102
{ACAD_REACTORS
330
24E7
102
}
330
1E
100
AcDbEntity
  8
STEMPEL
100
AcDbLine
 10
160.9999999999997
 20
281.7564800232072
 30
0.0
 11
161.699909308207
 21
273.756480023208
 31
0.0
  0
LINE
  5
22C4
102
{ACAD_REACTORS
330
24E7
102
}
330
1E
100
AcDbEntity
  8
STEMPEL
100
AcDbLine
 10
158.4999999999997
 20
281.6473276659382
 30
0.0
 11
159.1903597143489
 21
273.756480023208
 31
0.0
  0
ARC
  5
2303
102
{ACAD_REACTORS
330
24E7
102
}
330
1E
100
AcDbEntity
  8
STEMPEL
100
AcDbCircle
 10
276.4999999999998
 20
371.0364612966206
 30
0.0
 40
12.5
100
AcDbArc
 50
0.0
 51
20.55604521958271
  0
LINE
  5
2305
102
{ACAD_REACTORS
330
24E7
102
}
330
1E
100
AcDbEntity
  8
STEMPEL
100
AcDbLine
 10
288.2041147196129
 20
375.4255043164755
 30
0.0
 11
281.329998829588
 21
393.7564800232081
 31
0.0
  0
LINE
  5
2306
102
{ACAD_REACTORS
330
24E7
102
}
330
1E
100
AcDbEntity
  8
STEMPEL
100
AcDbLine
 10
168.6700011704115
 20
393.756480023208
 30
0.0
 11
161.7958852803868
 21
375.4255043164753
 31
0.0
  0
ARC
  5
2307
102
{ACAD_REACTORS
330
24E7
102
}
330
1E
100
AcDbEntity
  8
STEMPEL
100
AcDbCircle
 10
173.4999999999999
 20
371.0364612966204
 30
0.0
 40
12.5
100
AcDbArc
 50
159.4439547804173
 51
180.0
  0
ARC
  5
2352
102
{ACAD_REACTORS
330
2479
330
251F
102
}
330
1E
100
AcDbEntity
  8
STEMPEL
100
AcDbCircle
 10
156.85
 20
368.6541127630985
 30
0.0
 40
13.1
100
AcDbArc
 50
144.6252481561229
 51
180.0
  0
LINE
  5
2353
102
{ACAD_REACTORS
330
2479
330
251F
102
}
330
1E
100
AcDbEntity
  8
STEMPEL
100
AcDbLine
 10
146.1684829014743
 20
376.2379899030517
 30
0.0
 11
155.0566108867853
 21
388.756480023208
 31
0.0
  0
ARC
  5
2354
102
{ACAD_REACTORS
330
251F
102
}
330
1E
100
AcDbEntity
  8
STEMPEL
100
AcDbCircle
 10
156.85
 20
368.6541127630985
 30
0.0
 40
16.0
100
AcDbArc
 50
144.6252481561229
 51
180.0
  0
LINE
  5
2355
102
{ACAD_REACTORS
330
251F
330
25C5
102
}
330
1E
100
AcDbEntity
  8
STEMPEL
100
AcDbLine
 10
143.8038722460755
 20
377.9168634683849
 30
0.0
 11
151.4999999999999
 21
388.756480023208
 31
0.0
  0
LINE
  5
2356
102
{ACAD_REACTORS
330
2503
330
25C5
102
}
330
1E
100
AcDbEntity
  8
STEMPEL
100
AcDbLine
 10
157.5618313999526
 20
401.7461187373922
 30
0.0
 11
151.4999999999999
 21
388.756480023208
 31
0.0
  0
LINE
  5
2357
102
{ACAD_REACTORS
330
2479
330
2503
330
251F
102
}
330
1E
100
AcDbEntity
  8
STEMPEL
  6
Continuous
100
AcDbLine
 10
151.4999999999999
 20
388.756480023208
 30
0.0
 11
155.0566108867853
 21
388.756480023208
 31
0.0
  0
ARC
  5
2358
102
{ACAD_REACTORS
330
2479
330
2503
102
}
330
1E
100
AcDbEntity
  8
STEMPEL
100
AcDbCircle
 10
148.4999999999999
 20
405.9749733907034
 30
0.0
 40
12.5
100
AcDbArc
 50
334.9831065218983
 51
0.0
  0
ARC
  5
2359
102
{ACAD_REACTORS
330
2503
102
}
330
1E
100
AcDbEntity
  8
STEMPEL
100
AcDbCircle
 10
148.4999999999999
 20
405.9749733907034
 30
0.0
 40
10.0
100
AcDbArc
 50
334.9831065218983
 51
0.0
  0
LINE
  5
235A
102
{ACAD_REACTORS
330
2479
330
2503
330
251F
102
}
330
1E
100
AcDbEntity
  8
STEMPEL
  6
Continuous
100
AcDbLine
 10
294.9433891132146
 20
388.7564800232082
 30
0.0
 11
298.4999999999999
 21
388.7564800232082
 31
0.0
  0
LINE
  5
235B
102
{ACAD_REACTORS
330
2479
330
2503
102
}
330
1E
100
AcDbEntity
  8
STEMPEL
100
AcDbLine
 10
290.1727107500591
 20
400.6889050740647
 30
0.0
 11
295.7411757737922
 21
388.7564800232082
 31
0.0
  0
ARC
  5
235C
102
{ACAD_REACTORS
330
2479
330
2503
102
}
330
1E
100
AcDbEntity
  8
STEMPEL
100
AcDbCircle
 10
301.5
 20
405.9749733907038
 30
0.0
 40
12.5
100
AcDbArc
 50
180.0
 51
205.0168934780944
  0
ARC
  5
235D
102
{ACAD_REACTORS
330
2503
102
}
330
1E
100
AcDbEntity
  8
STEMPEL
100
AcDbCircle
 10
301.5
 20
405.9749733907038
 30
0.0
 40
10.0
100
AcDbArc
 50
180.0
 51
205.0168934781017
  0
LINE
  5
235E
102
{ACAD_REACTORS
330
2503
330
25C5
102
}
330
1E
100
AcDbEntity
  8
STEMPEL
100
AcDbLine
 10
292.4381686000473
 20
401.7461187373925
 30
0.0
 11
298.4999999999999
 21
388.7564800232082
 31
0.0
  0
ARC
  5
235F
102
{ACAD_REACTORS
330
2479
330
251F
102
}
330
1E
100
AcDbEntity
  8
STEMPEL
100
AcDbCircle
 10
293.15
 20
368.6541127630988
 30
0.0
 40
13.1
100
AcDbArc
 50
0.0
 51
35.37475184387711
  0
LINE
  5
2360
102
{ACAD_REACTORS
330
2479
330
251F
102
}
330
1E
100
AcDbEntity
  8
STEMPEL
100
AcDbLine
 10
294.9433891132146
 20
388.7564800232082
 30
0.0
 11
303.8315170985255
 21
376.237989903052
 31
0.0
  0
ARC
  5
2361
102
{ACAD_REACTORS
330
251F
102
}
330
1E
100
AcDbEntity
  8
STEMPEL
100
AcDbCircle
 10
293.15
 20
368.6541127630988
 30
0.0
 40
16.0
100
AcDbArc
 50
0.0
 51
35.37475184387711
  0
LINE
  5
2362
102
{ACAD_REACTORS
330
251F
330
25C5
102
}
330
1E
100
AcDbEntity
  8
STEMPEL
100
AcDbLine
 10
298.4999999999999
 20
388.7564800232082
 30
0.0
 11
306.1961277539244
 21
377.9168634683852
 31
0.0
  0
LINE
  5
2363
102
{ACAD_REACTORS
330
2479
330
2491
330
2503
102
}
330
1E
100
AcDbEntity
  8
STEMPEL
100
AcDbLine
 10
289.0
 20
503.7564800232082
 30
0.0
 11
289.0
 21
405.9749733907038
 31
0.0
  0
LINE
  5
2364
102
{ACAD_REACTORS
330
2503
102
}
330
1E
100
AcDbEntity
  8
STEMPEL
100
AcDbLine
 10
291.5
 20
503.7564800232082
 30
0.0
 11
291.5
 21
405.9749733907038
 31
0.0
  0
LINE
  5
2365
102
{ACAD_REACTORS
330
2479
330
2491
102
}
330
1E
100
AcDbEntity
  8
STEMPEL
100
AcDbLine
 10
283.9999999999999
 20
489.7564800232082
 30
0.0
 11
289.0
 21
489.7564800232081
 31
0.0
  0
LINE
  5
2366
102
{ACAD_REACTORS
330
2479
330
2491
102
}
330
1E
100
AcDbEntity
  8
STEMPEL
100
AcDbLine
 10
160.9999999999999
 20
489.7564800232081
 30
0.0
 11
165.9999999999999
 21
489.7564800232081
 31
0.0
  0
LINE
  5
2367
102
{ACAD_REACTORS
330
2479
330
2491
330
2503
102
}
330
1E
100
AcDbEntity
  8
STEMPEL
100
AcDbLine
 10
160.9999999999999
 20
503.756480023208
 30
0.0
 11
160.9999999999999
 21
405.9749733907034
 31
0.0
  0
LINE
  5
2368
102
{ACAD_REACTORS
330
2503
102
}
330
1E
100
AcDbEntity
  8
STEMPEL
100
AcDbLine
 10
158.4999999999999
 20
503.756480023208
 30
0.0
 11
158.4999999999999
 21
405.9749733907034
 31
0.0
  0
DIMENSION
  5
2369
330
1E
100
AcDbEntity
  8
BEM
100
AcDbDimension
  2
*D4
 10
291.5
 20
530.1221447248884
 30
0.0
 11
225.0
 21
536.6221447248883
 31
0.0
 70
    32
  1
%%C<>
 71
     5
 42
133.0
  3
Standard
100
AcDbAlignedDimension
 13
158.4999999999999
 23
503.756480023208
 33
0.0
 14
291.5
 24
503.7564800232082
 34
0.0
100
AcDbRotatedDimension
1001
ACAD
1000
DSTYLE
1002
{
1070
    40
1040
2.0
1070
    41
1040
3.5
1070
    42
1040
1.0
1070
    43
1040
7.0
1070
    44
1040
1.0
1070
    73
1070
     0
1070
    74
1070
     0
1070
    77
1070
     1
1070
    78
1070
     8
1070
    79
1070
     2
1070
   140
1040
3.5
1070
   141
1040
1.5
1070
   146
1040
0.5142857142857144
1070
   147
1040
1.5
1070
   172
1070
     1
1070
   178
1070
     1
1070
   179
1070
     2
1070
   271
1070
     2
1070
   272
1070
     2
1070
   284
1070
     8
1070
   285
1070
     8
1070
   286
1070
     8
1002
}
  0
DIMENSION
  5
236A
330
1E
100
AcDbEntity
  8
BEM
100
AcDbDimension
  2
*D5
 10
278.4999999999997
 20
513.2049692552814
 30
0.0
 11
224.9999999999999
 21
519.7049692552814
 31
0.0
 70
    32
  1
%%C<>
 71
     5
 42
106.9999999999995
  3
Standard
100
AcDbAlignedDimension
 13
171.5000000000001
 23
503.756480023208
 33
0.0
 14
278.4999999999997
 24
503.7564800232082
 34
0.0
100
AcDbRotatedDimension
1001
ACAD
1000
DSTYLE
1002
{
1070
    40
1040
2.0
1070
    41
1040
3.5
1070
    42
1040
1.0
1070
    43
1040
7.0
1070
    44
1040
1.0
1070
    73
1070
     0
1070
    74
1070
     0
1070
    77
1070
     1
1070
    78
1070
     8
1070
    79
1070
     2
1070
   140
1040
3.5
1070
   141
1040
1.5
1070
   146
1040
0.5142857142857144
1070
   147
1040
1.5
1070
   172
1070
     1
1070
   178
1070
     1
1070
   179
1070
     2
1070
   271
1070
     2
1070
   272
1070
     2
1070
   284
1070
     8
1070
   285
1070
     8
1070
   286
1070
     8
1002
}
  0
LINE
  5
23CF
102
{ACAD_REACTORS
330
2479
330
2503
102
}
330
1E
100
AcDbEntity
  8
STEMPEL
100
AcDbLine
 10
159.8272892499406
 20
400.6889050740647
 30
0.0
 11
154.2588242262076
 21
388.7564800232082
 31
0.0
  0
DIMENSION
  5
23DF
330
1E
100
AcDbEntity
  8
BEM
100
AcDbDimension
  2
*D8
 10
140.8499999999998
 20
232.7539778306495
 30
0.0
 11
224.9999999999998
 21
239.2539778306495
 31
0.0
 70
    32
  1
%%c<>
 71
     5
 42
168.3
  3
Standard
100
AcDbAlignedDimension
 13
309.1499999999998
 23
331.7564800232079
 33
0.0
 14
140.8499999999998
 24
331.7564800232079
 34
0.0
100
AcDbRotatedDimension
1001
ACAD
1000
DSTYLE
1002
{
1070
    40
1040
2.0
1070
    41
1040
3.5
1070
    42
1040
1.0
1070
    43
1040
7.0
1070
    44
1040
1.0
1070
    73
1070
     0
1070
    74
1070
     0
1070
    77
1070
     1
1070
    78
1070
     8
1070
    79
1070
     2
1070
   140
1040
3.5
1070
   141
1040
1.5
1070
   146
1040
0.5142857142857144
1070
   147
1040
1.5
1070
   172
1070
     1
1070
   178
1070
     1
1070
   179
1070
     2
1070
   271
1070
     2
1070
   272
1070
     2
1070
   284
1070
     8
1070
   285
1070
     8
1070
   286
1070
     8
1002
}
  0
DIMENSION
  5
2423
330
1E
100
AcDbEntity
  8
BEM
100
AcDbDimension
  2
*D11
 10
117.5046908452982
 20
273.756480023208
 30
0.0
 11
111.0046908452981
 21
303.756480023208
 31
0.0
 70
    32
 71
     5
 42
60.0
  3
Standard
100
AcDbAlignedDimension
 13
140.8499999999998
 23
333.7564800232079
 33
0.0
 14
159.1903597143489
 24
273.7564800232079
 34
0.0
 50
90.0
100
AcDbRotatedDimension
1001
ACAD
1000
DSTYLE
1002
{
1070
   279
1070
     1
1070
    40
1040
2.0
1070
    41
1040
3.5
1070
    42
1040
1.0
1070
    43
1040
7.0
1070
    44
1040
1.0
1070
    73
1070
     0
1070
    74
1070
     0
1070
    77
1070
     1
1070
    78
1070
     8
1070
    79
1070
     2
1070
   140
1040
3.5
1070
   141
1040
1.5
1070
   146
1040
0.5142857142857144
1070
   147
1040
1.5
1070
   172
1070
     1
1070
   178
1070
     1
1070
   179
1070
     2
1070
   271
1070
     2
1070
   272
1070
     2
1070
   284
1070
     8
1070
   285
1070
     8
1070
   286
1070
     8
1002
}
  0
DIMENSION
  5
2430
330
1E
100
AcDbEntity
  8
BEM
100
AcDbDimension
  2
*D12
 10
103.6881218163107
 20
273.756480023208
 30
0.0
 11
97.18812181631072
 21
388.756480023208
 31
0.0
 70
    32
 71
     5
 42
230.0000000000001
  3
Standard
100
AcDbAlignedDimension
 13
158.4999999999999
 23
503.756480023208
 33
0.0
 14
159.1903597143489
 24
273.7564800232079
 34
0.0
 50
90.0
100
AcDbRotatedDimension
1001
ACAD
1000
DSTYLE
1002
{
1070
    40
1040
2.0
1070
    41
1040
3.5
1070
    42
1040
1.0
1070
    43
1040
7.0
1070
    44
1040
1.0
1070
    73
1070
     0
1070
    74
1070
     0
1070
    77
1070
     1
1070
    78
1070
     8
1070
    79
1070
     2
1070
   140
1040
3.5
1070
   141
1040
1.5
1070
   146
1040
0.5142857142857144
1070
   147
1040
1.5
1070
   172
1070
     1
1070
   178
1070
     1
1070
   179
1070
     2
1070
   271
1070
     2
1070
   272
1070
     2
1070
   284
1070
     8
1070
   285
1070
     8
1070
   286
1070
     8
1002
}
  0
ARC
  5
243E
102
{ACAD_REACTORS
330
25C5
102
}
330
1E
100
AcDbEntity
  8
SCHRAFF
100
AcDbCircle
 10
296.2401427120982
 20
387.4414322383073
 30
0.0
 40
4.972364857868785
100
AcDbArc
 50
336.9545969609164
 51
83.43704836106045
  0
ARC
  5
243F
102
{ACAD_REACTORS
330
25C5
102
}
330
1E
100
AcDbEntity
  8
SCHRAFF
100
AcDbCircle
 10
153.7598572879016
 20
387.4414322383073
 30
0.0
 40
4.972364857868785
100
AcDbArc
 50
96.56295163893956
 51
203.0454030390836
  0
HATCH
  5
2479
330
1E
100
AcDbEntity
  8
SCHRAFF
100
AcDbHatch
 10
0.0
 20
0.0
 30
0.0
210
0.0
220
0.0
230
1.0
  2
HONEY
 70
     0
 71
     1
 91
        2
 92
        7
 72
     1
 73
     1
 93
       23
 10
289.0
 20
489.7564800232081
 42
0.0
 10
283.9999999999998
 20
489.7564800232081
 42
0.0
 10
283.9999999999999
 20
472.9896805538897
 42
-0.1178625008509382
 10
281.2972972972971
 20
461.6834639791047
 42
0.1178625008509338
 10
279.9999999999999
 20
456.256480023208
 42
0.0
 10
279.9999999999999
 20
440.6839689001556
 42
-0.1507946423587077
 10
277.3913043478259
 20
432.2308288587539
 42
0.1507946423586964
 10
275.9999999999999
 20
427.7224875033399
 42
0.0
 10
275.9999999999999
 20
410.5312747172046
 42
0.109592408098624
 10
276.7505348800377
 20
407.1481909945557
 42
0.0
 10
281.5999999999998
 20
396.7564800232082
 42
-0.7073854246559799
 10
285.1249999999998
 20
390.7564800232083
 42
0.0
 10
290.5449376635354
 20
376.3033129204465
 42
-0.0899339631632863
 10
291.4999999999997
 20
371.0364612966205
 42
0.0
 10
291.4999999999997
 20
349.7564800232082
 42
0.0
 10
304.1499999999999
 20
349.7564800232082
 42
0.0
 10
306.25
 20
347.6564800232079
 42
0.0
 10
306.25
 20
368.6541127630988
 42
0.1555890439246216
 10
303.8315170985255
 20
376.237989903052
 42
0.0
 10
294.9433891132145
 20
388.7564800232082
 42
0.0
 10
295.7411757737922
 20
388.7564800232082
 42
0.0
 10
290.1727107500591
 20
400.6889050740647
 42
-0.1095924080986242
 10
289.0
 20
405.9749733907038
 42
0.0
 97
       23
330
2365
330
223E
330
2248
330
2245
330
223C
330
2244
330
2241
330
223A
330
20EA
330
20E4
330
210B
330
20E1
330
20EC
330
22AF
330
22B4
330
22B2
330
22B8
330
235F
330
2360
330
235A
330
235B
330
235C
330
2363
 92
        7
 72
     1
 73
     1
 93
       23
 10
173.9999999999999
 20
427.7224875033399
 42
0.1507946423586998
 10
172.6086956521738
 20
432.230828858754
 42
-0.1507946423587051
 10
169.9999999999999
 20
440.6839689001556
 42
0.0
 10
169.9999999999999
 20
456.2564800232081
 42
0.1178625008509367
 10
168.7027027027026
 20
461.6834639791049
 42
-0.1178625008509361
 10
165.9999999999999
 20
472.9896805538897
 42
0.0
 10
165.9999999999999
 20
489.7564800232081
 42
0.0
 10
160.9999999999999
 20
489.7564800232082
 42
0.0
 10
160.9999999999999
 20
405.9749733907034
 42
-0.1095924080986245
 10
159.8272892499405
 20
400.6889050740644
 42
0.0
 10
154.2588242262075
 20
388.756480023208
 42
0.0
 10
155.0566108867853
 20
388.756480023208
 42
0.0
 10
146.1684829014743
 20
376.2379899030517
 42
0.1555890439246219
 10
143.7499999999998
 20
368.6541127630985
 42
0.0
 10
143.7499999999998
 20
347.6564800232079
 42
0.0
 10
145.8499999999998
 20
349.756480023208
 42
0.0
 10
158.4999999999996
 20
349.7564800232082
 42
0.0
 10
158.4999999999996
 20
371.0364612966204
 42
-0.0899339631632843
 10
159.4550623364642
 20
376.3033129204463
 42
0.0
 10
164.8749999999999
 20
390.7564800232083
 42
-0.7073854246560082
 10
168.3999999999999
 20
396.7564800232082
 42
0.0
 10
173.2494651199619
 20
407.1481909945553
 42
0.1095924080986264
 10
173.9999999999998
 20
410.5312747172044
 42
0.0
 97
       23
330
2254
330
2251
330
2259
330
2250
330
224D
330
2257
330
2366
330
2367
330
2358
330
23CF
330
2357
330
2353
330
2352
330
22C1
330
22BD
330
22BA
330
22BF
330
20EB
330
20E2
330
210C
330
20E5
330
20E9
330
225B
 75
     0
 76
     1
 52
0.0
 41
25.0
 77
     0
 78
     3
 53
0.0
 43
0.0
 44
0.0
 45
4.6875
 46
2.706329374999999
 79
     2
 49
3.125
 49
-6.25
 53
120.0
 43
0.0
 44
0.0
 45
-4.687499989758061
 46
2.706329392739557
 79
     2
 49
3.125
 49
-6.25
 53
60.0
 43
0.0
 44
0.0
 45
0.0000000102419385
 46
5.412658767739556
 79
     2
 49
-6.25
 49
3.125
 47
0.7530355485985466
 98
        2
 10
285.001076451932
 20
417.5591870064545
 10
164.4301727009197
 20
412.2879381607506
  0
HATCH
  5
2491
330
1E
100
AcDbEntity
  8
SCHRAFF
100
AcDbHatch
 10
0.0
 20
0.0
 30
0.0
210
0.0
220
0.0
230
1.0
  2
NET
 70
     0
 71
     1
 91
        2
 92
        7
 72
     1
 73
     1
 93
        6
 10
288.9999999999999
 20
503.7564800232082
 42
0.0
 10
280.7067558379249
 20
503.7564800232082
 42
0.0
 10
281.6576946759163
 20
501.7171851041542
 42
-0.1095178116832356
 10
283.9999999999998
 20
491.1517285606373
 42
0.0
 10
283.9999999999998
 20
489.7564800232081
 42
0.0
 10
289.0
 20
489.7564800232082
 42
0.0
 97
        6
330
20D3
330
2240
330
2249
330
223E
330
2365
330
2363
 92
        7
 72
     1
 73
     1
 93
        6
 10
168.3423053240835
 20
501.7171851041542
 42
0.0
 10
169.2932441620748
 20
503.7564800232081
 42
0.0
 10
160.9999999999999
 20
503.756480023208
 42
0.0
 10
160.9999999999999
 20
489.7564800232081
 42
0.0
 10
165.9999999999999
 20
489.7564800232081
 42
0.0
 10
165.9999999999999
 20
491.1517285606371
 42
-0.1095178116832373
 97
        6
330
2255
330
20D3
330
2367
330
2366
330
2257
330
224C
 75
     0
 76
     1
 52
45.0
 41
20.0
 77
     0
 78
     2
 53
45.0
 43
0.0
 44
0.0
 45
-1.767766952966368
 46
1.767766952966368
 79
     0
 53
135.0
 43
0.0
 44
0.0
 45
-1.767766952966368
 46
-1.767766952966368
 79
     0
 47
0.5069648793118656
 98
        2
 10
285.6018540500122
 20
497.948698305501
 10
161.81493370721
 20
499.4695928110996
  0
HATCH
  5
24E7
330
1E
100
AcDbEntity
  8
SCHRAFF
100
AcDbHatch
 10
0.0
 20
0.0
 30
0.0
210
0.0
220
0.0
230
1.0
  2
_USER
 70
     0
 71
     1
 91
        2
 92
        7
 72
     1
 73
     1
 93
       10
 10
291.4999999999997
 20
371.0364612966206
 42
0.0899339631632885
 10
290.5449376635353
 20
376.3033129204468
 42
0.0
 10
283.9999999999997
 20
393.7564800232081
 42
0.0
 10
281.3299988295879
 20
393.7564800232081
 42
0.0
 10
288.2041147196129
 20
375.4255043164755
 42
-0.0899339631632863
 10
288.9999999999997
 20
371.0364612966205
 42
0.0
 10
288.9999999999998
 20
281.7564800232046
 42
0.0
 10
288.3000906917926
 20
273.756480023208
 42
0.0
 10
290.8096402856508
 20
273.7564800232081
 42
0.0
 10
291.4999999999997
 20
281.6473276659353
 42
0.0
 97
       10
330
20EC
330
20E1
330
20DC
330
2305
330
2303
330
22B0
330
22AE
330
20DD
330
22AD
330
22AF
 92
        7
 72
     1
 73
     1
 93
       10
 10
160.9999999999997
 20
371.0364612966204
 42
-0.0899339631632845
 10
161.7958852803868
 20
375.4255043164753
 42
0.0
 10
168.6700011704115
 20
393.7564800232081
 42
0.0
 10
165.9999999999998
 20
393.7564800232081
 42
0.0
 10
159.4550623364642
 20
376.3033129204463
 42
0.0899339631632814
 10
158.4999999999996
 20
371.0364612966206
 42
0.0
 10
158.4999999999997
 20
281.647327665938
 42
0.0
 10
159.1903597143489
 20
273.7564800232078
 42
0.0
 10
161.699909308207
 20
273.7564800232079
 42
0.0
 10
160.9999999999998
 20
281.756480023207
 42
0.0
 97
       10
330
2307
330
2306
330
20DC
330
20E2
330
20EB
330
22BF
330
22C4
330
20DD
330
22C3
330
22BE
 75
     0
 76
     0
 52
45.0
 41
2.0
 77
     0
 78
     1
 53
45.0
 43
0.0
 44
0.0
 45
-1.414213562373094
 46
1.414213562373095
 79
     0
 47
0.4937655530460828
 98
        2
 10
289.6955332502821
 20
347.0798185523563
 10
160.2374607893753
 20
349.5486465850181
  0
HATCH
  5
2503
330
1E
100
AcDbEntity
  8
SCHRAFF
100
AcDbHatch
 10
0.0
 20
0.0
 30
0.0
210
0.0
220
0.0
230
1.0
  2
_USER
 70
     0
 71
     1
 91
        2
 92
        7
 72
     1
 73
     1
 93
        8
 10
291.5
 20
503.7564800232082
 42
0.0
 10
289.0
 20
503.7564800232082
 42
0.0
 10
289.0
 20
405.9749733907038
 42
0.1095924080986254
 10
290.1727107500591
 20
400.6889050740646
 42
0.0
 10
295.7411757737922
 20
388.7564800232082
 42
0.0
 10
298.4999999999999
 20
388.7564800232082
 42
0.0
 10
292.4381686000473
 20
401.7461187373925
 42
-0.1095924080986258
 10
291.5
 20
405.9749733907038
 42
0.0
 97
        8
330
20D3
330
2363
330
235C
330
235B
330
235A
330
235E
330
235D
330
2364
 92
        7
 72
     1
 73
     1
 93
        8
 10
160.9999999999999
 20
503.756480023208
 42
0.0
 10
158.4999999999999
 20
503.7564800232081
 42
0.0
 10
158.4999999999999
 20
405.9749733907034
 42
-0.1095924080986242
 10
157.5618313999526
 20
401.7461187373923
 42
0.0
 10
151.4999999999999
 20
388.7564800232079
 42
0.0
 10
154.2588242262074
 20
388.7564800232079
 42
0.0
 10
159.8272892499406
 20
400.6889050740647
 42
0.1095924080986195
 10
160.9999999999999
 20
405.9749733907034
 42
0.0
 97
        8
330
20D3
330
2368
330
2359
330
2356
330
2357
330
23CF
330
2358
330
2367
 75
     0
 76
     0
 52
45.0
 41
2.0
 77
     0
 78
     1
 53
45.0
 43
0.0
 44
0.0
 45
-1.414213562373094
 46
1.414213562373095
 79
     0
 47
0.4937655530460828
 98
        2
 10
290.1896479997949
 20
455.2144748982814
 10
159.7433460398624
 20
456.2020066715731
  0
HATCH
  5
251F
330
1E
100
AcDbEntity
  8
SCHRAFF
100
AcDbHatch
 10
0.0
 20
0.0
 30
0.0
210
0.0
220
0.0
230
1.0
  2
_USER
 70
     0
 71
     1
 91
        2
 92
        7
 72
     1
 73
     1
 93
        8
 10
309.1499999999998
 20
368.6541127630988
 42
0.1555890439246213
 10
306.1961277539244
 20
377.9168634683852
 42
0.0
 10
298.4999999999999
 20
388.7564800232082
 42
0.0
 10
294.9433891132145
 20
388.7564800232082
 42
0.0
 10
303.8315170985255
 20
376.237989903052
 42
-0.155589043924625
 10
306.25
 20
368.6541127630987
 42
0.0
 10
306.25
 20
333.7564800232079
 42
0.0
 10
309.1499999999998
 20
333.7564800232079
 42
0.0
 97
        8
330
2361
330
2362
330
235A
330
2360
330
235F
330
22B8
330
22B6
330
22B7
 92
        7
 72
     1
 73
     1
 93
        8
 10
143.7499999999998
 20
368.6541127630985
 42
-0.1555890439246177
 10
146.1684829014741
 20
376.2379899030515
 42
0.0
 10
155.0566108867853
 20
388.756480023208
 42
0.0
 10
151.4999999999999
 20
388.756480023208
 42
0.0
 10
143.8038722460755
 20
377.9168634683849
 42
0.1555890439246226
 10
140.8499999999998
 20
368.6541127630985
 42
0.0
 10
140.8499999999998
 20
333.7564800232079
 42
0.0
 10
143.7499999999998
 20
333.756480023208
 42
0.0
 97
        8
330
2352
330
2353
330
2357
330
2355
330
2354
330
22C0
330
22BC
330
22C1
 75
     0
 76
     0
 52
135.0
 41
2.0
 77
     0
 78
     1
 53
135.0
 43
0.0
 44
0.0
 45
-1.414213562373095
 46
-1.414213562373094
 79
     0
 47
0.4937655530460828
 98
        2
 10
307.4836669289134
 20
350.0424110710962
 10
142.4493298069055
 20
346.5860526657104
  0
HATCH
  5
255B
330
1E
100
AcDbEntity
  8
SCHRAFF
100
AcDbHatch
 10
0.0
 20
0.0
 30
0.0
210
0.0
220
0.0
230
1.0
  2
_USER
 70
     0
 71
     1
 91
        2
 92
        7
 72
     1
 73
     1
 93
       24
 10
279.9999999999999
 20
456.2564800232081
 42
-0.1178625008509376
 10
281.2972972972972
 20
461.683463979105
 42
0.1178625008509352
 10
283.9999999999999
 20
472.9896805538897
 42
0.0
 10
283.9999999999998
 20
491.1517285606371
 42
0.1095178116832379
 10
281.6576946759163
 20
501.7171851041542
 42
0.0
 10
280.706755837925
 20
503.7564800232082
 42
0.0
 10
278.5
 20
503.7564800232083
 42
0.0
 10
279.8450791018428
 20
500.8719485806732
 42
-0.1095178116832433
 10
281.9999999999999
 20
491.151728560637
 42
0.0
 10
281.9999999999999
 20
472.989480023208
 42
-0.1178625008509382
 10
279.5135135135134
 20
462.5877607744057
 42
0.1178625008509323
 10
277.9999999999999
 20
456.2562794925264
 42
0.0
 10
277.9999999999999
 20
440.6839689001556
 42
-0.1507946423587077
 10
275.7391304347824
 20
433.3579141976075
 42
0.1507946423586991
 10
273.9999999999999
 20
427.7224875033399
 42
0.0
 10
273.9999999999999
 20
410.5312747172047
 42
0.1095924080986249
 10
274.9381686000472
 20
406.3024200638934
 42
0.0
 10
280.7929406190337
 20
393.7564800232081
 42
0.0
 10
282.9999999999999
 20
393.7564800232082
 42
0.0
 10
276.7505348800377
 20
407.1481909945557
 42
-0.109592408098624
 10
275.9999999999999
 20
410.5312747172046
 42
0.0
 10
275.9999999999999
 20
427.7224875033399
 42
-0.1507946423587077
 10
277.3913043478261
 20
432.2308288587542
 42
0.1507946423587007
 10
279.9999999999999
 20
440.6839689001556
 42
0.0
 97
       24
330
2245
330
2248
330
223E
330
2249
330
2240
330
20D3
330
223F
330
224A
330
223D
330
2247
330
2246
330
223B
330
2243
330
2242
330
2239
330
225D
330
225F
330
20DC
330
20E4
330
20EA
330
223A
330
2241
330
2244
330
223C
 92
        7
 72
     1
 73
     1
 93
       24
 10
171.9999999999999
 20
456.2562794925266
 42
0.1178625008509328
 10
170.4864864864864
 20
462.5877607744059
 42
-0.1178625008509359
 10
167.9999999999999
 20
472.989480023208
 42
0.0
 10
167.9999999999999
 20
491.1517285606371
 42
-0.1095178116832425
 10
170.1549208981569
 20
500.8719485806732
 42
0.0
 10
171.4999999999999
 20
503.756480023208
 42
0.0
 10
169.2932441620748
 20
503.7564800232081
 42
0.0
 10
168.3423053240835
 20
501.7171851041542
 42
0.1095178116832367
 10
165.9999999999999
 20
491.1517285606371
 42
0.0
 10
165.9999999999999
 20
472.9896805538897
 42
0.1178625008509361
 10
168.7027027027026
 20
461.6834639791049
 42
-0.1178625008509355
 10
169.9999999999999
 20
456.2564800232082
 42
0.0
 10
169.9999999999999
 20
440.6839689001556
 42
0.1507946423587028
 10
172.6086956521738
 20
432.2308288587541
 42
-0.150794642358704
 10
173.9999999999999
 20
427.7224875033399
 42
0.0
 10
173.9999999999998
 20
410.5312747172044
 42
-0.1095924080986226
 10
173.2494651199619
 20
407.1481909945555
 42
0.0
 10
166.9999999999997
 20
393.756480023208
 42
0.0
 10
169.207059380966
 20
393.756480023208
 42
0.0
 10
175.0618313999525
 20
406.3024200638931
 42
0.1095924080986242
 10
175.9999999999998
 20
410.5312747172043
 42
0.0
 10
175.9999999999999
 20
427.7224875033399
 42
0.1507946423587041
 10
174.2608695652173
 20
433.3579141976077
 42
-0.1507946423587038
 10
171.9999999999999
 20
440.6839689001556
 42
0.0
 97
       24
330
224F
330
224E
330
2258
330
224B
330
2256
330
20D3
330
2255
330
224C
330
2257
330
224D
330
2250
330
2259
330
2251
330
2254
330
225B
330
20E9
330
20E5
330
20DC
330
2261
330
2260
330
225C
330
2253
330
2252
330
225A
 75
     0
 76
     0
 52
135.0
 41
2.0
 77
     0
 78
     1
 53
135.0
 43
0.0
 44
0.0
 45
-1.414213562373095
 46
-1.414213562373094
 79
     0
 47
0.4937655530460828
 98
        2
 10
278.8250087609945
 20
448.3017566869423
 10
171.6021000281757
 20
446.8204604275724
  0
HATCH
  5
2584
330
1E
100
AcDbEntity
  8
SCHRAFF
100
AcDbHatch
 10
0.0
 20
0.0
 30
0.0
210
0.0
220
0.0
230
1.0
  2
NET
 70
     0
 71
     0
 91
        2
 92
        7
 72
     0
 73
     1
 93
        9
 10
298.8564064605509
 20
339.7564800232081
 10
301.0000000000002
 20
331.7564800232071
 10
309.1499999999999
 20
331.756480023207
 10
309.1499999999998
 20
333.7564800232079
 10
306.2499999999998
 20
333.7564800232079
 10
306.2499999999998
 20
347.6564800232083
 10
304.1499999999998
 20
349.756480023208
 10
291.4999999999997
 20
349.7564800232082
 10
291.4999999999998
 20
339.7564800232081
 97
        0
 92
        7
 72
     0
 73
     1
 93
        9
 10
151.1435935394489
 20
339.7564800232081
 10
158.4999999999996
 20
339.7564800232081
 10
158.4999999999996
 20
349.7564800232081
 10
145.8499999999999
 20
349.756480023208
 10
143.7499999999998
 20
347.6564800232079
 10
143.7499999999998
 20
333.756480023208
 10
140.8499999999997
 20
333.756480023208
 10
140.8499999999998
 20
331.7564800232081
 10
148.9999999999998
 20
331.756480023208
 97
        0
 75
     0
 76
     1
 52
45.0
 41
20.0
 77
     0
 78
     2
 53
45.0
 43
-0.0000000000002274
 44
20.17086957158102
 45
-1.767766952966368
 46
1.767766952966368
 79
     0
 53
135.0
 43
-0.0000000000002274
 44
20.17086957158102
 45
-1.767766952966368
 46
-1.767766952966368
 79
     0
 47
0.2115359210124944
 98
        2
 10
301.1597635353135
 20
342.1497377119997
 10
149.8203368945881
 20
343.8420251939451
  0
LINE
  5
2585
330
1E
100
AcDbEntity
  8
STEMPEL
100
AcDbLine
 10
309.1499999999999
 20
331.756480023207
 30
0.0
 11
291.4999999999997
 21
331.7564800232071
 31
0.0
  0
LINE
  5
2586
330
1E
100
AcDbEntity
  8
STEMPEL
100
AcDbLine
 10
301.0000000000002
 20
331.756480023207
 30
0.0
 11
298.8564064605509
 21
339.7564800232081
 31
0.0
  0
LINE
  5
2587
330
1E
100
AcDbEntity
  8
STEMPEL
100
AcDbLine
 10
158.4999999999996
 20
331.7564800232079
 30
0.0
 11
140.8499999999998
 21
331.7564800232081
 31
0.0
  0
LINE
  5
2588
330
1E
100
AcDbEntity
  8
STEMPEL
100
AcDbLine
 10
148.9999999999998
 20
331.7564800232081
 30
0.0
 11
151.1435935394489
 21
339.7564800232081
 31
0.0
  0
HATCH
  5
25C5
330
1E
100
AcDbEntity
  8
SCHRAFF
100
AcDbHatch
 10
0.0
 20
0.0
 30
0.0
210
0.0
220
0.0
230
1.0
  2
_USER
 70
     0
 71
     1
 91
        2
 92
        7
 72
     1
 73
     1
 93
        3
 10
153.1915418613246
 20
392.3812125831894
 42
0.5012127560694596
 10
149.1843123236783
 20
385.4949480847269
 42
0.0
 10
151.4999999999999
 20
388.7564800232079
 42
0.0
 97
        3
330
243F
330
2355
330
2356
 92
        7
 72
     1
 73
     1
 93
        3
 10
296.8084581386754
 20
392.3812125831893
 42
0.0
 10
298.5
 20
388.7564800232084
 42
0.0
 10
300.8156876763216
 20
385.4949480847272
 42
0.5012127560694159
 97
        3
330
235E
330
2362
330
243E
 75
     0
 76
     0
 52
0.0
 41
0.1
 77
     0
 78
     1
 53
0.0
 43
0.0
 44
0.0
 45
0.0
 46
0.1
 79
     0
 47
0.3927180305959237
 98
        2
 10
151.669675330932
 20
391.1056202739533
 10
298.9961560483937
 20
389.9274665847682
  0
ENDSEC
  0
SECTION
  2
OBJECTS
  0
DICTIONARY
  5
C
330
0
100
AcDbDictionary
281
     1
  3
ACAD_COLOR
350
DF
  3
ACAD_GROUP
350
D
  3
ACAD_LAYOUT
350
19
  3
ACAD_MATERIAL
350
DE
  3
ACAD_MLINESTYLE
350
16
  3
ACAD_PLOTSETTINGS
350
18
  3
ACAD_PLOTSTYLENAME
350
E
  3
AcDbVariableDictionary
350
EA
  0
DICTIONARY
  5
A0
330
1E
100
AcDbDictionary
280
     1
281
     1
  3
ACAD_LAYOUTSELFREF
360
D4
  0
DICTIONARY
  5
A2
330
1A
100
AcDbDictionary
280
     1
281
     1
  3
ACAD_LAYOUTSELFREF
360
D3
  0
DICTIONARY
  5
DF
102
{ACAD_REACTORS
330
C
102
}
330
C
100
AcDbDictionary
281
     1
  0
DICTIONARY
  5
D
102
{ACAD_REACTORS
330
C
102
}
330
C
100
AcDbDictionary
281
     1
  0
DICTIONARY
  5
19
102
{ACAD_REACTORS
330
C
102
}
330
C
100
AcDbDictionary
281
     1
  3
Layout1
350
1D
  3
Model
350
21
  0
DICTIONARY
  5
DE
102
{ACAD_REACTORS
330
C
102
}
330
C
100
AcDbDictionary
281
     1
  0
DICTIONARY
  5
16
102
{ACAD_REACTORS
330
C
102
}
330
C
100
AcDbDictionary
281
     1
  3
Standard
350
17
  0
DICTIONARY
  5
18
102
{ACAD_REACTORS
330
C
102
}
330
C
100
AcDbDictionary
281
     1
  0
ACDBDICTIONARYWDFLT
  5
E
102
{ACAD_REACTORS
330
C
102
}
330
C
100
AcDbDictionary
281
     1
  3
Normal
350
F
100
AcDbDictionaryWithDefault
340
F
  0
DICTIONARY
  5
EA
102
{ACAD_REACTORS
330
C
102
}
330
C
100
AcDbDictionary
281
     1
  3
DIMASSOC
350
EB
  3
PROJECTNAME
350
EC
  0
XRECORD
  5
D4
102
{ACAD_REACTORS
330
A0
102
}
330
A0
100
AcDbXrecord
280
     1
340
1E
  0
XRECORD
  5
D3
102
{ACAD_REACTORS
330
A2
102
}
330
A2
100
AcDbXrecord
280
     1
340
1A
  0
LAYOUT
  5
1D
102
{ACAD_REACTORS
330
19
102
}
330
19
100
AcDbPlotSettings
  1

  2
\\NT_WORK01\HP LaserJet 5000 PCL 6
  4

  6

 40
0.0
 41
0.0
 42
0.0
 43
0.0
 44
0.0
 45
0.0
 46
0.0
 47
0.0
 48
0.0
 49
0.0
140
0.0
141
0.0
142
1.0
143
1.0
 70
   688
 72
     0
 73
     0
 74
     5
  7

 75
    16
147
1.0
 76
     0
 77
     2
 78
   300
148
0.0
149
0.0
100
AcDbLayout
  1
Layout1
 70
     0
 71
     1
 10
0.0
 20
0.0
 11
12.0
 21
9.0
 12
0.0
 22
0.0
 32
0.0
 14
1.000000000000000E+20
 24
1.000000000000000E+20
 34
1.000000000000000E+20
 15
-1.000000000000000E+20
 25
-1.000000000000000E+20
 35
-1.000000000000000E+20
146
0.0
 13
0.0
 23
0.0
 33
0.0
 16
1.0
 26
0.0
 36
0.0
 17
0.0
 27
1.0
 37
0.0
 76
     0
330
1A
  0
LAYOUT
  5
21
102
{ACAD_REACTORS
330
19
102
}
330
19
100
AcDbPlotSettings
  1

  2
none_device
  4
Letter_(8.50_x_11.00_Inches)
  6

 40
6.349999904632568
 41
6.349999904632568
 42
6.350006103515625
 43
6.350006103515625
 44
215.8999938964844
 45
279.3999938964844
 46
0.0
 47
0.0
 48
0.0
 49
0.0
140
0.0
141
0.0
142
1.0
143
1.0
 70
 11952
 72
     0
 73
     1
 74
     0
  7

 75
     0
147
1.0
 76
     0
 77
     2
 78
   300
148
2305.466113510413
149
95.63236042095818
100
AcDbLayout
  1
Model
 70
     1
 71
     0
 10
0.0
 20
0.0
 11
12.0
 21
9.0
 12
0.0
 22
0.0
 32
0.0
 14
0.0
 24
0.0
 34
0.0
 15
0.0
 25
0.0
 35
0.0
146
0.0
 13
0.0
 23
0.0
 33
0.0
 16
1.0
 26
0.0
 36
0.0
 17
0.0
 27
1.0
 37
0.0
 76
     0
330
1E
  0
MLINESTYLE
  5
17
102
{ACAD_REACTORS
330
16
102
}
330
16
100
AcDbMlineStyle
  2
STANDARD
 70
     0
  3

 62
   256
 51
90.0
 52
90.0
 71
     2
 49
0.5
 62
   256
  6
BYLAYER
 49
-0.5
 62
   256
  6
BYLAYER
  0
ACDBPLACEHOLDER
  5
F
102
{ACAD_REACTORS
330
E
102
}
330
E
  0
DICTIONARYVAR
  5
EB
102
{ACAD_REACTORS
330
EA
102
}
330
EA
100
DictionaryVariables
280
     0
  1
1
  0
DICTIONARYVAR
  5
EC
102
{ACAD_REACTORS
330
EA
102
}
330
EA
100
DictionaryVariables
280
     0
  1

  0
ENDSEC
  0
EOF
