  0
SECTION
  2
HEADER
  9
$ACADVER
  1
AC1018
  9
$ACADMAINTVER
 70
     2
  9
$DWGCODEPAGE
  3
ANSI_1252
  9
$INSBASE
 10
0.0
 20
0.0
 30
0.0
  9
$EXTMIN
 10
-0.0320385670876249
 20
-0.0453116877386037
 30
-0.000000000000013
  9
$EXTMAX
 10
420.0000019560163
 20
594.0000027663659
 30
0.0000000000000023
  9
$LIMMIN
 10
0.0
 20
0.0
  9
$LIMMAX
 10
419.9999999999999
 20
594.0
  9
$ORTHOMODE
 70
     0
  9
$REGENMODE
 70
     1
  9
$FILLMODE
 70
     1
  9
$QTEXTMODE
 70
     0
  9
$MIRRTEXT
 70
     1
  9
$LTSCALE
 40
20.0
  9
$ATTMODE
 70
     1
  9
$TEXTSIZE
 40
3.5
  9
$TRACEWID
 40
0.5
  9
$TEXTSTYLE
  7
STANDARD
  9
$CLAYER
  8
SCHRAFF
  9
$CELTYPE
  6
ByLayer
  9
$CECOLOR
 62
   256
  9
$CELTSCALE
 40
1.0
  9
$DISPSILH
 70
     0
  9
$DIMSCALE
 40
2.0
  9
$DIMASZ
 40
3.5
  9
$DIMEXO
 40
1.0
  9
$DIMDLI
 40
7.0
  9
$DIMRND
 40
0.0
  9
$DIMDLE
 40
0.0
  9
$DIMEXE
 40
1.0
  9
$DIMTP
 40
0.0
  9
$DIMTM
 40
0.0
  9
$DIMTXT
 40
3.5
  9
$DIMCEN
 40
1.5
  9
$DIMTSZ
 40
0.0
  9
$DIMTOL
 70
     0
  9
$DIMLIM
 70
     0
  9
$DIMTIH
 70
     0
  9
$DIMTOH
 70
     0
  9
$DIMSE1
 70
     0
  9
$DIMSE2
 70
     0
  9
$DIMTAD
 70
     1
  9
$DIMZIN
 70
     8
  9
$DIMBLK
  1

  9
$DIMASO
 70
     1
  9
$DIMSHO
 70
     0
  9
$DIMPOST
  1

  9
$DIMAPOST
  1

  9
$DIMALT
 70
     0
  9
$DIMALTD
 70
     2
  9
$DIMALTF
 40
25.4
  9
$DIMLFAC
 40
1.0
  9
$DIMTOFL
 70
     1
  9
$DIMTVP
 40
0.0
  9
$DIMTIX
 70
     0
  9
$DIMSOXD
 70
     0
  9
$DIMSAH
 70
     0
  9
$DIMBLK1
  1

  9
$DIMBLK2
  1

  9
$DIMSTYLE
  2
Standard
  9
$DIMCLRD
 70
     0
  9
$DIMCLRE
 70
     0
  9
$DIMCLRT
 70
     1
  9
$DIMTFAC
 40
0.5142857142857144
  9
$DIMGAP
 40
1.5
  9
$DIMJUST
 70
     0
  9
$DIMSD1
 70
     0
  9
$DIMSD2
 70
     0
  9
$DIMTOLJ
 70
     1
  9
$DIMTZIN
 70
     8
  9
$DIMALTZ
 70
     8
  9
$DIMALTTZ
 70
     8
  9
$DIMUPT
 70
     0
  9
$DIMDEC
 70
     2
  9
$DIMTDEC
 70
     2
  9
$DIMALTU
 70
     2
  9
$DIMALTTD
 70
     2
  9
$DIMTXSTY
  7
STANDARD
  9
$DIMAUNIT
 70
     0
  9
$DIMADEC
 70
     2
  9
$DIMALTRND
 40
0.0
  9
$DIMAZIN
 70
     2
  9
$DIMDSEP
 70
    46
  9
$DIMATFIT
 70
     3
  9
$DIMFRAC
 70
     0
  9
$DIMLDRBLK
  1

  9
$DIMLUNIT
 70
     2
  9
$DIMLWD
 70
    -2
  9
$DIMLWE
 70
    -2
  9
$DIMTMOVE
 70
     0
  9
$LUNITS
 70
     2
  9
$LUPREC
 70
     2
  9
$SKETCHINC
 40
1.0
  9
$FILLETRAD
 40
10.0
  9
$AUNITS
 70
     0
  9
$AUPREC
 70
     0
  9
$MENU
  1
ACAD
  9
$ELEVATION
 40
0.0
  9
$PELEVATION
 40
0.0
  9
$THICKNESS
 40
0.0
  9
$LIMCHECK
 70
     0
  9
$CHAMFERA
 40
0.0
  9
$CHAMFERB
 40
0.0
  9
$CHAMFERC
 40
0.0
  9
$CHAMFERD
 40
0.0
  9
$SKPOLY
 70
     0
  9
$TDCREATE
 40
2455397.864709028
  9
$TDUCREATE
 40
2455397.781375695
  9
$TDUPDATE
 40
2456181.565458889
  9
$TDUUPDATE
 40
2456181.482125556
  9
$TDINDWG
 40
0.0923758333
  9
$TDUSRTIMER
 40
0.0923758333
  9
$USRTIMER
 70
     1
  9
$ANGBASE
 50
0.0
  9
$ANGDIR
 70
     0
  9
$PDMODE
 70
     0
  9
$PDSIZE
 40
0.0
  9
$PLINEWID
 40
0.0
  9
$SPLFRAME
 70
     0
  9
$SPLINETYPE
 70
     6
  9
$SPLINESEGS
 70
     8
  9
$HANDSEED
  5
16A1
  9
$SURFTAB1
 70
     6
  9
$SURFTAB2
 70
     6
  9
$SURFTYPE
 70
     6
  9
$SURFU
 70
     6
  9
$SURFV
 70
     6
  9
$UCSBASE
  2

  9
$UCSNAME
  2

  9
$UCSORG
 10
0.0
 20
0.0
 30
0.0
  9
$UCSXDIR
 10
1.0
 20
0.0
 30
0.0
  9
$UCSYDIR
 10
0.0
 20
1.0
 30
0.0
  9
$UCSORTHOREF
  2

  9
$UCSORTHOVIEW
 70
     0
  9
$UCSORGTOP
 10
0.0
 20
0.0
 30
0.0
  9
$UCSORGBOTTOM
 10
0.0
 20
0.0
 30
0.0
  9
$UCSORGLEFT
 10
0.0
 20
0.0
 30
0.0
  9
$UCSORGRIGHT
 10
0.0
 20
0.0
 30
0.0
  9
$UCSORGFRONT
 10
0.0
 20
0.0
 30
0.0
  9
$UCSORGBACK
 10
0.0
 20
0.0
 30
0.0
  9
$PUCSBASE
  2

  9
$PUCSNAME
  2

  9
$PUCSORG
 10
0.0
 20
0.0
 30
0.0
  9
$PUCSXDIR
 10
1.0
 20
0.0
 30
0.0
  9
$PUCSYDIR
 10
0.0
 20
1.0
 30
0.0
  9
$PUCSORTHOREF
  2

  9
$PUCSORTHOVIEW
 70
     0
  9
$PUCSORGTOP
 10
0.0
 20
0.0
 30
0.0
  9
$PUCSORGBOTTOM
 10
0.0
 20
0.0
 30
0.0
  9
$PUCSORGLEFT
 10
0.0
 20
0.0
 30
0.0
  9
$PUCSORGRIGHT
 10
0.0
 20
0.0
 30
0.0
  9
$PUCSORGFRONT
 10
0.0
 20
0.0
 30
0.0
  9
$PUCSORGBACK
 10
0.0
 20
0.0
 30
0.0
  9
$USERI1
 70
     0
  9
$USERI2
 70
     0
  9
$USERI3
 70
     0
  9
$USERI4
 70
     0
  9
$USERI5
 70
     0
  9
$USERR1
 40
0.0
  9
$USERR2
 40
0.0
  9
$USERR3
 40
0.0
  9
$USERR4
 40
0.0
  9
$USERR5
 40
0.0
  9
$WORLDVIEW
 70
     1
  9
$SHADEDGE
 70
     3
  9
$SHADEDIF
 70
    70
  9
$TILEMODE
 70
     1
  9
$MAXACTVP
 70
    16
  9
$PINSBASE
 10
0.0
 20
0.0
 30
0.0
  9
$PLIMCHECK
 70
     0
  9
$PEXTMIN
 10
1.000000000000000E+20
 20
1.000000000000000E+20
 30
1.000000000000000E+20
  9
$PEXTMAX
 10
-1.000000000000000E+20
 20
-1.000000000000000E+20
 30
-1.000000000000000E+20
  9
$PLIMMIN
 10
0.0
 20
0.0
  9
$PLIMMAX
 10
12.0
 20
9.0
  9
$UNITMODE
 70
     0
  9
$VISRETAIN
 70
     0
  9
$PLINEGEN
 70
     0
  9
$PSLTSCALE
 70
     0
  9
$TREEDEPTH
 70
  3020
  9
$CMLSTYLE
  2
Standard
  9
$CMLJUST
 70
     0
  9
$CMLSCALE
 40
1.0
  9
$PROXYGRAPHICS
 70
     1
  9
$MEASUREMENT
 70
     0
  9
$CELWEIGHT
370
    -1
  9
$ENDCAPS
280
     0
  9
$JOINSTYLE
280
     0
  9
$LWDISPLAY
290
     0
  9
$INSUNITS
 70
     0
  9
$HYPERLINKBASE
  1

  9
$STYLESHEET
  1
monochrome 1.ctb
  9
$XEDIT
290
     1
  9
$CEPSNTYPE
380
     0
  9
$PSTYLEMODE
290
     1
  9
$FINGERPRINTGUID
  2
{D68B0D02-A558-11D7-B632-000102183313}
  9
$VERSIONGUID
  2
{EB6B7111-F134-47D9-819A-431F153FD6EE}
  9
$EXTNAMES
290
     1
  9
$PSVPSCALE
 40
0.0
  9
$OLESTARTUP
290
     0
  9
$SORTENTS
280
   127
  9
$INDEXCTL
280
     0
  9
$HIDETEXT
280
     0
  9
$XCLIPFRAME
290
     0
  9
$HALOGAP
280
     0
  9
$OBSCOLOR
 70
   257
  9
$OBSLTYPE
280
     0
  9
$INTERSECTIONDISPLAY
280
     0
  9
$INTERSECTIONCOLOR
 70
   257
  9
$DIMASSOC
280
     1
  9
$PROJECTNAME
  1

  0
ENDSEC
  0
SECTION
  2
CLASSES
  0
CLASS
  1
ACDBDICTIONARYWDFLT
  2
AcDbDictionaryWithDefault
  3
ObjectDBX Classes
 90
        0
 91
        1
280
     0
281
     0
  0
CLASS
  1
DICTIONARYVAR
  2
AcDbDictionaryVar
  3
ObjectDBX Classes
 90
        0
 91
        2
280
     0
281
     0
  0
ENDSEC
  0
SECTION
  2
TABLES
  0
TABLE
  2
VPORT
  5
8
330
0
100
AcDbSymbolTable
 70
     3
  0
VPORT
  5
16A0
330
8
100
AcDbSymbolTableRecord
100
AcDbViewportTableRecord
  2
*Active
 70
     0
 10
0.0
 20
0.0
 11
1.0
 21
1.0
 12
209.9999999999999
 22
297.0
 13
0.0
 23
0.0
 14
1.0
 24
1.0
 15
10.0
 25
10.0
 16
0.0
 26
0.0
 36
1.0
 17
0.0
 27
0.0
 37
0.0
 40
594.0
 41
1.404858299595141
 42
50.0
 43
0.0
 44
0.0
 50
0.0
 51
0.0
 71
     0
 72
  1500
 73
     1
 74
     0
 75
     0
 76
     0
 77
     0
 78
     0
281
     0
 65
     1
110
0.0
120
0.0
130
0.0
111
1.0
121
0.0
131
0.0
112
0.0
122
1.0
132
0.0
 79
     0
146
0.0
  0
ENDTAB
  0
TABLE
  2
LTYPE
  5
5
330
0
100
AcDbSymbolTable
 70
     3
  0
LTYPE
  5
13
330
5
100
AcDbSymbolTableRecord
100
AcDbLinetypeTableRecord
  2
ByBlock
 70
     0
  3

 72
    65
 73
     0
 40
0.0
  0
LTYPE
  5
14
330
5
100
AcDbSymbolTableRecord
100
AcDbLinetypeTableRecord
  2
ByLayer
 70
     0
  3

 72
    65
 73
     0
 40
0.0
  0
LTYPE
  5
15
330
5
100
AcDbSymbolTableRecord
100
AcDbLinetypeTableRecord
  2
Continuous
 70
     0
  3
Solid line
 72
    65
 73
     0
 40
0.0
  0
LTYPE
  5
25
330
5
100
AcDbSymbolTableRecord
100
AcDbLinetypeTableRecord
  2
STRICHPUNKT
 70
     0
  3
__ . __ . __ . __ . __ . __ . __ . __ . __ . __
 72
    65
 73
     4
 40
1.0
 49
0.5
 74
     0
 49
-0.25
 74
     0
 49
0.0
 74
     0
 49
-0.25
 74
     0
  0
LTYPE
  5
32
330
5
100
AcDbSymbolTableRecord
100
AcDbLinetypeTableRecord
  2
AUSGEZOGEN
 70
     0
  3
Ausgezogene Linie
 72
    65
 73
     0
 40
0.0
  0
ENDTAB
  0
TABLE
  2
LAYER
  5
2
330
0
100
AcDbSymbolTable
 70
     9
  0
LAYER
  5
10
330
2
100
AcDbSymbolTableRecord
100
AcDbLayerTableRecord
  2
0
 70
     0
 62
     7
  6
Continuous
370
    -3
390
F
  0
LAYER
  5
2A
330
2
100
AcDbSymbolTableRecord
100
AcDbLayerTableRecord
  2
VOLL
 70
     0
 62
     1
  6
Continuous
370
    -3
390
F
  0
LAYER
  5
2B
330
2
100
AcDbSymbolTableRecord
100
AcDbLayerTableRecord
  2
HILF
 70
     0
 62
     2
  6
Continuous
370
    -3
390
F
  0
LAYER
  5
2C
330
2
100
AcDbSymbolTableRecord
100
AcDbLayerTableRecord
  2
MITTEL
 70
     0
 62
     2
  6
STRICHPUNKT
370
    -3
390
F
  0
LAYER
  5
2F
330
2
100
AcDbSymbolTableRecord
100
AcDbLayerTableRecord
  2
BEM
 70
     0
 62
     7
  6
Continuous
370
    -3
390
F
  0
LAYER
  5
30
330
2
100
AcDbSymbolTableRecord
100
AcDbLayerTableRecord
  2
STEMPEL
 70
     0
 62
     3
  6
Continuous
370
    -3
390
F
  0
LAYER
  5
31
330
2
100
AcDbSymbolTableRecord
100
AcDbLayerTableRecord
  2
TEXT
 70
     0
 62
     7
  6
Continuous
370
    -3
390
F
  0
LAYER
  5
195
330
2
100
AcDbSymbolTableRecord
100
AcDbLayerTableRecord
  2
DEFPOINTS
 70
     0
 62
     7
  6
AUSGEZOGEN
290
     0
370
    -3
390
F
  0
LAYER
  5
3B7
330
2
100
AcDbSymbolTableRecord
100
AcDbLayerTableRecord
  2
SCHRAFF
 70
     0
 62
     7
  6
Continuous
370
    -3
390
F
  0
ENDTAB
  0
TABLE
  2
STYLE
  5
3
330
0
100
AcDbSymbolTable
 70
     2
  0
STYLE
  5
11
330
3
100
AcDbSymbolTableRecord
100
AcDbTextStyleTableRecord
  2
STANDARD
 70
     0
 40
0.0
 41
0.8
 50
0.0
 71
     0
 42
3.5
  3
simplex.shx
  4

  0
STYLE
  5
24
330
3
100
AcDbSymbolTableRecord
100
AcDbTextStyleTableRecord
  2
GREEKS
 70
     0
 40
0.0
 41
0.8
 50
0.0
 71
     0
 42
2.5
  3
SIMPLEX.shx
  4

  0
ENDTAB
  0
TABLE
  2
VIEW
  5
6
330
0
100
AcDbSymbolTable
 70
     0
  0
ENDTAB
  0
TABLE
  2
UCS
  5
7
330
0
100
AcDbSymbolTable
 70
     0
  0
ENDTAB
  0
TABLE
  2
APPID
  5
9
330
0
100
AcDbSymbolTable
 70
     1
  0
APPID
  5
12
330
9
100
AcDbSymbolTableRecord
100
AcDbRegAppTableRecord
  2
ACAD
 70
     0
  0
ENDTAB
  0
TABLE
  2
DIMSTYLE
  5
A
330
0
100
AcDbSymbolTable
 70
     1
100
AcDbDimStyleTable
 71
     1
340
9D
  0
DIMSTYLE
105
9D
102
{ACAD_REACTORS
330
F76
330
1217
330
12FC
330
1305
330
13D0
330
1674
102
}
330
A
100
AcDbSymbolTableRecord
100
AcDbDimStyleTableRecord
  2
Standard
 70
     0
340
11
  0
ENDTAB
  0
TABLE
  2
BLOCK_RECORD
  5
1
330
0
100
AcDbSymbolTable
 70
    13
  0
BLOCK_RECORD
  5
1E
102
{ACAD_XDICTIONARY
360
A0
102
}
330
1
100
AcDbSymbolTableRecord
100
AcDbBlockTableRecord
  2
*Model_Space
340
21
  0
BLOCK_RECORD
  5
1A
102
{ACAD_XDICTIONARY
360
A2
102
}
330
1
100
AcDbSymbolTableRecord
100
AcDbBlockTableRecord
  2
*Paper_Space
340
1D
  0
BLOCK_RECORD
  5
22
330
1
100
AcDbSymbolTableRecord
100
AcDbBlockTableRecord
  2
LOGO
340
0
102
{BLKREFS
331
9B
102
}
  0
BLOCK_RECORD
  5
DF6
330
1
100
AcDbSymbolTableRecord
100
AcDbBlockTableRecord
  2
*X1
340
0
102
{BLKREFS
331
F53
102
}
  0
BLOCK_RECORD
  5
1000
330
1
100
AcDbSymbolTableRecord
100
AcDbBlockTableRecord
  2
*D2
340
0
  0
BLOCK_RECORD
  5
1218
330
1
100
AcDbSymbolTableRecord
100
AcDbBlockTableRecord
  2
*D3
340
0
  0
BLOCK_RECORD
  5
131B
330
1
100
AcDbSymbolTableRecord
100
AcDbBlockTableRecord
  2
*D5
340
0
  0
BLOCK_RECORD
  5
1327
330
1
100
AcDbSymbolTableRecord
100
AcDbBlockTableRecord
  2
*D6
340
0
  0
BLOCK_RECORD
  5
13DA
330
1
100
AcDbSymbolTableRecord
100
AcDbBlockTableRecord
  2
*D9
340
0
  0
BLOCK_RECORD
  5
1675
330
1
100
AcDbSymbolTableRecord
100
AcDbBlockTableRecord
  2
*D12
340
0
  0
ENDTAB
  0
ENDSEC
  0
SECTION
  2
BLOCKS
  0
BLOCK
  5
35
330
1E
100
AcDbEntity
  8
0
100
AcDbBlockBegin
  2
*Model_Space
 70
     0
 10
0.0
 20
0.0
 30
0.0
  3
*Model_Space
  1

  0
ENDBLK
  5
36
330
1E
100
AcDbEntity
  8
0
100
AcDbBlockEnd
  0
BLOCK
  5
33
330
1A
100
AcDbEntity
 67
     1
  8
0
100
AcDbBlockBegin
  2
*Paper_Space
 70
     0
 10
0.0
 20
0.0
 30
0.0
  3
*Paper_Space
  1

  0
ENDBLK
  5
34
330
1A
100
AcDbEntity
 67
     1
  8
0
100
AcDbBlockEnd
  0
BLOCK
  5
37
330
22
100
AcDbEntity
  8
0
100
AcDbBlockBegin
  2
LOGO
 70
     0
 10
0.0
 20
0.0
 30
0.0
  3
LOGO
  1

  0
ARC
  5
38
330
22
100
AcDbEntity
  8
0
100
AcDbCircle
 10
11.59973089678112
 20
-9.271599258481501
 30
0.0
 40
4.5
100
AcDbArc
 50
270.0
 51
231.0575587310159
  0
LINE
  5
39
330
22
100
AcDbEntity
  8
0
100
AcDbLine
 10
3.599730896781125
 20
-4.771599258481529
 30
0.0
 11
3.599730896781153
 21
-11.77159925848133
 31
0.0
  0
LINE
  5
3A
330
22
100
AcDbEntity
  8
0
100
AcDbLine
 10
2.599730896781125
 20
-4.771599258481529
 30
0.0
 11
2.599730896781153
 21
-11.77159925848133
 31
0.0
  0
CIRCLE
  5
3B
330
22
100
AcDbEntity
  8
0
100
AcDbCircle
 10
11.59973089678112
 20
-9.271599258481501
 30
0.0
 40
3.5
  0
ARC
  5
3C
330
22
100
AcDbEntity
  8
0
100
AcDbCircle
 10
31.59973089678115
 20
-9.271599258481472
 30
0.0
 40
4.5
100
AcDbArc
 50
270.0
 51
231.0575587310182
  0
LINE
  5
3D
330
22
100
AcDbEntity
  8
0
100
AcDbLine
 10
17.59973089678112
 20
-4.771599258481472
 30
0.0
 11
17.59973089678115
 21
-13.77159925848147
 31
0.0
  0
ARC
  5
3E
330
22
100
AcDbEntity
  8
0
100
AcDbCircle
 10
22.59973089678116
 20
-7.271599258481472
 30
0.0
 40
2.5
100
AcDbArc
 50
293.1161887722295
 51
90.0
  0
CIRCLE
  5
3F
330
22
100
AcDbEntity
  8
0
100
AcDbCircle
 10
31.59973089678115
 20
-9.271599258481472
 30
0.0
 40
3.5
  0
ARC
  5
40
330
22
100
AcDbEntity
  8
0
100
AcDbCircle
 10
4.599730896781153
 20
-11.77159925848133
 30
0.0
 40
1.0
100
AcDbArc
 50
180.0
 51
270.0
  0
ARC
  5
41
330
22
100
AcDbEntity
  8
0
100
AcDbCircle
 10
4.599730896781153
 20
-11.77159925848133
 30
0.0
 40
2.0
100
AcDbArc
 50
179.9999999999992
 51
270.0
  0
LINE
  5
42
330
22
100
AcDbEntity
  8
0
100
AcDbLine
 10
11.59973089678115
 20
-13.77159925848144
 30
0.0
 11
4.599730896781153
 21
-13.77159925848147
 31
0.0
  0
LINE
  5
43
330
22
100
AcDbEntity
  8
0
100
AcDbLine
 10
8.771303772034769
 20
-12.77159925848136
 30
0.0
 11
4.599730896781153
 21
-12.77159925848133
 31
0.0
  0
LINE
  5
44
330
22
100
AcDbEntity
  8
0
100
AcDbLine
 10
31.59973089678115
 20
-13.77159925848147
 30
0.0
 11
23.6715276665056
 21
-13.77159925848144
 31
0.0
  0
LINE
  5
45
330
22
100
AcDbEntity
  8
0
100
AcDbLine
 10
23.56565672307022
 20
-9.51278021337896
 30
0.0
 11
24.4388546544846
 21
-12.77159925848144
 31
0.0
  0
LINE
  5
46
330
22
100
AcDbEntity
  8
0
100
AcDbLine
 10
22.59973089678116
 20
-9.771599258481472
 30
0.0
 11
18.59973089678112
 21
-9.771599258481472
 31
0.0
  0
LINE
  5
47
330
22
100
AcDbEntity
  8
0
100
AcDbLine
 10
18.59973089678115
 20
-13.77159925848144
 30
0.0
 11
17.59973089678115
 21
-13.77159925848144
 31
0.0
  0
LINE
  5
48
330
22
100
AcDbEntity
  8
0
100
AcDbLine
 10
18.59973089678115
 20
-9.771599258481472
 30
0.0
 11
18.59973089678115
 21
-13.77159925848144
 31
0.0
  0
LINE
  5
49
330
22
100
AcDbEntity
  8
0
100
AcDbLine
 10
22.59973089678116
 20
-9.771599258481472
 30
0.0
 11
23.67152766650562
 21
-13.77159925848147
 31
0.0
  0
ARC
  5
4A
330
22
100
AcDbEntity
  8
0
100
AcDbCircle
 10
22.59973089678116
 20
-7.271599258481472
 30
0.0
 40
2.5
100
AcDbArc
 50
270.0
 51
270.0000000000007
  0
LINE
  5
4B
330
22
100
AcDbEntity
  8
0
100
AcDbLine
 10
28.77130377203494
 20
-12.77159925848147
 30
0.0
 11
24.43885465448463
 21
-12.77159925848144
 31
0.0
  0
LINE
  5
4C
330
22
100
AcDbEntity
  8
0
100
AcDbLine
 10
3.599730896781125
 20
-4.771599258481472
 30
0.0
 11
2.599730896781125
 21
-4.771599258481472
 31
0.0
  0
LINE
  5
4D
330
22
100
AcDbEntity
  8
0
100
AcDbLine
 10
22.59973089678116
 20
-8.771599258481472
 30
0.0
 11
18.59973089678115
 21
-8.771599258481472
 31
0.0
  0
LINE
  5
4E
330
22
100
AcDbEntity
  8
0
100
AcDbLine
 10
22.59973089678116
 20
-5.771599258481472
 30
0.0
 11
18.59973089678115
 21
-5.771599258481472
 31
0.0
  0
LINE
  5
4F
330
22
100
AcDbEntity
  8
0
100
AcDbLine
 10
22.59973089678116
 20
-4.771599258481472
 30
0.0
 11
17.59973089678115
 21
-4.771599258481472
 31
0.0
  0
LINE
  5
50
330
22
100
AcDbEntity
  8
0
100
AcDbLine
 10
18.59973089678115
 20
-5.771599258481472
 30
0.0
 11
18.59973089678115
 21
-8.771599258481472
 31
0.0
  0
ARC
  5
51
330
22
100
AcDbEntity
  8
0
100
AcDbCircle
 10
22.59973089678116
 20
-7.271599258481472
 30
0.0
 40
1.5
100
AcDbArc
 50
270.0
 51
90.0
  0
ENDBLK
  5
52
330
22
100
AcDbEntity
  8
0
100
AcDbBlockEnd
  0
BLOCK
  5
DF7
330
DF6
100
AcDbEntity
  8
0
100
AcDbBlockBegin
  2
*X1
 70
     1
 10
0.0
 20
0.0
 30
0.0
  3
*X1
  1

  0
LINE
  5
DF8
330
DF6
100
AcDbEntity
  8
0
 62
     0
100
AcDbLine
 10
181.78488613863
 20
384.9000000000001
 30
0.0
 11
183.0083458190927
 21
384.9000000000001
 31
0.0
  0
LINE
  5
DF9
330
DF6
100
AcDbEntity
  8
0
 62
     0
100
AcDbLine
 10
263.1128286137602
 20
384.9000000000001
 30
0.0
 11
264.212485757853
 21
384.9000000000001
 31
0.0
  0
LINE
  5
DFA
330
DF6
100
AcDbEntity
  8
0
 62
     0
100
AcDbLine
 10
181.8106704985988
 20
385.0
 30
0.0
 11
184.0647669174359
 21
385.0
 31
0.0
  0
LINE
  5
DFB
330
DF6
100
AcDbEntity
  8
0
 62
     0
100
AcDbLine
 10
262.056407515417
 20
385.0
 30
0.0
 11
264.1811826433969
 21
385.0
 31
0.0
  0
LINE
  5
DFC
330
DF6
100
AcDbEntity
  8
0
 62
     0
100
AcDbLine
 10
181.8402062564045
 20
385.1
 30
0.0
 11
184.1481002507693
 21
385.1
 31
0.0
  0
LINE
  5
DFD
330
DF6
100
AcDbEntity
  8
0
 62
     0
100
AcDbLine
 10
261.9730741820837
 20
385.1
 30
0.0
 11
264.1460909467789
 21
385.1
 31
0.0
  0
LINE
  5
DFE
330
DF6
100
AcDbEntity
  8
0
 62
     0
100
AcDbLine
 10
181.8736118022738
 20
385.2000000000001
 30
0.0
 11
184.2314335841026
 21
385.2000000000001
 31
0.0
  0
LINE
  5
DFF
330
DF6
100
AcDbEntity
  8
0
 62
     0
100
AcDbLine
 10
261.8897408487504
 20
385.2000000000001
 30
0.0
 11
264.1070710808588
 21
385.2000000000001
 31
0.0
  0
LINE
  5
E00
330
DF6
100
AcDbEntity
  8
0
 62
     0
100
AcDbLine
 10
181.9110271287902
 20
385.3
 30
0.0
 11
184.3147669174359
 21
385.3
 31
0.0
  0
LINE
  5
E01
330
DF6
100
AcDbEntity
  8
0
 62
     0
100
AcDbLine
 10
261.806407515417
 20
385.3
 30
0.0
 11
264.063959649759
 21
385.3
 31
0.0
  0
LINE
  5
E02
330
DF6
100
AcDbEntity
  8
0
 62
     0
100
AcDbLine
 10
181.9526171801143
 20
385.4
 30
0.0
 11
184.3981002507693
 21
385.4
 31
0.0
  0
LINE
  5
E03
330
DF6
100
AcDbEntity
  8
0
 62
     0
100
AcDbLine
 10
261.7230741820837
 20
385.4
 30
0.0
 11
264.0165653948133
 21
385.4
 31
0.0
  0
LINE
  5
E04
330
DF6
100
AcDbEntity
  8
0
 62
     0
100
AcDbLine
 10
181.9985761158115
 20
385.5
 30
0.0
 11
184.4814335841026
 21
385.5
 31
0.0
  0
LINE
  5
E05
330
DF6
100
AcDbEntity
  8
0
 62
     0
100
AcDbLine
 10
261.6397408487504
 20
385.5
 30
0.0
 11
263.9646640225948
 21
385.5
 31
0.0
  0
LINE
  5
E06
330
DF6
100
AcDbEntity
  8
0
 62
     0
100
AcDbLine
 10
182.0491327809517
 20
385.6
 30
0.0
 11
184.5647669174359
 21
385.6
 31
0.0
  0
LINE
  5
E07
330
DF6
100
AcDbEntity
  8
0
 62
     0
100
AcDbLine
 10
261.556407515417
 20
385.6
 30
0.0
 11
263.9079915375371
 21
385.6
 31
0.0
  0
LINE
  5
E08
330
DF6
100
AcDbEntity
  8
0
 62
     0
100
AcDbLine
 10
182.104557796674
 20
385.7000000000001
 30
0.0
 11
184.6481002507693
 21
385.7000000000001
 31
0.0
  0
LINE
  5
E09
330
DF6
100
AcDbEntity
  8
0
 62
     0
100
AcDbLine
 10
261.4730741820837
 20
385.7000000000001
 30
0.0
 11
263.8462355366547
 21
385.7000000000001
 31
0.0
  0
LINE
  5
E0A
330
DF6
100
AcDbEntity
  8
0
 62
     0
100
AcDbLine
 10
182.1651728705549
 20
385.8
 30
0.0
 11
184.7314335841026
 21
385.8
 31
0.0
  0
LINE
  5
E0B
330
DF6
100
AcDbEntity
  8
0
 62
     0
100
AcDbLine
 10
261.3897408487504
 20
385.8
 30
0.0
 11
263.77902367009
 21
385.8
 31
0.0
  0
LINE
  5
E0C
330
DF6
100
AcDbEntity
  8
0
 62
     0
100
AcDbLine
 10
182.2313632131226
 20
385.9
 30
0.0
 11
184.8147669174359
 21
385.9
 31
0.0
  0
LINE
  5
E0D
330
DF6
100
AcDbEntity
  8
0
 62
     0
100
AcDbLine
 10
261.306407515417
 20
385.9
 30
0.0
 11
263.7059080701
 21
385.9
 31
0.0
  0
LINE
  5
E0E
330
DF6
100
AcDbEntity
  8
0
 62
     0
100
AcDbLine
 10
182.3035944046117
 20
386.0
 30
0.0
 11
184.8981002507692
 21
386.0
 31
0.0
  0
LINE
  5
E0F
330
DF6
100
AcDbEntity
  8
0
 62
     0
100
AcDbLine
 10
261.2230741820837
 20
386.0
 30
0.0
 11
263.6263438971775
 21
386.0
 31
0.0
  0
LINE
  5
E10
330
DF6
100
AcDbEntity
  8
0
 62
     0
100
AcDbLine
 10
182.3824358100952
 20
386.1
 30
0.0
 11
184.9814335841026
 21
386.1
 31
0.0
  0
LINE
  5
E11
330
DF6
100
AcDbEntity
  8
0
 62
     0
100
AcDbLine
 10
261.1397408487504
 20
386.1
 30
0.0
 11
263.5396590475311
 21
386.1
 31
0.0
  0
LINE
  5
E12
330
DF6
100
AcDbEntity
  8
0
 62
     0
100
AcDbLine
 10
182.4685939301568
 20
386.2
 30
0.0
 11
185.064766917436
 21
386.2
 31
0.0
  0
LINE
  5
E13
330
DF6
100
AcDbEntity
  8
0
 62
     0
100
AcDbLine
 10
261.056407515417
 20
386.2
 30
0.0
 11
263.4450101225399
 21
386.2
 31
0.0
  0
LINE
  5
E14
330
DF6
100
AcDbEntity
  8
0
 62
     0
100
AcDbLine
 10
182.5629613749012
 20
386.3
 30
0.0
 11
185.1481002507692
 21
386.3
 31
0.0
  0
LINE
  5
E15
330
DF6
100
AcDbEntity
  8
0
 62
     0
100
AcDbLine
 10
260.9730741820837
 20
386.3
 30
0.0
 11
263.3413161715469
 21
386.3
 31
0.0
  0
LINE
  5
E16
330
DF6
100
AcDbEntity
  8
0
 62
     0
100
AcDbLine
 10
182.6666914695426
 20
386.4
 30
0.0
 11
185.2314335841026
 21
386.4
 31
0.0
  0
LINE
  5
E17
330
DF6
100
AcDbEntity
  8
0
 62
     0
100
AcDbLine
 10
260.8897408487504
 20
386.4
 30
0.0
 11
263.2271546982574
 21
386.4
 31
0.0
  0
LINE
  5
E18
330
DF6
100
AcDbEntity
  8
0
 62
     0
100
AcDbLine
 10
182.7813171245459
 20
386.5
 30
0.0
 11
185.3147669174359
 21
386.5
 31
0.0
  0
LINE
  5
E19
330
DF6
100
AcDbEntity
  8
0
 62
     0
100
AcDbLine
 10
260.8064075154171
 20
386.5
 30
0.0
 11
263.1005896887546
 21
386.5
 31
0.0
  0
LINE
  5
E1A
330
DF6
100
AcDbEntity
  8
0
 62
     0
100
AcDbLine
 10
182.9089511608742
 20
386.6
 30
0.0
 11
185.3981002507692
 21
386.6
 31
0.0
  0
LINE
  5
E1B
330
DF6
100
AcDbEntity
  8
0
 62
     0
100
AcDbLine
 10
260.7230741820838
 20
386.6
 30
0.0
 11
262.9588676750035
 21
386.6
 31
0.0
  0
LINE
  5
E1C
330
DF6
100
AcDbEntity
  8
0
 62
     0
100
AcDbLine
 10
183.0526491710471
 20
386.7
 30
0.0
 11
185.4814335841026
 21
386.7
 31
0.0
  0
LINE
  5
E1D
330
DF6
100
AcDbEntity
  8
0
 62
     0
100
AcDbLine
 10
260.6397408487504
 20
386.7
 30
0.0
 11
262.7978312849559
 21
386.7
 31
0.0
  0
LINE
  5
E1E
330
DF6
100
AcDbEntity
  8
0
 62
     0
100
AcDbLine
 10
183.2171334872878
 20
386.8
 30
0.0
 11
185.5647669174359
 21
386.8
 31
0.0
  0
LINE
  5
E1F
330
DF6
100
AcDbEntity
  8
0
 62
     0
100
AcDbLine
 10
260.5564075154171
 20
386.8
 30
0.0
 11
262.6106407822008
 21
386.8
 31
0.0
  0
LINE
  5
E20
330
DF6
100
AcDbEntity
  8
0
 62
     0
100
AcDbLine
 10
183.4104501325246
 20
386.9
 30
0.0
 11
185.6481002507692
 21
386.9
 31
0.0
  0
LINE
  5
E21
330
DF6
100
AcDbEntity
  8
0
 62
     0
100
AcDbLine
 10
260.4730741820837
 20
386.9
 30
0.0
 11
262.3844240674322
 21
386.9
 31
0.0
  0
LINE
  5
E22
330
DF6
100
AcDbEntity
  8
0
 62
     0
100
AcDbLine
 10
183.6486681282195
 20
387.0
 30
0.0
 11
185.7137846209723
 21
387.0
 31
0.0
  0
LINE
  5
E23
330
DF6
100
AcDbEntity
  8
0
 62
     0
100
AcDbLine
 10
260.4115053255654
 20
387.0
 30
0.0
 11
262.0881622034723
 21
387.0
 31
0.0
  0
LINE
  5
E24
330
DF6
100
AcDbEntity
  8
0
 62
     0
100
AcDbLine
 10
183.9759031813669
 20
387.1
 30
0.0
 11
185.3865495678249
 21
387.1
 31
0.0
  0
LINE
  5
E25
330
DF6
100
AcDbEntity
  8
0
 62
     0
100
AcDbLine
 10
260.9363150447413
 20
387.1
 30
0.0
 11
261.5633524842964
 21
387.1
 31
0.0
  0
LINE
  5
E26
330
DF6
100
AcDbEntity
  8
0
 62
     0
100
AcDbLine
 10
181.762753745338
 20
384.8
 30
0.0
 11
182.9533458190927
 21
384.8
 31
0.0
  0
LINE
  5
E27
330
DF6
100
AcDbEntity
  8
0
 62
     0
100
AcDbLine
 10
263.1678286137603
 20
384.8
 30
0.0
 11
264.2401192722111
 21
384.8
 31
0.0
  0
LINE
  5
E28
330
DF6
100
AcDbEntity
  8
0
 62
     0
100
AcDbLine
 10
181.7441907580293
 20
384.7
 30
0.0
 11
182.8983458190927
 21
384.7
 31
0.0
  0
LINE
  5
E29
330
DF6
100
AcDbEntity
  8
0
 62
     0
100
AcDbLine
 10
263.2228286137603
 20
384.7
 30
0.0
 11
264.2641841093562
 21
384.7
 31
0.0
  0
LINE
  5
E2A
330
DF6
100
AcDbEntity
  8
0
 62
     0
100
AcDbLine
 10
181.7291298419205
 20
384.6
 30
0.0
 11
182.8433458190927
 21
384.6
 31
0.0
  0
LINE
  5
E2B
330
DF6
100
AcDbEntity
  8
0
 62
     0
100
AcDbLine
 10
263.2778286137603
 20
384.6
 30
0.0
 11
264.2847651616559
 21
384.6
 31
0.0
  0
LINE
  5
E2C
330
DF6
100
AcDbEntity
  8
0
 62
     0
100
AcDbLine
 10
181.717517606264
 20
384.5
 30
0.0
 11
182.7883458190927
 21
384.5
 31
0.0
  0
LINE
  5
E2D
330
DF6
100
AcDbEntity
  8
0
 62
     0
100
AcDbLine
 10
263.3328286137603
 20
384.5
 30
0.0
 11
264.3019329059681
 21
384.5
 31
0.0
  0
LINE
  5
E2E
330
DF6
100
AcDbEntity
  8
0
 62
     0
100
AcDbLine
 10
181.7093136254156
 20
384.4
 30
0.0
 11
182.7333458190927
 21
384.4
 31
0.0
  0
LINE
  5
E2F
330
DF6
100
AcDbEntity
  8
0
 62
     0
100
AcDbLine
 10
263.3878286137602
 20
384.4
 30
0.0
 11
264.3157446818715
 21
384.4
 31
0.0
  0
LINE
  5
E30
330
DF6
100
AcDbEntity
  8
0
 62
     0
100
AcDbLine
 10
181.7044897194661
 20
384.3
 30
0.0
 11
182.6783458190927
 21
384.3
 31
0.0
  0
LINE
  5
E31
330
DF6
100
AcDbEntity
  8
0
 62
     0
100
AcDbLine
 10
263.4428286137602
 20
384.3
 30
0.0
 11
264.3262456902937
 21
384.3
 31
0.0
  0
LINE
  5
E32
330
DF6
100
AcDbEntity
  8
0
 62
     0
100
AcDbLine
 10
181.7030294638382
 20
384.2
 30
0.0
 11
182.6233458190927
 21
384.2
 31
0.0
  0
LINE
  5
E33
330
DF6
100
AcDbEntity
  8
0
 62
     0
100
AcDbLine
 10
263.4978286137602
 20
384.2
 30
0.0
 11
264.3334697548647
 21
384.2
 31
0.0
  0
LINE
  5
E34
330
DF6
100
AcDbEntity
  8
0
 62
     0
100
AcDbLine
 10
181.704927907624
 20
384.1
 30
0.0
 11
182.5683458190927
 21
384.1
 31
0.0
  0
LINE
  5
E35
330
DF6
100
AcDbEntity
  8
0
 62
     0
100
AcDbLine
 10
263.5528286137603
 20
384.1
 30
0.0
 11
264.3374398768433
 21
384.1
 31
0.0
  0
LINE
  5
E36
330
DF6
100
AcDbEntity
  8
0
 62
     0
100
AcDbLine
 10
181.710191489282
 20
384.0
 30
0.0
 11
182.5133458190927
 21
384.0
 31
0.0
  0
LINE
  5
E37
330
DF6
100
AcDbEntity
  8
0
 62
     0
100
AcDbLine
 10
263.6078286137603
 20
384.0
 30
0.0
 11
264.338168605298
 21
384.0
 31
0.0
  0
LINE
  5
E38
330
DF6
100
AcDbEntity
  8
0
 62
     0
100
AcDbLine
 10
181.7188381463237
 20
383.9
 30
0.0
 11
182.4583458190927
 21
383.9
 31
0.0
  0
LINE
  5
E39
330
DF6
100
AcDbEntity
  8
0
 62
     0
100
AcDbLine
 10
263.6628286137603
 20
383.9
 30
0.0
 11
264.3356582366296
 21
383.9
 31
0.0
  0
LINE
  5
E3A
330
DF6
100
AcDbEntity
  8
0
 62
     0
100
AcDbLine
 10
181.7308976233787
 20
383.8
 30
0.0
 11
182.4033458190927
 21
383.8
 31
0.0
  0
LINE
  5
E3B
330
DF6
100
AcDbEntity
  8
0
 62
     0
100
AcDbLine
 10
263.7178286137603
 20
383.8
 30
0.0
 11
264.3299008508961
 21
383.8
 31
0.0
  0
LINE
  5
E3C
330
DF6
100
AcDbEntity
  8
0
 62
     0
100
AcDbLine
 10
181.7464119911107
 20
383.7000000000001
 30
0.0
 11
182.3483458190928
 21
383.7000000000001
 31
0.0
  0
LINE
  5
E3D
330
DF6
100
AcDbEntity
  8
0
 62
     0
100
AcDbLine
 10
263.7728286137602
 20
383.7000000000001
 30
0.0
 11
264.32087818629
 21
383.7000000000001
 31
0.0
  0
LINE
  5
E3E
330
DF6
100
AcDbEntity
  8
0
 62
     0
100
AcDbLine
 10
181.7654363974602
 20
383.6
 30
0.0
 11
182.2933458190927
 21
383.6
 31
0.0
  0
LINE
  5
E3F
330
DF6
100
AcDbEntity
  8
0
 62
     0
100
AcDbLine
 10
263.8278286137602
 20
383.6
 30
0.0
 11
264.3085613470928
 21
383.6
 31
0.0
  0
LINE
  5
E40
330
DF6
100
AcDbEntity
  8
0
 62
     0
100
AcDbLine
 10
181.7880400833215
 20
383.5
 30
0.0
 11
182.2383458190927
 21
383.5
 31
0.0
  0
LINE
  5
E41
330
DF6
100
AcDbEntity
  8
0
 62
     0
100
AcDbLine
 10
263.8828286137602
 20
383.5
 30
0.0
 11
264.2929103340954
 21
383.5
 31
0.0
  0
LINE
  5
E42
330
DF6
100
AcDbEntity
  8
0
 62
     0
100
AcDbLine
 10
181.8143077079311
 20
383.4000000000001
 30
0.0
 11
182.1833458190927
 21
383.4000000000001
 31
0.0
  0
LINE
  5
E43
330
DF6
100
AcDbEntity
  8
0
 62
     0
100
AcDbLine
 10
263.9378286137603
 20
383.4000000000001
 30
0.0
 11
264.273873379374
 21
383.4000000000001
 31
0.0
  0
LINE
  5
E44
330
DF6
100
AcDbEntity
  8
0
 62
     0
100
AcDbLine
 10
181.8443410461901
 20
383.3
 30
0.0
 11
182.1283458190927
 21
383.3
 31
0.0
  0
LINE
  5
E45
330
DF6
100
AcDbEntity
  8
0
 62
     0
100
AcDbLine
 10
263.9928286137603
 20
383.3
 30
0.0
 11
264.2513860589359
 21
383.3
 31
0.0
  0
LINE
  5
E46
330
DF6
100
AcDbEntity
  8
0
 62
     0
100
AcDbLine
 10
181.8782611426001
 20
383.2000000000001
 30
0.0
 11
182.0733458190927
 21
383.2000000000001
 31
0.0
  0
LINE
  5
E47
330
DF6
100
AcDbEntity
  8
0
 62
     0
100
AcDbLine
 10
264.0478286137602
 20
383.2000000000001
 30
0.0
 11
264.2253701464217
 21
383.2000000000001
 31
0.0
  0
LINE
  5
E48
330
DF6
100
AcDbEntity
  8
0
 62
     0
100
AcDbLine
 10
181.9162110370199
 20
383.1
 30
0.0
 11
182.0183458190927
 21
383.1
 31
0.0
  0
LINE
  5
E49
330
DF6
100
AcDbEntity
  8
0
 62
     0
100
AcDbLine
 10
264.1028286137602
 20
383.1
 30
0.0
 11
264.1957321578676
 21
383.1
 31
0.0
  0
LINE
  5
E4A
330
DF6
100
AcDbEntity
  8
0
 62
     0
100
AcDbLine
 10
181.9583592198703
 20
383.0
 30
0.0
 11
181.9633458190927
 21
383.0
 31
0.0
  0
LINE
  5
E4B
330
DF6
100
AcDbEntity
  8
0
 62
     0
100
AcDbLine
 10
264.1578286137602
 20
383.0
 30
0.0
 11
264.1623615202392
 21
383.0
 31
0.0
  0
ENDBLK
  5
E4C
330
DF6
100
AcDbEntity
  8
0
100
AcDbBlockEnd
  0
BLOCK
  5
100B
330
1000
100
AcDbEntity
  8
0
100
AcDbBlockBegin
  2
*D2
 70
     1
 10
0.0
 20
0.0
 30
0.0
  3
*D2
  1

  0
LINE
  5
166A
330
1000
100
AcDbEntity
  8
BEM
 62
     0
370
    -2
100
AcDbLine
 10
173.9456913727583
 20
275.5669339791248
 30
0.0
 11
173.9456913727583
 21
246.8437712885703
 31
0.0
  0
LINE
  5
166B
330
1000
100
AcDbEntity
  8
BEM
 62
     0
370
    -2
100
AcDbLine
 10
275.9456913727583
 20
275.5669339791248
 30
0.0
 11
275.9456913727583
 21
246.8437712885703
 31
0.0
  0
LINE
  5
166C
330
1000
100
AcDbEntity
  8
BEM
 62
     0
370
    -2
100
AcDbLine
 10
180.9456913727583
 20
248.8437712885703
 30
0.0
 11
268.9456913727584
 21
248.8437712885703
 31
0.0
  0
SOLID
  5
166D
330
1000
100
AcDbEntity
  8
BEM
 62
     0
100
AcDbTrace
 10
180.9456913727583
 20
250.010437955237
 30
0.0
 11
180.9456913727583
 21
247.6771046219036
 31
0.0
 12
173.9456913727583
 22
248.8437712885703
 32
0.0
 13
173.9456913727583
 23
248.8437712885703
 33
0.0
  0
SOLID
  5
166E
330
1000
100
AcDbEntity
  8
BEM
 62
     0
100
AcDbTrace
 10
268.9456913727584
 20
250.010437955237
 30
0.0
 11
268.9456913727584
 21
247.6771046219036
 31
0.0
 12
275.9456913727583
 22
248.8437712885703
 32
0.0
 13
275.9456913727583
 23
248.8437712885703
 33
0.0
  0
MTEXT
  5
166F
330
1000
100
AcDbEntity
  8
BEM
 62
     1
100
AcDbMText
 10
224.9456913727584
 20
255.3437712885703
 30
0.0
 40
7.0
 41
0.0
 71
     5
 72
     1
  1
\A1;%%C102
 73
     1
 44
1.0
  0
POINT
  5
1670
330
1000
100
AcDbEntity
  8
DEFPOINTS
 62
     0
100
AcDbPoint
 10
173.9456913727583
 20
277.5669339791248
 30
0.0
  0
POINT
  5
1671
330
1000
100
AcDbEntity
  8
DEFPOINTS
 62
     0
100
AcDbPoint
 10
275.9456913727583
 20
277.5669339791248
 30
0.0
  0
POINT
  5
1672
330
1000
100
AcDbEntity
  8
DEFPOINTS
 62
     0
100
AcDbPoint
 10
275.9456913727583
 20
248.8437712885703
 30
0.0
  0
ENDBLK
  5
100C
330
1000
100
AcDbEntity
  8
0
100
AcDbBlockEnd
  0
BLOCK
  5
1222
330
1218
100
AcDbEntity
  8
0
100
AcDbBlockBegin
  2
*D3
 70
     1
 10
0.0
 20
0.0
 30
0.0
  3
*D3
  1

  0
LINE
  5
1661
330
1218
100
AcDbEntity
  8
BEM
 62
     0
370
    -2
100
AcDbLine
 10
173.2580213256472
 20
269.0484882315143
 30
0.0
 11
125.2749242158831
 21
269.0484882315143
 31
0.0
  0
LINE
  5
1662
330
1218
100
AcDbEntity
  8
BEM
 62
     0
370
    -2
100
AcDbLine
 10
178.4456913727583
 20
467.0484882315143
 30
0.0
 11
125.2749242158832
 21
467.0484882315143
 31
0.0
  0
LINE
  5
1663
330
1218
100
AcDbEntity
  8
BEM
 62
     0
370
    -2
100
AcDbLine
 10
127.2749242158831
 20
276.0484882315143
 30
0.0
 11
127.2749242158832
 21
460.0484882315144
 31
0.0
  0
SOLID
  5
1664
330
1218
100
AcDbEntity
  8
BEM
 62
     0
100
AcDbTrace
 10
126.1082575492165
 20
276.0484882315143
 30
0.0
 11
128.4415908825498
 21
276.0484882315143
 31
0.0
 12
127.2749242158831
 22
269.0484882315143
 32
0.0
 13
127.2749242158831
 23
269.0484882315143
 33
0.0
  0
SOLID
  5
1665
330
1218
100
AcDbEntity
  8
BEM
 62
     0
100
AcDbTrace
 10
126.1082575492165
 20
460.0484882315144
 30
0.0
 11
128.4415908825499
 21
460.0484882315143
 31
0.0
 12
127.2749242158832
 22
467.0484882315143
 32
0.0
 13
127.2749242158832
 23
467.0484882315143
 33
0.0
  0
MTEXT
  5
1666
330
1218
100
AcDbEntity
  8
BEM
 62
     1
100
AcDbMText
 10
120.7749242158831
 20
368.0484882315144
 30
0.0
 40
7.0
 41
0.0
 71
     5
 72
     1
  1
\A1;198
 11
0.0000000000000001
 21
1.0
 31
0.0
 73
     1
 44
1.0
  0
POINT
  5
1667
330
1218
100
AcDbEntity
  8
DEFPOINTS
 62
     0
100
AcDbPoint
 10
175.2580213256472
 20
269.0484882315143
 30
0.0
  0
POINT
  5
1668
330
1218
100
AcDbEntity
  8
DEFPOINTS
 62
     0
100
AcDbPoint
 10
180.4456913727583
 20
467.0484882315143
 30
0.0
  0
POINT
  5
1669
330
1218
100
AcDbEntity
  8
DEFPOINTS
 62
     0
100
AcDbPoint
 10
127.2749242158832
 20
467.0484882315143
 30
0.0
  0
ENDBLK
  5
1223
330
1218
100
AcDbEntity
  8
0
100
AcDbBlockEnd
  0
BLOCK
  5
1325
330
131B
100
AcDbEntity
  8
0
100
AcDbBlockBegin
  2
*D5
 70
     1
 10
0.0
 20
0.0
 30
0.0
  3
*D5
  1

  0
LINE
  5
164D
330
131B
100
AcDbEntity
  8
BEM
 62
     0
370
    -2
100
AcDbLine
 10
158.4456913727583
 20
325.0484882315144
 30
0.0
 11
158.4456913727583
 21
228.0411374264804
 31
0.0
  0
LINE
  5
164E
330
131B
100
AcDbEntity
  8
BEM
 62
     0
370
    -2
100
AcDbLine
 10
291.4456913727585
 20
325.0484882315143
 30
0.0
 11
291.4456913727585
 21
228.0411374264804
 31
0.0
  0
LINE
  5
164F
330
131B
100
AcDbEntity
  8
BEM
 62
     0
370
    -2
100
AcDbLine
 10
165.4456913727583
 20
230.0411374264804
 30
0.0
 11
284.4456913727585
 21
230.0411374264804
 31
0.0
  0
SOLID
  5
1650
330
131B
100
AcDbEntity
  8
BEM
 62
     0
100
AcDbTrace
 10
165.4456913727583
 20
231.207804093147
 30
0.0
 11
165.4456913727583
 21
228.8744707598137
 31
0.0
 12
158.4456913727583
 22
230.0411374264804
 32
0.0
 13
158.4456913727583
 23
230.0411374264804
 33
0.0
  0
SOLID
  5
1651
330
131B
100
AcDbEntity
  8
BEM
 62
     0
100
AcDbTrace
 10
284.4456913727585
 20
231.207804093147
 30
0.0
 11
284.4456913727585
 21
228.8744707598137
 31
0.0
 12
291.4456913727585
 22
230.0411374264804
 32
0.0
 13
291.4456913727585
 23
230.0411374264804
 33
0.0
  0
MTEXT
  5
1652
330
131B
100
AcDbEntity
  8
BEM
 62
     1
100
AcDbMText
 10
224.9456913727584
 20
236.5411374264803
 30
0.0
 40
7.0
 41
0.0
 71
     5
 72
     1
  1
\A1;133
 73
     1
 44
1.0
  0
POINT
  5
1653
330
131B
100
AcDbEntity
  8
DEFPOINTS
 62
     0
100
AcDbPoint
 10
158.4456913727583
 20
327.0484882315144
 30
0.0
  0
POINT
  5
1654
330
131B
100
AcDbEntity
  8
DEFPOINTS
 62
     0
100
AcDbPoint
 10
291.4456913727585
 20
327.0484882315143
 30
0.0
  0
POINT
  5
1655
330
131B
100
AcDbEntity
  8
DEFPOINTS
 62
     0
100
AcDbPoint
 10
291.4456913727585
 20
230.0411374264804
 30
0.0
  0
ENDBLK
  5
1326
330
131B
100
AcDbEntity
  8
0
100
AcDbBlockEnd
  0
BLOCK
  5
1331
330
1327
100
AcDbEntity
  8
0
100
AcDbBlockBegin
  2
*D6
 70
     1
 10
0.0
 20
0.0
 30
0.0
  3
*D6
  1

  0
LINE
  5
1644
330
1327
100
AcDbEntity
  8
BEM
 62
     0
370
    -2
100
AcDbLine
 10
156.4456913727583
 20
329.0484882315144
 30
0.0
 11
139.0384693021541
 21
329.0484882315144
 31
0.0
  0
LINE
  5
1645
330
1327
100
AcDbEntity
  8
BEM
 62
     0
370
    -2
100
AcDbLine
 10
172.637961005879
 20
269.0484882315144
 30
0.0
 11
139.038469302154
 21
269.0484882315144
 31
0.0
  0
LINE
  5
1646
330
1327
100
AcDbEntity
  8
BEM
 62
     0
370
    -2
100
AcDbLine
 10
141.0384693021541
 20
322.0484882315144
 30
0.0
 11
141.038469302154
 21
276.0484882315144
 31
0.0
  0
SOLID
  5
1647
330
1327
100
AcDbEntity
  8
BEM
 62
     0
100
AcDbTrace
 10
139.8718026354874
 20
322.0484882315144
 30
0.0
 11
142.2051359688207
 21
322.0484882315144
 31
0.0
 12
141.0384693021541
 22
329.0484882315144
 32
0.0
 13
141.0384693021541
 23
329.0484882315144
 33
0.0
  0
SOLID
  5
1648
330
1327
100
AcDbEntity
  8
BEM
 62
     0
100
AcDbTrace
 10
139.8718026354874
 20
276.0484882315144
 30
0.0
 11
142.2051359688207
 21
276.0484882315144
 31
0.0
 12
141.038469302154
 22
269.0484882315144
 32
0.0
 13
141.038469302154
 23
269.0484882315144
 33
0.0
  0
MTEXT
  5
1649
330
1327
100
AcDbEntity
  8
BEM
 62
     1
100
AcDbMText
 10
134.538469302154
 20
299.0484882315144
 30
0.0
 40
7.0
 41
0.0
 71
     5
 72
     1
  1
\A1;60
 11
0.0000000000000001
 21
1.0
 31
0.0
 73
     1
 44
1.0
  0
POINT
  5
164A
330
1327
100
AcDbEntity
  8
DEFPOINTS
 62
     0
100
AcDbPoint
 10
158.4456913727583
 20
329.0484882315144
 30
0.0
  0
POINT
  5
164B
330
1327
100
AcDbEntity
  8
DEFPOINTS
 62
     0
100
AcDbPoint
 10
174.637961005879
 20
269.0484882315144
 30
0.0
  0
POINT
  5
164C
330
1327
100
AcDbEntity
  8
DEFPOINTS
 62
     0
100
AcDbPoint
 10
141.038469302154
 20
269.0484882315144
 30
0.0
  0
ENDBLK
  5
1332
330
1327
100
AcDbEntity
  8
0
100
AcDbBlockEnd
  0
BLOCK
  5
13E4
330
13DA
100
AcDbEntity
  8
0
100
AcDbBlockBegin
  2
*D9
 70
     1
 10
0.0
 20
0.0
 30
0.0
  3
*D9
  1

  0
LINE
  5
1627
330
13DA
100
AcDbEntity
  8
BEM
 62
     0
370
    -2
100
AcDbLine
 10
180.4456913727583
 20
469.0484882315145
 30
0.0
 11
180.4456913727583
 21
496.6361336511874
 31
0.0
  0
LINE
  5
1628
330
13DA
100
AcDbEntity
  8
BEM
 62
     0
370
    -2
100
AcDbLine
 10
269.4456913727582
 20
469.0484882315142
 30
0.0
 11
269.4456913727582
 21
496.6361336511874
 31
0.0
  0
LINE
  5
1629
330
13DA
100
AcDbEntity
  8
BEM
 62
     0
370
    -2
100
AcDbLine
 10
187.4456913727583
 20
494.6361336511874
 30
0.0
 11
262.4456913727582
 21
494.6361336511874
 31
0.0
  0
SOLID
  5
162A
330
13DA
100
AcDbEntity
  8
BEM
 62
     0
100
AcDbTrace
 10
187.4456913727583
 20
495.8028003178541
 30
0.0
 11
187.4456913727583
 21
493.4694669845207
 31
0.0
 12
180.4456913727583
 22
494.6361336511874
 32
0.0
 13
180.4456913727583
 23
494.6361336511874
 33
0.0
  0
SOLID
  5
162B
330
13DA
100
AcDbEntity
  8
BEM
 62
     0
100
AcDbTrace
 10
262.4456913727582
 20
495.8028003178541
 30
0.0
 11
262.4456913727582
 21
493.4694669845207
 31
0.0
 12
269.4456913727582
 22
494.6361336511874
 32
0.0
 13
269.4456913727582
 23
494.6361336511874
 33
0.0
  0
MTEXT
  5
162C
330
13DA
100
AcDbEntity
  8
BEM
 62
     1
100
AcDbMText
 10
224.9456913727583
 20
501.1361336511874
 30
0.0
 40
7.0
 41
0.0
 71
     5
 72
     1
  1
\A1;%%c89
 73
     1
 44
1.0
  0
POINT
  5
162D
330
13DA
100
AcDbEntity
  8
DEFPOINTS
 62
     0
100
AcDbPoint
 10
180.4456913727583
 20
467.0484882315145
 30
0.0
  0
POINT
  5
162E
330
13DA
100
AcDbEntity
  8
DEFPOINTS
 62
     0
100
AcDbPoint
 10
269.4456913727582
 20
467.0484882315142
 30
0.0
  0
POINT
  5
162F
330
13DA
100
AcDbEntity
  8
DEFPOINTS
 62
     0
100
AcDbPoint
 10
269.4456913727582
 20
494.6361336511874
 30
0.0
  0
ENDBLK
  5
13E5
330
13DA
100
AcDbEntity
  8
0
100
AcDbBlockEnd
  0
BLOCK
  5
167F
330
1675
100
AcDbEntity
  8
0
100
AcDbBlockBegin
  2
*D12
 70
     1
 10
0.0
 20
0.0
 30
0.0
  3
*D12
  1

  0
LINE
  5
1681
330
1675
100
AcDbEntity
  8
SCHRAFF
 62
     0
370
    -2
100
AcDbLine
 10
197.0166715899752
 20
469.0484882315144
 30
0.0
 11
197.0166715899752
 21
481.5570494233327
 31
0.0
  0
LINE
  5
1682
330
1675
100
AcDbEntity
  8
SCHRAFF
 62
     0
370
    -2
100
AcDbLine
 10
252.874711155541
 20
469.0484882315144
 30
0.0
 11
252.874711155541
 21
481.5570494233327
 31
0.0
  0
LINE
  5
1683
330
1675
100
AcDbEntity
  8
SCHRAFF
 62
     0
370
    -2
100
AcDbLine
 10
204.0166715899752
 20
479.5570494233327
 30
0.0
 11
245.874711155541
 21
479.5570494233327
 31
0.0
  0
SOLID
  5
1684
330
1675
100
AcDbEntity
  8
SCHRAFF
 62
     0
100
AcDbTrace
 10
204.0166715899752
 20
480.7237160899994
 30
0.0
 11
204.0166715899752
 21
478.390382756666
 31
0.0
 12
197.0166715899752
 22
479.5570494233327
 32
0.0
 13
197.0166715899752
 23
479.5570494233327
 33
0.0
  0
SOLID
  5
1685
330
1675
100
AcDbEntity
  8
SCHRAFF
 62
     0
100
AcDbTrace
 10
245.874711155541
 20
480.7237160899994
 30
0.0
 11
245.874711155541
 21
478.390382756666
 31
0.0
 12
252.874711155541
 22
479.5570494233327
 32
0.0
 13
252.874711155541
 23
479.5570494233327
 33
0.0
  0
MTEXT
  5
1686
330
1675
100
AcDbEntity
  8
SCHRAFF
 62
     1
100
AcDbMText
 10
224.9456913727581
 20
486.0570494233327
 30
0.0
 40
7.0
 41
0.0
 71
     5
 72
     1
  1
\A1;%%c56
 73
     1
 44
1.0
  0
POINT
  5
1687
330
1675
100
AcDbEntity
  8
DEFPOINTS
 62
     0
100
AcDbPoint
 10
197.0166715899752
 20
467.0484882315143
 30
0.0
  0
POINT
  5
1688
330
1675
100
AcDbEntity
  8
DEFPOINTS
 62
     0
100
AcDbPoint
 10
252.874711155541
 20
467.0484882315143
 30
0.0
  0
POINT
  5
1689
330
1675
100
AcDbEntity
  8
DEFPOINTS
 62
     0
100
AcDbPoint
 10
252.874711155541
 20
479.5570494233327
 30
0.0
  0
ENDBLK
  5
1680
330
1675
100
AcDbEntity
  8
0
100
AcDbBlockEnd
  0
ENDSEC
  0
SECTION
  2
ENTITIES
  0
LINE
  5
57
330
1E
100
AcDbEntity
  8
STEMPEL
100
AcDbLine
 10
410.0
 20
110.0
 30
0.0
 11
39.99999999999997
 21
110.0
 31
0.0
  0
LINE
  5
58
330
1E
100
AcDbEntity
  8
STEMPEL
100
AcDbLine
 10
136.0000000000001
 20
109.9999999999999
 30
0.0
 11
136.0
 21
9.999999999999971
 31
0.0
  0
LINE
  5
59
330
1E
100
AcDbEntity
  8
STEMPEL
100
AcDbLine
 10
220.0
 20
110.0
 30
0.0
 11
220.0
 21
9.999999999999971
 31
0.0
  0
LINE
  5
5A
330
1E
100
AcDbEntity
  8
STEMPEL
100
AcDbLine
 10
332.0
 20
109.9999999999997
 30
0.0
 11
332.0
 21
40.0
 31
0.0
  0
LINE
  5
5B
330
1E
100
AcDbEntity
  8
STEMPEL
100
AcDbLine
 10
135.9999999999999
 20
29.99999999999997
 30
0.0
 11
39.99999999999997
 21
29.99999999999997
 31
0.0
  0
LINE
  5
5C
330
1E
100
AcDbEntity
  8
STEMPEL
100
AcDbLine
 10
410.0
 20
40.0
 30
0.0
 11
136.0000000000001
 21
39.99999999999997
 31
0.0
  0
LINE
  5
5D
330
1E
100
AcDbEntity
  8
STEMPEL
100
AcDbLine
 10
410.0
 20
80.0
 30
0.0
 11
136.0000000000001
 21
79.99999999999994
 31
0.0
  0
LINE
  5
5E
330
1E
100
AcDbEntity
  8
VOLL
100
AcDbLine
 10
54.00000000000009
 20
110.0
 30
0.0
 11
53.99999999999997
 21
9.999999999999971
 31
0.0
  0
LINE
  5
5F
330
1E
100
AcDbEntity
  8
VOLL
100
AcDbLine
 10
94.00000000000011
 20
109.9999999999999
 30
0.0
 11
94.0
 21
9.999999999999971
 31
0.0
  0
LINE
  5
60
330
1E
100
AcDbEntity
  8
VOLL
100
AcDbLine
 10
114.0000000000001
 20
109.9999999999999
 30
0.0
 11
114.0
 21
9.999999999999971
 31
0.0
  0
LINE
  5
61
330
1E
100
AcDbEntity
  8
VOLL
100
AcDbLine
 10
154.0000000000001
 20
79.99999999999994
 30
0.0
 11
154.0000000000001
 21
39.99999999999997
 31
0.0
  0
LINE
  5
62
330
1E
100
AcDbEntity
  8
VOLL
100
AcDbLine
 10
180.0000000000001
 20
109.9999999999998
 30
0.0
 11
180.0
 21
39.99999999999997
 31
0.0
  0
LINE
  5
63
330
1E
100
AcDbEntity
  8
HILF
100
AcDbLine
 10
40.00000000000008
 20
100.0
 30
0.0
 11
136.0000000000001
 21
100.0
 31
0.0
  0
LINE
  5
64
330
1E
100
AcDbEntity
  8
HILF
100
AcDbLine
 10
40.00000000000008
 20
90.00000000000005
 30
0.0
 11
136.0000000000001
 21
90.00000000000005
 31
0.0
  0
LINE
  5
65
330
1E
100
AcDbEntity
  8
HILF
100
AcDbLine
 10
40.00000000000008
 20
79.99999999999994
 30
0.0
 11
136.0000000000001
 21
79.99999999999994
 31
0.0
  0
LINE
  5
66
330
1E
100
AcDbEntity
  8
HILF
100
AcDbLine
 10
40.00000000000008
 20
69.99999999999994
 30
0.0
 11
136.0000000000001
 21
69.99999999999994
 31
0.0
  0
LINE
  5
67
330
1E
100
AcDbEntity
  8
HILF
100
AcDbLine
 10
40.00000000000008
 20
59.99999999999997
 30
0.0
 11
136.0000000000001
 21
59.99999999999997
 31
0.0
  0
LINE
  5
68
330
1E
100
AcDbEntity
  8
HILF
100
AcDbLine
 10
40.00000000000008
 20
49.99999999999997
 30
0.0
 11
136.0000000000001
 21
49.99999999999997
 31
0.0
  0
LINE
  5
69
330
1E
100
AcDbEntity
  8
HILF
100
AcDbLine
 10
40.00000000000008
 20
39.99999999999997
 30
0.0
 11
136.0000000000001
 21
39.99999999999997
 31
0.0
  0
LINE
  5
6A
330
1E
100
AcDbEntity
  8
HILF
100
AcDbLine
 10
136.0000000000001
 20
69.99999999999994
 30
0.0
 11
220.0
 21
69.99999999999994
 31
0.0
  0
LINE
  5
6B
330
1E
100
AcDbEntity
  8
HILF
100
AcDbLine
 10
136.0000000000001
 20
59.99999999999997
 30
0.0
 11
220.0
 21
59.99999999999997
 31
0.0
  0
LINE
  5
6C
330
1E
100
AcDbEntity
  8
HILF
100
AcDbLine
 10
136.0000000000001
 20
49.99999999999997
 30
0.0
 11
220.0
 21
49.99999999999997
 31
0.0
  0
LINE
  5
6D
330
1E
100
AcDbEntity
  8
HILF
100
AcDbLine
 10
224.7736801096948
 20
84.03758247564139
 30
0.0
 11
324.8353916556311
 21
84.03758247564139
 31
0.0
  0
LINE
  5
6E
330
1E
100
AcDbEntity
  8
HILF
100
AcDbLine
 10
224.7736801096948
 20
69.99999999999994
 30
0.0
 11
324.835391655631
 21
69.99999999999994
 31
0.0
  0
LINE
  5
6F
330
1E
100
AcDbEntity
  8
HILF
100
AcDbLine
 10
224.7736801096948
 20
59.99999999999997
 30
0.0
 11
324.835391655631
 21
59.99999999999997
 31
0.0
  0
LINE
  5
70
330
1E
100
AcDbEntity
  8
HILF
100
AcDbLine
 10
224.7736801096948
 20
49.99999999999997
 30
0.0
 11
324.835391655631
 21
49.99999999999997
 31
0.0
  0
LINE
  5
71
330
1E
100
AcDbEntity
  8
VOLL
100
AcDbLine
 10
332.0
 20
60.0
 30
0.0
 11
410.0
 21
60.0
 31
0.0
  0
LINE
  5
72
330
1E
100
AcDbEntity
  8
HILF
100
AcDbLine
 10
336.7238616296993
 20
83.77983636955827
 30
0.0
 11
404.8588839326728
 21
83.77983636955827
 31
0.0
  0
LINE
  5
73
330
1E
100
AcDbEntity
  8
HILF
100
AcDbLine
 10
223.4909699289885
 20
14.89398258028314
 30
0.0
 11
404.8588839326728
 21
14.89398258028314
 31
0.0
  0
TEXT
  5
74
330
1E
100
AcDbEntity
  8
TEXT
100
AcDbText
 10
63.86165979631819
 20
18.67381894984132
 30
0.0
 40
4.0
  1
Änderung
 41
0.8
  7
GREEKS
 72
     1
 11
74.60451693917534
 21
18.67381894984132
 31
0.0
100
AcDbText
  0
TEXT
  5
75
330
1E
100
AcDbEntity
  8
TEXT
100
AcDbText
 10
143.5163572150377
 20
102.4620895087088
 30
0.0
 40
5.0
  1
Maßstab
 41
0.8
  7
GREEKS
100
AcDbText
  0
TEXT
  5
76
330
1E
100
AcDbEntity
  8
TEXT
100
AcDbText
 10
184.2858954734051
 20
102.4184168434819
 30
0.0
 40
5.0
  1
Zul. Abw.
 41
0.8
  7
GREEKS
100
AcDbText
  0
TEXT
  5
77
330
1E
100
AcDbEntity
  8
TEXT
100
AcDbText
 10
224.877940380901
 20
102.5489328011779
 30
0.0
 40
5.0
  1
Benennung
 41
0.8
  7
GREEKS
100
AcDbText
  0
TEXT
  5
78
330
1E
100
AcDbEntity
  8
TEXT
100
AcDbText
 10
336.178754957634
 20
102.3132034537136
 30
0.0
 40
5.0
  1
Zeichnungs Nr.
 41
0.8
  7
GREEKS
100
AcDbText
  0
TEXT
  5
79
330
1E
100
AcDbEntity
  8
TEXT
100
AcDbText
 10
224.742238391136
 20
30.84560570193057
 30
0.0
 40
5.0
  1
Bauvorhaben
 41
0.8
  7
GREEKS
100
AcDbText
  0
TEXT
  5
7A
330
1E
100
AcDbEntity
  8
TEXT
100
AcDbText
 10
336.7238616296993
 20
73.1811823709997
 30
0.0
 40
5.0
  1
Ersatz für:
 41
0.8
  7
GREEKS
100
AcDbText
  0
TEXT
  5
7B
330
1E
100
AcDbEntity
  8
TEXT
100
AcDbText
 10
48.26641107045756
 20
13.65465846027192
 30
0.0
 40
4.0
  1
Index
 50
90.0
 41
0.8
  7
GREEKS
100
AcDbText
  0
TEXT
  5
7C
330
1E
100
AcDbEntity
  8
TEXT
100
AcDbText
 10
100.0934676075481
 20
18.6715626933981
 30
0.0
 40
4.0
  1
Tag
 41
0.8
  7
GREEKS
 72
     1
 11
103.8268009408814
 21
18.6715626933981
 31
0.0
100
AcDbText
  0
TEXT
  5
7D
330
1E
100
AcDbEntity
  8
TEXT
100
AcDbText
 10
119.0122744386592
 20
18.59324216966408
 30
0.0
 40
4.0
  1
Name
 41
0.8
  7
GREEKS
 72
     1
 11
125.3360839624688
 21
18.59324216966408
 31
0.0
100
AcDbText
  0
TEXT
  5
7E
330
1E
100
AcDbEntity
  8
TEXT
100
AcDbText
 10
162.3311673153651
 20
73.31880501229926
 30
0.0
 40
4.0
  1
Tag
 41
0.8
  7
GREEKS
100
AcDbText
  0
TEXT
  5
7F
330
1E
100
AcDbEntity
  8
TEXT
100
AcDbText
 10
192.4626584226295
 20
73.30961091915225
 30
0.0
 40
4.0
  1
Name
 41
0.8
  7
GREEKS
100
AcDbText
  0
TEXT
  5
80
330
1E
100
AcDbEntity
  8
TEXT
100
AcDbText
 10
137.5836127167615
 20
63.62990369617964
 30
0.0
 40
4.0
  1
Gez.
 41
0.8
  7
GREEKS
100
AcDbText
  0
TEXT
  5
81
330
1E
100
AcDbEntity
  8
TEXT
100
AcDbText
 10
137.5515086571672
 20
53.68926291428377
 30
0.0
 40
4.0
  1
Gepr.
 41
0.8
  7
GREEKS
100
AcDbText
  0
TEXT
  5
82
330
1E
100
AcDbEntity
  8
TEXT
100
AcDbText
 10
137.6006777387304
 20
43.52946389649807
 30
0.0
 40
4.0
  1
Norm.
 41
0.8
  7
GREEKS
100
AcDbText
  0
LINE
  5
83
330
1E
100
AcDbEntity
  8
STEMPEL
100
AcDbLine
 10
49.99999999999989
 20
10.0
 30
0.0
 11
410.0
 21
10.0
 31
0.0
  0
TEXT
  5
84
330
1E
100
AcDbEntity
  8
TEXT
100
AcDbText
 10
337.2400861497006
 20
52.07416177878602
 30
0.0
 40
5.0
  1
ersetzt durch:
 41
0.8
  7
GREEKS
100
AcDbText
  0
LINE
  5
85
330
1E
100
AcDbEntity
  8
STEMPEL
100
AcDbLine
 10
410.0
 20
10.0
 30
0.0
 11
39.99999999999989
 21
10.0
 31
0.0
  0
LINE
  5
86
330
1E
100
AcDbEntity
  8
STEMPEL
100
AcDbLine
 10
410.0
 20
10.0
 30
0.0
 11
410.0
 21
584.0
 31
0.0
  0
LINE
  5
87
330
1E
100
AcDbEntity
  8
STEMPEL
100
AcDbLine
 10
40.0
 20
10.0
 30
0.0
 11
39.99999999999989
 21
584.0
 31
0.0
  0
LINE
  5
88
330
1E
100
AcDbEntity
  8
STEMPEL
100
AcDbLine
 10
410.0
 20
584.0
 30
0.0
 11
39.99999999999989
 21
584.0
 31
0.0
  0
LINE
  5
89
330
1E
100
AcDbEntity
  8
HILF
100
AcDbLine
 10
0.0
 20
0.0
 30
0.0
 11
-0.0000000000001137
 21
594.0
 31
0.0
  0
LINE
  5
8A
330
1E
100
AcDbEntity
  8
HILF
100
AcDbLine
 10
419.9999999999999
 20
594.0000000000002
 30
0.0
 11
0.0
 21
594.0
 31
0.0
  0
LINE
  5
8B
330
1E
100
AcDbEntity
  8
HILF
100
AcDbLine
 10
420.0
 20
0.0
 30
0.0
 11
0.0
 21
0.0
 31
0.0
  0
LINE
  5
8C
330
1E
100
AcDbEntity
  8
HILF
100
AcDbLine
 10
31.08767135713856
 20
297.0
 30
0.0
 11
0.0000000000001137
 21
297.0
 31
0.0
  0
TEXT
  5
8D
330
1E
100
AcDbEntity
  8
TEXT
100
AcDbText
 10
138.622109822104
 20
73.14025471151666
 30
0.0
 40
4.0
  1
2012
 41
0.8
  7
GREEKS
100
AcDbText
  0
LINE
  5
8E
330
1E
100
AcDbEntity
  8
HILF
100
AcDbLine
 10
420.0
 20
-0.0000000000001137
 30
0.0
 11
419.9999999999999
 21
594.0
 31
0.0
  0
TEXT
  5
8F
330
1E
100
AcDbEntity
  8
VOLL
100
AcDbText
 10
78.07675471698113
 20
31.02594776470585
 30
0.0
 40
1.8
  1

  7
GREEKS
100
AcDbText
  0
TEXT
  5
90
330
1E
100
AcDbEntity
  8
TEXT
100
AcDbText
 10
41.85509950977674
 20
111.6719999999999
 30
0.0
 40
5.0
  1
Erstellt mit AUTOCAD 2004
 41
0.8
  7
GREEKS
100
AcDbText
  0
TEXT
  5
91
330
1E
100
AcDbEntity
  8
TEXT
100
AcDbText
 10
194.4216048581257
 20
63.0896391972351
 30
0.0
 40
4.0
  1
Koeh
 41
0.8
  7
GREEKS
 72
     1
 11
199.6787477152685
 21
63.0896391972351
 31
0.0
100
AcDbText
  0
TEXT
  5
92
330
1E
100
AcDbEntity
  8
TEXT
 62
     1
100
AcDbText
 10
346.8850229399058
 20
88.14901428913959
 30
0.0
 40
7.0
  1
58060BD0W
 41
0.8
  7
GREEKS
 72
     1
 11
371.1516896065724
 21
88.14901428913959
 31
0.0
100
AcDbText
  0
TEXT
  5
93
330
1E
100
AcDbEntity
  8
TEXT
 62
     1
100
AcDbText
 10
150.5006306481887
 20
88.14901428913959
 30
0.0
 40
7.0
  1
1:2
 41
0.8
  7
GREEKS
100
AcDbText
  0
TEXT
  5
94
330
1E
100
AcDbEntity
  8
TEXT
100
AcDbText
 10
161.3894732987122
 20
63.10765040825732
 30
0.0
 40
4.0
  1
10.09
 41
0.8
  7
GREEKS
 72
     1
 11
167.4085209177598
 21
63.10765040825732
 31
0.0
100
AcDbText
  0
TEXT
  5
95
330
1E
100
AcDbEntity
  8
TEXT
 62
     1
100
AcDbText
 10
224.2909241008022
 20
87.41748789253779
 30
0.0
 40
7.0
  1
Übergangsrohr DN50/100
 41
0.75
  7
GREEKS
100
AcDbText
  0
TEXT
  5
96
330
1E
100
AcDbEntity
  8
TEXT
100
AcDbText
 10
225.1296391125315
 20
71.50334417585288
 30
0.0
 40
5.0
  1
konzentrisches Red.-Stück
 41
0.8
  7
GREEKS
100
AcDbText
  0
TEXT
  5
98
330
1E
100
AcDbEntity
  8
TEXT
100
AcDbText
 10
225.1296391125315
 20
51.64011943042158
 30
0.0
 40
5.0
  1
EDV-Art.Nr. 58060.BD0X
 41
0.8
  7
GREEKS
100
AcDbText
  0
TEXT
  5
99
330
1E
100
AcDbEntity
  8
TEXT
100
AcDbText
 10
224.9837501577827
 20
42.62974153022632
 30
0.0
 40
4.0
  1
58060BD0W.DWG
 41
0.8
  7
GREEKS
100
AcDbText
  0
TEXT
  5
9A
330
1E
100
AcDbEntity
  8
TEXT
100
AcDbText
 10
182.626132208084
 20
90.76363841023022
 30
0.0
 40
4.0
  1
DIN EN1123-2
 41
0.8
  7
GREEKS
 72
     1
 11
199.6166083985602
 21
90.76363841023022
 31
0.0
100
AcDbText
  0
INSERT
  5
9B
330
1E
100
AcDbEntity
  8
STEMPEL
100
AcDbBlockReference
  2
LOGO
 10
140.9955485457794
 20
45.02105276448322
 30
0.0
 41
2.0
 42
2.0
 43
2.0
  0
TEXT
  5
118
330
1E
100
AcDbEntity
  8
BEM
100
AcDbText
 10
417.3022923857165
 20
10.16790107998849
 30
0.0
 40
4.0
  1
Diese Zeichnung ist urheberrechtlich geschützt und bleibt unser Eigentum. Sie darf weder ganz noch teilweise verfielfältigt und nicht an Dritte weitergegeben werden.
 50
90.0
 41
0.8
  7
GREEKS
100
AcDbText
  0
TEXT
  5
1CA
330
1E
100
AcDbEntity
  8
TEXT
 62
     1
100
AcDbText
 10
221.4534354569657
 20
445.5422263127921
 30
0.0
 40
7.0
  1
DN50
 50
90.0
 41
0.8
  7
GREEKS
100
AcDbText
  0
TEXT
  5
31C
330
1E
100
AcDbEntity
  8
TEXT
 62
     1
100
AcDbText
 10
221.4534354569657
 20
317.6655417888422
 30
0.0
 40
7.0
  1
DN100
 50
90.0
 41
0.8
  7
GREEKS
100
AcDbText
  0
INSERT
  5
F53
330
1E
100
AcDbEntity
  8
SCHRAFF
100
AcDbBlockReference
  2
*X1
 10
1.885104156331863
 20
4.053503872725627
 30
0.0
1001
ACAD
1000
HATCH
1002
{
1070
    16
1000
_U,I
1040
0.1
1040
0.0
1070
     0
1002
}
  0
ARC
  5
F54
102
{ACAD_REACTORS
330
15FF
102
}
330
1E
100
AcDbEntity
  8
SCHRAFF
100
AcDbCircle
 10
186.5663305309278
 20
388.2600252464602
 30
0.0
 40
2.978204050690543
100
AcDbArc
 50
69.43758001909481
 51
204.0040496482504
  0
ARC
  5
F55
102
{ACAD_REACTORS
330
15FF
102
}
330
1E
100
AcDbEntity
  8
SCHRAFF
100
AcDbCircle
 10
263.1349379208507
 20
388.0810009531903
 30
0.0
 40
3.08845724888892
100
AcDbArc
 50
340.4692068938659
 51
106.0891634387868
  0
DIMENSION
  5
F76
330
1E
100
AcDbEntity
  8
BEM
100
AcDbDimension
  2
*D2
 10
275.9456913727583
 20
248.8437712885703
 30
0.0
 11
224.9456913727584
 21
255.3437712885703
 31
0.0
 70
    32
  1
%%C<>
 71
     5
 42
102.0
  3
Standard
100
AcDbAlignedDimension
 13
173.9456913727583
 23
277.5669339791248
 33
0.0
 14
275.9456913727583
 24
277.5669339791248
 34
0.0
100
AcDbRotatedDimension
1001
ACAD
1000
DSTYLE
1002
{
1070
    40
1040
2.0
1070
    41
1040
3.5
1070
    42
1040
1.0
1070
    43
1040
7.0
1070
    44
1040
1.0
1070
    73
1070
     0
1070
    74
1070
     0
1070
    77
1070
     1
1070
    78
1070
     8
1070
    79
1070
     2
1070
   140
1040
3.5
1070
   141
1040
1.5
1070
   146
1040
0.5142857142857144
1070
   147
1040
1.5
1070
   172
1070
     1
1070
   178
1070
     1
1070
   179
1070
     2
1070
   271
1070
     2
1070
   272
1070
     2
1070
   284
1070
     8
1070
   285
1070
     8
1070
   286
1070
     8
1002
}
  0
LINE
  5
F7D
330
1E
100
AcDbEntity
  8
HILF
  6
Continuous
100
AcDbLine
 10
248.7409987758556
 20
404.4131775388296
 30
0.0
 11
201.1503839696607
 21
404.4131775388296
 31
0.0
  0
ARC
  5
F7E
102
{ACAD_REACTORS
330
1524
330
15FF
102
}
330
1E
100
AcDbEntity
  8
STEMPEL
100
AcDbCircle
 10
185.9456913727583
 20
365.9662070449398
 30
0.0
 40
12.0
100
AcDbArc
 50
151.1892062570277
 51
180.0
  0
ARC
  5
F7F
102
{ACAD_REACTORS
330
1524
330
15FF
102
}
330
1E
100
AcDbEntity
  8
STEMPEL
100
AcDbCircle
 10
263.9456913727583
 20
365.96620704494
 30
0.0
 40
12.0
100
AcDbArc
 50
0.0
 51
28.81079374297224
  0
ARC
  5
F80
102
{ACAD_REACTORS
330
15FF
102
}
330
1E
100
AcDbEntity
  8
STEMPEL
100
AcDbCircle
 10
190.4456913727581
 20
406.9448877129649
 30
0.0
 40
8.0
100
AcDbArc
 50
320.1944289077368
 51
0.0
  0
ARC
  5
F81
102
{ACAD_REACTORS
330
15FF
102
}
330
1E
100
AcDbEntity
  8
STEMPEL
100
AcDbCircle
 10
259.4456913727581
 20
406.944887712965
 30
0.0
 40
8.0
100
AcDbArc
 50
180.0
 51
219.805571092266
  0
LINE
  5
F82
102
{ACAD_REACTORS
330
15FF
102
}
330
1E
100
AcDbEntity
  8
STEMPEL
100
AcDbLine
 10
196.5914616095372
 20
401.8234125156491
 30
0.0
 11
185.9456913727583
 21
389.0484882315143
 31
0.0
  0
LINE
  5
F83
102
{ACAD_REACTORS
330
15FF
102
}
330
1E
100
AcDbEntity
  8
STEMPEL
100
AcDbLine
 10
263.9456913727583
 20
389.0484882315143
 30
0.0
 11
253.2999211359792
 21
401.8234125156491
 31
0.0
  0
LINE
  5
F84
102
{ACAD_REACTORS
330
1524
330
15FF
102
}
330
1E
100
AcDbEntity
  8
STEMPEL
100
AcDbLine
 10
264.9456913727584
 20
389.0484882315143
 30
0.0
 11
274.4602822768781
 21
371.7492320422058
 31
0.0
  0
LINE
  5
F85
102
{ACAD_REACTORS
330
1524
102
}
330
1E
100
AcDbEntity
  8
STEMPEL
100
AcDbLine
 10
184.9456913727583
 20
389.0484882315143
 30
0.0
 11
264.9456913727584
 21
389.0484882315143
 31
0.0
  0
LINE
  5
F86
102
{ACAD_REACTORS
330
1524
330
15FF
102
}
330
1E
100
AcDbEntity
  8
STEMPEL
100
AcDbLine
 10
175.4311004686385
 20
371.7492320422057
 30
0.0
 11
184.9456913727583
 21
389.0484882315143
 31
0.0
  0
LINE
  5
F87
330
1E
100
AcDbEntity
  8
HILF
  6
Continuous
100
AcDbLine
 10
271.3280719296579
 20
369.0484882315145
 30
0.0
 11
178.5633108158587
 21
369.0484882315143
 31
0.0
  0
LINE
  5
F88
102
{ACAD_REACTORS
330
1524
102
}
330
1E
100
AcDbEntity
  8
STEMPEL
100
AcDbLine
 10
275.9456913727583
 20
277.5669339791248
 30
0.0
 11
274.6333614198695
 21
269.0484882315144
 31
0.0
  0
LINE
  5
F89
102
{ACAD_REACTORS
330
1524
102
}
330
1E
100
AcDbEntity
  8
STEMPEL
100
AcDbLine
 10
173.9456913727583
 20
277.5669339791248
 30
0.0
 11
175.2580213256472
 21
269.0484882315143
 31
0.0
  0
LINE
  5
F8A
330
1E
100
AcDbEntity
  8
HILF
  6
Continuous
100
AcDbLine
 10
271.8985023332057
 20
277.5669339791249
 30
0.0
 11
177.9928804123109
 21
277.5669339791248
 31
0.0
  0
LINE
  5
F8B
102
{ACAD_REACTORS
330
1524
330
15FF
102
}
330
1E
100
AcDbEntity
  8
STEMPEL
100
AcDbLine
 10
173.9456913727583
 20
365.9662070449398
 30
0.0
 11
173.9456913727583
 21
277.5669339791248
 31
0.0
  0
LINE
  5
F8C
102
{ACAD_REACTORS
330
1524
330
15FF
102
}
330
1E
100
AcDbEntity
  8
STEMPEL
100
AcDbLine
 10
275.9456913727583
 20
365.96620704494
 30
0.0
 11
275.9456913727583
 21
277.5669339791248
 31
0.0
  0
LINE
  5
F8D
330
1E
100
AcDbEntity
  8
MITTEL
100
AcDbLine
 10
224.9456913727584
 20
472.0484882315142
 30
0.0
 11
224.9456913727583
 21
264.0484882315143
 31
0.0
  0
LINE
  5
F91
102
{ACAD_REACTORS
330
1524
102
}
330
1E
100
AcDbEntity
  8
STEMPEL
  6
Continuous
100
AcDbLine
 10
274.6333614198695
 20
269.0484882315144
 30
0.0
 11
175.2580213256472
 21
269.0484882315143
 31
0.0
  0
LINE
  5
F92
330
1E
100
AcDbEntity
  8
STEMPEL
  6
Continuous
100
AcDbLine
 10
254.5527362219493
 20
467.0484882315143
 30
0.0
 11
254.6186932199728
 21
466.9070429927971
 31
0.0
  0
LINE
  5
F93
330
1E
100
AcDbEntity
  8
STEMPEL
  6
Continuous
100
AcDbLine
 10
256.4456913727581
 20
458.6659868888534
 30
0.0
 11
256.4456913727581
 21
454.1704525295062
 31
0.0
  0
ARC
  5
F94
102
{ACAD_REACTORS
330
15FF
102
}
330
1E
100
AcDbEntity
  8
STEMPEL
  6
Continuous
100
AcDbCircle
 10
264.4456913727581
 20
442.5484882315143
 30
0.0
 40
10.0
100
AcDbArc
 50
160.536900555311
 51
180.0
  0
ARC
  5
F95
102
{ACAD_REACTORS
330
15FF
102
}
330
1E
100
AcDbEntity
  8
STEMPEL
  6
Continuous
100
AcDbCircle
 10
231.4456913727581
 20
454.2104882315142
 30
0.0
 40
25.00003205712822
100
AcDbArc
 50
340.536900555311
 51
0.0917549918093325
  0
ARC
  5
F96
330
1E
100
AcDbEntity
  8
STEMPEL
  6
Continuous
100
AcDbCircle
 10
236.9456913727581
 20
458.6659868888534
 30
0.0
 40
19.5
100
AcDbArc
 50
0.0
 51
24.99999999999226
  0
ARC
  5
F97
102
{ACAD_REACTORS
330
15FF
102
}
330
1E
100
AcDbEntity
  8
STEMPEL
  6
Continuous
100
AcDbCircle
 10
242.4456913727581
 20
434.4568151447102
 30
0.0
 40
12.0
100
AcDbArc
 50
328.2116693829494
 51
0.0
  0
ARC
  5
F98
102
{ACAD_REACTORS
330
15FF
102
}
330
1E
100
AcDbEntity
  8
STEMPEL
  6
Continuous
100
AcDbCircle
 10
259.4456913727581
 20
423.9211613918575
 30
0.0
 40
8.0
100
AcDbArc
 50
148.2116693829494
 51
180.0
  0
LINE
  5
F99
102
{ACAD_REACTORS
330
15FF
102
}
330
1E
100
AcDbEntity
  8
STEMPEL
100
AcDbLine
 10
251.4456913727581
 20
423.9211613918575
 30
0.0
 11
251.4456913727581
 21
406.944887712965
 31
0.0
  0
LINE
  5
F9A
102
{ACAD_REACTORS
330
15FF
102
}
330
1E
100
AcDbEntity
  8
STEMPEL
  6
Continuous
100
AcDbLine
 10
254.445691372758
 20
442.5484882315143
 30
0.0
 11
254.4456913727581
 21
434.4568151447102
 31
0.0
  0
LINE
  5
F9C
330
1E
100
AcDbEntity
  8
STEMPEL
  6
Continuous
100
AcDbLine
 10
193.4456913727581
 20
458.6659868888534
 30
0.0
 11
193.4456913727581
 21
454.1704525295062
 31
0.0
  0
ARC
  5
F9D
102
{ACAD_REACTORS
330
15FF
102
}
330
1E
100
AcDbEntity
  8
STEMPEL
  6
Continuous
100
AcDbCircle
 10
185.4456913727581
 20
442.5484882315143
 30
0.0
 40
10.0
100
AcDbArc
 50
0.0
 51
19.46309944468893
  0
ARC
  5
F9E
102
{ACAD_REACTORS
330
15FF
102
}
330
1E
100
AcDbEntity
  8
STEMPEL
  6
Continuous
100
AcDbCircle
 10
218.4456913727581
 20
454.2104882315142
 30
0.0
 40
25.00003205712822
100
AcDbArc
 50
179.9082450081906
 51
199.4630994446889
  0
ARC
  5
F9F
330
1E
100
AcDbEntity
  8
STEMPEL
  6
Continuous
100
AcDbCircle
 10
212.9456913727581
 20
458.6659868888534
 30
0.0
 40
19.5
100
AcDbArc
 50
155.0000000000033
 51
180.0
  0
ARC
  5
FA0
102
{ACAD_REACTORS
330
15FF
102
}
330
1E
100
AcDbEntity
  8
STEMPEL
  6
Continuous
100
AcDbCircle
 10
207.4456913727581
 20
434.4568151447102
 30
0.0
 40
12.0
100
AcDbArc
 50
180.0
 51
211.7883306170506
  0
ARC
  5
FA1
102
{ACAD_REACTORS
330
15FF
102
}
330
1E
100
AcDbEntity
  8
STEMPEL
  6
Continuous
100
AcDbCircle
 10
190.4456913727581
 20
423.9211613918575
 30
0.0
 40
8.0
100
AcDbArc
 50
0.0
 51
31.78833061705059
  0
LINE
  5
FA2
102
{ACAD_REACTORS
330
15FF
102
}
330
1E
100
AcDbEntity
  8
STEMPEL
100
AcDbLine
 10
198.4456913727581
 20
423.9211613918575
 30
0.0
 11
198.4456913727581
 21
406.9448877129649
 31
0.0
  0
LINE
  5
FA3
102
{ACAD_REACTORS
330
15FF
102
}
330
1E
100
AcDbEntity
  8
STEMPEL
  6
Continuous
100
AcDbLine
 10
195.4456913727581
 20
442.5484882315143
 30
0.0
 11
195.4456913727581
 21
434.4568151447102
 31
0.0
  0
DIMENSION
  5
1217
330
1E
100
AcDbEntity
  8
BEM
100
AcDbDimension
  2
*D3
 10
127.2749242158832
 20
467.0484882315143
 30
0.0
 11
120.7749242158831
 21
368.0484882315144
 31
0.0
 70
    32
 71
     5
 42
198.0
  3
Standard
100
AcDbAlignedDimension
 13
175.2580213256472
 23
269.0484882315143
 33
0.0
 14
180.4456913727583
 24
467.0484882315143
 34
0.0
 50
90.0
100
AcDbRotatedDimension
1001
ACAD
1000
DSTYLE
1002
{
1070
    40
1040
2.0
1070
    41
1040
3.5
1070
    42
1040
1.0
1070
    43
1040
7.0
1070
    44
1040
1.0
1070
    73
1070
     0
1070
    74
1070
     0
1070
    77
1070
     1
1070
    78
1070
     8
1070
    79
1070
     2
1070
   140
1040
3.5
1070
   141
1040
1.5
1070
   146
1040
0.5142857142857144
1070
   147
1040
1.5
1070
   172
1070
     1
1070
   178
1070
     1
1070
   179
1070
     2
1070
   271
1070
     2
1070
   272
1070
     2
1070
   284
1070
     8
1070
   285
1070
     8
1070
   286
1070
     8
1002
}
  0
LINE
  5
1248
330
1E
100
AcDbEntity
  8
HILF
100
AcDbLine
 10
198.3353311646184
 20
444.2388095134286
 30
0.0
 11
251.5560515808978
 21
444.2388095134285
 31
0.0
  0
LINE
  5
1249
330
1E
100
AcDbEntity
  8
HILF
100
AcDbLine
 10
199.0671473464967
 20
431.1704797996794
 30
0.0
 11
250.8242353990195
 21
431.1704797996794
 31
0.0
  0
LINE
  5
124A
330
1E
100
AcDbEntity
  8
HILF
100
AcDbLine
 10
201.2253017553276
 20
426.1120516218781
 30
0.0
 11
248.6660809901886
 21
426.1120516218781
 31
0.0
  0
LINE
  5
12F6
330
1E
100
AcDbEntity
  8
STEMPEL
100
AcDbLine
 10
280.9456913727583
 20
335.0484882315144
 30
0.0
 11
285.5644935262755
 21
327.0484882315141
 31
0.0
  0
LINE
  5
12F7
330
1E
100
AcDbEntity
  8
STEMPEL
100
AcDbLine
 10
275.9456913727583
 20
327.0484882315141
 30
0.0
 11
291.4456913727586
 21
327.0484882315139
 31
0.0
  0
HATCH
  5
12F8
330
1E
100
AcDbEntity
  8
SCHRAFF
100
AcDbHatch
 10
0.0
 20
0.0
 30
0.0
210
0.0
220
0.0
230
1.0
  2
NET
 70
     0
 71
     0
 91
        2
 92
        7
 72
     0
 73
     1
 93
        9
 10
288.9456913727585
 20
345.0484882315142
 10
287.4456913727582
 20
346.5484882315144
 10
275.9456913727585
 20
346.5484882315144
 10
275.9456913727585
 20
335.0484882315144
 10
280.9456913727583
 20
335.0484882315144
 10
285.5644935262755
 20
327.048488231514
 10
291.4456913727586
 20
327.0484882315139
 10
291.4456913727586
 20
329.0484882315143
 10
288.9456913727586
 20
329.0484882315143
 97
        0
 92
        7
 72
     0
 73
     1
 93
        9
 10
173.9456913727584
 20
346.5484882315144
 10
162.4456913727584
 20
346.5484882315144
 10
160.9456913727583
 20
345.0484882315145
 10
160.9456913727583
 20
329.0484882315143
 10
158.4456913727583
 20
329.0484882315144
 10
158.4456913727583
 20
327.0484882315144
 10
164.3268892192412
 20
327.0484882315143
 10
168.9456913727583
 20
335.0484882315144
 10
173.9456913727584
 20
335.0484882315143
 97
        0
 75
     0
 76
     1
 52
45.0
 41
20.0
 77
     0
 78
     2
 53
45.0
 43
-0.0543086272413689
 44
17.17349417232873
 45
-1.767766952966368
 46
1.767766952966368
 79
     0
 53
135.0
 43
-0.0543086272413689
 44
17.17349417232873
 45
-1.767766952966368
 46
-1.767766952966368
 79
     0
 47
0.1961114262777251
 98
        2
 10
284.7270567729885
 20
340.2463986210685
 10
172.2874201279265
 20
341.4230671597573
  0
DIMENSION
  5
12FC
330
1E
100
AcDbEntity
  8
BEM
100
AcDbDimension
  2
*D5
 10
291.4456913727585
 20
230.0411374264804
 30
0.0
 11
224.9456913727584
 21
236.5411374264803
 31
0.0
 70
    32
 71
     5
 42
133.0000000000001
  3
Standard
100
AcDbAlignedDimension
 13
158.4456913727583
 23
327.0484882315144
 33
0.0
 14
291.4456913727585
 24
327.0484882315143
 34
0.0
100
AcDbRotatedDimension
1001
ACAD
1000
DSTYLE
1002
{
1070
    40
1040
2.0
1070
    41
1040
3.5
1070
    42
1040
1.0
1070
    43
1040
7.0
1070
    44
1040
1.0
1070
    73
1070
     0
1070
    74
1070
     0
1070
    77
1070
     1
1070
    78
1070
     8
1070
    79
1070
     2
1070
   140
1040
3.5
1070
   141
1040
1.5
1070
   146
1040
0.5142857142857144
1070
   147
1040
1.5
1070
   172
1070
     1
1070
   178
1070
     1
1070
   179
1070
     2
1070
   271
1070
     2
1070
   272
1070
     2
1070
   284
1070
     8
1070
   285
1070
     8
1070
   286
1070
     8
1002
}
  0
LINE
  5
12FD
102
{ACAD_REACTORS
330
14EA
102
}
330
1E
100
AcDbEntity
  8
STEMPEL
100
AcDbLine
 10
291.4456913727585
 20
370.6510153554134
 30
0.0
 11
291.4456913727585
 21
327.0484882315139
 31
0.0
  0
LINE
  5
12FE
102
{ACAD_REACTORS
330
14EA
330
15FF
102
}
330
1E
100
AcDbEntity
  8
STEMPEL
100
AcDbLine
 10
288.9456913727585
 20
370.6510153554134
 30
0.0
 11
288.9456913727585
 21
329.0484882315143
 31
0.0
  0
LINE
  5
12FF
102
{ACAD_REACTORS
330
14EA
102
}
330
1E
100
AcDbEntity
  8
STEMPEL
100
AcDbLine
 10
291.4456913727583
 20
329.0484882315143
 30
0.0
 11
288.9456913727585
 21
329.0484882315143
 31
0.0
  0
LINE
  5
1300
330
1E
100
AcDbEntity
  8
STEMPEL
100
AcDbLine
 10
280.9456913727583
 20
335.0484882315144
 30
0.0
 11
275.9456913727583
 21
335.0484882315144
 31
0.0
  0
LINE
  5
1301
102
{ACAD_REACTORS
330
15FF
102
}
330
1E
100
AcDbEntity
  8
STEMPEL
100
AcDbLine
 10
287.4456913727582
 20
346.5484882315144
 30
0.0
 11
275.9456913727583
 21
346.5484882315144
 31
0.0
  0
LINE
  5
1302
102
{ACAD_REACTORS
330
15FF
102
}
330
1E
100
AcDbEntity
  8
STEMPEL
100
AcDbLine
 10
288.9456913727583
 20
345.0484882315144
 30
0.0
 11
287.4456913727582
 21
346.5484882315144
 31
0.0
  0
LINE
  5
1303
330
1E
100
AcDbEntity
  8
STEMPEL
100
AcDbLine
 10
168.9456913727583
 20
335.0484882315144
 30
0.0
 11
164.3268892192412
 21
327.0484882315143
 31
0.0
  0
LINE
  5
1304
330
1E
100
AcDbEntity
  8
STEMPEL
100
AcDbLine
 10
158.4456913727583
 20
327.0484882315144
 30
0.0
 11
173.9456913727584
 21
327.0484882315143
 31
0.0
  0
DIMENSION
  5
1305
330
1E
100
AcDbEntity
  8
BEM
100
AcDbDimension
  2
*D6
 10
141.038469302154
 20
269.0484882315144
 30
0.0
 11
134.538469302154
 21
299.0484882315144
 31
0.0
 70
    32
 71
     5
 42
60.0
  3
Standard
100
AcDbAlignedDimension
 13
158.4456913727583
 23
329.0484882315144
 33
0.0
 14
174.637961005879
 24
269.0484882315144
 34
0.0
 50
90.0
100
AcDbRotatedDimension
1001
ACAD
1000
DSTYLE
1002
{
1070
   279
1070
     1
1070
    40
1040
2.0
1070
    41
1040
3.5
1070
    42
1040
1.0
1070
    43
1040
7.0
1070
    44
1040
1.0
1070
    73
1070
     0
1070
    74
1070
     0
1070
    77
1070
     1
1070
    78
1070
     8
1070
    79
1070
     2
1070
   140
1040
3.5
1070
   141
1040
1.5
1070
   146
1040
0.5142857142857144
1070
   147
1040
1.5
1070
   172
1070
     1
1070
   178
1070
     1
1070
   179
1070
     2
1070
   271
1070
     2
1070
   272
1070
     2
1070
   284
1070
     8
1070
   285
1070
     8
1070
   286
1070
     8
1002
}
  0
LINE
  5
1309
102
{ACAD_REACTORS
330
14EA
102
}
330
1E
100
AcDbEntity
  8
STEMPEL
100
AcDbLine
 10
158.4456913727584
 20
329.0484882315144
 30
0.0
 11
160.9456913727583
 21
329.0484882315144
 31
0.0
  0
LINE
  5
130A
102
{ACAD_REACTORS
330
15FF
102
}
330
1E
100
AcDbEntity
  8
STEMPEL
100
AcDbLine
 10
173.9456913727583
 20
346.5484882315144
 30
0.0
 11
162.4456913727584
 21
346.5484882315144
 31
0.0
  0
LINE
  5
130B
102
{ACAD_REACTORS
330
15FF
102
}
330
1E
100
AcDbEntity
  8
STEMPEL
100
AcDbLine
 10
160.9456913727583
 20
345.0484882315144
 30
0.0
 11
162.4456913727584
 21
346.5484882315144
 31
0.0
  0
LINE
  5
137E
330
1E
100
AcDbEntity
  8
STEMPEL
100
AcDbLine
 10
168.9456913727583
 20
335.0484882315144
 30
0.0
 11
173.9456913727583
 21
335.0484882315144
 31
0.0
  0
HATCH
  5
13CE
330
1E
100
AcDbEntity
  8
SCHRAFF
100
AcDbHatch
 10
0.0
 20
0.0
 30
0.0
210
0.0
220
0.0
230
1.0
  2
NET
 70
     0
 71
     0
 91
        2
 92
        7
 72
     1
 73
     1
 93
        7
 10
267.8456913727584
 20
467.0484882315143
 42
0.0
 10
254.5527362219495
 20
467.0484882315143
 42
0.0
 10
254.6186932199696
 20
466.9070429928042
 42
-0.1095178116833424
 10
256.4456913727584
 20
458.6659868888536
 42
0.0
 10
256.4456913727584
 20
454.2505239335226
 42
-0.0120251093634699
 10
256.4187039835235
 20
453.0484882315143
 42
0.0
 10
267.8456913727583
 20
453.0484882315143
 42
0.0
 97
        0
 92
        7
 72
     1
 73
     1
 93
        7
 10
195.2726895255444
 20
466.9070429927985
 42
0.0
 10
195.3386465235671
 20
467.0484882315143
 42
0.0
 10
182.0456913727583
 20
467.0484882315143
 42
0.0
 10
182.0456913727583
 20
453.0484882315143
 42
0.0
 10
193.4726787619932
 20
453.0484882315143
 42
-0.0120251093634693
 10
193.4456913727583
 20
454.2505239335226
 42
0.0
 10
193.4456913727583
 20
458.6659868888535
 42
-0.1095178116832604
 97
        0
 75
     0
 76
     1
 52
45.0
 41
20.0
 77
     0
 78
     2
 53
45.0
 43
112.4456913727583
 44
206.2784416632593
 45
-1.767766952966368
 46
1.767766952966368
 79
     0
 53
135.0
 43
112.4456913727583
 44
206.2784416632593
 45
-1.767766952966368
 46
-1.767766952966368
 79
     0
 47
0.3039638615450001
 98
        2
 10
262.3610216759953
 20
459.725751433831
 10
189.6622762232617
 20
462.4614256509874
  0
DIMENSION
  5
13D0
330
1E
100
AcDbEntity
  8
BEM
100
AcDbDimension
  2
*D9
 10
269.4456913727582
 20
494.6361336511874
 30
0.0
 11
224.9456913727583
 21
501.1361336511874
 31
0.0
 70
    32
  1
%%c<>
 71
     5
 42
88.99999999999989
  3
Standard
100
AcDbAlignedDimension
 13
180.4456913727583
 23
467.0484882315145
 33
0.0
 14
269.4456913727582
 24
467.0484882315142
 34
0.0
100
AcDbRotatedDimension
1001
ACAD
1000
DSTYLE
1002
{
1070
    40
1040
2.0
1070
    41
1040
3.5
1070
    42
1040
1.0
1070
    43
1040
7.0
1070
    44
1040
1.0
1070
    73
1070
     0
1070
    74
1070
     0
1070
    77
1070
     1
1070
    78
1070
     8
1070
    79
1070
     2
1070
   140
1040
3.5
1070
   141
1040
1.5
1070
   146
1040
0.5142857142857144
1070
   147
1040
1.5
1070
   172
1070
     1
1070
   178
1070
     1
1070
   179
1070
     2
1070
   271
1070
     2
1070
   272
1070
     2
1070
   284
1070
     8
1070
   285
1070
     8
1070
   286
1070
     8
1002
}
  0
LINE
  5
13D1
102
{ACAD_REACTORS
330
15FF
102
}
330
1E
100
AcDbEntity
  8
STEMPEL
100
AcDbLine
 10
267.8456913727583
 20
453.0484882315143
 30
0.0
 11
256.4187039835236
 21
453.0484882315143
 31
0.0
  0
LINE
  5
13D3
102
{ACAD_REACTORS
330
14D0
330
15FF
102
}
330
1E
100
AcDbEntity
  8
STEMPEL
100
AcDbLine
 10
267.8456913727583
 20
467.0484882315143
 30
0.0
 11
267.8456913727583
 21
414.68488781924
 31
0.0
  0
LINE
  5
13D4
102
{ACAD_REACTORS
330
14D0
102
}
330
1E
100
AcDbEntity
  8
STEMPEL
100
AcDbLine
 10
269.4456913727584
 20
467.0484882315143
 30
0.0
 11
269.4456913727584
 21
414.68488781924
 31
0.0
  0
LINE
  5
13D5
102
{ACAD_REACTORS
330
14D0
102
}
330
1E
100
AcDbEntity
  8
STEMPEL
100
AcDbLine
 10
269.4456913727584
 20
467.0484882315143
 30
0.0
 11
180.4456913727583
 21
467.0484882315143
 31
0.0
  0
LINE
  5
13D7
102
{ACAD_REACTORS
330
15FF
102
}
330
1E
100
AcDbEntity
  8
STEMPEL
100
AcDbLine
 10
193.4726787619932
 20
453.0484882315143
 30
0.0
 11
182.0456913727583
 21
453.0484882315144
 31
0.0
  0
LINE
  5
13D8
102
{ACAD_REACTORS
330
14D0
330
15FF
102
}
330
1E
100
AcDbEntity
  8
STEMPEL
100
AcDbLine
 10
182.0456913727583
 20
467.0484882315143
 30
0.0
 11
182.0456913727583
 21
414.68488781924
 31
0.0
  0
LINE
  5
13D9
102
{ACAD_REACTORS
330
14D0
102
}
330
1E
100
AcDbEntity
  8
STEMPEL
100
AcDbLine
 10
180.4456913727583
 20
467.0484882315143
 30
0.0
 11
180.4456913727583
 21
414.68488781924
 31
0.0
  0
LINE
  5
144D
102
{ACAD_REACTORS
330
14D0
330
14EA
330
15FF
102
}
330
1E
100
AcDbEntity
  8
STEMPEL
100
AcDbLine
 10
277.9456913727583
 20
397.0484882315145
 30
0.0
 11
275.0468576003464
 21
397.0484882315145
 31
0.0
  0
LINE
  5
1451
102
{ACAD_REACTORS
330
14D0
330
1612
102
}
330
1E
100
AcDbEntity
  8
STEMPEL
100
AcDbLine
 10
270.7454695142722
 20
409.7547620994311
 30
0.0
 11
277.9456913727583
 21
397.0484882315145
 31
0.0
  0
LINE
  5
1452
102
{ACAD_REACTORS
330
14D0
330
15FF
102
}
330
1E
100
AcDbEntity
  8
STEMPEL
100
AcDbLine
 10
269.3534340169144
 20
408.9659419842617
 30
0.0
 11
276.1066578101379
 21
397.0484882315145
 31
0.0
  0
ARC
  5
1453
102
{ACAD_REACTORS
330
14D0
102
}
330
1E
100
AcDbEntity
  8
STEMPEL
100
AcDbCircle
 10
279.4456913727584
 20
414.68488781924
 30
0.0
 40
10.0
100
AcDbArc
 50
180.0
 51
209.538782259558
  0
ARC
  5
1454
102
{ACAD_REACTORS
330
14D0
330
15FF
102
}
330
1E
100
AcDbEntity
  8
STEMPEL
100
AcDbCircle
 10
279.4456913727584
 20
414.68488781924
 30
0.0
 40
11.6
100
AcDbArc
 50
180.0
 51
209.538782259558
  0
LINE
  5
1459
102
{ACAD_REACTORS
330
14EA
330
1612
102
}
330
1E
100
AcDbEntity
  8
STEMPEL
100
AcDbLine
 10
289.725888670515
 20
376.9785224649662
 30
0.0
 11
277.9456913727583
 21
397.0484882315145
 31
0.0
  0
LINE
  5
145A
102
{ACAD_REACTORS
330
14EA
330
15FF
102
}
330
1E
100
AcDbEntity
  8
STEMPEL
100
AcDbLine
 10
287.5698492109638
 20
375.7130210430556
 30
0.0
 11
275.0468576003465
 21
397.0484882315145
 31
0.0
  0
ARC
  5
145B
102
{ACAD_REACTORS
330
14EA
330
15FF
102
}
330
1E
100
AcDbEntity
  8
STEMPEL
100
AcDbCircle
 10
278.9456913727585
 20
370.6510153554134
 30
0.0
 40
10.0
100
AcDbArc
 50
0.0
 51
30.41108126712549
  0
ARC
  5
145C
102
{ACAD_REACTORS
330
14EA
102
}
330
1E
100
AcDbEntity
  8
STEMPEL
100
AcDbCircle
 10
278.9456913727585
 20
370.6510153554134
 30
0.0
 40
12.5
100
AcDbArc
 50
0.0
 51
30.41108126712549
  0
ARC
  5
145D
102
{ACAD_REACTORS
330
14EA
102
}
330
1E
100
AcDbEntity
  8
STEMPEL
100
AcDbCircle
 10
170.9456913727582
 20
370.6510153554134
 30
0.0
 40
12.5
100
AcDbArc
 50
149.5889187328744
 51
180.0
  0
ARC
  5
145E
102
{ACAD_REACTORS
330
14EA
330
15FF
102
}
330
1E
100
AcDbEntity
  8
STEMPEL
100
AcDbCircle
 10
170.9456913727582
 20
370.6510153554134
 30
0.0
 40
10.0
100
AcDbArc
 50
149.5889187328744
 51
180.0
  0
LINE
  5
145F
102
{ACAD_REACTORS
330
14EA
330
15FF
102
}
330
1E
100
AcDbEntity
  8
STEMPEL
100
AcDbLine
 10
162.3215335345529
 20
375.7130210430556
 30
0.0
 11
174.8445251451702
 21
397.0484882315145
 31
0.0
  0
LINE
  5
1460
102
{ACAD_REACTORS
330
14EA
330
1612
102
}
330
1E
100
AcDbEntity
  8
STEMPEL
100
AcDbLine
 10
160.1654940750016
 20
376.9785224649662
 30
0.0
 11
171.9456913727584
 21
397.0484882315145
 31
0.0
  0
LINE
  5
1461
102
{ACAD_REACTORS
330
14EA
330
15FF
102
}
330
1E
100
AcDbEntity
  8
STEMPEL
100
AcDbLine
 10
160.9456913727582
 20
370.6510153554134
 30
0.0
 11
160.9456913727582
 21
329.0484882315143
 31
0.0
  0
LINE
  5
1462
102
{ACAD_REACTORS
330
14EA
102
}
330
1E
100
AcDbEntity
  8
STEMPEL
100
AcDbLine
 10
158.4456913727582
 20
370.6510153554134
 30
0.0
 11
158.4456913727582
 21
327.0484882315139
 31
0.0
  0
ARC
  5
1463
102
{ACAD_REACTORS
330
14D0
330
15FF
102
}
330
1E
100
AcDbEntity
  8
STEMPEL
100
AcDbCircle
 10
170.4456913727583
 20
414.68488781924
 30
0.0
 40
11.6
100
AcDbArc
 50
330.4612177404421
 51
0.000000000000007
  0
ARC
  5
1464
102
{ACAD_REACTORS
330
14D0
102
}
330
1E
100
AcDbEntity
  8
STEMPEL
100
AcDbCircle
 10
170.4456913727583
 20
414.68488781924
 30
0.0
 40
10.0
100
AcDbArc
 50
330.4612177404421
 51
0.000000000000007
  0
LINE
  5
1465
102
{ACAD_REACTORS
330
14D0
330
15FF
102
}
330
1E
100
AcDbEntity
  8
STEMPEL
100
AcDbLine
 10
180.5379487286023
 20
408.9659419842617
 30
0.0
 11
173.7847249353788
 21
397.0484882315145
 31
0.0
  0
LINE
  5
1466
102
{ACAD_REACTORS
330
14D0
330
1612
102
}
330
1E
100
AcDbEntity
  8
STEMPEL
100
AcDbLine
 10
179.1459132312445
 20
409.7547620994311
 30
0.0
 11
171.9456913727584
 21
397.0484882315145
 31
0.0
  0
LINE
  5
1467
102
{ACAD_REACTORS
330
14D0
330
14EA
330
15FF
102
}
330
1E
100
AcDbEntity
  8
STEMPEL
100
AcDbLine
 10
174.8445251451701
 20
397.0484882315143
 30
0.0
 11
171.9456913727583
 21
397.0484882315143
 31
0.0
  0
HATCH
  5
14D0
330
1E
100
AcDbEntity
  8
SCHRAFF
100
AcDbHatch
 10
0.0
 20
0.0
 30
0.0
210
0.0
220
0.0
230
1.0
  2
_USER
 70
     0
 71
     1
 91
        2
 92
        7
 72
     1
 73
     1
 93
        8
 10
269.4456913727584
 20
467.0484882315144
 42
0.0
 10
267.8456913727583
 20
467.0484882315143
 42
0.0
 10
267.8456913727583
 20
414.68488781924
 42
0.1296057146599912
 10
269.3534340169144
 20
408.9659419842617
 42
0.0
 10
276.1066578101378
 20
397.0484882315145
 42
0.0
 10
277.9456913727582
 20
397.0484882315144
 42
0.0
 10
270.7454695142722
 20
409.7547620994311
 42
-0.1296057146599929
 10
269.4456913727584
 20
414.68488781924
 42
0.0
 97
        8
330
13D5
330
13D3
330
1454
330
1452
330
144D
330
1451
330
1453
330
13D4
 92
        7
 72
     1
 73
     1
 93
        8
 10
182.0456913727584
 20
467.0484882315142
 42
0.0
 10
180.4456913727584
 20
467.0484882315143
 42
0.0
 10
180.4456913727583
 20
414.68488781924
 42
-0.1296057146599926
 10
179.1459132312445
 20
409.7547620994311
 42
0.0
 10
171.9456913727583
 20
397.0484882315144
 42
0.0
 10
173.7847249353787
 20
397.0484882315143
 42
0.0
 10
180.5379487286023
 20
408.9659419842617
 42
0.1296057146599924
 10
182.0456913727583
 20
414.68488781924
 42
0.0
 97
        8
330
13D5
330
13D9
330
1464
330
1466
330
1467
330
1465
330
1463
330
13D8
 75
     0
 76
     0
 52
45.0
 41
2.0
 77
     0
 78
     1
 53
45.0
 43
0.0
 44
10.47724773043342
 45
-1.414213562373094
 46
1.414213562373095
 79
     0
 47
0.2190437341089015
 98
        2
 10
269.0021037008055
 20
426.5029210320619
 10
181.353133831924
 20
437.2360653423773
  0
HATCH
  5
14EA
330
1E
100
AcDbEntity
  8
SCHRAFF
100
AcDbHatch
 10
0.0
 20
0.0
 30
0.0
210
0.0
220
0.0
230
1.0
  2
_USER
 70
     0
 71
     1
 91
        2
 92
        7
 72
     1
 73
     1
 93
        8
 10
288.9456913727585
 20
329.0484882315143
 42
0.0
 10
291.4456913727584
 20
329.0484882315143
 42
0.0
 10
291.4456913727585
 20
370.6510153554134
 42
0.1334776997042806
 10
289.725888670515
 20
376.9785224649663
 42
0.0
 10
277.9456913727582
 20
397.0484882315145
 42
0.0
 10
275.0468576003465
 20
397.0484882315145
 42
0.0
 10
287.5698492109638
 20
375.7130210430556
 42
-0.1334776997042762
 10
288.9456913727585
 20
370.6510153554134
 42
0.0
 97
        8
330
145C
330
1459
330
144D
330
145A
330
145B
330
12FE
330
12FF
330
12FD
 92
        7
 72
     1
 73
     1
 93
        8
 10
160.9456913727582
 20
370.6510153554134
 42
-0.1334776997042779
 10
162.3215335345529
 20
375.7130210430556
 42
0.0
 10
174.8445251451701
 20
397.0484882315144
 42
0.0
 10
171.9456913727583
 20
397.0484882315143
 42
0.0
 10
160.1654940750016
 20
376.9785224649662
 42
0.1334776997042813
 10
158.4456913727582
 20
370.6510153554132
 42
0.0
 10
158.4456913727582
 20
329.0484882315144
 42
0.0
 10
160.9456913727581
 20
329.0484882315144
 42
0.0
 97
        8
330
145E
330
145F
330
1467
330
1460
330
145D
330
1462
330
1309
330
1461
 75
     0
 76
     0
 52
135.0
 41
2.0
 77
     0
 78
     1
 53
135.0
 43
0.0
 44
10.47724773043342
 45
-1.414213562373095
 46
-1.414213562373094
 79
     0
 47
0.2190437341089015
 98
        2
 10
290.037855519382
 20
359.6945826563924
 10
160.3173820133474
 20
360.5707566444089
  0
TEXT
  5
14F6
330
1E
100
AcDbEntity
  8
TEXT
 62
     1
100
AcDbText
 10
209.256760144934
 20
160.8319522122541
 30
0.0
 40
7.0
  1
Außenrohr: E195 EN10305 feuerverzinkt
 41
0.8
  7
GREEKS
100
AcDbText
  0
TEXT
  5
14F7
330
1E
100
AcDbEntity
  8
TEXT
 62
     1
100
AcDbText
 10
213.028977515798
 20
149.4788841758991
 30
0.0
 40
7.0
  1
Innenrohr: E195 EN10305 feuerverzinkt
 41
0.8
  7
GREEKS
100
AcDbText
  0
TEXT
  5
14F8
330
1E
100
AcDbEntity
  8
TEXT
 62
     1
100
AcDbText
 10
209.2497773211123
 20
125.6149949512913
 30
0.0
 40
7.0
  1
Dämmung: 2 K-PU-Schaum
 41
0.8
  7
GREEKS
100
AcDbText
  0
TEXT
  5
14F9
330
1E
100
AcDbEntity
  8
TEXT
 62
     1
100
AcDbText
 10
260.6835063918118
 20
138.2098303366733
 30
0.0
 40
7.0
  1
und innenbeschichtet
 41
0.8
  7
GREEKS
100
AcDbText
  0
TEXT
  5
14FA
330
1E
100
AcDbEntity
  8
TEXT
 62
     1
100
AcDbText
 10
66.75063810300054
 20
178.710936664425
 30
0.0
 40
7.0
  1
Rohrende leicht eingezogen
 41
0.8
  7
GREEKS
100
AcDbText
  0
LINE
  5
14FB
102
{ACAD_REACTORS
330
1524
102
}
330
1E
100
AcDbEntity
  8
STEMPEL
100
AcDbLine
 10
175.9456913727583
 20
365.9662070449398
 30
0.0
 11
175.9456913727583
 21
277.7200880210736
 31
0.0
  0
LINE
  5
14FD
102
{ACAD_REACTORS
330
1524
102
}
330
1E
100
AcDbEntity
  8
STEMPEL
100
AcDbLine
 10
175.9456913727583
 20
277.7200880210736
 30
0.0
 11
177.2816158454234
 21
269.0484882315142
 31
0.0
  0
LINE
  5
1500
102
{ACAD_REACTORS
330
1524
102
}
330
1E
100
AcDbEntity
  8
STEMPEL
100
AcDbLine
 10
273.9456913727583
 20
277.7200880210736
 30
0.0
 11
272.6097669000932
 21
269.0484882315142
 31
0.0
  0
LINE
  5
1501
102
{ACAD_REACTORS
330
1524
102
}
330
1E
100
AcDbEntity
  8
STEMPEL
100
AcDbLine
 10
273.9456913727583
 20
365.9662070449398
 30
0.0
 11
273.9456913727583
 21
277.7200880210736
 31
0.0
  0
ARC
  5
1502
102
{ACAD_REACTORS
330
1524
102
}
330
1E
100
AcDbEntity
  8
STEMPEL
100
AcDbCircle
 10
185.9456913727583
 20
365.9662070449398
 30
0.0
 40
10.0
100
AcDbArc
 50
151.1892062570277
 51
180.0
  0
LINE
  5
1504
102
{ACAD_REACTORS
330
1524
102
}
330
1E
100
AcDbEntity
  8
STEMPEL
100
AcDbLine
 10
177.1835322859918
 20
370.7853945426614
 30
0.0
 11
187.228233814861
 21
389.0484882315143
 31
0.0
  0
LINE
  5
1505
102
{ACAD_REACTORS
330
1524
102
}
330
1E
100
AcDbEntity
  8
STEMPEL
100
AcDbLine
 10
262.6631489306557
 20
389.0484882315143
 30
0.0
 11
272.7078504595247
 21
370.7853945426615
 31
0.0
  0
ARC
  5
1506
102
{ACAD_REACTORS
330
1524
102
}
330
1E
100
AcDbEntity
  8
STEMPEL
100
AcDbCircle
 10
263.9456913727583
 20
365.96620704494
 30
0.0
 40
10.0
100
AcDbArc
 50
0.0
 51
28.81079374297224
  0
HATCH
  5
1524
330
1E
100
AcDbEntity
  8
SCHRAFF
100
AcDbHatch
 10
0.0
 20
0.0
 30
0.0
210
0.0
220
0.0
230
1.0
  2
_USER
 70
     0
 71
     1
 91
        2
 92
        7
 72
     1
 73
     1
 93
       10
 10
273.9456913727583
 20
277.7200880210734
 42
0.0
 10
272.6097669000932
 20
269.0484882315144
 42
0.0
 10
274.6333614198695
 20
269.0484882315145
 42
0.0
 10
275.9456913727583
 20
277.5669339791248
 42
0.0
 10
275.9456913727583
 20
365.96620704494
 42
0.1263772269389221
 10
274.4602822768781
 20
371.7492320422058
 42
0.0
 10
264.9456913727584
 20
389.0484882315143
 42
0.0
 10
262.6631489306557
 20
389.0484882315142
 42
0.0
 10
272.7078504595247
 20
370.7853945426615
 42
-0.1263772269389245
 10
273.9456913727583
 20
365.9662070449398
 42
0.0
 97
       10
330
F7F
330
F84
330
F85
330
1505
330
1506
330
1501
330
1500
330
F91
330
F88
330
F8C
 92
        7
 72
     1
 73
     1
 93
       10
 10
173.9456913727583
 20
277.5669339791249
 42
0.0
 10
175.2580213256471
 20
269.0484882315142
 42
0.0
 10
177.2816158454234
 20
269.0484882315142
 42
0.0
 10
175.9456913727584
 20
277.7200880210735
 42
0.0
 10
175.9456913727583
 20
365.9662070449398
 42
-0.1263772269389231
 10
177.1835322859918
 20
370.7853945426614
 42
0.0
 10
187.2282338148609
 20
389.0484882315143
 42
0.0
 10
184.9456913727583
 20
389.0484882315142
 42
0.0
 10
175.4311004686385
 20
371.7492320422057
 42
0.1263772269389201
 10
173.9456913727583
 20
365.9662070449399
 42
0.0
 97
       10
330
1502
330
1504
330
F85
330
F86
330
F7E
330
F8B
330
F89
330
F91
330
14FD
330
14FB
 75
     0
 76
     0
 52
45.0
 41
2.0
 77
     0
 78
     1
 53
45.0
 43
0.0
 44
10.47724773043342
 45
-1.414213562373094
 46
1.414213562373095
 79
     0
 47
0.2675460599594215
 98
        2
 10
274.5062857176977
 20
357.0483885909946
 10
174.9433972792831
 20
357.3159354646086
  0
LINE
  5
1525
330
1E
100
AcDbEntity
  8
STEMPEL
100
AcDbLine
 10
197.7437935289332
 20
400.8631359161524
 30
0.0
 11
187.0980232921544
 21
388.0882116320176
 31
0.0
  0
ARC
  5
1526
330
1E
100
AcDbEntity
  8
STEMPEL
100
AcDbCircle
 10
190.4456913727581
 20
406.9448877129649
 30
0.0
 40
9.5
100
AcDbArc
 50
320.1944289077368
 51
0.0
  0
LINE
  5
1528
330
1E
100
AcDbEntity
  8
STEMPEL
100
AcDbLine
 10
199.9456913727581
 20
423.9211613918575
 30
0.0
 11
199.9456913727581
 21
406.9448877129649
 31
0.0
  0
ARC
  5
1529
330
1E
100
AcDbEntity
  8
STEMPEL
  6
Continuous
100
AcDbCircle
 10
190.4456913727581
 20
423.9211613918575
 30
0.0
 40
9.5
100
AcDbArc
 50
0.0
 51
31.78833061705059
  0
ARC
  5
152B
330
1E
100
AcDbEntity
  8
STEMPEL
  6
Continuous
100
AcDbCircle
 10
207.4456913727581
 20
434.4568151447102
 30
0.0
 40
10.5
100
AcDbArc
 50
180.0
 51
211.7883306170506
  0
LINE
  5
152D
330
1E
100
AcDbEntity
  8
STEMPEL
  6
Continuous
100
AcDbLine
 10
196.9456913727581
 20
442.5484882315143
 30
0.0
 11
196.9456913727581
 21
434.4568151447102
 31
0.0
  0
ARC
  5
152E
330
1E
100
AcDbEntity
  8
STEMPEL
  6
Continuous
100
AcDbCircle
 10
185.4456913727581
 20
442.5484882315143
 30
0.0
 40
11.5
100
AcDbArc
 50
0.0
 51
19.46309944468893
  0
ARC
  5
1530
330
1E
100
AcDbEntity
  8
STEMPEL
  6
Continuous
100
AcDbCircle
 10
218.4456913727581
 20
454.2104882315142
 30
0.0
 40
23.50003205712821
100
AcDbArc
 50
179.9082450081906
 51
199.4630994446889
  0
LINE
  5
1531
330
1E
100
AcDbEntity
  8
STEMPEL
  6
Continuous
100
AcDbLine
 10
194.9456913727581
 20
458.6659868888534
 30
0.0
 11
194.9456913727581
 21
454.1704525295062
 31
0.0
  0
ARC
  5
1532
330
1E
100
AcDbEntity
  8
STEMPEL
  6
Continuous
100
AcDbCircle
 10
212.9456913727581
 20
458.6659868888534
 30
0.0
 40
18.0
100
AcDbArc
 50
152.2448206083848
 51
180.0
  0
LINE
  5
1534
330
1E
100
AcDbEntity
  8
STEMPEL
100
AcDbLine
 10
262.7933594533623
 20
388.0882116320176
 30
0.0
 11
252.1475892165831
 21
400.8631359161523
 31
0.0
  0
ARC
  5
1535
330
1E
100
AcDbEntity
  8
STEMPEL
100
AcDbCircle
 10
259.4456913727581
 20
406.944887712965
 30
0.0
 40
9.5
100
AcDbArc
 50
180.0
 51
219.805571092266
  0
LINE
  5
1537
330
1E
100
AcDbEntity
  8
STEMPEL
100
AcDbLine
 10
249.9456913727581
 20
423.9211613918575
 30
0.0
 11
249.9456913727581
 21
406.944887712965
 31
0.0
  0
ARC
  5
1538
330
1E
100
AcDbEntity
  8
STEMPEL
  6
Continuous
100
AcDbCircle
 10
259.4456913727581
 20
423.9211613918575
 30
0.0
 40
9.5
100
AcDbArc
 50
148.2116693829494
 51
180.0
  0
ARC
  5
153A
330
1E
100
AcDbEntity
  8
STEMPEL
  6
Continuous
100
AcDbCircle
 10
242.4456913727581
 20
434.4568151447102
 30
0.0
 40
10.5
100
AcDbArc
 50
328.2116693829494
 51
0.0
  0
LINE
  5
153C
330
1E
100
AcDbEntity
  8
STEMPEL
  6
Continuous
100
AcDbLine
 10
252.945691372758
 20
442.5484882315143
 30
0.0
 11
252.9456913727581
 21
434.4568151447102
 31
0.0
  0
ARC
  5
153D
330
1E
100
AcDbEntity
  8
STEMPEL
  6
Continuous
100
AcDbCircle
 10
264.4456913727581
 20
442.5484882315143
 30
0.0
 40
11.5
100
AcDbArc
 50
160.536900555311
 51
180.0
  0
ARC
  5
153E
330
1E
100
AcDbEntity
  8
STEMPEL
  6
Continuous
100
AcDbCircle
 10
231.4456913727581
 20
454.2104882315142
 30
0.0
 40
23.50003205712821
100
AcDbArc
 50
340.536900555311
 51
0.0917549918093325
  0
LINE
  5
1540
330
1E
100
AcDbEntity
  8
STEMPEL
  6
Continuous
100
AcDbLine
 10
254.9456913727581
 20
458.6659868888534
 30
0.0
 11
254.9456913727581
 21
454.1704525295062
 31
0.0
  0
ARC
  5
1541
330
1E
100
AcDbEntity
  8
STEMPEL
  6
Continuous
100
AcDbCircle
 10
236.9456913727581
 20
458.6659868888534
 30
0.0
 40
18.0
100
AcDbArc
 50
0.0
 51
27.7551793916152
  0
HATCH
  5
15C7
330
1E
100
AcDbEntity
  8
SCHRAFF
100
AcDbHatch
 10
0.0
 20
0.0
 30
0.0
210
0.0
220
0.0
230
1.0
  2
_USER
 70
     0
 71
     0
 91
        1
 92
        7
 72
     1
 73
     1
 93
       23
 10
254.445691372758
 20
442.5484882315143
 42
-0.0851285408962509
 10
255.0171285799766
 20
445.8804851796785
 42
0.0847252966078549
 10
256.4456913727581
 20
454.170452529495
 42
0.0
 10
256.4456913727581
 20
458.6659868888534
 42
0.1095178116832415
 10
254.6186932199728
 20
466.9070429927971
 42
0.0
 10
254.5527362219493
 20
467.0484882315143
 42
0.0
 10
252.874711155541
 20
467.0484882315143
 42
-0.1217003665640593
 10
254.9456913727581
 20
458.6659868888534
 42
0.0
 10
254.9456913727581
 20
454.2493042855896
 42
-0.0855444844069278
 10
253.6028441610593
 20
446.3802847219031
 42
0.0851285408962546
 10
252.945691372758
 20
442.548488231514
 42
0.0
 10
252.9456913727581
 20
434.4568151447102
 42
-0.1395991324168565
 10
251.3706913727582
 20
428.9255969244627
 42
0.1395991324168656
 10
249.9456913727581
 20
423.9211613918575
 42
0.0
 10
249.9456913727581
 20
406.944887712965
 42
0.1754523787641773
 10
252.1475892165831
 20
400.8631359161523
 42
0.0
 10
261.9931289537817
 20
389.0484882315143
 42
0.0
 10
263.9456913727583
 20
389.0484882315143
 42
0.0
 10
253.2999211359792
 20
401.8234125156491
 42
-0.1754523787641772
 10
251.4456913727581
 20
406.944887712965
 42
0.0
 10
251.4456913727581
 20
423.9211613918575
 42
-0.1395991324168565
 10
252.6456913727581
 20
428.1354228929985
 42
0.1395991324168635
 10
254.4456913727581
 20
434.4568151447102
 42
0.0
 97
        0
 75
     0
 76
     0
 52
135.0
 41
2.0
 77
     0
 78
     1
 53
135.0
 43
0.0
 44
10.47724773043342
 45
-1.414213562373095
 46
-1.414213562373094
 79
     0
 47
0.1640632245292024
 98
        1
 10
253.9178892962441
 20
436.0989238926074
  0
HATCH
  5
15C8
330
1E
100
AcDbEntity
  8
SCHRAFF
100
AcDbHatch
 10
0.0
 20
0.0
 30
0.0
210
0.0
220
0.0
230
1.0
  2
_USER
 70
     0
 71
     0
 91
        1
 92
        7
 72
     1
 73
     1
 93
       23
 10
195.4456913727587
 20
442.5484882315143
 42
0.0851285408962509
 10
194.8742541655401
 20
445.8804851796785
 42
-0.0847252966078549
 10
193.4456913727585
 20
454.170452529495
 42
0.0
 10
193.4456913727585
 20
458.6659868888534
 42
-0.1095178116832415
 10
195.2726895255439
 20
466.9070429927971
 42
0.0
 10
195.3386465235674
 20
467.0484882315143
 42
0.0
 10
197.0166715899757
 20
467.0484882315143
 42
0.1217003665640593
 10
194.9456913727586
 20
458.6659868888534
 42
0.0
 10
194.9456913727586
 20
454.2493042855896
 42
0.0855444844069278
 10
196.2885385844573
 20
446.3802847219031
 42
-0.0851285408962546
 10
196.9456913727587
 20
442.548488231514
 42
0.0
 10
196.9456913727585
 20
434.4568151447102
 42
0.1395991324168565
 10
198.5206913727584
 20
428.9255969244627
 42
-0.1395991324168656
 10
199.9456913727586
 20
423.9211613918575
 42
0.0
 10
199.9456913727586
 20
406.944887712965
 42
-0.1754523787641773
 10
197.7437935289336
 20
400.8631359161523
 42
0.0
 10
187.8982537917349
 20
389.0484882315143
 42
0.0
 10
185.9456913727583
 20
389.0484882315143
 42
0.0
 10
196.5914616095375
 20
401.8234125156491
 42
0.1754523787641772
 10
198.4456913727585
 20
406.944887712965
 42
0.0
 10
198.4456913727585
 20
423.9211613918575
 42
0.1395991324168565
 10
197.2456913727586
 20
428.1354228929985
 42
-0.1395991324168635
 10
195.4456913727586
 20
434.4568151447102
 42
0.0
 97
        0
 75
     0
 76
     0
 52
135.0
 41
2.0
 77
     0
 78
     1
 53
135.0
 43
0.0
 44
10.47724773043342
 45
-1.414213562373095
 46
-1.414213562373094
 79
     0
 47
0.1640632245292024
 98
        1
 10
195.9734934492726
 20
436.0989238926074
  0
HATCH
  5
15FF
330
1E
100
AcDbEntity
  8
SCHRAFF
100
AcDbHatch
 10
0.0
 20
0.0
 30
0.0
210
0.0
220
0.0
230
1.0
  2
HONEY
 70
     0
 71
     1
 91
        2
 92
        7
 72
     1
 73
     1
 93
       22
 10
251.4456913727581
 20
406.944887712965
 42
0.1754523787641773
 10
253.2999211359792
 20
401.8234125156491
 42
0.0
 10
262.2790247060917
 20
391.0484882315143
 42
-0.6105221342622104
 10
266.0456913727583
 20
387.0484882315144
 42
0.0
 10
274.4602822768781
 20
371.7492320422058
 42
-0.1263772269389257
 10
275.9456913727583
 20
365.9662070449398
 42
0.0
 10
275.9456913727583
 20
346.5484882315144
 42
0.0
 10
287.4456913727582
 20
346.5484882315144
 42
0.0
 10
288.9456913727585
 20
345.0484882315142
 42
0.0
 10
288.9456913727585
 20
370.6510153554134
 42
0.1334776997042795
 10
287.5698492109638
 20
375.7130210430556
 42
0.0
 10
275.0468576003465
 20
397.0484882315145
 42
0.0
 10
276.1066578101379
 20
397.0484882315145
 42
0.0
 10
269.3534340169144
 20
408.9659419842617
 42
-0.1296057146599927
 10
267.8456913727583
 20
414.68488781924
 42
0.0
 10
267.8456913727583
 20
453.0484882315143
 42
0.0
 10
256.4187039835233
 20
453.0484882315143
 42
-0.0734311771838546
 10
255.0171285799766
 20
445.8804851796783
 42
0.0851285408962553
 10
254.445691372758
 20
442.548488231514
 42
0.0
 10
254.4456913727581
 20
434.4568151447102
 42
-0.1395991324168564
 10
252.6456913727582
 20
428.1354228929988
 42
0.1395991324168671
 10
251.4456913727581
 20
423.9211613918575
 42
0.0
 97
       22
330
13D1
330
F95
330
F94
330
F9A
330
F97
330
F98
330
F99
330
F81
330
F83
330
F55
330
F84
330
F7F
330
F8C
330
1301
330
1302
330
12FE
330
145B
330
145A
330
144D
330
1452
330
1454
330
13D3
 92
        7
 72
     1
 73
     1
 93
       22
 10
198.4456913727581
 20
423.9211613918575
 42
0.1395991324168607
 10
197.2456913727581
 20
428.1354228929986
 42
-0.1395991324168609
 10
195.4456913727581
 20
434.4568151447102
 42
0.0
 10
195.4456913727581
 20
442.5484882315143
 42
0.0851285408962507
 10
194.8742541655396
 20
445.8804851796785
 42
-0.0734311771838538
 10
193.4726787619929
 20
453.0484882315143
 42
0.0
 10
182.0456913727583
 20
453.0484882315143
 42
0.0
 10
182.0456913727583
 20
414.68488781924
 42
-0.1296057146599938
 10
180.5379487286022
 20
408.9659419842616
 42
0.0
 10
173.7847249353787
 20
397.0484882315143
 42
0.0
 10
174.8445251451701
 20
397.0484882315143
 42
0.0
 10
162.3215335345529
 20
375.7130210430556
 42
0.1334776997042776
 10
160.9456913727582
 20
370.6510153554133
 42
0.0
 10
160.9456913727582
 20
345.0484882315143
 42
0.0
 10
162.4456913727585
 20
346.5484882315144
 42
0.0
 10
173.9456913727583
 20
346.5484882315144
 42
0.0
 10
173.9456913727583
 20
365.9662070449398
 42
-0.1263772269389239
 10
175.4311004686385
 20
371.7492320422057
 42
0.0
 10
183.8456913727583
 20
387.0484882315142
 42
-0.665445911986836
 10
187.6123580394249
 20
391.0484882315143
 42
0.0
 10
196.5914616095372
 20
401.8234125156491
 42
0.17545237876417
 10
198.4456913727581
 20
406.9448877129649
 42
0.0
 97
       22
330
FA1
330
FA0
330
FA3
330
F9D
330
F9E
330
13D7
330
13D8
330
1463
330
1465
330
1467
330
145F
330
145E
330
1461
330
130B
330
130A
330
F8B
330
F7E
330
F86
330
F54
330
F82
330
F80
330
FA2
 75
     0
 76
     1
 52
0.0
 41
25.0
 77
     0
 78
     3
 53
0.0
 43
0.0
 44
10.47724773043342
 45
4.6875
 46
2.706329374999999
 79
     2
 49
3.125
 49
-6.25
 53
120.0
 43
0.0
 44
10.47724773043342
 45
-4.687499989758061
 46
2.706329392739557
 79
     2
 49
3.124999999999999
 49
-6.249999999999999
 53
60.0
 43
0.0
 44
10.47724773043342
 45
0.0000000102419385
 46
5.412658767739556
 79
     2
 49
-6.25
 49
3.125
 47
0.3122967529630793
 98
        2
 10
255.9915138075812
 20
421.6613157648505
 10
194.7593611724856
 20
418.2260517284098
  0
ARC
  5
1605
102
{ACAD_REACTORS
330
1612
102
}
330
1E
100
AcDbEntity
  8
SCHRAFF
100
AcDbCircle
 10
276.7715580603883
 20
396.371286822144
 30
0.0
 40
3.301378103403502
100
AcDbArc
 50
324.6506623472588
 51
95.29920117942481
  0
ARC
  5
1606
102
{ACAD_REACTORS
330
1612
102
}
330
1E
100
AcDbEntity
  8
SCHRAFF
100
AcDbCircle
 10
173.1198246851284
 20
396.371286822144
 30
0.0
 40
3.301378103403502
100
AcDbArc
 50
84.70079882057518
 51
215.3493376527413
  0
HATCH
  5
1612
330
1E
100
AcDbEntity
  8
SCHRAFF
100
AcDbHatch
 10
0.0
 20
0.0
 30
0.0
210
0.0
220
0.0
230
1.0
  2
_USER
 70
     0
 71
     1
 91
        2
 92
        7
 72
     1
 73
     1
 93
        3
 10
277.9456913727582
 20
397.0484882315144
 42
0.0
 10
279.464293079051
 20
394.4612408800527
 42
0.6410557329644381
 10
276.4666536568157
 20
399.6585547890603
 42
0.0
 97
        3
330
1451
330
1459
330
1605
 92
        7
 72
     1
 73
     1
 93
        3
 10
170.4270896664656
 20
394.4612408800527
 42
0.0
 10
171.9456913727592
 20
397.0484882315167
 42
0.0
 10
173.4247290887007
 20
399.6585547890603
 42
0.6410557329644187
 97
        3
330
1606
330
1460
330
1466
 75
     0
 76
     0
 52
0.0
 41
0.1
 77
     0
 78
     1
 53
0.0
 43
0.0
 44
10.47724773043342
 45
0.0
 46
0.1
 79
     0
 47
0.1509565049891691
 98
        2
 10
278.3840684424522
 20
397.4583569523418
 10
171.1664480601243
 20
397.9112262339815
  0
DIMENSION
  5
1674
330
1E
100
AcDbEntity
  8
SCHRAFF
100
AcDbDimension
  2
*D12
 10
252.874711155541
 20
479.5570494233327
 30
0.0
 11
224.9456913727581
 21
486.0570494233327
 31
0.0
 70
    32
  1
%%c56
 71
     5
 42
55.85803956556572
  3
Standard
100
AcDbAlignedDimension
 13
197.0166715899752
 23
467.0484882315143
 33
0.0
 14
252.874711155541
 24
467.0484882315143
 34
0.0
100
AcDbRotatedDimension
1001
ACAD
1000
DSTYLE
1002
{
1070
    40
1040
2.0
1070
    41
1040
3.5
1070
    42
1040
1.0
1070
    43
1040
7.0
1070
    44
1040
1.0
1070
    73
1070
     0
1070
    74
1070
     0
1070
    77
1070
     1
1070
    78
1070
     8
1070
    79
1070
     2
1070
   140
1040
3.5
1070
   141
1040
1.5
1070
   146
1040
0.5142857142857144
1070
   147
1040
1.5
1070
   172
1070
     1
1070
   178
1070
     1
1070
   179
1070
     2
1070
   271
1070
     2
1070
   272
1070
     2
1070
   284
1070
     8
1070
   285
1070
     8
1070
   286
1070
     8
1002
}
  0
ENDSEC
  0
SECTION
  2
OBJECTS
  0
DICTIONARY
  5
C
330
0
100
AcDbDictionary
281
     1
  3
ACAD_COLOR
350
DF
  3
ACAD_GROUP
350
D
  3
ACAD_LAYOUT
350
19
  3
ACAD_MATERIAL
350
DE
  3
ACAD_MLINESTYLE
350
16
  3
ACAD_PLOTSETTINGS
350
18
  3
ACAD_PLOTSTYLENAME
350
E
  3
AcDbVariableDictionary
350
EA
  0
DICTIONARY
  5
A0
330
1E
100
AcDbDictionary
280
     1
281
     1
  3
ACAD_LAYOUTSELFREF
360
D4
  0
DICTIONARY
  5
A2
330
1A
100
AcDbDictionary
280
     1
281
     1
  3
ACAD_LAYOUTSELFREF
360
D3
  0
DICTIONARY
  5
DF
102
{ACAD_REACTORS
330
C
102
}
330
C
100
AcDbDictionary
281
     1
  0
DICTIONARY
  5
D
102
{ACAD_REACTORS
330
C
102
}
330
C
100
AcDbDictionary
281
     1
  0
DICTIONARY
  5
19
102
{ACAD_REACTORS
330
C
102
}
330
C
100
AcDbDictionary
281
     1
  3
Layout1
350
1D
  3
Model
350
21
  0
DICTIONARY
  5
DE
102
{ACAD_REACTORS
330
C
102
}
330
C
100
AcDbDictionary
281
     1
  0
DICTIONARY
  5
16
102
{ACAD_REACTORS
330
C
102
}
330
C
100
AcDbDictionary
281
     1
  3
Standard
350
17
  0
DICTIONARY
  5
18
102
{ACAD_REACTORS
330
C
102
}
330
C
100
AcDbDictionary
281
     1
  0
ACDBDICTIONARYWDFLT
  5
E
102
{ACAD_REACTORS
330
C
102
}
330
C
100
AcDbDictionary
281
     1
  3
Normal
350
F
100
AcDbDictionaryWithDefault
340
F
  0
DICTIONARY
  5
EA
102
{ACAD_REACTORS
330
C
102
}
330
C
100
AcDbDictionary
281
     1
  3
DIMASSOC
350
EB
  3
PROJECTNAME
350
EC
  0
XRECORD
  5
D4
102
{ACAD_REACTORS
330
A0
102
}
330
A0
100
AcDbXrecord
280
     1
340
1E
  0
XRECORD
  5
D3
102
{ACAD_REACTORS
330
A2
102
}
330
A2
100
AcDbXrecord
280
     1
340
1A
  0
LAYOUT
  5
1D
102
{ACAD_REACTORS
330
19
102
}
330
19
100
AcDbPlotSettings
  1

  2
\\NT_WORK01\HP LaserJet 5000 PCL 6
  4

  6

 40
0.0
 41
0.0
 42
0.0
 43
0.0
 44
0.0
 45
0.0
 46
0.0
 47
0.0
 48
0.0
 49
0.0
140
0.0
141
0.0
142
1.0
143
1.0
 70
   688
 72
     0
 73
     0
 74
     5
  7

 75
    16
147
1.0
 76
     0
 77
     2
 78
   300
148
0.0
149
0.0
100
AcDbLayout
  1
Layout1
 70
     0
 71
     1
 10
0.0
 20
0.0
 11
12.0
 21
9.0
 12
0.0
 22
0.0
 32
0.0
 14
1.000000000000000E+20
 24
1.000000000000000E+20
 34
1.000000000000000E+20
 15
-1.000000000000000E+20
 25
-1.000000000000000E+20
 35
-1.000000000000000E+20
146
0.0
 13
0.0
 23
0.0
 33
0.0
 16
1.0
 26
0.0
 36
0.0
 17
0.0
 27
1.0
 37
0.0
 76
     0
330
1A
  0
LAYOUT
  5
21
102
{ACAD_REACTORS
330
19
102
}
330
19
100
AcDbPlotSettings
  1

  2
none_device
  4
Letter_(8.50_x_11.00_Inches)
  6

 40
6.349999904632568
 41
6.349999904632568
 42
6.350006103515625
 43
6.350006103515625
 44
215.8999938964844
 45
279.3999938964844
 46
0.0
 47
0.0
 48
0.0
 49
0.0
140
0.0
141
0.0
142
1.0
143
1.0
 70
 11952
 72
     0
 73
     1
 74
     0
  7

 75
     0
147
1.0
 76
     0
 77
     2
 78
   300
148
2306.564837131165
149
96.73109433220936
100
AcDbLayout
  1
Model
 70
     1
 71
     0
 10
0.0
 20
0.0
 11
12.0
 21
9.0
 12
0.0
 22
0.0
 32
0.0
 14
0.0
 24
0.0
 34
0.0
 15
0.0
 25
0.0
 35
0.0
146
0.0
 13
0.0
 23
0.0
 33
0.0
 16
1.0
 26
0.0
 36
0.0
 17
0.0
 27
1.0
 37
0.0
 76
     0
330
1E
  0
MLINESTYLE
  5
17
102
{ACAD_REACTORS
330
16
102
}
330
16
100
AcDbMlineStyle
  2
STANDARD
 70
     0
  3

 62
   256
 51
90.0
 52
90.0
 71
     2
 49
0.5
 62
   256
  6
BYLAYER
 49
-0.5
 62
   256
  6
BYLAYER
  0
ACDBPLACEHOLDER
  5
F
102
{ACAD_REACTORS
330
E
102
}
330
E
  0
DICTIONARYVAR
  5
EB
102
{ACAD_REACTORS
330
EA
102
}
330
EA
100
DictionaryVariables
280
     0
  1
1
  0
DICTIONARYVAR
  5
EC
102
{ACAD_REACTORS
330
EA
102
}
330
EA
100
DictionaryVariables
280
     0
  1

  0
ENDSEC
  0
EOF
