  0
SECTION
  2
HEADER
  9
$ACADVER
  1
AC1018
  9
$ACADMAINTVER
 70
     2
  9
$DWGCODEPAGE
  3
ANSI_1252
  9
$INSBASE
 10
0.0
 20
0.0
 30
0.0
  9
$EXTMIN
 10
-0.0063949511588817
 20
-0.0090442880674573
 30
-0.0000000000000129
  9
$EXTMAX
 10
210.0096217652574
 20
297.0136079251501
 30
0.0000000000000023
  9
$LIMMIN
 10
0.0
 20
0.0
  9
$LIMMAX
 10
210.0
 20
297.0
  9
$ORTHOMODE
 70
     1
  9
$REGENMODE
 70
     1
  9
$FILLMODE
 70
     1
  9
$QTEXTMODE
 70
     0
  9
$MIRRTEXT
 70
     1
  9
$LTSCALE
 40
20.0
  9
$ATTMODE
 70
     1
  9
$TEXTSIZE
 40
3.5
  9
$TRACEWID
 40
0.5
  9
$TEXTSTYLE
  7
STANDARD
  9
$CLAYER
  8
SCHRAFF
  9
$CELTYPE
  6
ByLayer
  9
$CECOLOR
 62
   256
  9
$CELTSCALE
 40
1.0
  9
$DISPSILH
 70
     0
  9
$DIMSCALE
 40
1.0
  9
$DIMASZ
 40
3.5
  9
$DIMEXO
 40
1.0
  9
$DIMDLI
 40
7.0
  9
$DIMRND
 40
0.0
  9
$DIMDLE
 40
0.0
  9
$DIMEXE
 40
1.0
  9
$DIMTP
 40
0.0
  9
$DIMTM
 40
0.0
  9
$DIMTXT
 40
3.5
  9
$DIMCEN
 40
1.5
  9
$DIMTSZ
 40
0.0
  9
$DIMTOL
 70
     0
  9
$DIMLIM
 70
     0
  9
$DIMTIH
 70
     0
  9
$DIMTOH
 70
     0
  9
$DIMSE1
 70
     0
  9
$DIMSE2
 70
     0
  9
$DIMTAD
 70
     1
  9
$DIMZIN
 70
     8
  9
$DIMBLK
  1

  9
$DIMASO
 70
     1
  9
$DIMSHO
 70
     0
  9
$DIMPOST
  1

  9
$DIMAPOST
  1

  9
$DIMALT
 70
     0
  9
$DIMALTD
 70
     2
  9
$DIMALTF
 40
25.4
  9
$DIMLFAC
 40
1.0
  9
$DIMTOFL
 70
     1
  9
$DIMTVP
 40
0.0
  9
$DIMTIX
 70
     0
  9
$DIMSOXD
 70
     0
  9
$DIMSAH
 70
     0
  9
$DIMBLK1
  1

  9
$DIMBLK2
  1

  9
$DIMSTYLE
  2
Standard
  9
$DIMCLRD
 70
     0
  9
$DIMCLRE
 70
     0
  9
$DIMCLRT
 70
     1
  9
$DIMTFAC
 40
0.5142857142857144
  9
$DIMGAP
 40
1.5
  9
$DIMJUST
 70
     0
  9
$DIMSD1
 70
     0
  9
$DIMSD2
 70
     0
  9
$DIMTOLJ
 70
     1
  9
$DIMTZIN
 70
     8
  9
$DIMALTZ
 70
     8
  9
$DIMALTTZ
 70
     8
  9
$DIMUPT
 70
     0
  9
$DIMDEC
 70
     2
  9
$DIMTDEC
 70
     2
  9
$DIMALTU
 70
     2
  9
$DIMALTTD
 70
     2
  9
$DIMTXSTY
  7
STANDARD
  9
$DIMAUNIT
 70
     0
  9
$DIMADEC
 70
     2
  9
$DIMALTRND
 40
0.0
  9
$DIMAZIN
 70
     2
  9
$DIMDSEP
 70
    46
  9
$DIMATFIT
 70
     3
  9
$DIMFRAC
 70
     0
  9
$DIMLDRBLK
  1

  9
$DIMLUNIT
 70
     2
  9
$DIMLWD
 70
    -2
  9
$DIMLWE
 70
    -2
  9
$DIMTMOVE
 70
     0
  9
$LUNITS
 70
     2
  9
$LUPREC
 70
     2
  9
$SKETCHINC
 40
1.0
  9
$FILLETRAD
 40
0.0
  9
$AUNITS
 70
     0
  9
$AUPREC
 70
     0
  9
$MENU
  1
ACAD
  9
$ELEVATION
 40
0.0
  9
$PELEVATION
 40
0.0
  9
$THICKNESS
 40
0.0
  9
$LIMCHECK
 70
     0
  9
$CHAMFERA
 40
0.0
  9
$CHAMFERB
 40
0.0
  9
$CHAMFERC
 40
0.0
  9
$CHAMFERD
 40
0.0
  9
$SKPOLY
 70
     0
  9
$TDCREATE
 40
2455397.864709028
  9
$TDUCREATE
 40
2455397.781375695
  9
$TDUPDATE
 40
2455813.419632153
  9
$TDUUPDATE
 40
2455813.336298820
  9
$TDINDWG
 40
0.1261819907
  9
$TDUSRTIMER
 40
0.1261819907
  9
$USRTIMER
 70
     1
  9
$ANGBASE
 50
0.0
  9
$ANGDIR
 70
     0
  9
$PDMODE
 70
     0
  9
$PDSIZE
 40
0.0
  9
$PLINEWID
 40
0.0
  9
$SPLFRAME
 70
     0
  9
$SPLINETYPE
 70
     6
  9
$SPLINESEGS
 70
     8
  9
$HANDSEED
  5
2851
  9
$SURFTAB1
 70
     6
  9
$SURFTAB2
 70
     6
  9
$SURFTYPE
 70
     6
  9
$SURFU
 70
     6
  9
$SURFV
 70
     6
  9
$UCSBASE
  2

  9
$UCSNAME
  2

  9
$UCSORG
 10
0.0
 20
0.0
 30
0.0
  9
$UCSXDIR
 10
1.0
 20
0.0
 30
0.0
  9
$UCSYDIR
 10
0.0
 20
1.0
 30
0.0
  9
$UCSORTHOREF
  2

  9
$UCSORTHOVIEW
 70
     0
  9
$UCSORGTOP
 10
0.0
 20
0.0
 30
0.0
  9
$UCSORGBOTTOM
 10
0.0
 20
0.0
 30
0.0
  9
$UCSORGLEFT
 10
0.0
 20
0.0
 30
0.0
  9
$UCSORGRIGHT
 10
0.0
 20
0.0
 30
0.0
  9
$UCSORGFRONT
 10
0.0
 20
0.0
 30
0.0
  9
$UCSORGBACK
 10
0.0
 20
0.0
 30
0.0
  9
$PUCSBASE
  2

  9
$PUCSNAME
  2

  9
$PUCSORG
 10
0.0
 20
0.0
 30
0.0
  9
$PUCSXDIR
 10
1.0
 20
0.0
 30
0.0
  9
$PUCSYDIR
 10
0.0
 20
1.0
 30
0.0
  9
$PUCSORTHOREF
  2

  9
$PUCSORTHOVIEW
 70
     0
  9
$PUCSORGTOP
 10
0.0
 20
0.0
 30
0.0
  9
$PUCSORGBOTTOM
 10
0.0
 20
0.0
 30
0.0
  9
$PUCSORGLEFT
 10
0.0
 20
0.0
 30
0.0
  9
$PUCSORGRIGHT
 10
0.0
 20
0.0
 30
0.0
  9
$PUCSORGFRONT
 10
0.0
 20
0.0
 30
0.0
  9
$PUCSORGBACK
 10
0.0
 20
0.0
 30
0.0
  9
$USERI1
 70
     0
  9
$USERI2
 70
     0
  9
$USERI3
 70
     0
  9
$USERI4
 70
     0
  9
$USERI5
 70
     0
  9
$USERR1
 40
0.0
  9
$USERR2
 40
0.0
  9
$USERR3
 40
0.0
  9
$USERR4
 40
0.0
  9
$USERR5
 40
0.0
  9
$WORLDVIEW
 70
     1
  9
$SHADEDGE
 70
     3
  9
$SHADEDIF
 70
    70
  9
$TILEMODE
 70
     1
  9
$MAXACTVP
 70
    16
  9
$PINSBASE
 10
0.0
 20
0.0
 30
0.0
  9
$PLIMCHECK
 70
     0
  9
$PEXTMIN
 10
1.000000000000000E+20
 20
1.000000000000000E+20
 30
1.000000000000000E+20
  9
$PEXTMAX
 10
-1.000000000000000E+20
 20
-1.000000000000000E+20
 30
-1.000000000000000E+20
  9
$PLIMMIN
 10
0.0
 20
0.0
  9
$PLIMMAX
 10
12.0
 20
9.0
  9
$UNITMODE
 70
     0
  9
$VISRETAIN
 70
     0
  9
$PLINEGEN
 70
     0
  9
$PSLTSCALE
 70
     0
  9
$TREEDEPTH
 70
  3020
  9
$CMLSTYLE
  2
Standard
  9
$CMLJUST
 70
     0
  9
$CMLSCALE
 40
1.0
  9
$PROXYGRAPHICS
 70
     1
  9
$MEASUREMENT
 70
     0
  9
$CELWEIGHT
370
    -1
  9
$ENDCAPS
280
     0
  9
$JOINSTYLE
280
     0
  9
$LWDISPLAY
290
     0
  9
$INSUNITS
 70
     0
  9
$HYPERLINKBASE
  1

  9
$STYLESHEET
  1
monochrome1.ctb
  9
$XEDIT
290
     1
  9
$CEPSNTYPE
380
     0
  9
$PSTYLEMODE
290
     1
  9
$FINGERPRINTGUID
  2
{D68B0D02-A558-11D7-B632-000102183313}
  9
$VERSIONGUID
  2
{C9670A8D-5310-4F7D-B802-A072528F10E0}
  9
$EXTNAMES
290
     1
  9
$PSVPSCALE
 40
0.0
  9
$OLESTARTUP
290
     0
  9
$SORTENTS
280
   127
  9
$INDEXCTL
280
     0
  9
$HIDETEXT
280
     0
  9
$XCLIPFRAME
290
     0
  9
$HALOGAP
280
     0
  9
$OBSCOLOR
 70
   257
  9
$OBSLTYPE
280
     0
  9
$INTERSECTIONDISPLAY
280
     0
  9
$INTERSECTIONCOLOR
 70
   257
  9
$DIMASSOC
280
     1
  9
$PROJECTNAME
  1

  0
ENDSEC
  0
SECTION
  2
CLASSES
  0
CLASS
  1
ACDBDICTIONARYWDFLT
  2
AcDbDictionaryWithDefault
  3
ObjectDBX Classes
 90
        0
 91
        1
280
     0
281
     0
  0
CLASS
  1
DICTIONARYVAR
  2
AcDbDictionaryVar
  3
ObjectDBX Classes
 90
        0
 91
        2
280
     0
281
     0
  0
ENDSEC
  0
SECTION
  2
TABLES
  0
TABLE
  2
VPORT
  5
8
330
0
100
AcDbSymbolTable
 70
     3
  0
VPORT
  5
2850
330
8
100
AcDbSymbolTableRecord
100
AcDbViewportTableRecord
  2
*Active
 70
     0
 10
0.0
 20
0.0
 11
1.0
 21
1.0
 12
105.0
 22
148.5
 13
0.0
 23
0.0
 14
1.0
 24
1.0
 15
10.0
 25
10.0
 16
0.0
 26
0.0
 36
1.0
 17
0.0
 27
0.0
 37
0.0
 40
297.0836029864439
 41
1.339622641509433
 42
50.0
 43
0.0
 44
0.0
 50
0.0
 51
0.0
 71
     0
 72
  1500
 73
     1
 74
     0
 75
     0
 76
     0
 77
     0
 78
     0
281
     0
 65
     1
110
0.0
120
0.0
130
0.0
111
1.0
121
0.0
131
0.0
112
0.0
122
1.0
132
0.0
 79
     0
146
0.0
  0
ENDTAB
  0
TABLE
  2
LTYPE
  5
5
330
0
100
AcDbSymbolTable
 70
     3
  0
LTYPE
  5
13
330
5
100
AcDbSymbolTableRecord
100
AcDbLinetypeTableRecord
  2
ByBlock
 70
     0
  3

 72
    65
 73
     0
 40
0.0
  0
LTYPE
  5
14
330
5
100
AcDbSymbolTableRecord
100
AcDbLinetypeTableRecord
  2
ByLayer
 70
     0
  3

 72
    65
 73
     0
 40
0.0
  0
LTYPE
  5
15
330
5
100
AcDbSymbolTableRecord
100
AcDbLinetypeTableRecord
  2
Continuous
 70
     0
  3
Solid line
 72
    65
 73
     0
 40
0.0
  0
LTYPE
  5
25
330
5
100
AcDbSymbolTableRecord
100
AcDbLinetypeTableRecord
  2
STRICHPUNKT
 70
     0
  3
__ . __ . __ . __ . __ . __ . __ . __ . __ . __
 72
    65
 73
     4
 40
1.0
 49
0.5
 74
     0
 49
-0.25
 74
     0
 49
0.0
 74
     0
 49
-0.25
 74
     0
  0
LTYPE
  5
32
330
5
100
AcDbSymbolTableRecord
100
AcDbLinetypeTableRecord
  2
AUSGEZOGEN
 70
     0
  3
Ausgezogene Linie
 72
    65
 73
     0
 40
0.0
  0
ENDTAB
  0
TABLE
  2
LAYER
  5
2
330
0
100
AcDbSymbolTable
 70
     9
  0
LAYER
  5
10
330
2
100
AcDbSymbolTableRecord
100
AcDbLayerTableRecord
  2
0
 70
     0
 62
     7
  6
Continuous
370
    -3
390
F
  0
LAYER
  5
2A
330
2
100
AcDbSymbolTableRecord
100
AcDbLayerTableRecord
  2
VOLL
 70
     0
 62
     1
  6
Continuous
370
    -3
390
F
  0
LAYER
  5
2B
330
2
100
AcDbSymbolTableRecord
100
AcDbLayerTableRecord
  2
HILF
 70
     0
 62
     2
  6
Continuous
370
    -3
390
F
  0
LAYER
  5
2C
330
2
100
AcDbSymbolTableRecord
100
AcDbLayerTableRecord
  2
MITTEL
 70
     0
 62
     2
  6
STRICHPUNKT
370
    -3
390
F
  0
LAYER
  5
2F
330
2
100
AcDbSymbolTableRecord
100
AcDbLayerTableRecord
  2
BEM
 70
     0
 62
     7
  6
Continuous
370
    -3
390
F
  0
LAYER
  5
30
330
2
100
AcDbSymbolTableRecord
100
AcDbLayerTableRecord
  2
STEMPEL
 70
     0
 62
     3
  6
Continuous
370
    -3
390
F
  0
LAYER
  5
31
330
2
100
AcDbSymbolTableRecord
100
AcDbLayerTableRecord
  2
TEXT
 70
     0
 62
     7
  6
Continuous
370
    -3
390
F
  0
LAYER
  5
195
330
2
100
AcDbSymbolTableRecord
100
AcDbLayerTableRecord
  2
DEFPOINTS
 70
     0
 62
     7
  6
AUSGEZOGEN
290
     0
370
    -3
390
F
  0
LAYER
  5
3B7
330
2
100
AcDbSymbolTableRecord
100
AcDbLayerTableRecord
  2
SCHRAFF
 70
     0
 62
     7
  6
Continuous
370
    -3
390
F
  0
ENDTAB
  0
TABLE
  2
STYLE
  5
3
330
0
100
AcDbSymbolTable
 70
     2
  0
STYLE
  5
11
330
3
100
AcDbSymbolTableRecord
100
AcDbTextStyleTableRecord
  2
STANDARD
 70
     0
 40
0.0
 41
0.8
 50
0.0
 71
     0
 42
3.5
  3
simplex.shx
  4

  0
STYLE
  5
24
330
3
100
AcDbSymbolTableRecord
100
AcDbTextStyleTableRecord
  2
GREEKS
 70
     0
 40
0.0
 41
0.8
 50
0.0
 71
     0
 42
2.5
  3
SIMPLEX.shx
  4

  0
ENDTAB
  0
TABLE
  2
VIEW
  5
6
330
0
100
AcDbSymbolTable
 70
     0
  0
ENDTAB
  0
TABLE
  2
UCS
  5
7
330
0
100
AcDbSymbolTable
 70
     0
  0
ENDTAB
  0
TABLE
  2
APPID
  5
9
330
0
100
AcDbSymbolTable
 70
     1
  0
APPID
  5
12
330
9
100
AcDbSymbolTableRecord
100
AcDbRegAppTableRecord
  2
ACAD
 70
     0
  0
ENDTAB
  0
TABLE
  2
DIMSTYLE
  5
A
330
0
100
AcDbSymbolTable
 70
     1
100
AcDbDimStyleTable
 71
     1
340
9D
  0
DIMSTYLE
105
9D
102
{ACAD_REACTORS
330
2690
330
2647
330
2640
330
2638
330
2636
102
}
330
A
100
AcDbSymbolTableRecord
100
AcDbDimStyleTableRecord
  2
Standard
 70
     0
340
11
  0
ENDTAB
  0
TABLE
  2
BLOCK_RECORD
  5
1
330
0
100
AcDbSymbolTable
 70
     7
  0
BLOCK_RECORD
  5
1E
102
{ACAD_XDICTIONARY
360
A0
102
}
330
1
100
AcDbSymbolTableRecord
100
AcDbBlockTableRecord
  2
*Model_Space
340
21
  0
BLOCK_RECORD
  5
1A
102
{ACAD_XDICTIONARY
360
A2
102
}
330
1
100
AcDbSymbolTableRecord
100
AcDbBlockTableRecord
  2
*Paper_Space
340
1D
  0
BLOCK_RECORD
  5
22
330
1
100
AcDbSymbolTableRecord
100
AcDbBlockTableRecord
  2
LOGO
340
0
102
{BLKREFS
331
9B
102
}
  0
BLOCK_RECORD
  5
26C9
330
1
100
AcDbSymbolTableRecord
100
AcDbBlockTableRecord
  2
*D1
340
0
  0
BLOCK_RECORD
  5
26D6
330
1
100
AcDbSymbolTableRecord
100
AcDbBlockTableRecord
  2
*D2
340
0
  0
BLOCK_RECORD
  5
26E3
330
1
100
AcDbSymbolTableRecord
100
AcDbBlockTableRecord
  2
*D3
340
0
  0
BLOCK_RECORD
  5
26F0
330
1
100
AcDbSymbolTableRecord
100
AcDbBlockTableRecord
  2
*D4
340
0
  0
BLOCK_RECORD
  5
270A
330
1
100
AcDbSymbolTableRecord
100
AcDbBlockTableRecord
  2
*D6
340
0
  0
ENDTAB
  0
ENDSEC
  0
SECTION
  2
BLOCKS
  0
BLOCK
  5
35
330
1E
100
AcDbEntity
  8
0
100
AcDbBlockBegin
  2
*Model_Space
 70
     0
 10
0.0
 20
0.0
 30
0.0
  3
*Model_Space
  1

  0
ENDBLK
  5
36
330
1E
100
AcDbEntity
  8
0
100
AcDbBlockEnd
  0
BLOCK
  5
33
330
1A
100
AcDbEntity
 67
     1
  8
0
100
AcDbBlockBegin
  2
*Paper_Space
 70
     0
 10
0.0
 20
0.0
 30
0.0
  3
*Paper_Space
  1

  0
ENDBLK
  5
34
330
1A
100
AcDbEntity
 67
     1
  8
0
100
AcDbBlockEnd
  0
BLOCK
  5
37
330
22
100
AcDbEntity
  8
0
100
AcDbBlockBegin
  2
LOGO
 70
     0
 10
0.0
 20
0.0
 30
0.0
  3
LOGO
  1

  0
ARC
  5
38
330
22
100
AcDbEntity
  8
0
100
AcDbCircle
 10
11.59973089678112
 20
-9.271599258481501
 30
0.0
 40
4.5
100
AcDbArc
 50
270.0
 51
231.0575587310159
  0
LINE
  5
39
330
22
100
AcDbEntity
  8
0
100
AcDbLine
 10
3.599730896781125
 20
-4.771599258481529
 30
0.0
 11
3.599730896781153
 21
-11.77159925848133
 31
0.0
  0
LINE
  5
3A
330
22
100
AcDbEntity
  8
0
100
AcDbLine
 10
2.599730896781125
 20
-4.771599258481529
 30
0.0
 11
2.599730896781153
 21
-11.77159925848133
 31
0.0
  0
CIRCLE
  5
3B
330
22
100
AcDbEntity
  8
0
100
AcDbCircle
 10
11.59973089678112
 20
-9.271599258481501
 30
0.0
 40
3.5
  0
ARC
  5
3C
330
22
100
AcDbEntity
  8
0
100
AcDbCircle
 10
31.59973089678115
 20
-9.271599258481472
 30
0.0
 40
4.5
100
AcDbArc
 50
270.0
 51
231.0575587310182
  0
LINE
  5
3D
330
22
100
AcDbEntity
  8
0
100
AcDbLine
 10
17.59973089678112
 20
-4.771599258481472
 30
0.0
 11
17.59973089678115
 21
-13.77159925848147
 31
0.0
  0
ARC
  5
3E
330
22
100
AcDbEntity
  8
0
100
AcDbCircle
 10
22.59973089678116
 20
-7.271599258481472
 30
0.0
 40
2.5
100
AcDbArc
 50
293.1161887722295
 51
90.0
  0
CIRCLE
  5
3F
330
22
100
AcDbEntity
  8
0
100
AcDbCircle
 10
31.59973089678115
 20
-9.271599258481472
 30
0.0
 40
3.5
  0
ARC
  5
40
330
22
100
AcDbEntity
  8
0
100
AcDbCircle
 10
4.599730896781153
 20
-11.77159925848133
 30
0.0
 40
1.0
100
AcDbArc
 50
180.0
 51
270.0
  0
ARC
  5
41
330
22
100
AcDbEntity
  8
0
100
AcDbCircle
 10
4.599730896781153
 20
-11.77159925848133
 30
0.0
 40
2.0
100
AcDbArc
 50
179.9999999999992
 51
270.0
  0
LINE
  5
42
330
22
100
AcDbEntity
  8
0
100
AcDbLine
 10
11.59973089678115
 20
-13.77159925848144
 30
0.0
 11
4.599730896781153
 21
-13.77159925848147
 31
0.0
  0
LINE
  5
43
330
22
100
AcDbEntity
  8
0
100
AcDbLine
 10
8.771303772034769
 20
-12.77159925848136
 30
0.0
 11
4.599730896781153
 21
-12.77159925848133
 31
0.0
  0
LINE
  5
44
330
22
100
AcDbEntity
  8
0
100
AcDbLine
 10
31.59973089678115
 20
-13.77159925848147
 30
0.0
 11
23.6715276665056
 21
-13.77159925848144
 31
0.0
  0
LINE
  5
45
330
22
100
AcDbEntity
  8
0
100
AcDbLine
 10
23.56565672307022
 20
-9.51278021337896
 30
0.0
 11
24.4388546544846
 21
-12.77159925848144
 31
0.0
  0
LINE
  5
46
330
22
100
AcDbEntity
  8
0
100
AcDbLine
 10
22.59973089678116
 20
-9.771599258481472
 30
0.0
 11
18.59973089678112
 21
-9.771599258481472
 31
0.0
  0
LINE
  5
47
330
22
100
AcDbEntity
  8
0
100
AcDbLine
 10
18.59973089678115
 20
-13.77159925848144
 30
0.0
 11
17.59973089678115
 21
-13.77159925848144
 31
0.0
  0
LINE
  5
48
330
22
100
AcDbEntity
  8
0
100
AcDbLine
 10
18.59973089678115
 20
-9.771599258481472
 30
0.0
 11
18.59973089678115
 21
-13.77159925848144
 31
0.0
  0
LINE
  5
49
330
22
100
AcDbEntity
  8
0
100
AcDbLine
 10
22.59973089678116
 20
-9.771599258481472
 30
0.0
 11
23.67152766650562
 21
-13.77159925848147
 31
0.0
  0
ARC
  5
4A
330
22
100
AcDbEntity
  8
0
100
AcDbCircle
 10
22.59973089678116
 20
-7.271599258481472
 30
0.0
 40
2.5
100
AcDbArc
 50
270.0
 51
270.0000000000007
  0
LINE
  5
4B
330
22
100
AcDbEntity
  8
0
100
AcDbLine
 10
28.77130377203494
 20
-12.77159925848147
 30
0.0
 11
24.43885465448463
 21
-12.77159925848144
 31
0.0
  0
LINE
  5
4C
330
22
100
AcDbEntity
  8
0
100
AcDbLine
 10
3.599730896781125
 20
-4.771599258481472
 30
0.0
 11
2.599730896781125
 21
-4.771599258481472
 31
0.0
  0
LINE
  5
4D
330
22
100
AcDbEntity
  8
0
100
AcDbLine
 10
22.59973089678116
 20
-8.771599258481472
 30
0.0
 11
18.59973089678115
 21
-8.771599258481472
 31
0.0
  0
LINE
  5
4E
330
22
100
AcDbEntity
  8
0
100
AcDbLine
 10
22.59973089678116
 20
-5.771599258481472
 30
0.0
 11
18.59973089678115
 21
-5.771599258481472
 31
0.0
  0
LINE
  5
4F
330
22
100
AcDbEntity
  8
0
100
AcDbLine
 10
22.59973089678116
 20
-4.771599258481472
 30
0.0
 11
17.59973089678115
 21
-4.771599258481472
 31
0.0
  0
LINE
  5
50
330
22
100
AcDbEntity
  8
0
100
AcDbLine
 10
18.59973089678115
 20
-5.771599258481472
 30
0.0
 11
18.59973089678115
 21
-8.771599258481472
 31
0.0
  0
ARC
  5
51
330
22
100
AcDbEntity
  8
0
100
AcDbCircle
 10
22.59973089678116
 20
-7.271599258481472
 30
0.0
 40
1.5
100
AcDbArc
 50
270.0
 51
90.0
  0
ENDBLK
  5
52
330
22
100
AcDbEntity
  8
0
100
AcDbBlockEnd
  0
BLOCK
  5
26D4
330
26C9
100
AcDbEntity
  8
0
100
AcDbBlockBegin
  2
*D1
 70
     1
 10
0.0
 20
0.0
 30
0.0
  3
*D1
  1

  0
LINE
  5
2791
330
26C9
100
AcDbEntity
  8
BEM
 62
     0
370
    -2
100
AcDbLine
 10
157.9842445923604
 20
251.7332888128239
 30
0.0
 11
172.81264381457
 21
251.7332888128239
 31
0.0
  0
LINE
  5
2792
330
26C9
100
AcDbEntity
  8
BEM
 62
     0
370
    -2
100
AcDbLine
 10
157.9842445923604
 20
166.7332888128239
 30
0.0
 11
172.81264381457
 21
166.7332888128239
 31
0.0
  0
LINE
  5
2793
330
26C9
100
AcDbEntity
  8
BEM
 62
     0
370
    -2
100
AcDbLine
 10
171.81264381457
 20
248.233288812824
 30
0.0
 11
171.81264381457
 21
170.2332888128239
 31
0.0
  0
SOLID
  5
2794
330
26C9
100
AcDbEntity
  8
BEM
 62
     0
100
AcDbTrace
 10
171.2293104812367
 20
248.233288812824
 30
0.0
 11
172.3959771479034
 21
248.233288812824
 31
0.0
 12
171.81264381457
 22
251.7332888128239
 32
0.0
 13
171.81264381457
 23
251.7332888128239
 33
0.0
  0
SOLID
  5
2795
330
26C9
100
AcDbEntity
  8
BEM
 62
     0
100
AcDbTrace
 10
171.2293104812367
 20
170.2332888128239
 30
0.0
 11
172.3959771479034
 21
170.2332888128239
 31
0.0
 12
171.81264381457
 22
166.7332888128239
 32
0.0
 13
171.81264381457
 23
166.7332888128239
 33
0.0
  0
MTEXT
  5
2796
330
26C9
100
AcDbEntity
  8
BEM
 62
     1
100
AcDbMText
 10
168.56264381457
 20
209.233288812824
 30
0.0
 40
3.5
 41
0.0
 71
     5
 72
     1
  1
\A1;85
 11
0.0000000000000001
 21
1.0
 31
0.0
 73
     1
 44
1.0
  0
POINT
  5
2797
330
26C9
100
AcDbEntity
  8
DEFPOINTS
 62
     0
100
AcDbPoint
 10
156.9842445923604
 20
251.7332888128239
 30
0.0
  0
POINT
  5
2798
330
26C9
100
AcDbEntity
  8
DEFPOINTS
 62
     0
100
AcDbPoint
 10
156.9842445923604
 20
166.7332888128239
 30
0.0
  0
POINT
  5
2799
330
26C9
100
AcDbEntity
  8
DEFPOINTS
 62
     0
100
AcDbPoint
 10
171.81264381457
 20
166.7332888128239
 30
0.0
  0
ENDBLK
  5
26D5
330
26C9
100
AcDbEntity
  8
0
100
AcDbBlockEnd
  0
BLOCK
  5
26E1
330
26D6
100
AcDbEntity
  8
0
100
AcDbBlockBegin
  2
*D2
 70
     1
 10
0.0
 20
0.0
 30
0.0
  3
*D2
  1

  0
LINE
  5
279A
330
26D6
100
AcDbEntity
  8
BEM
 62
     0
370
    -2
100
AcDbLine
 10
134.9823880445267
 20
252.733288812824
 30
0.0
 11
134.9823880445267
 21
261.6171562617595
 31
0.0
  0
LINE
  5
279B
330
26D6
100
AcDbEntity
  8
BEM
 62
     0
370
    -2
100
AcDbLine
 10
89.98610114019403
 20
252.733288812824
 30
0.0
 11
89.98610114019403
 21
261.6171562617595
 31
0.0
  0
LINE
  5
279C
330
26D6
100
AcDbEntity
  8
BEM
 62
     0
370
    -2
100
AcDbLine
 10
131.4823880445267
 20
260.6171562617595
 30
0.0
 11
93.48610114019402
 21
260.6171562617595
 31
0.0
  0
SOLID
  5
279D
330
26D6
100
AcDbEntity
  8
BEM
 62
     0
100
AcDbTrace
 10
131.4823880445267
 20
261.2004895950928
 30
0.0
 11
131.4823880445267
 21
260.0338229284262
 31
0.0
 12
134.9823880445267
 22
260.6171562617595
 32
0.0
 13
134.9823880445267
 23
260.6171562617595
 33
0.0
  0
SOLID
  5
279E
330
26D6
100
AcDbEntity
  8
BEM
 62
     0
100
AcDbTrace
 10
93.48610114019402
 20
261.2004895950928
 30
0.0
 11
93.48610114019402
 21
260.0338229284262
 31
0.0
 12
89.98610114019403
 22
260.6171562617595
 32
0.0
 13
89.98610114019403
 23
260.6171562617595
 33
0.0
  0
MTEXT
  5
279F
330
26D6
100
AcDbEntity
  8
BEM
 62
     1
100
AcDbMText
 10
112.4842445923603
 20
263.8671562617595
 30
0.0
 40
3.5
 41
0.0
 71
     5
 72
     1
  1
\A1;%%c45
 73
     1
 44
1.0
  0
POINT
  5
27A0
330
26D6
100
AcDbEntity
  8
DEFPOINTS
 62
     0
100
AcDbPoint
 10
134.9823880445267
 20
251.7332888128239
 30
0.0
  0
POINT
  5
27A1
330
26D6
100
AcDbEntity
  8
DEFPOINTS
 62
     0
100
AcDbPoint
 10
89.98610114019403
 20
251.7332888128239
 30
0.0
  0
POINT
  5
27A2
330
26D6
100
AcDbEntity
  8
DEFPOINTS
 62
     0
100
AcDbPoint
 10
89.98610114019403
 20
260.6171562617595
 30
0.0
  0
ENDBLK
  5
26E2
330
26D6
100
AcDbEntity
  8
0
100
AcDbBlockEnd
  0
BLOCK
  5
26EE
330
26E3
100
AcDbEntity
  8
0
100
AcDbBlockBegin
  2
*D3
 70
     1
 10
0.0
 20
0.0
 30
0.0
  3
*D3
  1

  0
LINE
  5
27A3
330
26E3
100
AcDbEntity
  8
BEM
 62
     0
370
    -2
100
AcDbLine
 10
85.98424459236042
 20
142.7332888128239
 30
0.0
 11
85.98424459236042
 21
122.3223542266158
 31
0.0
  0
LINE
  5
27A4
330
26E3
100
AcDbEntity
  8
BEM
 62
     0
370
    -2
100
AcDbLine
 10
138.9842445923603
 20
142.7332888128238
 30
0.0
 11
138.9842445923603
 21
122.3223542266158
 31
0.0
  0
LINE
  5
27A5
330
26E3
100
AcDbEntity
  8
BEM
 62
     0
370
    -2
100
AcDbLine
 10
89.48424459236042
 20
123.3223542266158
 30
0.0
 11
135.4842445923603
 21
123.3223542266158
 31
0.0
  0
SOLID
  5
27A6
330
26E3
100
AcDbEntity
  8
BEM
 62
     0
100
AcDbTrace
 10
89.48424459236042
 20
123.9056875599492
 30
0.0
 11
89.48424459236042
 21
122.7390208932825
 31
0.0
 12
85.98424459236042
 22
123.3223542266158
 32
0.0
 13
85.98424459236042
 23
123.3223542266158
 33
0.0
  0
SOLID
  5
27A7
330
26E3
100
AcDbEntity
  8
BEM
 62
     0
100
AcDbTrace
 10
135.4842445923603
 20
123.9056875599492
 30
0.0
 11
135.4842445923603
 21
122.7390208932825
 31
0.0
 12
138.9842445923603
 22
123.3223542266158
 32
0.0
 13
138.9842445923603
 23
123.3223542266158
 33
0.0
  0
MTEXT
  5
27A8
330
26E3
100
AcDbEntity
  8
BEM
 62
     1
100
AcDbMText
 10
112.4842445923604
 20
126.5723542266158
 30
0.0
 40
3.5
 41
0.0
 71
     5
 72
     1
  1
\A1;%%C53
 73
     1
 44
1.0
  0
POINT
  5
27A9
330
26E3
100
AcDbEntity
  8
DEFPOINTS
 62
     0
100
AcDbPoint
 10
85.98424459236042
 20
143.7332888128239
 30
0.0
  0
POINT
  5
27AA
330
26E3
100
AcDbEntity
  8
DEFPOINTS
 62
     0
100
AcDbPoint
 10
138.9842445923603
 20
143.7332888128238
 30
0.0
  0
POINT
  5
27AB
330
26E3
100
AcDbEntity
  8
DEFPOINTS
 62
     0
100
AcDbPoint
 10
138.9842445923603
 20
123.3223542266158
 30
0.0
  0
ENDBLK
  5
26EF
330
26E3
100
AcDbEntity
  8
0
100
AcDbBlockEnd
  0
BLOCK
  5
26FB
330
26F0
100
AcDbEntity
  8
0
100
AcDbBlockBegin
  2
*D4
 70
     1
 10
0.0
 20
0.0
 30
0.0
  3
*D4
  1

  0
LINE
  5
27AC
330
26F0
100
AcDbEntity
  8
BEM
 62
     0
370
    -2
100
AcDbLine
 10
156.9842445923604
 20
165.7332888128239
 30
0.0
 11
156.9842445923604
 21
113.662527017936
 31
0.0
  0
LINE
  5
27AD
330
26F0
100
AcDbEntity
  8
BEM
 62
     0
370
    -2
100
AcDbLine
 10
67.98424459236042
 20
165.7332888128239
 30
0.0
 11
67.98424459236042
 21
113.662527017936
 31
0.0
  0
LINE
  5
27AE
330
26F0
100
AcDbEntity
  8
BEM
 62
     0
370
    -2
100
AcDbLine
 10
153.4842445923603
 20
114.662527017936
 30
0.0
 11
71.48424459236043
 21
114.662527017936
 31
0.0
  0
SOLID
  5
27AF
330
26F0
100
AcDbEntity
  8
BEM
 62
     0
100
AcDbTrace
 10
153.4842445923603
 20
115.2458603512693
 30
0.0
 11
153.4842445923603
 21
114.0791936846026
 31
0.0
 12
156.9842445923604
 22
114.662527017936
 32
0.0
 13
156.9842445923604
 23
114.662527017936
 33
0.0
  0
SOLID
  5
27B0
330
26F0
100
AcDbEntity
  8
BEM
 62
     0
100
AcDbTrace
 10
71.48424459236043
 20
115.2458603512693
 30
0.0
 11
71.48424459236043
 21
114.0791936846026
 31
0.0
 12
67.98424459236042
 22
114.662527017936
 32
0.0
 13
67.98424459236042
 23
114.662527017936
 33
0.0
  0
MTEXT
  5
27B1
330
26F0
100
AcDbEntity
  8
BEM
 62
     1
100
AcDbMText
 10
112.4842445923604
 20
117.912527017936
 30
0.0
 40
3.5
 41
0.0
 71
     5
 72
     1
  1
\A1;%%c89
 73
     1
 44
1.0
  0
POINT
  5
27B2
330
26F0
100
AcDbEntity
  8
DEFPOINTS
 62
     0
100
AcDbPoint
 10
156.9842445923604
 20
166.7332888128239
 30
0.0
  0
POINT
  5
27B3
330
26F0
100
AcDbEntity
  8
DEFPOINTS
 62
     0
100
AcDbPoint
 10
67.98424459236042
 20
166.7332888128239
 30
0.0
  0
POINT
  5
27B4
330
26F0
100
AcDbEntity
  8
DEFPOINTS
 62
     0
100
AcDbPoint
 10
67.98424459236042
 20
114.662527017936
 30
0.0
  0
ENDBLK
  5
26FC
330
26F0
100
AcDbEntity
  8
0
100
AcDbBlockEnd
  0
BLOCK
  5
2715
330
270A
100
AcDbEntity
  8
0
100
AcDbBlockBegin
  2
*D6
 70
     1
 10
0.0
 20
0.0
 30
0.0
  3
*D6
  1

  0
LINE
  5
27C0
330
270A
100
AcDbEntity
  8
BEM
 62
     0
370
    -2
100
AcDbLine
 10
157.9842445923604
 20
251.7332888128239
 30
0.0
 11
181.760304290528
 21
251.7332888128239
 31
0.0
  0
LINE
  5
27C1
330
270A
100
AcDbEntity
  8
BEM
 62
     0
370
    -2
100
AcDbLine
 10
139.3718239476789
 20
136.7332888128239
 30
0.0
 11
181.760304290528
 21
136.7332888128239
 31
0.0
  0
LINE
  5
27C2
330
270A
100
AcDbEntity
  8
BEM
 62
     0
370
    -2
100
AcDbLine
 10
180.760304290528
 20
248.233288812824
 30
0.0
 11
180.7603042905279
 21
140.2332888128239
 31
0.0
  0
SOLID
  5
27C3
330
270A
100
AcDbEntity
  8
BEM
 62
     0
100
AcDbTrace
 10
180.1769709571946
 20
248.233288812824
 30
0.0
 11
181.3436376238613
 21
248.233288812824
 31
0.0
 12
180.760304290528
 22
251.7332888128239
 32
0.0
 13
180.760304290528
 23
251.7332888128239
 33
0.0
  0
SOLID
  5
27C4
330
270A
100
AcDbEntity
  8
BEM
 62
     0
100
AcDbTrace
 10
180.1769709571946
 20
140.2332888128239
 30
0.0
 11
181.3436376238613
 21
140.2332888128239
 31
0.0
 12
180.7603042905279
 22
136.7332888128239
 32
0.0
 13
180.7603042905279
 23
136.7332888128239
 33
0.0
  0
MTEXT
  5
27C5
330
270A
100
AcDbEntity
  8
BEM
 62
     1
100
AcDbMText
 10
177.5103042905279
 20
194.233288812824
 30
0.0
 40
3.5
 41
0.0
 71
     5
 72
     1
  1
\A1;115
 11
0.0000000000000001
 21
1.0
 31
0.0
 73
     1
 44
1.0
  0
POINT
  5
27C6
330
270A
100
AcDbEntity
  8
DEFPOINTS
 62
     0
100
AcDbPoint
 10
156.9842445923604
 20
251.7332888128239
 30
0.0
  0
POINT
  5
27C7
330
270A
100
AcDbEntity
  8
DEFPOINTS
 62
     0
100
AcDbPoint
 10
138.3718239476789
 20
136.7332888128239
 30
0.0
  0
POINT
  5
27C8
330
270A
100
AcDbEntity
  8
DEFPOINTS
 62
     0
100
AcDbPoint
 10
180.7603042905279
 20
136.7332888128239
 30
0.0
  0
ENDBLK
  5
2716
330
270A
100
AcDbEntity
  8
0
100
AcDbBlockEnd
  0
ENDSEC
  0
SECTION
  2
ENTITIES
  0
LINE
  5
57
330
1E
100
AcDbEntity
  8
STEMPEL
100
AcDbLine
 10
205.0
 20
55.00000000000003
 30
0.0
 11
19.99999999999998
 21
55.0
 31
0.0
  0
LINE
  5
58
330
1E
100
AcDbEntity
  8
STEMPEL
100
AcDbLine
 10
68.00000000000006
 20
54.99999999999997
 30
0.0
 11
68.0
 21
4.999999999999985
 31
0.0
  0
LINE
  5
59
330
1E
100
AcDbEntity
  8
STEMPEL
100
AcDbLine
 10
110.0
 20
55.00000000000003
 30
0.0
 11
110.0
 21
4.999999999999985
 31
0.0
  0
LINE
  5
5A
330
1E
100
AcDbEntity
  8
STEMPEL
100
AcDbLine
 10
166.0
 20
54.99999999999989
 30
0.0
 11
166.0
 21
20.0
 31
0.0
  0
LINE
  5
5B
330
1E
100
AcDbEntity
  8
STEMPEL
100
AcDbLine
 10
67.99999999999994
 20
14.99999999999998
 30
0.0
 11
19.99999999999998
 21
14.99999999999998
 31
0.0
  0
LINE
  5
5C
330
1E
100
AcDbEntity
  8
STEMPEL
100
AcDbLine
 10
205.0
 20
20.0
 30
0.0
 11
68.00000000000006
 21
19.99999999999998
 31
0.0
  0
LINE
  5
5D
330
1E
100
AcDbEntity
  8
STEMPEL
100
AcDbLine
 10
205.0
 20
40.0
 30
0.0
 11
68.00000000000006
 21
39.99999999999997
 31
0.0
  0
LINE
  5
5E
330
1E
100
AcDbEntity
  8
VOLL
100
AcDbLine
 10
27.00000000000005
 20
55.00000000000003
 30
0.0
 11
26.99999999999999
 21
4.999999999999985
 31
0.0
  0
LINE
  5
5F
330
1E
100
AcDbEntity
  8
VOLL
100
AcDbLine
 10
47.00000000000005
 20
54.99999999999997
 30
0.0
 11
47.0
 21
4.999999999999985
 31
0.0
  0
LINE
  5
60
330
1E
100
AcDbEntity
  8
VOLL
100
AcDbLine
 10
57.00000000000006
 20
54.99999999999997
 30
0.0
 11
57.0
 21
4.999999999999985
 31
0.0
  0
LINE
  5
61
330
1E
100
AcDbEntity
  8
VOLL
100
AcDbLine
 10
77.00000000000006
 20
39.99999999999997
 30
0.0
 11
77.00000000000006
 21
19.99999999999998
 31
0.0
  0
LINE
  5
62
330
1E
100
AcDbEntity
  8
VOLL
100
AcDbLine
 10
90.00000000000005
 20
54.99999999999992
 30
0.0
 11
90.0
 21
19.99999999999998
 31
0.0
  0
LINE
  5
63
330
1E
100
AcDbEntity
  8
HILF
100
AcDbLine
 10
20.00000000000004
 20
50.00000000000003
 30
0.0
 11
68.00000000000006
 21
50.00000000000003
 31
0.0
  0
LINE
  5
64
330
1E
100
AcDbEntity
  8
HILF
100
AcDbLine
 10
20.00000000000004
 20
45.00000000000002
 30
0.0
 11
68.00000000000006
 21
45.00000000000002
 31
0.0
  0
LINE
  5
65
330
1E
100
AcDbEntity
  8
HILF
100
AcDbLine
 10
20.00000000000004
 20
39.99999999999997
 30
0.0
 11
68.00000000000006
 21
39.99999999999997
 31
0.0
  0
LINE
  5
66
330
1E
100
AcDbEntity
  8
HILF
100
AcDbLine
 10
20.00000000000004
 20
34.99999999999997
 30
0.0
 11
68.00000000000006
 21
34.99999999999997
 31
0.0
  0
LINE
  5
67
330
1E
100
AcDbEntity
  8
HILF
100
AcDbLine
 10
20.00000000000004
 20
29.99999999999999
 30
0.0
 11
68.00000000000006
 21
29.99999999999999
 31
0.0
  0
LINE
  5
68
330
1E
100
AcDbEntity
  8
HILF
100
AcDbLine
 10
20.00000000000004
 20
24.99999999999999
 30
0.0
 11
68.00000000000006
 21
24.99999999999999
 31
0.0
  0
LINE
  5
69
330
1E
100
AcDbEntity
  8
HILF
100
AcDbLine
 10
20.00000000000004
 20
19.99999999999998
 30
0.0
 11
68.00000000000006
 21
19.99999999999998
 31
0.0
  0
LINE
  5
6A
330
1E
100
AcDbEntity
  8
HILF
100
AcDbLine
 10
68.00000000000006
 20
34.99999999999997
 30
0.0
 11
110.0
 21
34.99999999999997
 31
0.0
  0
LINE
  5
6B
330
1E
100
AcDbEntity
  8
HILF
100
AcDbLine
 10
68.00000000000006
 20
29.99999999999999
 30
0.0
 11
110.0
 21
29.99999999999999
 31
0.0
  0
LINE
  5
6C
330
1E
100
AcDbEntity
  8
HILF
100
AcDbLine
 10
68.00000000000006
 20
24.99999999999999
 30
0.0
 11
110.0
 21
24.99999999999999
 31
0.0
  0
LINE
  5
6D
330
1E
100
AcDbEntity
  8
HILF
100
AcDbLine
 10
112.3868400548474
 20
42.01879123782069
 30
0.0
 11
162.4176958278155
 21
42.01879123782069
 31
0.0
  0
LINE
  5
6E
330
1E
100
AcDbEntity
  8
HILF
100
AcDbLine
 10
112.3868400548474
 20
34.99999999999997
 30
0.0
 11
162.4176958278155
 21
34.99999999999997
 31
0.0
  0
LINE
  5
6F
330
1E
100
AcDbEntity
  8
HILF
100
AcDbLine
 10
112.3868400548474
 20
29.99999999999999
 30
0.0
 11
162.4176958278155
 21
29.99999999999999
 31
0.0
  0
LINE
  5
70
330
1E
100
AcDbEntity
  8
HILF
100
AcDbLine
 10
112.3868400548474
 20
24.99999999999999
 30
0.0
 11
162.4176958278155
 21
24.99999999999999
 31
0.0
  0
LINE
  5
71
330
1E
100
AcDbEntity
  8
VOLL
100
AcDbLine
 10
166.0
 20
30.0
 30
0.0
 11
205.0
 21
30.0
 31
0.0
  0
LINE
  5
72
330
1E
100
AcDbEntity
  8
HILF
100
AcDbLine
 10
168.3619308148496
 20
41.88991818477913
 30
0.0
 11
202.4294419663364
 21
41.88991818477913
 31
0.0
  0
LINE
  5
73
330
1E
100
AcDbEntity
  8
HILF
100
AcDbLine
 10
111.7454849644942
 20
7.446991290141568
 30
0.0
 11
202.4294419663364
 21
7.446991290141568
 31
0.0
  0
TEXT
  5
74
330
1E
100
AcDbEntity
  8
TEXT
100
AcDbText
 10
31.9308298981591
 20
9.336909474920659
 30
0.0
 40
2.0
  1
Änderung
 41
0.8
  7
GREEKS
 72
     1
 11
37.30225846958767
 21
9.336909474920659
 31
0.0
100
AcDbText
  0
TEXT
  5
75
330
1E
100
AcDbEntity
  8
TEXT
100
AcDbText
 10
71.75817860751886
 20
51.23104475435443
 30
0.0
 40
2.5
  1
Maßstab
 41
0.8
  7
GREEKS
100
AcDbText
  0
TEXT
  5
76
330
1E
100
AcDbEntity
  8
TEXT
100
AcDbText
 10
92.14294773670257
 20
51.20920842174095
 30
0.0
 40
2.5
  1
Zul. Abw.
 41
0.8
  7
GREEKS
100
AcDbText
  0
TEXT
  5
77
330
1E
100
AcDbEntity
  8
TEXT
100
AcDbText
 10
112.4389701904505
 20
51.27446640058898
 30
0.0
 40
2.5
  1
Benennung
 41
0.8
  7
GREEKS
100
AcDbText
  0
TEXT
  5
78
330
1E
100
AcDbEntity
  8
TEXT
100
AcDbText
 10
168.089377478817
 20
51.15660172685682
 30
0.0
 40
2.5
  1
Zeichnungs Nr.
 41
0.8
  7
GREEKS
100
AcDbText
  0
TEXT
  5
79
330
1E
100
AcDbEntity
  8
TEXT
100
AcDbText
 10
112.371119195568
 20
15.42280285096528
 30
0.0
 40
2.5
  1
Bauvorhaben
 41
0.8
  7
GREEKS
100
AcDbText
  0
TEXT
  5
7A
330
1E
100
AcDbEntity
  8
TEXT
100
AcDbText
 10
168.3619308148496
 20
36.59059118549985
 30
0.0
 40
2.5
  1
Ersatz für:
 41
0.8
  7
GREEKS
100
AcDbText
  0
TEXT
  5
7B
330
1E
100
AcDbEntity
  8
TEXT
100
AcDbText
 10
24.13320553522878
 20
6.827329230135958
 30
0.0
 40
2.0
  1
Index
 50
90.0
 41
0.8
  7
GREEKS
100
AcDbText
  0
TEXT
  5
7C
330
1E
100
AcDbEntity
  8
TEXT
100
AcDbText
 10
50.04673380377405
 20
9.33578134669905
 30
0.0
 40
2.0
  1
Tag
 41
0.8
  7
GREEKS
 72
     1
 11
51.91340047044072
 21
9.33578134669905
 31
0.0
100
AcDbText
  0
TEXT
  5
7D
330
1E
100
AcDbEntity
  8
TEXT
100
AcDbText
 10
59.50613721932963
 20
9.29662108483204
 30
0.0
 40
2.0
  1
Name
 41
0.8
  7
GREEKS
 72
     1
 11
62.66804198123439
 21
9.29662108483204
 31
0.0
100
AcDbText
  0
TEXT
  5
7E
330
1E
100
AcDbEntity
  8
TEXT
100
AcDbText
 10
81.16558365768254
 20
36.65940250614963
 30
0.0
 40
2.0
  1
Tag
 41
0.8
  7
GREEKS
100
AcDbText
  0
TEXT
  5
7F
330
1E
100
AcDbEntity
  8
TEXT
100
AcDbText
 10
96.23132921131475
 20
36.65480545957612
 30
0.0
 40
2.0
  1
Name
 41
0.8
  7
GREEKS
100
AcDbText
  0
TEXT
  5
80
330
1E
100
AcDbEntity
  8
TEXT
100
AcDbText
 10
68.79180635838077
 20
31.81495184808982
 30
0.0
 40
2.0
  1
Gez.
 41
0.8
  7
GREEKS
100
AcDbText
  0
TEXT
  5
81
330
1E
100
AcDbEntity
  8
TEXT
100
AcDbText
 10
68.77575432858361
 20
26.84463145714189
 30
0.0
 40
2.0
  1
Gepr.
 41
0.8
  7
GREEKS
100
AcDbText
  0
TEXT
  5
82
330
1E
100
AcDbEntity
  8
TEXT
100
AcDbText
 10
68.80033886936519
 20
21.76473194824904
 30
0.0
 40
2.0
  1
Norm.
 41
0.8
  7
GREEKS
100
AcDbText
  0
LINE
  5
83
330
1E
100
AcDbEntity
  8
STEMPEL
100
AcDbLine
 10
24.99999999999995
 20
5.0
 30
0.0
 11
205.0
 21
5.0
 31
0.0
  0
TEXT
  5
84
330
1E
100
AcDbEntity
  8
TEXT
100
AcDbText
 10
168.6200430748503
 20
26.03708088939301
 30
0.0
 40
2.5
  1
ersetzt durch:
 41
0.8
  7
GREEKS
100
AcDbText
  0
LINE
  5
85
330
1E
100
AcDbEntity
  8
STEMPEL
100
AcDbLine
 10
205.0
 20
5.0
 30
0.0
 11
19.99999999999994
 21
5.0
 31
0.0
  0
LINE
  5
86
330
1E
100
AcDbEntity
  8
STEMPEL
100
AcDbLine
 10
205.0
 20
5.0
 30
0.0
 11
205.0
 21
292.0
 31
0.0
  0
LINE
  5
87
330
1E
100
AcDbEntity
  8
STEMPEL
100
AcDbLine
 10
20.0
 20
5.0
 30
0.0
 11
19.99999999999994
 21
292.0
 31
0.0
  0
LINE
  5
88
330
1E
100
AcDbEntity
  8
STEMPEL
100
AcDbLine
 10
205.0
 20
292.0
 30
0.0
 11
19.99999999999994
 21
292.0
 31
0.0
  0
LINE
  5
89
330
1E
100
AcDbEntity
  8
HILF
100
AcDbLine
 10
0.0
 20
0.0
 30
0.0
 11
-0.0000000000000568
 21
297.0
 31
0.0
  0
LINE
  5
8A
330
1E
100
AcDbEntity
  8
HILF
100
AcDbLine
 10
210.0
 20
297.0000000000001
 30
0.0
 11
0.0
 21
297.0
 31
0.0
  0
LINE
  5
8B
330
1E
100
AcDbEntity
  8
HILF
100
AcDbLine
 10
210.0
 20
0.0
 30
0.0
 11
0.0
 21
0.0
 31
0.0
  0
LINE
  5
8C
330
1E
100
AcDbEntity
  8
HILF
100
AcDbLine
 10
15.54383567856928
 20
148.5
 30
0.0
 11
0.0000000000000568
 21
148.5
 31
0.0
  0
TEXT
  5
8D
330
1E
100
AcDbEntity
  8
TEXT
100
AcDbText
 10
69.31105491105199
 20
36.57012735575833
 30
0.0
 40
2.0
  1
2011
 41
0.8
  7
GREEKS
100
AcDbText
  0
LINE
  5
8E
330
1E
100
AcDbEntity
  8
HILF
100
AcDbLine
 10
210.0
 20
-0.0000000000000568
 30
0.0
 11
210.0
 21
297.0
 31
0.0
  0
TEXT
  5
8F
330
1E
100
AcDbEntity
  8
VOLL
100
AcDbText
 10
78.07675471698113
 20
31.02594776470585
 30
0.0
 40
1.8
  1

  7
GREEKS
100
AcDbText
  0
TEXT
  5
90
330
1E
100
AcDbEntity
  8
TEXT
100
AcDbText
 10
20.92754975488837
 20
55.83599999999997
 30
0.0
 40
2.5
  1
Erstellt mit AUTOCAD 2004
 41
0.8
  7
GREEKS
100
AcDbText
  0
TEXT
  5
91
330
1E
100
AcDbEntity
  8
TEXT
100
AcDbText
 10
97.21080242906285
 20
31.54481959861755
 30
0.0
 40
2.0
  1
Koeh
 41
0.8
  7
GREEKS
 72
     1
 11
99.83937385763429
 21
31.54481959861755
 31
0.0
100
AcDbText
  0
TEXT
  5
92
330
1E
100
AcDbEntity
  8
TEXT
 62
     1
100
AcDbText
 10
173.3758448032862
 20
44.07450714456979
 30
0.0
 40
3.5
  1
58060AB0W
 41
0.8
  7
GREEKS
 72
     1
 11
185.5758448032862
 21
44.07450714456979
 31
0.0
100
AcDbText
  0
TEXT
  5
93
330
1E
100
AcDbEntity
  8
TEXT
 62
     1
100
AcDbText
 10
75.25031532409435
 20
44.07450714456979
 30
0.0
 40
3.5
  1
1:1
 41
0.8
  7
GREEKS
100
AcDbText
  0
TEXT
  5
94
330
1E
100
AcDbEntity
  8
TEXT
100
AcDbText
 10
80.19949855411802
 20
31.55382520412866
 30
0.0
 40
2.0
  1
08.09.
 41
0.8
  7
GREEKS
 72
     1
 11
83.70426045887993
 21
31.55382520412866
 31
0.0
100
AcDbText
  0
TEXT
  5
95
330
1E
100
AcDbEntity
  8
TEXT
 62
     1
100
AcDbText
 10
112.1454620504011
 20
43.70874394626889
 30
0.0
 40
3.5
  1
Verbundrohr DN40/50
 41
0.8
  7
GREEKS
100
AcDbText
  0
TEXT
  5
96
330
1E
100
AcDbEntity
  8
TEXT
100
AcDbText
 10
112.5648195562657
 20
35.75167208792644
 30
0.0
 40
2.5
  1
Übergangsrohr konzentrisch
 41
0.8
  7
GREEKS
100
AcDbText
  0
TEXT
  5
98
330
1E
100
AcDbEntity
  8
TEXT
100
AcDbText
 10
112.5648195562657
 20
25.82005971521079
 30
0.0
 40
2.5
  1
EDV-Art.Nr. 58060.AB0X
 41
0.8
  7
GREEKS
100
AcDbText
  0
TEXT
  5
99
330
1E
100
AcDbEntity
  8
TEXT
100
AcDbText
 10
112.4918750788913
 20
21.31487076511316
 30
0.0
 40
2.0
  1
58060AB0W.DWG
 41
0.8
  7
GREEKS
100
AcDbText
  0
TEXT
  5
9A
330
1E
100
AcDbEntity
  8
TEXT
100
AcDbText
 10
91.31306610404202
 20
45.38181920511511
 30
0.0
 40
2.0
  1
DIN EN1123-2
 41
0.8
  7
GREEKS
 72
     1
 11
99.80830419928011
 21
45.38181920511511
 31
0.0
100
AcDbText
  0
INSERT
  5
9B
330
1E
100
AcDbEntity
  8
STEMPEL
100
AcDbBlockReference
  2
LOGO
 10
70.4977742728897
 20
22.51052638224161
 30
0.0
  0
TEXT
  5
118
330
1E
100
AcDbEntity
  8
TEXT
100
AcDbText
 10
208.6511461928583
 20
5.083950539994247
 30
0.0
 40
2.0
  1
Diese Zeichnung ist urheberrechtlich geschützt und bleibt unser Eigentum. Sie darf weder ganz noch teilweise verfielfältigt und nicht an Dritte weitergegeben werden.
 50
90.0
 41
0.8
  7
GREEKS
100
AcDbText
  0
TEXT
  5
2B5
330
1E
100
AcDbEntity
  8
TEXT
 62
     1
100
AcDbText
 10
132.7219422513903
 20
100.1767999666974
 30
0.0
 40
3.5
  1
Rohrende leicht eingezogen
 41
0.8
  7
GREEKS
100
AcDbText
  0
TEXT
  5
3C2
330
1E
100
AcDbEntity
  8
TEXT
 62
     1
100
AcDbText
 10
371.1516896065724
 20
62.21640786355101
 30
0.0
 40
7.0
  1

 41
0.8
  7
GREEKS
 72
     1
 11
371.1516896065724
 21
62.21640786355101
 31
0.0
100
AcDbText
  0
TEXT
  5
1C24
330
1E
100
AcDbEntity
  8
TEXT
 62
     1
100
AcDbText
 10
122.515064557629
 20
64.87110898645312
 30
0.0
 40
3.5
  1
und innenbeschichtet
 41
0.8
  7
GREEKS
100
AcDbText
  0
TEXT
  5
1C25
330
1E
100
AcDbEntity
  8
TEXT
 62
     1
100
AcDbText
 10
96.88683521625183
 20
58.57369129376209
 30
0.0
 40
3.5
  1
Dämmung: 2 K-PU-Schaum
 41
0.8
  7
GREEKS
100
AcDbText
  0
TEXT
  5
1C26
330
1E
100
AcDbEntity
  8
TEXT
 62
     1
100
AcDbText
 10
98.68780011962213
 20
70.505635906066
 30
0.0
 40
3.5
  1
Innenrohr: E195 EN10305 feuerverzinkt
 41
0.8
  7
GREEKS
100
AcDbText
  0
TEXT
  5
1C27
330
1E
100
AcDbEntity
  8
TEXT
 62
     1
100
AcDbText
 10
96.80169143419011
 20
76.18216992424351
 30
0.0
 40
3.5
  1
Außenrohr: E195 EN10305 feuerverzinkt
 41
0.8
  7
GREEKS
100
AcDbText
  0
DIMENSION
  5
2636
330
1E
100
AcDbEntity
  8
BEM
100
AcDbDimension
  2
*D6
 10
180.7603042905279
 20
136.7332888128239
 30
0.0
 11
177.5103042905279
 21
194.233288812824
 31
0.0
 70
    32
 71
     5
 42
115.0
  3
Standard
100
AcDbAlignedDimension
 13
156.9842445923604
 23
251.7332888128239
 33
0.0
 14
138.3718239476789
 24
136.7332888128239
 34
0.0
 50
90.0
100
AcDbRotatedDimension
1001
ACAD
1000
DSTYLE
1002
{
1070
    41
1040
3.5
1070
    42
1040
1.0
1070
    43
1040
7.0
1070
    44
1040
1.0
1070
    73
1070
     0
1070
    74
1070
     0
1070
    77
1070
     1
1070
    78
1070
     8
1070
    79
1070
     2
1070
   140
1040
3.5
1070
   141
1040
1.5
1070
   146
1040
0.5142857142857144
1070
   147
1040
1.5
1070
   172
1070
     1
1070
   178
1070
     1
1070
   179
1070
     2
1070
   271
1070
     2
1070
   272
1070
     2
1070
   284
1070
     8
1070
   285
1070
     8
1070
   286
1070
     8
1002
}
  0
DIMENSION
  5
2638
330
1E
100
AcDbEntity
  8
BEM
100
AcDbDimension
  2
*D4
 10
67.98424459236042
 20
114.662527017936
 30
0.0
 11
112.4842445923604
 21
117.912527017936
 31
0.0
 70
    32
  1
%%c<>
 71
     5
 42
88.99999999999995
  3
Standard
100
AcDbAlignedDimension
 13
156.9842445923604
 23
166.7332888128239
 33
0.0
 14
67.98424459236042
 24
166.7332888128239
 34
0.0
100
AcDbRotatedDimension
1001
ACAD
1000
DSTYLE
1002
{
1070
    41
1040
3.5
1070
    42
1040
1.0
1070
    43
1040
7.0
1070
    44
1040
1.0
1070
    73
1070
     0
1070
    74
1070
     0
1070
    77
1070
     1
1070
    78
1070
     8
1070
    79
1070
     2
1070
   140
1040
3.5
1070
   141
1040
1.5
1070
   146
1040
0.5142857142857144
1070
   147
1040
1.5
1070
   172
1070
     1
1070
   178
1070
     1
1070
   179
1070
     2
1070
   271
1070
     2
1070
   272
1070
     2
1070
   284
1070
     8
1070
   285
1070
     8
1070
   286
1070
     8
1002
}
  0
LINE
  5
263A
102
{ACAD_REACTORS
330
27F6
102
}
330
1E
100
AcDbEntity
  8
STEMPEL
100
AcDbLine
 10
87.48424459236037
 20
194.1647211573452
 30
0.0
 11
87.48424459236042
 21
143.7987802271865
 31
0.0
  0
LINE
  5
263B
102
{ACAD_REACTORS
330
27F5
102
}
330
1E
100
AcDbEntity
  8
STEMPEL
100
AcDbLine
 10
137.4842445923603
 20
194.1647211573452
 30
0.0
 11
137.4842445923603
 21
143.7987802271865
 31
0.0
  0
LINE
  5
263C
330
1E
100
AcDbEntity
  8
MITTEL
100
AcDbLine
 10
112.4842445923603
 20
256.733288812824
 30
0.0
 11
112.4842445923604
 21
131.7332888128239
 31
0.0
  0
LINE
  5
263E
102
{ACAD_REACTORS
330
27F6
330
2826
102
}
330
1E
100
AcDbEntity
  8
STEMPEL
100
AcDbLine
 10
85.98424459236037
 20
194.1647211573452
 30
0.0
 11
85.98424459236042
 21
143.7332888128238
 31
0.0
  0
LINE
  5
263F
102
{ACAD_REACTORS
330
27F5
330
2826
102
}
330
1E
100
AcDbEntity
  8
STEMPEL
100
AcDbLine
 10
138.9842445923603
 20
194.1647211573452
 30
0.0
 11
138.9842445923603
 21
143.7332888128238
 31
0.0
  0
DIMENSION
  5
2640
330
1E
100
AcDbEntity
  8
BEM
100
AcDbDimension
  2
*D3
 10
138.9842445923603
 20
123.3223542266158
 30
0.0
 11
112.4842445923604
 21
126.5723542266158
 31
0.0
 70
    32
  1
%%C<>
 71
     5
 42
52.99999999999994
  3
Standard
100
AcDbAlignedDimension
 13
85.98424459236042
 23
143.7332888128239
 33
0.0
 14
138.9842445923603
 24
143.7332888128238
 34
0.0
100
AcDbRotatedDimension
1001
ACAD
1000
DSTYLE
1002
{
1070
    41
1040
3.5
1070
    42
1040
1.0
1070
    43
1040
7.0
1070
    44
1040
1.0
1070
    73
1070
     0
1070
    74
1070
     0
1070
    77
1070
     1
1070
    78
1070
     8
1070
    79
1070
     2
1070
   140
1040
3.5
1070
   141
1040
1.5
1070
   146
1040
0.5142857142857144
1070
   147
1040
1.5
1070
   172
1070
     1
1070
   178
1070
     1
1070
   179
1070
     2
1070
   271
1070
     2
1070
   272
1070
     2
1070
   284
1070
     8
1070
   285
1070
     8
1070
   286
1070
     8
1002
}
  0
LINE
  5
2641
330
1E
100
AcDbEntity
  8
HILF
100
AcDbLine
 10
135.9727850797304
 20
143.7332888128239
 30
0.0
 11
88.99570410499041
 21
143.7332888128239
 31
0.0
  0
LINE
  5
2642
330
1E
100
AcDbEntity
  8
STEMPEL
100
AcDbLine
 10
138.3718239476789
 20
136.7332888128239
 30
0.0
 11
86.59666523704187
 21
136.7332888128239
 31
0.0
  0
LINE
  5
2643
102
{ACAD_REACTORS
330
27F6
102
}
330
1E
100
AcDbEntity
  8
STEMPEL
100
AcDbLine
 10
87.48424459236042
 20
143.7987802271865
 30
0.0
 11
88.10239499335693
 21
136.7332888128239
 31
0.0
  0
LINE
  5
2644
102
{ACAD_REACTORS
330
27F6
102
}
330
1E
100
AcDbEntity
  8
STEMPEL
100
AcDbLine
 10
85.98424459236042
 20
143.7332888128238
 30
0.0
 11
86.59666523704187
 21
136.7332888128239
 31
0.0
  0
LINE
  5
2645
102
{ACAD_REACTORS
330
27F5
102
}
330
1E
100
AcDbEntity
  8
STEMPEL
100
AcDbLine
 10
137.4842445923603
 20
143.7987802271865
 30
0.0
 11
136.8660941913639
 21
136.7332888128239
 31
0.0
  0
LINE
  5
2646
102
{ACAD_REACTORS
330
27F5
102
}
330
1E
100
AcDbEntity
  8
STEMPEL
100
AcDbLine
 10
138.9842445923603
 20
143.7332888128238
 30
0.0
 11
138.3718239476789
 21
136.7332888128239
 31
0.0
  0
DIMENSION
  5
2647
330
1E
100
AcDbEntity
  8
BEM
100
AcDbDimension
  2
*D2
 10
89.98610114019403
 20
260.6171562617595
 30
0.0
 11
112.4842445923603
 21
263.8671562617595
 31
0.0
 70
    32
  1
%%c<>
 71
     5
 42
44.99628690433269
  3
Standard
100
AcDbAlignedDimension
 13
134.9823880445267
 23
251.7332888128239
 33
0.0
 14
89.98610114019403
 24
251.7332888128239
 34
0.0
100
AcDbRotatedDimension
1001
ACAD
1000
DSTYLE
1002
{
1070
    41
1040
3.5
1070
    42
1040
1.0
1070
    43
1040
7.0
1070
    44
1040
1.0
1070
    73
1070
     0
1070
    74
1070
     0
1070
    77
1070
     1
1070
    78
1070
     8
1070
    79
1070
     2
1070
   140
1040
3.5
1070
   141
1040
1.5
1070
   146
1040
0.5142857142857144
1070
   147
1040
1.5
1070
   172
1070
     1
1070
   178
1070
     1
1070
   179
1070
     2
1070
   271
1070
     2
1070
   272
1070
     2
1070
   284
1070
     8
1070
   285
1070
     8
1070
   286
1070
     8
1002
}
  0
LINE
  5
2648
330
1E
100
AcDbEntity
  8
HILF
100
AcDbLine
 10
133.5807471707755
 20
232.3143499410378
 30
0.0
 11
91.38774201394534
 21
232.3143499410378
 31
0.0
  0
LINE
  5
2649
330
1E
100
AcDbEntity
  8
HILF
100
AcDbLine
 10
135.5272404989639
 20
196.6525323572089
 30
0.0
 11
89.4412486857567
 21
196.6525323572089
 31
0.0
  0
LINE
  5
264B
102
{ACAD_REACTORS
330
2805
102
}
330
1E
100
AcDbEntity
  8
STEMPEL
100
AcDbLine
 10
156.9842445923604
 20
251.7332888128239
 30
0.0
 11
67.98424459236037
 21
251.7332888128239
 31
0.0
  0
LINE
  5
264D
330
1E
100
AcDbEntity
  8
HILF
100
AcDbLine
 10
132.7790837483678
 20
223.4932520148413
 30
0.0
 11
92.18940543635325
 21
223.4932520148413
 31
0.0
  0
LINE
  5
264E
330
1E
100
AcDbEntity
  8
HILF
100
AcDbLine
 10
130.6737394990077
 20
219.0648524473189
 30
0.0
 11
94.29474968571339
 21
219.0648524473189
 31
0.0
  0
LINE
  5
264F
330
1E
100
AcDbEntity
  8
HILF
100
AcDbLine
 10
130.6088918469099
 20
206.781742686193
 30
0.0
 11
94.35959733781107
 21
206.781742686193
 31
0.0
  0
LINE
  5
2654
102
{ACAD_REACTORS
330
2805
102
}
330
1E
100
AcDbEntity
  8
STEMPEL
100
AcDbLine
 10
67.98424459236037
 20
251.7332888128239
 30
0.0
 11
67.98424459236042
 21
166.7332888128239
 31
0.0
  0
LINE
  5
2655
102
{ACAD_REACTORS
330
27F6
330
2826
102
}
330
1E
100
AcDbEntity
  8
STEMPEL
100
AcDbLine
 10
87.2220855055939
 20
198.9839086550666
 30
0.0
 11
90.74154004442027
 21
205.3829169074783
 31
0.0
  0
LINE
  5
2656
102
{ACAD_REACTORS
330
27F6
102
}
330
1E
100
AcDbEntity
  8
STEMPEL
100
AcDbLine
 10
88.53640936860887
 20
198.2610305304084
 30
0.0
 11
92.05586390743519
 21
204.6600387828201
 31
0.0
  0
LINE
  5
2657
102
{ACAD_REACTORS
330
2805
330
2826
102
}
330
1E
100
AcDbEntity
  8
STEMPEL
100
AcDbLine
 10
69.58424459236039
 20
251.7332888128239
 30
0.0
 11
69.58424459236039
 21
166.7332888128239
 31
0.0
  0
LINE
  5
265B
102
{ACAD_REACTORS
330
2826
102
}
330
1E
100
AcDbEntity
  8
STEMPEL
100
AcDbLine
 10
85.98424459236042
 20
182.7332888128239
 30
0.0
 11
69.58424459236039
 21
182.7332888128238
 31
0.0
  0
LINE
  5
265C
102
{ACAD_REACTORS
330
2805
102
}
330
1E
100
AcDbEntity
  8
STEMPEL
100
AcDbLine
 10
85.98424459236037
 20
166.7332888128239
 30
0.0
 11
67.98424459236042
 21
166.7332888128239
 31
0.0
  0
LINE
  5
265D
330
1E
100
AcDbEntity
  8
STEMPEL
100
AcDbLine
 10
81.98424459236042
 20
172.7332888128239
 30
0.0
 11
78.52014297722269
 21
166.7332888128239
 31
0.0
  0
LINE
  5
265E
330
1E
100
AcDbEntity
  8
STEMPEL
100
AcDbLine
 10
85.98424459236037
 20
172.7332888128239
 30
0.0
 11
81.98424459236042
 21
172.7332888128239
 31
0.0
  0
ARC
  5
2666
102
{ACAD_REACTORS
330
27F6
102
}
330
1E
100
AcDbEntity
  8
STEMPEL
100
AcDbCircle
 10
95.98424459236037
 20
194.1647211573452
 30
0.0
 40
8.5
100
AcDbArc
 50
151.1892062570279
 51
180.0
  0
ARC
  5
2667
102
{ACAD_REACTORS
330
27F6
330
2826
102
}
330
1E
100
AcDbEntity
  8
STEMPEL
100
AcDbCircle
 10
95.98424459236037
 20
194.1647211573452
 30
0.0
 40
10.0
100
AcDbArc
 50
151.1892062570279
 51
180.0
  0
LINE
  5
266B
102
{ACAD_REACTORS
330
2826
102
}
330
1E
100
AcDbEntity
  8
STEMPEL
100
AcDbLine
 10
87.12496203546288
 20
237.733288812824
 30
0.0
 11
69.58424459236039
 21
237.733288812824
 31
0.0
  0
LINE
  5
266E
102
{ACAD_REACTORS
330
27F6
102
}
330
1E
100
AcDbEntity
  8
STEMPEL
100
AcDbLine
 10
89.98424459236037
 20
230.733288812824
 30
0.0
 11
89.98424459236037
 21
226.5551141933204
 31
0.0
  0
LINE
  5
266F
102
{ACAD_REACTORS
330
27F6
330
2826
102
}
330
1E
100
AcDbEntity
  8
STEMPEL
100
AcDbLine
 10
88.48424459236037
 20
230.733288812824
 30
0.0
 11
88.48424459236037
 21
226.5551141933204
 31
0.0
  0
LINE
  5
2672
102
{ACAD_REACTORS
330
27F6
330
2826
102
}
330
1E
100
AcDbEntity
  8
STEMPEL
100
AcDbLine
 10
91.48424459236037
 20
217.2277351402316
 30
0.0
 11
91.48424459236037
 21
208.2744294061113
 31
0.0
  0
LINE
  5
2673
102
{ACAD_REACTORS
330
27F6
102
}
330
1E
100
AcDbEntity
  8
STEMPEL
100
AcDbLine
 10
92.98424459236036
 20
217.2277351402316
 30
0.0
 11
92.98424459236036
 21
208.2744294061113
 31
0.0
  0
ARC
  5
2676
102
{ACAD_REACTORS
330
27F6
102
}
330
1E
100
AcDbEntity
  8
STEMPEL
100
AcDbCircle
 10
85.48424459236036
 20
208.2744294061113
 30
0.0
 40
7.5
100
AcDbArc
 50
331.1892062570279
 51
0.0
  0
ARC
  5
2677
102
{ACAD_REACTORS
330
27F6
330
2826
102
}
330
1E
100
AcDbEntity
  8
STEMPEL
100
AcDbCircle
 10
85.48424459236036
 20
208.2744294061113
 30
0.0
 40
6.0
100
AcDbArc
 50
331.1892062570279
 51
0.0
  0
ARC
  5
267B
102
{ACAD_REACTORS
330
27F6
330
2826
102
}
330
1E
100
AcDbEntity
  8
STEMPEL
100
AcDbCircle
 10
98.48424459236037
 20
226.5551141933204
 30
0.0
 40
10.0
100
AcDbArc
 50
180.0
 51
215.6590876961402
  0
ARC
  5
267C
102
{ACAD_REACTORS
330
27F6
102
}
330
1E
100
AcDbEntity
  8
STEMPEL
100
AcDbCircle
 10
98.48424459236037
 20
226.5551141933204
 30
0.0
 40
8.5
100
AcDbArc
 50
180.0
 51
215.6590876961402
  0
ARC
  5
267D
102
{ACAD_REACTORS
330
27F6
102
}
330
1E
100
AcDbEntity
  8
STEMPEL
100
AcDbCircle
 10
85.48424459236036
 20
217.2277351402316
 30
0.0
 40
7.5
100
AcDbArc
 50
0.0
 51
35.65908769614022
  0
ARC
  5
267E
102
{ACAD_REACTORS
330
27F6
330
2826
102
}
330
1E
100
AcDbEntity
  8
STEMPEL
100
AcDbCircle
 10
85.48424459236036
 20
217.2277351402316
 30
0.0
 40
6.0
100
AcDbArc
 50
0.0
 51
35.65908769614022
  0
LINE
  5
267F
102
{ACAD_REACTORS
330
27F6
102
}
330
1E
100
AcDbEntity
  8
STEMPEL
100
AcDbLine
 10
88.48424459236037
 20
245.1911084924154
 30
0.0
 11
88.48424459236037
 21
240.1002888128239
 31
0.0
  0
LINE
  5
2680
102
{ACAD_REACTORS
330
27F6
102
}
330
1E
100
AcDbEntity
  8
STEMPEL
100
AcDbLine
 10
86.98424459236036
 20
245.1911084924154
 30
0.0
 11
86.98424459236036
 21
240.1002888128239
 31
0.0
  0
ARC
  5
2684
102
{ACAD_REACTORS
330
27F6
330
2826
102
}
330
1E
100
AcDbEntity
  8
STEMPEL
100
AcDbCircle
 10
106.9842445923604
 20
240.1002888128239
 30
0.0
 40
19.99984481626531
100
AcDbArc
 50
180.0
 51
198.1939705983828
  0
ARC
  5
2685
102
{ACAD_REACTORS
330
27F6
102
}
330
1E
100
AcDbEntity
  8
STEMPEL
100
AcDbCircle
 10
106.9842445923604
 20
240.1002888128239
 30
0.0
 40
18.49984481626531
100
AcDbArc
 50
180.0
 51
198.1939705983828
  0
ARC
  5
2686
102
{ACAD_REACTORS
330
27F6
330
2826
102
}
330
1E
100
AcDbEntity
  8
STEMPEL
100
AcDbCircle
 10
78.48424459236037
 20
230.733288812824
 30
0.0
 40
10.0
100
AcDbArc
 50
0.0
 51
18.19397059838281
  0
ARC
  5
2687
102
{ACAD_REACTORS
330
27F6
102
}
330
1E
100
AcDbEntity
  8
STEMPEL
100
AcDbCircle
 10
78.48424459236037
 20
230.733288812824
 30
0.0
 40
11.5
100
AcDbArc
 50
0.0
 51
18.19397059838281
  0
LINE
  5
2688
102
{ACAD_REACTORS
330
27F6
102
}
330
1E
100
AcDbEntity
  8
STEMPEL
100
AcDbLine
 10
86.98439977609508
 20
240.1002888128239
 30
0.0
 11
86.98424459236036
 21
240.1002888128239
 31
0.0
  0
ARC
  5
2689
102
{ACAD_REACTORS
330
27F6
102
}
330
1E
100
AcDbEntity
  8
STEMPEL
100
AcDbCircle
 10
103.4842445923603
 20
245.1911084924154
 30
0.0
 40
16.5
100
AcDbArc
 50
156.6407054553631
 51
180.0
  0
ARC
  5
268A
102
{ACAD_REACTORS
330
27F6
102
}
330
1E
100
AcDbEntity
  8
STEMPEL
100
AcDbCircle
 10
103.4842445923603
 20
245.1911084924154
 30
0.0
 40
15.0
100
AcDbArc
 50
154.1418030082612
 51
180.0
  0
DIMENSION
  5
2690
330
1E
100
AcDbEntity
  8
BEM
100
AcDbDimension
  2
*D1
 10
171.81264381457
 20
166.7332888128239
 30
0.0
 11
168.56264381457
 21
209.233288812824
 31
0.0
 70
    32
 71
     5
 42
85.0
  3
Standard
100
AcDbAlignedDimension
 13
156.9842445923604
 23
251.7332888128239
 33
0.0
 14
156.9842445923604
 24
166.7332888128239
 34
0.0
 50
90.0
100
AcDbRotatedDimension
1001
ACAD
1000
DSTYLE
1002
{
1070
    41
1040
3.5
1070
    42
1040
1.0
1070
    43
1040
7.0
1070
    44
1040
1.0
1070
    73
1070
     0
1070
    74
1070
     0
1070
    77
1070
     1
1070
    78
1070
     8
1070
    79
1070
     2
1070
   140
1040
3.5
1070
   141
1040
1.5
1070
   146
1040
0.5142857142857144
1070
   147
1040
1.5
1070
   172
1070
     1
1070
   178
1070
     1
1070
   179
1070
     2
1070
   271
1070
     2
1070
   272
1070
     2
1070
   284
1070
     8
1070
   285
1070
     8
1070
   286
1070
     8
1002
}
  0
LINE
  5
2691
102
{ACAD_REACTORS
330
2805
102
}
330
1E
100
AcDbEntity
  8
STEMPEL
100
AcDbLine
 10
156.9842445923604
 20
251.7332888128239
 30
0.0
 11
156.9842445923604
 21
166.7332888128239
 31
0.0
  0
LINE
  5
2692
102
{ACAD_REACTORS
330
27F5
102
}
330
1E
100
AcDbEntity
  8
STEMPEL
100
AcDbLine
 10
136.4320798161119
 20
198.2610305304084
 30
0.0
 11
132.9126252772855
 21
204.6600387828201
 31
0.0
  0
LINE
  5
2693
102
{ACAD_REACTORS
330
27F5
330
2826
102
}
330
1E
100
AcDbEntity
  8
STEMPEL
100
AcDbLine
 10
137.7464036791269
 20
198.9839086550666
 30
0.0
 11
134.2269491403005
 21
205.3829169074783
 31
0.0
  0
LINE
  5
2694
102
{ACAD_REACTORS
330
2805
330
2826
102
}
330
1E
100
AcDbEntity
  8
STEMPEL
100
AcDbLine
 10
155.3842445923604
 20
251.7332888128239
 30
0.0
 11
155.3842445923604
 21
166.7332888128239
 31
0.0
  0
LINE
  5
2695
102
{ACAD_REACTORS
330
2805
102
}
330
1E
100
AcDbEntity
  8
STEMPEL
100
AcDbLine
 10
156.9842445923604
 20
166.7332888128239
 30
0.0
 11
138.9842445923603
 21
166.7332888128239
 31
0.0
  0
LINE
  5
2696
330
1E
100
AcDbEntity
  8
STEMPEL
100
AcDbLine
 10
142.9842445923604
 20
172.7332888128239
 30
0.0
 11
146.4483462074981
 21
166.7332888128239
 31
0.0
  0
LINE
  5
2697
330
1E
100
AcDbEntity
  8
STEMPEL
100
AcDbLine
 10
142.9842445923604
 20
172.7332888128239
 30
0.0
 11
138.9842445923603
 21
172.7332888128239
 31
0.0
  0
LINE
  5
269B
102
{ACAD_REACTORS
330
2826
102
}
330
1E
100
AcDbEntity
  8
STEMPEL
100
AcDbLine
 10
155.3842445923604
 20
182.7332888128239
 30
0.0
 11
138.9842445923604
 21
182.7332888128239
 31
0.0
  0
ARC
  5
269C
102
{ACAD_REACTORS
330
27F5
102
}
330
1E
100
AcDbEntity
  8
STEMPEL
100
AcDbCircle
 10
128.9842445923603
 20
194.1647211573452
 30
0.0
 40
8.5
100
AcDbArc
 50
0.0
 51
28.81079374297206
  0
ARC
  5
269D
102
{ACAD_REACTORS
330
27F5
330
2826
102
}
330
1E
100
AcDbEntity
  8
STEMPEL
100
AcDbCircle
 10
128.9842445923603
 20
194.1647211573452
 30
0.0
 40
10.0
100
AcDbArc
 50
0.0
 51
28.81079374297206
  0
LINE
  5
26A8
102
{ACAD_REACTORS
330
27F5
102
}
330
1E
100
AcDbEntity
  8
STEMPEL
100
AcDbLine
 10
134.9842445923605
 20
230.733288812824
 30
0.0
 11
134.9842445923605
 21
226.5551141933204
 31
0.0
  0
LINE
  5
26A9
102
{ACAD_REACTORS
330
27F5
330
2826
102
}
330
1E
100
AcDbEntity
  8
STEMPEL
100
AcDbLine
 10
136.4842445923605
 20
230.733288812824
 30
0.0
 11
136.4842445923605
 21
226.5551141933204
 31
0.0
  0
LINE
  5
26B1
102
{ACAD_REACTORS
330
27F5
330
2826
102
}
330
1E
100
AcDbEntity
  8
STEMPEL
100
AcDbLine
 10
133.4842445923605
 20
217.2277351402316
 30
0.0
 11
133.4842445923605
 21
208.2744294061113
 31
0.0
  0
LINE
  5
26B2
102
{ACAD_REACTORS
330
27F5
102
}
330
1E
100
AcDbEntity
  8
STEMPEL
100
AcDbLine
 10
131.9842445923605
 20
217.2277351402316
 30
0.0
 11
131.9842445923605
 21
208.2744294061113
 31
0.0
  0
ARC
  5
26B3
102
{ACAD_REACTORS
330
27F5
102
}
330
1E
100
AcDbEntity
  8
STEMPEL
100
AcDbCircle
 10
139.4842445923605
 20
208.2744294061113
 30
0.0
 40
7.5
100
AcDbArc
 50
180.0
 51
208.8107937429721
  0
ARC
  5
26B4
102
{ACAD_REACTORS
330
27F5
330
2826
102
}
330
1E
100
AcDbEntity
  8
STEMPEL
100
AcDbCircle
 10
139.4842445923605
 20
208.2744294061113
 30
0.0
 40
6.0
100
AcDbArc
 50
180.0
 51
208.8107937429721
  0
ARC
  5
26B5
102
{ACAD_REACTORS
330
27F5
102
}
330
1E
100
AcDbEntity
  8
STEMPEL
100
AcDbCircle
 10
139.4842445923605
 20
217.2277351402316
 30
0.0
 40
7.5
100
AcDbArc
 50
144.3409123038598
 51
180.0
  0
ARC
  5
26B6
102
{ACAD_REACTORS
330
27F5
102
}
330
1E
100
AcDbEntity
  8
STEMPEL
100
AcDbCircle
 10
126.4842445923605
 20
226.5551141933204
 30
0.0
 40
8.5
100
AcDbArc
 50
324.3409123038598
 51
0.0
  0
ARC
  5
26B7
102
{ACAD_REACTORS
330
27F5
330
2826
102
}
330
1E
100
AcDbEntity
  8
STEMPEL
100
AcDbCircle
 10
126.4842445923605
 20
226.5551141933204
 30
0.0
 40
10.0
100
AcDbArc
 50
324.3409123038598
 51
0.0
  0
ARC
  5
26B8
102
{ACAD_REACTORS
330
27F5
330
2826
102
}
330
1E
100
AcDbEntity
  8
STEMPEL
100
AcDbCircle
 10
139.4842445923605
 20
217.2277351402316
 30
0.0
 40
6.0
100
AcDbArc
 50
144.3409123038598
 51
180.0
  0
LINE
  5
26BC
102
{ACAD_REACTORS
330
2826
102
}
330
1E
100
AcDbEntity
  8
STEMPEL
100
AcDbLine
 10
155.3842445923604
 20
237.733288812824
 30
0.0
 11
137.8435271492579
 21
237.733288812824
 31
0.0
  0
LINE
  5
26BD
102
{ACAD_REACTORS
330
27F5
102
}
330
1E
100
AcDbEntity
  8
STEMPEL
100
AcDbLine
 10
136.4842445923605
 20
245.1911084924154
 30
0.0
 11
136.4842445923603
 21
240.1002888128239
 31
0.0
  0
LINE
  5
26BE
102
{ACAD_REACTORS
330
27F5
102
}
330
1E
100
AcDbEntity
  8
STEMPEL
100
AcDbLine
 10
137.9842445923605
 20
245.1911084924154
 30
0.0
 11
137.9842445923603
 21
240.1002888128239
 31
0.0
  0
ARC
  5
26BF
102
{ACAD_REACTORS
330
27F5
330
2826
102
}
330
1E
100
AcDbEntity
  8
STEMPEL
100
AcDbCircle
 10
117.9842445923603
 20
240.1002888128239
 30
0.0
 40
19.99984481626531
100
AcDbArc
 50
341.8060294016172
 51
0.0
  0
ARC
  5
26C0
102
{ACAD_REACTORS
330
27F5
102
}
330
1E
100
AcDbEntity
  8
STEMPEL
100
AcDbCircle
 10
117.9842445923603
 20
240.1002888128239
 30
0.0
 40
18.49984481626531
100
AcDbArc
 50
341.8060294016172
 51
0.0
  0
ARC
  5
26C1
102
{ACAD_REACTORS
330
27F5
102
}
330
1E
100
AcDbEntity
  8
STEMPEL
100
AcDbCircle
 10
146.4842445923605
 20
230.733288812824
 30
0.0
 40
11.5
100
AcDbArc
 50
161.8060294016172
 51
180.0
  0
ARC
  5
26C2
102
{ACAD_REACTORS
330
27F5
330
2826
102
}
330
1E
100
AcDbEntity
  8
STEMPEL
100
AcDbCircle
 10
146.4842445923605
 20
230.733288812824
 30
0.0
 40
10.0
100
AcDbArc
 50
161.8060294016172
 51
180.0
  0
LINE
  5
26C4
102
{ACAD_REACTORS
330
27F5
102
}
330
1E
100
AcDbEntity
  8
STEMPEL
100
AcDbLine
 10
137.9840894086258
 20
240.1002888128239
 30
0.0
 11
137.9842445923605
 21
240.1002888128239
 31
0.0
  0
ARC
  5
26C5
102
{ACAD_REACTORS
330
27F5
102
}
330
1E
100
AcDbEntity
  8
STEMPEL
100
AcDbCircle
 10
121.4842445923605
 20
245.1911084924154
 30
0.0
 40
16.5
100
AcDbArc
 50
0.0
 51
23.35929454464283
  0
ARC
  5
26C6
102
{ACAD_REACTORS
330
27F5
102
}
330
1E
100
AcDbEntity
  8
STEMPEL
100
AcDbCircle
 10
121.4842445923605
 20
245.1911084924154
 30
0.0
 40
15.0
100
AcDbArc
 50
0.0
 51
25.85819699173294
  0
TEXT
  5
278F
330
1E
100
AcDbEntity
  8
TEXT
 62
     1
100
AcDbText
 10
109.2513226286273
 20
235.8612649435118
 30
0.0
 40
3.5
  1
DN40
 50
90.0
 41
0.8
  7
GREEKS
100
AcDbText
  0
TEXT
  5
2790
330
1E
100
AcDbEntity
  8
TEXT
 62
     1
100
AcDbText
 10
109.2513226286273
 20
156.2765064875277
 30
0.0
 40
3.5
  1
DN50
 50
90.0
 41
0.8
  7
GREEKS
100
AcDbText
  0
HATCH
  5
27F5
330
1E
100
AcDbEntity
  8
SCHRAFF
100
AcDbHatch
 10
0.0
 20
0.0
 30
0.0
210
0.0
220
0.0
230
1.0
  2
_USER
 70
     0
 71
     1
 91
        1
 92
       33
 93
       27
 72
     2
 10
121.4842445923605
 20
245.1911084924154
 40
15.0
 50
0.0
 51
25.85819699173294
 73
     1
 72
     2
 10
121.4842445923605
 20
245.1911084924154
 40
16.5
 50
0.0
 51
23.35929454464283
 73
     1
 72
     1
 10
137.9840894086258
 20
240.1002888128239
 11
137.9842445923605
 21
240.1002888128239
 72
     2
 10
146.4842445923605
 20
230.733288812824
 40
10.0
 50
161.8060294016172
 51
180.0
 73
     1
 72
     2
 10
146.4842445923605
 20
230.733288812824
 40
11.5
 50
161.8060294016172
 51
180.0
 73
     1
 72
     2
 10
117.9842445923603
 20
240.1002888128239
 40
18.49984481626531
 50
341.8060294016172
 51
360.0
 73
     1
 72
     2
 10
117.9842445923603
 20
240.1002888128239
 40
19.99984481626531
 50
341.8060294016172
 51
360.0
 73
     1
 72
     1
 10
137.9842445923605
 20
245.1911084924154
 11
137.9842445923603
 21
240.1002888128239
 72
     1
 10
136.4842445923605
 20
245.1911084924154
 11
136.4842445923603
 21
240.1002888128239
 72
     2
 10
139.4842445923605
 20
217.2277351402316
 40
6.0
 50
144.3409123038598
 51
180.0
 73
     1
 72
     2
 10
126.4842445923605
 20
226.5551141933204
 40
10.0
 50
324.3409123038598
 51
360.0
 73
     1
 72
     2
 10
126.4842445923605
 20
226.5551141933204
 40
8.5
 50
324.3409123038598
 51
360.0
 73
     1
 72
     2
 10
139.4842445923605
 20
217.2277351402316
 40
7.5
 50
144.3409123038598
 51
180.0
 73
     1
 72
     2
 10
139.4842445923605
 20
208.2744294061113
 40
6.0
 50
180.0
 51
208.8107937429721
 73
     1
 72
     2
 10
139.4842445923605
 20
208.2744294061113
 40
7.5
 50
180.0
 51
208.8107937429721
 73
     1
 72
     1
 10
131.9842445923605
 20
217.2277351402316
 11
131.9842445923605
 21
208.2744294061113
 72
     1
 10
133.4842445923605
 20
217.2277351402316
 11
133.4842445923605
 21
208.2744294061113
 72
     1
 10
136.4842445923605
 20
230.733288812824
 11
136.4842445923605
 21
226.5551141933204
 72
     1
 10
134.9842445923605
 20
230.733288812824
 11
134.9842445923605
 21
226.5551141933204
 72
     2
 10
128.9842445923603
 20
194.1647211573452
 40
10.0
 50
0.0
 51
28.81079374297206
 73
     1
 72
     2
 10
128.9842445923603
 20
194.1647211573452
 40
8.5
 50
0.0
 51
28.81079374297206
 73
     1
 72
     1
 10
137.7464036791269
 20
198.9839086550666
 11
134.2269491403005
 21
205.3829169074783
 72
     1
 10
136.4320798161119
 20
198.2610305304084
 11
132.9126252772855
 21
204.6600387828201
 72
     1
 10
138.9842445923603
 20
194.1647211573452
 11
138.9842445923603
 21
143.7332888128238
 72
     1
 10
137.4842445923603
 20
194.1647211573452
 11
137.4842445923603
 21
143.7987802271865
 72
     1
 10
138.9842445923603
 20
143.7332888128238
 11
138.3718239476789
 21
136.7332888128239
 72
     1
 10
137.4842445923603
 20
143.7987802271865
 11
136.8660941913639
 21
136.7332888128239
 97
       27
330
26C6
330
26C5
330
26C4
330
26C2
330
26C1
330
26C0
330
26BF
330
26BE
330
26BD
330
26B8
330
26B7
330
26B6
330
26B5
330
26B4
330
26B3
330
26B2
330
26B1
330
26A9
330
26A8
330
269D
330
269C
330
2693
330
2692
330
263F
330
263B
330
2646
330
2645
 75
     0
 76
     0
 52
45.0
 41
2.0
 77
     0
 78
     1
 53
45.0
 43
0.0
 44
0.0
 45
-1.414213562373094
 46
1.414213562373095
 79
     0
 98
        1
 10
0.0
 20
0.0
  0
HATCH
  5
27F6
330
1E
100
AcDbEntity
  8
SCHRAFF
100
AcDbHatch
 10
0.0
 20
0.0
 30
0.0
210
0.0
220
0.0
230
1.0
  2
_USER
 70
     0
 71
     1
 91
        1
 92
       33
 93
       27
 72
     2
 10
103.4842445923603
 20
245.1911084924154
 40
15.0
 50
154.1418030082612
 51
180.0
 73
     1
 72
     2
 10
103.4842445923603
 20
245.1911084924154
 40
16.5
 50
156.6407054553631
 51
180.0
 73
     1
 72
     1
 10
86.98439977609508
 20
240.1002888128239
 11
86.98424459236036
 21
240.1002888128239
 72
     2
 10
78.48424459236037
 20
230.733288812824
 40
11.5
 50
0.0
 51
18.19397059838281
 73
     1
 72
     2
 10
78.48424459236037
 20
230.733288812824
 40
10.0
 50
0.0
 51
18.19397059838281
 73
     1
 72
     2
 10
106.9842445923604
 20
240.1002888128239
 40
18.49984481626531
 50
180.0
 51
198.1939705983828
 73
     1
 72
     2
 10
106.9842445923604
 20
240.1002888128239
 40
19.99984481626531
 50
180.0
 51
198.1939705983828
 73
     1
 72
     1
 10
86.98424459236036
 20
245.1911084924154
 11
86.98424459236036
 21
240.1002888128239
 72
     1
 10
88.48424459236037
 20
245.1911084924154
 11
88.48424459236037
 21
240.1002888128239
 72
     2
 10
85.48424459236036
 20
217.2277351402316
 40
6.0
 50
0.0
 51
35.65908769614022
 73
     1
 72
     2
 10
85.48424459236036
 20
217.2277351402316
 40
7.5
 50
0.0
 51
35.65908769614022
 73
     1
 72
     2
 10
98.48424459236037
 20
226.5551141933204
 40
8.5
 50
180.0
 51
215.6590876961402
 73
     1
 72
     2
 10
98.48424459236037
 20
226.5551141933204
 40
10.0
 50
180.0
 51
215.6590876961402
 73
     1
 72
     2
 10
85.48424459236036
 20
208.2744294061113
 40
6.0
 50
331.1892062570279
 51
360.0
 73
     1
 72
     2
 10
85.48424459236036
 20
208.2744294061113
 40
7.5
 50
331.1892062570279
 51
360.0
 73
     1
 72
     1
 10
92.98424459236036
 20
217.2277351402316
 11
92.98424459236036
 21
208.2744294061113
 72
     1
 10
91.48424459236037
 20
217.2277351402316
 11
91.48424459236037
 21
208.2744294061113
 72
     1
 10
88.48424459236037
 20
230.733288812824
 11
88.48424459236037
 21
226.5551141933204
 72
     1
 10
89.98424459236037
 20
230.733288812824
 11
89.98424459236037
 21
226.5551141933204
 72
     2
 10
95.98424459236037
 20
194.1647211573452
 40
10.0
 50
151.1892062570279
 51
180.0
 73
     1
 72
     2
 10
95.98424459236037
 20
194.1647211573452
 40
8.5
 50
151.1892062570279
 51
180.0
 73
     1
 72
     1
 10
88.53640936860887
 20
198.2610305304084
 11
92.05586390743519
 21
204.6600387828201
 72
     1
 10
87.2220855055939
 20
198.9839086550666
 11
90.74154004442027
 21
205.3829169074783
 72
     1
 10
85.98424459236042
 20
143.7332888128238
 11
86.59666523704187
 21
136.7332888128239
 72
     1
 10
87.48424459236042
 20
143.7987802271865
 11
88.10239499335693
 21
136.7332888128239
 72
     1
 10
85.98424459236037
 20
194.1647211573452
 11
85.98424459236042
 21
143.7332888128238
 72
     1
 10
87.48424459236037
 20
194.1647211573452
 11
87.48424459236042
 21
143.7987802271865
 97
       27
330
268A
330
2689
330
2688
330
2687
330
2686
330
2685
330
2684
330
2680
330
267F
330
267E
330
267D
330
267C
330
267B
330
2677
330
2676
330
2673
330
2672
330
266F
330
266E
330
2667
330
2666
330
2656
330
2655
330
2644
330
2643
330
263E
330
263A
 75
     0
 76
     0
 52
45.0
 41
2.0
 77
     0
 78
     1
 53
45.0
 43
0.0
 44
0.0
 45
-1.414213562373094
 46
1.414213562373095
 79
     0
 98
        1
 10
0.0
 20
0.0
  0
HATCH
  5
2805
330
1E
100
AcDbEntity
  8
SCHRAFF
100
AcDbHatch
 10
0.0
 20
0.0
 30
0.0
210
0.0
220
0.0
230
1.0
  2
_USER
 70
     0
 71
     1
 91
        2
 92
        7
 72
     0
 73
     1
 93
        4
 10
156.9842445923604
 20
251.7332888128239
 10
155.3842445923604
 20
251.7332888128239
 10
155.3842445923604
 20
166.7332888128239
 10
156.9842445923604
 20
166.7332888128239
 97
        4
330
264B
330
2694
330
2695
330
2691
 92
        7
 72
     0
 73
     1
 93
        4
 10
69.58424459236038
 20
251.7332888128239
 10
67.98424459236035
 20
251.7332888128239
 10
67.98424459236042
 20
166.7332888128239
 10
69.58424459236039
 20
166.7332888128239
 97
        4
330
264B
330
2654
330
265C
330
2657
 75
     0
 76
     0
 52
135.0
 41
2.0
 77
     0
 78
     1
 53
135.0
 43
0.0
 44
0.0
 45
-1.414213562373095
 46
-1.414213562373094
 79
     0
 47
0.1710826421683419
 98
        2
 10
156.2449014541089
 20
223.5003699739177
 10
69.13411146995258
 20
225.7244453539972
  0
HATCH
  5
2826
330
1E
100
AcDbEntity
  8
SCHRAFF
100
AcDbHatch
 10
0.0
 20
0.0
 30
0.0
210
0.0
220
0.0
230
1.0
  2
HONEY
 70
     0
 71
     1
 91
        2
 92
        7
 72
     1
 73
     1
 93
       13
 10
155.3842445923604
 20
237.733288812824
 42
0.0
 10
137.8435271492579
 20
237.733288812824
 42
-0.0497699651211694
 10
136.9841954505903
 20
233.8556382974196
 42
0.0795533624515065
 10
136.4842445923605
 20
230.7332888128243
 42
0.0
 10
136.4842445923605
 20
226.5551141933204
 42
-0.1568599726813056
 10
134.6092445923603
 20
220.7255022851397
 42
0.1568599726812879
 10
133.4842445923605
 20
217.2277351402316
 42
0.0
 10
133.4842445923605
 20
208.2744294061113
 42
0.1263772269389231
 10
134.2269491403005
 20
205.3829169074783
 42
0.0
 10
137.7464036791269
 20
198.9839086550666
 42
-0.1263772269389189
 10
138.9842445923603
 20
194.1647211573452
 42
0.0
 10
138.9842445923603
 20
182.7332888128239
 42
0.0
 10
155.3842445923604
 20
182.7332888128239
 42
0.0
 97
       13
330
26BC
330
26BF
330
26C2
330
26A9
330
26B7
330
26B8
330
26B1
330
26B4
330
2693
330
269D
330
263F
330
269B
330
2694
 92
        7
 72
     1
 73
     1
 93
       13
 10
90.35924459236037
 20
220.7255022851398
 42
-0.1568599726812993
 10
88.48424459236037
 20
226.5551141933204
 42
0.0
 10
88.48424459236037
 20
230.733288812824
 42
0.0795533624514998
 10
87.98429373413055
 20
233.8556382974191
 42
-0.0497699651211767
 10
87.12496203546283
 20
237.733288812824
 42
0.0
 10
69.58424459236039
 20
237.733288812824
 42
0.0
 10
69.58424459236039
 20
182.7332888128238
 42
0.0
 10
85.98424459236039
 20
182.7332888128239
 42
0.0
 10
85.98424459236037
 20
194.1647211573452
 42
-0.1263772269389215
 10
87.22208550559392
 20
198.9839086550667
 42
0.0
 10
90.74154004442027
 20
205.3829169074783
 42
0.1263772269389231
 10
91.48424459236037
 20
208.2744294061113
 42
0.0
 10
91.48424459236037
 20
217.2277351402316
 42
0.1568599726812983
 97
       13
330
267B
330
266F
330
2686
330
2684
330
266B
330
2657
330
265B
330
263E
330
2667
330
2655
330
2677
330
2672
330
267E
 75
     0
 76
     1
 52
0.0
 41
20.0
 77
     0
 78
     3
 53
0.0
 43
0.0
 44
0.0
 45
3.75
 46
2.1650635
 79
     2
 49
2.5
 49
-5.0
 53
120.0
 43
0.0
 44
0.0
 45
-3.749999991806449
 46
2.165063514191645
 79
     2
 49
2.5
 49
-5.0
 53
60.0
 43
0.0
 44
0.0
 45
0.0000000081935508
 46
4.330127014191645
 79
     2
 49
-5.0
 49
2.5
 47
0.1710826421683419
 98
        2
 10
143.4093223510867
 20
226.2376933939449
 10
85.05022886284587
 20
217.8546431554141
  0
HATCH
  5
2848
330
1E
100
AcDbEntity
  8
SCHRAFF
100
AcDbHatch
 10
0.0
 20
0.0
 30
0.0
210
0.0
220
0.0
230
1.0
  2
NET
 70
     0
 71
     0
 91
        4
 92
        7
 72
     1
 73
     1
 93
        7
 10
136.631847592679
 20
251.7332888128239
 42
-0.1022785704675345
 10
137.9842445923605
 20
245.191108492415
 42
0.0
 10
137.9842445923603
 20
240.1002888128239
 42
0.0
 10
137.9840894086258
 20
240.1002888128239
 42
-0.029665938958711
 10
137.8435271492579
 20
237.733288812824
 42
0.0
 10
155.3842445923604
 20
237.733288812824
 42
0.0
 10
155.3842445923604
 20
251.7332888128239
 42
0.0
 97
        0
 92
        7
 72
     1
 73
     1
 93
        8
 10
87.12496203546283
 20
237.733288812824
 42
-0.029665938958711
 10
86.98439977609508
 20
240.1002888128239
 42
0.0
 10
86.98424459236036
 20
240.1002888128239
 42
0.0
 10
86.98424459236036
 20
245.1911084924154
 42
-0.0812529969458724
 10
87.84432110439599
 20
250.4487499113998
 42
0.0
 10
87.30578474937768
 20
251.7332888128239
 42
0.0
 10
69.58424459236041
 20
251.733288812824
 42
0.0
 10
69.58424459236041
 20
237.733288812824
 42
0.0
 97
        0
 92
        7
 72
     0
 73
     1
 93
        6
 10
138.9842445923603
 20
182.7332888128239
 10
138.9842445923603
 20
172.7332888128239
 10
142.9842445923604
 20
172.7332888128239
 10
146.4483462074981
 20
166.733288812824
 10
155.3842445923604
 20
166.7332888128239
 10
155.3842445923604
 20
182.7332888128239
 97
        0
 92
        7
 72
     0
 73
     1
 93
        6
 10
69.58424459236041
 20
182.7332888128238
 10
69.58424459236041
 20
166.7332888128239
 10
78.52014297722269
 20
166.7332888128239
 10
81.98424459236044
 20
172.7332888128239
 10
85.9842445923604
 20
172.733288812824
 10
85.9842445923604
 20
182.733288812824
 97
        0
 75
     0
 76
     1
 52
45.0
 41
15.0
 77
     0
 78
     2
 53
45.0
 43
0.0
 44
0.0
 45
-1.325825214724776
 46
1.325825214724776
 79
     0
 53
135.0
 43
0.0
 44
0.0
 45
-1.325825214724776
 46
-1.325825214724776
 79
     0
 47
0.1710826421683419
 98
        4
 10
147.003284413076
 20
244.8857011895882
 10
79.74485712235491
 20
244.0302883299821
 10
144.265029361758
 20
178.3345521840481
 10
77.52002367173509
 20
177.9923873643897
  0
ENDSEC
  0
SECTION
  2
OBJECTS
  0
DICTIONARY
  5
C
330
0
100
AcDbDictionary
281
     1
  3
ACAD_COLOR
350
DF
  3
ACAD_GROUP
350
D
  3
ACAD_LAYOUT
350
19
  3
ACAD_MATERIAL
350
DE
  3
ACAD_MLINESTYLE
350
16
  3
ACAD_PLOTSETTINGS
350
18
  3
ACAD_PLOTSTYLENAME
350
E
  3
AcDbVariableDictionary
350
EA
  0
DICTIONARY
  5
A0
330
1E
100
AcDbDictionary
280
     1
281
     1
  3
ACAD_LAYOUTSELFREF
360
D4
  0
DICTIONARY
  5
A2
330
1A
100
AcDbDictionary
280
     1
281
     1
  3
ACAD_LAYOUTSELFREF
360
D3
  0
DICTIONARY
  5
DF
102
{ACAD_REACTORS
330
C
102
}
330
C
100
AcDbDictionary
281
     1
  0
DICTIONARY
  5
D
102
{ACAD_REACTORS
330
C
102
}
330
C
100
AcDbDictionary
281
     1
  0
DICTIONARY
  5
19
102
{ACAD_REACTORS
330
C
102
}
330
C
100
AcDbDictionary
281
     1
  3
Layout1
350
1D
  3
Model
350
21
  0
DICTIONARY
  5
DE
102
{ACAD_REACTORS
330
C
102
}
330
C
100
AcDbDictionary
281
     1
  0
DICTIONARY
  5
16
102
{ACAD_REACTORS
330
C
102
}
330
C
100
AcDbDictionary
281
     1
  3
Standard
350
17
  0
DICTIONARY
  5
18
102
{ACAD_REACTORS
330
C
102
}
330
C
100
AcDbDictionary
281
     1
  0
ACDBDICTIONARYWDFLT
  5
E
102
{ACAD_REACTORS
330
C
102
}
330
C
100
AcDbDictionary
281
     1
  3
Normal
350
F
100
AcDbDictionaryWithDefault
340
F
  0
DICTIONARY
  5
EA
102
{ACAD_REACTORS
330
C
102
}
330
C
100
AcDbDictionary
281
     1
  3
DIMASSOC
350
EB
  3
PROJECTNAME
350
EC
  0
XRECORD
  5
D4
102
{ACAD_REACTORS
330
A0
102
}
330
A0
100
AcDbXrecord
280
     1
340
1E
  0
XRECORD
  5
D3
102
{ACAD_REACTORS
330
A2
102
}
330
A2
100
AcDbXrecord
280
     1
340
1A
  0
LAYOUT
  5
1D
102
{ACAD_REACTORS
330
19
102
}
330
19
100
AcDbPlotSettings
  1

  2
\\NT_WORK01\HP LaserJet 5000 PCL 6
  4

  6

 40
0.0
 41
0.0
 42
0.0
 43
0.0
 44
0.0
 45
0.0
 46
0.0
 47
0.0
 48
0.0
 49
0.0
140
0.0
141
0.0
142
1.0
143
1.0
 70
   688
 72
     0
 73
     0
 74
     5
  7

 75
    16
147
1.0
 76
     0
 77
     2
 78
   300
148
0.0
149
0.0
100
AcDbLayout
  1
Layout1
 70
     0
 71
     1
 10
0.0
 20
0.0
 11
12.0
 21
9.0
 12
0.0
 22
0.0
 32
0.0
 14
1.000000000000000E+20
 24
1.000000000000000E+20
 34
1.000000000000000E+20
 15
-1.000000000000000E+20
 25
-1.000000000000000E+20
 35
-1.000000000000000E+20
146
0.0
 13
0.0
 23
0.0
 33
0.0
 16
1.0
 26
0.0
 36
0.0
 17
0.0
 27
1.0
 37
0.0
 76
     0
330
1A
  0
LAYOUT
  5
21
102
{ACAD_REACTORS
330
19
102
}
330
19
100
AcDbPlotSettings
  1

  2
none_device
  4
Letter_(8.50_x_11.00_Inches)
  6

 40
6.349999904632568
 41
6.349999904632568
 42
6.350006103515625
 43
6.350006103515625
 44
215.8999938964844
 45
279.3999938964844
 46
0.0
 47
0.0
 48
0.0
 49
0.0
140
0.0
141
0.0
142
1.0
143
1.0
 70
 11952
 72
     0
 73
     1
 74
     0
  7

 75
     0
147
1.0
 76
     0
 77
     2
 78
   300
148
2305.466113510413
149
95.63236042095818
100
AcDbLayout
  1
Model
 70
     1
 71
     0
 10
0.0
 20
0.0
 11
12.0
 21
9.0
 12
0.0
 22
0.0
 32
0.0
 14
0.0
 24
0.0
 34
0.0
 15
0.0
 25
0.0
 35
0.0
146
0.0
 13
0.0
 23
0.0
 33
0.0
 16
1.0
 26
0.0
 36
0.0
 17
0.0
 27
1.0
 37
0.0
 76
     0
330
1E
  0
MLINESTYLE
  5
17
102
{ACAD_REACTORS
330
16
102
}
330
16
100
AcDbMlineStyle
  2
STANDARD
 70
     0
  3

 62
   256
 51
90.0
 52
90.0
 71
     2
 49
0.5
 62
   256
  6
BYLAYER
 49
-0.5
 62
   256
  6
BYLAYER
  0
ACDBPLACEHOLDER
  5
F
102
{ACAD_REACTORS
330
E
102
}
330
E
  0
DICTIONARYVAR
  5
EB
102
{ACAD_REACTORS
330
EA
102
}
330
EA
100
DictionaryVariables
280
     0
  1
1
  0
DICTIONARYVAR
  5
EC
102
{ACAD_REACTORS
330
EA
102
}
330
EA
100
DictionaryVariables
280
     0
  1

  0
ENDSEC
  0
EOF
