  0
SECTION
  2
HEADER
  9
$ACADVER
  1
AC1018
  9
$ACADMAINTVER
 70
     2
  9
$DWGCODEPAGE
  3
ANSI_1252
  9
$INSBASE
 10
0.0
 20
0.0
 30
0.0
  9
$EXTMIN
 10
-0.0000000000004547
 20
0.0
 30
0.0
  9
$EXTMAX
 10
594.0
 20
840.0000000000002
 30
0.0
  9
$LIMMIN
 10
0.0
 20
0.0
  9
$LIMMAX
 10
594.0
 20
840.0
  9
$ORTHOMODE
 70
     1
  9
$REGENMODE
 70
     1
  9
$FILLMODE
 70
     1
  9
$QTEXTMODE
 70
     0
  9
$MIRRTEXT
 70
     1
  9
$LTSCALE
 40
20.0
  9
$ATTMODE
 70
     1
  9
$TEXTSIZE
 40
3.5
  9
$TRACEWID
 40
1.0
  9
$TEXTSTYLE
  7
STANDARD
  9
$CLAYER
  8
BEM
  9
$CELTYPE
  6
ByLayer
  9
$CECOLOR
 62
   256
  9
$CELTSCALE
 40
1.0
  9
$DISPSILH
 70
     0
  9
$DIMSCALE
 40
2.0
  9
$DIMASZ
 40
3.5
  9
$DIMEXO
 40
1.0
  9
$DIMDLI
 40
7.0
  9
$DIMRND
 40
0.0
  9
$DIMDLE
 40
0.0
  9
$DIMEXE
 40
1.0
  9
$DIMTP
 40
0.0
  9
$DIMTM
 40
0.0
  9
$DIMTXT
 40
3.5
  9
$DIMCEN
 40
1.5
  9
$DIMTSZ
 40
0.0
  9
$DIMTOL
 70
     0
  9
$DIMLIM
 70
     0
  9
$DIMTIH
 70
     0
  9
$DIMTOH
 70
     0
  9
$DIMSE1
 70
     0
  9
$DIMSE2
 70
     0
  9
$DIMTAD
 70
     1
  9
$DIMZIN
 70
     8
  9
$DIMBLK
  1

  9
$DIMASO
 70
     1
  9
$DIMSHO
 70
     0
  9
$DIMPOST
  1

  9
$DIMAPOST
  1

  9
$DIMALT
 70
     0
  9
$DIMALTD
 70
     2
  9
$DIMALTF
 40
25.4
  9
$DIMLFAC
 40
1.0
  9
$DIMTOFL
 70
     1
  9
$DIMTVP
 40
0.0
  9
$DIMTIX
 70
     0
  9
$DIMSOXD
 70
     0
  9
$DIMSAH
 70
     0
  9
$DIMBLK1
  1

  9
$DIMBLK2
  1

  9
$DIMSTYLE
  2
Standard
  9
$DIMCLRD
 70
     0
  9
$DIMCLRE
 70
     0
  9
$DIMCLRT
 70
     1
  9
$DIMTFAC
 40
0.5142857142857144
  9
$DIMGAP
 40
1.5
  9
$DIMJUST
 70
     0
  9
$DIMSD1
 70
     0
  9
$DIMSD2
 70
     0
  9
$DIMTOLJ
 70
     1
  9
$DIMTZIN
 70
     8
  9
$DIMALTZ
 70
     8
  9
$DIMALTTZ
 70
     8
  9
$DIMUPT
 70
     0
  9
$DIMDEC
 70
     2
  9
$DIMTDEC
 70
     2
  9
$DIMALTU
 70
     2
  9
$DIMALTTD
 70
     2
  9
$DIMTXSTY
  7
STANDARD
  9
$DIMAUNIT
 70
     0
  9
$DIMADEC
 70
     2
  9
$DIMALTRND
 40
0.0
  9
$DIMAZIN
 70
     2
  9
$DIMDSEP
 70
    46
  9
$DIMATFIT
 70
     3
  9
$DIMFRAC
 70
     0
  9
$DIMLDRBLK
  1

  9
$DIMLUNIT
 70
     2
  9
$DIMLWD
 70
    -2
  9
$DIMLWE
 70
    -2
  9
$DIMTMOVE
 70
     0
  9
$LUNITS
 70
     2
  9
$LUPREC
 70
     2
  9
$SKETCHINC
 40
1.0
  9
$FILLETRAD
 40
0.0
  9
$AUNITS
 70
     0
  9
$AUPREC
 70
     0
  9
$MENU
  1
ACAD
  9
$ELEVATION
 40
0.0
  9
$PELEVATION
 40
0.0
  9
$THICKNESS
 40
0.0
  9
$LIMCHECK
 70
     0
  9
$CHAMFERA
 40
0.0
  9
$CHAMFERB
 40
0.0
  9
$CHAMFERC
 40
0.0
  9
$CHAMFERD
 40
0.0
  9
$SKPOLY
 70
     0
  9
$TDCREATE
 40
2455397.825393172
  9
$TDUCREATE
 40
2455397.783726505
  9
$TDUPDATE
 40
2455607.366560926
  9
$TDUUPDATE
 40
2455607.324894259
  9
$TDINDWG
 40
0.0282318171
  9
$TDUSRTIMER
 40
0.0282318171
  9
$USRTIMER
 70
     1
  9
$ANGBASE
 50
0.0
  9
$ANGDIR
 70
     0
  9
$PDMODE
 70
     0
  9
$PDSIZE
 40
0.0
  9
$PLINEWID
 40
0.0
  9
$SPLFRAME
 70
     0
  9
$SPLINETYPE
 70
     6
  9
$SPLINESEGS
 70
     8
  9
$HANDSEED
  5
CE1
  9
$SURFTAB1
 70
     6
  9
$SURFTAB2
 70
     6
  9
$SURFTYPE
 70
     6
  9
$SURFU
 70
     6
  9
$SURFV
 70
     6
  9
$UCSBASE
  2

  9
$UCSNAME
  2

  9
$UCSORG
 10
0.0
 20
0.0
 30
0.0
  9
$UCSXDIR
 10
1.0
 20
0.0
 30
0.0
  9
$UCSYDIR
 10
0.0
 20
1.0
 30
0.0
  9
$UCSORTHOREF
  2

  9
$UCSORTHOVIEW
 70
     0
  9
$UCSORGTOP
 10
0.0
 20
0.0
 30
0.0
  9
$UCSORGBOTTOM
 10
0.0
 20
0.0
 30
0.0
  9
$UCSORGLEFT
 10
0.0
 20
0.0
 30
0.0
  9
$UCSORGRIGHT
 10
0.0
 20
0.0
 30
0.0
  9
$UCSORGFRONT
 10
0.0
 20
0.0
 30
0.0
  9
$UCSORGBACK
 10
0.0
 20
0.0
 30
0.0
  9
$PUCSBASE
  2

  9
$PUCSNAME
  2

  9
$PUCSORG
 10
0.0
 20
0.0
 30
0.0
  9
$PUCSXDIR
 10
1.0
 20
0.0
 30
0.0
  9
$PUCSYDIR
 10
0.0
 20
1.0
 30
0.0
  9
$PUCSORTHOREF
  2

  9
$PUCSORTHOVIEW
 70
     0
  9
$PUCSORGTOP
 10
0.0
 20
0.0
 30
0.0
  9
$PUCSORGBOTTOM
 10
0.0
 20
0.0
 30
0.0
  9
$PUCSORGLEFT
 10
0.0
 20
0.0
 30
0.0
  9
$PUCSORGRIGHT
 10
0.0
 20
0.0
 30
0.0
  9
$PUCSORGFRONT
 10
0.0
 20
0.0
 30
0.0
  9
$PUCSORGBACK
 10
0.0
 20
0.0
 30
0.0
  9
$USERI1
 70
     0
  9
$USERI2
 70
     0
  9
$USERI3
 70
     0
  9
$USERI4
 70
     0
  9
$USERI5
 70
     0
  9
$USERR1
 40
0.0
  9
$USERR2
 40
0.0
  9
$USERR3
 40
0.0
  9
$USERR4
 40
0.0
  9
$USERR5
 40
0.0
  9
$WORLDVIEW
 70
     1
  9
$SHADEDGE
 70
     3
  9
$SHADEDIF
 70
    70
  9
$TILEMODE
 70
     1
  9
$MAXACTVP
 70
    16
  9
$PINSBASE
 10
0.0
 20
0.0
 30
0.0
  9
$PLIMCHECK
 70
     0
  9
$PEXTMIN
 10
1.000000000000000E+20
 20
1.000000000000000E+20
 30
1.000000000000000E+20
  9
$PEXTMAX
 10
-1.000000000000000E+20
 20
-1.000000000000000E+20
 30
-1.000000000000000E+20
  9
$PLIMMIN
 10
0.0
 20
0.0
  9
$PLIMMAX
 10
12.0
 20
9.0
  9
$UNITMODE
 70
     0
  9
$VISRETAIN
 70
     0
  9
$PLINEGEN
 70
     0
  9
$PSLTSCALE
 70
     0
  9
$TREEDEPTH
 70
  3020
  9
$CMLSTYLE
  2
Standard
  9
$CMLJUST
 70
     0
  9
$CMLSCALE
 40
1.0
  9
$PROXYGRAPHICS
 70
     1
  9
$MEASUREMENT
 70
     0
  9
$CELWEIGHT
370
    -1
  9
$ENDCAPS
280
     0
  9
$JOINSTYLE
280
     0
  9
$LWDISPLAY
290
     0
  9
$INSUNITS
 70
     0
  9
$HYPERLINKBASE
  1

  9
$STYLESHEET
  1

  9
$XEDIT
290
     1
  9
$CEPSNTYPE
380
     0
  9
$PSTYLEMODE
290
     1
  9
$FINGERPRINTGUID
  2
{D68B0D0D-A558-11D7-B632-000102183313}
  9
$VERSIONGUID
  2
{20612704-43EB-43A1-9F7F-E8FA3A99EB87}
  9
$EXTNAMES
290
     1
  9
$PSVPSCALE
 40
0.0
  9
$OLESTARTUP
290
     0
  9
$SORTENTS
280
   127
  9
$INDEXCTL
280
     0
  9
$HIDETEXT
280
     0
  9
$XCLIPFRAME
290
     0
  9
$HALOGAP
280
     0
  9
$OBSCOLOR
 70
   257
  9
$OBSLTYPE
280
     0
  9
$INTERSECTIONDISPLAY
280
     0
  9
$INTERSECTIONCOLOR
 70
   257
  9
$DIMASSOC
280
     1
  9
$PROJECTNAME
  1

  0
ENDSEC
  0
SECTION
  2
CLASSES
  0
CLASS
  1
ACDBDICTIONARYWDFLT
  2
AcDbDictionaryWithDefault
  3
ObjectDBX Classes
 90
        0
 91
        1
280
     0
281
     0
  0
CLASS
  1
DICTIONARYVAR
  2
AcDbDictionaryVar
  3
ObjectDBX Classes
 90
        0
 91
        2
280
     0
281
     0
  0
CLASS
  1
DIMASSOC
  2
AcDbDimAssoc
  3
"AcDbDimAssoc|Product Desc:     AcDim ARX App For Dimension|Company:          Autodesk, Inc.|WEB Address:      www.autodesk.com"
 90
        0
 91
        0
280
     0
281
     0
  0
ENDSEC
  0
SECTION
  2
TABLES
  0
TABLE
  2
VPORT
  5
8
330
0
100
AcDbSymbolTable
 70
     2
  0
VPORT
  5
CE0
330
8
100
AcDbSymbolTableRecord
100
AcDbViewportTableRecord
  2
*Active
 70
     0
 10
0.0
 20
0.0
 11
1.0
 21
1.0
 12
296.9999999999999
 22
420.0000000000001
 13
0.0
 23
0.0
 14
1.0
 24
1.0
 15
10.0
 25
10.0
 16
0.0
 26
0.0
 36
1.0
 17
0.0
 27
0.0
 37
0.0
 40
840.2546149102285
 41
1.336927223719676
 42
50.0
 43
0.0
 44
0.0
 50
0.0
 51
0.0
 71
     0
 72
  1500
 73
     1
 74
     0
 75
     0
 76
     0
 77
     0
 78
     0
281
     0
 65
     1
110
0.0
120
0.0
130
0.0
111
1.0
121
0.0
131
0.0
112
0.0
122
1.0
132
0.0
 79
     0
146
0.0
  0
ENDTAB
  0
TABLE
  2
LTYPE
  5
5
330
0
100
AcDbSymbolTable
 70
     4
  0
LTYPE
  5
13
330
5
100
AcDbSymbolTableRecord
100
AcDbLinetypeTableRecord
  2
ByBlock
 70
     0
  3

 72
    65
 73
     0
 40
0.0
  0
LTYPE
  5
14
330
5
100
AcDbSymbolTableRecord
100
AcDbLinetypeTableRecord
  2
ByLayer
 70
     0
  3

 72
    65
 73
     0
 40
0.0
  0
LTYPE
  5
15
330
5
100
AcDbSymbolTableRecord
100
AcDbLinetypeTableRecord
  2
Continuous
 70
     0
  3
Solid line
 72
    65
 73
     0
 40
0.0
  0
LTYPE
  5
25
330
5
100
AcDbSymbolTableRecord
100
AcDbLinetypeTableRecord
  2
STRICHPUNKT
 70
     0
  3
__ . __ . __ . __ . __ . __ . __ . __ . __ . __
 72
    65
 73
     4
 40
1.0
 49
0.5
 74
     0
 49
-0.25
 74
     0
 49
0.0
 74
     0
 49
-0.25
 74
     0
  0
LTYPE
  5
34
330
5
100
AcDbSymbolTableRecord
100
AcDbLinetypeTableRecord
  2
AUSGEZOGEN
 70
     0
  3
Ausgezogene Linie
 72
    65
 73
     0
 40
0.0
  0
LTYPE
  5
3E4
330
5
100
AcDbSymbolTableRecord
100
AcDbLinetypeTableRecord
  2
VERDECKT
 70
     0
  3
_ _ _ _ _ _ _ _ _ _ _ _ _ _ _ _ _ _ _ _ _ _ _
 72
    65
 73
     2
 40
0.375
 49
0.25
 74
     0
 49
-0.125
 74
     0
  0
ENDTAB
  0
TABLE
  2
LAYER
  5
2
330
0
100
AcDbSymbolTable
 70
    10
  0
LAYER
  5
10
330
2
100
AcDbSymbolTableRecord
100
AcDbLayerTableRecord
  2
0
 70
     0
 62
     7
  6
Continuous
370
    -3
390
F
  0
LAYER
  5
2B
330
2
100
AcDbSymbolTableRecord
100
AcDbLayerTableRecord
  2
VOLL
 70
     0
 62
     1
  6
Continuous
370
    -3
390
F
  0
LAYER
  5
2C
330
2
100
AcDbSymbolTableRecord
100
AcDbLayerTableRecord
  2
HILF
 70
     0
 62
     2
  6
Continuous
370
    -3
390
F
  0
LAYER
  5
2D
330
2
100
AcDbSymbolTableRecord
100
AcDbLayerTableRecord
  2
MITTEL
 70
     0
 62
     2
  6
STRICHPUNKT
370
    -3
390
F
  0
LAYER
  5
2F
330
2
100
AcDbSymbolTableRecord
100
AcDbLayerTableRecord
  2
BEM
 70
     0
 62
     7
  6
Continuous
370
    -3
390
F
  0
LAYER
  5
30
330
2
100
AcDbSymbolTableRecord
100
AcDbLayerTableRecord
  2
STEMPEL
 70
     0
 62
     3
  6
Continuous
370
    -3
390
F
  0
LAYER
  5
33
330
2
100
AcDbSymbolTableRecord
100
AcDbLayerTableRecord
  2
TEXT
 70
     0
 62
     7
  6
Continuous
370
    -3
390
F
  0
LAYER
  5
3E5
330
2
100
AcDbSymbolTableRecord
100
AcDbLayerTableRecord
  2
SCHRAFF
 70
     0
 62
     7
  6
AUSGEZOGEN
370
    -3
390
F
  0
LAYER
  5
3E6
330
2
100
AcDbSymbolTableRecord
100
AcDbLayerTableRecord
  2
DEFPOINTS
 70
     0
 62
     7
  6
AUSGEZOGEN
290
     0
370
    -3
390
F
  0
LAYER
  5
3E7
330
2
100
AcDbSymbolTableRecord
100
AcDbLayerTableRecord
  2
VERDECKT
 70
     0
 62
     6
  6
VERDECKT
370
    -3
390
F
  0
ENDTAB
  0
TABLE
  2
STYLE
  5
3
330
0
100
AcDbSymbolTable
 70
     2
  0
STYLE
  5
11
330
3
100
AcDbSymbolTableRecord
100
AcDbTextStyleTableRecord
  2
STANDARD
 70
     0
 40
0.0
 41
0.8
 50
0.0
 71
     0
 42
3.5
  3
simplex.shx
  4

  0
STYLE
  5
24
330
3
100
AcDbSymbolTableRecord
100
AcDbTextStyleTableRecord
  2
GREEKS
 70
     0
 40
0.0
 41
0.8
 50
0.0
 71
     0
 42
2.5
  3
SIMPLEX.shx
  4

  0
ENDTAB
  0
TABLE
  2
VIEW
  5
6
330
0
100
AcDbSymbolTable
 70
     0
  0
ENDTAB
  0
TABLE
  2
UCS
  5
7
330
0
100
AcDbSymbolTable
 70
     0
  0
ENDTAB
  0
TABLE
  2
APPID
  5
9
330
0
100
AcDbSymbolTable
 70
     1
  0
APPID
  5
12
330
9
100
AcDbSymbolTableRecord
100
AcDbRegAppTableRecord
  2
ACAD
 70
     0
  0
ENDTAB
  0
TABLE
  2
DIMSTYLE
  5
A
330
0
100
AcDbSymbolTable
 70
     1
100
AcDbDimStyleTable
 71
     1
340
A2
  0
DIMSTYLE
105
A2
102
{ACAD_REACTORS
330
B0B
330
B0C
330
B0D
330
B0E
330
B10
330
B11
102
}
330
A
100
AcDbSymbolTableRecord
100
AcDbDimStyleTableRecord
  2
Standard
 70
     0
340
11
  0
ENDTAB
  0
TABLE
  2
BLOCK_RECORD
  5
1
330
0
100
AcDbSymbolTable
 70
    11
  0
BLOCK_RECORD
  5
1E
102
{ACAD_XDICTIONARY
360
DB
102
}
330
1
100
AcDbSymbolTableRecord
100
AcDbBlockTableRecord
  2
*Model_Space
340
21
  0
BLOCK_RECORD
  5
1A
102
{ACAD_XDICTIONARY
360
DD
102
}
330
1
100
AcDbSymbolTableRecord
100
AcDbBlockTableRecord
  2
*Paper_Space
340
1D
  0
BLOCK_RECORD
  5
22
330
1
100
AcDbSymbolTableRecord
100
AcDbBlockTableRecord
  2
LOGO
340
0
102
{BLKREFS
331
BF5
102
}
  0
BLOCK_RECORD
  5
849
330
1
100
AcDbSymbolTableRecord
100
AcDbBlockTableRecord
  2
*X1
340
0
102
{BLKREFS
331
B5B
331
B5C
102
}
  0
BLOCK_RECORD
  5
865
330
1
100
AcDbSymbolTableRecord
100
AcDbBlockTableRecord
  2
*X2
340
0
102
{BLKREFS
331
B54
102
}
  0
BLOCK_RECORD
  5
8B4
330
1
100
AcDbSymbolTableRecord
100
AcDbBlockTableRecord
  2
*X3
340
0
102
{BLKREFS
331
B22
102
}
  0
BLOCK_RECORD
  5
8C2
330
1
100
AcDbSymbolTableRecord
100
AcDbBlockTableRecord
  2
*X4
340
0
102
{BLKREFS
331
B23
102
}
  0
BLOCK_RECORD
  5
C38
330
1
100
AcDbSymbolTableRecord
100
AcDbBlockTableRecord
  2
*D5
340
0
  0
BLOCK_RECORD
  5
C44
330
1
100
AcDbSymbolTableRecord
100
AcDbBlockTableRecord
  2
*D6
340
0
  0
BLOCK_RECORD
  5
C50
330
1
100
AcDbSymbolTableRecord
100
AcDbBlockTableRecord
  2
*D7
340
0
  0
BLOCK_RECORD
  5
C5C
330
1
100
AcDbSymbolTableRecord
100
AcDbBlockTableRecord
  2
*D8
340
0
  0
BLOCK_RECORD
  5
C74
330
1
100
AcDbSymbolTableRecord
100
AcDbBlockTableRecord
  2
*D9
340
0
  0
BLOCK_RECORD
  5
C80
330
1
100
AcDbSymbolTableRecord
100
AcDbBlockTableRecord
  2
*D10
340
0
  0
ENDTAB
  0
ENDSEC
  0
SECTION
  2
BLOCKS
  0
BLOCK
  5
37
330
1E
100
AcDbEntity
  8
0
100
AcDbBlockBegin
  2
*Model_Space
 70
     0
 10
0.0
 20
0.0
 30
0.0
  3
*Model_Space
  1

  0
ENDBLK
  5
38
330
1E
100
AcDbEntity
  8
0
100
AcDbBlockEnd
  0
BLOCK
  5
35
330
1A
100
AcDbEntity
 67
     1
  8
0
100
AcDbBlockBegin
  2
*Paper_Space
 70
     0
 10
0.0
 20
0.0
 30
0.0
  3
*Paper_Space
  1

  0
ENDBLK
  5
36
330
1A
100
AcDbEntity
 67
     1
  8
0
100
AcDbBlockEnd
  0
BLOCK
  5
39
330
22
100
AcDbEntity
  8
0
100
AcDbBlockBegin
  2
LOGO
 70
     0
 10
0.0
 20
0.0
 30
0.0
  3
LOGO
  1

  0
ARC
  5
3A
330
22
100
AcDbEntity
  8
0
100
AcDbCircle
 10
11.59973089678112
 20
-9.271599258481501
 30
0.0
 40
4.5
100
AcDbArc
 50
270.0
 51
231.0575587310159
  0
LINE
  5
3B
330
22
100
AcDbEntity
  8
0
100
AcDbLine
 10
3.599730896781125
 20
-4.771599258481529
 30
0.0
 11
3.599730896781153
 21
-11.77159925848133
 31
0.0
  0
LINE
  5
3C
330
22
100
AcDbEntity
  8
0
100
AcDbLine
 10
2.599730896781125
 20
-4.771599258481529
 30
0.0
 11
2.599730896781153
 21
-11.77159925848133
 31
0.0
  0
CIRCLE
  5
3D
330
22
100
AcDbEntity
  8
0
100
AcDbCircle
 10
11.59973089678112
 20
-9.271599258481501
 30
0.0
 40
3.5
  0
ARC
  5
3E
330
22
100
AcDbEntity
  8
0
100
AcDbCircle
 10
31.59973089678115
 20
-9.271599258481472
 30
0.0
 40
4.5
100
AcDbArc
 50
270.0
 51
231.0575587310182
  0
LINE
  5
3F
330
22
100
AcDbEntity
  8
0
100
AcDbLine
 10
17.59973089678112
 20
-4.771599258481472
 30
0.0
 11
17.59973089678115
 21
-13.77159925848147
 31
0.0
  0
ARC
  5
40
330
22
100
AcDbEntity
  8
0
100
AcDbCircle
 10
22.59973089678116
 20
-7.271599258481472
 30
0.0
 40
2.5
100
AcDbArc
 50
293.1161887722295
 51
90.0
  0
CIRCLE
  5
41
330
22
100
AcDbEntity
  8
0
100
AcDbCircle
 10
31.59973089678115
 20
-9.271599258481472
 30
0.0
 40
3.5
  0
ARC
  5
42
330
22
100
AcDbEntity
  8
0
100
AcDbCircle
 10
4.599730896781153
 20
-11.77159925848133
 30
0.0
 40
1.0
100
AcDbArc
 50
180.0
 51
270.0
  0
ARC
  5
43
330
22
100
AcDbEntity
  8
0
100
AcDbCircle
 10
4.599730896781153
 20
-11.77159925848133
 30
0.0
 40
2.0
100
AcDbArc
 50
179.9999999999992
 51
270.0
  0
LINE
  5
44
330
22
100
AcDbEntity
  8
0
100
AcDbLine
 10
11.59973089678115
 20
-13.77159925848144
 30
0.0
 11
4.599730896781153
 21
-13.77159925848147
 31
0.0
  0
LINE
  5
45
330
22
100
AcDbEntity
  8
0
100
AcDbLine
 10
8.771303772034769
 20
-12.77159925848136
 30
0.0
 11
4.599730896781153
 21
-12.77159925848133
 31
0.0
  0
LINE
  5
46
330
22
100
AcDbEntity
  8
0
100
AcDbLine
 10
31.59973089678115
 20
-13.77159925848147
 30
0.0
 11
23.6715276665056
 21
-13.77159925848144
 31
0.0
  0
LINE
  5
47
330
22
100
AcDbEntity
  8
0
100
AcDbLine
 10
23.56565672307022
 20
-9.51278021337896
 30
0.0
 11
24.4388546544846
 21
-12.77159925848144
 31
0.0
  0
LINE
  5
48
330
22
100
AcDbEntity
  8
0
100
AcDbLine
 10
22.59973089678116
 20
-9.771599258481472
 30
0.0
 11
18.59973089678112
 21
-9.771599258481472
 31
0.0
  0
LINE
  5
49
330
22
100
AcDbEntity
  8
0
100
AcDbLine
 10
18.59973089678115
 20
-13.77159925848144
 30
0.0
 11
17.59973089678115
 21
-13.77159925848144
 31
0.0
  0
LINE
  5
4A
330
22
100
AcDbEntity
  8
0
100
AcDbLine
 10
18.59973089678115
 20
-9.771599258481472
 30
0.0
 11
18.59973089678115
 21
-13.77159925848144
 31
0.0
  0
LINE
  5
4B
330
22
100
AcDbEntity
  8
0
100
AcDbLine
 10
22.59973089678116
 20
-9.771599258481472
 30
0.0
 11
23.67152766650562
 21
-13.77159925848147
 31
0.0
  0
ARC
  5
4C
330
22
100
AcDbEntity
  8
0
100
AcDbCircle
 10
22.59973089678116
 20
-7.271599258481472
 30
0.0
 40
2.5
100
AcDbArc
 50
270.0
 51
270.0000000000007
  0
LINE
  5
4D
330
22
100
AcDbEntity
  8
0
100
AcDbLine
 10
28.77130377203494
 20
-12.77159925848147
 30
0.0
 11
24.43885465448463
 21
-12.77159925848144
 31
0.0
  0
LINE
  5
4E
330
22
100
AcDbEntity
  8
0
100
AcDbLine
 10
3.599730896781125
 20
-4.771599258481472
 30
0.0
 11
2.599730896781125
 21
-4.771599258481472
 31
0.0
  0
LINE
  5
4F
330
22
100
AcDbEntity
  8
0
100
AcDbLine
 10
22.59973089678116
 20
-8.771599258481472
 30
0.0
 11
18.59973089678115
 21
-8.771599258481472
 31
0.0
  0
LINE
  5
50
330
22
100
AcDbEntity
  8
0
100
AcDbLine
 10
22.59973089678116
 20
-5.771599258481472
 30
0.0
 11
18.59973089678115
 21
-5.771599258481472
 31
0.0
  0
LINE
  5
51
330
22
100
AcDbEntity
  8
0
100
AcDbLine
 10
22.59973089678116
 20
-4.771599258481472
 30
0.0
 11
17.59973089678115
 21
-4.771599258481472
 31
0.0
  0
LINE
  5
52
330
22
100
AcDbEntity
  8
0
100
AcDbLine
 10
18.59973089678115
 20
-5.771599258481472
 30
0.0
 11
18.59973089678115
 21
-8.771599258481472
 31
0.0
  0
ARC
  5
53
330
22
100
AcDbEntity
  8
0
100
AcDbCircle
 10
22.59973089678116
 20
-7.271599258481472
 30
0.0
 40
1.5
100
AcDbArc
 50
270.0
 51
90.0
  0
ENDBLK
  5
54
330
22
100
AcDbEntity
  8
0
100
AcDbBlockEnd
  0
BLOCK
  5
84A
330
849
100
AcDbEntity
  8
0
100
AcDbBlockBegin
  2
*X1
 70
     1
 10
0.0
 20
0.0
 30
0.0
  3
*X1
  1

  0
LINE
  5
84B
330
849
100
AcDbEntity
  8
0
 62
     0
100
AcDbLine
 10
180.6800329697238
 20
155.0474121517115
 30
0.0
 11
183.5125690832177
 21
157.8799482652054
 31
0.0
  0
LINE
  5
84C
330
849
100
AcDbEntity
  8
0
 62
     0
100
AcDbLine
 10
180.5285129332596
 20
155.0726688105439
 30
0.0
 11
183.3236152255086
 21
157.8677711027929
 31
0.0
  0
LINE
  5
84D
330
849
100
AcDbEntity
  8
0
 62
     0
100
AcDbLine
 10
180.4146873683215
 20
155.1356199409025
 30
0.0
 11
183.1214804169394
 21
157.8424129895203
 31
0.0
  0
LINE
  5
84E
330
849
100
AcDbEntity
  8
0
 62
     0
100
AcDbLine
 10
180.4568992557688
 20
155.3546085236463
 30
0.0
 11
182.9024918341955
 21
157.8002011020731
 31
0.0
  0
LINE
  5
84F
330
849
100
AcDbEntity
  8
0
 62
     0
100
AcDbLine
 10
180.5221232197993
 20
155.5966091829735
 30
0.0
 11
182.6604911748684
 21
157.7349771380426
 31
0.0
  0
LINE
  5
850
330
849
100
AcDbEntity
  8
0
 62
     0
100
AcDbLine
 10
180.6223207627474
 20
155.8735834212183
 30
0.0
 11
182.3835169366236
 21
157.6347795950945
 31
0.0
  0
LINE
  5
851
330
849
100
AcDbEntity
  8
0
 62
     0
100
AcDbLine
 10
180.7883303713908
 20
156.2163697251583
 30
0.0
 11
182.0407306326836
 21
157.4687699864511
 31
0.0
  0
LINE
  5
852
330
849
100
AcDbEntity
  8
0
 62
     0
100
AcDbLine
 10
180.8318742088326
 20
155.0224766955236
 30
0.0
 11
183.6271461776563
 21
157.8177486643473
 31
0.0
  0
LINE
  5
853
330
849
100
AcDbEntity
  8
0
 62
     0
100
AcDbLine
 10
180.9840383181215
 20
154.9978641095158
 30
0.0
 11
183.6271461776563
 21
157.6409719690507
 31
0.0
  0
LINE
  5
854
330
849
100
AcDbEntity
  8
0
 62
     0
100
AcDbLine
 10
181.1365269852622
 20
154.9735760813599
 30
0.0
 11
183.6271461776563
 21
157.464195273754
 31
0.0
  0
LINE
  5
855
330
849
100
AcDbEntity
  8
0
 62
     0
100
AcDbLine
 10
181.2893419183882
 20
154.9496143191893
 30
0.0
 11
183.6271461776563
 21
157.2874185784574
 31
0.0
  0
LINE
  5
856
330
849
100
AcDbEntity
  8
0
 62
     0
100
AcDbLine
 10
181.4424848464272
 20
154.9259805519317
 30
0.0
 11
183.6271461776563
 21
157.1106418831608
 31
0.0
  0
LINE
  5
857
330
849
100
AcDbEntity
  8
0
 62
     0
100
AcDbLine
 10
181.5959575194397
 20
154.9026765296475
 30
0.0
 11
183.6271461776563
 21
156.9338651878641
 31
0.0
  0
LINE
  5
858
330
849
100
AcDbEntity
  8
0
 62
     0
100
AcDbLine
 10
181.7497617089663
 20
154.8797040238775
 30
0.0
 11
183.6271461776563
 21
156.7570884925675
 31
0.0
  0
LINE
  5
859
330
849
100
AcDbEntity
  8
0
 62
     0
100
AcDbLine
 10
181.9038992083817
 20
154.8570648279963
 30
0.0
 11
183.6271461776563
 21
156.5803117972708
 31
0.0
  0
LINE
  5
85A
330
849
100
AcDbEntity
  8
0
 62
     0
100
AcDbLine
 10
182.0583718332563
 20
154.8347607575743
 30
0.0
 11
183.6271461776563
 21
156.4035351019742
 31
0.0
  0
LINE
  5
85B
330
849
100
AcDbEntity
  8
0
 62
     0
100
AcDbLine
 10
182.2131814217262
 20
154.8127936507475
 30
0.0
 11
183.6271461776563
 21
156.2267584066776
 31
0.0
  0
LINE
  5
85C
330
849
100
AcDbEntity
  8
0
 62
     0
100
AcDbLine
 10
182.368329834871
 20
154.7911653685956
 30
0.0
 11
183.6271461776563
 21
156.0499817113809
 31
0.0
  0
LINE
  5
85D
330
849
100
AcDbEntity
  8
0
 62
     0
100
AcDbLine
 10
182.5238189571
 20
154.769877795528
 30
0.0
 11
183.6271461776563
 21
155.8732050160843
 31
0.0
  0
LINE
  5
85E
330
849
100
AcDbEntity
  8
0
 62
     0
100
AcDbLine
 10
182.6796506965471
 20
154.7489328396785
 30
0.0
 11
183.6271461776563
 21
155.6964283207877
 31
0.0
  0
LINE
  5
85F
330
849
100
AcDbEntity
  8
0
 62
     0
100
AcDbLine
 10
182.8358269854742
 20
154.7283324333089
 30
0.0
 11
183.6271461776563
 21
155.519651625491
 31
0.0
  0
LINE
  5
860
330
849
100
AcDbEntity
  8
0
 62
     0
100
AcDbLine
 10
182.9923497806841
 20
154.7080785332222
 30
0.0
 11
183.6271461776563
 21
155.3428749301944
 31
0.0
  0
LINE
  5
861
330
849
100
AcDbEntity
  8
0
 62
     0
100
AcDbLine
 10
183.1492210639421
 20
154.6881731211835
 30
0.0
 11
183.6271461776563
 21
155.1660982348978
 31
0.0
  0
LINE
  5
862
330
849
100
AcDbEntity
  8
0
 62
     0
100
AcDbLine
 10
183.3064428424078
 20
154.6686182043526
 30
0.0
 11
183.6271461776563
 21
154.9893215396011
 31
0.0
  0
LINE
  5
863
330
849
100
AcDbEntity
  8
0
 62
     0
100
AcDbLine
 10
183.4640171490761
 20
154.6494158157243
 30
0.0
 11
183.6271461776563
 21
154.8125448443045
 31
0.0
  0
ENDBLK
  5
864
330
849
100
AcDbEntity
  8
0
100
AcDbBlockEnd
  0
BLOCK
  5
866
330
865
100
AcDbEntity
  8
0
100
AcDbBlockBegin
  2
*X2
 70
     1
 10
0.0
 20
0.0
 30
0.0
  3
*X2
  1

  0
LINE
  5
867
330
865
100
AcDbEntity
  8
0
 62
     0
100
AcDbLine
 10
538.7116603091937
 20
807.4122371600818
 30
0.0
 11
540.9325179610935
 21
809.6330948119817
 31
0.0
  0
LINE
  5
868
330
865
100
AcDbEntity
  8
0
 62
     0
100
AcDbLine
 10
540.9325179610935
 20
809.6330948119817
 30
0.0
 11
541.2116603091939
 21
809.912237160082
 31
0.0
  0
LINE
  5
869
330
865
100
AcDbEntity
  8
0
 62
     0
100
AcDbLine
 10
538.7116603091937
 20
809.1800041130481
 30
0.0
 11
539.1647510081273
 21
809.6330948119817
 31
0.0
  0
LINE
  5
86A
330
865
100
AcDbEntity
  8
0
 62
     0
100
AcDbLine
 10
539.1647510081273
 20
809.6330948119817
 30
0.0
 11
541.2116603091939
 21
811.6800041130485
 31
0.0
  0
LINE
  5
86B
330
865
100
AcDbEntity
  8
0
 62
     0
100
AcDbLine
 10
538.7116603091937
 20
810.9477710660145
 30
0.0
 11
541.2116603091939
 21
813.4477710660148
 31
0.0
  0
LINE
  5
86C
330
865
100
AcDbEntity
  8
0
 62
     0
100
AcDbLine
 10
538.7116603091937
 20
812.7155380189808
 30
0.0
 11
541.2116603091939
 21
815.215538018981
 31
0.0
  0
LINE
  5
86D
330
865
100
AcDbEntity
  8
0
 62
     0
100
AcDbLine
 10
538.7116603091937
 20
814.4833049719473
 30
0.0
 11
541.2116603091939
 21
816.9833049719475
 31
0.0
  0
LINE
  5
86E
330
865
100
AcDbEntity
  8
0
 62
     0
100
AcDbLine
 10
538.7116603091937
 20
816.2510719249135
 30
0.0
 11
541.2116603091939
 21
818.7510719249138
 31
0.0
  0
LINE
  5
86F
330
865
100
AcDbEntity
  8
0
 62
     0
100
AcDbLine
 10
538.7116603091937
 20
818.01883887788
 30
0.0
 11
541.2116603091939
 21
820.5188388778802
 31
0.0
  0
LINE
  5
870
330
865
100
AcDbEntity
  8
0
 62
     0
100
AcDbLine
 10
538.7116603091937
 20
819.7866058308463
 30
0.0
 11
541.2116603091939
 21
822.2866058308465
 31
0.0
  0
LINE
  5
871
330
865
100
AcDbEntity
  8
0
 62
     0
100
AcDbLine
 10
538.7116603091937
 20
821.5543727838127
 30
0.0
 11
541.2116603091939
 21
824.0543727838129
 31
0.0
  0
LINE
  5
872
330
865
100
AcDbEntity
  8
0
 62
     0
100
AcDbLine
 10
538.7116603091937
 20
823.3221397367792
 30
0.0
 11
541.2116603091939
 21
825.8221397367794
 31
0.0
  0
LINE
  5
873
330
865
100
AcDbEntity
  8
0
 62
     0
100
AcDbLine
 10
538.7116603091937
 20
825.0899066897456
 30
0.0
 11
541.2116603091939
 21
827.5899066897457
 31
0.0
  0
LINE
  5
874
330
865
100
AcDbEntity
  8
0
 62
     0
100
AcDbLine
 10
538.7116603091937
 20
826.8576736427119
 30
0.0
 11
541.2116603091939
 21
829.357673642712
 31
0.0
  0
LINE
  5
875
330
865
100
AcDbEntity
  8
0
 62
     0
100
AcDbLine
 10
538.7116603091937
 20
828.6254405956782
 30
0.0
 11
541.2116603091939
 21
831.1254405956784
 31
0.0
  0
LINE
  5
876
330
865
100
AcDbEntity
  8
0
 62
     0
100
AcDbLine
 10
538.7116603091937
 20
830.3932075486446
 30
0.0
 11
541.2116603091939
 21
832.8932075486447
 31
0.0
  0
LINE
  5
877
330
865
100
AcDbEntity
  8
0
 62
     0
100
AcDbLine
 10
538.7116603091937
 20
832.1609745016109
 30
0.0
 11
541.2116603091939
 21
834.6609745016111
 31
0.0
  0
LINE
  5
878
330
865
100
AcDbEntity
  8
0
 62
     0
100
AcDbLine
 10
538.7116603091937
 20
833.9287414545774
 30
0.0
 11
541.2116603091939
 21
836.4287414545776
 31
0.0
  0
LINE
  5
879
330
865
100
AcDbEntity
  8
0
 62
     0
100
AcDbLine
 10
538.7116603091937
 20
835.6965084075437
 30
0.0
 11
541.2116603091939
 21
838.1965084075439
 31
0.0
  0
LINE
  5
87A
330
865
100
AcDbEntity
  8
0
 62
     0
100
AcDbLine
 10
538.7116603091938
 20
837.4642753605101
 30
0.0
 11
540.8804797606652
 21
839.6330948119816
 31
0.0
  0
LINE
  5
87B
330
865
100
AcDbEntity
  8
0
 62
     0
100
AcDbLine
 10
538.7116603091938
 20
839.2320423134766
 30
0.0
 11
539.1127128076989
 21
839.6330948119816
 31
0.0
  0
LINE
  5
87C
330
865
100
AcDbEntity
  8
0
 62
     0
100
AcDbLine
 10
538.7116603091937
 20
805.6444702071154
 30
0.0
 11
541.2116603091939
 21
808.1444702071156
 31
0.0
  0
LINE
  5
87D
330
865
100
AcDbEntity
  8
0
 62
     0
100
AcDbLine
 10
538.7116603091937
 20
803.8767032541489
 30
0.0
 11
541.2116603091939
 21
806.3767032541493
 31
0.0
  0
LINE
  5
87E
330
865
100
AcDbEntity
  8
0
 62
     0
100
AcDbLine
 10
538.7116603091937
 20
802.1089363011826
 30
0.0
 11
541.2116603091939
 21
804.6089363011828
 31
0.0
  0
LINE
  5
87F
330
865
100
AcDbEntity
  8
0
 62
     0
100
AcDbLine
 10
538.7116603091937
 20
800.3411693482162
 30
0.0
 11
541.2116603091939
 21
802.8411693482166
 31
0.0
  0
LINE
  5
880
330
865
100
AcDbEntity
  8
0
 62
     0
100
AcDbLine
 10
538.7116603091937
 20
798.5734023952499
 30
0.0
 11
541.2116603091939
 21
801.0734023952501
 31
0.0
  0
LINE
  5
881
330
865
100
AcDbEntity
  8
0
 62
     0
100
AcDbLine
 10
538.7116603091937
 20
796.8056354422835
 30
0.0
 11
541.2116603091939
 21
799.3056354422837
 31
0.0
  0
LINE
  5
882
330
865
100
AcDbEntity
  8
0
 62
     0
100
AcDbLine
 10
538.7116603091937
 20
795.0378684893171
 30
0.0
 11
541.2116603091939
 21
797.5378684893175
 31
0.0
  0
LINE
  5
883
330
865
100
AcDbEntity
  8
0
 62
     0
100
AcDbLine
 10
538.7116603091937
 20
793.2701015363508
 30
0.0
 11
541.2116603091939
 21
795.770101536351
 31
0.0
  0
LINE
  5
884
330
865
100
AcDbEntity
  8
0
 62
     0
100
AcDbLine
 10
538.7116603091937
 20
791.5023345833843
 30
0.0
 11
541.2116603091939
 21
794.0023345833846
 31
0.0
  0
LINE
  5
885
330
865
100
AcDbEntity
  8
0
 62
     0
100
AcDbLine
 10
538.7116603091937
 20
789.734567630418
 30
0.0
 11
541.2116603091939
 21
792.2345676304184
 31
0.0
  0
LINE
  5
886
330
865
100
AcDbEntity
  8
0
 62
     0
100
AcDbLine
 10
538.7116603091937
 20
787.9668006774516
 30
0.0
 11
541.2116603091939
 21
790.4668006774519
 31
0.0
  0
LINE
  5
887
330
865
100
AcDbEntity
  8
0
 62
     0
100
AcDbLine
 10
538.7116603091937
 20
786.1990337244852
 30
0.0
 11
541.2116603091939
 21
788.6990337244855
 31
0.0
  0
LINE
  5
888
330
865
100
AcDbEntity
  8
0
 62
     0
100
AcDbLine
 10
538.7116603091937
 20
784.4312667715189
 30
0.0
 11
541.2116603091939
 21
786.9312667715192
 31
0.0
  0
LINE
  5
889
330
865
100
AcDbEntity
  8
0
 62
     0
100
AcDbLine
 10
538.7116603091937
 20
782.6634998185525
 30
0.0
 11
541.2116603091939
 21
785.1634998185528
 31
0.0
  0
LINE
  5
88A
330
865
100
AcDbEntity
  8
0
 62
     0
100
AcDbLine
 10
538.7116603091937
 20
780.8957328655862
 30
0.0
 11
541.2116603091939
 21
783.3957328655865
 31
0.0
  0
LINE
  5
88B
330
865
100
AcDbEntity
  8
0
 62
     0
100
AcDbLine
 10
539.2167892085556
 20
779.6330948119816
 30
0.0
 11
541.2116603091939
 21
781.6279659126201
 31
0.0
  0
LINE
  5
88C
330
865
100
AcDbEntity
  8
0
 62
     0
100
AcDbLine
 10
540.9845561615219
 20
779.6330948119816
 30
0.0
 11
541.2116603091939
 21
779.8601989596537
 31
0.0
  0
LINE
  5
88D
330
865
100
AcDbEntity
  8
0
 62
     0
100
AcDbLine
 10
541.2116603091939
 20
807.5945248041454
 30
0.0
 11
539.1730903013576
 21
809.6330948119817
 31
0.0
  0
LINE
  5
88E
330
865
100
AcDbEntity
  8
0
 62
     0
100
AcDbLine
 10
539.1730903013576
 20
809.6330948119817
 30
0.0
 11
538.7116603091937
 21
810.0945248041455
 31
0.0
  0
LINE
  5
88F
330
865
100
AcDbEntity
  8
0
 62
     0
100
AcDbLine
 10
541.2116603091939
 20
805.826757851179
 30
0.0
 11
538.7116603091937
 21
808.3267578511792
 31
0.0
  0
LINE
  5
890
330
865
100
AcDbEntity
  8
0
 62
     0
100
AcDbLine
 10
541.2116603091939
 20
804.0589908982127
 30
0.0
 11
538.7116603091937
 21
806.5589908982129
 31
0.0
  0
LINE
  5
891
330
865
100
AcDbEntity
  8
0
 62
     0
100
AcDbLine
 10
541.2116603091939
 20
802.2912239452463
 30
0.0
 11
538.7116603091937
 21
804.7912239452465
 31
0.0
  0
LINE
  5
892
330
865
100
AcDbEntity
  8
0
 62
     0
100
AcDbLine
 10
541.2116603091939
 20
800.52345699228
 30
0.0
 11
538.7116603091937
 21
803.02345699228
 31
0.0
  0
LINE
  5
893
330
865
100
AcDbEntity
  8
0
 62
     0
100
AcDbLine
 10
541.2116603091939
 20
798.7556900393136
 30
0.0
 11
538.7116603091937
 21
801.2556900393137
 31
0.0
  0
LINE
  5
894
330
865
100
AcDbEntity
  8
0
 62
     0
100
AcDbLine
 10
541.2116603091939
 20
796.9879230863472
 30
0.0
 11
538.7116603091937
 21
799.4879230863473
 31
0.0
  0
LINE
  5
895
330
865
100
AcDbEntity
  8
0
 62
     0
100
AcDbLine
 10
541.2116603091939
 20
795.2201561333809
 30
0.0
 11
538.7116603091937
 21
797.720156133381
 31
0.0
  0
LINE
  5
896
330
865
100
AcDbEntity
  8
0
 62
     0
100
AcDbLine
 10
541.2116603091939
 20
793.4523891804144
 30
0.0
 11
538.7116603091937
 21
795.9523891804146
 31
0.0
  0
LINE
  5
897
330
865
100
AcDbEntity
  8
0
 62
     0
100
AcDbLine
 10
541.2116603091939
 20
791.6846222274481
 30
0.0
 11
538.7116603091937
 21
794.1846222274482
 31
0.0
  0
LINE
  5
898
330
865
100
AcDbEntity
  8
0
 62
     0
100
AcDbLine
 10
541.2116603091939
 20
789.9168552744818
 30
0.0
 11
538.7116603091937
 21
792.4168552744819
 31
0.0
  0
LINE
  5
899
330
865
100
AcDbEntity
  8
0
 62
     0
100
AcDbLine
 10
541.2116603091939
 20
788.1490883215153
 30
0.0
 11
538.7116603091937
 21
790.6490883215155
 31
0.0
  0
LINE
  5
89A
330
865
100
AcDbEntity
  8
0
 62
     0
100
AcDbLine
 10
541.2116603091939
 20
786.381321368549
 30
0.0
 11
538.7116603091937
 21
788.8813213685491
 31
0.0
  0
LINE
  5
89B
330
865
100
AcDbEntity
  8
0
 62
     0
100
AcDbLine
 10
541.2116603091939
 20
784.6135544155827
 30
0.0
 11
538.7116603091937
 21
787.1135544155828
 31
0.0
  0
LINE
  5
89C
330
865
100
AcDbEntity
  8
0
 62
     0
100
AcDbLine
 10
541.2116603091939
 20
782.8457874626162
 30
0.0
 11
538.7116603091937
 21
785.3457874626164
 31
0.0
  0
LINE
  5
89D
330
865
100
AcDbEntity
  8
0
 62
     0
100
AcDbLine
 10
541.2116603091939
 20
781.07802050965
 30
0.0
 11
538.7116603091937
 21
783.57802050965
 31
0.0
  0
LINE
  5
89E
330
865
100
AcDbEntity
  8
0
 62
     0
100
AcDbLine
 10
540.8888190538958
 20
779.6330948119816
 30
0.0
 11
538.7116603091937
 21
781.8102535566837
 31
0.0
  0
LINE
  5
89F
330
865
100
AcDbEntity
  8
0
 62
     0
100
AcDbLine
 10
539.1210521009294
 20
779.6330948119816
 30
0.0
 11
538.7116603091937
 21
780.0424866037173
 31
0.0
  0
LINE
  5
8A0
330
865
100
AcDbEntity
  8
0
 62
     0
100
AcDbLine
 10
541.2116603091939
 20
809.3622917571119
 30
0.0
 11
540.9408572543241
 21
809.6330948119817
 31
0.0
  0
LINE
  5
8A1
330
865
100
AcDbEntity
  8
0
 62
     0
100
AcDbLine
 10
540.9408572543241
 20
809.6330948119817
 30
0.0
 11
538.7116603091937
 21
811.8622917571119
 31
0.0
  0
LINE
  5
8A2
330
865
100
AcDbEntity
  8
0
 62
     0
100
AcDbLine
 10
541.2116603091939
 20
811.1300587100782
 30
0.0
 11
538.7116603091937
 21
813.6300587100782
 31
0.0
  0
LINE
  5
8A3
330
865
100
AcDbEntity
  8
0
 62
     0
100
AcDbLine
 10
541.2116603091939
 20
812.8978256630446
 30
0.0
 11
538.7116603091937
 21
815.3978256630447
 31
0.0
  0
LINE
  5
8A4
330
865
100
AcDbEntity
  8
0
 62
     0
100
AcDbLine
 10
541.2116603091939
 20
814.6655926160109
 30
0.0
 11
538.7116603091937
 21
817.1655926160109
 31
0.0
  0
LINE
  5
8A5
330
865
100
AcDbEntity
  8
0
 62
     0
100
AcDbLine
 10
541.2116603091939
 20
816.4333595689772
 30
0.0
 11
538.7116603091937
 21
818.9333595689774
 31
0.0
  0
LINE
  5
8A6
330
865
100
AcDbEntity
  8
0
 62
     0
100
AcDbLine
 10
541.2116603091939
 20
818.2011265219436
 30
0.0
 11
538.7116603091937
 21
820.7011265219437
 31
0.0
  0
LINE
  5
8A7
330
865
100
AcDbEntity
  8
0
 62
     0
100
AcDbLine
 10
541.2116603091939
 20
819.9688934749099
 30
0.0
 11
538.7116603091937
 21
822.4688934749099
 31
0.0
  0
LINE
  5
8A8
330
865
100
AcDbEntity
  8
0
 62
     0
100
AcDbLine
 10
541.2116603091939
 20
821.7366604278762
 30
0.0
 11
538.7116603091937
 21
824.2366604278762
 31
0.0
  0
LINE
  5
8A9
330
865
100
AcDbEntity
  8
0
 62
     0
100
AcDbLine
 10
541.2116603091939
 20
823.5044273808425
 30
0.0
 11
538.7116603091937
 21
826.0044273808427
 31
0.0
  0
LINE
  5
8AA
330
865
100
AcDbEntity
  8
0
 62
     0
100
AcDbLine
 10
541.2116603091939
 20
825.2721943338089
 30
0.0
 11
538.7116603091937
 21
827.7721943338089
 31
0.0
  0
LINE
  5
8AB
330
865
100
AcDbEntity
  8
0
 62
     0
100
AcDbLine
 10
541.2116603091939
 20
827.0399612867754
 30
0.0
 11
538.7116603091937
 21
829.5399612867752
 31
0.0
  0
LINE
  5
8AC
330
865
100
AcDbEntity
  8
0
 62
     0
100
AcDbLine
 10
541.2116603091939
 20
828.8077282397418
 30
0.0
 11
538.7116603091938
 21
831.3077282397417
 31
0.0
  0
LINE
  5
8AD
330
865
100
AcDbEntity
  8
0
 62
     0
100
AcDbLine
 10
541.2116603091939
 20
830.5754951927081
 30
0.0
 11
538.7116603091938
 21
833.0754951927081
 31
0.0
  0
LINE
  5
8AE
330
865
100
AcDbEntity
  8
0
 62
     0
100
AcDbLine
 10
541.2116603091939
 20
832.3432621456744
 30
0.0
 11
538.7116603091938
 21
834.8432621456744
 31
0.0
  0
LINE
  5
8AF
330
865
100
AcDbEntity
  8
0
 62
     0
100
AcDbLine
 10
541.2116603091939
 20
834.1110290986408
 30
0.0
 11
538.7116603091938
 21
836.6110290986409
 31
0.0
  0
LINE
  5
8B0
330
865
100
AcDbEntity
  8
0
 62
     0
100
AcDbLine
 10
541.2116603091939
 20
835.8787960516071
 30
0.0
 11
538.7116603091938
 21
838.3787960516071
 31
0.0
  0
LINE
  5
8B1
330
865
100
AcDbEntity
  8
0
 62
     0
100
AcDbLine
 10
541.2116603091939
 20
837.6465630045736
 30
0.0
 11
539.2251285017858
 21
839.6330948119816
 31
0.0
  0
LINE
  5
8B2
330
865
100
AcDbEntity
  8
0
 62
     0
100
AcDbLine
 10
541.2116603091939
 20
839.41432995754
 30
0.0
 11
540.9928954547522
 21
839.6330948119816
 31
0.0
  0
ENDBLK
  5
8B3
330
865
100
AcDbEntity
  8
0
100
AcDbBlockEnd
  0
BLOCK
  5
8B5
330
8B4
100
AcDbEntity
  8
0
100
AcDbBlockBegin
  2
*X3
 70
     1
 10
0.0
 20
0.0
 30
0.0
  3
*X3
  1

  0
LINE
  5
8B6
330
8B4
100
AcDbEntity
  8
BEM
 62
     0
100
AcDbLine
 10
219.2448714148057
 20
160.6964299325595
 30
0.0
 11
219.2700807186204
 21
160.7216392363743
 31
0.0
  0
LINE
  5
8B7
330
8B4
100
AcDbEntity
  8
BEM
 62
     0
100
AcDbLine
 10
218.6975790601788
 20
160.4319802904072
 30
0.0
 11
219.1876584331293
 21
160.9220596633577
 31
0.0
  0
LINE
  5
8B8
330
8B4
100
AcDbEntity
  8
BEM
 62
     0
100
AcDbLine
 10
218.1622100876175
 20
160.1794540303206
 30
0.0
 11
219.0860364859946
 21
161.1032804286976
 31
0.0
  0
LINE
  5
8B9
330
8B4
100
AcDbEntity
  8
BEM
 62
     0
100
AcDbLine
 10
217.6378765431165
 20
159.9379631982942
 30
0.0
 11
218.9670712073157
 21
161.2671578624934
 31
0.0
  0
LINE
  5
8BA
330
8B4
100
AcDbEntity
  8
BEM
 62
     0
100
AcDbLine
 10
217.6271461776563
 20
160.2100755453086
 30
0.0
 11
218.8317037658122
 21
161.4146331334645
 31
0.0
  0
LINE
  5
8BB
330
8B4
100
AcDbEntity
  8
BEM
 62
     0
100
AcDbLine
 10
217.6271461776563
 20
160.4929182577832
 30
0.0
 11
218.6801760221332
 21
161.5459481022602
 31
0.0
  0
LINE
  5
8BC
330
8B4
100
AcDbEntity
  8
BEM
 62
     0
100
AcDbLine
 10
217.6271461776563
 20
160.7757609702578
 30
0.0
 11
218.5120814722256
 21
161.6606962648271
 31
0.0
  0
LINE
  5
8BD
330
8B4
100
AcDbEntity
  8
BEM
 62
     0
100
AcDbLine
 10
217.6271461776563
 20
161.0586036827324
 30
0.0
 11
218.326278581718
 21
161.7577360867941
 31
0.0
  0
LINE
  5
8BE
330
8B4
100
AcDbEntity
  8
BEM
 62
     0
100
AcDbLine
 10
217.6271461776563
 20
161.341446395207
 30
0.0
 11
218.1206191772167
 21
161.8349193947675
 31
0.0
  0
LINE
  5
8BF
330
8B4
100
AcDbEntity
  8
BEM
 62
     0
100
AcDbLine
 10
217.6271461776563
 20
161.6242891076817
 30
0.0
 11
217.891316418239
 21
161.8884593482644
 31
0.0
  0
LINE
  5
8C0
330
8B4
100
AcDbEntity
  8
BEM
 62
     0
100
AcDbLine
 10
217.6271461776563
 20
161.9071318201563
 30
0.0
 11
217.6313946756362
 21
161.9113803181362
 31
0.0
  0
ENDBLK
  5
8C1
330
8B4
100
AcDbEntity
  8
0
100
AcDbBlockEnd
  0
BLOCK
  5
8C3
330
8C2
100
AcDbEntity
  8
0
100
AcDbBlockBegin
  2
*X4
 70
     1
 10
0.0
 20
0.0
 30
0.0
  3
*X4
  1

  0
LINE
  5
8C4
330
8C2
100
AcDbEntity
  8
BEM
 62
     0
100
AcDbLine
 10
164.511369055043
 20
159.9858856554491
 30
0.0
 11
164.6271461776563
 21
160.1016627780623
 31
0.0
  0
LINE
  5
8C5
330
8C2
100
AcDbEntity
  8
BEM
 62
     0
100
AcDbLine
 10
164.3175492674802
 20
160.0749085803609
 30
0.0
 11
164.6271461776563
 21
160.384505490537
 31
0.0
  0
LINE
  5
8C6
330
8C2
100
AcDbEntity
  8
BEM
 62
     0
100
AcDbLine
 10
164.1242644945898
 20
160.1644665199451
 30
0.0
 11
164.6271461776563
 21
160.6673482030116
 31
0.0
  0
LINE
  5
8C7
330
8C2
100
AcDbEntity
  8
BEM
 62
     0
100
AcDbLine
 10
163.9315127807039
 20
160.2545575185338
 30
0.0
 11
164.6271461776563
 21
160.9501909154862
 31
0.0
  0
LINE
  5
8C8
330
8C2
100
AcDbEntity
  8
BEM
 62
     0
100
AcDbLine
 10
163.7392921996287
 20
160.3451796499333
 30
0.0
 11
164.6271461776563
 21
161.2330336279608
 31
0.0
  0
LINE
  5
8C9
330
8C2
100
AcDbEntity
  8
BEM
 62
     0
100
AcDbLine
 10
163.5476008542282
 20
160.4363310170074
 30
0.0
 11
164.6271461776563
 21
161.5158763404355
 31
0.0
  0
LINE
  5
8CA
330
8C2
100
AcDbEntity
  8
BEM
 62
     0
100
AcDbLine
 10
163.3564368760146
 20
160.5280097512683
 30
0.0
 11
164.6271461776563
 21
161.79871905291
 31
0.0
  0
LINE
  5
8CB
330
8C2
100
AcDbEntity
  8
BEM
 62
     0
100
AcDbLine
 10
163.16579842475
 20
160.6202140124784
 30
0.0
 11
164.4554970554777
 21
161.9099126432061
 31
0.0
  0
LINE
  5
8CC
330
8C2
100
AcDbEntity
  8
BEM
 62
     0
100
AcDbLine
 10
162.9756836880558
 20
160.7129419882588
 30
0.0
 11
164.1005611324324
 21
161.8378194326354
 31
0.0
  0
LINE
  5
8CD
330
8C2
100
AcDbEntity
  8
BEM
 62
     0
100
AcDbLine
 10
163.3393875981878
 20
161.3594886108655
 30
0.0
 11
163.422718277921
 21
161.4428192905986
 31
0.0
  0
ENDBLK
  5
8CE
330
8C2
100
AcDbEntity
  8
0
100
AcDbBlockEnd
  0
BLOCK
  5
C42
330
C38
100
AcDbEntity
  8
0
100
AcDbBlockBegin
  2
*D5
 70
     1
 10
0.0
 20
0.0
 30
0.0
  3
*D5
  1

  0
LINE
  5
C99
330
C38
100
AcDbEntity
  8
BEM
 62
     0
370
    -2
100
AcDbLine
 10
173.3871840443345
 20
224.3468796743769
 30
0.0
 11
239.0898559940888
 21
224.3468796743768
 31
0.0
  0
LINE
  5
C9A
330
C38
100
AcDbEntity
  8
BEM
 62
     0
370
    -2
100
AcDbLine
 10
189.9370480066455
 20
284.3468796743767
 30
0.0
 11
239.0898559940888
 21
284.3468796743767
 31
0.0
  0
LINE
  5
C9B
330
C38
100
AcDbEntity
  8
BEM
 62
     0
370
    -2
100
AcDbLine
 10
237.0898559940888
 20
231.3468796743768
 30
0.0
 11
237.0898559940888
 21
277.3468796743767
 31
0.0
  0
SOLID
  5
C9C
330
C38
100
AcDbEntity
  8
BEM
 62
     0
100
AcDbTrace
 10
235.9231893274222
 20
231.3468796743768
 30
0.0
 11
238.2565226607554
 21
231.3468796743768
 31
0.0
 12
237.0898559940888
 22
224.3468796743768
 32
0.0
 13
237.0898559940888
 23
224.3468796743768
 33
0.0
  0
SOLID
  5
C9D
330
C38
100
AcDbEntity
  8
BEM
 62
     0
100
AcDbTrace
 10
235.9231893274222
 20
277.3468796743767
 30
0.0
 11
238.2565226607554
 21
277.3468796743767
 31
0.0
 12
237.0898559940888
 22
284.3468796743767
 32
0.0
 13
237.0898559940888
 23
284.3468796743767
 33
0.0
  0
MTEXT
  5
C9E
330
C38
100
AcDbEntity
  8
BEM
 62
     1
100
AcDbMText
 10
230.5898559940888
 20
254.3468796743769
 30
0.0
 40
7.0
 41
0.0
 71
     5
 72
     1
  1
\A1;60
 11
0.0000000000000001
 21
1.0
 31
0.0
 73
     1
 44
1.0
  0
POINT
  5
C9F
330
C38
100
AcDbEntity
  8
DEFPOINTS
 62
     0
100
AcDbPoint
 10
171.3871840443345
 20
224.3468796743769
 30
0.0
  0
POINT
  5
CA0
330
C38
100
AcDbEntity
  8
DEFPOINTS
 62
     0
100
AcDbPoint
 10
187.9370480066455
 20
284.3468796743767
 30
0.0
  0
POINT
  5
CA1
330
C38
100
AcDbEntity
  8
DEFPOINTS
 62
     0
100
AcDbPoint
 10
237.0898559940888
 20
284.3468796743767
 30
0.0
  0
ENDBLK
  5
C43
330
C38
100
AcDbEntity
  8
0
100
AcDbBlockEnd
  0
BLOCK
  5
C4E
330
C44
100
AcDbEntity
  8
0
100
AcDbBlockBegin
  2
*D6
 70
     1
 10
0.0
 20
0.0
 30
0.0
  3
*D6
  1

  0
LINE
  5
CA2
330
C44
100
AcDbEntity
  8
BEM
 62
     0
370
    -2
100
AcDbLine
 10
189.9370480066455
 20
794.3468796743767
 30
0.0
 11
255.6500861146142
 21
794.3468796743767
 31
0.0
  0
LINE
  5
CA3
330
C44
100
AcDbEntity
  8
BEM
 62
     0
370
    -2
100
AcDbLine
 10
173.3871840443345
 20
224.3468796743769
 30
0.0
 11
255.6500861146141
 21
224.3468796743768
 31
0.0
  0
LINE
  5
CA4
330
C44
100
AcDbEntity
  8
BEM
 62
     0
370
    -2
100
AcDbLine
 10
253.6500861146142
 20
787.3468796743767
 30
0.0
 11
253.6500861146141
 21
231.3468796743768
 31
0.0
  0
SOLID
  5
CA5
330
C44
100
AcDbEntity
  8
BEM
 62
     0
100
AcDbTrace
 10
252.4834194479476
 20
787.3468796743767
 30
0.0
 11
254.8167527812809
 21
787.3468796743767
 31
0.0
 12
253.6500861146142
 22
794.3468796743767
 32
0.0
 13
253.6500861146142
 23
794.3468796743767
 33
0.0
  0
SOLID
  5
CA6
330
C44
100
AcDbEntity
  8
BEM
 62
     0
100
AcDbTrace
 10
252.4834194479474
 20
231.3468796743768
 30
0.0
 11
254.8167527812807
 21
231.3468796743768
 31
0.0
 12
253.6500861146141
 22
224.3468796743768
 32
0.0
 13
253.6500861146141
 23
224.3468796743768
 33
0.0
  0
MTEXT
  5
CA7
330
C44
100
AcDbEntity
  8
BEM
 62
     1
100
AcDbMText
 10
247.1500861146141
 20
509.3468796743768
 30
0.0
 40
7.0
 41
0.0
 71
     5
 72
     1
  1
\A1;570
 11
0.0000000000000001
 21
1.0
 31
0.0
 73
     1
 44
1.0
  0
POINT
  5
CA8
330
C44
100
AcDbEntity
  8
DEFPOINTS
 62
     0
100
AcDbPoint
 10
187.9370480066455
 20
794.3468796743767
 30
0.0
  0
POINT
  5
CA9
330
C44
100
AcDbEntity
  8
DEFPOINTS
 62
     0
100
AcDbPoint
 10
171.3871840443345
 20
224.3468796743769
 30
0.0
  0
POINT
  5
CAA
330
C44
100
AcDbEntity
  8
DEFPOINTS
 62
     0
100
AcDbPoint
 10
253.6500861146141
 20
224.3468796743768
 30
0.0
  0
ENDBLK
  5
C4F
330
C44
100
AcDbEntity
  8
0
100
AcDbBlockEnd
  0
BLOCK
  5
C5A
330
C50
100
AcDbEntity
  8
0
100
AcDbBlockBegin
  2
*D7
 70
     1
 10
0.0
 20
0.0
 30
0.0
  3
*D7
  1

  0
LINE
  5
CAB
330
C50
100
AcDbEntity
  8
BEM
 62
     0
370
    -2
100
AcDbLine
 10
189.9370480066455
 20
794.3468796743767
 30
0.0
 11
239.0898559940889
 21
794.3468796743767
 31
0.0
  0
LINE
  5
CAC
330
C50
100
AcDbEntity
  8
BEM
 62
     0
370
    -2
100
AcDbLine
 10
189.9370480066455
 20
284.3468796743767
 30
0.0
 11
239.0898559940888
 21
284.3468796743767
 31
0.0
  0
LINE
  5
CAD
330
C50
100
AcDbEntity
  8
BEM
 62
     0
370
    -2
100
AcDbLine
 10
237.0898559940889
 20
787.3468796743767
 30
0.0
 11
237.0898559940888
 21
291.3468796743767
 31
0.0
  0
SOLID
  5
CAE
330
C50
100
AcDbEntity
  8
BEM
 62
     0
100
AcDbTrace
 10
235.9231893274222
 20
787.3468796743767
 30
0.0
 11
238.2565226607556
 21
787.3468796743767
 31
0.0
 12
237.0898559940889
 22
794.3468796743767
 32
0.0
 13
237.0898559940889
 23
794.3468796743767
 33
0.0
  0
SOLID
  5
CAF
330
C50
100
AcDbEntity
  8
BEM
 62
     0
100
AcDbTrace
 10
235.9231893274222
 20
291.3468796743767
 30
0.0
 11
238.2565226607554
 21
291.3468796743767
 31
0.0
 12
237.0898559940888
 22
284.3468796743767
 32
0.0
 13
237.0898559940888
 23
284.3468796743767
 33
0.0
  0
MTEXT
  5
CB0
330
C50
100
AcDbEntity
  8
BEM
 62
     1
100
AcDbMText
 10
230.5898559940888
 20
539.3468796743767
 30
0.0
 40
7.0
 41
0.0
 71
     5
 72
     1
  1
\A1;510
 11
0.0000000000000001
 21
1.0
 31
0.0
 73
     1
 44
1.0
  0
POINT
  5
CB1
330
C50
100
AcDbEntity
  8
DEFPOINTS
 62
     0
100
AcDbPoint
 10
187.9370480066455
 20
794.3468796743767
 30
0.0
  0
POINT
  5
CB2
330
C50
100
AcDbEntity
  8
DEFPOINTS
 62
     0
100
AcDbPoint
 10
187.9370480066455
 20
284.3468796743767
 30
0.0
  0
POINT
  5
CB3
330
C50
100
AcDbEntity
  8
DEFPOINTS
 62
     0
100
AcDbPoint
 10
237.0898559940888
 20
284.3468796743767
 30
0.0
  0
ENDBLK
  5
C5B
330
C50
100
AcDbEntity
  8
0
100
AcDbBlockEnd
  0
BLOCK
  5
C66
330
C5C
100
AcDbEntity
  8
0
100
AcDbBlockBegin
  2
*D8
 70
     1
 10
0.0
 20
0.0
 30
0.0
  3
*D8
  1

  0
LINE
  5
CB4
330
C5C
100
AcDbEntity
  8
BEM
 62
     0
370
    -2
100
AcDbLine
 10
208.5956244358342
 20
584.3468796743767
 30
0.0
 11
222.5296231971753
 21
584.3468796743767
 31
0.0
  0
LINE
  5
CB5
330
C5C
100
AcDbEntity
  8
BEM
 62
     0
370
    -2
100
AcDbLine
 10
189.9370480066455
 20
284.3468796743767
 30
0.0
 11
222.5296231971752
 21
284.3468796743767
 31
0.0
  0
LINE
  5
CB6
330
C5C
100
AcDbEntity
  8
BEM
 62
     0
370
    -2
100
AcDbLine
 10
220.5296231971753
 20
577.3468796743767
 30
0.0
 11
220.5296231971752
 21
291.3468796743767
 31
0.0
  0
SOLID
  5
CB7
330
C5C
100
AcDbEntity
  8
BEM
 62
     0
100
AcDbTrace
 10
219.3629565305087
 20
577.3468796743767
 30
0.0
 11
221.696289863842
 21
577.3468796743767
 31
0.0
 12
220.5296231971753
 22
584.3468796743767
 32
0.0
 13
220.5296231971753
 23
584.3468796743767
 33
0.0
  0
SOLID
  5
CB8
330
C5C
100
AcDbEntity
  8
BEM
 62
     0
100
AcDbTrace
 10
219.3629565305086
 20
291.3468796743767
 30
0.0
 11
221.6962898638419
 21
291.3468796743767
 31
0.0
 12
220.5296231971752
 22
284.3468796743767
 32
0.0
 13
220.5296231971752
 23
284.3468796743767
 33
0.0
  0
MTEXT
  5
CB9
330
C5C
100
AcDbEntity
  8
BEM
 62
     1
100
AcDbMText
 10
214.0296231971752
 20
434.3468796743767
 30
0.0
 40
7.0
 41
0.0
 71
     5
 72
     1
  1
\A1;300
 11
0.0000000000000001
 21
1.0
 31
0.0
 73
     1
 44
1.0
  0
POINT
  5
CBA
330
C5C
100
AcDbEntity
  8
DEFPOINTS
 62
     0
100
AcDbPoint
 10
206.5956244358342
 20
584.3468796743767
 30
0.0
  0
POINT
  5
CBB
330
C5C
100
AcDbEntity
  8
DEFPOINTS
 62
     0
100
AcDbPoint
 10
187.9370480066455
 20
284.3468796743767
 30
0.0
  0
POINT
  5
CBC
330
C5C
100
AcDbEntity
  8
DEFPOINTS
 62
     0
100
AcDbPoint
 10
220.5296231971752
 20
284.3468796743767
 30
0.0
  0
ENDBLK
  5
C67
330
C5C
100
AcDbEntity
  8
0
100
AcDbBlockEnd
  0
BLOCK
  5
C7E
330
C74
100
AcDbEntity
  8
0
100
AcDbBlockBegin
  2
*D9
 70
     1
 10
0.0
 20
0.0
 30
0.0
  3
*D9
  1

  0
LINE
  5
CC6
330
C74
100
AcDbEntity
  8
BEM
 62
     0
370
    -2
100
AcDbLine
 10
306.935259188186
 20
234.3468796743749
 30
0.0
 11
306.935259188186
 21
202.4235854611593
 31
0.0
  0
LINE
  5
CC7
330
C74
100
AcDbEntity
  8
BEM
 62
     0
370
    -2
100
AcDbLine
 10
408.935259188186
 20
234.3468796743763
 30
0.0
 11
408.935259188186
 21
202.4235854611593
 31
0.0
  0
LINE
  5
CC8
330
C74
100
AcDbEntity
  8
BEM
 62
     0
370
    -2
100
AcDbLine
 10
313.935259188186
 20
204.4235854611593
 30
0.0
 11
401.935259188186
 21
204.4235854611593
 31
0.0
  0
SOLID
  5
CC9
330
C74
100
AcDbEntity
  8
BEM
 62
     0
100
AcDbTrace
 10
313.935259188186
 20
205.5902521278259
 30
0.0
 11
313.935259188186
 21
203.2569187944926
 31
0.0
 12
306.935259188186
 22
204.4235854611593
 32
0.0
 13
306.935259188186
 23
204.4235854611593
 33
0.0
  0
SOLID
  5
CCA
330
C74
100
AcDbEntity
  8
BEM
 62
     0
100
AcDbTrace
 10
401.935259188186
 20
205.5902521278259
 30
0.0
 11
401.935259188186
 21
203.2569187944926
 31
0.0
 12
408.935259188186
 22
204.4235854611593
 32
0.0
 13
408.935259188186
 23
204.4235854611593
 33
0.0
  0
MTEXT
  5
CCB
330
C74
100
AcDbEntity
  8
BEM
 62
     1
100
AcDbMText
 10
357.935259188186
 20
210.9235854611593
 30
0.0
 40
7.0
 41
0.0
 71
     5
 72
     1
  1
\A1;%%c102
 73
     1
 44
1.0
  0
POINT
  5
CCC
330
C74
100
AcDbEntity
  8
DEFPOINTS
 62
     0
100
AcDbPoint
 10
306.935259188186
 20
236.3468796743749
 30
0.0
  0
POINT
  5
CCD
330
C74
100
AcDbEntity
  8
DEFPOINTS
 62
     0
100
AcDbPoint
 10
408.935259188186
 20
236.3468796743763
 30
0.0
  0
POINT
  5
CCE
330
C74
100
AcDbEntity
  8
DEFPOINTS
 62
     0
100
AcDbPoint
 10
408.935259188186
 20
204.4235854611593
 30
0.0
  0
ENDBLK
  5
C7F
330
C74
100
AcDbEntity
  8
0
100
AcDbBlockEnd
  0
BLOCK
  5
C8A
330
C80
100
AcDbEntity
  8
0
100
AcDbBlockBegin
  2
*D10
 70
     1
 10
0.0
 20
0.0
 30
0.0
  3
*D10
  1

  0
LINE
  5
CCF
330
C80
100
AcDbEntity
  8
BEM
 62
     0
370
    -2
100
AcDbLine
 10
291.435259188186
 20
796.3468796743767
 30
0.0
 11
291.435259188186
 21
806.935999585524
 31
0.0
  0
LINE
  5
CD0
330
C80
100
AcDbEntity
  8
BEM
 62
     0
370
    -2
100
AcDbLine
 10
424.435259188186
 20
796.3468796743767
 30
0.0
 11
424.435259188186
 21
806.935999585524
 31
0.0
  0
LINE
  5
CD1
330
C80
100
AcDbEntity
  8
BEM
 62
     0
370
    -2
100
AcDbLine
 10
298.435259188186
 20
804.9359995855239
 30
0.0
 11
417.435259188186
 21
804.9359995855239
 31
0.0
  0
SOLID
  5
CD2
330
C80
100
AcDbEntity
  8
BEM
 62
     0
100
AcDbTrace
 10
298.435259188186
 20
806.1026662521905
 30
0.0
 11
298.435259188186
 21
803.7693329188574
 31
0.0
 12
291.435259188186
 22
804.9359995855239
 32
0.0
 13
291.435259188186
 23
804.9359995855239
 33
0.0
  0
SOLID
  5
CD3
330
C80
100
AcDbEntity
  8
BEM
 62
     0
100
AcDbTrace
 10
417.435259188186
 20
806.1026662521905
 30
0.0
 11
417.435259188186
 21
803.7693329188574
 31
0.0
 12
424.435259188186
 22
804.9359995855239
 32
0.0
 13
424.435259188186
 23
804.9359995855239
 33
0.0
  0
MTEXT
  5
CD4
330
C80
100
AcDbEntity
  8
BEM
 62
     1
100
AcDbMText
 10
357.935259188186
 20
810.435999585524
 30
0.0
 40
7.0
 41
0.0
 71
     5
 72
     1
  1
\A1;%%c133
 73
     1
 44
1.0
  0
POINT
  5
CD5
330
C80
100
AcDbEntity
  8
DEFPOINTS
 62
     0
100
AcDbPoint
 10
291.435259188186
 20
794.3468796743767
 30
0.0
  0
POINT
  5
CD6
330
C80
100
AcDbEntity
  8
DEFPOINTS
 62
     0
100
AcDbPoint
 10
424.435259188186
 20
794.3468796743767
 30
0.0
  0
POINT
  5
CD7
330
C80
100
AcDbEntity
  8
DEFPOINTS
 62
     0
100
AcDbPoint
 10
424.435259188186
 20
804.9359995855239
 30
0.0
  0
ENDBLK
  5
C8B
330
C80
100
AcDbEntity
  8
0
100
AcDbBlockEnd
  0
ENDSEC
  0
SECTION
  2
ENTITIES
  0
CIRCLE
  5
AB6
330
1E
100
AcDbEntity
  8
VERDECKT
100
AcDbCircle
 10
121.4370480066455
 20
584.3468796743767
 30
0.0
 40
35.0
  0
HATCH
  5
ABB
330
1E
100
AcDbEntity
  8
SCHRAFF
100
AcDbHatch
 10
0.0
 20
0.0
 30
0.0
210
0.0
220
0.0
230
1.0
  2
HONEY
 70
     0
 71
     1
 91
        6
 92
        7
 72
     1
 73
     1
 93
        4
 10
122.4370480066455
 20
183.0338298603802
 42
0.0
 10
122.4370480066455
 20
170.0318379732035
 42
-0.4084817829900127
 10
172.4370480066455
 20
119.0416428372757
 42
0.0
 10
185.4370480066454
 20
119.0416428372757
 42
0.4096442898328564
 97
        4
330
ABE
330
BA4
330
BA6
330
BA3
 92
        7
 72
     1
 73
     1
 93
        4
 10
120.4370480066455
 20
183.0338298603802
 42
0.4096442898328567
 10
57.43704800664568
 20
119.0416428372757
 42
0.0
 10
70.4370480066456
 20
119.0416428372757
 42
-0.4084817829900128
 10
120.4370480066455
 20
170.0318379732035
 42
0.0
 97
        4
330
BA3
330
BA6
330
BA4
330
ABD
 92
        7
 72
     1
 73
     1
 93
       10
 10
185.4370480066454
 20
119.0416428372757
 42
0.0
 10
172.4370480066455
 20
119.0416428372757
 42
-0.253441496196998
 10
149.2981591177566
 20
76.32445089241208
 42
0.253441496196998
 10
147.9370480066456
 20
73.8116748956554
 42
0.0
 10
147.9370480066456
 20
66.00772168528604
 42
0.0
 10
151.4370480066455
 20
66.00772168528604
 42
0.0
 10
151.4370480066455
 20
63.50772168528616
 42
0.0
 10
151.4370480066455
 20
63.00772168528616
 42
0.0
 10
147.9370480066456
 20
63.00772168528617
 42
0.0
 10
147.9370480066456
 20
60.78574184862061
 42
0.2940301683759967
 97
       10
330
BA6
330
BA4
330
B9E
330
B9F
330
B55
330
B59
330
B97
330
B56
330
B24
330
BA3
 92
        7
 72
     1
 73
     1
 93
        9
 10
70.43704800664558
 20
119.0416428372757
 42
0.0
 10
57.43704800664568
 20
119.0416428372757
 42
0.2940301683759964
 10
94.93704800664557
 20
60.78574184862061
 42
0.0
 10
94.93704800664556
 20
63.00772168528616
 42
0.0
 10
91.43704800664556
 20
63.00772168528616
 42
0.0
 10
91.43704800664556
 20
66.00772168528603
 42
0.0
 10
94.93704800664557
 20
66.00772168528603
 42
0.0
 10
94.93704800664557
 20
73.8116748956555
 42
0.2534414961969928
 10
93.57593689553445
 20
76.32445089241212
 42
-0.2534414961969975
 97
        9
330
BA6
330
BA3
330
B25
330
B56
330
B57
330
B55
330
BA0
330
B9D
330
BA4
 92
        7
 72
     1
 73
     1
 93
        5
 10
113.9370480066456
 20
61.00772168528617
 42
0.0
 10
94.93704800664557
 20
61.00772168528617
 42
0.0
 10
94.93704800664557
 20
60.78574184862061
 42
0.0647495248752156
 10
110.718166600088
 20
55.94563994175038
 42
-0.3729616896104432
 10
113.9370480066455
 20
58.73462829441911
 42
0.0
 97
        5
330
BA1
330
B25
330
BA3
330
B5D
330
B8C
 92
        7
 72
     1
 73
     1
 93
        5
 10
147.9370480066456
 20
60.78574184862061
 42
0.0
 10
147.9370480066456
 20
61.00772168528616
 42
0.0
 10
128.9370480066455
 20
61.00772168528616
 42
0.0
 10
128.9370480066455
 20
58.73462829441911
 42
-0.3729616896104432
 10
132.1559294132031
 20
55.94563994175038
 42
0.0647495248752156
 97
        5
330
B24
330
BA1
330
B8D
330
B5A
330
BA3
 75
     0
 76
     1
 52
0.0
 41
25.0
 77
     0
 78
     3
 53
0.0
 43
0.0
 44
0.0
 45
4.6875
 46
2.706329374999999
 79
     2
 49
3.125
 49
-6.25
 53
120.0
 43
0.0
 44
0.0
 45
-4.687499989758061
 46
2.706329392739557
 79
     2
 49
3.125
 49
-6.25
 53
60.0
 43
0.0
 44
0.0
 45
0.0000000102419385
 46
5.412658767739556
 79
     2
 49
-6.25
 49
3.125
 47
0.3434888336156824
 98
        6
 10
158.6628905631314
 20
163.2976430302365
 10
112.2666868318524
 20
173.6023077105165
 10
169.6605111754106
 20
91.16498635624543
 10
77.555452650613
 20
87.0431204841334
 10
106.0805261414862
 20
58.87703572069108
 10
133.918250694599
 20
58.53354755002055
  0
HATCH
  5
ABC
330
1E
100
AcDbEntity
  8
SCHRAFF
100
AcDbHatch
 10
0.0
 20
0.0
 30
0.0
210
0.0
220
0.0
230
1.0
  2
_USER
 70
     0
 71
     1
 91
        2
 92
        7
 72
     1
 73
     1
 93
        4
 10
122.4370480066455
 20
183.0338298603802
 42
0.0039064288339461
 10
121.4370480066455
 20
183.0416428372756
 42
0.0
 10
121.4370480066455
 20
170.0416428372756
 42
-0.0049023142174725
 10
122.4370480066455
 20
170.0318379732035
 42
0.0
 97
        4
330
BA3
330
BA7
330
BA4
330
ABE
 92
        7
 72
     1
 73
     1
 93
        4
 10
121.4370480066455
 20
183.0416428372756
 42
0.0039064288339461
 10
120.4370480066455
 20
183.0338298603802
 42
0.0
 10
120.4370480066455
 20
170.0318379732035
 42
-0.0049023142174727
 10
121.4370480066455
 20
170.0416428372756
 42
0.0
 97
        4
330
BA3
330
ABD
330
BA4
330
BA7
 75
     0
 76
     0
 52
45.0
 41
1.0
 77
     0
 78
     1
 53
45.0
 43
0.0
 44
0.0
 45
-0.7071067811865475
 46
0.7071067811865476
 79
     0
 47
0.0445695508012697
 98
        2
 10
121.979492948365
 20
180.2454666538524
 10
120.998430467645
 20
180.4237438331029
  0
LINE
  5
ABD
102
{ACAD_REACTORS
330
ABC
330
ABB
102
}
330
1E
100
AcDbEntity
  8
STEMPEL
100
AcDbLine
 10
120.4370480066455
 20
183.0338298603802
 30
0.0
 11
120.4370480066455
 21
170.0318379732035
 31
0.0
  0
LINE
  5
ABE
102
{ACAD_REACTORS
330
ABC
330
ABB
102
}
330
1E
100
AcDbEntity
  8
STEMPEL
100
AcDbLine
 10
122.4370480066455
 20
183.0338298603802
 30
0.0
 11
122.4370480066455
 21
170.0318379732035
 31
0.0
  0
HATCH
  5
AC3
330
1E
100
AcDbEntity
  8
SCHRAFF
100
AcDbHatch
 10
0.0
 20
0.0
 30
0.0
210
0.0
220
0.0
230
1.0
  2
HONEY
 70
     0
 71
     1
 91
        6
 92
        7
 72
     1
 73
     1
 93
       12
 10
421.9352591881859
 20
780.3468796743765
 42
0.0
 10
416.9352591881859
 20
780.3468796743766
 42
0.0
 10
416.9352591881859
 20
763.5800802050582
 42
-0.1178625008509511
 10
414.2325564854826
 20
752.273863630272
 42
0.1178625008509075
 10
412.9352591881859
 20
746.8468796743763
 42
0.0
 10
412.9352591881859
 20
731.2743685513241
 42
-0.1507946423586957
 10
410.3265635360124
 20
722.8212285099228
 42
0.1507946423587177
 10
408.935259188186
 20
718.3128871545084
 42
0.0
 10
408.9352591881858
 20
626.8468796743767
 42
0.0
 10
413.935259188186
 20
626.8468796743767
 42
0.0
 10
413.935259188186
 20
661.8468796743769
 42
0.0
 10
421.935259188186
 20
661.8468796743769
 42
0.0
 97
       12
330
B40
330
AF2
330
AE8
330
AEB
330
AF4
330
AEC
330
AEF
330
B91
330
B4A
330
B77
330
B7D
330
B50
 92
        7
 72
     1
 73
     1
 93
       10
 10
306.935259188186
 20
718.3128871545084
 42
0.1507946423586998
 10
305.54395484036
 20
722.8212285099224
 42
-0.1507946423587052
 10
302.935259188186
 20
731.2743685513241
 42
0.0
 10
302.935259188186
 20
746.8468796743766
 42
0.1178625008509352
 10
301.6379618908887
 20
752.2738636302733
 42
-0.1178625008509355
 10
298.935259188186
 20
763.5800802050582
 42
0.0
 10
298.935259188186
 20
780.3468796743765
 42
0.0
 10
293.935259188186
 20
780.3468796743765
 42
0.0
 10
293.935259188186
 20
594.3468796743766
 42
0.0
 10
306.935259188186
 20
594.3468796743767
 42
0.0
 97
       10
330
ADC
330
ADF
330
AD7
330
AE0
330
AE3
330
AD9
330
B41
330
BB3
330
AC9
330
B1D
 92
        7
 72
     0
 73
     1
 93
        5
 10
293.935259188186
 20
300.3468796743768
 10
295.4352591881861
 20
301.846879674377
 10
306.9352591881861
 20
301.8468796743769
 10
306.9352591881861
 20
574.3468796743767
 10
293.935259188186
 20
574.3468796743768
 97
        5
330
AC8
330
BB3
330
B45
330
B39
330
B1D
 92
        7
 72
     0
 73
     1
 93
        7
 10
421.935259188186
 20
506.8468796743768
 10
413.9352591881859
 20
506.8468796743767
 10
413.935259188186
 20
541.8468796743765
 10
408.9352591881859
 20
541.8468796743765
 10
408.935259188186
 20
301.8468796743769
 10
420.4352591881859
 20
301.846879674377
 10
421.935259188186
 20
300.3468796743768
 97
        7
330
B7A
330
B76
330
BC5
330
B51
330
B38
330
B43
330
BC6
 92
        7
 72
     1
 73
     1
 93
       13
 10
414.9352591881861
 20
549.3468796743767
 42
0.0
 10
413.435259188186
 20
549.3468796743766
 42
0.0
 10
413.435259188186
 20
554.3468796743767
 42
0.0
 10
410.9352591881857
 20
554.3468796743768
 42
0.0
 10
410.9352591881857
 20
557.8468796743769
 42
0.0
 10
409.935259188186
 20
557.8468796743769
 42
0.4142135623731022
 10
408.935259188186
 20
556.8468796743769
 42
0.0
 10
408.935259188186
 20
541.8468796743765
 42
0.0
 10
413.935259188186
 20
541.8468796743765
 42
0.0
 10
413.935259188186
 20
546.8468796743767
 42
0.0
 10
421.935259188186
 20
546.8468796743768
 42
0.0
 10
421.9352591881861
 20
584.3468796743767
 42
0.0
 10
414.9352591881859
 20
584.3468796743767
 42
0.0
 97
       13
330
BCB
330
BB4
330
B79
330
BB5
330
BB6
330
BC7
330
B6F
330
B71
330
B51
330
BC5
330
B76
330
B7B
330
B4C
 92
        7
 72
     1
 73
     1
 93
       13
 10
414.9352591881859
 20
584.3468796743767
 42
0.0
 10
421.935259188186
 20
584.3468796743767
 42
0.0
 10
421.935259188186
 20
621.846879674377
 42
0.0
 10
413.935259188186
 20
621.846879674377
 42
0.0
 10
413.935259188186
 20
626.8468796743768
 42
0.0
 10
408.9352591881858
 20
626.8468796743767
 42
0.0
 10
408.9352591881859
 20
611.8468796743767
 42
0.4142135623731022
 10
409.9352591881859
 20
610.8468796743767
 42
0.0
 10
410.9352591881861
 20
610.8468796743767
 42
0.0
 10
410.9352591881859
 20
614.3468796743767
 42
0.0
 10
413.435259188186
 20
614.3468796743767
 42
0.0
 10
413.435259188186
 20
619.3468796743766
 42
0.0
 10
414.9352591881861
 20
619.3468796743768
 42
0.0
 97
       13
330
B7C
330
B77
330
B4A
330
B91
330
B74
330
B94
330
B53
330
BB7
330
B4F
330
B78
330
BB4
330
BCB
330
B4C
 75
     0
 76
     1
 52
0.0
 41
30.0
 77
     0
 78
     3
 53
0.0
 43
0.0
 44
0.0
 45
5.625
 46
3.247595249999999
 79
     2
 49
3.75
 49
-7.5
 53
120.0
 43
0.0
 44
0.0
 45
-5.624999987709673
 46
3.247595271287468
 79
     2
 49
3.75
 49
-7.5
 53
60.0
 43
0.0
 44
0.0
 45
0.0000000122903263
 46
6.495190521287468
 79
     2
 49
-7.5
 49
3.75
 47
1.42128465013752
 98
        6
 10
416.4298304629974
 20
699.9610409309146
 10
301.2435046731157
 20
694.2759009515569
 10
299.8214502742735
 20
566.3602820406006
 10
416.4298304629974
 20
483.9257730856054
 10
417.85188486184
 20
569.2028530181694
 10
417.85188486184
 20
599.0498305006219
  0
HATCH
  5
AC7
330
1E
100
AcDbEntity
  8
SCHRAFF
100
AcDbHatch
 10
0.0
 20
0.0
 30
0.0
210
0.0
220
0.0
230
1.0
  2
_USER
 70
     0
 71
     1
 91
        2
 92
        7
 72
     0
 73
     1
 93
        4
 10
306.935259188186
 20
584.3468796743767
 10
306.935259188186
 20
594.3468796743767
 10
293.935259188186
 20
594.3468796743767
 10
293.9352591881861
 20
584.3468796743768
 97
        4
330
AC9
330
BB3
330
BCB
330
B1D
 92
        7
 72
     0
 73
     1
 93
        4
 10
293.935259188186
 20
584.3468796743767
 10
293.935259188186
 20
574.3468796743767
 10
306.935259188186
 20
574.3468796743767
 10
306.935259188186
 20
584.3468796743767
 97
        4
330
BCB
330
BB3
330
AC8
330
B1D
 75
     0
 76
     0
 52
45.0
 41
1.0
 77
     0
 78
     1
 53
45.0
 43
15.77359485135866
 44
0.0
 45
-0.7071067811865475
 46
0.7071067811865476
 79
     0
 47
0.1762677719267744
 98
        2
 10
299.4628852873657
 20
585.7521906532968
 10
299.4628852873657
 20
582.4031027011066
  0
LINE
  5
AC8
102
{ACAD_REACTORS
330
AC7
330
AC3
102
}
330
1E
100
AcDbEntity
  8
STEMPEL
100
AcDbLine
 10
306.935259188186
 20
574.3468796743767
 30
0.0
 11
293.935259188186
 21
574.3468796743767
 31
0.0
  0
LINE
  5
AC9
102
{ACAD_REACTORS
330
AC7
330
AC3
102
}
330
1E
100
AcDbEntity
  8
STEMPEL
100
AcDbLine
 10
306.935259188186
 20
594.3468796743767
 30
0.0
 11
293.935259188186
 21
594.3468796743767
 31
0.0
  0
LINE
  5
ACA
330
1E
100
AcDbEntity
  8
STEMPEL
100
AcDbLine
 10
54.93704800664556
 20
282.3468796743767
 30
0.0
 11
187.9370480066456
 21
282.3468796743758
 31
0.0
  0
LINE
  5
ACB
330
1E
100
AcDbEntity
  8
STEMPEL
100
AcDbLine
 10
301.935259188186
 20
290.3468796743768
 30
0.0
 11
297.3164570346689
 21
282.3468796743767
 31
0.0
  0
LINE
  5
ACC
330
1E
100
AcDbEntity
  8
STEMPEL
100
AcDbLine
 10
291.435259188186
 20
282.3468796743767
 30
0.0
 11
306.9352591881862
 21
282.3468796743766
 31
0.0
  0
LINE
  5
ACD
330
1E
100
AcDbEntity
  8
STEMPEL
100
AcDbLine
 10
413.935259188186
 20
290.3468796743768
 30
0.0
 11
418.5540613417031
 21
282.3468796743764
 31
0.0
  0
LINE
  5
ACE
330
1E
100
AcDbEntity
  8
STEMPEL
100
AcDbLine
 10
408.935259188186
 20
282.3468796743764
 30
0.0
 11
424.4352591881861
 21
282.3468796743763
 31
0.0
  0
HATCH
  5
ACF
330
1E
100
AcDbEntity
  8
SCHRAFF
100
AcDbHatch
 10
0.0
 20
0.0
 30
0.0
210
0.0
220
0.0
230
1.0
  2
NET
 70
     0
 71
     0
 91
        2
 92
        7
 72
     0
 73
     1
 93
        9
 10
421.9352591881861
 20
300.3468796743766
 10
420.4352591881858
 20
301.8468796743768
 10
408.935259188186
 20
301.8468796743768
 10
408.935259188186
 20
290.3468796743768
 10
413.935259188186
 20
290.3468796743768
 10
418.5540613417031
 20
282.3468796743764
 10
424.4352591881861
 20
282.3468796743763
 10
424.4352591881861
 20
284.3468796743767
 10
421.9352591881862
 20
284.3468796743767
 97
        0
 92
        7
 72
     0
 73
     1
 93
        9
 10
306.9352591881862
 20
301.8468796743767
 10
295.4352591881861
 20
301.8468796743768
 10
293.935259188186
 20
300.3468796743768
 10
293.935259188186
 20
284.3468796743766
 10
291.435259188186
 20
284.3468796743767
 10
291.435259188186
 20
282.3468796743767
 10
297.3164570346689
 20
282.3468796743767
 10
301.935259188186
 20
290.3468796743768
 10
306.9352591881862
 20
290.3468796743767
 97
        0
 75
     0
 76
     1
 52
45.0
 41
20.0
 77
     0
 78
     2
 53
45.0
 43
132.9352591881863
 44
-27.52811438480893
 45
-1.767766952966368
 46
1.767766952966368
 79
     0
 53
135.0
 43
132.9352591881863
 44
-27.52811438480893
 45
-1.767766952966368
 46
-1.767766952966368
 79
     0
 47
0.1961114262777251
 98
        2
 10
417.716624588416
 20
295.5447900639309
 10
305.2769879433542
 20
296.7214586026196
  0
ARC
  5
AD0
330
1E
100
AcDbEntity
  8
HILF
100
AcDbCircle
 10
445.5741381009443
 20
584.3468796743767
 30
0.0
 40
45.49626390134743
100
AcDbArc
 50
148.6493045153584
 51
211.3506954846413
  0
HATCH
  5
AD1
330
1E
100
AcDbEntity
  8
SCHRAFF
100
AcDbHatch
 10
0.0
 20
0.0
 30
0.0
210
0.0
220
0.0
230
1.0
  2
_USER
 70
     0
 71
     1
 91
        2
 92
        7
 72
     0
 73
     1
 93
        4
 10
121.4370480066455
 20
63.00772168528615
 10
121.4370480066455
 20
61.00772168528616
 10
147.9370480066456
 20
61.00772168528616
 10
147.9370480066456
 20
63.00772168528616
 97
        4
330
B56
330
BA7
330
BA1
330
B24
 92
        7
 72
     0
 73
     1
 93
        4
 10
121.4370480066455
 20
61.00772168528616
 10
121.4370480066455
 20
63.00772168528617
 10
94.93704800664557
 20
63.00772168528617
 10
94.93704800664557
 20
61.00772168528616
 97
        4
330
B56
330
B25
330
BA1
330
BA7
 75
     0
 76
     0
 52
45.0
 41
1.0
 77
     0
 78
     1
 53
45.0
 43
0.0
 44
0.0
 45
-0.7071067811865475
 46
0.7071067811865476
 79
     0
 47
0.0889340440461245
 98
        2
 10
135.8825684223879
 20
62.35174036126068
 10
118.7061594381421
 20
61.99600500914335
  0
HATCH
  5
AD2
330
1E
100
AcDbEntity
  8
SCHRAFF
100
AcDbHatch
 10
0.0
 20
0.0
 30
0.0
210
0.0
220
0.0
230
1.0
  2
NET
 70
     0
 71
     1
 91
        2
 92
        7
 72
     0
 73
     1
 93
        4
 10
121.4370480066455
 20
66.00772168528604
 10
121.4370480066456
 20
63.00772168528617
 10
151.4370480066455
 20
63.00772168528617
 10
151.4370480066455
 20
66.00772168528604
 97
        4
330
B55
330
BA7
330
B56
330
B97
 92
        7
 72
     0
 73
     1
 93
        4
 10
121.4370480066455
 20
63.00772168528616
 10
121.4370480066455
 20
66.00772168528606
 10
91.43704800664556
 20
66.00772168528603
 10
91.43704800664558
 20
63.00772168528616
 97
        4
330
B55
330
B57
330
B56
330
BA7
 75
     0
 76
     1
 52
45.0
 41
10.0
 77
     0
 78
     2
 53
45.0
 43
0.0
 44
0.0
 45
-0.8838834764831842
 46
0.8838834764831844
 79
     0
 53
135.0
 43
0.0
 44
0.0
 45
-0.8838834764831844
 46
-0.8838834764831842
 79
     0
 47
0.0889340440461245
 98
        2
 10
137.9294987405838
 20
64.84189376334916
 10
118.7951574023709
 20
64.04148674722387
  0
HATCH
  5
AD3
330
1E
100
AcDbEntity
  8
SCHRAFF
100
AcDbHatch
 10
0.0
 20
0.0
 30
0.0
210
0.0
220
0.0
230
1.0
  2
_USER
 70
     0
 71
     1
 91
        2
 92
        7
 72
     1
 73
     1
 93
        4
 10
121.4370480066455
 20
55.04164283727582
 42
0.0
 10
121.4370480066455
 20
52.54164283727582
 42
0.2194068785195923
 10
172.0040447190476
 20
75.85334762331865
 42
0.0
 10
170.1030298050476
 20
77.47696774414416
 42
-0.2194068785195926
 97
        4
330
B20
330
BA3
330
BA7
330
BA2
 92
        7
 72
     1
 73
     1
 93
        4
 10
121.4370480066455
 20
52.54164283727582
 42
0.0
 10
121.4370480066455
 20
55.04164283727582
 42
-0.2194068785195923
 10
72.77106620824361
 20
77.47696774414411
 42
0.0
 10
70.87005129424354
 20
75.85334762331865
 42
0.2194068785195923
 97
        4
330
BA3
330
B21
330
BA2
330
BA7
 75
     0
 76
     0
 52
45.0
 41
2.0
 77
     0
 78
     1
 53
45.0
 43
0.0
 44
0.0
 45
-1.414213562373094
 46
1.414213562373095
 79
     0
 47
0.3260914978319623
 98
        2
 10
138.9529638996814
 20
56.36351507684389
 10
116.7630588082652
 20
53.42869198983658
  0
HATCH
  5
AD4
330
1E
100
AcDbEntity
  8
SCHRAFF
100
AcDbHatch
 10
0.0
 20
0.0
 30
0.0
210
0.0
220
0.0
230
1.0
  2
_USER
 70
     0
 71
     1
 91
        4
 92
        7
 72
     1
 73
     1
 93
        4
 10
121.4370480066455
 20
170.0416428372756
 42
0.0
 10
121.4370480066455
 20
168.0416428372757
 42
-0.4142135623730949
 10
170.4370480066455
 20
119.0416428372757
 42
0.0
 10
172.4370480066455
 20
119.0416428372757
 42
0.4142135623730948
 97
        4
330
BA7
330
BA5
330
BA6
330
BA4
 92
        7
 72
     1
 73
     1
 93
        4
 10
121.4370480066455
 20
168.0416428372757
 42
0.0
 10
121.4370480066455
 20
170.0416428372756
 42
0.414213562373095
 10
70.43704800664556
 20
119.0416428372757
 42
0.0
 10
72.43704800664557
 20
119.0416428372757
 42
-0.414213562373095
 97
        4
330
BA4
330
BA6
330
BA5
330
BA7
 92
        7
 72
     1
 73
     1
 93
        8
 10
172.4370480066455
 20
119.0416428372757
 42
0.0
 10
170.4370480066455
 20
119.0416428372757
 42
-0.2534414961969977
 10
148.2055665251641
 20
77.99963489024989
 42
0.253441496196998
 10
145.9370480066455
 20
73.81167489565541
 42
0.0
 10
145.9370480066455
 20
66.00772168528604
 42
0.0
 10
147.9370480066456
 20
66.00772168528604
 42
0.0
 10
147.9370480066456
 20
73.81167489565545
 42
-0.253441496196998
 10
149.2981591177566
 20
76.32445089241213
 42
0.2534414961969977
 97
        8
330
BA6
330
BA5
330
B9C
330
B9B
330
B55
330
B9F
330
B9E
330
BA4
 92
        7
 72
     1
 73
     1
 93
        8
 10
72.43704800664557
 20
119.0416428372757
 42
0.0
 10
70.4370480066456
 20
119.0416428372757
 42
0.2534414961969975
 10
93.57593689553445
 20
76.32445089241213
 42
-0.2534414961969991
 10
94.93704800664557
 20
73.81167489565545
 42
0.0
 10
94.93704800664556
 20
66.00772168528604
 42
0.0
 10
96.93704800664558
 20
66.00772168528606
 42
0.0
 10
96.93704800664557
 20
73.8116748956555
 42
0.2534414961969948
 10
94.66852948812702
 20
77.99963489024991
 42
-0.2534414961969974
 97
        8
330
BA6
330
BA4
330
B9D
330
BA0
330
B55
330
B9A
330
B99
330
BA5
 75
     0
 76
     0
 52
45.0
 41
2.0
 77
     0
 78
     1
 53
45.0
 43
0.0
 44
0.0
 45
-1.414213562373094
 46
1.414213562373095
 79
     0
 47
0.3260914978319623
 98
        4
 10
152.3321695884024
 20
158.756246401208
 10
117.4157041962025
 20
168.8650819184754
 10
169.9535683937924
 20
105.9294229187194
 10
78.90969107527053
 20
93.21185488896139
  0
HATCH
  5
AD5
330
1E
100
AcDbEntity
  8
SCHRAFF
100
AcDbHatch
 10
0.0
 20
0.0
 30
0.0
210
0.0
220
0.0
230
1.0
  2
_USER
 70
     0
 71
     1
 91
        4
 92
        7
 72
     1
 73
     1
 93
        4
 10
185.4370480066454
 20
119.0416428372757
 42
0.0
 10
187.9370480066454
 20
119.0416428372757
 42
0.4142135623730948
 10
121.4370480066455
 20
185.5416428372756
 42
0.0
 10
121.4370480066455
 20
183.0416428372756
 42
-0.4142135623730948
 97
        4
330
BA7
330
BA3
330
BA6
330
BA2
 92
        7
 72
     1
 73
     1
 93
        4
 10
121.4370480066455
 20
183.0416428372756
 42
0.0
 10
121.4370480066455
 20
185.5416428372756
 42
0.4142135623730951
 10
54.93704800664568
 20
119.0416428372757
 42
0.0
 10
57.43704800664568
 20
119.0416428372757
 42
-0.4142135623730951
 97
        4
330
BA2
330
BA6
330
BA3
330
BA7
 92
        7
 72
     1
 73
     1
 93
        4
 10
170.1030298050476
 20
77.47696774414416
 42
0.0
 10
172.0040447190476
 20
75.85334762331864
 42
0.1785773420108484
 10
187.9370480066454
 20
119.0416428372757
 42
0.0
 10
185.4370480066454
 20
119.0416428372757
 42
-0.1785773420108481
 97
        4
330
BA6
330
BA3
330
B20
330
BA2
 92
        7
 72
     1
 73
     1
 93
        4
 10
70.87005129424354
 20
75.85334762331865
 42
0.0
 10
72.77106620824361
 20
77.47696774414411
 42
-0.1785773420108482
 10
57.43704800664568
 20
119.0416428372757
 42
0.0
 10
54.93704800664568
 20
119.0416428372757
 42
0.1785773420108481
 97
        4
330
BA6
330
BA2
330
B21
330
BA3
 75
     0
 76
     0
 52
135.0
 41
2.0
 77
     0
 78
     1
 53
135.0
 43
0.0
 44
0.0
 45
-1.414213562373095
 46
-1.414213562373094
 79
     0
 47
0.3260914978319623
 98
        4
 10
163.1008013450641
 20
168.8650819184754
 10
115.131447243345
 20
183.2131087580844
 10
182.6801286945765
 20
97.45104423221414
 10
63.57254922273842
 20
88.32048241758617
  0
LINE
  5
AD6
330
1E
100
AcDbEntity
  8
STEMPEL
100
AcDbLine
 10
304.935259188186
 20
746.846679143695
 30
0.0
 11
304.935259188186
 21
731.2743685513241
 31
0.0
  0
LINE
  5
AD7
102
{ACAD_REACTORS
330
AC3
102
}
330
1E
100
AcDbEntity
  8
STEMPEL
100
AcDbLine
 10
302.935259188186
 20
746.8468796743766
 30
0.0
 11
302.935259188186
 21
731.2743685513241
 31
0.0
  0
LINE
  5
AD8
330
1E
100
AcDbEntity
  8
STEMPEL
100
AcDbLine
 10
300.935259188186
 20
781.7421282118055
 30
0.0
 11
300.935259188186
 21
763.5798796743764
 31
0.0
  0
LINE
  5
AD9
102
{ACAD_REACTORS
330
AC3
102
}
330
1E
100
AcDbEntity
  8
STEMPEL
100
AcDbLine
 10
298.935259188186
 20
781.7421282118055
 30
0.0
 11
298.935259188186
 21
763.5800802050582
 31
0.0
  0
LINE
  5
ADA
330
1E
100
AcDbEntity
  8
STEMPEL
100
AcDbLine
 10
304.435259188186
 20
794.3468796743766
 30
0.0
 11
303.090180086343
 21
791.4623482318416
 31
0.0
  0
LINE
  5
ADB
330
1E
100
AcDbEntity
  8
STEMPEL
100
AcDbLine
 10
302.228503350261
 20
794.3468796743766
 30
0.0
 11
301.2775645122696
 21
792.3075847553226
 31
0.0
  0
ARC
  5
ADC
102
{ACAD_REACTORS
330
AC3
102
}
330
1E
100
AcDbEntity
  8
STEMPEL
100
AcDbCircle
 10
298.9352591881859
 20
718.3128871545084
 30
0.0
 40
8.0
100
AcDbArc
 50
0.0
 51
34.30115275678971
  0
ARC
  5
ADD
330
1E
100
AcDbEntity
  8
STEMPEL
100
AcDbCircle
 10
298.935259188186
 20
718.3128871545084
 30
0.0
 40
10.0
100
AcDbArc
 50
0.0
 51
34.30115275678971
  0
ARC
  5
ADE
330
1E
100
AcDbEntity
  8
STEMPEL
100
AcDbCircle
 10
317.935259188186
 20
731.2743685513241
 30
0.0
 40
13.0
100
AcDbArc
 50
180.0
 51
214.3011527567897
  0
ARC
  5
ADF
102
{ACAD_REACTORS
330
AC3
102
}
330
1E
100
AcDbEntity
  8
STEMPEL
100
AcDbCircle
 10
317.935259188186
 20
731.2743685513241
 30
0.0
 40
15.0
100
AcDbArc
 50
180.0
 51
214.3011527567897
  0
ARC
  5
AE0
102
{ACAD_REACTORS
330
AC3
102
}
330
1E
100
AcDbEntity
  8
STEMPEL
100
AcDbCircle
 10
290.935259188186
 20
746.8468796743766
 30
0.0
 40
12.0
100
AcDbArc
 50
0.0
 51
26.88804761772753
  0
ARC
  5
AE1
330
1E
100
AcDbEntity
  8
STEMPEL
100
AcDbCircle
 10
290.9352591881859
 20
746.846679143695
 30
0.0
 40
14.0
100
AcDbArc
 50
0.0
 51
26.88804761772172
  0
ARC
  5
AE2
330
1E
100
AcDbEntity
  8
STEMPEL
100
AcDbCircle
 10
323.935259188186
 20
763.5798796743764
 30
0.0
 40
23.0
100
AcDbArc
 50
180.0
 51
206.8880476177217
  0
ARC
  5
AE3
102
{ACAD_REACTORS
330
AC3
102
}
330
1E
100
AcDbEntity
  8
STEMPEL
100
AcDbCircle
 10
323.935259188186
 20
763.5800802050582
 30
0.0
 40
25.0
100
AcDbArc
 50
180.0
 51
206.8880476177217
  0
ARC
  5
AE4
330
1E
100
AcDbEntity
  8
STEMPEL
100
AcDbCircle
 10
323.935259188186
 20
781.7421282118055
 30
0.0
 40
25.0
100
AcDbArc
 50
155.0000000000006
 51
180.0
  0
ARC
  5
AE5
330
1E
100
AcDbEntity
  8
STEMPEL
100
AcDbCircle
 10
323.935259188186
 20
781.7421282118055
 30
0.0
 40
23.0
100
AcDbArc
 50
155.0000000000006
 51
180.0
  0
ARC
  5
AE6
330
1E
100
AcDbEntity
  8
STEMPEL
100
AcDbCircle
 10
391.935259188186
 20
781.7421282118055
 30
0.0
 40
23.0
100
AcDbArc
 50
0.0
 51
24.99999999999935
  0
ARC
  5
AE7
330
1E
100
AcDbEntity
  8
STEMPEL
100
AcDbCircle
 10
391.9352591881859
 20
781.7421282118055
 30
0.0
 40
25.0
100
AcDbArc
 50
0.0
 51
24.99999999999935
  0
ARC
  5
AE8
102
{ACAD_REACTORS
330
AC3
102
}
330
1E
100
AcDbEntity
  8
STEMPEL
100
AcDbCircle
 10
391.935259188186
 20
763.5800802050582
 30
0.0
 40
25.0
100
AcDbArc
 50
333.1119523822725
 51
0.0
  0
ARC
  5
AE9
330
1E
100
AcDbEntity
  8
STEMPEL
100
AcDbCircle
 10
391.935259188186
 20
763.5798796743764
 30
0.0
 40
23.0
100
AcDbArc
 50
333.1119523822783
 51
0.0
  0
ARC
  5
AEA
330
1E
100
AcDbEntity
  8
STEMPEL
100
AcDbCircle
 10
424.9352591881859
 20
746.846679143695
 30
0.0
 40
14.0
100
AcDbArc
 50
153.1119523822783
 51
180.0
  0
ARC
  5
AEB
102
{ACAD_REACTORS
330
AC3
102
}
330
1E
100
AcDbEntity
  8
STEMPEL
100
AcDbCircle
 10
424.9352591881859
 20
746.8468796743766
 30
0.0
 40
12.0
100
AcDbArc
 50
153.1119523822725
 51
180.0
  0
ARC
  5
AEC
102
{ACAD_REACTORS
330
AC3
102
}
330
1E
100
AcDbEntity
  8
STEMPEL
100
AcDbCircle
 10
397.935259188186
 20
731.2743685513241
 30
0.0
 40
15.0
100
AcDbArc
 50
325.6988472432103
 51
0.0
  0
ARC
  5
AED
330
1E
100
AcDbEntity
  8
STEMPEL
100
AcDbCircle
 10
397.935259188186
 20
731.2743685513241
 30
0.0
 40
13.0
100
AcDbArc
 50
325.6988472432103
 51
0.0
  0
ARC
  5
AEE
330
1E
100
AcDbEntity
  8
STEMPEL
100
AcDbCircle
 10
416.9352591881859
 20
718.3128871545084
 30
0.0
 40
10.0
100
AcDbArc
 50
145.6988472432103
 51
180.0
  0
ARC
  5
AEF
102
{ACAD_REACTORS
330
AC3
102
}
330
1E
100
AcDbEntity
  8
STEMPEL
100
AcDbCircle
 10
416.9352591881859
 20
718.3128871545084
 30
0.0
 40
8.0
100
AcDbArc
 50
145.6988472432103
 51
180.0
  0
LINE
  5
AF0
330
1E
100
AcDbEntity
  8
STEMPEL
100
AcDbLine
 10
413.642015026111
 20
794.3468796743766
 30
0.0
 11
414.5929538641023
 21
792.3075847553226
 31
0.0
  0
LINE
  5
AF1
330
1E
100
AcDbEntity
  8
STEMPEL
100
AcDbLine
 10
411.435259188186
 20
794.3468796743766
 30
0.0
 11
412.7803382900289
 21
791.4623482318416
 31
0.0
  0
LINE
  5
AF2
102
{ACAD_REACTORS
330
AC3
102
}
330
1E
100
AcDbEntity
  8
STEMPEL
100
AcDbLine
 10
416.9352591881859
 20
781.7421282118055
 30
0.0
 11
416.9352591881859
 21
763.5800802050582
 31
0.0
  0
LINE
  5
AF3
330
1E
100
AcDbEntity
  8
STEMPEL
100
AcDbLine
 10
414.935259188186
 20
781.7421282118055
 30
0.0
 11
414.935259188186
 21
763.5798796743764
 31
0.0
  0
LINE
  5
AF4
102
{ACAD_REACTORS
330
AC3
102
}
330
1E
100
AcDbEntity
  8
STEMPEL
100
AcDbLine
 10
412.9352591881859
 20
746.8468796743766
 30
0.0
 11
412.9352591881859
 21
731.2743685513241
 31
0.0
  0
LINE
  5
AF5
330
1E
100
AcDbEntity
  8
STEMPEL
100
AcDbLine
 10
410.935259188186
 20
746.846679143695
 30
0.0
 11
410.935259188186
 21
731.2743685513241
 31
0.0
  0
HATCH
  5
AF6
330
1E
100
AcDbEntity
  8
SCHRAFF
100
AcDbHatch
 10
0.0
 20
0.0
 30
0.0
210
0.0
220
0.0
230
1.0
  2
NET
 70
     0
 71
     0
 91
        2
 92
        7
 72
     1
 73
     1
 93
        6
 10
421.935259188186
 20
794.3468796743768
 42
0.0
 10
413.6420150261108
 20
794.3468796743768
 42
0.0
 10
414.5929538641022
 20
792.3075847553231
 42
-0.1095178116832428
 10
416.9352591881859
 20
781.7421282118055
 42
0.0
 10
416.9352591881859
 20
780.3468796743765
 42
0.0
 10
421.9352591881859
 20
780.3468796743765
 42
0.0
 97
        0
 92
        7
 72
     1
 73
     1
 93
        6
 10
293.935259188186
 20
780.3468796743763
 42
0.0
 10
298.935259188186
 20
780.3468796743763
 42
0.0
 10
298.935259188186
 20
781.7421282118056
 42
-0.109517811683268
 10
301.2775645122707
 20
792.3075847553255
 42
0.0
 10
302.228503350261
 20
794.3468796743766
 42
0.0
 10
293.935259188186
 20
794.3468796743766
 42
0.0
 97
        0
 75
     0
 76
     1
 52
45.0
 41
20.0
 77
     0
 78
     2
 53
45.0
 43
15.77359485135866
 44
0.0
 45
-1.767766952966368
 46
1.767766952966368
 79
     0
 53
135.0
 43
15.77359485135866
 44
0.0
 45
-1.767766952966368
 46
-1.767766952966368
 79
     0
 47
0.2304865679565673
 98
        2
 10
418.9254696087768
 20
790.2575951899746
 10
296.4505401509191
 20
786.1088383500721
  0
HATCH
  5
AF7
330
1E
100
AcDbEntity
  8
SCHRAFF
100
AcDbHatch
 10
0.0
 20
0.0
 30
0.0
210
0.0
220
0.0
230
1.0
  2
_USER
 70
     0
 71
     1
 91
        1
 92
        7
 72
     0
 73
     1
 93
        6
 10
414.9352591881861
 20
619.3468796743767
 10
413.435259188186
 20
619.3468796743767
 10
413.435259188186
 20
614.3468796743767
 10
413.435259188186
 20
554.3468796743767
 10
413.435259188186
 20
549.3468796743766
 10
414.9352591881861
 20
549.3468796743768
 97
        6
330
B78
330
B4F
330
B4D
330
BB5
330
B79
330
BB4
 75
     0
 76
     0
 52
135.0
 41
2.0
 77
     0
 78
     1
 53
135.0
 43
15.77359485135866
 44
0.0
 45
-1.414213562373095
 46
-1.414213562373094
 79
     0
 47
0.3291683738353313
 98
        1
 10
414.7279507270627
 20
599.3953973545174
  0
HATCH
  5
AF8
330
1E
100
AcDbEntity
  8
SCHRAFF
100
AcDbHatch
 10
0.0
 20
0.0
 30
0.0
210
0.0
220
0.0
230
1.0
  2
_USER
 70
     0
 71
     0
 91
        4
 92
        7
 72
     0
 73
     1
 93
        5
 10
413.935259188186
 20
629.8468796743767
 10
420.435259188186
 20
629.8468796743767
 10
421.935259188186
 20
631.3468796743767
 10
421.935259188186
 20
661.8468796743769
 10
413.935259188186
 20
661.8468796743769
 97
        0
 92
        7
 72
     0
 73
     1
 93
        5
 10
421.935259188186
 20
621.846879674377
 10
421.935259188186
 20
622.3468796743767
 10
420.435259188186
 20
623.8468796743767
 10
413.935259188186
 20
623.8468796743767
 10
413.935259188186
 20
621.846879674377
 97
        0
 92
        7
 72
     0
 73
     1
 93
        5
 10
413.935259188186
 20
546.8468796743767
 10
413.935259188186
 20
544.846879674377
 10
420.435259188186
 20
544.8468796743767
 10
421.935259188186
 20
546.3468796743767
 10
421.935259188186
 20
546.8468796743767
 97
        0
 92
        7
 72
     0
 73
     1
 93
        5
 10
413.935259188186
 20
506.8468796743768
 10
421.935259188186
 20
506.8468796743768
 10
421.935259188186
 20
537.3468796743767
 10
420.435259188186
 20
538.8468796743767
 10
413.935259188186
 20
538.8468796743767
 97
        0
 75
     0
 76
     0
 52
45.0
 41
1.0
 77
     0
 78
     1
 53
45.0
 43
15.77359485135866
 44
0.0
 45
-0.7071067811865475
 46
0.7071067811865476
 79
     0
 47
0.3291683738353313
 98
        4
 10
417.6925620658812
 20
639.8831061246553
 10
417.0337599694598
 20
622.1080151452595
 10
418.3513641623026
 20
546.3992885164227
 10
417.6925620658812
 20
530.2700378283864
  0
HATCH
  5
AF9
330
1E
100
AcDbEntity
  8
SCHRAFF
100
AcDbHatch
 10
0.0
 20
0.0
 30
0.0
210
0.0
220
0.0
230
1.0
  2
_USER
 70
     0
 71
     1
 91
        3
 92
        7
 72
     0
 73
     1
 93
        4
 10
424.4352591881859
 20
641.8468796743768
 10
421.935259188186
 20
641.8468796743767
 10
421.935259188186
 20
631.3468796743769
 10
424.435259188186
 20
633.8468796743767
 97
        4
330
BBD
330
BAA
330
B92
330
BD3
 92
        7
 72
     0
 73
     1
 93
        5
 10
421.935259188186
 20
546.3468796743767
 10
424.435259188186
 20
548.8468796743767
 10
424.435259188186
 20
619.8468796743766
 10
421.935259188186
 20
622.3468796743766
 10
421.935259188186
 20
621.846879674377
 97
        5
330
BAB
330
B4E
330
B4C
330
BA8
330
BD3
 92
        7
 72
     0
 73
     1
 93
        4
 10
424.435259188186
 20
534.8468796743768
 10
421.935259188186
 20
537.3468796743767
 10
421.935259188186
 20
526.8468796743768
 10
424.435259188186
 20
526.8468796743767
 97
        4
330
BA9
330
B4B
330
BBC
330
BD3
 75
     0
 76
     0
 52
45.0
 41
2.0
 77
     0
 78
     1
 53
45.0
 43
15.77359485135866
 44
0.0
 45
-1.414213562373094
 46
1.414213562373095
 79
     0
 47
0.3291683738353313
 98
        3
 10
423.2923817903851
 20
636.9205916211192
 10
422.6335796939638
 20
611.5746273851125
 10
423.6217847435177
 20
529.9408697701144
  0
HATCH
  5
AFA
330
1E
100
AcDbEntity
  8
SCHRAFF
100
AcDbHatch
 10
0.0
 20
0.0
 30
0.0
210
0.0
220
0.0
230
1.0
  2
_USER
 70
     0
 71
     0
 91
        3
 92
        7
 72
     0
 73
     1
 93
        6
 10
421.935259188186
 20
661.8468796743769
 10
421.935259188186
 20
641.8468796743768
 10
424.435259188186
 20
641.8468796743766
 10
424.435259188186
 20
794.3468796743768
 10
421.9352591881859
 20
794.3468796743769
 10
421.935259188186
 20
780.3468796743765
 97
        0
 92
        7
 72
     0
 73
     1
 93
        5
 10
291.4352591881863
 20
284.3468796743769
 10
293.935259188186
 20
284.3468796743768
 10
293.935259188186
 20
300.3468796743768
 10
293.935259188186
 20
794.3468796743766
 10
291.435259188186
 20
794.3468796743765
 97
        0
 92
        7
 72
     0
 73
     1
 93
        5
 10
421.9352591881859
 20
284.3468796743768
 10
424.435259188186
 20
284.3468796743767
 10
424.4352591881859
 20
526.8468796743767
 10
421.935259188186
 20
526.8468796743767
 10
421.935259188186
 20
506.8468796743767
 97
        0
 75
     0
 76
     0
 52
135.0
 41
2.0
 77
     0
 78
     1
 53
135.0
 43
15.77359485135866
 44
0.0
 45
-1.414213562373095
 46
-1.414213562373094
 79
     0
 47
1.070502393092515
 98
        3
 10
423.12816225913
 20
700.8487777241604
 10
292.4344993954069
 20
656.9581793892
 10
423.12816225913
 20
441.7871986113552
  0
HATCH
  5
AFB
330
1E
100
AcDbEntity
  8
SCHRAFF
100
AcDbHatch
 10
0.0
 20
0.0
 30
0.0
210
0.0
220
0.0
230
1.0
  2
_USER
 70
     0
 71
     0
 91
        2
 92
       17
 93
        2
 72
     1
 10
306.9352591881859
 20
236.3468796743756
 11
307.985123150497
 21
224.3468796743769
 72
     1
 10
307.985123150497
 20
224.3468796743769
 11
306.9352591881859
 21
236.3468796743756
 97
        0
 92
       33
 93
       19
 72
     2
 10
323.9352591881859
 20
781.7421282118056
 40
25.0
 50
154.9999999999942
 51
180.0
 73
     1
 72
     1
 10
302.9352591881859
 20
746.8468796743768
 11
302.9352591881859
 21
731.2743685513244
 72
     2
 10
298.9352591881859
 20
718.3128871545085
 40
8.0
 50
0.0
 51
34.30115275679219
 73
     1
 72
     2
 10
317.9352591881859
 20
731.2743685513242
 40
15.0
 50
180.0
 51
214.3011527567914
 73
     1
 72
     2
 10
323.9352591881859
 20
763.5798796743767
 40
24.99990931069965
 50
180.0
 51
206.8877706590197
 73
     1
 72
     1
 10
298.9352591881859
 20
781.7421282118056
 11
298.9352591881859
 21
763.5798796743767
 72
     2
 10
290.9352591881859
 20
746.8468796743767
 40
12.0
 50
0.0
 51
26.88777065902033
 73
     1
 72
     1
 10
302.2285033502609
 20
794.3468796743766
 11
301.2775645122706
 21
792.3075847553255
 72
     2
 10
298.9352591881859
 20
718.3128871545085
 40
10.0
 50
0.0
 51
34.30115275679169
 73
     1
 72
     2
 10
317.9352591881859
 20
731.2743685513242
 40
13.0
 50
180.0
 51
214.3011527567916
 73
     1
 72
     1
 10
304.9352591881859
 20
746.8468796743768
 11
304.9352591881859
 21
731.2743685513244
 72
     2
 10
290.9352591881859
 20
746.8468796743767
 40
14.0
 50
0.0
 51
26.88777065902006
 73
     1
 72
     2
 10
323.9352591881859
 20
763.5798796743767
 40
22.99990931069965
 50
180.0
 51
206.8877706590198
 73
     1
 72
     1
 10
300.9352591881859
 20
781.7421282118056
 11
300.9352591881859
 21
763.5798796743767
 72
     2
 10
323.9352591881859
 20
781.7421282118056
 40
23.0
 50
154.9999999999903
 51
180.0
 73
     1
 72
     1
 10
304.4352591881863
 20
794.3468796743767
 11
303.0901800863444
 21
791.4623482318453
 72
     1
 10
306.9352591881859
 20
236.3468796743749
 11
306.9352591881859
 21
718.3128871545085
 72
     1
 10
308.9352591881859
 20
718.3128871545086
 11
308.9352591881859
 21
236.4342015601926
 72
     1
 10
308.9352591881859
 20
236.4342015601926
 11
309.9927628255837
 21
224.3468796743769
 97
        0
 75
     0
 76
     0
 52
45.0
 41
2.0
 77
     0
 78
     1
 53
45.0
 43
-485.7138217459652
 44
0.0
 45
-1.414213562373094
 46
1.414213562373095
 79
     0
 98
        1
 10
-485.7138217459652
 20
0.0
  0
HATCH
  5
AFC
330
1E
100
AcDbEntity
  8
SCHRAFF
100
AcDbHatch
 10
0.0
 20
0.0
 30
0.0
210
0.0
220
0.0
230
1.0
  2
_USER
 70
     0
 71
     0
 91
        3
 92
       17
 93
        2
 72
     2
 10
416.9352591881859
 20
718.3128871545085
 40
10.0
 50
145.6988472432085
 51
180.0
 73
     1
 72
     2
 10
416.9352591881857
 20
718.3128871545085
 40
9.999999999999882
 50
180.0
 51
214.3011527567976
 73
     0
 97
        0
 92
       17
 93
        2
 72
     2
 10
416.9352591881859
 20
718.3128871545085
 40
8.0
 50
145.6988472432085
 51
180.0
 73
     1
 72
     2
 10
416.9352591881859
 20
718.3128871545085
 40
8.0
 50
180.0
 51
214.3011527567915
 73
     0
 97
        0
 92
       33
 93
       22
 72
     2
 10
391.9352591881859
 20
781.7421282118056
 40
25.0
 50
359.9999999999999
 51
384.9999999999937
 73
     1
 72
     2
 10
424.9352591881859
 20
746.8468796743767
 40
12.0
 50
153.11222934098
 51
180.0
 73
     1
 72
     1
 10
412.9352591881858
 20
746.8468796743767
 11
412.9352591881858
 21
731.2743685513242
 72
     2
 10
397.9352591881859
 20
731.2743685513242
 40
15.0
 50
325.6988472432086
 51
360.0
 73
     1
 72
     1
 10
416.9352591881859
 20
781.7421282118056
 11
416.9352591881859
 21
763.5798796743767
 72
     2
 10
391.9352591881859
 20
763.5798796743767
 40
24.99990931069965
 50
333.1122293409801
 51
360.0
 73
     1
 72
     1
 10
413.6420150261107
 20
794.3468796743767
 11
414.5929538641021
 21
792.3075847553231
 72
     2
 10
391.9352591881859
 20
781.7421282118056
 40
23.0
 50
359.9999999999999
 51
384.9999999999937
 73
     1
 72
     1
 10
411.4352591881856
 20
794.3468796743765
 11
412.7803382900287
 21
791.4623482318416
 72
     1
 10
414.9352591881859
 20
781.7421282118056
 11
414.9352591881859
 21
763.5798796743767
 72
     2
 10
391.9352591881859
 20
763.5798796743767
 40
22.99990931069965
 50
333.1122293409801
 51
360.0
 73
     1
 72
     2
 10
424.9352591881859
 20
746.8468796743767
 40
14.0
 50
153.11222934098
 51
180.0
 73
     1
 72
     1
 10
410.9352591881859
 20
746.8468796743767
 11
410.9352591881859
 21
731.2743685513242
 72
     2
 10
397.9352591881859
 20
731.2743685513242
 40
13.0
 50
325.6988472432086
 51
360.0
 73
     1
 72
     2
 10
416.9352591881859
 20
718.3128871545085
 40
8.0
 50
145.6988472432085
 51
180.0
 73
     1
 72
     1
 10
408.9352591881858
 20
611.8468796743767
 11
408.9352591881858
 21
718.3128871545085
 72
     1
 10
406.935259188186
 20
718.3128871545085
 11
406.9352591881859
 21
611.8468796743767
 72
     1
 10
410.9352591881859
 20
608.8468796743767
 11
409.9352591881858
 21
608.8468796743767
 72
     1
 10
409.9352591881858
 20
610.8468796743767
 11
410.9352591881859
 21
610.8468796743767
 72
     2
 10
409.9352591881858
 20
611.8468796743767
 40
1.0
 50
180.0
 51
270.0000000000014
 73
     1
 72
     2
 10
409.9352591881858
 20
611.8468796743767
 40
3.0
 50
180.0
 51
270.000000000001
 73
     1
 72
     1
 10
410.9352591881859
 20
608.8468796743767
 11
410.9352591881859
 21
610.8468796743767
 97
        0
 75
     0
 76
     0
 52
45.0
 41
2.0
 77
     0
 78
     1
 53
45.0
 43
-485.7138217459652
 44
0.0
 45
-1.414213562373094
 46
1.414213562373095
 79
     0
 98
        1
 10
-485.7138217459652
 20
0.0
  0
HATCH
  5
AFD
330
1E
100
AcDbEntity
  8
SCHRAFF
100
AcDbHatch
 10
0.0
 20
0.0
 30
0.0
210
0.0
220
0.0
230
1.0
  2
_USER
 70
     0
 71
     0
 91
        1
 92
        7
 72
     1
 73
     1
 93
       10
 10
406.9352591881859
 20
236.4342015601937
 42
0.0
 10
405.8777555507881
 20
224.3468796743768
 42
0.0
 10
407.8853952258747
 20
224.3468796743769
 42
0.0
 10
408.9352591881858
 20
236.3468796743742
 42
0.0
 10
408.9352591881858
 20
556.8468796743769
 42
-0.4142135623731022
 10
409.9352591881858
 20
557.8468796743769
 42
0.0
 10
410.9352591881856
 20
557.8468796743769
 42
0.0
 10
410.9352591881856
 20
559.846879674377
 42
0.0
 10
409.9352591881858
 20
559.846879674377
 42
0.4142135623731226
 10
406.9352591881856
 20
556.8468796743769
 42
0.0
 97
        0
 75
     0
 76
     0
 52
45.0
 41
2.0
 77
     0
 78
     1
 53
45.0
 43
-485.7138217459652
 44
0.0
 45
-1.414213562373094
 46
1.414213562373095
 79
     0
 47
1.291190578769407
 98
        1
 10
407.7107850843953
 20
448.0043471262836
  0
TEXT
  5
B02
330
1E
100
AcDbEntity
  8
TEXT
 62
     1
100
AcDbText
 10
532.3562952966358
 20
791.6187046820717
 30
0.0
 40
7.0
  1

 50
90.0
 41
0.8
  7
GREEKS
 72
     1
 11
532.3562952966358
 21
791.6187046820717
 31
0.0
100
AcDbText
  0
TEXT
  5
B03
330
1E
100
AcDbEntity
  8
BEM
100
AcDbText
 10
581.8519518466168
 20
836.5811541437439
 30
0.0
 40
4.0
  1
Diese Zeichnung ist urheberrechtlich geschützt und bleibt unser Eigentum. Sie darf weder ganz noch teilweise vervielfältigt und nicht an Dritte weitergegeben werden.
 50
180.0
 41
0.8
  7
GREEKS
100
AcDbText
  0
TEXT
  5
B04
330
1E
100
AcDbEntity
  8
TEXT
 62
     1
100
AcDbText
 10
499.8830678664707
 20
253.0812212578825
 30
0.0
 40
7.0
  1
Auáenrohr: E195 EN10305 feuerverzinkt
 50
90.0
 41
0.8
  7
GREEKS
100
AcDbText
  0
TEXT
  5
B05
330
1E
100
AcDbEntity
  8
TEXT
 62
     1
100
AcDbText
 10
530.3758093923479
 20
305.7145827912079
 30
0.0
 40
7.0
  1
und innenbeschichtet
 50
90.0
 41
0.8
  7
GREEKS
100
AcDbText
  0
TEXT
  5
B06
330
1E
100
AcDbEntity
  8
TEXT
 62
     1
100
AcDbText
 10
542.9706447777299
 20
254.5037420421319
 30
0.0
 40
7.0
  1
Dämmung: 2 K-PU-Schaum
 50
90.0
 41
0.8
  7
GREEKS
100
AcDbText
  0
TEXT
  5
B07
330
1E
100
AcDbEntity
  8
TEXT
 62
     1
100
AcDbText
 10
519.1067555531222
 20
258.0600539151944
 30
0.0
 40
7.0
  1
Innenrohr: E195 EN10305 feuerverzinkt
 50
90.0
 41
0.8
  7
GREEKS
100
AcDbText
  0
LINE
  5
B08
330
1E
100
AcDbEntity
  8
VERDECKT
100
AcDbLine
 10
74.20287915487842
 20
720.6719584529868
 30
0.0
 11
168.6712168584139
 21
720.6719584529868
 31
0.0
  0
LINE
  5
B09
330
1E
100
AcDbEntity
  8
VERDECKT
100
AcDbLine
 10
71.36556437171236
 20
726.8511098666772
 30
0.0
 11
171.5085316415771
 21
726.8511098666772
 31
0.0
  0
LINE
  5
B0A
330
1E
100
AcDbEntity
  8
VERDECKT
100
AcDbLine
 10
70.19193212600743
 20
749.6367947959277
 30
0.0
 11
172.6821638872831
 21
749.6367947959277
 31
0.0
  0
DIMENSION
  5
B0B
330
1E
100
AcDbEntity
  8
BEM
100
AcDbDimension
  2
*D5
 10
237.0898559940888
 20
284.3468796743767
 30
0.0
 11
230.5898559940888
 21
254.3468796743769
 31
0.0
 70
    32
 71
     5
 42
59.99999999999992
  3
Standard
100
AcDbAlignedDimension
 13
171.3871840443345
 23
224.3468796743769
 33
0.0
 14
187.9370480066455
 24
284.3468796743767
 34
0.0
 50
90.0
100
AcDbRotatedDimension
1001
ACAD
1000
DSTYLE
1002
{
1070
    40
1040
2.0
1070
    41
1040
3.5
1070
    42
1040
1.0
1070
    43
1040
7.0
1070
    44
1040
1.0
1070
    73
1070
     0
1070
    74
1070
     0
1070
    77
1070
     1
1070
    78
1070
     8
1070
    79
1070
     2
1070
   140
1040
3.5
1070
   141
1040
1.5
1070
   146
1040
0.5
1070
   147
1040
1.5
1070
   172
1070
     1
1070
   178
1070
     1
1070
   179
1070
     2
1070
   271
1070
     2
1070
   272
1070
     2
1070
   284
1070
     8
1070
   285
1070
     8
1070
   286
1070
     8
1002
}
  0
DIMENSION
  5
B0C
330
1E
100
AcDbEntity
  8
BEM
100
AcDbDimension
  2
*D6
 10
253.6500861146141
 20
224.3468796743768
 30
0.0
 11
247.1500861146141
 21
509.3468796743768
 31
0.0
 70
    32
  1
570
 71
     5
 42
569.9999999999999
  3
Standard
100
AcDbAlignedDimension
 13
187.9370480066455
 23
794.3468796743767
 33
0.0
 14
171.3871840443345
 24
224.3468796743769
 34
0.0
 50
90.0
100
AcDbRotatedDimension
1001
ACAD
1000
DSTYLE
1002
{
1070
    40
1040
2.0
1070
    41
1040
3.5
1070
    42
1040
1.0
1070
    43
1040
7.0
1070
    44
1040
1.0
1070
    73
1070
     0
1070
    74
1070
     0
1070
    77
1070
     1
1070
    78
1070
     8
1070
    79
1070
     2
1070
   140
1040
3.5
1070
   141
1040
1.5
1070
   146
1040
0.5
1070
   147
1040
1.5
1070
   172
1070
     1
1070
   178
1070
     1
1070
   179
1070
     2
1070
   271
1070
     2
1070
   272
1070
     2
1070
   284
1070
     8
1070
   285
1070
     8
1070
   286
1070
     8
1002
}
  0
DIMENSION
  5
B0D
330
1E
100
AcDbEntity
  8
BEM
100
AcDbDimension
  2
*D7
 10
237.0898559940888
 20
284.3468796743767
 30
0.0
 11
230.5898559940888
 21
539.3468796743767
 31
0.0
 70
    32
  1
510
 71
     5
 42
509.9999999999999
  3
Standard
100
AcDbAlignedDimension
 13
187.9370480066455
 23
794.3468796743767
 33
0.0
 14
187.9370480066455
 24
284.3468796743767
 34
0.0
 50
90.0
100
AcDbRotatedDimension
1001
ACAD
1000
DSTYLE
1002
{
1070
    40
1040
2.0
1070
    41
1040
3.5
1070
    42
1040
1.0
1070
    43
1040
7.0
1070
    44
1040
1.0
1070
    73
1070
     0
1070
    74
1070
     0
1070
    77
1070
     1
1070
    78
1070
     8
1070
    79
1070
     2
1070
   140
1040
3.5
1070
   141
1040
1.5
1070
   146
1040
0.5
1070
   147
1040
1.5
1070
   172
1070
     1
1070
   178
1070
     1
1070
   179
1070
     2
1070
   271
1070
     2
1070
   272
1070
     2
1070
   284
1070
     8
1070
   285
1070
     8
1070
   286
1070
     8
1002
}
  0
DIMENSION
  5
B0E
330
1E
100
AcDbEntity
  8
BEM
100
AcDbDimension
  2
*D8
 10
220.5296231971752
 20
284.3468796743767
 30
0.0
 11
214.0296231971752
 21
434.3468796743767
 31
0.0
 70
    32
 71
     5
 42
300.0
  3
Standard
100
AcDbAlignedDimension
 13
206.5956244358342
 23
584.3468796743767
 33
0.0
 14
187.9370480066455
 24
284.3468796743767
 34
0.0
 50
90.0
100
AcDbRotatedDimension
1001
ACAD
1000
DSTYLE
1002
{
1070
    40
1040
2.0
1070
    41
1040
3.5
1070
    42
1040
1.0
1070
    43
1040
7.0
1070
    44
1040
1.0
1070
    73
1070
     0
1070
    74
1070
     0
1070
    77
1070
     1
1070
    78
1070
     8
1070
    79
1070
     2
1070
   140
1040
3.5
1070
   141
1040
1.5
1070
   146
1040
0.5
1070
   147
1040
1.5
1070
   172
1070
     1
1070
   178
1070
     1
1070
   179
1070
     2
1070
   271
1070
     2
1070
   272
1070
     2
1070
   284
1070
     8
1070
   285
1070
     8
1070
   286
1070
     8
1002
}
  0
DIMENSION
  5
B10
330
1E
100
AcDbEntity
  8
BEM
100
AcDbDimension
  2
*D9
 10
408.935259188186
 20
204.4235854611593
 30
0.0
 11
357.935259188186
 21
210.9235854611593
 31
0.0
 70
    32
  1
%%c<>
 71
     5
 42
102.0
  3
Standard
100
AcDbAlignedDimension
 13
306.935259188186
 23
236.3468796743749
 33
0.0
 14
408.935259188186
 24
236.3468796743763
 34
0.0
100
AcDbRotatedDimension
1001
ACAD
1000
DSTYLE
1002
{
1070
    40
1040
2.0
1070
    41
1040
3.5
1070
    42
1040
1.0
1070
    43
1040
7.0
1070
    44
1040
1.0
1070
    73
1070
     0
1070
    74
1070
     0
1070
    77
1070
     1
1070
    78
1070
     8
1070
    79
1070
     2
1070
   140
1040
3.5
1070
   141
1040
1.5
1070
   146
1040
0.5
1070
   147
1040
1.5
1070
   172
1070
     1
1070
   178
1070
     1
1070
   179
1070
     2
1070
   271
1070
     2
1070
   272
1070
     2
1070
   284
1070
     8
1070
   285
1070
     8
1070
   286
1070
     8
1002
}
  0
DIMENSION
  5
B11
330
1E
100
AcDbEntity
  8
BEM
100
AcDbDimension
  2
*D10
 10
424.435259188186
 20
804.9359995855239
 30
0.0
 11
357.935259188186
 21
810.435999585524
 31
0.0
 70
    32
  1
%%c<>
 71
     5
 42
133.0
  3
Standard
100
AcDbAlignedDimension
 13
291.435259188186
 23
794.3468796743767
 33
0.0
 14
424.435259188186
 24
794.3468796743767
 34
0.0
100
AcDbRotatedDimension
1001
ACAD
1000
DSTYLE
1002
{
1070
    40
1040
2.0
1070
    41
1040
3.5
1070
    42
1040
1.0
1070
    43
1040
7.0
1070
    44
1040
1.0
1070
    73
1070
     0
1070
    74
1070
     0
1070
    77
1070
     1
1070
    78
1070
     8
1070
   140
1040
3.5
1070
   141
1040
1.5
1070
   146
1040
0.5142857142857144
1070
   147
1040
1.0
1070
   172
1070
     1
1070
   178
1070
     1
1070
   271
1070
     2
1070
   272
1070
     2
1070
   279
1070
     2
1070
   284
1070
     8
1070
   285
1070
     8
1070
   286
1070
     8
1002
}
  0
LINE
  5
B12
330
1E
100
AcDbEntity
  8
VERDECKT
100
AcDbLine
 10
70.43704800664556
 20
290.3468796743768
 30
0.0
 11
65.43704800664556
 21
290.3468796743768
 31
0.0
  0
LINE
  5
B13
330
1E
100
AcDbEntity
  8
VERDECKT
100
AcDbLine
 10
70.43704800664556
 20
301.8468796743769
 30
0.0
 11
58.93704800664557
 21
301.8468796743769
 31
0.0
  0
POINT
  5
B14
330
1E
100
AcDbEntity
  8
STEMPEL
100
AcDbPoint
 10
413.435259188186
 20
554.3468796743767
 30
0.0
  0
POINT
  5
B15
330
1E
100
AcDbEntity
  8
STEMPEL
100
AcDbPoint
 10
413.435259188186
 20
614.3468796743767
 30
0.0
  0
POINT
  5
B16
330
1E
100
AcDbEntity
  8
STEMPEL
100
AcDbPoint
 10
414.935259188186
 20
619.3468796743767
 30
0.0
  0
POINT
  5
B17
330
1E
100
AcDbEntity
  8
STEMPEL
100
AcDbPoint
 10
414.935259188186
 20
549.3468796743767
 30
0.0
  0
POINT
  5
B18
330
1E
100
AcDbEntity
  8
STEMPEL
100
AcDbPoint
 10
421.935259188186
 20
621.846879674377
 30
0.0
  0
POINT
  5
B19
330
1E
100
AcDbEntity
  8
STEMPEL
100
AcDbPoint
 10
421.935259188186
 20
661.8468796743769
 30
0.0
  0
TEXT
  5
B1A
330
1E
100
AcDbEntity
  8
TEXT
 62
     1
100
AcDbText
 10
339.1327479853056
 20
511.2167002130903
 30
0.0
 40
7.0
  1
DN100
 50
90.0
 41
0.8
  7
GREEKS
100
AcDbText
  0
LINE
  5
B1B
330
1E
100
AcDbEntity
  8
STEMPEL
100
AcDbLine
 10
406.9352591881861
 20
718.3128871545084
 30
0.0
 11
406.935259188186
 21
611.8468796743767
 31
0.0
  0
LINE
  5
B1C
330
1E
100
AcDbEntity
  8
STEMPEL
100
AcDbLine
 10
308.935259188186
 20
718.3128871545084
 30
0.0
 11
308.935259188186
 21
236.4342015601926
 31
0.0
  0
LINE
  5
B1D
102
{ACAD_REACTORS
330
AC7
330
AC3
102
}
330
1E
100
AcDbEntity
  8
STEMPEL
100
AcDbLine
 10
306.935259188186
 20
718.3128871545084
 30
0.0
 11
306.935259188186
 21
294.3468796743768
 31
0.0
  0
LINE
  5
B1E
330
1E
100
AcDbEntity
  8
VERDECKT
100
AcDbLine
 10
172.4370480066455
 20
718.3128871545085
 30
0.0
 11
172.4370480066455
 21
282.3468796743759
 31
0.0
  0
LINE
  5
B1F
330
1E
100
AcDbEntity
  8
VERDECKT
100
AcDbLine
 10
70.43704800664556
 20
718.3128871545085
 30
0.0
 11
70.43704800664556
 21
282.3468796743766
 31
0.0
  0
LINE
  5
B20
102
{ACAD_REACTORS
330
AD5
330
AD3
102
}
330
1E
100
AcDbEntity
  8
STEMPEL
100
AcDbLine
 10
172.0040447190475
 20
75.85334762331868
 30
0.0
 11
170.1030298050476
 21
77.47696774414411
 31
0.0
  0
LINE
  5
B21
102
{ACAD_REACTORS
330
AD5
330
AD3
102
}
330
1E
100
AcDbEntity
  8
STEMPEL
100
AcDbLine
 10
70.87005129424358
 20
75.85334762331868
 30
0.0
 11
72.77106620824361
 21
77.47696774414411
 31
0.0
  0
INSERT
  5
B22
330
1E
100
AcDbEntity
  8
SCHRAFF
100
AcDbBlockReference
  2
*X3
 10
-69.69009817101073
 20
-99.14733902584405
 30
0.0
1001
ACAD
1000
HATCH
1002
{
1070
    19
1000
_U
1040
0.2
1040
0.7853981633974483
1070
     0
1000
R14_HATCH_DATA
1000
2D08
1011
145.4995324197692
1021
-15.15944969752851
1031
0.0
1011
144.4995324197692
1021
-14.15944969752851
1031
0.0
1011
144.4995324197692
1021
-15.15944969752851
1031
1.0
1040
0.0
1010
0.0
1020
0.0
1030
1.0
1000
_U
1070
     0
1070
     1
1071
        1
1071
        7
1070
     1
1070
     1
1071
        3
1040
219.2738053265051
1040
160.7105895860343
1040
0.3197224867342813
1040
217.6271461776563
1040
161.9114330117371
1040
0.0
1040
217.6271461776563
1040
159.9330808744646
1040
0.0071136038243366
1071
        3
1005
0
1005
0
1005
0
1070
     0
1070
     0
1040
0.7853981633974483
1040
0.2
1070
     0
1070
     1
1040
0.7853981633974483
1040
0.0
1040
0.0
1040
-0.1414213562373095
1040
0.1414213562373095
1070
     0
1040
0.0168604889204281
1071
        1
1040
218.4359396474766
1040
160.6970550191554
1040
0.0
1002
}
  0
INSERT
  5
B23
330
1E
100
AcDbEntity
  8
SCHRAFF
100
AcDbBlockReference
  2
*X4
 10
-69.69009817101073
 20
-99.14733902584405
 30
0.0
1001
ACAD
1000
HATCH
1002
{
1070
    19
1000
_U
1040
0.2
1040
0.7853981633974483
1070
     0
1000
R14_HATCH_DATA
1000
2D06
1011
145.4995324197692
1021
-15.15944969752851
1031
0.0
1011
144.4995324197692
1021
-14.15944969752851
1031
0.0
1011
144.4995324197692
1021
-15.15944969752851
1031
1.0
1040
0.0
1010
0.0
1020
0.0
1030
1.0
1000
_U
1070
     0
1070
     1
1071
        1
1071
        7
1070
     1
1070
     1
1071
        3
1040
164.6271461776563
1040
159.9330808744646
1040
0.0
1040
164.6271461776563
1040
161.9182875044428
1040
0.3213022085377118
1040
162.9575004638078
1040
160.7218516028027
1040
0.0072135979076664
1071
        3
1005
0
1005
0
1005
0
1070
     0
1070
     0
1040
0.7853981633974483
1040
0.2
1070
     0
1070
     1
1040
0.7853981633974483
1040
0.0
1040
0.0
1040
-0.1414213562373095
1040
0.1414213562373095
1070
     0
1040
0.0151432169007546
1071
        1
1040
163.7580429087385
1040
160.6228203583714
1040
0.0
1002
}
  0
LINE
  5
B24
102
{ACAD_REACTORS
330
AD1
330
ABB
102
}
330
1E
100
AcDbEntity
  8
STEMPEL
100
AcDbLine
 10
147.9370480066456
 20
63.00772168528616
 30
0.0
 11
147.9370480066456
 21
60.78574184862063
 31
0.0
  0
LINE
  5
B25
102
{ACAD_REACTORS
330
AD1
330
ABB
102
}
330
1E
100
AcDbEntity
  8
STEMPEL
100
AcDbLine
 10
94.93704800664557
 20
63.00772168528616
 30
0.0
 11
94.93704800664557
 21
60.78574184862057
 31
0.0
  0
POINT
  5
B27
330
1E
100
AcDbEntity
  8
VERDECKT
100
AcDbPoint
 10
183.9370480066455
 20
301.8468796743769
 30
0.0
  0
POINT
  5
B28
330
1E
100
AcDbEntity
  8
VERDECKT
100
AcDbPoint
 10
185.4370480066456
 20
300.3468796743768
 30
0.0
  0
LINE
  5
B29
330
1E
100
AcDbEntity
  8
VERDECKT
100
AcDbLine
 10
185.4370480066456
 20
300.3468796743768
 30
0.0
 11
183.9370480066455
 21
301.8468796743769
 31
0.0
  0
POINT
  5
B2A
330
1E
100
AcDbEntity
  8
VERDECKT
100
AcDbPoint
 10
172.4370480066455
 20
300.3468796743768
 30
0.0
  0
LINE
  5
B2B
330
1E
100
AcDbEntity
  8
VERDECKT
100
AcDbLine
 10
177.4370480066455
 20
290.3468796743768
 30
0.0
 11
182.0558501601629
 21
282.3468796743759
 31
0.0
  0
POINT
  5
B2C
330
1E
100
AcDbEntity
  8
VERDECKT
100
AcDbPoint
 10
57.43704800664557
 20
300.3468796743768
 30
0.0
  0
LINE
  5
B2D
330
1E
100
AcDbEntity
  8
VERDECKT
100
AcDbLine
 10
57.43704800664557
 20
300.3468796743768
 30
0.0
 11
58.93704800664557
 21
301.8468796743769
 31
0.0
  0
LINE
  5
B2E
330
1E
100
AcDbEntity
  8
VERDECKT
100
AcDbLine
 10
183.9370480066467
 20
301.8468796743758
 30
0.0
 11
172.4370480066455
 21
301.8468796743759
 31
0.0
  0
POINT
  5
B2F
330
1E
100
AcDbEntity
  8
VERDECKT
100
AcDbPoint
 10
65.43704800664556
 20
290.3468796743768
 30
0.0
  0
LINE
  5
B30
330
1E
100
AcDbEntity
  8
VERDECKT
100
AcDbLine
 10
177.4370480066455
 20
290.3468796743768
 30
0.0
 11
172.4370480066455
 21
290.3468796743768
 31
0.0
  0
LINE
  5
B31
330
1E
100
AcDbEntity
  8
STEMPEL
100
AcDbLine
 10
57.43704800664557
 20
284.3468796743767
 30
0.0
 11
55.93704800664557
 21
284.3468796743767
 31
0.0
  0
LINE
  5
B32
330
1E
100
AcDbEntity
  8
VERDECKT
100
AcDbLine
 10
65.43704800664556
 20
290.3468796743768
 30
0.0
 11
60.81824585312855
 21
282.3468796743767
 31
0.0
  0
LINE
  5
B33
330
1E
100
AcDbEntity
  8
VERDECKT
100
AcDbLine
 10
185.4370480066456
 20
284.3468796743767
 30
0.0
 11
185.4370480066456
 21
794.3468796743767
 31
0.0
  0
LINE
  5
B34
330
1E
100
AcDbEntity
  8
VERDECKT
100
AcDbLine
 10
57.43704800664556
 20
284.346879674377
 30
0.0
 11
57.43704800664557
 21
794.3468796743765
 31
0.0
  0
LINE
  5
B35
330
1E
100
AcDbEntity
  8
VERDECKT
100
AcDbLine
 10
180.4370480066456
 20
780.3468796743767
 30
0.0
 11
185.4370480066456
 21
780.3468796743767
 31
0.0
  0
LINE
  5
B36
330
1E
100
AcDbEntity
  8
VERDECKT
100
AcDbLine
 10
62.43704800664557
 20
780.346879674377
 30
0.0
 11
57.43704800664557
 21
780.3468796743767
 31
0.0
  0
POINT
  5
B37
330
1E
100
AcDbEntity
  8
STEMPEL
100
AcDbPoint
 10
420.435259188186
 20
301.8468796743769
 30
0.0
  0
LINE
  5
B38
102
{ACAD_REACTORS
330
AC3
102
}
330
1E
100
AcDbEntity
  8
STEMPEL
100
AcDbLine
 10
408.935259188186
 20
301.8468796743769
 30
0.0
 11
420.435259188186
 21
301.8468796743769
 31
0.0
  0
LINE
  5
B39
102
{ACAD_REACTORS
330
AC3
102
}
330
1E
100
AcDbEntity
  8
STEMPEL
100
AcDbLine
 10
306.935259188186
 20
301.8468796743769
 30
0.0
 11
295.435259188186
 21
301.8468796743769
 31
0.0
  0
POINT
  5
B3A
330
1E
100
AcDbEntity
  8
STEMPEL
100
AcDbPoint
 10
294.935259188186
 20
794.3468796743765
 30
0.0
  0
POINT
  5
B3B
330
1E
100
AcDbEntity
  8
STEMPEL
100
AcDbPoint
 10
421.935259188186
 20
794.3468796743765
 30
0.0
  0
POINT
  5
B3C
330
1E
100
AcDbEntity
  8
STEMPEL
100
AcDbPoint
 10
293.935259188186
 20
794.3468796743765
 30
0.0
  0
POINT
  5
B3D
330
1E
100
AcDbEntity
  8
STEMPEL
100
AcDbPoint
 10
420.9352591881859
 20
794.3468796743765
 30
0.0
  0
POINT
  5
B3E
330
1E
100
AcDbEntity
  8
STEMPEL
100
AcDbPoint
 10
301.935259188186
 20
290.3468796743768
 30
0.0
  0
LINE
  5
B3F
330
1E
100
AcDbEntity
  8
STEMPEL
100
AcDbLine
 10
421.935259188186
 20
794.3468796743765
 30
0.0
 11
421.935259188186
 21
780.3468796743765
 31
0.0
  0
LINE
  5
B40
102
{ACAD_REACTORS
330
AC3
102
}
330
1E
100
AcDbEntity
  8
STEMPEL
100
AcDbLine
 10
416.9352591881859
 20
780.3468796743765
 30
0.0
 11
421.935259188186
 21
780.3468796743765
 31
0.0
  0
LINE
  5
B41
102
{ACAD_REACTORS
330
AC3
102
}
330
1E
100
AcDbEntity
  8
STEMPEL
100
AcDbLine
 10
298.935259188186
 20
780.3468796743765
 30
0.0
 11
293.935259188186
 21
780.3468796743765
 31
0.0
  0
LINE
  5
B42
330
1E
100
AcDbEntity
  8
STEMPEL
100
AcDbLine
 10
293.935259188186
 20
794.3468796743765
 30
0.0
 11
293.935259188186
 21
780.3468796743765
 31
0.0
  0
LINE
  5
B43
102
{ACAD_REACTORS
330
AC3
102
}
330
1E
100
AcDbEntity
  8
STEMPEL
100
AcDbLine
 10
421.935259188186
 20
300.3468796743768
 30
0.0
 11
420.435259188186
 21
301.8468796743769
 31
0.0
  0
LINE
  5
B44
330
1E
100
AcDbEntity
  8
STEMPEL
100
AcDbLine
 10
408.935259188186
 20
290.3468796743768
 30
0.0
 11
413.935259188186
 21
290.3468796743768
 31
0.0
  0
LINE
  5
B45
102
{ACAD_REACTORS
330
AC3
102
}
330
1E
100
AcDbEntity
  8
STEMPEL
100
AcDbLine
 10
293.935259188186
 20
300.3468796743768
 30
0.0
 11
295.435259188186
 21
301.8468796743769
 31
0.0
  0
LINE
  5
B46
330
1E
100
AcDbEntity
  8
STEMPEL
100
AcDbLine
 10
306.935259188186
 20
290.3468796743768
 30
0.0
 11
301.935259188186
 21
290.3468796743768
 31
0.0
  0
LINE
  5
B47
330
1E
100
AcDbEntity
  8
STEMPEL
100
AcDbLine
 10
306.935259188186
 20
236.3468796743749
 30
0.0
 11
306.935259188186
 21
300.3468796743768
 31
0.0
  0
LINE
  5
B48
330
1E
100
AcDbEntity
  8
STEMPEL
100
AcDbLine
 10
293.935259188186
 20
284.3468796743767
 30
0.0
 11
292.435259188186
 21
284.3468796743767
 31
0.0
  0
LINE
  5
B4A
102
{ACAD_REACTORS
330
AC3
102
}
330
1E
100
AcDbEntity
  8
MITTEL
100
AcDbLine
 10
429.4352591881862
 20
626.8468796743768
 30
0.0
 11
408.9352591881858
 21
626.8468796743768
 31
0.0
  0
LINE
  5
B4B
102
{ACAD_REACTORS
330
AF9
102
}
330
1E
100
AcDbEntity
  8
STEMPEL
100
AcDbLine
 10
421.935259188186
 20
506.8468796743767
 30
0.0
 11
421.935259188186
 21
537.3468796743767
 31
0.0
  0
LINE
  5
B4C
102
{ACAD_REACTORS
330
AF9
330
AC3
102
}
330
1E
100
AcDbEntity
  8
STEMPEL
100
AcDbLine
 10
421.935259188186
 20
546.3468796743767
 30
0.0
 11
421.935259188186
 21
621.846879674377
 31
0.0
  0
LINE
  5
B4D
102
{ACAD_REACTORS
330
AF7
102
}
330
1E
100
AcDbEntity
  8
STEMPEL
100
AcDbLine
 10
413.435259188186
 20
554.3468796743767
 30
0.0
 11
413.435259188186
 21
614.3468796743767
 31
0.0
  0
LINE
  5
B4E
102
{ACAD_REACTORS
330
AF9
102
}
330
1E
100
AcDbEntity
  8
STEMPEL
100
AcDbLine
 10
421.935259188186
 20
621.846879674377
 30
0.0
 11
421.935259188186
 21
622.3468796743767
 31
0.0
  0
LINE
  5
B4F
102
{ACAD_REACTORS
330
AF7
330
AC3
102
}
330
1E
100
AcDbEntity
  8
STEMPEL
100
AcDbLine
 10
413.435259188186
 20
614.3468796743767
 30
0.0
 11
413.435259188186
 21
619.3468796743767
 31
0.0
  0
LINE
  5
B50
102
{ACAD_REACTORS
330
AC3
102
}
330
1E
100
AcDbEntity
  8
STEMPEL
100
AcDbLine
 10
421.935259188186
 20
661.8468796743769
 30
0.0
 11
421.935259188186
 21
794.3468796743767
 31
0.0
  0
LINE
  5
B51
102
{ACAD_REACTORS
330
AC3
102
}
330
1E
100
AcDbEntity
  8
STEMPEL
100
AcDbLine
 10
408.935259188186
 20
556.8468796743769
 30
0.0
 11
408.935259188186
 21
236.3468796743758
 31
0.0
  0
LINE
  5
B52
330
1E
100
AcDbEntity
  8
STEMPEL
100
AcDbLine
 10
410.935259188186
 20
608.8468796743767
 30
0.0
 11
410.935259188186
 21
610.8468796743767
 31
0.0
  0
LINE
  5
B53
102
{ACAD_REACTORS
330
AC3
102
}
330
1E
100
AcDbEntity
  8
STEMPEL
100
AcDbLine
 10
410.935259188186
 20
610.8468796743767
 30
0.0
 11
410.935259188186
 21
614.3468796743767
 31
0.0
  0
INSERT
  5
B54
330
1E
100
AcDbEntity
  8
SCHRAFF
100
AcDbBlockReference
  2
*X2
 10
-127.7764011210079
 20
-225.2862151376048
 30
0.0
1001
ACAD
1000
HATCH
1002
{
1070
    16
1000
ANSI37,I
1040
10.0
1040
0.0
1002
}
  0
LINE
  5
B55
102
{ACAD_REACTORS
330
AD4
330
AD2
330
ABB
102
}
330
1E
100
AcDbEntity
  8
STEMPEL
100
AcDbLine
 10
151.4370480066455
 20
66.00772168528604
 30
0.0
 11
91.43704800664556
 21
66.00772168528604
 31
0.0
  0
LINE
  5
B56
102
{ACAD_REACTORS
330
AD2
330
AD1
330
ABB
102
}
330
1E
100
AcDbEntity
  8
STEMPEL
100
AcDbLine
 10
91.43704800664556
 20
63.00772168528616
 30
0.0
 11
151.4370480066455
 21
63.00772168528616
 31
0.0
  0
LINE
  5
B57
102
{ACAD_REACTORS
330
AD2
330
ABB
102
}
330
1E
100
AcDbEntity
  8
STEMPEL
100
AcDbLine
 10
91.43704800664556
 20
66.00772168528604
 30
0.0
 11
91.43704800664556
 21
63.00772168528616
 31
0.0
  0
LINE
  5
B59
102
{ACAD_REACTORS
330
ABB
102
}
330
1E
100
AcDbEntity
  8
STEMPEL
100
AcDbLine
 10
151.4370480066455
 20
66.00772168528604
 30
0.0
 11
151.4370480066455
 21
63.50772168528616
 31
0.0
  0
ARC
  5
B5A
102
{ACAD_REACTORS
330
ABB
102
}
330
1E
100
AcDbEntity
  8
SCHRAFF
100
AcDbCircle
 10
128.9370480066455
 20
55.48261515434157
 30
0.0
 40
3.252013140077535
100
AcDbArc
 50
8.185646269771577
 51
90.0
  0
INSERT
  5
B5B
330
1E
100
AcDbEntity
  8
SCHRAFF
100
AcDbBlockReference
  2
*X1
 10
312.5641941843018
 20
-99.14733902584405
 30
0.0
 41
-1.0
1001
ACAD
1000
HATCH
1002
{
1070
    16
1000
ANSI31,I
1040
1.0
1040
0.0
1002
}
  0
INSERT
  5
B5C
330
1E
100
AcDbEntity
  8
SCHRAFF
100
AcDbBlockReference
  2
*X1
 10
-69.69009817101073
 20
-99.14733902584405
 30
0.0
1001
ACAD
1000
HATCH
1002
{
1070
    16
1000
ANSI31,I
1040
1.0
1040
0.0
1002
}
  0
ARC
  5
B5D
102
{ACAD_REACTORS
330
ABB
102
}
330
1E
100
AcDbEntity
  8
SCHRAFF
100
AcDbCircle
 10
113.9370480066455
 20
55.48261515434157
 30
0.0
 40
3.252013140077535
100
AcDbArc
 50
90.0
 51
171.8143537302284
  0
CIRCLE
  5
B60
330
1E
100
AcDbEntity
  8
VERDECKT
100
AcDbCircle
 10
121.4370480066455
 20
584.3468796743767
 30
0.0
 40
25.0
  0
TEXT
  5
B61
330
1E
100
AcDbEntity
  8
TEXT
 62
     3
100
AcDbText
 10
172.3851656067282
 20
180.3074594876935
 30
0.0
 40
10.0
  1
Schnitt A-B
 41
0.8
  7
GREEKS
100
AcDbText
  0
LINE
  5
B62
330
1E
100
AcDbEntity
  8
TEXT
 62
     3
100
AcDbLine
 10
171.2179820948114
 20
177.7914358431797
 30
0.0
 11
246.6914979282982
 21
177.7914358431797
 31
0.0
  0
LINE
  5
B63
330
1E
100
AcDbEntity
  8
TEXT
 62
     3
100
AcDbLine
 10
204.2459757722436
 20
591.392034621109
 30
0.0
 11
204.215934615826
 21
608.971307955515
 31
0.0
  0
SOLID
  5
B64
330
1E
100
AcDbEntity
  8
TEXT
 62
     3
100
AcDbTrace
 10
203.0794340940597
 20
591.3749576140072
 30
0.0
 11
205.412517450427
 21
591.4091116282117
 31
0.0
 12
204.3484378148569
 22
584.3927845520076
 32
0.0
 13
204.3484378148569
 23
584.3927845520076
 33
0.0
  0
TEXT
  5
B65
330
1E
100
AcDbEntity
  8
TEXT
 62
     3
100
AcDbText
 10
200.5053405964628
 20
598.9934991710628
 30
0.0
 40
10.0
  1
B
 50
90.83869317964419
 41
0.8
  7
GREEKS
 72
     1
 11
195.4668431022992
 21
601.586692976473
 31
0.0
100
AcDbText
 73
     2
  0
SOLID
  5
B66
330
1E
100
AcDbEntity
  8
TEXT
 62
     3
100
AcDbTrace
 10
44.17114057385606
 20
591.6555087976639
 30
0.0
 11
46.50422393022336
 21
591.6896628118682
 31
0.0
 12
45.44014429465323
 22
584.6733357356641
 32
0.0
 13
45.44014429465323
 23
584.6733357356641
 33
0.0
  0
LINE
  5
B67
330
1E
100
AcDbEntity
  8
TEXT
 62
     3
100
AcDbLine
 10
45.33768225203971
 20
591.6725858047656
 30
0.0
 11
45.30764109562233
 21
609.2518591391716
 31
0.0
  0
TEXT
  5
B68
330
1E
100
AcDbEntity
  8
TEXT
 62
     3
100
AcDbText
 10
41.60262324184358
 20
598.8931387863329
 30
0.0
 40
10.0
  1
A
 50
90.83869317964419
 41
0.8
  7
GREEKS
 72
     1
 11
36.55854958209557
 21
601.8672441601296
 31
0.0
100
AcDbText
 73
     2
  0
LINE
  5
B6F
102
{ACAD_REACTORS
330
AC3
102
}
330
1E
100
AcDbEntity
  8
STEMPEL
100
AcDbLine
 10
409.935259188186
 20
557.8468796743769
 30
0.0
 11
410.935259188186
 21
557.8468796743769
 31
0.0
  0
LINE
  5
B70
330
1E
100
AcDbEntity
  8
STEMPEL
100
AcDbLine
 10
410.935259188186
 20
559.846879674377
 30
0.0
 11
409.935259188186
 21
559.846879674377
 31
0.0
  0
ARC
  5
B71
102
{ACAD_REACTORS
330
AC3
102
}
330
1E
100
AcDbEntity
  8
STEMPEL
100
AcDbCircle
 10
409.935259188186
 20
556.8468796743769
 30
0.0
 40
1.0
100
AcDbArc
 50
89.99999999999857
 51
180.0
  0
ARC
  5
B72
330
1E
100
AcDbEntity
  8
STEMPEL
100
AcDbCircle
 10
409.935259188186
 20
556.8468796743769
 30
0.0
 40
3.0
100
AcDbArc
 50
89.99999999999898
 51
180.0
  0
ARC
  5
B73
330
1E
100
AcDbEntity
  8
STEMPEL
100
AcDbCircle
 10
409.935259188186
 20
611.8468796743767
 30
0.0
 40
3.0
100
AcDbArc
 50
180.0
 51
270.000000000001
  0
ARC
  5
B74
102
{ACAD_REACTORS
330
AC3
102
}
330
1E
100
AcDbEntity
  8
STEMPEL
100
AcDbCircle
 10
409.935259188186
 20
611.8468796743767
 30
0.0
 40
1.0
100
AcDbArc
 50
180.0
 51
270.0000000000014
  0
LINE
  5
B76
102
{ACAD_REACTORS
330
AC3
102
}
330
1E
100
AcDbEntity
  8
STEMPEL
100
AcDbLine
 10
413.935259188186
 20
506.8468796743767
 30
0.0
 11
413.935259188186
 21
546.8468796743767
 31
0.0
  0
LINE
  5
B77
102
{ACAD_REACTORS
330
AC3
102
}
330
1E
100
AcDbEntity
  8
STEMPEL
100
AcDbLine
 10
413.935259188186
 20
621.846879674377
 30
0.0
 11
413.935259188186
 21
661.8468796743769
 31
0.0
  0
LINE
  5
B78
102
{ACAD_REACTORS
330
AF7
330
AC3
102
}
330
1E
100
AcDbEntity
  8
STEMPEL
100
AcDbLine
 10
414.935259188186
 20
619.3468796743767
 30
0.0
 11
413.435259188186
 21
619.3468796743767
 31
0.0
  0
LINE
  5
B79
102
{ACAD_REACTORS
330
AF7
330
AC3
102
}
330
1E
100
AcDbEntity
  8
STEMPEL
100
AcDbLine
 10
414.935259188186
 20
549.3468796743767
 30
0.0
 11
413.435259188186
 21
549.3468796743767
 31
0.0
  0
LINE
  5
B7A
102
{ACAD_REACTORS
330
AC3
102
}
330
1E
100
AcDbEntity
  8
STEMPEL
100
AcDbLine
 10
421.935259188186
 20
506.8468796743767
 30
0.0
 11
413.935259188186
 21
506.8468796743767
 31
0.0
  0
LINE
  5
B7B
102
{ACAD_REACTORS
330
AC3
102
}
330
1E
100
AcDbEntity
  8
STEMPEL
100
AcDbLine
 10
421.935259188186
 20
546.8468796743767
 30
0.0
 11
413.935259188186
 21
546.8468796743767
 31
0.0
  0
LINE
  5
B7C
102
{ACAD_REACTORS
330
AC3
102
}
330
1E
100
AcDbEntity
  8
STEMPEL
100
AcDbLine
 10
421.935259188186
 20
621.846879674377
 30
0.0
 11
413.935259188186
 21
621.846879674377
 31
0.0
  0
LINE
  5
B7D
102
{ACAD_REACTORS
330
AC3
102
}
330
1E
100
AcDbEntity
  8
STEMPEL
100
AcDbLine
 10
421.935259188186
 20
661.8468796743769
 30
0.0
 11
413.935259188186
 21
661.8468796743769
 31
0.0
  0
LINE
  5
B7E
330
1E
100
AcDbEntity
  8
VERDECKT
100
AcDbLine
 10
128.9370480066455
 20
621.8468796743767
 30
0.0
 11
128.9370480066455
 21
661.8468796743767
 31
0.0
  0
LINE
  5
B7F
330
1E
100
AcDbEntity
  8
VERDECKT
100
AcDbLine
 10
113.9370480066455
 20
621.8468796743767
 30
0.0
 11
113.9370480066455
 21
661.8468796743769
 31
0.0
  0
LINE
  5
B80
330
1E
100
AcDbEntity
  8
VERDECKT
100
AcDbLine
 10
128.9370480066455
 20
661.8468796743767
 30
0.0
 11
113.9370480066455
 21
661.8468796743769
 31
0.0
  0
LINE
  5
B81
330
1E
100
AcDbEntity
  8
VERDECKT
100
AcDbLine
 10
128.9370480066455
 20
506.8468796743767
 30
0.0
 11
113.9370480066455
 21
506.8468796743767
 31
0.0
  0
LINE
  5
B82
330
1E
100
AcDbEntity
  8
VERDECKT
100
AcDbLine
 10
128.9370480066455
 20
546.8468796743767
 30
0.0
 11
113.9370480066455
 21
546.8468796743767
 31
0.0
  0
LINE
  5
B83
330
1E
100
AcDbEntity
  8
VERDECKT
100
AcDbLine
 10
128.9370480066455
 20
621.8468796743767
 30
0.0
 11
113.9370480066455
 21
621.846879674377
 31
0.0
  0
LINE
  5
B84
330
1E
100
AcDbEntity
  8
VERDECKT
100
AcDbLine
 10
128.9370480066455
 20
506.8468796743767
 30
0.0
 11
128.9370480066455
 21
546.8468796743767
 31
0.0
  0
LINE
  5
B85
330
1E
100
AcDbEntity
  8
VERDECKT
100
AcDbLine
 10
113.9370480066455
 20
506.8468796743767
 30
0.0
 11
113.9370480066455
 21
546.8468796743767
 31
0.0
  0
LWPOLYLINE
  5
B86
330
1E
100
AcDbEntity
  8
STEMPEL
100
AcDbPolyline
 90
       16
 70
     1
 43
0.0
 10
70.87005129424358
 20
584.3468796743767
 42
0.0875553809128205
 10
74.81066294722189
 20
562.0158527227005
 42
0.0932691998081979
 10
85.68078172706817
 20
543.6882397561502
 42
0.102679024444751
 10
102.4160188549893
 20
531.1021814141232
 42
0.1104922015968145
 10
121.4370480066455
 20
526.8468796743767
 42
0.1104922015968107
 10
140.4580771583017
 20
531.102181414123
 42
0.1026790244447487
 10
157.1933142862227
 20
543.6882397561502
 42
0.0932691998081966
 10
168.063433066069
 20
562.0158527227005
 42
0.0875553809128201
 10
172.0040447190475
 20
584.3468796743767
 42
0.0875553809128203
 10
168.063433066069
 20
606.6779066260529
 42
0.093269199808199
 10
157.1933142862227
 20
625.0055195926032
 42
0.1026790244447516
 10
140.4580771583017
 20
637.5915779346302
 42
0.1104922015968169
 10
121.4370480066455
 20
641.8468796743767
 42
0.1104922015968152
 10
102.4160188549891
 20
637.5915779346302
 42
0.1026790244447482
 10
85.68078172706817
 20
625.0055195926032
 42
0.0932691998081978
 10
74.81066294722189
 20
606.6779066260529
 42
0.0875553809128198
  0
LINE
  5
B87
330
1E
100
AcDbEntity
  8
VERDECKT
100
AcDbLine
 10
151.4370480066455
 20
614.3468796743767
 30
0.0
 11
91.43704800664556
 21
614.3468796743767
 31
0.0
  0
LINE
  5
B88
330
1E
100
AcDbEntity
  8
VERDECKT
100
AcDbLine
 10
151.4370480066455
 20
554.3468796743767
 30
0.0
 11
91.43704800664556
 21
554.3468796743767
 31
0.0
  0
LINE
  5
B89
330
1E
100
AcDbEntity
  8
VERDECKT
100
AcDbLine
 10
151.4370480066455
 20
614.3468796743767
 30
0.0
 11
151.4370480066455
 21
554.3468796743767
 31
0.0
  0
LINE
  5
B8A
330
1E
100
AcDbEntity
  8
VERDECKT
100
AcDbLine
 10
91.43704800664556
 20
614.3468796743767
 30
0.0
 11
91.43704800664556
 21
554.3468796743767
 31
0.0
  0
LINE
  5
B8B
330
1E
100
AcDbEntity
  8
STEMPEL
100
AcDbLine
 10
113.9370480066455
 20
55.48261515434157
 30
0.0
 11
128.9370480066455
 21
55.48261515434157
 31
0.0
  0
LINE
  5
B8C
102
{ACAD_REACTORS
330
ABB
102
}
330
1E
100
AcDbEntity
  8
STEMPEL
100
AcDbLine
 10
113.9370480066455
 20
61.00772168528616
 30
0.0
 11
113.9370480066455
 21
55.48261515434163
 31
0.0
  0
LINE
  5
B8D
102
{ACAD_REACTORS
330
ABB
102
}
330
1E
100
AcDbEntity
  8
STEMPEL
100
AcDbLine
 10
128.9370480066455
 20
61.00772168528616
 30
0.0
 11
128.9370480066455
 21
55.48261515434163
 31
0.0
  0
LINE
  5
B90
330
1E
100
AcDbEntity
  8
STEMPEL
100
AcDbLine
 10
306.935259188186
 20
236.3468796743756
 30
0.0
 11
307.9851231504971
 21
224.3468796743769
 31
0.0
  0
LINE
  5
B91
102
{ACAD_REACTORS
330
AC3
102
}
330
1E
100
AcDbEntity
  8
STEMPEL
100
AcDbLine
 10
408.9352591881859
 20
611.8468796743767
 30
0.0
 11
408.935259188186
 21
718.3128871545084
 31
0.0
  0
LINE
  5
B92
102
{ACAD_REACTORS
330
AF9
102
}
330
1E
100
AcDbEntity
  8
STEMPEL
100
AcDbLine
 10
421.935259188186
 20
631.3468796743767
 30
0.0
 11
424.435259188186
 21
633.8468796743767
 31
0.0
  0
LINE
  5
B93
330
1E
100
AcDbEntity
  8
STEMPEL
100
AcDbLine
 10
424.435259188186
 20
794.3468796743767
 30
0.0
 11
291.435259188186
 21
794.3468796743766
 31
0.0
  0
LINE
  5
B94
102
{ACAD_REACTORS
330
AC3
102
}
330
1E
100
AcDbEntity
  8
STEMPEL
100
AcDbLine
 10
409.935259188186
 20
610.8468796743767
 30
0.0
 11
410.935259188186
 21
610.8468796743767
 31
0.0
  0
LINE
  5
B95
330
1E
100
AcDbEntity
  8
STEMPEL
100
AcDbLine
 10
410.935259188186
 20
608.8468796743767
 30
0.0
 11
409.935259188186
 21
608.8468796743767
 31
0.0
  0
LINE
  5
B96
330
1E
100
AcDbEntity
  8
STEMPEL
100
AcDbLine
 10
406.935259188186
 20
554.8468796743767
 30
0.0
 11
406.935259188186
 21
236.4342015601932
 31
0.0
  0
LINE
  5
B97
102
{ACAD_REACTORS
330
AD2
330
ABB
102
}
330
1E
100
AcDbEntity
  8
STEMPEL
100
AcDbLine
 10
151.4370480066455
 20
66.00772168528604
 30
0.0
 11
151.4370480066455
 21
63.00772168528616
 31
0.0
  0
LINE
  5
B98
330
1E
100
AcDbEntity
  8
STEMPEL
100
AcDbLine
 10
91.43704800664556
 20
66.00772168528604
 30
0.0
 11
91.43704800664556
 21
63.00772168528616
 31
0.0
  0
ARC
  5
B99
102
{ACAD_REACTORS
330
AD4
102
}
330
1E
100
AcDbEntity
  8
STEMPEL
100
AcDbCircle
 10
91.93704800664557
 20
73.8116748956555
 30
0.0
 40
5.0
100
AcDbArc
 50
0.0
 51
56.88670743127417
  0
LINE
  5
B9A
102
{ACAD_REACTORS
330
AD4
102
}
330
1E
100
AcDbEntity
  8
STEMPEL
100
AcDbLine
 10
96.93704800664557
 20
73.8116748956555
 30
0.0
 11
96.93704800664557
 21
66.00772168528604
 31
0.0
  0
LINE
  5
B9B
102
{ACAD_REACTORS
330
AD4
102
}
330
1E
100
AcDbEntity
  8
STEMPEL
100
AcDbLine
 10
145.9370480066455
 20
73.81167489565545
 30
0.0
 11
145.9370480066455
 21
66.00772168528604
 31
0.0
  0
ARC
  5
B9C
102
{ACAD_REACTORS
330
AD4
102
}
330
1E
100
AcDbEntity
  8
STEMPEL
100
AcDbCircle
 10
150.9370480066456
 20
73.81167489565545
 30
0.0
 40
5.0
100
AcDbArc
 50
123.1132925687255
 51
180.0
  0
ARC
  5
B9D
102
{ACAD_REACTORS
330
AD4
330
ABB
102
}
330
1E
100
AcDbEntity
  8
STEMPEL
100
AcDbCircle
 10
91.93704800664557
 20
73.8116748956555
 30
0.0
 40
3.0
100
AcDbArc
 50
0.0
 51
56.88670743127417
  0
ARC
  5
B9E
102
{ACAD_REACTORS
330
AD4
330
ABB
102
}
330
1E
100
AcDbEntity
  8
STEMPEL
100
AcDbCircle
 10
150.9370480066456
 20
73.81167489565545
 30
0.0
 40
3.0
100
AcDbArc
 50
123.1132925687255
 51
180.0
  0
LINE
  5
B9F
102
{ACAD_REACTORS
330
AD4
330
ABB
102
}
330
1E
100
AcDbEntity
  8
STEMPEL
100
AcDbLine
 10
147.9370480066456
 20
73.81167489565545
 30
0.0
 11
147.9370480066456
 21
66.00772168528604
 31
0.0
  0
LINE
  5
BA0
102
{ACAD_REACTORS
330
AD4
330
ABB
102
}
330
1E
100
AcDbEntity
  8
STEMPEL
100
AcDbLine
 10
94.93704800664557
 20
73.8116748956555
 30
0.0
 11
94.93704800664557
 21
66.00772168528604
 31
0.0
  0
LINE
  5
BA1
102
{ACAD_REACTORS
330
AD1
330
ABB
102
}
330
1E
100
AcDbEntity
  8
STEMPEL
100
AcDbLine
 10
147.9370480066456
 20
61.00772168528616
 30
0.0
 11
94.93704800664557
 21
61.00772168528616
 31
0.0
  0
CIRCLE
  5
BA2
102
{ACAD_REACTORS
330
AD5
330
AD3
102
}
330
1E
100
AcDbEntity
  8
STEMPEL
100
AcDbCircle
 10
121.4370480066455
 20
119.0416428372757
 30
0.0
 40
66.49999999999988
  0
CIRCLE
  5
BA3
102
{ACAD_REACTORS
330
AD5
330
AD3
330
ABC
330
ABB
102
}
330
1E
100
AcDbEntity
  8
STEMPEL
100
AcDbCircle
 10
121.4370480066455
 20
119.0416428372757
 30
0.0
 40
63.99999999999988
  0
ARC
  5
BA4
102
{ACAD_REACTORS
330
AD4
330
ABC
330
ABB
102
}
330
1E
100
AcDbEntity
  8
STEMPEL
100
AcDbCircle
 10
121.4370480066455
 20
119.0416428372757
 30
0.0
 40
51.0
100
AcDbArc
 50
303.1132925687256
 51
236.8867074312744
  0
CIRCLE
  5
BA5
102
{ACAD_REACTORS
330
AD4
102
}
330
1E
100
AcDbEntity
  8
STEMPEL
100
AcDbCircle
 10
121.4370480066455
 20
119.0416428372757
 30
0.0
 40
49.0
  0
LINE
  5
BA6
102
{ACAD_REACTORS
330
AD5
330
AD4
330
ABB
102
}
330
1E
100
AcDbEntity
  8
MITTEL
100
AcDbLine
 10
49.93704800664568
 20
119.0416428372757
 30
0.0
 11
192.9370480066453
 21
119.0416428372757
 31
0.0
  0
LINE
  5
BA7
102
{ACAD_REACTORS
330
AD5
330
AD4
330
AD3
330
AD2
330
AD1
330
ABC
102
}
330
1E
100
AcDbEntity
  8
MITTEL
100
AcDbLine
 10
121.4370480066455
 20
190.5416428372756
 30
0.0
 11
121.4370480066455
 21
47.54164283727582
 31
0.0
  0
LINE
  5
BA8
102
{ACAD_REACTORS
330
AF9
102
}
330
1E
100
AcDbEntity
  8
STEMPEL
100
AcDbLine
 10
420.435259188186
 20
544.8468796743767
 30
0.0
 11
424.435259188186
 21
548.8468796743767
 31
0.0
  0
LINE
  5
BA9
102
{ACAD_REACTORS
330
AF9
102
}
330
1E
100
AcDbEntity
  8
STEMPEL
100
AcDbLine
 10
420.435259188186
 20
538.8468796743767
 30
0.0
 11
424.435259188186
 21
534.8468796743767
 31
0.0
  0
LINE
  5
BAA
102
{ACAD_REACTORS
330
AF9
102
}
330
1E
100
AcDbEntity
  8
STEMPEL
100
AcDbLine
 10
421.935259188186
 20
631.3468796743767
 30
0.0
 11
421.935259188186
 21
661.8468796743769
 31
0.0
  0
LINE
  5
BAB
102
{ACAD_REACTORS
330
AF9
102
}
330
1E
100
AcDbEntity
  8
STEMPEL
100
AcDbLine
 10
420.435259188186
 20
623.8468796743767
 30
0.0
 11
424.435259188186
 21
619.8468796743767
 31
0.0
  0
LINE
  5
BAC
330
1E
100
AcDbEntity
  8
STEMPEL
100
AcDbLine
 10
420.435259188186
 20
629.8468796743767
 30
0.0
 11
421.935259188186
 21
631.3468796743767
 31
0.0
  0
LINE
  5
BAD
330
1E
100
AcDbEntity
  8
STEMPEL
100
AcDbLine
 10
420.435259188186
 20
538.8468796743767
 30
0.0
 11
420.4352591881862
 21
544.8468796743767
 31
0.0
  0
LINE
  5
BAE
330
1E
100
AcDbEntity
  8
STEMPEL
100
AcDbLine
 10
420.435259188186
 20
623.8468796743767
 30
0.0
 11
420.435259188186
 21
629.8468796743767
 31
0.0
  0
LINE
  5
BAF
330
1E
100
AcDbEntity
  8
STEMPEL
100
AcDbLine
 10
420.435259188186
 20
538.8468796743767
 30
0.0
 11
413.935259188186
 21
538.8468796743767
 31
0.0
  0
LINE
  5
BB0
330
1E
100
AcDbEntity
  8
STEMPEL
100
AcDbLine
 10
420.4352591881862
 20
544.8468796743767
 30
0.0
 11
413.935259188186
 21
544.8468796743772
 31
0.0
  0
LINE
  5
BB1
330
1E
100
AcDbEntity
  8
STEMPEL
100
AcDbLine
 10
420.435259188186
 20
623.8468796743767
 30
0.0
 11
413.935259188186
 21
623.8468796743767
 31
0.0
  0
LINE
  5
BB2
330
1E
100
AcDbEntity
  8
STEMPEL
100
AcDbLine
 10
420.435259188186
 20
629.8468796743767
 30
0.0
 11
413.935259188186
 21
629.8468796743767
 31
0.0
  0
LINE
  5
BB3
102
{ACAD_REACTORS
330
AC7
330
AC3
102
}
330
1E
100
AcDbEntity
  8
STEMPEL
100
AcDbLine
 10
293.935259188186
 20
284.3468796743767
 30
0.0
 11
293.935259188186
 21
794.3468796743766
 31
0.0
  0
LINE
  5
BB4
102
{ACAD_REACTORS
330
AF7
330
AC3
102
}
330
1E
100
AcDbEntity
  8
STEMPEL
100
AcDbLine
 10
414.935259188186
 20
549.3468796743767
 30
0.0
 11
414.935259188186
 21
619.3468796743767
 31
0.0
  0
LINE
  5
BB5
102
{ACAD_REACTORS
330
AF7
330
AC3
102
}
330
1E
100
AcDbEntity
  8
STEMPEL
100
AcDbLine
 10
413.435259188186
 20
549.3468796743767
 30
0.0
 11
413.435259188186
 21
554.3468796743767
 31
0.0
  0
LINE
  5
BB6
102
{ACAD_REACTORS
330
AC3
102
}
330
1E
100
AcDbEntity
  8
STEMPEL
100
AcDbLine
 10
413.435259188186
 20
554.3468796743767
 30
0.0
 11
410.9352591881857
 21
554.3468796743767
 31
0.0
  0
LINE
  5
BB7
102
{ACAD_REACTORS
330
AC3
102
}
330
1E
100
AcDbEntity
  8
STEMPEL
100
AcDbLine
 10
413.435259188186
 20
614.3468796743767
 30
0.0
 11
410.935259188186
 21
614.3468796743767
 31
0.0
  0
LINE
  5
BB8
330
1E
100
AcDbEntity
  8
STEMPEL
100
AcDbLine
 10
293.935259188186
 20
284.3468796743768
 30
0.0
 11
291.4352591881863
 21
284.346879674377
 31
0.0
  0
LINE
  5
BB9
330
1E
100
AcDbEntity
  8
STEMPEL
100
AcDbLine
 10
308.935259188186
 20
236.4342015601926
 30
0.0
 11
309.9927628255838
 21
224.3468796743769
 31
0.0
  0
LINE
  5
BBA
330
1E
100
AcDbEntity
  8
STEMPEL
100
AcDbLine
 10
406.935259188186
 20
236.4342015601932
 30
0.0
 11
405.8777555507882
 21
224.3468796743769
 31
0.0
  0
LINE
  5
BBB
330
1E
100
AcDbEntity
  8
STEMPEL
100
AcDbLine
 10
406.9352591881857
 20
556.8468796743769
 30
0.0
 11
406.935259188186
 21
236.4342015601932
 31
0.0
  0
LINE
  5
BBC
102
{ACAD_REACTORS
330
AF9
102
}
330
1E
100
AcDbEntity
  8
STEMPEL
100
AcDbLine
 10
421.935259188186
 20
526.8468796743767
 30
0.0
 11
424.435259188186
 21
526.8468796743767
 31
0.0
  0
LINE
  5
BBD
102
{ACAD_REACTORS
330
AF9
102
}
330
1E
100
AcDbEntity
  8
STEMPEL
100
AcDbLine
 10
421.935259188186
 20
641.8468796743767
 30
0.0
 11
424.435259188186
 21
641.8468796743767
 31
0.0
  0
LINE
  5
BBE
330
1E
100
AcDbEntity
  8
STEMPEL
100
AcDbLine
 10
172.4370480066455
 20
282.3468796743759
 30
0.0
 11
172.4370480066455
 21
236.3468796743764
 31
0.0
  0
LINE
  5
BBF
330
1E
100
AcDbEntity
  8
STEMPEL
100
AcDbLine
 10
70.43704800664558
 20
282.3468796743766
 30
0.0
 11
70.43704800664556
 21
236.3468796743757
 31
0.0
  0
CIRCLE
  5
BC0
330
1E
100
AcDbEntity
  8
VERDECKT
100
AcDbCircle
 10
121.4370480066455
 20
584.3468796743767
 30
0.0
 40
26.5
  0
CIRCLE
  5
BC1
330
1E
100
AcDbEntity
  8
STEMPEL
100
AcDbCircle
 10
121.4370480066455
 20
541.8468796743767
 30
0.0
 40
6.0
  0
CIRCLE
  5
BC2
330
1E
100
AcDbEntity
  8
STEMPEL
100
AcDbCircle
 10
121.4370480066455
 20
626.8468796743767
 30
0.0
 40
6.0
  0
LINE
  5
BC3
330
1E
100
AcDbEntity
  8
MITTEL
100
AcDbLine
 10
134.4370480066455
 20
541.8468796743767
 30
0.0
 11
108.4370480066455
 21
541.8468796743767
 31
0.0
  0
LINE
  5
BC4
330
1E
100
AcDbEntity
  8
MITTEL
100
AcDbLine
 10
134.4370480066455
 20
626.8468796743767
 30
0.0
 11
108.4370480066455
 21
626.8468796743767
 31
0.0
  0
LINE
  5
BC5
102
{ACAD_REACTORS
330
AC3
102
}
330
1E
100
AcDbEntity
  8
MITTEL
100
AcDbLine
 10
429.4352591881862
 20
541.8468796743767
 30
0.0
 11
408.9352591881858
 21
541.8468796743767
 31
0.0
  0
LINE
  5
BC6
102
{ACAD_REACTORS
330
AC3
102
}
330
1E
100
AcDbEntity
  8
STEMPEL
100
AcDbLine
 10
421.935259188186
 20
284.3468796743767
 30
0.0
 11
421.935259188186
 21
506.8468796743767
 31
0.0
  0
LINE
  5
BC7
102
{ACAD_REACTORS
330
AC3
102
}
330
1E
100
AcDbEntity
  8
STEMPEL
100
AcDbLine
 10
410.9352591881857
 20
554.3468796743767
 30
0.0
 11
410.935259188186
 21
608.8468796743767
 31
0.0
  0
LINE
  5
BC8
330
1E
100
AcDbEntity
  8
HILF
100
AcDbLine
 10
306.6901433075479
 20
749.6367947959278
 30
0.0
 11
409.1803750688235
 21
749.6367947959278
 31
0.0
  0
LINE
  5
BC9
330
1E
100
AcDbEntity
  8
HILF
100
AcDbLine
 10
307.8637755532528
 20
726.8511098666773
 30
0.0
 11
408.0067428231176
 21
726.8511098666773
 31
0.0
  0
LINE
  5
BCA
330
1E
100
AcDbEntity
  8
HILF
100
AcDbLine
 10
310.7010903364189
 20
720.6719584529869
 30
0.0
 11
405.1694280399543
 21
720.6719584529869
 31
0.0
  0
LINE
  5
BCB
102
{ACAD_REACTORS
330
AC7
330
AC3
102
}
330
1E
100
AcDbEntity
  8
MITTEL
100
AcDbLine
 10
427.7505026729628
 20
584.3468796743767
 30
0.0
 11
286.4352591881861
 21
584.3468796743767
 31
0.0
  0
LINE
  5
BCC
330
1E
100
AcDbEntity
  8
STEMPEL
100
AcDbLine
 10
424.435259188186
 20
284.3468796743767
 30
0.0
 11
421.935259188186
 21
284.3468796743768
 31
0.0
  0
LINE
  5
BCD
330
1E
100
AcDbEntity
  8
STEMPEL
100
AcDbLine
 10
408.935259188186
 20
236.3468796743758
 30
0.0
 11
407.8853952258749
 21
224.3468796743769
 31
0.0
  0
LINE
  5
BCE
330
1E
100
AcDbEntity
  8
STEMPEL
100
AcDbLine
 10
306.935259188186
 20
236.3468796743756
 30
0.0
 11
307.9851231504971
 21
224.3468796743769
 31
0.0
  0
LINE
  5
BCF
330
1E
100
AcDbEntity
  8
STEMPEL
100
AcDbLine
 10
407.8853952258749
 20
224.3468796743769
 30
0.0
 11
307.9851231504971
 21
224.3468796743769
 31
0.0
  0
LINE
  5
BD0
330
1E
100
AcDbEntity
  8
HILF
100
AcDbLine
 10
403.9161600004692
 20
236.3468796743768
 30
0.0
 11
311.9543583759027
 21
236.3468796743768
 31
0.0
  0
LINE
  5
BD1
330
1E
100
AcDbEntity
  8
STEMPEL
100
AcDbLine
 10
291.4352591881863
 20
282.3468796743768
 30
0.0
 11
291.435259188186
 21
794.3468796743766
 31
0.0
  0
LINE
  5
BD2
330
1E
100
AcDbEntity
  8
MITTEL
100
AcDbLine
 10
357.935259188186
 20
219.3468796743768
 30
0.0
 11
357.935259188186
 21
799.3468796743767
 31
0.0
  0
LINE
  5
BD3
102
{ACAD_REACTORS
330
AF9
102
}
330
1E
100
AcDbEntity
  8
STEMPEL
100
AcDbLine
 10
424.435259188186
 20
282.3468796743763
 30
0.0
 11
424.435259188186
 21
794.3468796743767
 31
0.0
  0
LINE
  5
BD4
330
1E
100
AcDbEntity
  8
STEMPEL
100
AcDbLine
 10
187.9370480066455
 20
284.3468796743767
 30
0.0
 11
54.93704800664557
 21
284.346879674377
 31
0.0
  0
LINE
  5
BD5
330
1E
100
AcDbEntity
  8
STEMPEL
100
AcDbLine
 10
187.9370480066456
 20
282.3468796743758
 30
0.0
 11
187.9370480066455
 21
794.3468796743767
 31
0.0
  0
LINE
  5
BD6
330
1E
100
AcDbEntity
  8
STEMPEL
100
AcDbLine
 10
54.93704800664556
 20
282.3468796743767
 30
0.0
 11
54.93704800664557
 21
794.3468796743765
 31
0.0
  0
LINE
  5
BD7
330
1E
100
AcDbEntity
  8
MITTEL
100
AcDbLine
 10
206.5956244358342
 20
584.3468796743767
 30
0.0
 11
41.06070095695611
 21
584.3468796743767
 31
0.0
  0
LINE
  5
BD8
330
1E
100
AcDbEntity
  8
MITTEL
100
AcDbLine
 10
121.4370480066455
 20
219.3468796743768
 30
0.0
 11
121.4370480066455
 21
799.3468796743765
 31
0.0
  0
ARC
  5
BD9
330
1E
100
AcDbEntity
  8
VERDECKT
100
AcDbCircle
 10
87.43704800664557
 20
781.7421282118056
 30
0.0
 40
25.0
100
AcDbArc
 50
155.0000000000031
 51
180.0000000000001
  0
LINE
  5
BDA
330
1E
100
AcDbEntity
  8
VERDECKT
100
AcDbLine
 10
65.73029216872066
 20
794.3468796743767
 30
0.0
 11
64.77935333072912
 21
792.3075847553231
 31
0.0
  0
ARC
  5
BDB
330
1E
100
AcDbEntity
  8
VERDECKT
100
AcDbCircle
 10
54.43704800664557
 20
746.8468796743767
 30
0.0
 40
12.0
100
AcDbArc
 50
0.0
 51
26.88777065902
  0
ARC
  5
BDC
330
1E
100
AcDbEntity
  8
VERDECKT
100
AcDbCircle
 10
87.43704800664557
 20
763.5798796743767
 30
0.0
 40
24.99990931069965
100
AcDbArc
 50
180.0
 51
206.88777065902
  0
LINE
  5
BDD
330
1E
100
AcDbEntity
  8
VERDECKT
100
AcDbLine
 10
66.43704800664557
 20
746.8468796743767
 30
0.0
 11
66.43704800664557
 21
731.2743685513242
 31
0.0
  0
LINE
  5
BDE
330
1E
100
AcDbEntity
  8
VERDECKT
100
AcDbLine
 10
62.43704800664557
 20
781.7421282118056
 30
0.0
 11
62.43704800664557
 21
763.5798796743767
 31
0.0
  0
POINT
  5
BDF
330
1E
100
AcDbEntity
  8
VERDECKT
100
AcDbPoint
 10
177.1438038445704
 20
794.3468796743767
 30
0.0
  0
ARC
  5
BE0
330
1E
100
AcDbEntity
  8
VERDECKT
100
AcDbCircle
 10
155.4370480066455
 20
781.7421282118056
 30
0.0
 40
25.0
100
AcDbArc
 50
359.9999999999999
 51
24.99999999999359
  0
LINE
  5
BE1
330
1E
100
AcDbEntity
  8
VERDECKT
100
AcDbLine
 10
177.1438038445704
 20
794.3468796743767
 30
0.0
 11
178.0947426825617
 21
792.3075847553231
 31
0.0
  0
ARC
  5
BE2
330
1E
100
AcDbEntity
  8
VERDECKT
100
AcDbCircle
 10
188.4370480066456
 20
746.8468796743767
 30
0.0
 40
12.0
100
AcDbArc
 50
153.11222934098
 51
180.0
  0
ARC
  5
BE3
330
1E
100
AcDbEntity
  8
VERDECKT
100
AcDbCircle
 10
155.4370480066455
 20
763.5798796743767
 30
0.0
 40
24.99990931069965
100
AcDbArc
 50
333.1122293409801
 51
0.0
  0
POINT
  5
BE4
330
1E
100
AcDbEntity
  8
VERDECKT
100
AcDbPoint
 10
174.7415546814444
 20
724.3468796743767
 30
0.0
  0
LINE
  5
BE5
330
1E
100
AcDbEntity
  8
VERDECKT
100
AcDbLine
 10
176.4370480066455
 20
746.8468796743767
 30
0.0
 11
176.4370480066455
 21
731.2743685513242
 31
0.0
  0
LINE
  5
BE6
330
1E
100
AcDbEntity
  8
VERDECKT
100
AcDbLine
 10
180.4370480066456
 20
781.7421282118056
 30
0.0
 11
180.4370480066456
 21
763.5798796743767
 31
0.0
  0
LINE
  5
BE7
330
1E
100
AcDbEntity
  8
STEMPEL
100
AcDbLine
 10
187.9370480066455
 20
794.3468796743767
 30
0.0
 11
54.93704800664557
 21
794.3468796743765
 31
0.0
  0
LINE
  5
BE8
330
1E
100
AcDbEntity
  8
STEMPEL
100
AcDbLine
 10
70.43704800664556
 20
236.3468796743757
 30
0.0
 11
71.48691196895663
 21
224.3468796743769
 31
0.0
  0
POINT
  5
BE9
330
1E
100
AcDbEntity
  8
STEMPEL
100
AcDbPoint
 10
171.3871840443345
 20
224.3468796743769
 30
0.0
  0
LINE
  5
BEA
330
1E
100
AcDbEntity
  8
STEMPEL
100
AcDbLine
 10
172.4370480066455
 20
236.3468796743764
 30
0.0
 11
171.3871840443345
 21
224.3468796743769
 31
0.0
  0
LINE
  5
BEB
330
1E
100
AcDbEntity
  8
STEMPEL
100
AcDbLine
 10
171.3871840443345
 20
224.3468796743769
 30
0.0
 11
71.48691196895663
 21
224.3468796743769
 31
0.0
  0
LINE
  5
BEC
330
1E
100
AcDbEntity
  8
HILF
100
AcDbLine
 10
170.4370480066453
 20
236.3468796743768
 30
0.0
 11
72.43704800664557
 21
236.3468796743768
 31
0.0
  0
ARC
  5
BED
330
1E
100
AcDbEntity
  8
VERDECKT
100
AcDbCircle
 10
81.43704800664556
 20
731.2743685513242
 30
0.0
 40
15.0
100
AcDbArc
 50
180.0
 51
214.3011527567915
  0
ARC
  5
BEE
330
1E
100
AcDbEntity
  8
VERDECKT
100
AcDbCircle
 10
62.43704800664557
 20
718.3128871545085
 30
0.0
 40
8.0
100
AcDbArc
 50
0.0
 51
34.30115275679148
  0
ARC
  5
BEF
330
1E
100
AcDbEntity
  8
VERDECKT
100
AcDbCircle
 10
161.4370480066456
 20
731.2743685513242
 30
0.0
 40
15.0
100
AcDbArc
 50
325.6988472432086
 51
0.0
  0
ARC
  5
BF0
330
1E
100
AcDbEntity
  8
VERDECKT
100
AcDbCircle
 10
180.4370480066456
 20
718.3128871545085
 30
0.0
 40
8.0
100
AcDbArc
 50
145.6988472432085
 51
180.0
  0
LINE
  5
BF1
330
1E
100
AcDbEntity
  8
HILF
 62
     7
100
AcDbLine
 10
9.999999999999772
 20
460.0000000000002
 30
0.0
 11
-0.0000000000001137
 21
460.0000000000002
 31
0.0
  0
LINE
  5
BF2
330
1E
100
AcDbEntity
  8
HILF
 62
     7
100
AcDbLine
 10
594.0
 20
460.0000000000002
 30
0.0
 11
583.9999999999998
 21
460.0000000000002
 31
0.0
  0
LINE
  5
BF3
330
1E
100
AcDbEntity
  8
STEMPEL
100
AcDbLine
 10
583.9999999999998
 20
40.00000000000016
 30
0.0
 11
9.999999999999772
 21
40.00000000000006
 31
0.0
  0
LINE
  5
BF4
330
1E
100
AcDbEntity
  8
HILF
100
AcDbLine
 10
593.9999999999998
 20
0.0000000000001705
 30
0.0
 11
0.0
 21
0.0
 31
0.0
  0
INSERT
  5
BF5
330
1E
100
AcDbEntity
  8
STEMPEL
100
AcDbBlockReference
  2
LOGO
 10
548.9789472355165
 20
570.9955485457796
 30
0.0
 41
2.0
 42
2.0
 43
2.0
 50
90.0
  0
TEXT
  5
BF6
330
1E
100
AcDbEntity
  8
TEXT
100
AcDbText
 10
503.2363615897695
 20
613.688036969989
 30
0.0
 40
4.0
  1
DIN EN1123-2
 50
90.0
 41
0.75
  7
GREEKS
 72
     1
 11
503.2363615897695
 21
629.6166083985605
 31
0.0
100
AcDbText
  0
TEXT
  5
BF7
330
1E
100
AcDbEntity
  8
TEXT
100
AcDbText
 10
551.3702584697734
 20
654.983750157783
 30
0.0
 40
4.0
  1
58057100W.DWG
 50
90.0
 41
0.8
  7
GREEKS
100
AcDbText
  0
TEXT
  5
BF8
330
1E
100
AcDbEntity
  8
TEXT
100
AcDbText
 10
542.3598805695782
 20
655.1296391125317
 30
0.0
 40
5.0
  1
EDV-Art.Nr. 58057.100X
 50
90.0
 41
0.8
  7
GREEKS
100
AcDbText
  0
TEXT
  5
BF9
330
1E
100
AcDbEntity
  8
TEXT
100
AcDbText
 10
531.8841929322511
 20
655.1296391125317
 30
0.0
 40
5.0
  1
Reinigungsöffnung
 50
90.0
 41
0.8
  7
GREEKS
100
AcDbText
  0
TEXT
  5
BFA
330
1E
100
AcDbEntity
  8
TEXT
100
AcDbText
 10
522.4966558241468
 20
655.1296391125317
 30
0.0
 40
5.0
  1
mit versenkter
 50
90.0
 41
0.8
  7
GREEKS
100
AcDbText
  0
TEXT
  5
BFB
330
1E
100
AcDbEntity
  8
TEXT
 62
     1
100
AcDbText
 10
506.5825121074619
 20
656.8935731057405
 30
0.0
 40
7.0
  1
Verbundrohr DN100
 50
90.0
 41
0.8
  7
GREEKS
100
AcDbText
  0
TEXT
  5
BFC
330
1E
100
AcDbEntity
  8
TEXT
100
AcDbText
 10
530.8923495917424
 20
590.3989971082364
 30
0.0
 40
4.0
  1
03.02.
 50
90.0
 41
0.8
  7
GREEKS
 72
     1
 11
530.8923495917424
 21
597.4085209177601
 31
0.0
100
AcDbText
  0
TEXT
  5
BFD
330
1E
100
AcDbEntity
  8
TEXT
 62
     1
100
AcDbText
 10
505.8509857108601
 20
580.500630648189
 30
0.0
 40
7.0
  1
1:2
 50
90.0
 41
0.8
  7
GREEKS
100
AcDbText
  0
TEXT
  5
BFE
330
1E
100
AcDbEntity
  8
TEXT
 62
     1
100
AcDbText
 10
505.8509857108601
 20
768.1520380154051
 30
0.0
 40
7.0
  1
58057100W
 50
90.0
 41
0.8
  7
GREEKS
 72
     1
 11
505.8509857108601
 21
791.6187046820717
 31
0.0
100
AcDbText
  0
TEXT
  5
BFF
330
1E
100
AcDbEntity
  8
TEXT
100
AcDbText
 10
530.9103608027647
 20
624.4216048581261
 30
0.0
 40
4.0
  1
Koeh
 50
90.0
 41
0.8
  7
GREEKS
 72
     1
 11
530.9103608027647
 21
629.6787477152689
 31
0.0
100
AcDbText
  0
TEXT
  5
C00
330
1E
100
AcDbEntity
  8
TEXT
100
AcDbText
 10
482.3279999999999
 20
471.855099509777
 30
0.0
 40
5.0
  1
Erstellt mit AUTO-CAD 2004
 50
90.0
 41
0.8
  7
GREEKS
100
AcDbText
  0
LINE
  5
C01
330
1E
100
AcDbEntity
  8
HILF
100
AcDbLine
 10
593.9999999999998
 20
840.0000000000002
 30
0.0
 11
-0.0000000000002274
 21
840.0
 31
0.0
  0
TEXT
  5
C02
330
1E
100
AcDbEntity
  8
TEXT
100
AcDbText
 10
520.8597452884832
 20
568.6221098221042
 30
0.0
 40
4.0
  1
2011
 50
90.0
 41
0.8
  7
GREEKS
100
AcDbText
  0
LINE
  5
C03
330
1E
100
AcDbEntity
  8
HILF
100
AcDbLine
 10
296.9999999999999
 20
31.08767135713867
 30
0.0
 11
296.9999999999999
 21
0.0000000000002274
 31
0.0
  0
LINE
  5
C04
330
1E
100
AcDbEntity
  8
HILF
100
AcDbLine
 10
593.9999999999998
 20
840.0000000000002
 30
0.0
 11
593.9999999999998
 21
0.0000000000001705
 31
0.0
  0
LINE
  5
C05
330
1E
100
AcDbEntity
  8
HILF
100
AcDbLine
 10
-0.0000000000004547
 20
840.0
 30
0.0
 11
0.0
 21
0.0
 31
0.0
  0
LINE
  5
C06
330
1E
100
AcDbEntity
  8
STEMPEL
100
AcDbLine
 10
9.999999999999772
 20
830.0000000000002
 30
0.0
 11
9.999999999999772
 21
40.00000000000006
 31
0.0
  0
LINE
  5
C07
330
1E
100
AcDbEntity
  8
STEMPEL
100
AcDbLine
 10
583.9999999999998
 20
470.0000000000001
 30
0.0
 11
483.9999999999998
 21
470.0000000000001
 31
0.0
  0
LINE
  5
C08
330
1E
100
AcDbEntity
  8
STEMPEL
100
AcDbLine
 10
583.9999999999998
 20
830.0000000000002
 30
0.0
 11
9.999999999999772
 21
830.0000000000002
 31
0.0
  0
LINE
  5
C09
330
1E
100
AcDbEntity
  8
STEMPEL
100
AcDbLine
 10
583.9999999999998
 20
830.0000000000002
 30
0.0
 11
583.9999999999998
 21
40.00000000000016
 31
0.0
  0
TEXT
  5
C0A
330
1E
100
AcDbEntity
  8
TEXT
100
AcDbText
 10
541.9258382212137
 20
757.2400861497007
 30
0.0
 40
5.0
  1
ersetzt durch:
 50
90.0
 41
0.8
  7
GREEKS
100
AcDbText
  0
LINE
  5
C0B
330
1E
100
AcDbEntity
  8
STEMPEL
100
AcDbLine
 10
583.9999999999998
 20
480.0000000000002
 30
0.0
 11
583.9999999999998
 21
830.0000000000002
 31
0.0
  0
TEXT
  5
C0C
330
1E
100
AcDbEntity
  8
TEXT
100
AcDbText
 10
550.4705361035016
 20
567.6006777387307
 30
0.0
 40
4.0
  1
Norm.
 50
90.0
 41
0.8
  7
GREEKS
100
AcDbText
  0
TEXT
  5
C0D
330
1E
100
AcDbEntity
  8
TEXT
100
AcDbText
 10
540.310737085716
 20
567.5515086571675
 30
0.0
 40
4.0
  1
Gepr.
 50
90.0
 41
0.8
  7
GREEKS
100
AcDbText
  0
TEXT
  5
C0E
330
1E
100
AcDbEntity
  8
TEXT
100
AcDbText
 10
530.3700963038201
 20
567.5836127167618
 30
0.0
 40
4.0
  1
Gez.
 50
90.0
 41
0.8
  7
GREEKS
100
AcDbText
  0
TEXT
  5
C0F
330
1E
100
AcDbEntity
  8
TEXT
100
AcDbText
 10
520.6903890808475
 20
622.4626584226297
 30
0.0
 40
4.0
  1
Name
 50
90.0
 41
0.8
  7
GREEKS
100
AcDbText
  0
TEXT
  5
C10
330
1E
100
AcDbEntity
  8
TEXT
100
AcDbText
 10
520.6811949877005
 20
592.3311673153654
 30
0.0
 40
4.0
  1
Tag
 50
90.0
 41
0.8
  7
GREEKS
100
AcDbText
  0
TEXT
  5
C11
330
1E
100
AcDbEntity
  8
TEXT
100
AcDbText
 10
575.4067578303356
 20
548.661456718755
 30
0.0
 40
4.0
  1
Name
 50
90.0
 41
0.8
  7
GREEKS
 72
     1
 11
575.4067578303356
 21
554.9852662425645
 31
0.0
100
AcDbText
  0
TEXT
  5
C12
330
1E
100
AcDbEntity
  8
TEXT
100
AcDbText
 10
575.3284373066017
 20
530.0571803261057
 30
0.0
 40
4.0
  1
Tag
 50
90.0
 41
0.8
  7
GREEKS
 72
     1
 11
575.3284373066017
 21
533.7905136594391
 31
0.0
100
AcDbText
  0
TEXT
  5
C13
330
1E
100
AcDbEntity
  8
TEXT
100
AcDbText
 10
580.3453415397278
 20
478.2664110704578
 30
0.0
 40
4.0
  1
Index
 50
180.0
 41
0.8
  7
GREEKS
100
AcDbText
  0
TEXT
  5
C14
330
1E
100
AcDbEntity
  8
TEXT
100
AcDbText
 10
520.818817629
 20
756.7238616296996
 30
0.0
 40
5.0
  1
Ersatz für:
 50
90.0
 41
0.8
  7
GREEKS
100
AcDbText
  0
TEXT
  5
C15
330
1E
100
AcDbEntity
  8
TEXT
100
AcDbText
 10
563.1543942980691
 20
654.7422383911362
 30
0.0
 40
5.0
  1
Bauvorhaben
 50
90.0
 41
0.8
  7
GREEKS
100
AcDbText
  0
TEXT
  5
C16
330
1E
100
AcDbEntity
  8
TEXT
100
AcDbText
 10
491.6867965462861
 20
756.1787549576344
 30
0.0
 40
5.0
  1
Zeichnungs Nr.
 50
90.0
 41
0.8
  7
GREEKS
100
AcDbText
  0
TEXT
  5
C17
330
1E
100
AcDbEntity
  8
TEXT
100
AcDbText
 10
491.4510671988218
 20
654.8779403809012
 30
0.0
 40
5.0
  1
Benennung
 50
90.0
 41
0.8
  7
GREEKS
100
AcDbText
  0
TEXT
  5
C18
330
1E
100
AcDbEntity
  8
TEXT
100
AcDbText
 10
491.5815831565177
 20
614.2858954734054
 30
0.0
 40
5.0
  1
Zul. Abw.
 50
90.0
 41
0.8
  7
GREEKS
100
AcDbText
  0
TEXT
  5
C19
330
1E
100
AcDbEntity
  8
TEXT
100
AcDbText
 10
491.5379104912908
 20
573.5163572150379
 30
0.0
 40
5.0
  1
Maßstab
 50
90.0
 41
0.8
  7
GREEKS
100
AcDbText
  0
TEXT
  5
C1A
330
1E
100
AcDbEntity
  8
TEXT
100
AcDbText
 10
575.3261810501584
 20
492.7826069847978
 30
0.0
 40
4.0
  1
Änderung
 50
90.0
 41
0.8
  7
GREEKS
 72
     1
 11
575.3261810501584
 21
503.525464127655
 31
0.0
100
AcDbText
  0
LINE
  5
C1B
330
1E
100
AcDbEntity
  8
HILF
100
AcDbLine
 10
579.1060174197166
 20
653.4909699289888
 30
0.0
 11
579.1060174197166
 21
824.858883932673
 31
0.0
  0
LINE
  5
C1C
330
1E
100
AcDbEntity
  8
HILF
100
AcDbLine
 10
510.2201636304414
 20
756.7238616296996
 30
0.0
 11
510.2201636304414
 21
824.858883932673
 31
0.0
  0
LINE
  5
C1D
330
1E
100
AcDbEntity
  8
VOLL
100
AcDbLine
 10
533.9999999999998
 20
752.0000000000002
 30
0.0
 11
533.9999999999998
 21
830.0000000000002
 31
0.0
  0
LINE
  5
C1E
330
1E
100
AcDbEntity
  8
HILF
100
AcDbLine
 10
543.9999999999998
 20
654.773680109695
 30
0.0
 11
543.9999999999998
 21
744.8353916556312
 31
0.0
  0
LINE
  5
C1F
330
1E
100
AcDbEntity
  8
HILF
100
AcDbLine
 10
533.9999999999998
 20
654.773680109695
 30
0.0
 11
533.9999999999998
 21
744.8353916556312
 31
0.0
  0
LINE
  5
C20
330
1E
100
AcDbEntity
  8
HILF
100
AcDbLine
 10
523.9999999999999
 20
654.773680109695
 30
0.0
 11
523.9999999999999
 21
744.8353916556312
 31
0.0
  0
LINE
  5
C21
330
1E
100
AcDbEntity
  8
HILF
100
AcDbLine
 10
509.9624175243584
 20
654.773680109695
 30
0.0
 11
509.9624175243584
 21
744.8353916556312
 31
0.0
  0
LINE
  5
C22
330
1E
100
AcDbEntity
  8
HILF
100
AcDbLine
 10
543.9999999999998
 20
566.0000000000002
 30
0.0
 11
543.9999999999998
 21
650.0000000000002
 31
0.0
  0
LINE
  5
C23
330
1E
100
AcDbEntity
  8
HILF
100
AcDbLine
 10
533.9999999999998
 20
566.0000000000002
 30
0.0
 11
533.9999999999998
 21
650.0000000000002
 31
0.0
  0
LINE
  5
C24
330
1E
100
AcDbEntity
  8
HILF
100
AcDbLine
 10
523.9999999999999
 20
566.0000000000002
 30
0.0
 11
523.9999999999999
 21
650.0000000000002
 31
0.0
  0
LINE
  5
C25
330
1E
100
AcDbEntity
  8
HILF
100
AcDbLine
 10
553.9999999999999
 20
470.0000000000003
 30
0.0
 11
553.9999999999999
 21
566.0000000000002
 31
0.0
  0
LINE
  5
C26
330
1E
100
AcDbEntity
  8
HILF
100
AcDbLine
 10
543.9999999999998
 20
470.0000000000003
 30
0.0
 11
543.9999999999998
 21
566.0000000000002
 31
0.0
  0
LINE
  5
C27
330
1E
100
AcDbEntity
  8
HILF
100
AcDbLine
 10
533.9999999999998
 20
470.0000000000003
 30
0.0
 11
533.9999999999998
 21
566.0000000000002
 31
0.0
  0
LINE
  5
C28
330
1E
100
AcDbEntity
  8
HILF
100
AcDbLine
 10
523.9999999999999
 20
470.0000000000003
 30
0.0
 11
523.9999999999999
 21
566.0000000000002
 31
0.0
  0
LINE
  5
C29
330
1E
100
AcDbEntity
  8
HILF
100
AcDbLine
 10
513.9999999999998
 20
470.0000000000003
 30
0.0
 11
513.9999999999998
 21
566.0000000000002
 31
0.0
  0
LINE
  5
C2A
330
1E
100
AcDbEntity
  8
HILF
100
AcDbLine
 10
503.9999999999998
 20
470.0000000000003
 30
0.0
 11
503.9999999999998
 21
566.0000000000002
 31
0.0
  0
LINE
  5
C2B
330
1E
100
AcDbEntity
  8
HILF
100
AcDbLine
 10
493.9999999999997
 20
470.0000000000003
 30
0.0
 11
493.9999999999997
 21
566.0000000000002
 31
0.0
  0
LINE
  5
C2C
330
1E
100
AcDbEntity
  8
VOLL
100
AcDbLine
 10
484.0
 20
610.0000000000002
 30
0.0
 11
553.9999999999999
 21
610.0000000000002
 31
0.0
  0
LINE
  5
C2D
330
1E
100
AcDbEntity
  8
VOLL
100
AcDbLine
 10
513.9999999999998
 20
584.0000000000002
 30
0.0
 11
553.9999999999999
 21
584.0000000000002
 31
0.0
  0
LINE
  5
C2E
330
1E
100
AcDbEntity
  8
VOLL
100
AcDbLine
 10
483.9999999999998
 20
544.0000000000002
 30
0.0
 11
583.9999999999998
 21
544.0000000000002
 31
0.0
  0
LINE
  5
C2F
330
1E
100
AcDbEntity
  8
VOLL
100
AcDbLine
 10
483.9999999999998
 20
524.0000000000001
 30
0.0
 11
583.9999999999998
 21
524.0000000000001
 31
0.0
  0
LINE
  5
C30
330
1E
100
AcDbEntity
  8
VOLL
100
AcDbLine
 10
483.9999999999998
 20
484.0000000000004
 30
0.0
 11
583.9999999999998
 21
484.0000000000002
 31
0.0
  0
LINE
  5
C31
330
1E
100
AcDbEntity
  8
STEMPEL
100
AcDbLine
 10
513.9999999999998
 20
830.0000000000002
 30
0.0
 11
513.9999999999998
 21
566.0000000000002
 31
0.0
  0
LINE
  5
C32
330
1E
100
AcDbEntity
  8
STEMPEL
100
AcDbLine
 10
553.9999999999999
 20
830.0000000000002
 30
0.0
 11
553.9999999999999
 21
566.0000000000002
 31
0.0
  0
LINE
  5
C33
330
1E
100
AcDbEntity
  8
STEMPEL
100
AcDbLine
 10
563.9999999999998
 20
566.0
 30
0.0
 11
563.9999999999998
 21
470.0000000000001
 31
0.0
  0
LINE
  5
C34
330
1E
100
AcDbEntity
  8
STEMPEL
100
AcDbLine
 10
484.0
 20
752.0000000000002
 30
0.0
 11
553.9999999999999
 21
752.0000000000002
 31
0.0
  0
LINE
  5
C35
330
1E
100
AcDbEntity
  8
STEMPEL
100
AcDbLine
 10
483.9999999999998
 20
650.0000000000002
 30
0.0
 11
583.9999999999998
 21
650.0000000000002
 31
0.0
  0
LINE
  5
C36
330
1E
100
AcDbEntity
  8
STEMPEL
100
AcDbLine
 10
483.9999999999998
 20
566.0000000000002
 30
0.0
 11
583.9999999999998
 21
566.0000000000002
 31
0.0
  0
LINE
  5
C37
330
1E
100
AcDbEntity
  8
STEMPEL
100
AcDbLine
 10
483.9999999999998
 20
830.0000000000002
 30
0.0
 11
483.9999999999998
 21
470.0000000000001
 31
0.0
  0
ENDSEC
  0
SECTION
  2
OBJECTS
  0
DICTIONARY
  5
C
330
0
100
AcDbDictionary
281
     1
  3
ACAD_COLOR
350
11A
  3
ACAD_GROUP
350
D
  3
ACAD_LAYOUT
350
19
  3
ACAD_MATERIAL
350
119
  3
ACAD_MLINESTYLE
350
16
  3
ACAD_PLOTSETTINGS
350
18
  3
ACAD_PLOTSTYLENAME
350
E
  3
AcDbVariableDictionary
350
125
  0
DICTIONARY
  5
DB
330
1E
100
AcDbDictionary
280
     1
281
     1
  3
ACAD_LAYOUTSELFREF
360
10F
  0
DICTIONARY
  5
DD
330
1A
100
AcDbDictionary
280
     1
281
     1
  3
ACAD_LAYOUTSELFREF
360
10E
  0
DICTIONARY
  5
11A
102
{ACAD_REACTORS
330
C
102
}
330
C
100
AcDbDictionary
281
     1
  0
DICTIONARY
  5
D
102
{ACAD_REACTORS
330
C
102
}
330
C
100
AcDbDictionary
281
     1
  0
DICTIONARY
  5
19
102
{ACAD_REACTORS
330
C
102
}
330
C
100
AcDbDictionary
281
     1
  3
Layout1
350
1D
  3
Model
350
21
  0
DICTIONARY
  5
119
102
{ACAD_REACTORS
330
C
102
}
330
C
100
AcDbDictionary
281
     1
  0
DICTIONARY
  5
16
102
{ACAD_REACTORS
330
C
102
}
330
C
100
AcDbDictionary
281
     1
  3
Standard
350
17
  0
DICTIONARY
  5
18
102
{ACAD_REACTORS
330
C
102
}
330
C
100
AcDbDictionary
281
     1
  0
ACDBDICTIONARYWDFLT
  5
E
102
{ACAD_REACTORS
330
C
102
}
330
C
100
AcDbDictionary
281
     1
  3
Normal
350
F
100
AcDbDictionaryWithDefault
340
F
  0
DICTIONARY
  5
125
102
{ACAD_REACTORS
330
C
102
}
330
C
100
AcDbDictionary
281
     1
  3
DIMASSOC
350
126
  3
PROJECTNAME
350
127
  0
XRECORD
  5
10F
102
{ACAD_REACTORS
330
DB
102
}
330
DB
100
AcDbXrecord
280
     1
340
1E
  0
XRECORD
  5
10E
102
{ACAD_REACTORS
330
DD
102
}
330
DD
100
AcDbXrecord
280
     1
340
1A
  0
LAYOUT
  5
1D
102
{ACAD_REACTORS
330
19
102
}
330
19
100
AcDbPlotSettings
  1

  2
\\NT_WORK01\HP LaserJet 5000 PCL 6
  4

  6

 40
0.0
 41
0.0
 42
0.0
 43
0.0
 44
0.0
 45
0.0
 46
0.0
 47
0.0
 48
0.0
 49
0.0
140
0.0
141
0.0
142
1.0
143
1.0
 70
   688
 72
     0
 73
     0
 74
     5
  7

 75
    16
147
1.0
 76
     0
 77
     2
 78
   300
148
0.0
149
0.0
100
AcDbLayout
  1
Layout1
 70
     0
 71
     1
 10
0.0
 20
0.0
 11
12.0
 21
9.0
 12
0.0
 22
0.0
 32
0.0
 14
1.000000000000000E+20
 24
1.000000000000000E+20
 34
1.000000000000000E+20
 15
-1.000000000000000E+20
 25
-1.000000000000000E+20
 35
-1.000000000000000E+20
146
0.0
 13
0.0
 23
0.0
 33
0.0
 16
1.0
 26
0.0
 36
0.0
 17
0.0
 27
1.0
 37
0.0
 76
     0
330
1A
  0
LAYOUT
  5
21
102
{ACAD_REACTORS
330
19
102
}
330
19
100
AcDbPlotSettings
  1

  2
\\NT_WORK01\HP LaserJet 5000 PCL 6
  4

  6

 40
0.0
 41
0.0
 42
0.0
 43
0.0
 44
0.0
 45
0.0
 46
0.0
 47
0.0
 48
0.0
 49
0.0
140
0.0
141
0.0
142
1.0
143
1.0
 70
  1712
 72
     0
 73
     0
 74
     0
  7

 75
     0
147
1.0
 76
     0
 77
     2
 78
   300
148
0.0
149
0.0
100
AcDbLayout
  1
Model
 70
     1
 71
     0
 10
0.0
 20
0.0
 11
12.0
 21
9.0
 12
0.0
 22
0.0
 32
0.0
 14
0.0
 24
0.0
 34
0.0
 15
0.0
 25
0.0
 35
0.0
146
0.0
 13
0.0
 23
0.0
 33
0.0
 16
1.0
 26
0.0
 36
0.0
 17
0.0
 27
1.0
 37
0.0
 76
     0
330
1E
  0
MLINESTYLE
  5
17
102
{ACAD_REACTORS
330
16
102
}
330
16
100
AcDbMlineStyle
  2
STANDARD
 70
     0
  3

 62
   256
 51
90.0
 52
90.0
 71
     2
 49
0.5
 62
   256
  6
BYLAYER
 49
-0.5
 62
   256
  6
BYLAYER
  0
ACDBPLACEHOLDER
  5
F
102
{ACAD_REACTORS
330
E
102
}
330
E
  0
DICTIONARYVAR
  5
126
102
{ACAD_REACTORS
330
125
102
}
330
125
100
DictionaryVariables
280
     0
  1
1
  0
DICTIONARYVAR
  5
127
102
{ACAD_REACTORS
330
125
102
}
330
125
100
DictionaryVariables
280
     0
  1

  0
ENDSEC
  0
EOF
