  0
SECTION
  2
HEADER
  9
$ACADVER
  1
AC1018
  9
$ACADMAINTVER
 70
   104
  9
$DWGCODEPAGE
  3
ANSI_1252
  9
$LASTSAVEDBY
  1
w.koehlhoff
  9
$INSBASE
 10
0.0
 20
0.0
 30
0.0
  9
$EXTMIN
 10
-0.0362532231533805
 20
-0.0512671842570853
 30
-0.0000000349181948
  9
$EXTMAX
 10
594.0362587553784
 20
840.0512750076064
 30
0.0000000814935746
  9
$LIMMIN
 10
0.0
 20
0.0
  9
$LIMMAX
 10
594.0
 20
840.0
  9
$ORTHOMODE
 70
     0
  9
$REGENMODE
 70
     1
  9
$FILLMODE
 70
     1
  9
$QTEXTMODE
 70
     0
  9
$MIRRTEXT
 70
     1
  9
$LTSCALE
 40
20.0
  9
$ATTMODE
 70
     1
  9
$TEXTSIZE
 40
3.5
  9
$TRACEWID
 40
1.0
  9
$TEXTSTYLE
  7
STANDARD
  9
$CLAYER
  8
BEM
  9
$CELTYPE
  6
ByLayer
  9
$CECOLOR
 62
   256
  9
$CELTSCALE
 40
1.0
  9
$DISPSILH
 70
     0
  9
$DIMSCALE
 40
2.0
  9
$DIMASZ
 40
3.5
  9
$DIMEXO
 40
1.0
  9
$DIMDLI
 40
7.0
  9
$DIMRND
 40
0.0
  9
$DIMDLE
 40
0.0
  9
$DIMEXE
 40
1.0
  9
$DIMTP
 40
0.0
  9
$DIMTM
 40
0.0
  9
$DIMTXT
 40
3.5
  9
$DIMCEN
 40
1.5
  9
$DIMTSZ
 40
0.0
  9
$DIMTOL
 70
     0
  9
$DIMLIM
 70
     0
  9
$DIMTIH
 70
     0
  9
$DIMTOH
 70
     0
  9
$DIMSE1
 70
     0
  9
$DIMSE2
 70
     0
  9
$DIMTAD
 70
     1
  9
$DIMZIN
 70
     8
  9
$DIMBLK
  1

  9
$DIMASO
 70
     1
  9
$DIMSHO
 70
     0
  9
$DIMPOST
  1

  9
$DIMAPOST
  1

  9
$DIMALT
 70
     0
  9
$DIMALTD
 70
     2
  9
$DIMALTF
 40
25.4
  9
$DIMLFAC
 40
1.0
  9
$DIMTOFL
 70
     1
  9
$DIMTVP
 40
0.0
  9
$DIMTIX
 70
     0
  9
$DIMSOXD
 70
     0
  9
$DIMSAH
 70
     0
  9
$DIMBLK1
  1

  9
$DIMBLK2
  1

  9
$DIMSTYLE
  2
Standard
  9
$DIMCLRD
 70
     0
  9
$DIMCLRE
 70
     0
  9
$DIMCLRT
 70
     1
  9
$DIMTFAC
 40
0.5142857142857144
  9
$DIMGAP
 40
1.5
  9
$DIMJUST
 70
     0
  9
$DIMSD1
 70
     0
  9
$DIMSD2
 70
     0
  9
$DIMTOLJ
 70
     1
  9
$DIMTZIN
 70
     8
  9
$DIMALTZ
 70
     8
  9
$DIMALTTZ
 70
     8
  9
$DIMUPT
 70
     0
  9
$DIMDEC
 70
     2
  9
$DIMTDEC
 70
     2
  9
$DIMALTU
 70
     2
  9
$DIMALTTD
 70
     2
  9
$DIMTXSTY
  7
STANDARD
  9
$DIMAUNIT
 70
     0
  9
$DIMADEC
 70
     2
  9
$DIMALTRND
 40
0.0
  9
$DIMAZIN
 70
     2
  9
$DIMDSEP
 70
    46
  9
$DIMATFIT
 70
     3
  9
$DIMFRAC
 70
     0
  9
$DIMLDRBLK
  1

  9
$DIMLUNIT
 70
     2
  9
$DIMLWD
 70
    -2
  9
$DIMLWE
 70
    -2
  9
$DIMTMOVE
 70
     0
  9
$LUNITS
 70
     2
  9
$LUPREC
 70
     2
  9
$SKETCHINC
 40
1.0
  9
$FILLETRAD
 40
0.0
  9
$AUNITS
 70
     0
  9
$AUPREC
 70
     0
  9
$MENU
  1
ACAD
  9
$ELEVATION
 40
0.0
  9
$PELEVATION
 40
0.0
  9
$THICKNESS
 40
0.0
  9
$LIMCHECK
 70
     0
  9
$CHAMFERA
 40
0.0
  9
$CHAMFERB
 40
0.0
  9
$CHAMFERC
 40
0.0
  9
$CHAMFERD
 40
0.0
  9
$SKPOLY
 70
     0
  9
$TDCREATE
 40
2455397.867059838
  9
$TDUCREATE
 40
2455397.783726505
  9
$TDUPDATE
 40
2456442.306503449
  9
$TDUUPDATE
 40
2456442.223170116
  9
$TDINDWG
 40
0.0386847338
  9
$TDUSRTIMER
 40
0.0386847338
  9
$USRTIMER
 70
     1
  9
$ANGBASE
 50
0.0
  9
$ANGDIR
 70
     0
  9
$PDMODE
 70
     0
  9
$PDSIZE
 40
0.0
  9
$PLINEWID
 40
0.0
  9
$SPLFRAME
 70
     0
  9
$SPLINETYPE
 70
     6
  9
$SPLINESEGS
 70
     8
  9
$HANDSEED
  5
B75
  9
$SURFTAB1
 70
     6
  9
$SURFTAB2
 70
     6
  9
$SURFTYPE
 70
     6
  9
$SURFU
 70
     6
  9
$SURFV
 70
     6
  9
$UCSBASE
  2

  9
$UCSNAME
  2

  9
$UCSORG
 10
0.0
 20
0.0
 30
0.0
  9
$UCSXDIR
 10
1.0
 20
0.0
 30
0.0
  9
$UCSYDIR
 10
0.0
 20
1.0
 30
0.0
  9
$UCSORTHOREF
  2

  9
$UCSORTHOVIEW
 70
     0
  9
$UCSORGTOP
 10
0.0
 20
0.0
 30
0.0
  9
$UCSORGBOTTOM
 10
0.0
 20
0.0
 30
0.0
  9
$UCSORGLEFT
 10
0.0
 20
0.0
 30
0.0
  9
$UCSORGRIGHT
 10
0.0
 20
0.0
 30
0.0
  9
$UCSORGFRONT
 10
0.0
 20
0.0
 30
0.0
  9
$UCSORGBACK
 10
0.0
 20
0.0
 30
0.0
  9
$PUCSBASE
  2

  9
$PUCSNAME
  2

  9
$PUCSORG
 10
0.0
 20
0.0
 30
0.0
  9
$PUCSXDIR
 10
1.0
 20
0.0
 30
0.0
  9
$PUCSYDIR
 10
0.0
 20
1.0
 30
0.0
  9
$PUCSORTHOREF
  2

  9
$PUCSORTHOVIEW
 70
     0
  9
$PUCSORGTOP
 10
0.0
 20
0.0
 30
0.0
  9
$PUCSORGBOTTOM
 10
0.0
 20
0.0
 30
0.0
  9
$PUCSORGLEFT
 10
0.0
 20
0.0
 30
0.0
  9
$PUCSORGRIGHT
 10
0.0
 20
0.0
 30
0.0
  9
$PUCSORGFRONT
 10
0.0
 20
0.0
 30
0.0
  9
$PUCSORGBACK
 10
0.0
 20
0.0
 30
0.0
  9
$USERI1
 70
     0
  9
$USERI2
 70
     0
  9
$USERI3
 70
     0
  9
$USERI4
 70
     0
  9
$USERI5
 70
     0
  9
$USERR1
 40
0.0
  9
$USERR2
 40
0.0
  9
$USERR3
 40
0.0
  9
$USERR4
 40
0.0
  9
$USERR5
 40
0.0
  9
$WORLDVIEW
 70
     1
  9
$SHADEDGE
 70
     3
  9
$SHADEDIF
 70
    70
  9
$TILEMODE
 70
     1
  9
$MAXACTVP
 70
    16
  9
$PINSBASE
 10
0.0
 20
0.0
 30
0.0
  9
$PLIMCHECK
 70
     0
  9
$PEXTMIN
 10
1.000000000000000E+20
 20
1.000000000000000E+20
 30
1.000000000000000E+20
  9
$PEXTMAX
 10
-1.000000000000000E+20
 20
-1.000000000000000E+20
 30
-1.000000000000000E+20
  9
$PLIMMIN
 10
0.0
 20
0.0
  9
$PLIMMAX
 10
12.0
 20
9.0
  9
$UNITMODE
 70
     0
  9
$VISRETAIN
 70
     0
  9
$PLINEGEN
 70
     0
  9
$PSLTSCALE
 70
     0
  9
$TREEDEPTH
 70
  3020
  9
$CMLSTYLE
  2
Standard
  9
$CMLJUST
 70
     0
  9
$CMLSCALE
 40
1.0
  9
$PROXYGRAPHICS
 70
     1
  9
$MEASUREMENT
 70
     0
  9
$CELWEIGHT
370
    -1
  9
$ENDCAPS
280
     0
  9
$JOINSTYLE
280
     0
  9
$LWDISPLAY
290
     0
  9
$INSUNITS
 70
     0
  9
$HYPERLINKBASE
  1

  9
$STYLESHEET
  1

  9
$XEDIT
290
     1
  9
$CEPSNTYPE
380
     0
  9
$PSTYLEMODE
290
     1
  9
$FINGERPRINTGUID
  2
{D68B0D0D-A558-11D7-B632-000102183313}
  9
$VERSIONGUID
  2
{5DC14708-3FE2-48B4-9637-DC567E27A989}
  9
$EXTNAMES
290
     1
  9
$PSVPSCALE
 40
0.0
  9
$OLESTARTUP
290
     0
  9
$SORTENTS
280
   127
  9
$INDEXCTL
280
     0
  9
$HIDETEXT
280
     0
  9
$XCLIPFRAME
290
     0
  9
$HALOGAP
280
     0
  9
$OBSCOLOR
 70
   257
  9
$OBSLTYPE
280
     0
  9
$INTERSECTIONDISPLAY
280
     0
  9
$INTERSECTIONCOLOR
 70
   257
  9
$DIMASSOC
280
     1
  9
$PROJECTNAME
  1

  0
ENDSEC
  0
SECTION
  2
CLASSES
  0
CLASS
  1
ACDBDICTIONARYWDFLT
  2
AcDbDictionaryWithDefault
  3
ObjectDBX Classes
 90
        0
 91
        1
280
     0
281
     0
  0
CLASS
  1
DICTIONARYVAR
  2
AcDbDictionaryVar
  3
ObjectDBX Classes
 90
        0
 91
        7
280
     0
281
     0
  0
CLASS
  1
MATERIAL
  2
AcDbMaterial
  3
ObjectDBX Classes
 90
     1153
 91
        3
280
     0
281
     0
  0
CLASS
  1
VISUALSTYLE
  2
AcDbVisualStyle
  3
ObjectDBX Classes
 90
     4095
 91
       24
280
     0
281
     0
  0
CLASS
  1
TABLESTYLE
  2
AcDbTableStyle
  3
ObjectDBX Classes
 90
     4095
 91
        1
280
     0
281
     0
  0
CLASS
  1
SCALE
  2
AcDbScale
  3
ObjectDBX Classes
 90
     1153
 91
       17
280
     0
281
     0
  0
CLASS
  1
MLEADERSTYLE
  2
AcDbMLeaderStyle
  3
ACDB_MLEADERSTYLE_CLASS
 90
     4095
 91
        1
280
     0
281
     0
  0
CLASS
  1
ACDBSECTIONVIEWSTYLE
  2
AcDbSectionViewStyle
  3
ObjectDBX Classes
 90
     1025
 91
        1
280
     0
281
     0
  0
CLASS
  1
ACDBDETAILVIEWSTYLE
  2
AcDbDetailViewStyle
  3
ObjectDBX Classes
 90
     1025
 91
        1
280
     0
281
     0
  0
CLASS
  1
SORTENTSTABLE
  2
AcDbSortentsTable
  3
ObjectDBX Classes
 90
        0
 91
        1
280
     0
281
     0
  0
CLASS
  1
CELLSTYLEMAP
  2
AcDbCellStyleMap
  3
ObjectDBX Classes
 90
     1152
 91
        3
280
     0
281
     0
  0
ENDSEC
  0
SECTION
  2
TABLES
  0
TABLE
  2
VPORT
  5
8
102
{ACAD_XDICTIONARY
360
AB8
102
}
330
0
100
AcDbSymbolTable
 70
     1
  0
VPORT
  5
849
330
8
100
AcDbSymbolTableRecord
100
AcDbViewportTableRecord
  2
*Active
 70
     0
 10
0.0
 20
0.0
 11
1.0
 21
1.0
 12
297.0000027661125
 22
420.0000039116746
 13
0.0
 23
0.0
 14
1.0
 24
1.0
 15
10.0
 25
10.0
 16
0.0
 26
0.0
 36
1.0
 17
0.0
 27
0.0
 37
0.0
 40
845.7725256037319
 41
1.699324324324324
 42
50.0
 43
0.0
 44
0.0
 50
0.0
 51
0.0
 71
     0
 72
  1500
 73
     1
 74
     0
 75
     0
 76
     0
 77
     0
 78
     0
281
     0
 65
     1
110
0.0
120
0.0
130
0.0
111
1.0
121
0.0
131
0.0
112
0.0
122
1.0
132
0.0
 79
     0
146
0.0
1001
ACAD_NAV_VCDISPLAY
1070
     3
  0
ENDTAB
  0
TABLE
  2
LTYPE
  5
5
330
0
100
AcDbSymbolTable
 70
     6
  0
LTYPE
  5
13
330
5
100
AcDbSymbolTableRecord
100
AcDbLinetypeTableRecord
  2
ByBlock
 70
     0
  3

 72
    65
 73
     0
 40
0.0
  0
LTYPE
  5
14
330
5
100
AcDbSymbolTableRecord
100
AcDbLinetypeTableRecord
  2
ByLayer
 70
     0
  3

 72
    65
 73
     0
 40
0.0
  0
LTYPE
  5
15
330
5
100
AcDbSymbolTableRecord
100
AcDbLinetypeTableRecord
  2
Continuous
 70
     0
  3
Solid line
 72
    65
 73
     0
 40
0.0
  0
LTYPE
  5
25
330
5
100
AcDbSymbolTableRecord
100
AcDbLinetypeTableRecord
  2
STRICHPUNKT
 70
     0
  3
__ . __ . __ . __ . __ . __ . __ . __ . __ . __
 72
    65
 73
     4
 40
1.0
 49
0.5
 74
     0
 49
-0.25
 74
     0
 49
0.0
 74
     0
 49
-0.25
 74
     0
  0
LTYPE
  5
34
330
5
100
AcDbSymbolTableRecord
100
AcDbLinetypeTableRecord
  2
AUSGEZOGEN
 70
     0
  3
Ausgezogene Linie
 72
    65
 73
     0
 40
0.0
  0
LTYPE
  5
3E4
330
5
100
AcDbSymbolTableRecord
100
AcDbLinetypeTableRecord
  2
VERDECKT
 70
     0
  3
_ _ _ _ _ _ _ _ _ _ _ _ _ _ _ _ _ _ _ _ _ _ _
 72
    65
 73
     2
 40
0.375
 49
0.25
 74
     0
 49
-0.125
 74
     0
  0
LTYPE
  5
893
330
5
100
AcDbSymbolTableRecord
100
AcDbLinetypeTableRecord
  2
PHANTOM2
 70
     0
  3
Phantom (.5x) ___ _ _ ___ _ _ ___ _ _ ___ _ _
 72
    65
 73
     6
 40
1.25
 49
0.625
 74
     0
 49
-0.125
 74
     0
 49
0.125
 74
     0
 49
-0.125
 74
     0
 49
0.125
 74
     0
 49
-0.125
 74
     0
  0
ENDTAB
  0
TABLE
  2
LAYER
  5
2
330
0
100
AcDbSymbolTable
 70
    10
  0
LAYER
  5
10
102
{ACAD_XDICTIONARY
360
AA3
102
}
330
2
100
AcDbSymbolTableRecord
100
AcDbLayerTableRecord
  2
0
 70
     0
 62
     7
  6
Continuous
370
    -3
390
F
  0
LAYER
  5
2B
102
{ACAD_XDICTIONARY
360
AA5
102
}
330
2
100
AcDbSymbolTableRecord
100
AcDbLayerTableRecord
  2
VOLL
 70
     0
 62
     1
  6
Continuous
370
    -3
390
F
  0
LAYER
  5
2C
102
{ACAD_XDICTIONARY
360
AA7
102
}
330
2
100
AcDbSymbolTableRecord
100
AcDbLayerTableRecord
  2
HILF
 70
     0
 62
     2
  6
Continuous
370
    -3
390
F
  0
LAYER
  5
2D
102
{ACAD_XDICTIONARY
360
AA9
102
}
330
2
100
AcDbSymbolTableRecord
100
AcDbLayerTableRecord
  2
MITTEL
 70
     0
 62
     2
  6
STRICHPUNKT
370
    -3
390
F
  0
LAYER
  5
2F
102
{ACAD_XDICTIONARY
360
AAB
102
}
330
2
100
AcDbSymbolTableRecord
100
AcDbLayerTableRecord
  2
BEM
 70
     0
 62
     7
  6
Continuous
370
    -3
390
F
  0
LAYER
  5
30
102
{ACAD_XDICTIONARY
360
AAD
102
}
330
2
100
AcDbSymbolTableRecord
100
AcDbLayerTableRecord
  2
STEMPEL
 70
     0
 62
     3
  6
Continuous
370
    -3
390
F
  0
LAYER
  5
33
102
{ACAD_XDICTIONARY
360
AAF
102
}
330
2
100
AcDbSymbolTableRecord
100
AcDbLayerTableRecord
  2
TEXT
 70
     0
 62
     7
  6
Continuous
370
    -3
390
F
  0
LAYER
  5
3E5
102
{ACAD_XDICTIONARY
360
AB1
102
}
330
2
100
AcDbSymbolTableRecord
100
AcDbLayerTableRecord
  2
SCHRAFF
 70
     0
 62
     7
  6
AUSGEZOGEN
370
    -3
390
F
  0
LAYER
  5
3E6
330
2
100
AcDbSymbolTableRecord
100
AcDbLayerTableRecord
  2
DEFPOINTS
 70
     0
 62
     7
  6
AUSGEZOGEN
290
     0
370
    -3
390
F
  0
LAYER
  5
3E7
102
{ACAD_XDICTIONARY
360
AB3
102
}
330
2
100
AcDbSymbolTableRecord
100
AcDbLayerTableRecord
  2
VERDECKT
 70
     0
 62
     6
  6
VERDECKT
370
    -3
390
F
  0
ENDTAB
  0
TABLE
  2
STYLE
  5
3
330
0
100
AcDbSymbolTable
 70
     2
  0
STYLE
  5
11
330
3
100
AcDbSymbolTableRecord
100
AcDbTextStyleTableRecord
  2
STANDARD
 70
     0
 40
0.0
 41
0.8
 50
0.0
 71
     0
 42
3.5
  3
simplex.shx
  4

  0
STYLE
  5
24
330
3
100
AcDbSymbolTableRecord
100
AcDbTextStyleTableRecord
  2
GREEKS
 70
     0
 40
0.0
 41
0.8
 50
0.0
 71
     0
 42
2.5
  3
SIMPLEX.shx
  4

  0
ENDTAB
  0
TABLE
  2
VIEW
  5
6
330
0
100
AcDbSymbolTable
 70
     0
  0
ENDTAB
  0
TABLE
  2
UCS
  5
7
330
0
100
AcDbSymbolTable
 70
     0
  0
ENDTAB
  0
TABLE
  2
APPID
  5
9
330
0
100
AcDbSymbolTable
 70
     7
  0
APPID
  5
12
330
9
100
AcDbSymbolTableRecord
100
AcDbRegAppTableRecord
  2
ACAD
 70
     0
  0
APPID
  5
8AB
330
9
100
AcDbSymbolTableRecord
100
AcDbRegAppTableRecord
  2
AcadAnnoMonitorAlertIconDisabled
 70
     0
  0
APPID
  5
8AC
330
9
100
AcDbSymbolTableRecord
100
AcDbRegAppTableRecord
  2
ACAD_EXEMPT_FROM_CAD_STANDARDS
 70
     0
  0
APPID
  5
8C4
330
9
100
AcDbSymbolTableRecord
100
AcDbRegAppTableRecord
  2
ACAD_NAV_VCDISPLAY
 70
     0
  0
APPID
  5
8EB
330
9
100
AcDbSymbolTableRecord
100
AcDbRegAppTableRecord
  2
GradientColor1ACI
 70
     0
  0
APPID
  5
8EC
330
9
100
AcDbSymbolTableRecord
100
AcDbRegAppTableRecord
  2
GradientColor2ACI
 70
     0
  0
APPID
  5
A8D
330
9
100
AcDbSymbolTableRecord
100
AcDbRegAppTableRecord
  2
ACAD_MLEADERVER
 70
     0
  0
ENDTAB
  0
TABLE
  2
DIMSTYLE
  5
A
330
0
100
AcDbSymbolTable
 70
     1
100
AcDbDimStyleTable
 71
     1
340
A2
  0
DIMSTYLE
105
A2
102
{ACAD_REACTORS
330
5AC
330
55A
330
559
330
558
330
549
330
A6E
102
}
330
A
100
AcDbSymbolTableRecord
100
AcDbDimStyleTableRecord
  2
Standard
 70
     0
340
11
  0
ENDTAB
  0
TABLE
  2
BLOCK_RECORD
  5
1
330
0
100
AcDbSymbolTable
 70
    16
  0
BLOCK_RECORD
  5
1E
102
{ACAD_XDICTIONARY
360
DB
102
}
330
1
100
AcDbSymbolTableRecord
100
AcDbBlockTableRecord
  2
*Model_Space
340
21
  0
BLOCK_RECORD
  5
1A
102
{ACAD_XDICTIONARY
360
DD
102
}
330
1
100
AcDbSymbolTableRecord
100
AcDbBlockTableRecord
  2
*Paper_Space
340
1D
  0
BLOCK_RECORD
  5
22
330
1
100
AcDbSymbolTableRecord
100
AcDbBlockTableRecord
  2
LOGO
340
0
102
{BLKREFS
331
667
102
}
  0
BLOCK_RECORD
  5
69C
330
1
100
AcDbSymbolTableRecord
100
AcDbBlockTableRecord
  2
*D1
340
0
  0
BLOCK_RECORD
  5
6A9
330
1
100
AcDbSymbolTableRecord
100
AcDbBlockTableRecord
  2
*D2
340
0
  0
BLOCK_RECORD
  5
6B6
330
1
100
AcDbSymbolTableRecord
100
AcDbBlockTableRecord
  2
*D3
340
0
  0
BLOCK_RECORD
  5
6C3
330
1
100
AcDbSymbolTableRecord
100
AcDbBlockTableRecord
  2
*D4
340
0
  0
BLOCK_RECORD
  5
6F7
330
1
100
AcDbSymbolTableRecord
100
AcDbBlockTableRecord
  2
*D8
340
0
  0
BLOCK_RECORD
  5
A6F
330
1
100
AcDbSymbolTableRecord
100
AcDbBlockTableRecord
  2
*D15
340
0
  0
ENDTAB
  0
ENDSEC
  0
SECTION
  2
BLOCKS
  0
BLOCK
  5
37
330
1E
100
AcDbEntity
  8
0
100
AcDbBlockBegin
  2
*Model_Space
 70
     0
 10
0.0
 20
0.0
 30
0.0
  3
*Model_Space
  1

  0
ENDBLK
  5
38
330
1E
100
AcDbEntity
  8
0
100
AcDbBlockEnd
  0
BLOCK
  5
35
330
1A
100
AcDbEntity
 67
     1
  8
0
100
AcDbBlockBegin
  2
*Paper_Space
 70
     0
 10
0.0
 20
0.0
 30
0.0
  3
*Paper_Space
  1

  0
ENDBLK
  5
36
330
1A
100
AcDbEntity
 67
     1
  8
0
100
AcDbBlockEnd
  0
BLOCK
  5
39
330
22
100
AcDbEntity
  8
0
100
AcDbBlockBegin
  2
LOGO
 70
     0
 10
0.0
 20
0.0
 30
0.0
  3
LOGO
  1

  0
ARC
  5
3A
330
22
100
AcDbEntity
  8
0
100
AcDbCircle
 10
11.59973089678112
 20
-9.271599258481501
 30
0.0
 40
4.5
100
AcDbArc
 50
270.0
 51
231.0575587310159
  0
LINE
  5
3B
330
22
100
AcDbEntity
  8
0
100
AcDbLine
 10
3.599730896781125
 20
-4.771599258481529
 30
0.0
 11
3.599730896781153
 21
-11.77159925848133
 31
0.0
  0
LINE
  5
3C
330
22
100
AcDbEntity
  8
0
100
AcDbLine
 10
2.599730896781125
 20
-4.771599258481529
 30
0.0
 11
2.599730896781153
 21
-11.77159925848133
 31
0.0
  0
CIRCLE
  5
3D
330
22
100
AcDbEntity
  8
0
100
AcDbCircle
 10
11.59973089678112
 20
-9.271599258481501
 30
0.0
 40
3.5
  0
ARC
  5
3E
330
22
100
AcDbEntity
  8
0
100
AcDbCircle
 10
31.59973089678115
 20
-9.271599258481472
 30
0.0
 40
4.5
100
AcDbArc
 50
270.0
 51
231.0575587310182
  0
LINE
  5
3F
330
22
100
AcDbEntity
  8
0
100
AcDbLine
 10
17.59973089678112
 20
-4.771599258481472
 30
0.0
 11
17.59973089678115
 21
-13.77159925848147
 31
0.0
  0
ARC
  5
40
330
22
100
AcDbEntity
  8
0
100
AcDbCircle
 10
22.59973089678116
 20
-7.271599258481472
 30
0.0
 40
2.5
100
AcDbArc
 50
293.1161887722295
 51
90.0
  0
CIRCLE
  5
41
330
22
100
AcDbEntity
  8
0
100
AcDbCircle
 10
31.59973089678115
 20
-9.271599258481472
 30
0.0
 40
3.5
  0
ARC
  5
42
330
22
100
AcDbEntity
  8
0
100
AcDbCircle
 10
4.599730896781153
 20
-11.77159925848133
 30
0.0
 40
1.0
100
AcDbArc
 50
180.0
 51
270.0
  0
ARC
  5
43
330
22
100
AcDbEntity
  8
0
100
AcDbCircle
 10
4.599730896781153
 20
-11.77159925848133
 30
0.0
 40
2.0
100
AcDbArc
 50
179.9999999999992
 51
270.0
  0
LINE
  5
44
330
22
100
AcDbEntity
  8
0
100
AcDbLine
 10
11.59973089678115
 20
-13.77159925848144
 30
0.0
 11
4.599730896781153
 21
-13.77159925848147
 31
0.0
  0
LINE
  5
45
330
22
100
AcDbEntity
  8
0
100
AcDbLine
 10
8.771303772034769
 20
-12.77159925848136
 30
0.0
 11
4.599730896781153
 21
-12.77159925848133
 31
0.0
  0
LINE
  5
46
330
22
100
AcDbEntity
  8
0
100
AcDbLine
 10
31.59973089678115
 20
-13.77159925848147
 30
0.0
 11
23.6715276665056
 21
-13.77159925848144
 31
0.0
  0
LINE
  5
47
330
22
100
AcDbEntity
  8
0
100
AcDbLine
 10
23.56565672307022
 20
-9.51278021337896
 30
0.0
 11
24.4388546544846
 21
-12.77159925848144
 31
0.0
  0
LINE
  5
48
330
22
100
AcDbEntity
  8
0
100
AcDbLine
 10
22.59973089678116
 20
-9.771599258481472
 30
0.0
 11
18.59973089678112
 21
-9.771599258481472
 31
0.0
  0
LINE
  5
49
330
22
100
AcDbEntity
  8
0
100
AcDbLine
 10
18.59973089678115
 20
-13.77159925848144
 30
0.0
 11
17.59973089678115
 21
-13.77159925848144
 31
0.0
  0
LINE
  5
4A
330
22
100
AcDbEntity
  8
0
100
AcDbLine
 10
18.59973089678115
 20
-9.771599258481472
 30
0.0
 11
18.59973089678115
 21
-13.77159925848144
 31
0.0
  0
LINE
  5
4B
330
22
100
AcDbEntity
  8
0
100
AcDbLine
 10
22.59973089678116
 20
-9.771599258481472
 30
0.0
 11
23.67152766650562
 21
-13.77159925848147
 31
0.0
  0
ARC
  5
4C
330
22
100
AcDbEntity
  8
0
100
AcDbCircle
 10
22.59973089678116
 20
-7.271599258481472
 30
0.0
 40
2.5
100
AcDbArc
 50
270.0
 51
270.0000000000007
  0
LINE
  5
4D
330
22
100
AcDbEntity
  8
0
100
AcDbLine
 10
28.77130377203494
 20
-12.77159925848147
 30
0.0
 11
24.43885465448463
 21
-12.77159925848144
 31
0.0
  0
LINE
  5
4E
330
22
100
AcDbEntity
  8
0
100
AcDbLine
 10
3.599730896781125
 20
-4.771599258481472
 30
0.0
 11
2.599730896781125
 21
-4.771599258481472
 31
0.0
  0
LINE
  5
4F
330
22
100
AcDbEntity
  8
0
100
AcDbLine
 10
22.59973089678116
 20
-8.771599258481472
 30
0.0
 11
18.59973089678115
 21
-8.771599258481472
 31
0.0
  0
LINE
  5
50
330
22
100
AcDbEntity
  8
0
100
AcDbLine
 10
22.59973089678116
 20
-5.771599258481472
 30
0.0
 11
18.59973089678115
 21
-5.771599258481472
 31
0.0
  0
LINE
  5
51
330
22
100
AcDbEntity
  8
0
100
AcDbLine
 10
22.59973089678116
 20
-4.771599258481472
 30
0.0
 11
17.59973089678115
 21
-4.771599258481472
 31
0.0
  0
LINE
  5
52
330
22
100
AcDbEntity
  8
0
100
AcDbLine
 10
18.59973089678115
 20
-5.771599258481472
 30
0.0
 11
18.59973089678115
 21
-8.771599258481472
 31
0.0
  0
ARC
  5
53
330
22
100
AcDbEntity
  8
0
100
AcDbCircle
 10
22.59973089678116
 20
-7.271599258481472
 30
0.0
 40
1.5
100
AcDbArc
 50
270.0
 51
90.0
  0
ENDBLK
  5
54
330
22
100
AcDbEntity
  8
0
100
AcDbBlockEnd
  0
BLOCK
  5
6A7
330
69C
100
AcDbEntity
  8
0
100
AcDbBlockBegin
  2
*D1
 70
     1
 10
0.0
 20
0.0
 30
0.0
  3
*D1
  1

  0
LINE
  5
83C
330
69C
100
AcDbEntity
  8
BEM
 62
     0
440
 16777216
370
    -2
100
AcDbLine
 10
339.7312950907002
 20
250.7131177646461
 30
0.0
 11
339.7312950907002
 21
222.7131177646466
 31
0.0
  0
LINE
  5
83D
330
69C
100
AcDbEntity
  8
BEM
 62
     0
440
 16777216
370
    -2
100
AcDbLine
 10
266.731295090701
 20
251.3877481782531
 30
0.0
 11
266.731295090701
 21
222.7131177646466
 31
0.0
  0
LINE
  5
83E
330
69C
100
AcDbEntity
  8
BEM
 62
     0
440
 16777216
370
    -2
100
AcDbLine
 10
332.7312950907002
 20
224.7131177646466
 30
0.0
 11
273.731295090701
 21
224.7131177646466
 31
0.0
  0
SOLID
  5
83F
330
69C
100
AcDbEntity
  8
BEM
 62
     0
440
 16777216
100
AcDbTrace
 10
332.7312950907002
 20
225.8797844313133
 30
0.0
 11
332.7312950907002
 21
223.54645109798
 31
0.0
 12
339.7312950907002
 22
224.7131177646466
 32
0.0
 13
339.7312950907002
 23
224.7131177646466
 33
0.0
  0
SOLID
  5
840
330
69C
100
AcDbEntity
  8
BEM
 62
     0
440
 16777216
100
AcDbTrace
 10
273.731295090701
 20
225.8797844313133
 30
0.0
 11
273.731295090701
 21
223.54645109798
 31
0.0
 12
266.731295090701
 22
224.7131177646466
 32
0.0
 13
266.731295090701
 23
224.7131177646466
 33
0.0
  0
MTEXT
  5
841
330
69C
100
AcDbEntity
  8
BEM
 62
     1
440
 16777216
100
AcDbMText
 10
303.2312950907006
 20
231.2131177646466
 30
0.0
 40
7.0
 41
0.0
 71
     5
 72
     1
  1
\A1;%%c73
 73
     1
 44
1.0
  0
POINT
  5
842
330
69C
100
AcDbEntity
  8
DEFPOINTS
 62
     0
440
 16777216
100
AcDbPoint
 10
339.7312950907002
 20
252.7131177646461
 30
0.0
  0
POINT
  5
843
330
69C
100
AcDbEntity
  8
DEFPOINTS
 62
     0
440
 16777216
100
AcDbPoint
 10
266.731295090701
 20
253.3877481782531
 30
0.0
  0
POINT
  5
844
330
69C
100
AcDbEntity
  8
DEFPOINTS
 62
     0
440
 16777216
100
AcDbPoint
 10
266.731295090701
 20
224.7131177646466
 30
0.0
  0
ENDBLK
  5
6A8
330
69C
100
AcDbEntity
  8
0
100
AcDbBlockEnd
  0
BLOCK
  5
6B4
330
6A9
100
AcDbEntity
  8
0
100
AcDbBlockBegin
  2
*D2
 70
     1
 10
0.0
 20
0.0
 30
0.0
  3
*D2
  1

  0
LINE
  5
833
330
6A9
100
AcDbEntity
  8
BEM
 62
     0
440
 16777216
370
    -2
100
AcDbLine
 10
160.1679322102172
 20
799.7131177646465
 30
0.0
 11
223.0967098026578
 21
799.7131177646465
 31
0.0
  0
LINE
  5
834
330
6A9
100
AcDbEntity
  8
BEM
 62
     0
440
 16777216
370
    -2
100
AcDbLine
 10
151.1730187236941
 20
244.7131177646467
 30
0.0
 11
223.0967098026576
 21
244.7131177646466
 31
0.0
  0
LINE
  5
835
330
6A9
100
AcDbEntity
  8
BEM
 62
     0
440
 16777216
370
    -2
100
AcDbLine
 10
221.0967098026578
 20
792.7131177646465
 30
0.0
 11
221.0967098026576
 21
251.7131177646466
 31
0.0
  0
SOLID
  5
836
330
6A9
100
AcDbEntity
  8
BEM
 62
     0
440
 16777216
100
AcDbTrace
 10
219.9300431359911
 20
792.7131177646465
 30
0.0
 11
222.2633764693244
 21
792.7131177646465
 31
0.0
 12
221.0967098026578
 22
799.7131177646465
 32
0.0
 13
221.0967098026578
 23
799.7131177646465
 33
0.0
  0
SOLID
  5
837
330
6A9
100
AcDbEntity
  8
BEM
 62
     0
440
 16777216
100
AcDbTrace
 10
219.930043135991
 20
251.7131177646466
 30
0.0
 11
222.2633764693243
 21
251.7131177646466
 31
0.0
 12
221.0967098026576
 22
244.7131177646466
 32
0.0
 13
221.0967098026576
 23
244.7131177646466
 33
0.0
  0
MTEXT
  5
838
330
6A9
100
AcDbEntity
  8
BEM
 62
     1
440
 16777216
100
AcDbMText
 10
214.5967098026576
 20
522.2131177646466
 30
0.0
 40
7.0
 41
0.0
 71
     5
 72
     1
  1
\A1;555
 11
0.0000000000000001
 21
1.0
 31
0.0
 73
     1
 44
1.0
  0
POINT
  5
839
330
6A9
100
AcDbEntity
  8
DEFPOINTS
 62
     0
440
 16777216
100
AcDbPoint
 10
158.1679322102172
 20
799.7131177646465
 30
0.0
  0
POINT
  5
83A
330
6A9
100
AcDbEntity
  8
DEFPOINTS
 62
     0
440
 16777216
100
AcDbPoint
 10
149.1730187236941
 20
244.7131177646467
 30
0.0
  0
POINT
  5
83B
330
6A9
100
AcDbEntity
  8
DEFPOINTS
 62
     0
440
 16777216
100
AcDbPoint
 10
221.0967098026576
 20
244.7131177646466
 30
0.0
  0
ENDBLK
  5
6B5
330
6A9
100
AcDbEntity
  8
0
100
AcDbBlockEnd
  0
BLOCK
  5
6C1
330
6B6
100
AcDbEntity
  8
0
100
AcDbBlockBegin
  2
*D3
 70
     1
 10
0.0
 20
0.0
 30
0.0
  3
*D3
  1

  0
LINE
  5
82A
330
6B6
100
AcDbEntity
  8
BEM
 62
     0
440
 16777216
370
    -2
100
AcDbLine
 10
166.3729280319019
 20
289.7131177646467
 30
0.0
 11
207.0967098026576
 21
289.7131177646467
 31
0.0
  0
LINE
  5
82B
330
6B6
100
AcDbEntity
  8
BEM
 62
     0
440
 16777216
370
    -2
100
AcDbLine
 10
166.3729280319019
 20
799.7131177646465
 30
0.0
 11
207.0967098026577
 21
799.7131177646465
 31
0.0
  0
LINE
  5
82C
330
6B6
100
AcDbEntity
  8
BEM
 62
     0
440
 16777216
370
    -2
100
AcDbLine
 10
205.0967098026576
 20
296.7131177646466
 30
0.0
 11
205.0967098026577
 21
792.7131177646465
 31
0.0
  0
SOLID
  5
82D
330
6B6
100
AcDbEntity
  8
BEM
 62
     0
440
 16777216
100
AcDbTrace
 10
203.9300431359909
 20
296.7131177646466
 30
0.0
 11
206.2633764693242
 21
296.7131177646466
 31
0.0
 12
205.0967098026576
 22
289.7131177646467
 32
0.0
 13
205.0967098026576
 23
289.7131177646467
 33
0.0
  0
SOLID
  5
82E
330
6B6
100
AcDbEntity
  8
BEM
 62
     0
440
 16777216
100
AcDbTrace
 10
203.930043135991
 20
792.7131177646465
 30
0.0
 11
206.2633764693243
 21
792.7131177646465
 31
0.0
 12
205.0967098026577
 22
799.7131177646465
 32
0.0
 13
205.0967098026577
 23
799.7131177646465
 33
0.0
  0
MTEXT
  5
82F
330
6B6
100
AcDbEntity
  8
BEM
 62
     1
440
 16777216
100
AcDbMText
 10
198.5967098026575
 20
544.7131177646467
 30
0.0
 40
7.0
 41
0.0
 71
     5
 72
     1
  1
\A1;510
 11
0.0000000000000001
 21
1.0
 31
0.0
 73
     1
 44
1.0
  0
POINT
  5
830
330
6B6
100
AcDbEntity
  8
DEFPOINTS
 62
     0
440
 16777216
100
AcDbPoint
 10
164.3729280319019
 20
289.7131177646467
 30
0.0
  0
POINT
  5
831
330
6B6
100
AcDbEntity
  8
DEFPOINTS
 62
     0
440
 16777216
100
AcDbPoint
 10
164.3729280319019
 20
799.7131177646465
 30
0.0
  0
POINT
  5
832
330
6B6
100
AcDbEntity
  8
DEFPOINTS
 62
     0
440
 16777216
100
AcDbPoint
 10
205.0967098026577
 20
799.7131177646465
 30
0.0
  0
ENDBLK
  5
6C2
330
6B6
100
AcDbEntity
  8
0
100
AcDbBlockEnd
  0
BLOCK
  5
6CE
330
6C3
100
AcDbEntity
  8
0
100
AcDbBlockBegin
  2
*D4
 70
     1
 10
0.0
 20
0.0
 30
0.0
  3
*D4
  1

  0
LINE
  5
821
330
6C3
100
AcDbEntity
  8
BEM
 62
     0
440
 16777216
370
    -2
100
AcDbLine
 10
166.3729280319019
 20
289.7131177646467
 30
0.0
 11
191.0967098026575
 21
289.7131177646467
 31
0.0
  0
LINE
  5
822
330
6C3
100
AcDbEntity
  8
BEM
 62
     0
440
 16777216
370
    -2
100
AcDbLine
 10
168.3729280319019
 20
589.7131177646466
 30
0.0
 11
191.0967098026576
 21
589.7131177646466
 31
0.0
  0
LINE
  5
823
330
6C3
100
AcDbEntity
  8
BEM
 62
     0
440
 16777216
370
    -2
100
AcDbLine
 10
189.0967098026575
 20
296.7131177646466
 30
0.0
 11
189.0967098026576
 21
582.7131177646466
 31
0.0
  0
SOLID
  5
824
330
6C3
100
AcDbEntity
  8
BEM
 62
     0
440
 16777216
100
AcDbTrace
 10
187.9300431359909
 20
296.7131177646466
 30
0.0
 11
190.2633764693242
 21
296.7131177646466
 31
0.0
 12
189.0967098026575
 22
289.7131177646467
 32
0.0
 13
189.0967098026575
 23
289.7131177646467
 33
0.0
  0
SOLID
  5
825
330
6C3
100
AcDbEntity
  8
BEM
 62
     0
440
 16777216
100
AcDbTrace
 10
187.930043135991
 20
582.7131177646466
 30
0.0
 11
190.2633764693243
 21
582.7131177646466
 31
0.0
 12
189.0967098026576
 22
589.7131177646466
 32
0.0
 13
189.0967098026576
 23
589.7131177646466
 33
0.0
  0
MTEXT
  5
826
330
6C3
100
AcDbEntity
  8
BEM
 62
     1
440
 16777216
100
AcDbMText
 10
182.5967098026575
 20
439.7131177646466
 30
0.0
 40
7.0
 41
0.0
 71
     5
 72
     1
  1
\A1;300
 11
0.0000000000000001
 21
1.0
 31
0.0
 73
     1
 44
1.0
  0
POINT
  5
827
330
6C3
100
AcDbEntity
  8
DEFPOINTS
 62
     0
440
 16777216
100
AcDbPoint
 10
164.3729280319019
 20
289.7131177646467
 30
0.0
  0
POINT
  5
828
330
6C3
100
AcDbEntity
  8
DEFPOINTS
 62
     0
440
 16777216
100
AcDbPoint
 10
166.3729280319019
 20
589.7131177646466
 30
0.0
  0
POINT
  5
829
330
6C3
100
AcDbEntity
  8
DEFPOINTS
 62
     0
440
 16777216
100
AcDbPoint
 10
189.0967098026576
 20
589.7131177646466
 30
0.0
  0
ENDBLK
  5
6CF
330
6C3
100
AcDbEntity
  8
0
100
AcDbBlockEnd
  0
BLOCK
  5
702
330
6F7
100
AcDbEntity
  8
0
100
AcDbBlockBegin
  2
*D8
 70
     1
 10
0.0
 20
0.0
 30
0.0
  3
*D8
  1

  0
LINE
  5
7F9
330
6F7
100
AcDbEntity
  8
BEM
 62
     0
440
 16777216
370
    -2
100
AcDbLine
 10
268.3312950907009
 20
269.5867380514765
 30
0.0
 11
268.3312950907009
 21
265.4193724743375
 31
0.0
  0
LINE
  5
7FA
330
6F7
100
AcDbEntity
  8
BEM
 62
     0
440
 16777216
370
    -2
100
AcDbLine
 10
266.731295090701
 20
269.5867380514765
 30
0.0
 11
266.731295090701
 21
265.4193724743375
 31
0.0
  0
LINE
  5
7FB
330
6F7
100
AcDbEntity
  8
BEM
 62
     0
440
 16777216
370
    -2
100
AcDbLine
 10
275.3312950907009
 20
267.4193724743375
 30
0.0
 11
282.3312950907009
 21
267.4193724743375
 31
0.0
  0
LINE
  5
7FC
330
6F7
100
AcDbEntity
  8
BEM
 62
     0
440
 16777216
370
    -2
100
AcDbLine
 10
259.731295090701
 20
267.4193724743375
 30
0.0
 11
236.331295090701
 21
267.4193724743375
 31
0.0
  0
LINE
  5
7FD
330
6F7
100
AcDbEntity
  8
BEM
 62
     0
440
 16777216
370
    -2
100
AcDbLine
 10
268.3312950907009
 20
267.4193724743375
 30
0.0
 11
266.731295090701
 21
267.4193724743375
 31
0.0
  0
SOLID
  5
7FE
330
6F7
100
AcDbEntity
  8
BEM
 62
     0
440
 16777216
100
AcDbTrace
 10
275.3312950907009
 20
268.5860391410042
 30
0.0
 11
275.3312950907009
 21
266.2527058076708
 31
0.0
 12
268.3312950907009
 22
267.4193724743375
 32
0.0
 13
268.3312950907009
 23
267.4193724743375
 33
0.0
  0
SOLID
  5
7FF
330
6F7
100
AcDbEntity
  8
BEM
 62
     0
440
 16777216
100
AcDbTrace
 10
259.731295090701
 20
268.5860391410042
 30
0.0
 11
259.731295090701
 21
266.2527058076708
 31
0.0
 12
266.731295090701
 22
267.4193724743375
 32
0.0
 13
266.731295090701
 23
267.4193724743375
 33
0.0
  0
MTEXT
  5
800
330
6F7
100
AcDbEntity
  8
BEM
 62
     1
440
 16777216
100
AcDbMText
 10
244.531295090701
 20
273.9193724743375
 30
0.0
 40
7.0
 41
0.0
 71
     5
 72
     1
  1
\A1;1.6
 73
     1
 44
1.0
  0
POINT
  5
801
330
6F7
100
AcDbEntity
  8
DEFPOINTS
 62
     0
440
 16777216
100
AcDbPoint
 10
268.3312950907009
 20
271.5867380514765
 30
0.0
  0
POINT
  5
802
330
6F7
100
AcDbEntity
  8
DEFPOINTS
 62
     0
440
 16777216
100
AcDbPoint
 10
266.731295090701
 20
271.5867380514765
 30
0.0
  0
POINT
  5
803
330
6F7
100
AcDbEntity
  8
DEFPOINTS
 62
     0
440
 16777216
100
AcDbPoint
 10
266.731295090701
 20
267.4193724743375
 30
0.0
  0
ENDBLK
  5
703
330
6F7
100
AcDbEntity
  8
0
100
AcDbBlockEnd
  0
BLOCK
  5
A70
330
A6F
100
AcDbEntity
  8
0
100
AcDbBlockBegin
  2
*D15
 70
     1
 10
0.0
 20
0.0
 30
0.0
  3
*D15
  1

  0
LINE
  5
AF9
330
A6F
100
AcDbEntity
  8
BEM
 62
     0
440
 16777216
370
    -2
100
AcDbLine
 10
252.2312950907007
 20
801.7131177646465
 30
0.0
 11
252.2312950907007
 21
812.661574624234
 31
0.0
  0
LINE
  5
AFA
330
A6F
100
AcDbEntity
  8
BEM
 62
     0
440
 16777216
370
    -2
100
AcDbLine
 10
354.2312950907006
 20
801.7131177646465
 30
0.0
 11
354.2312950907006
 21
812.661574624234
 31
0.0
  0
LINE
  5
AFB
330
A6F
100
AcDbEntity
  8
BEM
 62
     0
440
 16777216
370
    -2
100
AcDbLine
 10
259.2312950907007
 20
810.6615746242338
 30
0.0
 11
347.2312950907006
 21
810.6615746242338
 31
0.0
  0
SOLID
  5
AFC
330
A6F
100
AcDbEntity
  8
BEM
 62
     0
440
 16777216
100
AcDbTrace
 10
259.2312950907007
 20
811.8282412909005
 30
0.0
 11
259.2312950907007
 21
809.4949079575673
 31
0.0
 12
252.2312950907007
 22
810.6615746242338
 32
0.0
 13
252.2312950907007
 23
810.6615746242338
 33
0.0
  0
SOLID
  5
AFD
330
A6F
100
AcDbEntity
  8
BEM
 62
     0
440
 16777216
100
AcDbTrace
 10
347.2312950907006
 20
811.8282412909005
 30
0.0
 11
347.2312950907006
 21
809.4949079575673
 31
0.0
 12
354.2312950907006
 22
810.6615746242338
 32
0.0
 13
354.2312950907006
 23
810.6615746242338
 33
0.0
  0
MTEXT
  5
AFE
330
A6F
100
AcDbEntity
  8
BEM
 62
     1
440
 16777216
100
AcDbMText
 10
303.2312950907007
 20
817.1615746242339
 30
0.0
 40
7.0
 41
0.0
 71
     5
 72
     1
  1
\A1;%%C102
 73
     1
 44
1.0
  0
POINT
  5
AFF
330
A6F
100
AcDbEntity
  8
DEFPOINTS
 62
     0
440
 16777216
100
AcDbPoint
 10
252.2312950907007
 20
799.7131177646465
 30
0.0
  0
POINT
  5
B00
330
A6F
100
AcDbEntity
  8
DEFPOINTS
 62
     0
440
 16777216
100
AcDbPoint
 10
354.2312950907006
 20
799.7131177646465
 30
0.0
  0
POINT
  5
B01
330
A6F
100
AcDbEntity
  8
DEFPOINTS
 62
     0
440
 16777216
100
AcDbPoint
 10
354.2312950907006
 20
810.6615746242338
 30
0.0
  0
ENDBLK
  5
A71
330
A6F
100
AcDbEntity
  8
0
100
AcDbBlockEnd
  0
ENDSEC
  0
SECTION
  2
ENTITIES
  0
LINE
  5
548
102
{ACAD_REACTORS
330
622
330
8ED
330
964
330
96F
330
982
330
A5E
102
}
330
1E
100
AcDbEntity
  8
MITTEL
100
AcDbLine
 10
357.332783621754
 20
589.7131177646466
 30
0.0
 11
247.2312950907006
 21
589.7131177646466
 31
0.0
  0
DIMENSION
  5
549
330
1E
100
AcDbEntity
  8
BEM
100
AcDbDimension
  2
*D1
 10
266.731295090701
 20
224.7131177646466
 30
0.0
 11
303.2312950907006
 21
231.2131177646466
 31
0.0
 70
    32
  1
%%c<>
 71
     5
 42
72.9999999999992
  3
Standard
100
AcDbAlignedDimension
 13
339.7312950907002
 23
252.7131177646461
 33
0.0
 14
266.731295090701
 24
253.3877481782531
 34
0.0
100
AcDbRotatedDimension
1001
ACAD
1000
DSTYLE
1002
{
1070
    40
1040
2.0
1070
    41
1040
3.5
1070
    42
1040
1.0
1070
    43
1040
7.0
1070
    44
1040
1.0
1070
    73
1070
     0
1070
    74
1070
     0
1070
    77
1070
     1
1070
    78
1070
     8
1070
    79
1070
     2
1070
   140
1040
3.5
1070
   141
1040
1.5
1070
   146
1040
0.5142857142857144
1070
   147
1040
1.5
1070
   172
1070
     1
1070
   178
1070
     1
1070
   179
1070
     2
1070
   271
1070
     2
1070
   272
1070
     2
1070
   284
1070
     8
1070
   285
1070
     8
1070
   286
1070
     8
1002
}
  0
TEXT
  5
54C
330
1E
100
AcDbEntity
  8
TEXT
100
AcDbText
 10
583.4462193823214
 20
836.4132055378062
 30
0.0
 40
4.0
  1
Diese Zeichnung ist urheberrechtlich geschützt und bleibt unser Eigentum. Sie darf weder ganz noch teilweise vervielfältigt und nicht an Dritte weitergegeben werden.
 50
180.0
 41
0.8
100
AcDbText
  0
LINE
  5
54D
330
1E
100
AcDbEntity
  8
STEMPEL
100
AcDbLine
 10
10.0
 20
40.0
 30
0.0
 11
584.0
 21
39.99999999999996
 31
0.0
  0
LINE
  5
54E
330
1E
100
AcDbEntity
  8
STEMPEL
100
AcDbLine
 10
584.0
 20
830.0
 30
0.0
 11
10.0
 21
830.0
 31
0.0
  0
LINE
  5
54F
330
1E
100
AcDbEntity
  8
HILF
100
AcDbLine
 10
0.0
 20
0.0
 30
0.0
 11
594.0
 21
-0.0000000000000364
 31
0.0
  0
LINE
  5
550
330
1E
100
AcDbEntity
  8
HILF
100
AcDbLine
 10
594.0
 20
840.0000000000002
 30
0.0
 11
0.0
 21
840.0000000000002
 31
0.0
  0
LINE
  5
551
102
{ACAD_REACTORS
330
8ED
330
90E
330
964
330
9FC
102
}
330
1E
100
AcDbEntity
  8
STEMPEL
100
AcDbLine
 10
354.2312950907006
 20
799.7131177646465
 30
0.0
 11
252.2312950907007
 21
799.7131177646465
 31
0.0
  0
LINE
  5
552
330
1E
100
AcDbEntity
  8
HILF
100
AcDbLine
 10
339.8073395288473
 20
769.0197948715383
 30
0.0
 11
266.6552506525539
 21
769.0197948715383
 31
0.0
  0
LINE
  5
553
330
1E
100
AcDbEntity
  8
HILF
100
AcDbLine
 10
339.1661504108508
 20
747.2786922569688
 30
0.0
 11
267.2964397705505
 21
747.2786922569687
 31
0.0
  0
LINE
  5
554
330
1E
100
AcDbEntity
  8
HILF
100
AcDbLine
 10
336.6870567548693
 20
741.2679153122148
 30
0.0
 11
269.775533426532
 21
741.267915312215
 31
0.0
  0
LINE
  5
555
330
1E
100
AcDbEntity
  8
HILF
100
AcDbLine
 10
336.5190716105615
 20
252.7131177646466
 30
0.0
 11
269.9435185708397
 21
252.7131177646466
 31
0.0
  0
LINE
  5
557
102
{ACAD_REACTORS
330
964
102
}
330
1E
100
AcDbEntity
  8
STEMPEL
100
AcDbLine
 10
339.0313857824927
 20
244.7131177646466
 30
0.0
 11
267.4312043989083
 21
244.7131177646466
 31
0.0
  0
DIMENSION
  5
558
330
1E
100
AcDbEntity
  8
BEM
100
AcDbDimension
  2
*D2
 10
221.0967098026576
 20
244.7131177646466
 30
0.0
 11
214.5967098026576
 21
522.2131177646466
 31
0.0
 70
    32
 71
     5
 42
554.9999999999998
  3
Standard
100
AcDbAlignedDimension
 13
158.1679322102172
 23
799.7131177646465
 33
0.0
 14
149.1730187236941
 24
244.7131177646467
 34
0.0
 50
90.0
100
AcDbRotatedDimension
1001
ACAD
1000
DSTYLE
1002
{
1070
    40
1040
2.0
1070
    41
1040
3.5
1070
    42
1040
1.0
1070
    43
1040
7.0
1070
    44
1040
1.0
1070
    73
1070
     0
1070
    74
1070
     0
1070
    77
1070
     1
1070
    78
1070
     8
1070
    79
1070
     2
1070
   140
1040
3.5
1070
   141
1040
1.5
1070
   146
1040
0.5142857142857144
1070
   147
1040
1.5
1070
   172
1070
     1
1070
   178
1070
     1
1070
   179
1070
     2
1070
   271
1070
     2
1070
   272
1070
     2
1070
   284
1070
     8
1070
   285
1070
     8
1070
   286
1070
     8
1002
}
  0
DIMENSION
  5
559
330
1E
100
AcDbEntity
  8
BEM
100
AcDbDimension
  2
*D3
 10
205.0967098026577
 20
799.7131177646465
 30
0.0
 11
198.5967098026575
 21
544.7131177646467
 31
0.0
 70
    32
 71
     5
 42
509.9999999999998
  3
Standard
100
AcDbAlignedDimension
 13
164.3729280319019
 23
289.7131177646467
 33
0.0
 14
164.3729280319019
 24
799.7131177646465
 34
0.0
 50
90.0
100
AcDbRotatedDimension
1001
ACAD
1000
DSTYLE
1002
{
1070
    40
1040
2.0
1070
    41
1040
3.5
1070
    42
1040
1.0
1070
    43
1040
7.0
1070
    44
1040
1.0
1070
    73
1070
     0
1070
    74
1070
     0
1070
    77
1070
     1
1070
    78
1070
     8
1070
    79
1070
     2
1070
   140
1040
3.5
1070
   141
1040
1.5
1070
   146
1040
0.5142857142857144
1070
   147
1040
1.5
1070
   172
1070
     1
1070
   178
1070
     1
1070
   179
1070
     2
1070
   271
1070
     2
1070
   272
1070
     2
1070
   284
1070
     8
1070
   285
1070
     8
1070
   286
1070
     8
1002
}
  0
DIMENSION
  5
55A
330
1E
100
AcDbEntity
  8
BEM
100
AcDbDimension
  2
*D4
 10
189.0967098026576
 20
589.7131177646466
 30
0.0
 11
182.5967098026575
 21
439.7131177646466
 31
0.0
 70
    32
 71
     5
 42
300.0
  3
Standard
100
AcDbAlignedDimension
 13
164.3729280319019
 23
289.7131177646467
 33
0.0
 14
166.3729280319019
 24
589.7131177646466
 34
0.0
 50
90.0
100
AcDbRotatedDimension
1001
ACAD
1000
DSTYLE
1002
{
1070
    40
1040
2.0
1070
    41
1040
3.5
1070
    42
1040
1.0
1070
    43
1040
7.0
1070
    44
1040
1.0
1070
    73
1070
     0
1070
    74
1070
     0
1070
    77
1070
     1
1070
    78
1070
     8
1070
    79
1070
     2
1070
   140
1040
3.5
1070
   141
1040
1.5
1070
   146
1040
0.5142857142857144
1070
   147
1040
1.5
1070
   172
1070
     1
1070
   178
1070
     1
1070
   179
1070
     2
1070
   271
1070
     2
1070
   272
1070
     2
1070
   284
1070
     8
1070
   285
1070
     8
1070
   286
1070
     8
1002
}
  0
LINE
  5
55B
330
1E
100
AcDbEntity
  8
MITTEL
100
AcDbLine
 10
113.3729280319019
 20
802.5534385635475
 30
0.0
 11
113.3729280319019
 21
239.7131177646467
 31
0.0
  0
LINE
  5
55C
330
1E
100
AcDbEntity
  8
VERDECKT
100
AcDbLine
 10
76.87292803190195
 20
739.4065181000778
 30
0.0
 11
76.87292803190231
 21
287.7131177646468
 31
0.0
  0
LINE
  5
55D
330
1E
100
AcDbEntity
  8
STEMPEL
100
AcDbLine
 10
62.372928031902
 20
799.7131177646465
 30
0.0
 11
62.37292803190196
 21
287.7131177646469
 31
0.0
  0
LINE
  5
55F
330
1E
100
AcDbEntity
  8
VERDECKT
100
AcDbLine
 10
149.8729280319019
 20
739.4065181000778
 30
0.0
 11
149.8729280319015
 21
287.7131177646469
 31
0.0
  0
LINE
  5
560
330
1E
100
AcDbEntity
  8
STEMPEL
100
AcDbLine
 10
164.3729280319019
 20
799.7131177646465
 30
0.0
 11
164.3729280319019
 21
287.7131177646465
 31
0.0
  0
LINE
  5
562
330
1E
100
AcDbEntity
  8
STEMPEL
100
AcDbLine
 10
10.0
 20
830.0
 30
0.0
 11
10.0
 21
40.0
 31
0.0
  0
LINE
  5
563
330
1E
100
AcDbEntity
  8
HILF
100
AcDbLine
 10
0.0
 20
840.0000000000002
 30
0.0
 11
0.0
 21
0.0
 31
0.0
  0
LINE
  5
566
102
{ACAD_REACTORS
330
964
330
96F
330
A0F
330
A5E
102
}
330
1E
100
AcDbEntity
  8
STEMPEL
100
AcDbLine
 10
266.7312950907006
 20
739.4065181000778
 30
0.0
 11
266.731295090701
 21
252.7131177646461
 31
0.0
  0
LINE
  5
567
102
{ACAD_REACTORS
330
964
102
}
330
1E
100
AcDbEntity
  8
STEMPEL
100
AcDbLine
 10
268.3312950907006
 20
739.4065181000778
 30
0.0
 11
268.3312950907009
 21
252.7829752732999
 31
0.0
  0
LINE
  5
568
102
{ACAD_REACTORS
330
8ED
330
A0F
102
}
330
1E
100
AcDbEntity
  8
STEMPEL
100
AcDbLine
 10
252.2312950907007
 20
799.7131177646465
 30
0.0
 11
252.2312950907006
 21
287.7131177646469
 31
0.0
  0
HATCH
  5
56A
330
1E
100
AcDbEntity
  8
SCHRAFF
100
AcDbHatch
 10
0.0
 20
0.0
 30
0.0
210
0.0
220
0.0
230
1.0
  2
HONEY
 70
     0
 71
     0
 91
        6
 92
        7
 72
     1
 73
     1
 93
        4
 10
114.3729280319019
 20
192.3608374064681
 42
0.0
 10
114.3729280319019
 20
179.8573413491206
 42
-0.4062106689162157
 10
149.8729280319019
 20
143.3710425508045
 42
0.0
 10
162.3729280319019
 20
143.3710425508045
 42
0.408248290463863
 97
        0
 92
        7
 72
     1
 73
     1
 93
        4
 10
112.3729280319019
 20
192.3608374064681
 42
0.408248290463863
 10
64.37292803190189
 20
143.3710425508045
 42
0.0
 10
76.87292803190189
 20
143.3710425508045
 42
-0.4062106689162154
 10
112.3729280319019
 20
179.8573413491205
 42
0.0
 97
        0
 92
        7
 72
     1
 73
     1
 93
        9
 10
76.87292803190192
 20
143.3710425508045
 42
0.0
 10
64.37292803190189
 20
143.3710425508045
 42
0.2710982382588268
 10
89.37292803190189
 20
100.6510238242169
 42
0.0
 10
89.37292803190191
 20
102.6510238242168
 42
0.0
 10
88.37292803190189
 20
102.6510238242169
 42
0.0
 10
88.37292803190189
 20
105.6510238242168
 42
0.0
 10
92.37292803190188
 20
105.6510238242168
 42
0.0
 10
92.37292803190189
 20
112.4962955882787
 42
0.2369240243692566
 10
91.5677332267071
 20
114.1001785473709
 42
-0.2369240243692604
 97
        0
 92
        7
 72
     1
 73
     1
 93
        8
 10
162.3729280319019
 20
143.3710425508045
 42
0.0
 10
149.8729280319018
 20
143.3710425508045
 42
-0.2369240243692602
 10
135.1781228370967
 20
114.1001785473709
 42
0.2369240243692647
 10
134.3729280319019
 20
112.4962955882786
 42
0.0
 10
134.3729280319019
 20
105.6510238242169
 42
0.0
 10
138.3729280319019
 20
105.6510238242168
 42
0.0
 10
138.3729280319019
 20
104.060768712254
 42
0.0
 10
142.636662842148
 20
104.0692127593611
 42
0.2369844425122302
 97
        0
 92
        7
 72
     1
 73
     1
 93
        5
 10
134.1205062577716
 20
98.98030029792687
 42
0.0
 10
131.3452047815621
 20
100.6510238242169
 42
0.0
 10
120.8729280319018
 20
100.6510238242169
 42
0.0
 10
120.8729280319018
 20
98.20043700911311
 42
-0.3604854763690444
 10
124.0683343836023
 20
95.55254944435034
 42
0.0543464134434951
 97
        0
 92
        7
 72
     1
 73
     1
 93
        5
 10
105.8729280319019
 20
100.6510238242169
 42
0.0
 10
92.37292803190189
 20
100.6510238242168
 42
0.0
 10
92.37292803190189
 20
99.09915530844722
 42
0.0557742212214841
 10
102.6775216802014
 20
95.55254944435034
 42
-0.3604854763690407
 10
105.8729280319018
 20
98.20043700911311
 42
0.0
 97
        0
 75
     0
 76
     1
 52
0.0
 41
25.0
 77
     0
 78
     3
 53
0.0
 43
0.0
 44
0.0
 45
4.6875
 46
2.706329374999999
 79
     2
 49
3.125
 49
-6.25
 53
120.0
 43
0.0
 44
0.0
 45
-4.687499989758061
 46
2.706329392739557
 79
     2
 49
3.125
 49
-6.25
 53
60.0
 43
0.0
 44
0.0
 45
0.0000000102419385
 46
5.412658767739556
 79
     2
 49
-6.25
 49
3.125
 47
0.2269825291680641
 98
        6
 10
143.8684519408971
 20
176.0696294087929
 10
97.63138340861543
 20
181.8461221105231
 10
73.93488541925353
 20
123.7923642349506
 10
153.9828115987534
 20
122.925891416279
 10
126.7469662460671
 20
98.90242557598003
 10
99.9484655577735
 20
98.6754432987359
  0
LINE
  5
56B
330
1E
100
AcDbEntity
  8
STEMPEL
100
AcDbLine
 10
164.3729280319019
 20
287.7131177646469
 30
0.0
 11
62.37292803190186
 21
287.7131177646469
 31
0.0
  0
HATCH
  5
56C
330
1E
100
AcDbEntity
  8
SCHRAFF
100
AcDbHatch
 10
0.0
 20
0.0
 30
0.0
210
0.0
220
0.0
230
1.0
  2
ANSI37
 70
     0
 71
     0
 91
        3
 92
        7
 72
     0
 73
     1
 93
        4
 10
92.37292803190189
 20
102.6510238242169
 10
92.37292803190189
 20
105.6510238242168
 10
88.37292803190189
 20
105.6510238242168
 10
88.37292803190189
 20
102.6510238242168
 97
        0
 92
        7
 72
     0
 73
     1
 93
        4
 10
113.3729280319019
 20
102.6510238242169
 10
113.3729280319019
 20
105.6510238242168
 10
92.37292803190191
 20
105.6510238242169
 10
92.37292803190191
 20
102.6510238242169
 97
        0
 92
        7
 72
     0
 73
     1
 93
        4
 10
138.3729280319019
 20
102.6510238242168
 10
138.3729280319019
 20
105.6510238242168
 10
113.3729280319019
 20
105.6510238242168
 10
113.3729280319019
 20
102.6510238242168
 97
        0
 75
     0
 76
     1
 52
0.0
 41
10.0
 77
     0
 78
     2
 53
45.0
 43
0.0
 44
11.5787660501669
 45
-0.8838834764831842
 46
0.8838834764831844
 79
     0
 53
135.0
 43
0.0
 44
11.5787660501669
 45
-0.8838834764831844
 46
-0.8838834764831842
 79
     0
 47
0.0933511284148968
 98
        3
 10
90.1227567266037
 20
104.1205061003679
 10
98.71677833287732
 20
103.56039892599
 10
130.2904723555493
 20
103.7471019764255
  0
HATCH
  5
56F
330
1E
100
AcDbEntity
  8
SCHRAFF
100
AcDbHatch
 10
0.0
 20
0.0
 30
0.0
210
0.0
220
0.0
230
1.0
  2
_U
 70
     0
 71
     0
 91
        5
 92
        7
 72
     1
 73
     1
 93
        4
 10
72.9862446895101
 20
115.6236857649524
 42
0.0
 10
71.33780863471861
 20
114.4911405900196
 42
0.2470549901328569
 10
113.3729280319019
 20
92.37104255080453
 42
0.0
 10
113.3729280319019
 20
94.37104255080454
 42
-0.2470549901328569
 97
        0
 92
        7
 72
     1
 73
     1
 93
        4
 10
113.3729280319019
 20
94.37104255080454
 42
0.0
 10
113.3729280319019
 20
92.37104255080453
 42
0.055159657413849
 10
124.5233059809105
 20
93.60489872194973
 42
0.0
 10
121.7232806987484
 20
95.08779897356246
 42
-0.042838971958942
 97
        0
 92
        7
 72
     1
 73
     1
 93
        4
 10
138.6297398371914
 20
99.06423204234899
 42
0.0
 10
136.1553131172053
 20
99.98944587865631
 42
-0.0782398521694291
 10
121.7232806987484
 20
95.08779897356246
 42
0.0
 10
124.5233059809105
 20
93.60489872194975
 42
0.0745592352602754
 97
        0
 92
        7
 72
     1
 73
     1
 93
        4
 10
145.8044662938909
 20
104.0112238779353
 42
0.0
 10
142.8541318802981
 20
104.2320770605248
 42
-0.0405221367594951
 10
136.1553131172053
 20
99.98944587865629
 42
0.0
 10
138.6297398371914
 20
99.06423204234899
 42
0.0427983330963776
 97
        0
 92
        7
 72
     1
 73
     1
 93
        4
 10
142.8541318802981
 20
104.2320770605248
 42
0.0
 10
145.8044662938909
 20
104.0112238779353
 42
0.0700214962250149
 10
155.4080474290856
 20
114.4911405900203
 42
0.0
 10
153.7596113742941
 20
115.623685764953
 42
-0.0809877853365717
 97
        0
 75
     0
 76
     0
 52
45.0
 41
2.0
 77
     0
 78
     1
 53
45.0
 43
0.0
 44
11.5787660501669
 45
-1.414213562373094
 46
1.414213562373095
 79
     0
 47
0.2252633657453807
 98
        5
 10
81.09419084736328
 20
105.7604461121686
 10
117.8365722807407
 20
93.8214866340893
 10
130.6851329538076
 20
96.07412141516057
 10
143.3082823869517
 20
102.8320224055478
 10
149.8452696767522
 20
109.3646587443388
  0
HATCH
  5
570
330
1E
100
AcDbEntity
  8
SCHRAFF
100
AcDbHatch
 10
0.0
 20
0.0
 30
0.0
210
0.0
220
0.0
230
1.0
  2
_U
 70
     0
 71
     1
 91
        4
 92
        7
 72
     1
 73
     1
 93
        4
 10
162.3729280319019
 20
143.3710425508045
 42
0.0
 10
164.3729280319019
 20
143.3710425508045
 42
0.4142135623730951
 10
113.3729280319019
 20
194.3710425508045
 42
0.0
 10
113.3729280319019
 20
192.3710425508045
 42
-0.4142135623730951
 97
        4
330
592
330
578
330
57D
330
579
 92
        7
 72
     1
 73
     1
 93
        4
 10
62.37292803190189
 20
143.3710425508045
 42
0.0
 10
64.37292803190189
 20
143.3710425508045
 42
-0.4142135623730951
 10
113.3729280319019
 20
192.3710425508045
 42
0.0
 10
113.3729280319019
 20
194.3710425508045
 42
0.4142135623730951
 97
        4
330
579
330
57D
330
578
330
592
 92
        7
 72
     1
 73
     1
 93
        4
 10
64.37292803190189
 20
143.3710425508045
 42
0.0
 10
62.37292803190189
 20
143.3710425508045
 42
0.1516406496403009
 10
71.33780863471861
 20
114.4911405900196
 42
0.0
 10
72.9862446895101
 20
115.6236857649524
 42
-0.1516406496403009
 97
        4
330
57D
330
579
330
583
330
578
 92
        7
 72
     1
 73
     1
 93
        4
 10
164.3729280319019
 20
143.3710425508045
 42
0.0
 10
162.3729280319019
 20
143.3710425508045
 42
-0.1516406496402971
 10
153.7596113742941
 20
115.623685764953
 42
0.0
 10
155.4080474290856
 20
114.4911405900203
 42
0.1516406496402969
 97
        4
330
57D
330
578
330
5A1
330
579
 75
     0
 76
     0
 52
135.0
 41
2.0
 77
     0
 78
     1
 53
135.0
 43
0.0
 44
11.5787660501669
 45
-1.414213562373095
 46
-1.414213562373094
 79
     0
 47
0.2252633657453807
 98
        4
 10
128.4309992216967
 20
190.909998255767
 10
109.4962764052852
 20
193.3878960120214
 10
68.02021626776286
 20
123.1057253767098
 10
163.1446608294959
 20
135.4952108051557
  0
HATCH
  5
571
330
1E
100
AcDbEntity
  8
SCHRAFF
100
AcDbHatch
 10
0.0
 20
0.0
 30
0.0
210
0.0
220
0.0
230
1.0
  2
_U
 70
     0
 71
     1
 91
        2
 92
        7
 72
     0
 73
     1
 93
        4
 10
137.3729280319019
 20
100.6510238242169
 10
137.3729280319019
 20
102.6510238242169
 10
113.3729280319019
 20
102.6510238242169
 10
113.3729280319019
 20
100.6510238242169
 97
        4
330
575
330
592
330
576
330
5A0
 92
        7
 72
     0
 73
     1
 93
        4
 10
89.37292803190189
 20
102.6510238242168
 10
89.37292803190189
 20
100.6510238242169
 10
113.3729280319019
 20
100.6510238242169
 10
113.3729280319019
 20
102.6510238242169
 97
        4
330
575
330
587
330
576
330
592
 75
     0
 76
     0
 52
135.0
 41
2.0
 77
     0
 78
     1
 53
135.0
 43
0.0
 44
11.5787660501669
 45
-1.414213562373095
 46
-1.414213562373094
 79
     0
 47
0.1204865162473584
 98
        2
 10
130.4597910457542
 20
101.6485653141992
 10
109.4811753908448
 20
102.0100251153046
  0
HATCH
  5
572
330
1E
100
AcDbEntity
  8
SCHRAFF
100
AcDbHatch
 10
0.0
 20
0.0
 30
0.0
210
0.0
220
0.0
230
1.0
  2
_U
 70
     0
 71
     1
 91
        4
 92
        7
 72
     1
 73
     1
 93
        4
 10
148.2729280319019
 20
143.3710425508045
 42
0.0
 10
149.8729280319018
 20
143.3710425508045
 42
0.414213562373095
 10
113.3729280319019
 20
179.8710425508045
 42
0.0
 10
113.3729280319019
 20
178.2710425508045
 42
-0.4142135623730952
 97
        4
330
592
330
573
330
57D
330
57A
 92
        7
 72
     1
 73
     1
 93
        4
 10
113.3729280319019
 20
178.2710425508045
 42
0.0
 10
113.3729280319019
 20
179.8710425508045
 42
0.4142135623730956
 10
76.87292803190186
 20
143.3710425508045
 42
0.0
 10
78.47292803190189
 20
143.3710425508045
 42
-0.4142135623730952
 97
        4
330
57A
330
57D
330
573
330
592
 92
        7
 72
     1
 73
     1
 93
        8
 10
78.47292803190189
 20
143.3710425508045
 42
0.0
 10
76.87292803190189
 20
143.3710425508045
 42
0.2369240243692605
 10
91.5677332267071
 20
114.1001785473709
 42
-0.2369240243692585
 10
92.37292803190189
 20
112.4962955882787
 42
0.0
 10
92.37292803190188
 20
105.6510238242168
 42
0.0
 10
93.9729280319019
 20
105.6510238242168
 42
0.0
 10
93.97292803190186
 20
112.4962955882787
 42
0.2369240243692602
 10
92.5235773825512
 20
115.3832849146447
 42
-0.23692402436926
 97
        8
330
57D
330
57A
330
589
330
585
330
574
330
584
330
588
330
573
 92
        7
 72
     1
 73
     1
 93
        8
 10
134.2222786812525
 20
115.3832849146447
 42
0.2369240243692631
 10
132.7729280319019
 20
112.4962955882786
 42
0.0
 10
132.7729280319019
 20
105.6510238242169
 42
0.0
 10
134.3729280319019
 20
105.6510238242168
 42
0.0
 10
134.3729280319019
 20
112.4962955882787
 42
-0.236924024369261
 10
135.1781228370967
 20
114.1001785473709
 42
0.2369240243692602
 10
149.8729280319018
 20
143.3710425508045
 42
0.0
 10
148.2729280319019
 20
143.3710425508045
 42
-0.2369240243692602
 97
        8
330
57D
330
573
330
59E
330
59C
330
574
330
59D
330
599
330
57A
 75
     0
 76
     0
 52
45.0
 41
2.0
 77
     0
 78
     1
 53
45.0
 43
0.0
 44
11.5787660501669
 45
-1.414213562373094
 46
1.414213562373095
 79
     0
 47
0.2312258772812761
 98
        4
 10
119.6765387589466
 20
177.9059414773437
 10
107.4134057232272
 20
178.3683934301916
 10
80.80472229349107
 20
129.5797325216877
 10
143.9714230498771
 20
125.4176666224691
  0
CIRCLE
  5
573
102
{ACAD_REACTORS
330
572
102
}
330
1E
100
AcDbEntity
  8
STEMPEL
100
AcDbCircle
 10
113.3729280319019
 20
143.3710425508045
 30
0.0
 40
34.9
  0
LINE
  5
574
102
{ACAD_REACTORS
330
572
102
}
330
1E
100
AcDbEntity
  8
STEMPEL
100
AcDbLine
 10
138.3729280319019
 20
105.6510238242168
 30
0.0
 11
88.37292803190189
 21
105.6510238242168
 31
0.0
  0
LINE
  5
575
102
{ACAD_REACTORS
330
571
102
}
330
1E
100
AcDbEntity
  8
STEMPEL
100
AcDbLine
 10
138.3729280319019
 20
102.6510238242168
 30
0.0
 11
88.37292803190189
 21
102.6510238242168
 31
0.0
  0
LINE
  5
576
102
{ACAD_REACTORS
330
571
102
}
330
1E
100
AcDbEntity
  8
STEMPEL
100
AcDbLine
 10
137.3729280319019
 20
100.6510238242169
 30
0.0
 11
89.37292803190189
 21
100.6510238242169
 31
0.0
  0
HATCH
  5
577
330
1E
100
AcDbEntity
  8
SCHRAFF
100
AcDbHatch
 10
0.0
 20
0.0
 30
0.0
210
0.0
220
0.0
230
1.0
  2
_U
 70
     0
 71
     1
 91
        2
 92
        7
 72
     1
 73
     1
 93
        3
 10
120.8729280319018
 20
98.20043700911311
 42
0.0
 10
120.8729280319018
 20
94.94842386903556
 42
0.0165964738987595
 10
124.0683343836023
 20
95.55254944435034
 42
0.3604854763690444
 97
        3
330
59B
330
578
330
59A
 92
        7
 72
     1
 73
     1
 93
        3
 10
105.8729280319018
 20
98.20043700911311
 42
0.3604854763690419
 10
102.6775216802014
 20
95.55254944435034
 42
0.0165964738987592
 10
105.8729280319018
 20
94.9484238690356
 42
0.0
 97
        3
330
58A
330
578
330
58B
 75
     0
 76
     0
 52
45.0
 41
0.1
 77
     0
 78
     1
 53
45.0
 43
0.0
 44
17.39794781486239
 45
-0.0707106781186548
 46
0.0707106781186548
 79
     0
 47
0.0259005486993273
 98
        2
 10
122.0485660014646
 20
97.06004675610074
 10
105.0724071588001
 20
96.12762749067407
  0
CIRCLE
  5
578
102
{ACAD_REACTORS
330
577
330
570
330
5A3
102
}
330
1E
100
AcDbEntity
  8
STEMPEL
100
AcDbCircle
 10
113.3729280319019
 20
143.3710425508045
 30
0.0
 40
49.0
  0
CIRCLE
  5
579
102
{ACAD_REACTORS
330
570
102
}
330
1E
100
AcDbEntity
  8
STEMPEL
100
AcDbCircle
 10
113.3729280319019
 20
143.3710425508045
 30
0.0
 40
51.0
  0
ARC
  5
57A
102
{ACAD_REACTORS
330
572
330
5A3
102
}
330
1E
100
AcDbEntity
  8
STEMPEL
100
AcDbCircle
 10
113.3729280319019
 20
143.3710425508045
 30
0.0
 40
36.5
100
AcDbArc
 50
306.6840980045796
 51
233.3159019954205
  0
TEXT
  5
57B
330
1E
100
AcDbEntity
  8
TEXT
 62
     3
100
AcDbText
 10
76.86557512221202
 20
204.7403381125526
 30
0.0
 40
10.0
  1
Schnitt A-B
 41
0.8
  7
GREEKS
100
AcDbText
  0
LINE
  5
57C
330
1E
100
AcDbEntity
  8
STEMPEL
100
AcDbLine
 10
105.8729280319019
 20
94.94842386903556
 30
0.0
 11
120.8729280319018
 21
94.94842386903556
 31
0.0
  0
LINE
  5
57D
102
{ACAD_REACTORS
330
572
330
570
102
}
330
1E
100
AcDbEntity
  8
MITTEL
100
AcDbLine
 10
57.37292803190189
 20
143.3710425508045
 30
0.0
 11
169.3729280319019
 21
143.3710425508045
 31
0.0
  0
LINE
  5
57E
330
1E
100
AcDbEntity
  8
HILF
100
AcDbLine
 10
148.2668162918322
 20
252.7131177646467
 30
0.0
 11
78.47903977197154
 21
252.7131177646467
 31
0.0
  0
LINE
  5
57F
330
1E
100
AcDbEntity
  8
STEMPEL
100
AcDbLine
 10
149.1730187236941
 20
244.7131177646467
 30
0.0
 11
77.57283734010968
 21
244.7131177646467
 31
0.0
  0
LINE
  5
580
330
1E
100
AcDbEntity
  8
STEMPEL
100
AcDbLine
 10
164.3729280319019
 20
289.7131177646467
 30
0.0
 11
62.37292803190195
 21
289.7131177646467
 31
0.0
  0
LINE
  5
583
102
{ACAD_REACTORS
330
570
102
}
330
1E
100
AcDbEntity
  8
STEMPEL
100
AcDbLine
 10
71.33780863471861
 20
114.4911405900196
 30
0.0
 11
72.9862446895101
 21
115.6236857649524
 31
0.0
  0
LINE
  5
584
102
{ACAD_REACTORS
330
572
102
}
330
1E
100
AcDbEntity
  8
STEMPEL
100
AcDbLine
 10
93.97292803190186
 20
112.4962955882787
 30
0.0
 11
93.97292803190191
 21
105.6510238242169
 31
0.0
  0
LINE
  5
585
102
{ACAD_REACTORS
330
572
102
}
330
1E
100
AcDbEntity
  8
STEMPEL
100
AcDbLine
 10
92.37292803190189
 20
112.4962955882787
 30
0.0
 11
92.37292803190189
 21
105.6510238242168
 31
0.0
  0
LINE
  5
586
330
1E
100
AcDbEntity
  8
STEMPEL
100
AcDbLine
 10
88.37292803190189
 20
105.6510238242168
 30
0.0
 11
88.37292803190189
 21
102.6510238242168
 31
0.0
  0
LINE
  5
587
102
{ACAD_REACTORS
330
571
102
}
330
1E
100
AcDbEntity
  8
STEMPEL
100
AcDbLine
 10
89.37292803190189
 20
102.6510238242168
 30
0.0
 11
89.37292803190189
 21
100.6510238242169
 31
0.0
  0
ARC
  5
588
102
{ACAD_REACTORS
330
572
102
}
330
1E
100
AcDbEntity
  8
STEMPEL
100
AcDbCircle
 10
90.37292803190188
 20
112.4962955882786
 30
0.0
 40
3.6
100
AcDbArc
 50
0.0000000000004071
 51
53.31590199542028
  0
ARC
  5
589
102
{ACAD_REACTORS
330
572
102
}
330
1E
100
AcDbEntity
  8
STEMPEL
100
AcDbCircle
 10
90.37292803190188
 20
112.4962955882786
 30
0.0
 40
2.0
100
AcDbArc
 50
0.0000000000004071
 51
53.31590199542028
  0
ARC
  5
58A
102
{ACAD_REACTORS
330
577
102
}
330
1E
100
AcDbEntity
  8
SCHRAFF
100
AcDbCircle
 10
105.8729280319019
 20
94.94842386903556
 30
0.0
 40
3.252013140077535
100
AcDbArc
 50
90.0
 51
169.2939878625278
  0
LINE
  5
58B
102
{ACAD_REACTORS
330
577
102
}
330
1E
100
AcDbEntity
  8
STEMPEL
100
AcDbLine
 10
105.8729280319019
 20
100.6510238242169
 30
0.0
 11
105.8729280319018
 21
94.94842386903554
 31
0.0
  0
LINE
  5
58C
330
1E
100
AcDbEntity
  8
VERDECKT
100
AcDbLine
 10
73.97292803190186
 20
295.7131177646466
 30
0.0
 11
69.35412587838493
 21
287.7131177646468
 31
0.0
  0
LINE
  5
58D
330
1E
100
AcDbEntity
  8
STEMPEL
100
AcDbLine
 10
76.87292803190235
 20
287.7131177646469
 30
0.0
 11
76.87292803190235
 21
252.7131177646461
 31
0.0
  0
LINE
  5
58E
330
1E
100
AcDbEntity
  8
STEMPEL
100
AcDbLine
 10
76.87292803190235
 20
252.7131177646461
 30
0.0
 11
77.57283734010968
 21
244.7131177646467
 31
0.0
  0
LINE
  5
58F
330
1E
100
AcDbEntity
  8
VERDECKT
100
AcDbLine
 10
63.87292803190195
 20
305.7131177646466
 30
0.0
 11
76.87292803190212
 21
305.7131177646466
 31
0.0
  0
LINE
  5
591
330
1E
100
AcDbEntity
  8
VERDECKT
100
AcDbLine
 10
73.9729280319018
 20
295.7131177646465
 30
0.0
 11
76.87292803190217
 21
295.7131177646465
 31
0.0
  0
LINE
  5
592
102
{ACAD_REACTORS
330
572
330
571
330
570
330
5A3
102
}
330
1E
100
AcDbEntity
  8
MITTEL
100
AcDbLine
 10
113.3729280319019
 20
199.3710425508045
 30
0.0
 11
113.3729280319019
 21
87.37104255080454
 31
0.0
  0
ARC
  5
599
102
{ACAD_REACTORS
330
572
102
}
330
1E
100
AcDbEntity
  8
STEMPEL
100
AcDbCircle
 10
136.3729280319019
 20
112.4962955882787
 30
0.0
 40
2.0
100
AcDbArc
 50
126.6840980045794
 51
180.0
  0
ARC
  5
59A
102
{ACAD_REACTORS
330
577
102
}
330
1E
100
AcDbEntity
  8
SCHRAFF
100
AcDbCircle
 10
120.8729280319018
 20
94.94842386903556
 30
0.0
 40
3.252013140077535
100
AcDbArc
 50
10.70601213747221
 51
90.0
  0
LINE
  5
59B
102
{ACAD_REACTORS
330
577
102
}
330
1E
100
AcDbEntity
  8
STEMPEL
100
AcDbLine
 10
120.8729280319018
 20
100.6510238242169
 30
0.0
 11
120.8729280319018
 21
94.94842386903561
 31
0.0
  0
LINE
  5
59C
102
{ACAD_REACTORS
330
572
102
}
330
1E
100
AcDbEntity
  8
STEMPEL
100
AcDbLine
 10
132.7729280319019
 20
112.4962955882787
 30
0.0
 11
132.7729280319019
 21
105.6510238242168
 31
0.0
  0
LINE
  5
59D
102
{ACAD_REACTORS
330
572
102
}
330
1E
100
AcDbEntity
  8
STEMPEL
100
AcDbLine
 10
134.3729280319019
 20
112.4962955882787
 30
0.0
 11
134.3729280319019
 21
105.6510238242168
 31
0.0
  0
ARC
  5
59E
102
{ACAD_REACTORS
330
572
102
}
330
1E
100
AcDbEntity
  8
STEMPEL
100
AcDbCircle
 10
136.3729280319019
 20
112.4962955882787
 30
0.0
 40
3.6
100
AcDbArc
 50
126.6840980045794
 51
180.0
  0
LINE
  5
59F
330
1E
100
AcDbEntity
  8
STEMPEL
100
AcDbLine
 10
138.3729280319019
 20
105.6510238242168
 30
0.0
 11
138.3729280319019
 21
102.6510238242168
 31
0.0
  0
LINE
  5
5A0
102
{ACAD_REACTORS
330
571
102
}
330
1E
100
AcDbEntity
  8
STEMPEL
100
AcDbLine
 10
137.3729280319019
 20
102.6510238242168
 30
0.0
 11
137.3729280319019
 21
100.6510238242169
 31
0.0
  0
LINE
  5
5A1
102
{ACAD_REACTORS
330
570
102
}
330
1E
100
AcDbEntity
  8
STEMPEL
100
AcDbLine
 10
155.4080474290856
 20
114.4911405900203
 30
0.0
 11
153.7596113742941
 21
115.623685764953
 31
0.0
  0
LINE
  5
5A2
330
1E
100
AcDbEntity
  8
VERDECKT
100
AcDbLine
 10
152.7729280319019
 20
295.7131177646466
 30
0.0
 11
157.3917301854189
 21
287.7131177646465
 31
0.0
  0
HATCH
  5
5A3
330
1E
100
AcDbEntity
  8
SCHRAFF
100
AcDbHatch
 10
0.0
 20
0.0
 30
0.0
210
0.0
220
0.0
230
1.0
  2
_USER
 70
     0
 71
     1
 91
        2
 92
        7
 72
     1
 73
     1
 93
        4
 10
114.3729280319019
 20
192.3608374064681
 42
0.005102439323329
 10
113.3729280319019
 20
192.3710425508045
 42
0.0
 10
113.3729280319019
 20
179.8710425508045
 42
-0.0068502793684316
 10
114.3729280319019
 20
179.8573413491206
 42
0.0
 97
        4
330
578
330
592
330
57A
330
5A4
 92
        7
 72
     1
 73
     1
 93
        4
 10
112.3729280319019
 20
179.8573413491206
 42
-0.0068502793684316
 10
113.3729280319019
 20
179.8710425508045
 42
0.0
 10
113.3729280319019
 20
192.3710425508045
 42
0.005102439323329
 10
112.3729280319019
 20
192.3608374064681
 42
0.0
 97
        4
330
578
330
5A5
330
57A
330
592
 75
     0
 76
     0
 52
45.0
 41
1.0
 77
     0
 78
     1
 53
45.0
 43
0.0
 44
0.0
 45
-0.7071067811865475
 46
0.7071067811865476
 79
     0
 47
0.0430355121741568
 98
        2
 10
114.1795754535005
 20
190.6415865730171
 10
112.7155697979338
 20
190.8997993609901
  0
LINE
  5
5A4
102
{ACAD_REACTORS
330
5A3
102
}
330
1E
100
AcDbEntity
  8
STEMPEL
100
AcDbLine
 10
114.3729280319019
 20
192.3608374064681
 30
0.0
 11
114.3729280319019
 21
179.8573413491206
 31
0.0
  0
LINE
  5
5A5
102
{ACAD_REACTORS
330
5A3
102
}
330
1E
100
AcDbEntity
  8
STEMPEL
100
AcDbLine
 10
112.3729280319019
 20
192.3608374064681
 30
0.0
 11
112.3729280319019
 21
179.8573413491206
 31
0.0
  0
LINE
  5
5A6
330
1E
100
AcDbEntity
  8
STEMPEL
100
AcDbLine
 10
149.8729280319015
 20
287.7131177646469
 30
0.0
 11
149.8729280319015
 21
252.7131177646461
 31
0.0
  0
LINE
  5
5A7
330
1E
100
AcDbEntity
  8
STEMPEL
100
AcDbLine
 10
149.8729280319015
 20
252.7131177646461
 30
0.0
 11
149.1730187236941
 21
244.7131177646467
 31
0.0
  0
LINE
  5
5A8
330
1E
100
AcDbEntity
  8
VERDECKT
100
AcDbLine
 10
149.8729280319016
 20
305.7131177646466
 30
0.0
 11
162.8729280319019
 21
305.7131177646467
 31
0.0
  0
LINE
  5
5A9
330
1E
100
AcDbEntity
  8
VERDECKT
100
AcDbLine
 10
149.8729280319016
 20
295.7131177646466
 30
0.0
 11
152.772928031902
 21
295.7131177646466
 31
0.0
  0
LINE
  5
5AB
102
{ACAD_REACTORS
330
A0F
102
}
330
1E
100
AcDbEntity
  8
STEMPEL
100
AcDbLine
 10
263.8312950907005
 20
295.7131177646466
 30
0.0
 11
259.2124929371836
 21
287.7131177646468
 31
0.0
  0
DIMENSION
  5
5AC
330
1E
100
AcDbEntity
  8
BEM
100
AcDbDimension
  2
*D8
 10
266.731295090701
 20
267.4193724743375
 30
0.0
 11
244.531295090701
 21
273.9193724743375
 31
0.0
 70
    32
 71
     5
 42
1.599999999999909
  3
Standard
100
AcDbAlignedDimension
 13
268.3312950907009
 23
271.5867380514765
 33
0.0
 14
266.731295090701
 24
271.5867380514765
 34
0.0
100
AcDbRotatedDimension
1001
ACAD
1000
DSTYLE
1002
{
1070
    40
1040
2.0
1070
    41
1040
3.5
1070
    42
1040
1.0
1070
    43
1040
7.0
1070
    44
1040
1.0
1070
    73
1070
     0
1070
    74
1070
     0
1070
    77
1070
     1
1070
    78
1070
     8
1070
    79
1070
     2
1070
   140
1040
3.5
1070
   141
1040
1.5
1070
   146
1040
0.5142857142857144
1070
   147
1040
1.5
1070
   172
1070
     1
1070
   178
1070
     1
1070
   179
1070
     2
1070
   271
1070
     2
1070
   272
1070
     2
1070
   284
1070
     8
1070
   285
1070
     8
1070
   286
1070
     8
1002
}
  0
LINE
  5
5AD
102
{ACAD_REACTORS
330
964
102
}
330
1E
100
AcDbEntity
  8
STEMPEL
100
AcDbLine
 10
266.731295090701
 20
252.7131177646461
 30
0.0
 11
267.4312043989083
 21
244.7131177646466
 31
0.0
  0
LINE
  5
5AE
102
{ACAD_REACTORS
330
964
102
}
330
1E
100
AcDbEntity
  8
STEMPEL
100
AcDbLine
 10
268.3312950907009
 20
252.7829752732999
 30
0.0
 11
269.0373161389776
 21
244.7131177646466
 31
0.0
  0
LINE
  5
5AF
102
{ACAD_REACTORS
330
A0F
102
}
330
1E
100
AcDbEntity
  8
STEMPEL
100
AcDbLine
 10
266.7312950907005
 20
287.7131177646469
 30
0.0
 11
252.2312950907005
 21
287.7131177646469
 31
0.0
  0
LINE
  5
5B0
102
{ACAD_REACTORS
330
A0F
330
A5E
102
}
330
1E
100
AcDbEntity
  8
STEMPEL
100
AcDbLine
 10
253.7312950907006
 20
305.7131177646466
 30
0.0
 11
266.7312950907008
 21
305.7131177646466
 31
0.0
  0
LINE
  5
5B2
102
{ACAD_REACTORS
330
8ED
330
A0F
102
}
330
1E
100
AcDbEntity
  8
STEMPEL
100
AcDbLine
 10
253.7312950907006
 20
289.7131177646467
 30
0.0
 11
252.2312950907006
 21
289.7131177646467
 31
0.0
  0
LINE
  5
5B3
102
{ACAD_REACTORS
330
A0F
102
}
330
1E
100
AcDbEntity
  8
STEMPEL
100
AcDbLine
 10
263.8312950907005
 20
295.7131177646465
 30
0.0
 11
266.7312950907008
 21
295.7131177646465
 31
0.0
  0
CIRCLE
  5
5B4
330
1E
100
AcDbEntity
  8
VERDECKT
100
AcDbCircle
 10
113.3729280319019
 20
589.7131177646466
 30
0.0
 40
25.0
  0
LINE
  5
5B5
330
1E
100
AcDbEntity
  8
VERDECKT
100
AcDbLine
 10
119.3729280319019
 20
617.2131177646467
 30
0.0
 11
107.3729280319019
 21
617.2131177646467
 31
0.0
  0
LINE
  5
5B6
330
1E
100
AcDbEntity
  8
VERDECKT
100
AcDbLine
 10
119.3729280319019
 20
562.2131177646465
 30
0.0
 11
107.3729280319019
 21
562.2131177646465
 31
0.0
  0
CIRCLE
  5
5B7
330
1E
100
AcDbEntity
  8
STEMPEL
100
AcDbCircle
 10
113.3729280319019
 20
557.2131177646467
 30
0.0
 40
4.8
  0
LINE
  5
5B8
330
1E
100
AcDbEntity
  8
VERDECKT
100
AcDbLine
 10
119.3729280319019
 20
522.2131177646465
 30
0.0
 11
107.3729280319019
 21
522.2131177646465
 31
0.0
  0
LINE
  5
5B9
330
1E
100
AcDbEntity
  8
VERDECKT
100
AcDbLine
 10
119.3729280319019
 20
657.2131177646467
 30
0.0
 11
107.3729280319019
 21
657.2131177646467
 31
0.0
  0
CIRCLE
  5
5BA
330
1E
100
AcDbEntity
  8
STEMPEL
100
AcDbCircle
 10
113.3729280319019
 20
622.2131177646466
 30
0.0
 40
4.8
  0
CIRCLE
  5
5BB
330
1E
100
AcDbEntity
  8
VERDECKT
100
AcDbCircle
 10
113.3729280319019
 20
589.7131177646466
 30
0.0
 40
21.2
  0
CIRCLE
  5
5BC
330
1E
100
AcDbEntity
  8
VERDECKT
100
AcDbCircle
 10
113.3729280319019
 20
589.7131177646466
 30
0.0
 40
20.0
  0
LINE
  5
5BD
330
1E
100
AcDbEntity
  8
MITTEL
100
AcDbLine
 10
123.7729280319024
 20
557.2131177646467
 30
0.0
 11
102.9729280319022
 21
557.2131177646467
 31
0.0
  0
LINE
  5
5BE
330
1E
100
AcDbEntity
  8
MITTEL
100
AcDbLine
 10
123.7729280319024
 20
622.2131177646466
 30
0.0
 11
102.9729280319022
 21
622.2131177646466
 31
0.0
  0
LINE
  5
5BF
330
1E
100
AcDbEntity
  8
MITTEL
100
AcDbLine
 10
183.0382460639871
 20
589.7131177646466
 30
0.0
 11
46.01018772684392
 21
589.7131177646466
 31
0.0
  0
LWPOLYLINE
  5
5C0
330
1E
100
AcDbEntity
  8
STEMPEL
100
AcDbPolyline
 90
       16
 70
     1
 43
0.0
 10
113.3729280319019
 20
637.2131177646466
 42
0.1098826576937983
 10
97.54701191186791
 20
633.692623166771
 42
0.1025028375962137
 10
83.64961005816736
 20
623.3006898710076
 42
0.093543525033795
 10
74.61012671416597
 20
608.1482558412404
 42
0.0880639032300325
 10
71.33780863471861
 20
589.7131177646466
 42
0.088063903230034
 10
74.61012671416597
 20
571.2779796880528
 42
0.0935435250337964
 10
83.64961005816736
 20
556.1255456582856
 42
0.1025028375962124
 10
97.54701191186837
 20
545.733612362522
 42
0.1098826576937929
 10
113.3729280319019
 20
542.2131177646466
 42
0.1098826576937918
 10
129.1988441519358
 20
545.733612362522
 42
0.1025028375962094
 10
143.0962460056364
 20
556.1255456582856
 42
0.0935435250337936
 10
152.1357293496383
 20
571.2779796880528
 42
0.088063903230031
 10
155.4080474290856
 20
589.7131177646466
 42
0.0880639032300334
 10
152.1357293496383
 20
608.1482558412409
 42
0.0935435250337904
 10
143.0962460056364
 20
623.3006898710076
 42
0.1025028375962171
 10
129.1988441519354
 20
633.6926231667713
 42
0.1098826576937945
  0
LINE
  5
5C1
330
1E
100
AcDbEntity
  8
VERDECKT
100
AcDbLine
 10
137.3729280319019
 20
565.7131177646467
 30
0.0
 11
89.37292803190189
 21
565.7131177646467
 31
0.0
  0
LINE
  5
5C2
330
1E
100
AcDbEntity
  8
VERDECKT
100
AcDbLine
 10
137.3729280319019
 20
613.7131177646466
 30
0.0
 11
89.37292803190189
 21
613.7131177646466
 31
0.0
  0
LINE
  5
5C4
330
1E
100
AcDbEntity
  8
VERDECKT
100
AcDbLine
 10
151.5699716145834
 20
769.0197948715383
 30
0.0
 11
75.17588444922063
 21
769.0197948715383
 31
0.0
  0
LINE
  5
5C5
330
1E
100
AcDbEntity
  8
STEMPEL
100
AcDbLine
 10
164.3729280319019
 20
799.7131177646465
 30
0.0
 11
62.372928031902
 21
799.7131177646465
 31
0.0
  0
LINE
  5
5C6
330
1E
100
AcDbEntity
  8
VERDECKT
100
AcDbLine
 10
150.9824141929311
 20
747.2786922569688
 30
0.0
 11
75.76344187087278
 21
747.2786922569687
 31
0.0
  0
LINE
  5
5C7
330
1E
100
AcDbEntity
  8
VERDECKT
100
AcDbLine
 10
148.4551151000876
 20
741.2679153122148
 30
0.0
 11
78.29074096371619
 21
741.267915312215
 31
0.0
  0
LINE
  5
5C8
330
1E
100
AcDbEntity
  8
HILF
100
AcDbLine
 10
10.0
 20
460.0000000000001
 30
0.0
 11
0.0
 21
460.0000000000001
 31
0.0
  0
LINE
  5
5C9
330
1E
100
AcDbEntity
  8
VERDECKT
100
AcDbLine
 10
107.3729280319019
 20
562.2131177646465
 30
0.0
 11
107.3729280319019
 21
522.2131177646465
 31
0.0
  0
MTEXT
  5
5CB
330
1E
100
AcDbEntity
  8
TEXT
 62
     3
100
AcDbMText
 10
46.61597078918066
 20
605.2167047334011
 30
0.0
 40
10.0
 41
0.0
 71
     5
 72
     1
  1
A
  7
GREEKS
 11
0.0000000000000001
 21
1.0
 31
0.0
 73
     1
 44
1.0
  0
SOLID
  5
5CC
330
1E
100
AcDbEntity
  8
TEXT
 62
     3
100
AcDbTrace
 10
52.84124550315013
 20
596.7131177646466
 30
0.0
 11
55.17457883648344
 21
596.7131177646466
 31
0.0
 12
54.00791216981679
 22
589.7131177646466
 32
0.0
 13
54.00791216981679
 23
589.7131177646466
 33
0.0
  0
LINE
  5
5CD
330
1E
100
AcDbEntity
  8
TEXT
 62
     3
100
AcDbLine
 10
54.00791216981679
 20
596.7131177646466
 30
0.0
 11
54.00791216981679
 21
613.7202917021555
 31
0.0
  0
LINE
  5
5CE
330
1E
100
AcDbEntity
  8
VERDECKT
100
AcDbLine
 10
89.37292803190189
 20
613.7131177646466
 30
0.0
 11
89.37292803190189
 21
565.7131177646467
 31
0.0
  0
LINE
  5
5CF
330
1E
100
AcDbEntity
  8
VERDECKT
100
AcDbLine
 10
107.3729280319019
 20
617.2131177646467
 30
0.0
 11
107.3729280319019
 21
657.2131177646467
 31
0.0
  0
LINE
  5
5D0
330
1E
100
AcDbEntity
  8
VERDECKT
100
AcDbLine
 10
71.27292803190193
 20
785.7131177646465
 30
0.0
 11
63.872928031902
 21
785.7131177646464
 31
0.0
  0
ARC
  5
5D2
330
1E
100
AcDbEntity
  8
VERDECKT
100
AcDbCircle
 10
85.77292803190193
 20
750.1018441820634
 30
0.0
 40
12.0
100
AcDbArc
 50
180.0
 51
212.3280641221626
  0
ARC
  5
5D3
330
1E
100
AcDbEntity
  8
VERDECKT
100
AcDbCircle
 10
68.87292803190195
 20
739.4065181000778
 30
0.0
 40
8.0
100
AcDbArc
 50
0.0000000000002398
 51
32.32806412216258
  0
LINE
  5
5D4
330
1E
100
AcDbEntity
  8
VERDECKT
100
AcDbLine
 10
71.27292803190193
 20
789.1641953575279
 30
0.0
 11
71.27292803190193
 21
780.151397812871
 31
0.0
  0
LINE
  5
5D5
330
1E
100
AcDbEntity
  8
VERDECKT
100
AcDbLine
 10
73.77292803190204
 20
766.7131177646465
 30
0.0
 11
73.77292803190204
 21
750.1018441820634
 31
0.0
  0
ARC
  5
5D6
330
1E
100
AcDbEntity
  8
VERDECKT
100
AcDbCircle
 10
61.77292803190204
 20
766.7131177646465
 30
0.0
 40
12.0
100
AcDbArc
 50
0.0
 51
21.18315439303533
  0
ARC
  5
5D7
330
1E
100
AcDbEntity
  8
VERDECKT
100
AcDbCircle
 10
96.27292803190194
 20
780.0831177646464
 30
0.0
 40
25.00009324312574
100
AcDbArc
 50
179.8435140455712
 51
201.1831543930354
  0
ARC
  5
5D8
330
1E
100
AcDbEntity
  8
VERDECKT
100
AcDbCircle
 10
96.27292803190194
 20
789.1641953575279
 30
0.0
 40
25.0
100
AcDbArc
 50
155.0418036876845
 51
180.0
  0
LINE
  5
5D9
330
1E
100
AcDbEntity
  8
VERDECKT
100
AcDbLine
 10
119.3729280319019
 20
562.2131177646465
 30
0.0
 11
119.3729280319019
 21
522.2131177646465
 31
0.0
  0
LINE
  5
5DA
330
1E
100
AcDbEntity
  8
VERDECKT
100
AcDbLine
 10
137.3729280319019
 20
613.7131177646466
 30
0.0
 11
137.3729280319019
 21
565.7131177646467
 31
0.0
  0
LINE
  5
5DB
330
1E
100
AcDbEntity
  8
VERDECKT
100
AcDbLine
 10
119.3729280319019
 20
617.2131177646467
 30
0.0
 11
119.3729280319019
 21
657.2131177646467
 31
0.0
  0
SOLID
  5
5DC
330
1E
100
AcDbEntity
  8
TEXT
 62
     3
100
AcDbTrace
 10
179.6012513405229
 20
596.7131177646466
 30
0.0
 11
181.9345846738562
 21
596.7131177646466
 31
0.0
 12
180.7679180071895
 22
589.7131177646466
 32
0.0
 13
180.7679180071895
 23
589.7131177646466
 33
0.0
  0
MTEXT
  5
5DD
330
1E
100
AcDbEntity
  8
TEXT
 62
     3
100
AcDbMText
 10
173.3759766265534
 20
605.2167047334011
 30
0.0
 40
10.0
 41
0.0
 71
     5
 72
     1
  1
B
  7
GREEKS
 11
0.0000000000000001
 21
1.0
 31
0.0
 73
     1
 44
1.0
  0
LINE
  5
5DE
330
1E
100
AcDbEntity
  8
TEXT
 62
     3
100
AcDbLine
 10
180.7679180071895
 20
596.7131177646466
 30
0.0
 11
180.7679180071895
 21
613.7202917021555
 31
0.0
  0
LINE
  5
5E1
102
{ACAD_REACTORS
330
96F
330
A5E
102
}
330
1E
100
AcDbEntity
  8
STEMPEL
100
AcDbLine
 10
266.7312950907007
 20
579.7131177646466
 30
0.0
 11
253.7312950907006
 21
579.7131177646465
 31
0.0
  0
LINE
  5
5E2
102
{ACAD_REACTORS
330
96F
330
A5E
102
}
330
1E
100
AcDbEntity
  8
STEMPEL
100
AcDbLine
 10
266.7312950907007
 20
599.7131177646466
 30
0.0
 11
253.7312950907006
 21
599.7131177646465
 31
0.0
  0
TEXT
  5
5E3
330
1E
100
AcDbEntity
  8
TEXT
 62
     1
100
AcDbText
 10
290.8154208348488
 20
617.6653139268641
 30
0.0
 40
7.0
  1
DN70
 50
90.0
 41
0.8
  7
GREEKS
100
AcDbText
  0
LINE
  5
5E4
330
1E
100
AcDbEntity
  8
VERDECKT
100
AcDbLine
 10
155.472928031902
 20
785.7131177646465
 30
0.0
 11
162.8729280319019
 21
785.7131177646466
 31
0.0
  0
ARC
  5
5E5
330
1E
100
AcDbEntity
  8
VERDECKT
100
AcDbCircle
 10
140.972928031902
 20
750.1018441820634
 30
0.0
 40
12.0
100
AcDbArc
 50
327.6719358778374
 51
0.0
  0
ARC
  5
5E6
330
1E
100
AcDbEntity
  8
VERDECKT
100
AcDbCircle
 10
157.8729280319019
 20
739.4065181000778
 30
0.0
 40
8.0
100
AcDbArc
 50
147.6719358778374
 51
179.9999999999998
  0
LINE
  5
5E7
330
1E
100
AcDbEntity
  8
VERDECKT
100
AcDbLine
 10
155.472928031902
 20
789.1641953575279
 30
0.0
 11
155.472928031902
 21
780.151397812871
 31
0.0
  0
LINE
  5
5E8
330
1E
100
AcDbEntity
  8
VERDECKT
100
AcDbLine
 10
152.9729280319019
 20
766.7131177646465
 30
0.0
 11
152.9729280319019
 21
750.1018441820634
 31
0.0
  0
ARC
  5
5E9
330
1E
100
AcDbEntity
  8
VERDECKT
100
AcDbCircle
 10
164.972928031902
 20
766.7131177646465
 30
0.0
 40
12.0
100
AcDbArc
 50
158.8168456069647
 51
180.0
  0
ARC
  5
5EA
330
1E
100
AcDbEntity
  8
VERDECKT
100
AcDbCircle
 10
130.472928031902
 20
780.0831177646464
 30
0.0
 40
25.00009324312574
100
AcDbArc
 50
338.8168456069645
 51
0.15648595442876
  0
ARC
  5
5EB
330
1E
100
AcDbEntity
  8
VERDECKT
100
AcDbCircle
 10
130.472928031902
 20
789.1641953575279
 30
0.0
 40
25.0
100
AcDbArc
 50
0.0
 51
24.95819631231555
  0
ARC
  5
5ED
102
{ACAD_REACTORS
330
964
330
A5E
102
}
330
1E
100
AcDbEntity
  8
STEMPEL
100
AcDbCircle
 10
275.6312950907006
 20
750.1018441820634
 30
0.0
 40
12.0
100
AcDbArc
 50
180.0
 51
212.3280641221626
  0
ARC
  5
5EE
102
{ACAD_REACTORS
330
964
102
}
330
1E
100
AcDbEntity
  8
STEMPEL
100
AcDbCircle
 10
275.6312950907006
 20
750.1018441820634
 30
0.0
 40
10.4
100
AcDbArc
 50
180.0
 51
212.3280641221625
  0
ARC
  5
5EF
102
{ACAD_REACTORS
330
964
102
}
330
1E
100
AcDbEntity
  8
STEMPEL
100
AcDbCircle
 10
258.7312950907006
 20
739.4065181000778
 30
0.0
 40
9.599999999999999
100
AcDbArc
 50
0.0000000000001599
 51
32.3280641221625
  0
ARC
  5
5F0
102
{ACAD_REACTORS
330
964
330
A5E
102
}
330
1E
100
AcDbEntity
  8
STEMPEL
100
AcDbCircle
 10
258.7312950907006
 20
739.4065181000778
 30
0.0
 40
8.0
100
AcDbArc
 50
0.0000000000002398
 51
32.32806412216258
  0
LINE
  5
5F1
102
{ACAD_REACTORS
330
964
330
9FC
330
A5E
102
}
330
1E
100
AcDbEntity
  8
STEMPEL
100
AcDbLine
 10
261.1312950907006
 20
789.1641953575279
 30
0.0
 11
261.1312950907006
 21
780.151397812871
 31
0.0
  0
LINE
  5
5F2
102
{ACAD_REACTORS
330
964
102
}
330
1E
100
AcDbEntity
  8
STEMPEL
100
AcDbLine
 10
262.7312950907006
 20
789.1641953575279
 30
0.0
 11
262.7312950907006
 21
780.1491767306004
 31
0.0
  0
ARC
  5
5F3
102
{ACAD_REACTORS
330
964
330
A5E
102
}
330
1E
100
AcDbEntity
  8
STEMPEL
100
AcDbCircle
 10
286.1312950907006
 20
780.0831177646464
 30
0.0
 40
25.00009324312574
100
AcDbArc
 50
179.8435140455712
 51
201.1831543930354
  0
LINE
  5
5F4
102
{ACAD_REACTORS
330
964
330
A5E
102
}
330
1E
100
AcDbEntity
  8
STEMPEL
100
AcDbLine
 10
263.6312950907007
 20
766.7131177646465
 30
0.0
 11
263.6312950907007
 21
750.1018441820634
 31
0.0
  0
LINE
  5
5F5
102
{ACAD_REACTORS
330
964
102
}
330
1E
100
AcDbEntity
  8
STEMPEL
100
AcDbLine
 10
265.2312950907007
 20
766.7131177646465
 30
0.0
 11
265.2312950907007
 21
750.1018441820634
 31
0.0
  0
ARC
  5
5F6
102
{ACAD_REACTORS
330
964
330
A5E
102
}
330
1E
100
AcDbEntity
  8
STEMPEL
100
AcDbCircle
 10
251.6312950907007
 20
766.7131177646465
 30
0.0
 40
12.0
100
AcDbArc
 50
0.0
 51
21.18315439303533
  0
ARC
  5
5F7
102
{ACAD_REACTORS
330
964
102
}
330
1E
100
AcDbEntity
  8
STEMPEL
100
AcDbCircle
 10
251.6312950907007
 20
766.7131177646465
 30
0.0
 40
13.6
100
AcDbArc
 50
0.0
 51
21.18315439303524
  0
ARC
  5
5F8
102
{ACAD_REACTORS
330
964
102
}
330
1E
100
AcDbEntity
  8
STEMPEL
100
AcDbCircle
 10
286.1312950907006
 20
780.0831177646464
 30
0.0
 40
23.40009324312573
100
AcDbArc
 50
179.8382525686492
 51
201.1831543930355
  0
ARC
  5
5F9
102
{ACAD_REACTORS
330
964
330
9FC
102
}
330
1E
100
AcDbEntity
  8
STEMPEL
100
AcDbCircle
 10
286.1312950907006
 20
789.1641953575279
 30
0.0
 40
25.0
100
AcDbArc
 50
155.0418036876845
 51
180.0
  0
ARC
  5
5FA
102
{ACAD_REACTORS
330
964
102
}
330
1E
100
AcDbEntity
  8
STEMPEL
100
AcDbCircle
 10
286.1312950907006
 20
789.1641953575279
 30
0.0
 40
23.4
100
AcDbArc
 50
153.2044220687675
 51
180.0
  0
LINE
  5
5FC
102
{ACAD_REACTORS
330
9FC
330
A5E
102
}
330
1E
100
AcDbEntity
  8
STEMPEL
100
AcDbLine
 10
352.7312950907006
 20
785.7131177646477
 30
0.0
 11
345.3312950907006
 21
785.7131177646476
 31
0.0
  0
HATCH
  5
5FE
330
1E
100
AcDbEntity
  8
SCHRAFF
100
AcDbHatch
 10
0.0
 20
0.0
 30
0.0
210
0.0
220
0.0
230
1.0
  2
_U
 70
     0
 71
     0
 91
        1
 92
        7
 72
     1
 73
     1
 93
       10
 10
339.7312950907005
 20
566.7131177646466
 42
-0.4142135623730951
 10
341.7312950907005
 20
568.7131177646466
 42
0.0
 10
342.2312950907005
 20
568.7131177646468
 42
0.0
 10
342.2312950907005
 20
570.3131177646467
 42
0.0
 10
341.7312950907004
 20
570.3131177646467
 42
0.4142135623730904
 10
338.1312950907005
 20
566.7131177646466
 42
0.0
 10
338.1312950907002
 20
252.7829752733003
 42
0.0
 10
337.4252740424235
 20
244.7131177646466
 42
0.0
 10
339.0313857824928
 20
244.7131177646467
 42
0.0
 10
339.7312950907002
 20
252.7131177646468
 42
0.0
 97
        0
 75
     0
 76
     0
 52
45.0
 41
2.0
 77
     0
 78
     1
 53
45.0
 43
-26.75380443968971
 44
0.0
 45
-1.414213562373094
 46
1.414213562373095
 79
     0
 47
0.6792380539519468
 98
        1
 10
339.1958633223658
 20
540.9751364699887
  0
LINE
  5
600
102
{ACAD_REACTORS
330
A0F
330
A5E
102
}
330
1E
100
AcDbEntity
  8
STEMPEL
100
AcDbLine
 10
339.7312950907005
 20
566.7131177646466
 30
0.0
 11
339.7312950907002
 21
252.7131177646461
 31
0.0
  0
LINE
  5
601
330
1E
100
AcDbEntity
  8
STEMPEL
100
AcDbLine
 10
338.1312950907005
 20
566.7131177646466
 30
0.0
 11
338.1312950907002
 21
252.7829752732999
 31
0.0
  0
LINE
  5
605
330
1E
100
AcDbEntity
  8
STEMPEL
100
AcDbLine
 10
584.0
 20
39.99999999999996
 30
0.0
 11
584.0
 21
830.0
 31
0.0
  0
LINE
  5
606
330
1E
100
AcDbEntity
  8
HILF
100
AcDbLine
 10
594.0
 20
-0.0000000000000364
 30
0.0
 11
594.0
 21
840.0000000000002
 31
0.0
  0
LINE
  5
607
330
1E
100
AcDbEntity
  8
MITTEL
100
AcDbLine
 10
303.2312950907006
 20
802.5534385635475
 30
0.0
 11
303.2312950907006
 21
239.7131177646466
 31
0.0
  0
LINE
  5
608
102
{ACAD_REACTORS
330
90E
330
92F
330
982
330
A0F
102
}
330
1E
100
AcDbEntity
  8
STEMPEL
100
AcDbLine
 10
354.2312950907006
 20
799.7131177646465
 30
0.0
 11
354.2312950907005
 21
287.7131177646465
 31
0.0
  0
TEXT
  5
609
330
1E
100
AcDbEntity
  8
TEXT
 62
     1
100
AcDbText
 10
365.7966666031862
 20
251.4396603138991
 30
0.0
 40
7.0
  1
Rohrende leicht eingezogen
 41
0.8
100
AcDbText
  0
LINE
  5
60A
102
{ACAD_REACTORS
330
A0F
102
}
330
1E
100
AcDbEntity
  8
STEMPEL
100
AcDbLine
 10
342.6312950907006
 20
295.7131177646466
 30
0.0
 11
347.2500972442176
 21
287.7131177646465
 31
0.0
  0
LINE
  5
60B
102
{ACAD_REACTORS
330
A0F
102
}
330
1E
100
AcDbEntity
  8
STEMPEL
100
AcDbLine
 10
354.2312950907004
 20
287.7131177646465
 30
0.0
 11
339.7312950907005
 21
287.7131177646466
 31
0.0
  0
LINE
  5
60C
330
1E
100
AcDbEntity
  8
STEMPEL
100
AcDbLine
 10
338.1312950907002
 20
252.7829752732999
 30
0.0
 11
337.4252740424235
 21
244.7131177646466
 31
0.0
  0
LINE
  5
60D
330
1E
100
AcDbEntity
  8
STEMPEL
100
AcDbLine
 10
339.7312950907002
 20
252.7131177646461
 30
0.0
 11
339.0313857824928
 21
244.7131177646466
 31
0.0
  0
LINE
  5
60E
102
{ACAD_REACTORS
330
A0F
330
A5E
102
}
330
1E
100
AcDbEntity
  8
STEMPEL
100
AcDbLine
 10
339.7312950907003
 20
305.7131177646466
 30
0.0
 11
352.7312950907007
 21
305.7131177646466
 31
0.0
  0
LINE
  5
60F
102
{ACAD_REACTORS
330
A0F
102
}
330
1E
100
AcDbEntity
  8
STEMPEL
100
AcDbLine
 10
339.7312950907003
 20
295.7131177646466
 30
0.0
 11
342.6312950907006
 21
295.7131177646466
 31
0.0
  0
LINE
  5
611
102
{ACAD_REACTORS
330
92F
330
A0F
102
}
330
1E
100
AcDbEntity
  8
STEMPEL
100
AcDbLine
 10
354.2312950907005
 20
289.7131177646467
 30
0.0
 11
352.7312950907007
 21
289.7131177646466
 31
0.0
  0
HATCH
  5
612
330
1E
100
AcDbEntity
  8
SCHRAFF
100
AcDbHatch
 10
0.0
 20
0.0
 30
0.0
210
0.0
220
0.0
230
1.0
  2
_U
 70
     0
 71
     0
 91
        1
 92
        7
 72
     1
 73
     1
 93
       22
 10
338.1312950907005
 20
612.7131177646466
 42
0.4142135623730953
 10
341.7312950907005
 20
609.1131177646466
 42
0.0
 10
342.2312950907005
 20
609.1131177646466
 42
0.0
 10
342.2312950907005
 20
610.7131177646465
 42
0.0
 10
341.7312950907
 20
610.7131177646466
 42
-0.4142135623730287
 10
339.7312950907004
 20
612.7131177646466
 42
0.0
 10
339.7312950907006
 20
739.4065181000778
 42
-0.1420008527982299
 10
340.9712950907006
 20
743.6846485328721
 42
0.1420008527982284
 10
342.8312950907006
 20
750.1018441820633
 42
0.0
 10
342.8312950907006
 20
766.7131177646465
 42
-0.0926930603363563
 10
343.6421340991424
 20
771.049323053259
 42
0.0920044384190738
 10
345.3312950907006
 20
780.0148377164557
 42
0.0
 10
345.3312950907006
 20
789.1641953575279
 42
0.1093332246020746
 10
342.996692418976
 20
799.7131177646465
 42
0.0
 10
341.2186174669313
 20
799.7131177646465
 42
-0.117453440257015
 10
343.7312950907007
 20
789.1641953575279
 42
0.0
 10
343.7312950907007
 20
780.1491767305722
 42
-0.0934049271927115
 10
342.1502459669346
 20
771.6274837584074
 42
0.0926930603363582
 10
341.2312950907006
 20
766.7131177646464
 42
0.0
 10
341.2312950907006
 20
750.1018441820634
 42
-0.1420008527982299
 10
339.6192950907007
 20
744.540274619431
 42
0.1420008527982295
 10
338.1312950907006
 20
739.4065181000778
 42
0.0
 97
        0
 75
     0
 76
     0
 52
45.0
 41
2.0
 77
     0
 78
     1
 53
45.0
 43
-26.75380443968971
 44
0.0
 45
-1.414213562373094
 46
1.414213562373095
 79
     0
 47
0.6792380539519468
 98
        1
 10
338.5366570985234
 20
727.3653998300487
  0
TEXT
  5
613
330
1E
100
AcDbEntity
  8
TEXT
 62
     1
100
AcDbText
 10
416.4764946577215
 20
617.6653139268641
 30
0.0
 40
7.0
  1
Außenrohr: E195 EN10305 feuerverzinkt
 50
90.0
 41
0.8
  7
GREEKS
100
AcDbText
  0
TEXT
  5
614
330
1E
100
AcDbEntity
  8
TEXT
 62
     1
100
AcDbText
 10
440.9703631711784
 20
669.5243164606295
 30
0.0
 40
7.0
  1
und innenbeschichtet
 50
90.0
 41
0.8
  7
GREEKS
100
AcDbText
  0
TEXT
  5
615
330
1E
100
AcDbEntity
  8
TEXT
 62
     1
100
AcDbText
 10
453.5651985565605
 20
613.7669967188742
 30
0.0
 40
7.0
  1
Daemmung: 2 K-PU-Schaum
 50
90.0
 41
0.8
  7
GREEKS
100
AcDbText
  0
TEXT
  5
616
330
1E
100
AcDbEntity
  8
TEXT
 62
     1
100
AcDbText
 10
429.7013093319526
 20
621.3371727472015
 30
0.0
 40
7.0
  1
Innenrohr: E195 EN10305 feuerverzinkt
 50
90.0
 41
0.8
  7
GREEKS
100
AcDbText
  0
LINE
  5
617
330
1E
100
AcDbEntity
  8
STEMPEL
100
AcDbLine
 10
338.1312950907006
 20
739.4065181000778
 30
0.0
 11
338.1312950907005
 21
612.7131177646466
 31
0.0
  0
LINE
  5
618
102
{ACAD_REACTORS
330
A5E
102
}
330
1E
100
AcDbEntity
  8
STEMPEL
100
AcDbLine
 10
339.7312950907006
 20
739.4065181000778
 30
0.0
 11
339.7312950907004
 21
612.7131177646466
 31
0.0
  0
LINE
  5
61E
102
{ACAD_REACTORS
330
9EE
330
A5E
102
}
330
1E
100
AcDbEntity
  8
STEMPEL
100
AcDbLine
 10
344.2312950907006
 20
562.2131177646465
 30
0.0
 11
344.2312950907006
 21
522.2131177646465
 31
0.0
  0
LINE
  5
61F
102
{ACAD_REACTORS
330
982
330
9EE
102
}
330
1E
100
AcDbEntity
  8
STEMPEL
100
AcDbLine
 10
350.2312950907005
 20
554.2131177646467
 30
0.0
 11
354.2312950907005
 21
550.2131177646466
 31
0.0
  0
LINE
  5
620
102
{ACAD_REACTORS
330
9EE
330
A5E
102
}
330
1E
100
AcDbEntity
  8
STEMPEL
100
AcDbLine
 10
352.7312950907007
 20
522.2131177646465
 30
0.0
 11
344.2312950907006
 21
522.2131177646465
 31
0.0
  0
LINE
  5
621
102
{ACAD_REACTORS
330
92F
330
982
102
}
330
1E
100
AcDbEntity
  8
STEMPEL
100
AcDbLine
 10
352.7312950907007
 20
542.2131177646465
 30
0.0
 11
354.2312950907005
 21
542.2131177646465
 31
0.0
  0
HATCH
  5
622
330
1E
100
AcDbEntity
  8
SCHRAFF
100
AcDbHatch
 10
0.0
 20
0.0
 30
0.0
210
0.0
220
0.0
230
1.0
  2
ANSI37
 70
     0
 71
     1
 91
        2
 92
        7
 72
     0
 73
     1
 93
        4
 10
342.2312950907006
 20
589.7131177646466
 10
345.2312950907005
 20
589.7131177646466
 10
345.2312950907006
 20
614.7131177646466
 10
342.2312950907005
 20
614.7131177646468
 97
        4
330
624
330
628
330
548
330
636
 92
        7
 72
     0
 73
     1
 93
        4
 10
345.2312950907005
 20
589.7131177646466
 10
342.2312950907005
 20
589.7131177646468
 10
342.2312950907005
 20
564.7131177646466
 10
345.2312950907006
 20
564.7131177646466
 97
        4
330
548
330
628
330
623
330
636
 75
     0
 76
     1
 52
0.0
 41
10.0
 77
     0
 78
     2
 53
45.0
 43
0.0
 44
0.0
 45
-0.8838834764831842
 46
0.8838834764831844
 79
     0
 53
135.0
 43
0.0
 44
0.0
 45
-0.8838834764831844
 46
-0.8838834764831842
 79
     0
 47
0.2046702748784908
 98
        2
 10
343.4360043058346
 20
610.0053730980514
 10
344.0504238589738
 20
575.6207664720616
  0
LINE
  5
623
102
{ACAD_REACTORS
330
622
330
A5E
102
}
330
1E
100
AcDbEntity
  8
STEMPEL
100
AcDbLine
 10
345.2312950907005
 20
564.7131177646466
 30
0.0
 11
342.2312950907005
 21
564.7131177646466
 31
0.0
  0
LINE
  5
624
102
{ACAD_REACTORS
330
622
330
A5E
102
}
330
1E
100
AcDbEntity
  8
STEMPEL
100
AcDbLine
 10
345.2312950907005
 20
614.7131177646466
 30
0.0
 11
342.2312950907005
 21
614.7131177646468
 31
0.0
  0
LINE
  5
625
330
1E
100
AcDbEntity
  8
MITTEL
100
AcDbLine
 10
356.1555594077045
 20
557.2131177646467
 30
0.0
 11
342.0573250193111
 21
557.2131177646467
 31
0.0
  0
LINE
  5
626
330
1E
100
AcDbEntity
  8
MITTEL
100
AcDbLine
 10
356.1555594077045
 20
622.2131177646466
 30
0.0
 11
342.0573250193111
 21
622.2131177646466
 31
0.0
  0
ARC
  5
627
330
1E
100
AcDbEntity
  8
HILF
100
AcDbCircle
 10
365.5210105896308
 20
589.7131177646466
 30
0.0
 40
33.3456314747294
100
AcDbArc
 50
144.9345397497801
 51
215.0654602502199
  0
LINE
  5
628
102
{ACAD_REACTORS
330
622
330
A5E
102
}
330
1E
100
AcDbEntity
  8
STEMPEL
100
AcDbLine
 10
342.2312950907005
 20
614.7131177646468
 30
0.0
 11
342.2312950907005
 21
564.7131177646466
 31
0.0
  0
ARC
  5
629
102
{ACAD_REACTORS
330
A5E
102
}
330
1E
100
AcDbEntity
  8
STEMPEL
100
AcDbCircle
 10
341.7312950907004
 20
566.7131177646466
 30
0.0
 40
2.0
100
AcDbArc
 50
90.00000000000003
 51
180.0
  0
ARC
  5
62A
330
1E
100
AcDbEntity
  8
STEMPEL
100
AcDbCircle
 10
341.7312950907004
 20
566.7131177646466
 30
0.0
 40
3.6
100
AcDbArc
 50
90.00000000000003
 51
180.0
  0
LINE
  5
62B
330
1E
100
AcDbEntity
  8
STEMPEL
100
AcDbLine
 10
341.7312950907004
 20
568.7131177646466
 30
0.0
 11
342.2312950907005
 21
568.7131177646466
 31
0.0
  0
LINE
  5
62C
330
1E
100
AcDbEntity
  8
STEMPEL
100
AcDbLine
 10
341.7312950907004
 20
570.3131177646467
 30
0.0
 11
342.2312950907005
 21
570.3131177646467
 31
0.0
  0
ARC
  5
62D
330
1E
100
AcDbEntity
  8
STEMPEL
100
AcDbCircle
 10
341.7312950907004
 20
612.7131177646466
 30
0.0
 40
3.6
100
AcDbArc
 50
179.9999999999999
 51
270.0
  0
ARC
  5
62E
102
{ACAD_REACTORS
330
A5E
102
}
330
1E
100
AcDbEntity
  8
STEMPEL
100
AcDbCircle
 10
341.7312950907004
 20
612.7131177646466
 30
0.0
 40
2.0
100
AcDbArc
 50
179.9999999999999
 51
270.0
  0
LINE
  5
62F
330
1E
100
AcDbEntity
  8
STEMPEL
100
AcDbLine
 10
341.7312950907004
 20
610.7131177646466
 30
0.0
 11
342.2312950907005
 21
610.7131177646466
 31
0.0
  0
LINE
  5
630
330
1E
100
AcDbEntity
  8
STEMPEL
100
AcDbLine
 10
341.7312950907004
 20
609.1131177646466
 30
0.0
 11
342.2312950907005
 21
609.1131177646466
 31
0.0
  0
LINE
  5
634
102
{ACAD_REACTORS
330
982
330
9EE
330
A5E
102
}
330
1E
100
AcDbEntity
  8
STEMPEL
100
AcDbLine
 10
350.2312950907005
 20
619.2131177646465
 30
0.0
 11
354.2312950907005
 21
615.2131177646465
 31
0.0
  0
LINE
  5
635
102
{ACAD_REACTORS
330
A5E
102
}
330
1E
100
AcDbEntity
  8
STEMPEL
100
AcDbLine
 10
347.2312950907006
 20
613.7131177646466
 30
0.0
 11
347.2312950907006
 21
565.7131177646467
 31
0.0
  0
LINE
  5
636
102
{ACAD_REACTORS
330
622
330
A5E
102
}
330
1E
100
AcDbEntity
  8
STEMPEL
100
AcDbLine
 10
345.2312950907005
 20
614.7131177646466
 30
0.0
 11
345.2312950907005
 21
564.7131177646466
 31
0.0
  0
HATCH
  5
637
330
1E
100
AcDbEntity
  8
SCHRAFF
100
AcDbHatch
 10
0.0
 20
0.0
 30
0.0
210
0.0
220
0.0
230
1.0
  2
_U
 70
     0
 71
     0
 91
        2
 92
        7
 72
     0
 73
     1
 93
        4
 10
345.2312950907006
 20
613.7131177646465
 10
345.2312950907006
 20
589.7131177646466
 10
347.2312950907006
 20
589.7131177646466
 10
347.2312950907006
 20
613.7131177646466
 97
        0
 92
        7
 72
     0
 73
     1
 93
        4
 10
345.2312950907006
 20
589.7131177646466
 10
345.2312950907006
 20
565.7131177646467
 10
347.2312950907006
 20
565.7131177646467
 10
347.2312950907006
 20
589.7131177646466
 97
        0
 75
     0
 76
     0
 52
225.0
 41
2.0
 77
     0
 78
     1
 53
225.0
 43
436.3035528647505
 44
476.3401897327447
 45
1.414213562373094
 46
-1.414213562373095
 79
     0
 47
0.1204865162473584
 98
        2
 10
346.2337536007181
 20
606.7999807784989
 10
345.8722937996128
 20
585.8213651235895
  0
LINE
  5
638
102
{ACAD_REACTORS
330
9EE
102
}
330
1E
100
AcDbEntity
  8
STEMPEL
100
AcDbLine
 10
350.2312950907005
 20
554.2131177646467
 30
0.0
 11
344.2312950907006
 21
554.2131177646467
 31
0.0
  0
LINE
  5
639
102
{ACAD_REACTORS
330
9EE
102
}
330
1E
100
AcDbEntity
  8
STEMPEL
100
AcDbLine
 10
350.2312950907005
 20
560.2131177646468
 30
0.0
 11
344.2312950907006
 21
560.2131177646468
 31
0.0
  0
LINE
  5
63A
102
{ACAD_REACTORS
330
9EE
330
A5E
102
}
330
1E
100
AcDbEntity
  8
STEMPEL
100
AcDbLine
 10
352.2312950907006
 20
562.2131177646465
 30
0.0
 11
344.2312950907006
 21
562.2131177646465
 31
0.0
  0
LINE
  5
63B
102
{ACAD_REACTORS
330
A5E
102
}
330
1E
100
AcDbEntity
  8
STEMPEL
100
AcDbLine
 10
345.2312950907006
 20
565.7131177646467
 30
0.0
 11
347.2312950907006
 21
565.7131177646467
 31
0.0
  0
LINE
  5
63C
102
{ACAD_REACTORS
330
982
330
9EE
330
A5E
102
}
330
1E
100
AcDbEntity
  8
STEMPEL
100
AcDbLine
 10
350.2312950907005
 20
560.2131177646468
 30
0.0
 11
354.2312950907005
 21
564.2131177646468
 31
0.0
  0
LINE
  5
63D
330
1E
100
AcDbEntity
  8
STEMPEL
100
AcDbLine
 10
350.2312950907005
 20
560.2131177646468
 30
0.0
 11
350.2312950907005
 21
554.2131177646467
 31
0.0
  0
LINE
  5
63E
102
{ACAD_REACTORS
330
A5E
102
}
330
1E
100
AcDbEntity
  8
STEMPEL
100
AcDbLine
 10
345.2312950907006
 20
613.7131177646466
 30
0.0
 11
347.2312950907006
 21
613.7131177646466
 31
0.0
  0
LINE
  5
640
102
{ACAD_REACTORS
330
9EE
330
A5E
102
}
330
1E
100
AcDbEntity
  8
STEMPEL
100
AcDbLine
 10
344.2312950907006
 20
617.2131177646467
 30
0.0
 11
344.2312950907006
 21
657.2131177646467
 31
0.0
  0
LINE
  5
641
102
{ACAD_REACTORS
330
9EE
330
A5E
102
}
330
1E
100
AcDbEntity
  8
STEMPEL
100
AcDbLine
 10
352.2312950907006
 20
617.2131177646467
 30
0.0
 11
344.2312950907006
 21
617.2131177646467
 31
0.0
  0
LINE
  5
642
102
{ACAD_REACTORS
330
9EE
102
}
330
1E
100
AcDbEntity
  8
STEMPEL
100
AcDbLine
 10
350.2312950907005
 20
619.2131177646465
 30
0.0
 11
344.2312950907006
 21
619.2131177646465
 31
0.0
  0
LINE
  5
643
102
{ACAD_REACTORS
330
9EE
102
}
330
1E
100
AcDbEntity
  8
STEMPEL
100
AcDbLine
 10
350.2312950907005
 20
625.2131177646465
 30
0.0
 11
344.2312950907006
 21
625.2131177646465
 31
0.0
  0
LINE
  5
644
102
{ACAD_REACTORS
330
982
330
9EE
102
}
330
1E
100
AcDbEntity
  8
STEMPEL
100
AcDbLine
 10
350.2312950907005
 20
625.2131177646465
 30
0.0
 11
354.2312950907005
 21
629.2131177646466
 31
0.0
  0
LINE
  5
645
330
1E
100
AcDbEntity
  8
STEMPEL
100
AcDbLine
 10
350.2312950907005
 20
619.2131177646465
 30
0.0
 11
350.2312950907005
 21
625.2131177646465
 31
0.0
  0
LINE
  5
646
102
{ACAD_REACTORS
330
90E
330
982
102
}
330
1E
100
AcDbEntity
  8
STEMPEL
100
AcDbLine
 10
352.7312950907005
 20
637.2131177646466
 30
0.0
 11
354.2312950907005
 21
637.2131177646465
 31
0.0
  0
LINE
  5
647
102
{ACAD_REACTORS
330
9EE
330
A5E
102
}
330
1E
100
AcDbEntity
  8
STEMPEL
100
AcDbLine
 10
352.7312950907006
 20
657.2131177646467
 30
0.0
 11
344.2312950907006
 21
657.2131177646467
 31
0.0
  0
TEXT
  5
648
330
1E
100
AcDbEntity
  8
TEXT
100
AcDbText
 10
479.0183866395603
 20
469.9378244907339
 30
0.0
 40
5.0
  1
Erstellt mit AUTOCAD 2004
 50
90.0
 41
0.8
100
AcDbText
  0
ARC
  5
649
102
{ACAD_REACTORS
330
9FC
102
}
330
1E
100
AcDbEntity
  8
STEMPEL
100
AcDbCircle
 10
320.3312950907006
 20
789.1641953575279
 30
0.0
 40
25.0
100
AcDbArc
 50
0.0
 51
24.95819631231555
  0
ARC
  5
64A
330
1E
100
AcDbEntity
  8
STEMPEL
100
AcDbCircle
 10
320.3312950907006
 20
789.1641953575279
 30
0.0
 40
23.4
100
AcDbArc
 50
0.0
 51
26.79557793123247
  0
ARC
  5
64B
330
1E
100
AcDbEntity
  8
STEMPEL
100
AcDbCircle
 10
320.3312950907006
 20
780.0831177646464
 30
0.0
 40
23.40009324312573
100
AcDbArc
 50
338.8168456069645
 51
0.1617474313508271
  0
ARC
  5
64C
102
{ACAD_REACTORS
330
A5E
102
}
330
1E
100
AcDbEntity
  8
STEMPEL
100
AcDbCircle
 10
354.8312950907006
 20
766.7131177646465
 30
0.0
 40
12.0
100
AcDbArc
 50
158.8168456069647
 51
180.0
  0
ARC
  5
64D
330
1E
100
AcDbEntity
  8
STEMPEL
100
AcDbCircle
 10
330.8312950907006
 20
750.1018441820634
 30
0.0
 40
10.4
100
AcDbArc
 50
327.6719358778375
 51
0.0
  0
ARC
  5
64E
102
{ACAD_REACTORS
330
A5E
102
}
330
1E
100
AcDbEntity
  8
STEMPEL
100
AcDbCircle
 10
330.8312950907006
 20
750.1018441820634
 30
0.0
 40
12.0
100
AcDbArc
 50
327.6719358778374
 51
0.0
  0
ARC
  5
64F
330
1E
100
AcDbEntity
  8
STEMPEL
100
AcDbCircle
 10
347.7312950907006
 20
739.4065181000778
 30
0.0
 40
9.599999999999999
100
AcDbArc
 50
147.6719358778375
 51
179.9999999999998
  0
ARC
  5
650
102
{ACAD_REACTORS
330
A5E
102
}
330
1E
100
AcDbEntity
  8
STEMPEL
100
AcDbCircle
 10
347.7312950907006
 20
739.4065181000778
 30
0.0
 40
8.0
100
AcDbArc
 50
147.6719358778374
 51
179.9999999999998
  0
LINE
  5
651
330
1E
100
AcDbEntity
  8
STEMPEL
100
AcDbLine
 10
341.2312950907006
 20
766.7131177646465
 30
0.0
 11
341.2312950907006
 21
750.1018441820634
 31
0.0
  0
LINE
  5
652
102
{ACAD_REACTORS
330
A5E
102
}
330
1E
100
AcDbEntity
  8
STEMPEL
100
AcDbLine
 10
342.8312950907006
 20
766.7131177646465
 30
0.0
 11
342.8312950907006
 21
750.1018441820634
 31
0.0
  0
ARC
  5
653
330
1E
100
AcDbEntity
  8
STEMPEL
100
AcDbCircle
 10
354.8312950907006
 20
766.7131177646465
 30
0.0
 40
13.6
100
AcDbArc
 50
158.8168456069647
 51
180.0
  0
LINE
  5
654
330
1E
100
AcDbEntity
  8
STEMPEL
100
AcDbLine
 10
343.7312950907007
 20
789.1641953575279
 30
0.0
 11
343.7312950907007
 21
780.1491767306004
 31
0.0
  0
LINE
  5
655
102
{ACAD_REACTORS
330
9FC
330
A5E
102
}
330
1E
100
AcDbEntity
  8
STEMPEL
100
AcDbLine
 10
345.3312950907006
 20
789.1641953575279
 30
0.0
 11
345.3312950907006
 21
780.151397812871
 31
0.0
  0
ARC
  5
656
102
{ACAD_REACTORS
330
A5E
102
}
330
1E
100
AcDbEntity
  8
STEMPEL
100
AcDbCircle
 10
320.3312950907006
 20
780.0831177646464
 30
0.0
 40
25.00009324312574
100
AcDbArc
 50
338.8168456069645
 51
0.15648595442876
  0
TEXT
  5
659
330
1E
100
AcDbEntity
  8
TEXT
100
AcDbText
 10
552.0
 20
654.9713400534564
 30
0.0
 40
4.0
  1
58057070W.DWG
 50
90.0
 41
0.8
100
AcDbText
  0
TEXT
  5
65A
330
1E
100
AcDbEntity
  8
TEXT
100
AcDbText
 10
542.0
 20
655.162303158329
 30
0.0
 40
5.0
  1
EDV-Art.Nr. 58057.070X
 50
90.0
 41
0.8
100
AcDbText
  0
TEXT
  5
65B
330
1E
100
AcDbEntity
  8
TEXT
100
AcDbText
 10
522.0
 20
654.862987254257
 30
0.0
 40
5.0
  1
mit versenkter Reinigungsöffnung
 50
90.0
 41
0.75
100
AcDbText
  0
TEXT
  5
65C
330
1E
100
AcDbEntity
  8
TEXT
100
AcDbText
 10
563.1543942980695
 20
654.7422383911358
 30
0.0
 40
5.0
  1
Bauvorhaben
 50
90.0
 41
0.8
100
AcDbText
  0
TEXT
  5
65D
330
1E
100
AcDbEntity
  8
TEXT
100
AcDbText
 10
491.4510671988221
 20
654.8779403809009
 30
0.0
 40
5.0
  1
Benennung
 50
90.0
 41
0.8
100
AcDbText
  0
LINE
  5
65E
330
1E
100
AcDbEntity
  8
HILF
100
AcDbLine
 10
579.1060174197171
 20
654.7736801096947
 30
0.0
 11
579.1060174197171
 21
824.8588839326728
 31
0.0
  0
LINE
  5
65F
330
1E
100
AcDbEntity
  8
HILF
100
AcDbLine
 10
544.0
 20
654.7736801096947
 30
0.0
 11
544.0
 21
746.629784251481
 31
0.0
  0
LINE
  5
660
330
1E
100
AcDbEntity
  8
HILF
100
AcDbLine
 10
534.0
 20
654.7736801096947
 30
0.0
 11
534.0
 21
746.629784251481
 31
0.0
  0
LINE
  5
661
330
1E
100
AcDbEntity
  8
HILF
100
AcDbLine
 10
524.0
 20
654.7736801096947
 30
0.0
 11
524.0
 21
746.629784251481
 31
0.0
  0
LINE
  5
662
330
1E
100
AcDbEntity
  8
HILF
100
AcDbLine
 10
509.9624175243587
 20
654.7736801096947
 30
0.0
 11
509.9624175243587
 21
746.629784251481
 31
0.0
  0
LINE
  5
663
330
1E
100
AcDbEntity
  8
STEMPEL
100
AcDbLine
 10
514.0
 20
830.0
 30
0.0
 11
514.0
 21
566.0000000000001
 31
0.0
  0
LINE
  5
664
330
1E
100
AcDbEntity
  8
STEMPEL
100
AcDbLine
 10
554.0
 20
830.0
 30
0.0
 11
554.0
 21
565.9999999999999
 31
0.0
  0
LINE
  5
665
330
1E
100
AcDbEntity
  8
STEMPEL
100
AcDbLine
 10
484.0
 20
830.0
 30
0.0
 11
484.0
 21
469.9999999999999
 31
0.0
  0
TEXT
  5
666
330
1E
100
AcDbEntity
  8
TEXT
 62
     1
100
AcDbText
 10
507.9624175243586
 20
654.979117340995
 30
0.0
 40
7.0
  1
Verbundrohr DN70
 50
90.0
 41
0.8
100
AcDbText
  0
INSERT
  5
667
330
1E
100
AcDbEntity
  8
STEMPEL
100
AcDbBlockReference
  2
LOGO
 10
549.6760802813285
 20
568.9705276546529
 30
0.0
 41
2.0
 42
2.0
 43
2.0
 50
90.0
  0
TEXT
  5
668
330
1E
100
AcDbEntity
  8
TEXT
100
AcDbText
 10
576.0
 20
548.6761904761904
 30
0.0
 40
4.0
  1
Name
 50
90.0
 41
0.8
 72
     4
 11
574.0
 21
554.9999999999998
 31
0.0
100
AcDbText
  0
TEXT
  5
669
330
1E
100
AcDbEntity
  8
TEXT
100
AcDbText
 10
575.3333333333333
 20
530.2666666666666
 30
0.0
 40
4.0
  1
Tag
 50
90.0
 41
0.8
 72
     4
 11
574.0
 21
534.0
 31
0.0
100
AcDbText
  0
TEXT
  5
66A
330
1E
100
AcDbEntity
  8
TEXT
100
AcDbText
 10
580.345341539728
 20
478.2664110704573
 30
0.0
 40
4.0
  1
Index
 50
180.0
 41
0.8
100
AcDbText
  0
TEXT
  5
66B
330
1E
100
AcDbEntity
  8
TEXT
100
AcDbText
 10
575.7142857142857
 20
493.2571428571427
 30
0.0
 40
4.0
  1
Änderung
 50
90.0
 41
0.8
 72
     4
 11
574.0
 21
503.9999999999999
 31
0.0
100
AcDbText
  0
LINE
  5
66C
330
1E
100
AcDbEntity
  8
VOLL
100
AcDbLine
 10
484.0000000000002
 20
544.0000000000001
 30
0.0
 11
584.0000000000002
 21
543.9999999999998
 31
0.0
  0
LINE
  5
66D
330
1E
100
AcDbEntity
  8
VOLL
100
AcDbLine
 10
484.0
 20
524.0000000000001
 30
0.0
 11
584.0
 21
523.9999999999999
 31
0.0
  0
LINE
  5
66E
330
1E
100
AcDbEntity
  8
VOLL
100
AcDbLine
 10
484.0
 20
483.9999999999999
 30
0.0
 11
584.0
 21
483.9999999999998
 31
0.0
  0
LINE
  5
66F
330
1E
100
AcDbEntity
  8
STEMPEL
100
AcDbLine
 10
484.0
 20
649.9999999999999
 30
0.0
 11
584.0
 21
649.9999999999999
 31
0.0
  0
LINE
  5
670
330
1E
100
AcDbEntity
  8
STEMPEL
100
AcDbLine
 10
484.0000000000002
 20
566.0000000000001
 30
0.0
 11
584.0000000000002
 21
565.9999999999999
 31
0.0
  0
LINE
  5
671
330
1E
100
AcDbEntity
  8
STEMPEL
100
AcDbLine
 10
484.0
 20
469.9999999999999
 30
0.0
 11
584.0
 21
469.9999999999998
 31
0.0
  0
LINE
  5
674
330
1E
100
AcDbEntity
  8
HILF
100
AcDbLine
 10
554.0
 20
469.9999999999999
 30
0.0
 11
554.0
 21
566.0000000000001
 31
0.0
  0
LINE
  5
675
330
1E
100
AcDbEntity
  8
HILF
100
AcDbLine
 10
544.0
 20
469.9999999999999
 30
0.0
 11
544.0
 21
566.0000000000001
 31
0.0
  0
LINE
  5
676
330
1E
100
AcDbEntity
  8
HILF
100
AcDbLine
 10
534.0
 20
469.9999999999999
 30
0.0
 11
534.0
 21
566.0000000000001
 31
0.0
  0
LINE
  5
677
330
1E
100
AcDbEntity
  8
HILF
100
AcDbLine
 10
524.0
 20
469.9999999999999
 30
0.0
 11
524.0
 21
566.0000000000001
 31
0.0
  0
LINE
  5
678
330
1E
100
AcDbEntity
  8
HILF
100
AcDbLine
 10
514.0
 20
469.9999999999999
 30
0.0
 11
514.0
 21
566.0000000000001
 31
0.0
  0
LINE
  5
679
330
1E
100
AcDbEntity
  8
HILF
100
AcDbLine
 10
504.0
 20
469.9999999999999
 30
0.0
 11
504.0
 21
566.0000000000001
 31
0.0
  0
LINE
  5
67A
330
1E
100
AcDbEntity
  8
HILF
100
AcDbLine
 10
494.0
 20
469.9999999999999
 30
0.0
 11
494.0
 21
566.0000000000001
 31
0.0
  0
LINE
  5
67B
330
1E
100
AcDbEntity
  8
STEMPEL
100
AcDbLine
 10
564.0
 20
565.9999999999999
 30
0.0
 11
564.0
 21
469.9999999999998
 31
0.0
  0
TEXT
  5
682
330
1E
100
AcDbEntity
  8
TEXT
100
AcDbText
 10
531.0
 20
624.7428571428571
 30
0.0
 40
4.0
  1
Koeh
 50
90.0
 41
0.8
 72
     4
 11
529.0
 21
630.0
 31
0.0
100
AcDbText
  0
TEXT
  5
683
330
1E
100
AcDbEntity
  8
TEXT
100
AcDbText
 10
531.0
 20
589.9904761904762
 30
0.0
 40
4.0
  1
29.05.
 50
90.0
 41
0.8
 72
     4
 11
529.0
 21
597.0
 31
0.0
100
AcDbText
  0
TEXT
  5
684
330
1E
100
AcDbEntity
  8
TEXT
100
AcDbText
 10
530.3700963038204
 20
567.5836127167614
 30
0.0
 40
4.0
  1
Gez.
 50
90.0
 41
0.8
100
AcDbText
  0
LINE
  5
685
330
1E
100
AcDbEntity
  8
VOLL
100
AcDbLine
 10
484.0000000000002
 20
610.0000000000001
 30
0.0
 11
554.0
 21
609.9999999999998
 31
0.0
  0
LINE
  5
686
330
1E
100
AcDbEntity
  8
VOLL
100
AcDbLine
 10
514.0
 20
584.0000000000001
 30
0.0
 11
554.0
 21
584.0000000000001
 31
0.0
  0
TEXT
  5
687
330
1E
100
AcDbEntity
  8
TEXT
100
AcDbText
 10
506.081618002393
 20
613.0095238095237
 30
0.0
 40
4.0
  1
DIN EN1123-2
 50
90.0
 41
0.8
 72
     4
 11
504.081618002393
 21
630.0
 31
0.0
100
AcDbText
  0
TEXT
  5
688
330
1E
100
AcDbEntity
  8
TEXT
100
AcDbText
 10
491.4510671988221
 20
616.5714285714285
 30
0.0
 40
5.0
  1
Zul. Abw.
 50
90.0
 41
0.8
 72
     1
 11
491.4510671988221
 21
630.0
 31
0.0
100
AcDbText
  0
LINE
  5
689
330
1E
100
AcDbEntity
  8
HILF
100
AcDbLine
 10
524.0
 20
566.0000000000001
 30
0.0
 11
524.0
 21
649.9999999999999
 31
0.0
  0
TEXT
  5
68A
330
1E
100
AcDbEntity
  8
TEXT
 62
     1
100
AcDbText
 10
505.7621925049947
 20
582.0000000000001
 30
0.0
 40
7.0
  1
1:2
 50
90.0
 41
0.8
 72
     1
 11
505.7621925049947
 21
588.0000000000001
 31
0.0
100
AcDbText
  0
TEXT
  5
68B
330
1E
100
AcDbEntity
  8
TEXT
100
AcDbText
 10
491.4510671988221
 20
576.1904761904762
 30
0.0
 40
5.0
  1
Maßstab
 50
90.0
 41
0.8
 72
     1
 11
491.4510671988221
 21
588.0000000000001
 31
0.0
100
AcDbText
  0
TEXT
  5
68C
330
1E
100
AcDbEntity
  8
TEXT
100
AcDbText
 10
521.0
 20
569.6666666666666
 30
0.0
 40
4.0
  1
2013
 50
90.0
 41
0.8
 72
     4
 11
519.0
 21
575.0
 31
0.0
100
AcDbText
  0
TEXT
  5
68D
330
1E
100
AcDbEntity
  8
TEXT
100
AcDbText
 10
520.3333333333334
 20
593.2666666666666
 30
0.0
 40
4.0
  1
Tag
 50
90.0
 41
0.8
 72
     4
 11
519.0
 21
597.0
 31
0.0
100
AcDbText
  0
TEXT
  5
68E
330
1E
100
AcDbEntity
  8
TEXT
100
AcDbText
 10
521.0
 20
623.6761904761905
 30
0.0
 40
4.0
  1
Name
 50
90.0
 41
0.8
 72
     4
 11
519.0
 21
630.0
 31
0.0
100
AcDbText
  0
LINE
  5
68F
330
1E
100
AcDbEntity
  8
HILF
100
AcDbLine
 10
544.0
 20
566.0000000000001
 30
0.0
 11
544.0
 21
649.9999999999999
 31
0.0
  0
LINE
  5
690
330
1E
100
AcDbEntity
  8
HILF
100
AcDbLine
 10
534.0
 20
566.0000000000001
 30
0.0
 11
534.0
 21
649.9999999999999
 31
0.0
  0
TEXT
  5
691
330
1E
100
AcDbEntity
  8
TEXT
100
AcDbText
 10
540.3107370857163
 20
567.5515086571671
 30
0.0
 40
4.0
  1
Gepr.
 50
90.0
 41
0.8
100
AcDbText
  0
TEXT
  5
692
330
1E
100
AcDbEntity
  8
TEXT
100
AcDbText
 10
550.4705361035019
 20
567.6006777387303
 30
0.0
 40
4.0
  1
Norm.
 50
90.0
 41
0.8
100
AcDbText
  0
LINE
  5
693
330
1E
100
AcDbEntity
  8
HILF
100
AcDbLine
 10
594.0
 20
460.0
 30
0.0
 11
584.0
 21
460.0
 31
0.0
  0
TEXT
  5
695
330
1E
100
AcDbEntity
  8
TEXT
 62
     1
100
AcDbText
 10
508.2201636304416
 20
766.371106150903
 30
0.0
 40
7.0
  1
58057070W
 50
90.0
 41
0.8
 72
     1
 11
508.2201636304416
 21
790.3711061509031
 31
0.0
100
AcDbText
  0
LINE
  5
696
330
1E
100
AcDbEntity
  8
HILF
100
AcDbLine
 10
510.2201636304418
 20
756.7238616296994
 30
0.0
 11
510.2201636304418
 21
824.8588839326728
 31
0.0
  0
LINE
  5
697
330
1E
100
AcDbEntity
  8
VOLL
100
AcDbLine
 10
534.0
 20
752.0000000000001
 30
0.0
 11
534.0
 21
830.0
 31
0.0
  0
LINE
  5
698
330
1E
100
AcDbEntity
  8
STEMPEL
100
AcDbLine
 10
484.0000000000004
 20
752.0000000000001
 30
0.0
 11
554.0
 21
752.0000000000001
 31
0.0
  0
TEXT
  5
699
330
1E
100
AcDbEntity
  8
TEXT
100
AcDbText
 10
491.6867965462863
 20
756.1787549576341
 30
0.0
 40
5.0
  1
Zeichnungs Nr.
 50
90.0
 41
0.8
100
AcDbText
  0
TEXT
  5
69A
330
1E
100
AcDbEntity
  8
TEXT
100
AcDbText
 10
520.8188176290004
 20
756.7238616296994
 30
0.0
 40
5.0
  1
Ersatz für:
 50
90.0
 41
0.8
100
AcDbText
  0
TEXT
  5
69B
330
1E
100
AcDbEntity
  8
TEXT
100
AcDbText
 10
541.925838221214
 20
757.2400861497007
 30
0.0
 40
5.0
  1
ersetzt durch:
 50
90.0
 41
0.8
100
AcDbText
  0
LINE
  5
89A
102
{ACAD_REACTORS
330
8ED
330
96F
330
9FC
330
A0F
330
A5E
102
}
330
1E
100
AcDbEntity
  8
STEMPEL
100
AcDbLine
 10
253.7312950907006
 20
799.7131177646465
 30
0.0
 11
253.7312950907006
 21
289.7131177646467
 31
0.0
  0
LINE
  5
89C
102
{ACAD_REACTORS
330
90E
330
982
330
9EE
330
9FC
330
A5E
102
}
330
1E
100
AcDbEntity
  8
STEMPEL
100
AcDbLine
 10
352.7312950907006
 20
799.7131177646465
 30
0.0
 11
352.7312950907006
 21
627.7131177646467
 31
0.0
  0
LINE
  5
89D
102
{ACAD_REACTORS
330
982
330
A5E
102
}
330
1E
100
AcDbEntity
  8
STEMPEL
100
AcDbLine
 10
352.7312950907006
 20
616.7131177646465
 30
0.0
 11
352.7312950907007
 21
562.7131177646468
 31
0.0
  0
LINE
  5
89E
102
{ACAD_REACTORS
330
92F
330
982
330
9EE
330
A0F
330
A5E
102
}
330
1E
100
AcDbEntity
  8
STEMPEL
100
AcDbLine
 10
352.7312950907007
 20
551.7131177646466
 30
0.0
 11
352.7312950907007
 21
289.7131177646466
 31
0.0
  0
LINE
  5
89F
330
1E
100
AcDbEntity
  8
VERDECKT
100
AcDbLine
 10
63.872928031902
 20
799.7131177646465
 30
0.0
 11
63.87292803190195
 21
289.7131177646467
 31
0.0
  0
LINE
  5
8A0
330
1E
100
AcDbEntity
  8
VERDECKT
100
AcDbLine
 10
162.8729280319019
 20
799.7131177646465
 30
0.0
 11
162.8729280319019
 21
289.7131177646467
 31
0.0
  0
HATCH
  5
8ED
330
1E
100
AcDbEntity
  8
SCHRAFF
100
AcDbHatch
 10
0.0
 20
0.0
 30
0.0
210
0.0
220
0.0
230
1.0
  2
_USER
 70
     0
 71
     1
 91
        2
 92
        7
 72
     0
 73
     1
 93
        4
 10
253.7312950907006
 20
799.7131177646465
 10
252.2312950907007
 20
799.7131177646465
 10
252.2312950907006
 20
589.7131177646466
 10
253.7312950907006
 20
589.7131177646466
 97
        4
330
551
330
568
330
548
330
89A
 92
        7
 72
     0
 73
     1
 93
        4
 10
253.7312950907006
 20
589.7131177646466
 10
252.2312950907006
 20
589.7131177646466
 10
252.2312950907006
 20
289.7131177646466
 10
253.7312950907006
 20
289.7131177646467
 97
        4
330
548
330
568
330
5B2
330
89A
 75
     1
 76
     0
 52
135.0
 41
2.0
 77
     0
 78
     1
 53
135.0
 43
0.0
 44
0.0
 45
-1.414213562373095
 46
-1.414213562373094
 79
     0
 47
0.6243959779059046
 98
        2
 10
253.2551869534714
 20
721.7979471495366
 10
253.2551869534714
 20
556.3330118230854
1001
GradientColor1ACI
1070
     5
1001
GradientColor2ACI
1070
     2
1001
ACAD
1010
0.0
1020
0.0
1030
0.0
  0
HATCH
  5
90E
330
1E
100
AcDbEntity
  8
SCHRAFF
100
AcDbHatch
 10
0.0
 20
0.0
 30
0.0
210
0.0
220
0.0
230
1.0
  2
_USER
 70
     0
 71
     1
 91
        1
 92
        7
 72
     0
 73
     1
 93
        4
 10
354.2312950907006
 20
799.7131177646465
 10
352.7312950907006
 20
799.7131177646465
 10
352.7312950907006
 20
637.2131177646466
 10
354.2312950907006
 20
637.2131177646465
 97
        4
330
551
330
89C
330
646
330
608
 75
     1
 76
     0
 52
135.0
 41
2.0
 77
     0
 78
     1
 53
135.0
 43
0.0
 44
0.0
 45
-1.414213562373095
 46
-1.414213562373094
 79
     0
 47
0.2469749559253461
 98
        1
 10
353.8155739874551
 20
738.4536213692788
1001
GradientColor1ACI
1070
     5
1001
GradientColor2ACI
1070
     2
1001
ACAD
1010
0.0
1020
0.0
1030
0.0
  0
HATCH
  5
92F
330
1E
100
AcDbEntity
  8
SCHRAFF
100
AcDbHatch
 10
0.0
 20
0.0
 30
0.0
210
0.0
220
0.0
230
1.0
  2
_USER
 70
     0
 71
     1
 91
        1
 92
        7
 72
     0
 73
     1
 93
        4
 10
354.2312950907005
 20
542.2131177646465
 10
352.7312950907007
 20
542.2131177646465
 10
352.7312950907007
 20
289.7131177646465
 10
354.2312950907005
 20
289.7131177646467
 97
        4
330
621
330
89E
330
611
330
608
 75
     1
 76
     0
 52
135.0
 41
2.0
 77
     0
 78
     1
 53
135.0
 43
0.0
 44
0.0
 45
-1.414213562373095
 46
-1.414213562373094
 79
     0
 47
0.4028835052041909
 98
        1
 10
353.3923455033105
 20
466.4095544967888
1001
GradientColor1ACI
1070
     5
1001
GradientColor2ACI
1070
     2
1001
ACAD
1010
0.0
1020
0.0
1030
0.0
  0
HATCH
  5
964
330
1E
100
AcDbEntity
  8
SCHRAFF
100
AcDbHatch
 10
0.0
 20
0.0
 30
0.0
210
0.0
220
0.0
230
1.0
  2
_USER
 70
     0
 71
     1
 91
        2
 92
        7
 72
     1
 73
     1
 93
       18
 10
268.3312950907006
 20
739.4065181000778
 42
0.1420008527982305
 10
266.8432950907006
 20
744.540274619431
 42
-0.1420008527982307
 10
265.2312950907006
 20
750.1018441820634
 42
0.0
 10
265.2312950907007
 20
766.7131177646464
 42
0.0926930603363582
 10
264.3123442144666
 20
771.6274837584074
 42
-0.0919812866126668
 10
262.7312950907006
 20
780.0170587987127
 42
0.0
 10
262.7312950907006
 20
789.1641953575279
 42
-0.1174534402570139
 10
265.2439727144698
 20
799.7131177646465
 42
0.0
 10
263.4658977624253
 20
799.7131177646465
 42
0.1093332246020766
 10
261.1312950907006
 20
789.1641953575278
 42
0.0
 10
261.1312950907006
 20
780.014837716465
 42
0.0920044384191677
 10
262.8204560822589
 20
771.049323053259
 42
-0.0926930603363571
 10
263.6312950907007
 20
766.7131177646465
 42
0.0
 10
263.6312950907006
 20
750.1018441820634
 42
0.1420008527982299
 10
265.4912950907006
 20
743.6846485328721
 42
-0.1420008527982298
 10
266.7312950907006
 20
739.4065181000778
 42
0.0
 10
266.7312950907007
 20
589.7131177646466
 42
0.0
 10
268.3312950907007
 20
589.7131177646466
 42
0.0
 97
       18
330
5EF
330
5EE
330
5F5
330
5F7
330
5F8
330
5F2
330
5FA
330
551
330
5F9
330
5F1
330
5F3
330
5F6
330
5F4
330
5ED
330
5F0
330
566
330
548
330
567
 92
        7
 72
     0
 73
     1
 93
        6
 10
268.3312950907007
 20
589.7131177646466
 10
266.7312950907007
 20
589.7131177646466
 10
266.731295090701
 20
252.713117764646
 10
267.4312043989083
 20
244.7131177646466
 10
269.0373161389776
 20
244.7131177646465
 10
268.3312950907009
 20
252.7829752732999
 97
        6
330
548
330
566
330
5AD
330
557
330
5AE
330
567
 75
     1
 76
     0
 52
45.0
 41
2.0
 77
     0
 78
     1
 53
45.0
 43
0.0
 44
0.0
 45
-1.414213562373094
 46
1.414213562373095
 79
     0
 47
0.6534829966313181
 98
        2
 10
267.8238023143781
 20
640.1725854260596
 10
267.8238023143781
 20
553.2593472518581
1001
GradientColor1ACI
1070
     5
1001
GradientColor2ACI
1070
     2
1001
ACAD
1010
0.0
1020
0.0
1030
0.0
  0
HATCH
  5
96F
330
1E
100
AcDbEntity
  8
SCHRAFF
100
AcDbHatch
 10
0.0
 20
0.0
 30
0.0
210
0.0
220
0.0
230
1.0
  2
_USER
 70
     0
 71
     1
 91
        2
 92
        7
 72
     0
 73
     1
 93
        4
 10
266.7312950907007
 20
599.7131177646466
 10
253.7312950907006
 20
599.7131177646465
 10
253.7312950907006
 20
589.7131177646466
 10
266.7312950907007
 20
589.7131177646466
 97
        4
330
5E2
330
89A
330
548
330
566
 92
        7
 72
     0
 73
     1
 93
        4
 10
266.7312950907007
 20
589.7131177646466
 10
253.7312950907006
 20
589.7131177646466
 10
253.7312950907006
 20
579.7131177646465
 10
266.7312950907007
 20
579.7131177646466
 97
        4
330
548
330
89A
330
5E1
330
566
 75
     1
 76
     0
 52
45.0
 41
1.0
 77
     0
 78
     1
 53
45.0
 43
0.0
 44
0.0
 45
-0.7071067811865475
 46
0.7071067811865476
 79
     0
 47
0.1007953388879064
 98
        2
 10
257.2741371973084
 20
596.0911326167095
 10
258.6859254183969
 20
583.3909204168164
1001
GradientColor1ACI
1070
     5
1001
GradientColor2ACI
1070
     2
1001
ACAD
1010
0.0
1020
0.0
1030
0.0
  0
HATCH
  5
982
330
1E
100
AcDbEntity
  8
SCHRAFF
100
AcDbHatch
 10
0.0
 20
0.0
 30
0.0
210
0.0
220
0.0
230
1.0
  2
_USER
 70
     0
 71
     1
 91
        4
 92
        7
 72
     0
 73
     1
 93
        4
 10
354.2312950907006
 20
637.2131177646465
 10
352.7312950907006
 20
637.2131177646466
 10
352.7312950907006
 20
627.7131177646467
 10
354.2312950907006
 20
629.2131177646466
 97
        4
330
646
330
89C
330
644
330
608
 92
        7
 72
     0
 73
     1
 93
        4
 10
354.2312950907006
 20
615.2131177646464
 10
352.7312950907006
 20
616.7131177646464
 10
352.7312950907006
 20
589.7131177646466
 10
354.2312950907006
 20
589.7131177646466
 97
        4
330
634
330
89D
330
548
330
608
 92
        7
 72
     0
 73
     1
 93
        4
 10
354.2312950907006
 20
589.7131177646466
 10
352.7312950907007
 20
589.7131177646466
 10
352.7312950907007
 20
562.713117764647
 10
354.2312950907006
 20
564.2131177646469
 97
        4
330
548
330
89D
330
63C
330
608
 92
        7
 72
     0
 73
     1
 93
        4
 10
354.2312950907006
 20
550.2131177646466
 10
352.7312950907007
 20
551.7131177646465
 10
352.7312950907007
 20
542.2131177646465
 10
354.2312950907005
 20
542.2131177646465
 97
        4
330
61F
330
89E
330
621
330
608
 75
     1
 76
     0
 52
45.0
 41
2.0
 77
     0
 78
     1
 53
45.0
 43
0.0
 44
0.0
 45
-1.414213562373094
 46
1.414213562373095
 79
     0
 47
0.1616410679546804
 98
        4
 10
353.3607869650241
 20
633.1268894887787
 10
353.3607869650241
 20
607.1026777076565
 10
353.6842173092759
 20
578.4922084663924
 10
353.3607869650241
 20
547.6187639475044
1001
GradientColor1ACI
1070
     5
1001
GradientColor2ACI
1070
     2
1001
ACAD
1010
0.0
1020
0.0
1030
0.0
  0
HATCH
  5
9EE
330
1E
100
AcDbEntity
  8
SCHRAFF
100
AcDbHatch
 10
0.0
 20
0.0
 30
0.0
210
0.0
220
0.0
230
1.0
  2
_USER
 70
     0
 71
     1
 91
        4
 92
        7
 72
     0
 73
     1
 93
        5
 10
352.7312950907006
 20
657.2131177646467
 10
344.2312950907006
 20
657.2131177646467
 10
344.2312950907006
 20
625.2131177646465
 10
350.2312950907005
 20
625.2131177646465
 10
352.7312950907006
 20
627.7131177646467
 97
        5
330
647
330
640
330
643
330
644
330
89C
 92
        7
 72
     0
 73
     1
 93
        4
 10
350.2312950907005
 20
619.2131177646465
 10
344.2312950907006
 20
619.2131177646465
 10
344.2312950907006
 20
617.2131177646467
 10
352.2312950907003
 20
617.2131177646467
 97
        4
330
642
330
640
330
641
330
634
 92
        7
 72
     0
 73
     1
 93
        4
 10
352.2312950907003
 20
562.2131177646465
 10
344.2312950907006
 20
562.2131177646465
 10
344.2312950907006
 20
560.2131177646468
 10
350.2312950907005
 20
560.2131177646468
 97
        4
330
63A
330
61E
330
639
330
63C
 92
        7
 72
     0
 73
     1
 93
        5
 10
352.7312950907007
 20
551.7131177646465
 10
350.2312950907005
 20
554.2131177646467
 10
344.2312950907006
 20
554.2131177646467
 10
344.2312950907006
 20
522.2131177646465
 10
352.7312950907007
 20
522.2131177646465
 97
        5
330
61F
330
638
330
61E
330
620
330
89E
 75
     1
 76
     0
 52
135.0
 41
4.0
 77
     0
 78
     1
 53
135.0
 43
0.0
 44
0.0
 45
-2.82842712474619
 46
-2.828427124746189
 79
     0
 47
0.2625575181576749
 98
        4
 10
348.4397993051539
 20
642.369388930844
 10
346.8637258899748
 20
618.4766537775074
 10
348.1771209865874
 20
561.501671906097
 10
349.7531979055452
 20
547.0610094788123
1001
GradientColor1ACI
1070
     5
1001
GradientColor2ACI
1070
     2
1001
ACAD
1010
0.0
1020
0.0
1030
0.0
  0
LINE
  5
9EF
102
{ACAD_REACTORS
330
9FC
330
A5E
102
}
330
1E
100
AcDbEntity
  8
STEMPEL
100
AcDbLine
 10
261.1312950907006
 20
785.7131177646465
 30
0.0
 11
253.7312950907006
 21
785.7131177646464
 31
0.0
  0
HATCH
  5
9FC
330
1E
100
AcDbEntity
  8
SCHRAFF
100
AcDbHatch
 10
0.0
 20
0.0
 30
0.0
210
0.0
220
0.0
230
1.0
  2
NET
 70
     0
 71
     1
 91
        2
 92
        7
 72
     1
 73
     1
 93
        5
 10
263.4658977624253
 20
799.7131177646465
 42
0.0
 10
253.7312950907006
 20
799.7131177646465
 42
0.0
 10
253.7312950907006
 20
785.7131177646464
 42
0.0
 10
261.1312950907006
 20
785.7131177646465
 42
0.0
 10
261.1312950907006
 20
789.1641953575278
 42
-0.1093332246020764
 97
        5
330
551
330
89A
330
9EF
330
5F1
330
5F9
 92
        7
 72
     1
 73
     1
 93
        5
 10
352.7312950907006
 20
799.7131177646465
 42
0.0
 10
342.996692418976
 20
799.7131177646465
 42
-0.1093332246020749
 10
345.3312950907006
 20
789.1641953575279
 42
0.0
 10
345.3312950907006
 20
785.7131177646476
 42
0.0
 10
352.7312950907006
 20
785.7131177646477
 42
0.0
 97
        5
330
551
330
649
330
655
330
5FC
330
89C
 75
     1
 76
     1
 52
45.0
 41
15.0
 77
     0
 78
     2
 53
45.0
 43
0.0
 44
0.0
 45
-1.325825214724776
 46
1.325825214724776
 79
     0
 53
135.0
 43
0.0
 44
0.0
 45
-1.325825214724776
 46
-1.325825214724776
 79
     0
 47
0.1653631798644439
 98
        2
 10
256.7209605541802
 20
795.6202263996203
 10
349.5326665456828
 20
791.6515100762738
1001
GradientColor1ACI
1070
     5
1001
GradientColor2ACI
1070
     2
1001
ACAD
1010
0.0
1020
0.0
1030
0.0
  0
HATCH
  5
A0F
330
1E
100
AcDbEntity
  8
SCHRAFF
100
AcDbHatch
 10
0.0
 20
0.0
 30
0.0
210
0.0
220
0.0
230
1.0
  2
NET
 70
     0
 71
     1
 91
        2
 92
        7
 72
     0
 73
     1
 93
        8
 10
266.7312950907009
 20
305.7131177646466
 10
253.7312950907006
 20
305.7131177646466
 10
253.7312950907006
 20
289.7131177646467
 10
252.2312950907006
 20
289.7131177646467
 10
252.2312950907006
 20
287.7131177646469
 10
259.2124929371836
 20
287.7131177646469
 10
263.8312950907005
 20
295.7131177646465
 10
266.7312950907009
 20
295.7131177646465
 97
        8
330
5B0
330
89A
330
5B2
330
568
330
5AF
330
5AB
330
5B3
330
566
 92
        7
 72
     0
 73
     1
 93
        8
 10
352.7312950907007
 20
305.7131177646466
 10
339.7312950907003
 20
305.7131177646466
 10
339.7312950907002
 20
295.7131177646466
 10
342.6312950907006
 20
295.7131177646466
 10
347.2500972442175
 20
287.7131177646465
 10
354.2312950907005
 20
287.7131177646465
 10
354.2312950907005
 20
289.7131177646467
 10
352.7312950907007
 20
289.7131177646466
 97
        8
330
60E
330
600
330
60F
330
60A
330
60B
330
608
330
611
330
89E
 75
     1
 76
     1
 52
45.0
 41
15.0
 77
     0
 78
     2
 53
45.0
 43
0.0
 44
0.0
 45
-1.325825214724776
 46
1.325825214724776
 79
     0
 53
135.0
 43
0.0
 44
0.0
 45
-1.325825214724776
 46
-1.325825214724776
 79
     0
 47
0.166070561519595
 98
        2
 10
261.0329248359667
 20
299.9812364671198
 10
345.9342854176589
 20
300.811589146788
1001
GradientColor1ACI
1070
     5
1001
GradientColor2ACI
1070
     2
1001
ACAD
1010
0.0
1020
0.0
1030
0.0
  0
HATCH
  5
A5E
330
1E
100
AcDbEntity
  8
SCHRAFF
100
AcDbHatch
 10
0.0
 20
0.0
 30
0.0
210
0.0
220
0.0
230
1.0
  2
HONEY
 70
     0
 71
     1
 91
        4
 92
        7
 72
     1
 73
     1
 93
       10
 10
266.7312950907006
 20
739.4065181000778
 42
0.1420008527982295
 10
265.4912950907006
 20
743.6846485328721
 42
-0.1420008527982298
 10
263.6312950907006
 20
750.1018441820634
 42
0.0
 10
263.6312950907007
 20
766.7131177646464
 42
0.0926930603363583
 10
262.8204560822588
 20
771.049323053259
 42
-0.0920044384191574
 10
261.1312950907006
 20
780.014837716464
 42
0.0
 10
261.1312950907006
 20
785.7131177646465
 42
0.0
 10
253.7312950907006
 20
785.7131177646464
 42
0.0
 10
253.7312950907006
 20
599.7131177646465
 42
0.0
 10
266.7312950907007
 20
599.7131177646466
 42
0.0
 97
       10
330
5F0
330
5ED
330
5F4
330
5F6
330
5F3
330
5F1
330
9EF
330
89A
330
5E2
330
566
 92
        7
 72
     1
 73
     1
 93
       21
 10
352.7312950907006
 20
785.7131177646477
 42
0.0
 10
345.3312950907006
 20
785.7131177646476
 42
0.0
 10
345.3312950907006
 20
780.1513978128268
 42
-0.0933817694258061
 10
343.6421340991424
 20
771.049323053259
 42
0.0926930603363563
 10
342.8312950907006
 20
766.7131177646465
 42
0.0
 10
342.8312950907006
 20
750.1018441820634
 42
-0.1420008527982298
 10
340.9712950907006
 20
743.6846485328721
 42
0.1420008527982295
 10
339.7312950907006
 20
739.4065181000778
 42
0.0
 10
339.7312950907004
 20
612.7131177646466
 42
0.4903143948258862
 10
342.2312950907005
 20
610.776626091543
 42
0.0
 10
342.2312950907005
 20
614.7131177646468
 42
0.0
 10
345.2312950907005
 20
614.7131177646466
 42
0.0
 10
345.2312950907005
 20
613.7131177646466
 42
0.0
 10
347.2312950907006
 20
613.7131177646466
 42
0.0
 10
347.2312950907006
 20
589.7131177646466
 42
0.0
 10
352.7312950907007
 20
589.7131177646466
 42
0.0
 10
352.7312950907006
 20
616.7131177646464
 42
0.0
 10
352.2312950907003
 20
617.2131177646467
 42
0.0
 10
344.2312950907006
 20
617.2131177646467
 42
0.0
 10
344.2312950907006
 20
657.2131177646467
 42
0.0
 10
352.7312950907006
 20
657.2131177646467
 42
0.0
 97
       21
330
5FC
330
655
330
656
330
64C
330
652
330
64E
330
650
330
618
330
62E
330
628
330
624
330
636
330
63E
330
635
330
548
330
89D
330
634
330
641
330
640
330
647
330
89C
 92
        7
 72
     0
 73
     1
 93
        4
 10
266.7312950907007
 20
579.7131177646466
 10
253.7312950907006
 20
579.7131177646465
 10
253.7312950907006
 20
305.7131177646465
 10
266.7312950907009
 20
305.7131177646465
 97
        4
330
5E1
330
89A
330
5B0
330
566
 92
        7
 72
     1
 73
     1
 93
       15
 10
352.7312950907007
 20
522.2131177646465
 42
0.0
 10
344.2312950907006
 20
522.2131177646465
 42
0.0
 10
344.2312950907006
 20
562.2131177646465
 42
0.0
 10
352.2312950907003
 20
562.2131177646465
 42
0.0
 10
352.7312950907007
 20
562.713117764647
 42
0.0
 10
352.7312950907007
 20
589.7131177646466
 42
0.0
 10
347.2312950907006
 20
589.7131177646466
 42
0.0
 10
347.2312950907006
 20
565.7131177646467
 42
0.0
 10
345.2312950907005
 20
565.7131177646467
 42
0.0
 10
345.2312950907005
 20
564.7131177646466
 42
0.0
 10
342.2312950907005
 20
564.7131177646466
 42
0.0
 10
342.2312950907005
 20
568.6496094377503
 42
0.4903143948258881
 10
339.7312950907004
 20
566.7131177646466
 42
0.0
 10
339.7312950907003
 20
305.7131177646466
 42
0.0
 10
352.7312950907007
 20
305.7131177646466
 42
0.0
 97
       15
330
620
330
61E
330
63A
330
63C
330
89D
330
548
330
635
330
63B
330
636
330
623
330
628
330
629
330
600
330
60E
330
89E
 75
     1
 76
     1
 52
0.0
 41
30.0
 77
     0
 78
     3
 53
0.0
 43
0.0
 44
0.0
 45
5.625
 46
3.247595264191644
 79
     2
 49
3.75
 49
-7.5
 53
120.0
 43
0.0
 44
0.0
 45
-5.624999999999998
 46
3.247595264191645
 79
     2
 49
3.749999999999999
 49
-7.499999999999999
 53
60.0
 43
0.0
 44
0.0
 45
0.0000000000000012
 46
6.49519052838329
 79
     2
 49
-7.5
 49
3.75
 47
0.5957552473462568
 98
        4
 10
263.1161037029861
 20
700.5269550816413
 10
348.3485608975843
 20
699.335444634162
 10
260.1359468769429
 20
542.6518149232976
 10
345.3684040715416
 20
499.1616816345247
1001
GradientColor1ACI
1070
     5
1001
GradientColor2ACI
1070
     2
1001
ACAD
1010
0.0
1020
0.0
1030
0.0
  0
DIMENSION
  5
A6E
330
1E
100
AcDbEntity
  8
BEM
100
AcDbDimension
  2
*D15
 10
354.2312950907006
 20
810.6615746242338
 30
0.0
 11
303.2312950907007
 21
817.1615746242339
 31
0.0
 70
    32
  1
%%C<>
 71
     5
 42
101.9999999999999
  3
Standard
100
AcDbAlignedDimension
 13
252.2312950907007
 23
799.7131177646465
 33
0.0
 14
354.2312950907006
 24
799.7131177646465
 34
0.0
100
AcDbRotatedDimension
1001
ACAD
1000
DSTYLE
1002
{
1070
    40
1040
2.0
1070
    41
1040
3.5
1070
    42
1040
1.0
1070
    43
1040
7.0
1070
    44
1040
1.0
1070
    73
1070
     0
1070
    74
1070
     0
1070
    77
1070
     1
1070
    78
1070
     8
1070
    79
1070
     2
1070
   140
1040
3.5
1070
   141
1040
1.5
1070
   146
1040
0.5142857142857144
1070
   147
1040
1.5
1070
   172
1070
     1
1070
   178
1070
     1
1070
   179
1070
     2
1070
   271
1070
     2
1070
   272
1070
     2
1070
   284
1070
     8
1070
   285
1070
     8
1070
   286
1070
     8
1002
}
  0
TEXT
  5
A9A
330
1E
100
AcDbEntity
  8
VOLL
100
AcDbText
 10
2055.506382672997
 20
656.1883476169764
 30
0.0
 40
3.6
  1

  7
GREEKS
100
AcDbText
  0
TEXT
  5
A9B
330
1E
100
AcDbEntity
  8
VOLL
100
AcDbText
 10
2298.311920011359
 20
1070.829163707501
 30
0.0
 40
3.6
  1

  7
GREEKS
100
AcDbText
  0
TEXT
  5
A9C
330
1E
100
AcDbEntity
  8
VOLL
100
AcDbText
 10
2957.978341940198
 20
703.650315639315
 30
0.0
 40
3.6
  1

  7
GREEKS
100
AcDbText
  0
TEXT
  5
A9D
330
1E
100
AcDbEntity
  8
VOLL
100
AcDbText
 10
2950.313788911523
 20
681.2426681823933
 30
0.0
 40
3.6
  1

  7
GREEKS
100
AcDbText
  0
ENDSEC
  0
SECTION
  2
OBJECTS
  0
DICTIONARY
  5
C
330
0
100
AcDbDictionary
281
     1
  3
ACAD_CIP_PREVIOUS_PRODUCT_INFO
350
899
  3
ACAD_COLOR
350
11A
  3
ACAD_DETAILVIEWSTYLE
350
895
  3
ACAD_GROUP
350
D
  3
ACAD_LAYOUT
350
19
  3
ACAD_MATERIAL
350
119
  3
ACAD_MLEADERSTYLE
350
890
  3
ACAD_MLINESTYLE
350
16
  3
ACAD_PLOTSETTINGS
350
18
  3
ACAD_PLOTSTYLENAME
350
E
  3
ACAD_SCALELIST
350
87E
  3
ACAD_SECTIONVIEWSTYLE
350
892
  3
ACAD_TABLESTYLE
350
87C
  3
ACAD_VISUALSTYLE
350
863
  3
ACDB_RECOMPOSE_DATA
350
B3E
  3
AcDbVariableDictionary
350
125
  0
DICTIONARY
  5
AB8
330
8
100
AcDbDictionary
280
     1
281
     1
  0
DICTIONARY
  5
AA3
330
10
100
AcDbDictionary
280
     1
281
     1
  3
ADSK_XREC_LAYER_RECONCILED
360
AA4
  0
DICTIONARY
  5
AA5
330
2B
100
AcDbDictionary
280
     1
281
     1
  3
ADSK_XREC_LAYER_RECONCILED
360
AA6
  0
DICTIONARY
  5
AA7
330
2C
100
AcDbDictionary
280
     1
281
     1
  3
ADSK_XREC_LAYER_RECONCILED
360
AA8
  0
DICTIONARY
  5
AA9
330
2D
100
AcDbDictionary
280
     1
281
     1
  3
ADSK_XREC_LAYER_RECONCILED
360
AAA
  0
DICTIONARY
  5
AAB
330
2F
100
AcDbDictionary
280
     1
281
     1
  3
ADSK_XREC_LAYER_RECONCILED
360
AAC
  0
DICTIONARY
  5
AAD
330
30
100
AcDbDictionary
280
     1
281
     1
  3
ADSK_XREC_LAYER_RECONCILED
360
AAE
  0
DICTIONARY
  5
AAF
330
33
100
AcDbDictionary
280
     1
281
     1
  3
ADSK_XREC_LAYER_RECONCILED
360
AB0
  0
DICTIONARY
  5
AB1
330
3E5
100
AcDbDictionary
280
     1
281
     1
  3
ADSK_XREC_LAYER_RECONCILED
360
AB2
  0
DICTIONARY
  5
AB3
330
3E7
100
AcDbDictionary
280
     1
281
     1
  3
ADSK_XREC_LAYER_RECONCILED
360
AB4
  0
DICTIONARY
  5
DB
330
1E
100
AcDbDictionary
280
     1
281
     1
  3
ACAD_LAYOUTSELFREF
360
10F
  3
ACAD_SORTENTS
360
89B
  0
DICTIONARY
  5
DD
330
1A
100
AcDbDictionary
280
     1
281
     1
  3
ACAD_LAYOUTSELFREF
360
10E
  0
XRECORD
  5
899
102
{ACAD_REACTORS
330
C
102
}
330
C
100
AcDbXrecord
280
     1
300
ACD
300
2013
300
ACD_F_S
  0
DICTIONARY
  5
11A
102
{ACAD_REACTORS
330
C
102
}
330
C
100
AcDbDictionary
281
     1
  0
DICTIONARY
  5
895
102
{ACAD_REACTORS
330
C
102
}
330
C
100
AcDbDictionary
281
     1
  3
Imperial24
350
896
  0
DICTIONARY
  5
D
102
{ACAD_REACTORS
330
C
102
}
330
C
100
AcDbDictionary
281
     1
  0
DICTIONARY
  5
19
102
{ACAD_REACTORS
330
C
102
}
330
C
100
AcDbDictionary
281
     1
  3
Layout1
350
1D
  3
Model
350
21
  0
DICTIONARY
  5
119
102
{ACAD_REACTORS
330
C
102
}
330
C
100
AcDbDictionary
281
     1
  3
ByBlock
350
853
  3
ByLayer
350
84B
  3
Global
350
85B
  0
DICTIONARY
  5
890
102
{ACAD_REACTORS
330
C
102
}
330
C
100
AcDbDictionary
281
     1
  3
Standard
350
891
  0
DICTIONARY
  5
16
102
{ACAD_REACTORS
330
C
102
}
330
C
100
AcDbDictionary
281
     1
  3
Standard
350
17
  0
DICTIONARY
  5
18
102
{ACAD_REACTORS
330
C
102
}
330
C
100
AcDbDictionary
281
     1
  0
ACDBDICTIONARYWDFLT
  5
E
102
{ACAD_REACTORS
330
C
102
}
330
C
100
AcDbDictionary
281
     1
  3
Normal
350
F
100
AcDbDictionaryWithDefault
340
F
  0
DICTIONARY
  5
87E
102
{ACAD_REACTORS
330
C
102
}
330
C
100
AcDbDictionary
281
     1
  3
A0
350
87F
  3
A1
350
880
  3
A2
350
881
  3
A3
350
882
  3
A4
350
883
  3
A5
350
884
  3
A6
350
885
  3
A7
350
886
  3
A8
350
887
  3
A9
350
888
  3
B0
350
889
  3
B1
350
88A
  3
B2
350
88B
  3
B3
350
88C
  3
B4
350
88D
  3
B5
350
88E
  3
B6
350
88F
  0
DICTIONARY
  5
892
102
{ACAD_REACTORS
330
C
102
}
330
C
100
AcDbDictionary
281
     1
  3
Imperial24
350
894
  0
DICTIONARY
  5
87C
102
{ACAD_REACTORS
330
C
102
}
330
C
100
AcDbDictionary
281
     1
  3
Standard
350
87D
  0
DICTIONARY
  5
863
102
{ACAD_REACTORS
330
C
102
}
330
C
100
AcDbDictionary
281
     1
  3
2dWireframe
350
869
  3
Basic
350
868
  3
Brighten
350
86F
  3
ColorChange
350
873
  3
Conceptual
350
86C
  3
Dim
350
86E
  3
EdgeColorOff
350
87B
  3
Facepattern
350
872
  3
Flat
350
864
  3
FlatWithEdges
350
865
  3
Gouraud
350
866
  3
GouraudWithEdges
350
867
  3
Hidden
350
86B
  3
JitterOff
350
879
  3
Linepattern
350
871
  3
OverhangOff
350
87A
  3
Realistic
350
86D
  3
Shaded
350
878
  3
Shaded with edges
350
877
  3
Shades of Gray
350
874
  3
Sketchy
350
875
  3
Thicken
350
870
  3
Wireframe
350
86A
  3
X-Ray
350
876
  0
XRECORD
  5
B3E
102
{ACAD_REACTORS
330
C
102
}
330
C
100
AcDbXrecord
280
     1
 90
        1
330
87D
  0
DICTIONARY
  5
125
102
{ACAD_REACTORS
330
C
102
}
330
C
100
AcDbDictionary
281
     1
  3
CANNOSCALE
350
AF5
  3
CMLEADERSTYLE
350
AF2
  3
CTABLESTYLE
350
AF1
  3
CVIEWDETAILSTYLE
350
AF3
  3
CVIEWSECTIONSTYLE
350
AF4
  3
DIMASSOC
350
126
  3
PROJECTNAME
350
127
  0
XRECORD
  5
AA4
102
{ACAD_REACTORS
330
AA3
102
}
330
AA3
100
AcDbXrecord
280
     1
290
     1
  0
XRECORD
  5
AA6
102
{ACAD_REACTORS
330
AA5
102
}
330
AA5
100
AcDbXrecord
280
     1
290
     1
  0
XRECORD
  5
AA8
102
{ACAD_REACTORS
330
AA7
102
}
330
AA7
100
AcDbXrecord
280
     1
290
     1
  0
XRECORD
  5
AAA
102
{ACAD_REACTORS
330
AA9
102
}
330
AA9
100
AcDbXrecord
280
     1
290
     1
  0
XRECORD
  5
AAC
102
{ACAD_REACTORS
330
AAB
102
}
330
AAB
100
AcDbXrecord
280
     1
290
     1
  0
XRECORD
  5
AAE
102
{ACAD_REACTORS
330
AAD
102
}
330
AAD
100
AcDbXrecord
280
     1
290
     1
  0
XRECORD
  5
AB0
102
{ACAD_REACTORS
330
AAF
102
}
330
AAF
100
AcDbXrecord
280
     1
290
     1
  0
XRECORD
  5
AB2
102
{ACAD_REACTORS
330
AB1
102
}
330
AB1
100
AcDbXrecord
280
     1
290
     1
  0
XRECORD
  5
AB4
102
{ACAD_REACTORS
330
AB3
102
}
330
AB3
100
AcDbXrecord
280
     1
290
     1
  0
XRECORD
  5
10F
102
{ACAD_REACTORS
330
DB
102
}
330
DB
100
AcDbXrecord
280
     1
340
1E
  0
SORTENTSTABLE
  5
89B
102
{ACAD_REACTORS
330
DB
102
}
330
DB
100
AcDbSortentsTable
330
1E
331
65F
  5
67B
331
65B
  5
677
331
696
  5
9F1
331
56F
  5
581
331
653
  5
671
331
692
  5
984
331
56B
  5
57D
331
5E5
  5
5F8
331
5A6
  5
5BA
331
567
  5
579
331
5E1
  5
5F4
331
89C
  5
626
331
5A2
  5
5B6
331
5DD
  5
5F1
331
563
  5
576
331
618
  5
638
331
5D9
  5
5EC
331
92F
  5
623
331
68E
  5
966
331
64F
  5
66D
331
68A
  5
910
331
64B
  5
669
331
647
  5
665
331
686
  5
8C3
331
643
  5
661
331
682
  5
89D
331
55F
  5
572
331
59E
  5
5B1
331
55B
  5
56E
331
614
  5
633
331
5D5
  5
5E8
331
59A
  5
5AC
331
557
  5
568
331
592
  5
5A5
331
553
  5
565
331
60C
  5
62C
331
5CD
  5
5E0
331
608
  5
624
331
5C9
  5
5DC
331
A5E
  5
551
331
A9D
  5
A9D
331
67A
  5
696
331
63B
  5
659
331
637
  5
653
331
676
  5
692
331
54F
  5
55B
331
58E
  5
5A2
331
5C5
  5
5D8
331
58A
  5
59E
331
586
  5
59A
331
600
  5
617
331
5C1
  5
5D4
331
5FC
  5
613
331
5BD
  5
5CF
331
5F8
  5
60D
331
5B9
  5
5CB
331
9EE
  5
625
331
66E
  5
68A
331
62F
  5
64C
331
66A
  5
686
331
62B
  5
648
331
627
  5
644
331
666
  5
682
331
623
  5
640
331
662
  5
67E
331
57E
  5
590
331
699
  5
9FF
331
5F4
  5
609
331
5B5
  5
5C7
331
57A
  5
58C
331
576
  5
588
331
5F0
  5
605
331
572
  5
584
331
5AD
  5
5C0
331
5A9
  5
5BD
331
5E8
  5
5FC
331
982
  5
54E
331
65E
  5
67A
331
65A
  5
676
331
656
  5
674
331
695
  5
9EF
331
652
  5
670
331
691
  5
972
331
56A
  5
57C
331
89F
  5
571
331
5E4
  5
5F7
331
5A5
  5
5B9
331
566
  5
578
331
61F
  5
63C
331
5A1
  5
5B5
331
562
  5
575
331
5DC
  5
5F0
331
5D8
  5
5EB
331
68D
  5
932
331
64E
  5
66C
331
689
  5
8F0
331
64A
  5
668
331
646
  5
664
331
685
  5
8A0
331
642
  5
660
331
617
  5
637
331
59D
  5
5B0
331
599
  5
5AB
331
55A
  5
56D
331
613
  5
632
331
5D4
  5
5E7
331
60F
  5
62F
331
5D0
  5
5E4
331
591
  5
5A4
331
552
  5
562
331
5CC
  5
5DF
331
60B
  5
62B
331
5C8
  5
5DB
331
90E
  5
55F
331
A9C
  5
A9C
331
63E
  5
65C
331
679
  5
695
331
63A
  5
656
331
636
  5
652
331
675
  5
691
331
671
  5
68D
331
54E
  5
55A
331
607
  5
622
331
58D
  5
5A1
331
5C4
  5
5D7
331
589
  5
59D
331
585
  5
599
331
5C0
  5
5D2
331
5BC
  5
5CE
331
5B8
  5
5CA
331
66D
  5
689
331
62E
  5
64B
331
669
  5
685
331
62A
  5
647
331
626
  5
643
331
665
  5
681
331
622
  5
63F
331
661
  5
67D
331
5F7
  5
60C
331
57D
  5
58F
331
698
  5
9FE
331
5F3
  5
608
331
5B4
  5
5C6
331
579
  5
58B
331
575
  5
587
331
5EF
  5
604
331
5B0
  5
5C3
331
571
  5
583
331
5EB
  5
601
331
5AC
  5
5BF
331
5A8
  5
5BC
331
65D
  5
679
331
659
  5
675
331
655
  5
673
331
5E7
  5
5FA
331
651
  5
66F
331
690
  5
971
331
5E3
  5
5F6
331
89E
  5
628
331
5A4
  5
5B8
331
61E
  5
63B
331
89A
  5
57B
331
5DB
  5
5EF
331
5A0
  5
5B4
331
68C
  5
931
331
64D
  5
66B
331
688
  5
8EF
331
649
  5
667
331
645
  5
663
331
684
  5
89F
331
641
  5
65F
331
55D
  5
570
331
616
  5
635
331
5D7
  5
5EA
331
59C
  5
5AF
331
559
  5
56B
331
612
  5
631
331
5D3
  5
5E6
331
555
  5
567
331
60E
  5
62E
331
5CF
  5
5E2
331
551
  5
561
331
5CB
  5
5DE
331
60A
  5
62A
331
8ED
  5
549
331
A9B
  5
A9B
331
63D
  5
65B
331
678
  5
694
331
639
  5
655
331
635
  5
651
331
674
  5
690
331
670
  5
68C
331
54D
  5
559
331
606
  5
621
331
5C7
  5
5DA
331
58C
  5
5A0
331
588
  5
59C
331
549
  5
554
331
584
  5
598
331
5FE
  5
615
331
5BF
  5
5D1
331
580
  5
594
331
5BB
  5
5CD
331
5FA
  5
610
331
9FC
  5
560
331
66C
  5
688
331
62D
  5
64A
331
668
  5
684
331
629
  5
646
331
625
  5
642
331
664
  5
680
331
69B
  5
A12
331
621
  5
63E
331
660
  5
67C
331
5F6
  5
60B
331
5B7
  5
5C9
331
57C
  5
58E
331
5F2
  5
607
331
5B3
  5
5C5
331
578
  5
58A
331
574
  5
586
331
5EE
  5
603
331
5AF
  5
5C2
331
570
  5
582
331
5EA
  5
600
331
5AB
  5
5BE
331
65C
  5
678
331
697
  5
9F2
331
654
  5
672
331
693
  5
9C1
331
56C
  5
57E
331
5E6
  5
5F9
331
650
  5
66E
331
5A7
  5
5BB
331
568
  5
57A
331
5E2
  5
5F5
331
89D
  5
627
331
5A3
  5
5B7
331
5DE
  5
5F2
331
560
  5
573
331
5DA
  5
5EE
331
964
  5
54B
331
68F
  5
967
331
68B
  5
911
331
64C
  5
66A
331
687
  5
8C7
331
648
  5
666
331
644
  5
662
331
683
  5
89E
331
59F
  5
5B3
331
640
  5
65E
331
55C
  5
56F
331
615
  5
634
331
5D6
  5
5E9
331
59B
  5
5AE
331
558
  5
56A
331
611
  5
630
331
5D2
  5
5E5
331
554
  5
566
331
60D
  5
62D
331
5CE
  5
5E1
331
609
  5
629
331
550
  5
55D
331
A0F
  5
577
331
A9A
  5
A9A
331
67B
  5
697
331
63C
  5
65A
331
677
  5
693
331
638
  5
654
331
634
  5
650
331
58F
  5
5A3
331
630
  5
64D
331
54C
  5
558
331
605
  5
620
331
5C6
  5
5D9
331
58B
  5
59F
331
587
  5
59B
331
548
  5
552
331
601
  5
618
331
5C2
  5
5D5
331
583
  5
597
331
5BE
  5
5D0
331
5BA
  5
5CC
331
5F9
  5
60E
331
9EF
  5
614
331
66F
  5
68B
331
66B
  5
687
331
62C
  5
649
331
667
  5
683
331
628
  5
645
331
624
  5
641
331
663
  5
67F
331
57F
  5
592
331
69A
  5
A11
331
620
  5
63D
331
5F5
  5
60A
331
5B6
  5
5C8
331
57B
  5
58D
331
577
  5
589
331
5F1
  5
606
331
5B2
  5
5C4
331
573
  5
585
331
5ED
  5
602
331
5AE
  5
5C1
331
5E9
  5
5FD
331
96F
  5
54D
331
A6E
  5
A6E
331
8A0
  5
574
  0
XRECORD
  5
10E
102
{ACAD_REACTORS
330
DD
102
}
330
DD
100
AcDbXrecord
280
     1
340
1A
  0
ACDBDETAILVIEWSTYLE
  5
896
102
{ACAD_REACTORS
330
895
102
}
330
895
100
AcDbModelDocViewStyle
 70
     0
  3
Imperial24
290
     0
100
AcDbDetailViewStyle
 70
     0
 71
     0
 90
        3
 71
     1
340
11
 62
   256
 40
0.24
340
0
 62
   256
 40
0.24
300

 40
0.36
280
     3
 71
     2
340
15
 90
       25
 62
   256
 71
     3
340
11
 62
   256
 40
0.24
 90
        1
 40
0.75
 90
        1
300
%<\AcVar ViewType \f "%tc1">% %<\AcVar ViewDetailId>%\PVARIA %<\AcVar ViewScale \f "%sn">%
 71
     4
340
15
 90
       25
 62
   256
340
15
 90
       25
 62
   256
280
     0
  0
LAYOUT
  5
1D
102
{ACAD_REACTORS
330
19
102
}
330
19
100
AcDbPlotSettings
  1

  2
\\NT_WORK01\HP LaserJet 5000 PCL 6
  4

  6

 40
0.0
 41
0.0
 42
0.0
 43
0.0
 44
0.0
 45
0.0
 46
0.0
 47
0.0
 48
0.0
 49
0.0
140
0.0
141
0.0
142
1.0
143
1.0
 70
   688
 72
     0
 73
     0
 74
     5
  7

 75
    16
147
1.0
 76
     0
 77
     2
 78
   300
148
0.0
149
0.0
100
AcDbLayout
  1
Layout1
 70
     0
 71
     1
 10
0.0
 20
0.0
 11
12.0
 21
9.0
 12
0.0
 22
0.0
 32
0.0
 14
1.000000000000000E+20
 24
1.000000000000000E+20
 34
1.000000000000000E+20
 15
-1.000000000000000E+20
 25
-1.000000000000000E+20
 35
-1.000000000000000E+20
146
0.0
 13
0.0
 23
0.0
 33
0.0
 16
1.0
 26
0.0
 36
0.0
 17
0.0
 27
1.0
 37
0.0
 76
     0
330
1A
  0
LAYOUT
  5
21
102
{ACAD_REACTORS
330
19
102
}
330
19
100
AcDbPlotSettings
  1

  2
\\NT_WORK01\HP LaserJet 5000 PCL 6
  4

  6

 40
0.0
 41
0.0
 42
0.0
 43
0.0
 44
0.0
 45
0.0
 46
0.0
 47
0.0
 48
0.0
 49
0.0
140
0.0
141
0.0
142
1.0
143
1.0
 70
  1712
 72
     0
 73
     0
 74
     0
  7

 75
     0
147
1.0
 76
     0
 77
     2
 78
   300
148
0.0
149
0.0
100
AcDbLayout
  1
Model
 70
     1
 71
     0
 10
0.0
 20
0.0
 11
12.0
 21
9.0
 12
0.0
 22
0.0
 32
0.0
 14
0.0
 24
0.0
 34
0.0
 15
0.0
 25
0.0
 35
0.0
146
0.0
 13
0.0
 23
0.0
 33
0.0
 16
1.0
 26
0.0
 36
0.0
 17
0.0
 27
1.0
 37
0.0
 76
     0
330
1E
331
849
  0
MATERIAL
  5
853
102
{ACAD_XDICTIONARY
360
854
102
}
102
{ACAD_REACTORS
330
119
102
}
330
119
100
AcDbMaterial
  1
ByBlock
 72
     0
 43
0.0208333333333333
 43
0.0
 43
0.0
 43
0.0
 43
0.0
 43
0.0208333333333333
 43
0.0
 43
0.0
 43
0.0
 43
0.0
 43
1.0
 43
0.0
 43
0.0
 43
0.0
 43
0.0
 43
1.0
 77
     0
 47
0.0208333333333333
 47
0.0
 47
0.0
 47
0.0
 47
0.0
 47
0.0208333333333333
 47
0.0
 47
0.0
 47
0.0
 47
0.0
 47
1.0
 47
0.0
 47
0.0
 47
0.0
 47
0.0
 47
1.0
171
     0
 49
0.0208333333333333
 49
0.0
 49
0.0
 49
0.0
 49
0.0
 49
0.0208333333333333
 49
0.0
 49
0.0
 49
0.0
 49
0.0
 49
1.0
 49
0.0
 49
0.0
 49
0.0
 49
0.0
 49
1.0
175
     0
142
0.0208333333333333
142
0.0
142
0.0
142
0.0
142
0.0
142
0.0208333333333333
142
0.0
142
0.0
142
0.0
142
0.0
142
1.0
142
0.0
142
0.0
142
0.0
142
0.0
142
1.0
179
     0
144
0.0208333333333333
144
0.0
144
0.0
144
0.0
144
0.0
144
0.0208333333333333
144
0.0
144
0.0
144
0.0
144
0.0
144
1.0
144
0.0
144
0.0
144
0.0
144
0.0
144
1.0
147
0.0208333333333333
147
0.0
147
0.0
147
0.0
147
0.0
147
0.0208333333333333
147
0.0
147
0.0
147
0.0
147
0.0
147
1.0
147
0.0
147
0.0
147
0.0
147
0.0
147
1.0
  0
MATERIAL
  5
84B
102
{ACAD_XDICTIONARY
360
84C
102
}
102
{ACAD_REACTORS
330
119
102
}
330
119
100
AcDbMaterial
  1
ByLayer
 72
     0
 43
0.0208333333333333
 43
0.0
 43
0.0
 43
0.0
 43
0.0
 43
0.0208333333333333
 43
0.0
 43
0.0
 43
0.0
 43
0.0
 43
1.0
 43
0.0
 43
0.0
 43
0.0
 43
0.0
 43
1.0
 77
     0
 47
0.0208333333333333
 47
0.0
 47
0.0
 47
0.0
 47
0.0
 47
0.0208333333333333
 47
0.0
 47
0.0
 47
0.0
 47
0.0
 47
1.0
 47
0.0
 47
0.0
 47
0.0
 47
0.0
 47
1.0
171
     0
 49
0.0208333333333333
 49
0.0
 49
0.0
 49
0.0
 49
0.0
 49
0.0208333333333333
 49
0.0
 49
0.0
 49
0.0
 49
0.0
 49
1.0
 49
0.0
 49
0.0
 49
0.0
 49
0.0
 49
1.0
175
     0
142
0.0208333333333333
142
0.0
142
0.0
142
0.0
142
0.0
142
0.0208333333333333
142
0.0
142
0.0
142
0.0
142
0.0
142
1.0
142
0.0
142
0.0
142
0.0
142
0.0
142
1.0
179
     0
144
0.0208333333333333
144
0.0
144
0.0
144
0.0
144
0.0
144
0.0208333333333333
144
0.0
144
0.0
144
0.0
144
0.0
144
1.0
144
0.0
144
0.0
144
0.0
144
0.0
144
1.0
147
0.0208333333333333
147
0.0
147
0.0
147
0.0
147
0.0
147
0.0208333333333333
147
0.0
147
0.0
147
0.0
147
0.0
147
1.0
147
0.0
147
0.0
147
0.0
147
0.0
147
1.0
  0
MATERIAL
  5
85B
102
{ACAD_XDICTIONARY
360
85C
102
}
102
{ACAD_REACTORS
330
119
102
}
330
119
100
AcDbMaterial
  1
Global
 72
     0
 43
0.0208333333333333
 43
0.0
 43
0.0
 43
0.0
 43
0.0
 43
0.0208333333333333
 43
0.0
 43
0.0
 43
0.0
 43
0.0
 43
1.0
 43
0.0
 43
0.0
 43
0.0
 43
0.0
 43
1.0
 77
     0
 47
0.0208333333333333
 47
0.0
 47
0.0
 47
0.0
 47
0.0
 47
0.0208333333333333
 47
0.0
 47
0.0
 47
0.0
 47
0.0
 47
1.0
 47
0.0
 47
0.0
 47
0.0
 47
0.0
 47
1.0
171
     0
 49
0.0208333333333333
 49
0.0
 49
0.0
 49
0.0
 49
0.0
 49
0.0208333333333333
 49
0.0
 49
0.0
 49
0.0
 49
0.0
 49
1.0
 49
0.0
 49
0.0
 49
0.0
 49
0.0
 49
1.0
175
     0
142
0.0208333333333333
142
0.0
142
0.0
142
0.0
142
0.0
142
0.0208333333333333
142
0.0
142
0.0
142
0.0
142
0.0
142
1.0
142
0.0
142
0.0
142
0.0
142
0.0
142
1.0
179
     0
144
0.0208333333333333
144
0.0
144
0.0
144
0.0
144
0.0
144
0.0208333333333333
144
0.0
144
0.0
144
0.0
144
0.0
144
1.0
144
0.0
144
0.0
144
0.0
144
0.0
144
1.0
147
0.0208333333333333
147
0.0
147
0.0
147
0.0
147
0.0
147
0.0208333333333333
147
0.0
147
0.0
147
0.0
147
0.0
147
1.0
147
0.0
147
0.0
147
0.0
147
0.0
147
1.0
  0
MLEADERSTYLE
  5
891
102
{ACAD_XDICTIONARY
360
B73
102
}
102
{ACAD_REACTORS
330
890
102
}
330
890
100
AcDbMLeaderStyle
170
     2
171
     1
172
     0
 90
        2
 40
0.0
 41
0.0
173
     1
 91
-1056964608
340
13
 92
       -2
290
     1
 42
0.09
291
     1
 43
0.36
  3
Standard
 44
0.18
300

342
11
174
     1
178
     6
175
     1
176
     0
 93
-1056964608
 45
0.18
292
     0
297
     0
 46
0.18
 94
-1056964608
 47
1.0
 49
1.0
140
1.0
293
     1
141
0.0
294
     1
177
     0
142
1.0
295
     0
296
     0
143
0.125
1001
ACAD_MLEADERVER
1070
     2
  0
MLINESTYLE
  5
17
102
{ACAD_REACTORS
330
16
102
}
330
16
100
AcDbMlineStyle
  2
STANDARD
 70
     0
  3

 62
   256
 51
90.0
 52
90.0
 71
     2
 49
0.5
 62
   256
  6
BYLAYER
 49
-0.5
 62
   256
  6
BYLAYER
  0
ACDBPLACEHOLDER
  5
F
102
{ACAD_REACTORS
330
E
102
}
330
E
  0
SCALE
  5
87F
102
{ACAD_REACTORS
330
87E
102
}
330
87E
100
AcDbScale
 70
     0
300
1:1
140
1.0
141
1.0
290
     1
  0
SCALE
  5
880
102
{ACAD_REACTORS
330
87E
102
}
330
87E
100
AcDbScale
 70
     0
300
1/128" = 1'-0"
140
0.0078125
141
12.0
290
     0
  0
SCALE
  5
881
102
{ACAD_REACTORS
330
87E
102
}
330
87E
100
AcDbScale
 70
     0
300
1/64" = 1'-0"
140
0.015625
141
12.0
290
     0
  0
SCALE
  5
882
102
{ACAD_REACTORS
330
87E
102
}
330
87E
100
AcDbScale
 70
     0
300
1/32" = 1'-0"
140
0.03125
141
12.0
290
     0
  0
SCALE
  5
883
102
{ACAD_REACTORS
330
87E
102
}
330
87E
100
AcDbScale
 70
     0
300
1/16" = 1'-0"
140
0.0625
141
12.0
290
     0
  0
SCALE
  5
884
102
{ACAD_REACTORS
330
87E
102
}
330
87E
100
AcDbScale
 70
     0
300
3/32" = 1'-0"
140
0.09375
141
12.0
290
     0
  0
SCALE
  5
885
102
{ACAD_REACTORS
330
87E
102
}
330
87E
100
AcDbScale
 70
     0
300
1/8" = 1'-0"
140
0.125
141
12.0
290
     0
  0
SCALE
  5
886
102
{ACAD_REACTORS
330
87E
102
}
330
87E
100
AcDbScale
 70
     0
300
3/16" = 1'-0"
140
0.1875
141
12.0
290
     0
  0
SCALE
  5
887
102
{ACAD_REACTORS
330
87E
102
}
330
87E
100
AcDbScale
 70
     0
300
1/4" = 1'-0"
140
0.25
141
12.0
290
     0
  0
SCALE
  5
888
102
{ACAD_REACTORS
330
87E
102
}
330
87E
100
AcDbScale
 70
     0
300
3/8" = 1'-0"
140
0.375
141
12.0
290
     0
  0
SCALE
  5
889
102
{ACAD_REACTORS
330
87E
102
}
330
87E
100
AcDbScale
 70
     0
300
1/2" = 1'-0"
140
0.5
141
12.0
290
     0
  0
SCALE
  5
88A
102
{ACAD_REACTORS
330
87E
102
}
330
87E
100
AcDbScale
 70
     0
300
3/4" = 1'-0"
140
0.75
141
12.0
290
     0
  0
SCALE
  5
88B
102
{ACAD_REACTORS
330
87E
102
}
330
87E
100
AcDbScale
 70
     0
300
1" = 1'-0"
140
1.0
141
12.0
290
     0
  0
SCALE
  5
88C
102
{ACAD_REACTORS
330
87E
102
}
330
87E
100
AcDbScale
 70
     0
300
1-1/2" = 1'-0"
140
1.5
141
12.0
290
     0
  0
SCALE
  5
88D
102
{ACAD_REACTORS
330
87E
102
}
330
87E
100
AcDbScale
 70
     0
300
3" = 1'-0"
140
3.0
141
12.0
290
     0
  0
SCALE
  5
88E
102
{ACAD_REACTORS
330
87E
102
}
330
87E
100
AcDbScale
 70
     0
300
6" = 1'-0"
140
6.0
141
12.0
290
     0
  0
SCALE
  5
88F
102
{ACAD_REACTORS
330
87E
102
}
330
87E
100
AcDbScale
 70
     0
300
1'-0" = 1'-0"
140
12.0
141
12.0
290
     0
  0
ACDBSECTIONVIEWSTYLE
  5
894
102
{ACAD_REACTORS
330
892
102
}
330
892
100
AcDbModelDocViewStyle
 70
     0
  3
Imperial24
290
     0
100
AcDbSectionViewStyle
 70
     0
 71
     0
 90
       78
 71
     1
340
11
 62
   256
 40
0.24
340
0
340
0
 62
   256
 40
0.24
300
I, O, Q, S, X, Z
 40
0.48
 90
        3
 40
0.18
 90
        1
 71
     2
340
893
 90
       25
 62
   256
340
15
 90
       50
 62
   256
 40
0.24
 40
0.0
 40
0.24
 71
     3
340
11
 62
   256
 40
0.24
 90
        1
 40
0.75
 90
        1
300
%<\AcVar ViewType \f "%tc1">% %<\AcVar ViewSectionStartId>%-%<\AcVar ViewSectionEndId>%\PVARIA %<\AcVar ViewScale \f "%sn">%
 71
     4
 62
   256
 62
   257
300
ANSI31
 40
1.0
 90
        0
290
     0
290
     0
 90
        6
 40
0.0
 40
1.570796326794896
 40
0.2617993877991494
 40
1.308996938995747
 40
-0.2617993877991494
 40
1.832595714594046
  0
TABLESTYLE
  5
87D
102
{ACAD_XDICTIONARY
360
AB5
102
}
102
{ACAD_REACTORS
330
87C
102
}
330
87C
100
AcDbTableStyle
  3
Standard
 70
     0
 71
     0
 40
0.06
 41
0.06
280
     0
281
     0
  7
STANDARD
140
0.18
170
     2
 62
     0
 63
     7
283
     0
274
    -2
284
     1
 64
     0
275
    -2
285
     1
 65
     0
276
    -2
286
     1
 66
     0
277
    -2
287
     1
 67
     0
278
    -2
288
     1
 68
     0
279
    -2
289
     1
 69
     0
  7
STANDARD
140
0.25
170
     5
 62
     0
 63
     7
283
     0
274
    -2
284
     1
 64
     0
275
    -2
285
     1
 65
     0
276
    -2
286
     1
 66
     0
277
    -2
287
     1
 67
     0
278
    -2
288
     1
 68
     0
279
    -2
289
     1
 69
     0
  7
STANDARD
140
0.18
170
     5
 62
     0
 63
     7
283
     0
274
    -2
284
     1
 64
     0
275
    -2
285
     1
 65
     0
276
    -2
286
     1
 66
     0
277
    -2
287
     1
 67
     0
278
    -2
288
     1
 68
     0
279
    -2
289
     1
 69
     0
  0
VISUALSTYLE
  5
869
102
{ACAD_XDICTIONARY
360
B4C
102
}
102
{ACAD_REACTORS
330
863
102
}
330
863
100
AcDbVisualStyle
  2
2dWireframe
 70
     4
 71
     0
 72
     2
 73
     0
 90
        0
 40
-0.6
 41
-30.0
 62
     5
 63
     7
421
 16777215
 74
     1
 91
        4
 64
     7
 65
   257
 75
     1
175
     1
 42
1.0
 92
        0
 66
   257
 43
1.0
 76
     1
 77
     6
 78
     2
 67
     7
 79
     5
170
     0
171
     0
290
     0
174
     0
 93
        1
 44
0.0
173
     0
291
     0
 45
0.0
1001
ACAD
1000
AcDbSavedByObjectVersion
1070
     0
  0
VISUALSTYLE
  5
868
102
{ACAD_XDICTIONARY
360
B4A
102
}
102
{ACAD_REACTORS
330
863
102
}
330
863
100
AcDbVisualStyle
  2
Basic
 70
     7
 71
     1
 72
     0
 73
     1
 90
        0
 40
-0.6
 41
-30.0
 62
     5
 63
     7
421
 16777215
 74
     0
 91
        4
 64
     7
 65
   257
 75
     1
175
     1
 42
1.0
 92
        8
 66
     7
 43
1.0
 76
     1
 77
     6
 78
     2
 67
     7
 79
     5
170
     0
171
     0
290
     0
174
     0
 93
        1
 44
0.0
173
     0
291
     1
 45
0.0
1001
ACAD
1000
AcDbSavedByObjectVersion
1070
     0
  0
VISUALSTYLE
  5
86F
102
{ACAD_XDICTIONARY
360
B58
102
}
102
{ACAD_REACTORS
330
863
102
}
330
863
100
AcDbVisualStyle
  2
Brighten
 70
    12
 71
     2
 72
     2
 73
     0
 90
        0
 40
-0.6
 41
-30.0
 62
     5
 63
     7
421
 16777215
 74
     1
 91
        4
 64
     7
 65
   257
 75
     1
175
     1
 42
1.0
 92
        8
 66
     7
 43
1.0
 76
     1
 77
     6
 78
     2
 67
     7
 79
     5
170
     0
171
     0
290
     0
174
     0
 93
        1
 44
50.0
173
     0
291
     1
 45
0.0
1001
ACAD
1000
AcDbSavedByObjectVersion
1070
     0
  0
VISUALSTYLE
  5
873
102
{ACAD_XDICTIONARY
360
B60
102
}
102
{ACAD_REACTORS
330
863
102
}
330
863
100
AcDbVisualStyle
  2
ColorChange
 70
    16
 71
     2
 72
     2
 73
     3
 90
        0
 40
-0.6
 41
-30.0
 62
     5
 63
     8
421
  8421504
 74
     1
 91
        4
 64
     7
 65
   257
 75
     1
175
     1
 42
1.0
 92
        8
 66
     8
424
  8421504
 43
1.0
 76
     1
 77
     6
 78
     2
 67
     7
 79
     5
170
     0
171
     0
290
     0
174
     0
 93
        1
 44
0.0
173
     0
291
     1
 45
0.0
1001
ACAD
1000
AcDbSavedByObjectVersion
1070
     0
  0
VISUALSTYLE
  5
86C
102
{ACAD_XDICTIONARY
360
B52
102
}
102
{ACAD_REACTORS
330
863
102
}
330
863
100
AcDbVisualStyle
  2
Conceptual
 70
     9
 71
     3
 72
     2
 73
     0
 90
        0
 40
-0.6
 41
-30.0
 62
     5
 63
     7
421
 16777215
 74
     2
 91
        2
 64
     7
 65
   257
 75
     1
175
     1
 42
179.0
 92
        8
 66
     7
 43
1.0
 76
     1
 77
     6
 78
     2
 67
     7
 79
     3
170
     0
171
     0
290
     0
174
     0
 93
        1
 44
0.0
173
     0
291
     0
 45
0.0
1001
ACAD
1000
AcDbSavedByObjectVersion
1070
     0
  0
VISUALSTYLE
  5
86E
102
{ACAD_XDICTIONARY
360
B56
102
}
102
{ACAD_REACTORS
330
863
102
}
330
863
100
AcDbVisualStyle
  2
Dim
 70
    11
 71
     2
 72
     2
 73
     0
 90
        0
 40
-0.6
 41
-30.0
 62
     5
 63
     7
421
 16777215
 74
     1
 91
        4
 64
     7
 65
   257
 75
     1
175
     1
 42
1.0
 92
        8
 66
     7
 43
1.0
 76
     1
 77
     6
 78
     2
 67
     7
 79
     5
170
     0
171
     0
290
     0
174
     0
 93
        1
 44
-50.0
173
     0
291
     1
 45
0.0
1001
ACAD
1000
AcDbSavedByObjectVersion
1070
     0
  0
VISUALSTYLE
  5
87B
102
{ACAD_XDICTIONARY
360
B70
102
}
102
{ACAD_REACTORS
330
863
102
}
330
863
100
AcDbVisualStyle
  2
EdgeColorOff
 70
    22
 71
     2
 72
     2
 73
     0
 90
        0
 40
-0.6
 41
-30.0
 62
     5
 63
     7
421
 16777215
 74
     1
 91
        4
 64
     7
 65
   257
 75
     1
175
     1
 42
1.0
 92
        8
 66
     7
 43
1.0
 76
     1
 77
     6
 78
     2
 67
     7
 79
     5
170
     0
171
     0
290
     0
174
     0
 93
        1
 44
0.0
173
     0
291
     1
 45
0.0
1001
ACAD
1000
AcDbSavedByObjectVersion
1070
     0
  0
VISUALSTYLE
  5
872
102
{ACAD_XDICTIONARY
360
B5E
102
}
102
{ACAD_REACTORS
330
863
102
}
330
863
100
AcDbVisualStyle
  2
Facepattern
 70
    15
 71
     2
 72
     2
 73
     0
 90
        0
 40
-0.6
 41
-30.0
 62
     5
 63
     7
421
 16777215
 74
     1
 91
        4
 64
     7
 65
   257
 75
     1
175
     1
 42
1.0
 92
        8
 66
     7
 43
1.0
 76
     1
 77
     6
 78
     2
 67
     7
 79
     5
170
     0
171
     0
290
     0
174
     0
 93
        1
 44
0.0
173
     0
291
     1
 45
0.0
1001
ACAD
1000
AcDbSavedByObjectVersion
1070
     0
  0
VISUALSTYLE
  5
864
102
{ACAD_XDICTIONARY
360
B42
102
}
102
{ACAD_REACTORS
330
863
102
}
330
863
100
AcDbVisualStyle
  2
Flat
 70
     0
 71
     2
 72
     1
 73
     1
 90
        2
 40
-0.6
 41
30.0
 62
     5
 63
     7
421
 16777215
 74
     0
 91
        0
 64
     7
 65
   257
 75
     1
175
     1
 42
1.0
 92
        8
 66
     7
 43
1.0
 76
     1
 77
     6
 78
     2
 67
     7
 79
     5
170
     0
171
     0
290
     0
174
     0
 93
       13
 44
0.0
173
     0
291
     1
 45
0.0
1001
ACAD
1000
AcDbSavedByObjectVersion
1070
     0
  0
VISUALSTYLE
  5
865
102
{ACAD_XDICTIONARY
360
B44
102
}
102
{ACAD_REACTORS
330
863
102
}
330
863
100
AcDbVisualStyle
  2
FlatWithEdges
 70
     1
 71
     2
 72
     1
 73
     1
 90
        2
 40
-0.6
 41
30.0
 62
     5
 63
     7
421
 16777215
 74
     1
 91
        0
 64
     7
 65
   257
 75
     1
175
     1
 42
1.0
 92
        0
 66
   257
 43
1.0
 76
     1
 77
     6
 78
     2
 67
     7
 79
     5
170
     0
171
     0
290
     0
174
     0
 93
       13
 44
0.0
173
     0
291
     1
 45
0.0
1001
ACAD
1000
AcDbSavedByObjectVersion
1070
     0
  0
VISUALSTYLE
  5
866
102
{ACAD_XDICTIONARY
360
B46
102
}
102
{ACAD_REACTORS
330
863
102
}
330
863
100
AcDbVisualStyle
  2
Gouraud
 70
     2
 71
     2
 72
     2
 73
     1
 90
        2
 40
-0.6
 41
30.0
 62
     5
 63
     7
421
 16777215
 74
     0
 91
        0
 64
     7
 65
   257
 75
     1
175
     1
 42
1.0
 92
        0
 66
     7
 43
1.0
 76
     1
 77
     6
 78
     2
 67
     7
 79
     5
170
     0
171
     0
290
     0
174
     0
 93
       13
 44
0.0
173
     0
291
     1
 45
0.0
1001
ACAD
1000
AcDbSavedByObjectVersion
1070
     0
  0
VISUALSTYLE
  5
867
102
{ACAD_XDICTIONARY
360
B48
102
}
102
{ACAD_REACTORS
330
863
102
}
330
863
100
AcDbVisualStyle
  2
GouraudWithEdges
 70
     3
 71
     2
 72
     2
 73
     1
 90
        2
 40
-0.6
 41
30.0
 62
     5
 63
     7
421
 16777215
 74
     1
 91
        0
 64
     7
 65
   257
 75
     1
175
     1
 42
1.0
 92
        0
 66
   257
 43
1.0
 76
     1
 77
     6
 78
     2
 67
     7
 79
     5
170
     0
171
     0
290
     0
174
     0
 93
       13
 44
0.0
173
     0
291
     1
 45
0.0
1001
ACAD
1000
AcDbSavedByObjectVersion
1070
     0
  0
VISUALSTYLE
  5
86B
102
{ACAD_XDICTIONARY
360
B50
102
}
102
{ACAD_REACTORS
330
863
102
}
330
863
100
AcDbVisualStyle
  2
Hidden
 70
     6
 71
     1
 72
     2
 73
     2
 90
        0
 40
-0.6
 41
-30.0
 62
     5
 63
     7
421
 16777215
 74
     2
 91
        2
 64
     7
 65
   257
 75
     2
175
     1
 42
40.0
 92
        0
 66
   257
 43
1.0
 76
     1
 77
     6
 78
     2
 67
     7
 79
     3
170
     0
171
     0
290
     0
174
     0
 93
        1
 44
0.0
173
     0
291
     0
 45
0.0
1001
ACAD
1000
AcDbSavedByObjectVersion
1070
     0
  0
VISUALSTYLE
  5
879
102
{ACAD_XDICTIONARY
360
B6C
102
}
102
{ACAD_REACTORS
330
863
102
}
330
863
100
AcDbVisualStyle
  2
JitterOff
 70
    20
 71
     2
 72
     2
 73
     0
 90
        0
 40
-0.6
 41
-30.0
 62
     5
 63
     7
421
 16777215
 74
     1
 91
        4
 64
     7
 65
   257
 75
     1
175
     1
 42
1.0
 92
       10
 66
     7
 43
1.0
 76
     1
 77
     6
 78
     2
 67
     7
 79
     5
170
     0
171
     0
290
     0
174
     0
 93
        1
 44
0.0
173
     0
291
     1
 45
0.0
1001
ACAD
1000
AcDbSavedByObjectVersion
1070
     0
  0
VISUALSTYLE
  5
871
102
{ACAD_XDICTIONARY
360
B5C
102
}
102
{ACAD_REACTORS
330
863
102
}
330
863
100
AcDbVisualStyle
  2
Linepattern
 70
    14
 71
     2
 72
     2
 73
     0
 90
        0
 40
-0.6
 41
-30.0
 62
     5
 63
     7
421
 16777215
 74
     1
 91
        4
 64
     7
 65
   257
 75
     7
175
     7
 42
1.0
 92
        8
 66
     7
 43
1.0
 76
     1
 77
     6
 78
     2
 67
     7
 79
     5
170
     0
171
     0
290
     0
174
     0
 93
        1
 44
0.0
173
     0
291
     1
 45
0.0
1001
ACAD
1000
AcDbSavedByObjectVersion
1070
     0
  0
VISUALSTYLE
  5
87A
102
{ACAD_XDICTIONARY
360
B6E
102
}
102
{ACAD_REACTORS
330
863
102
}
330
863
100
AcDbVisualStyle
  2
OverhangOff
 70
    21
 71
     2
 72
     2
 73
     0
 90
        0
 40
-0.6
 41
-30.0
 62
     5
 63
     7
421
 16777215
 74
     1
 91
        4
 64
     7
 65
   257
 75
     1
175
     1
 42
1.0
 92
        9
 66
     7
 43
1.0
 76
     1
 77
     6
 78
     2
 67
     7
 79
     5
170
     0
171
     0
290
     0
174
     0
 93
        1
 44
0.0
173
     0
291
     1
 45
0.0
1001
ACAD
1000
AcDbSavedByObjectVersion
1070
     0
  0
VISUALSTYLE
  5
86D
102
{ACAD_XDICTIONARY
360
B54
102
}
102
{ACAD_REACTORS
330
863
102
}
330
863
100
AcDbVisualStyle
  2
Realistic
 70
     8
 71
     2
 72
     2
 73
     0
 90
        2
 40
-0.6
 41
30.0
 62
     5
 63
     7
421
 16777215
 74
     0
 91
        0
 64
     7
 65
   257
 75
     1
175
     1
 42
1.0
 92
        8
 66
   257
 43
1.0
 76
     1
 77
     6
 78
     2
 67
     7
 79
     3
170
     0
171
     0
290
     0
174
     0
 93
       13
 44
0.0
173
     0
291
     0
 45
0.0
1001
ACAD
1000
AcDbSavedByObjectVersion
1070
     0
  0
VISUALSTYLE
  5
878
102
{ACAD_XDICTIONARY
360
B6A
102
}
102
{ACAD_REACTORS
330
863
102
}
330
863
100
AcDbVisualStyle
  2
Shaded
 70
    27
 71
     2
 72
     2
 73
     1
 90
        2
 40
-0.6
 41
30.0
 62
     5
 63
     7
421
 16777215
 74
     0
 91
        4
 64
     7
 65
   257
 75
     1
175
     1
 42
1.0
 92
        8
 66
   257
 43
1.0
 76
     1
 77
     6
 78
     2
 67
     8
425
  7895160
 79
     3
170
     0
171
     0
290
     0
174
     0
 93
        5
 44
0.0
173
     0
291
     0
 45
0.0
1001
ACAD
1000
AcDbSavedByObjectVersion
1070
     0
  0
VISUALSTYLE
  5
877
102
{ACAD_XDICTIONARY
360
B68
102
}
102
{ACAD_REACTORS
330
863
102
}
330
863
100
AcDbVisualStyle
  2
Shaded with edges
 70
    26
 71
     2
 72
     2
 73
     1
 90
        2
 40
-0.6
 41
30.0
 62
     5
 63
     7
421
 16777215
 74
     1
 91
       10
 64
     7
 65
   257
 75
     2
175
     1
 42
1.0
 92
        8
 66
   257
 43
1.0
 76
     1
 77
     6
 78
     2
 67
     7
 79
     3
170
     0
171
     0
290
     0
174
     0
 93
        5
 44
0.0
173
     0
291
     0
 45
0.0
1001
ACAD
1000
AcDbSavedByObjectVersion
1070
     0
  0
VISUALSTYLE
  5
874
102
{ACAD_XDICTIONARY
360
B62
102
}
102
{ACAD_REACTORS
330
863
102
}
330
863
100
AcDbVisualStyle
  2
Shades of Gray
 70
    23
 71
     2
 72
     2
 73
     3
 90
        0
 40
-0.6
 41
-30.0
 62
     5
 63
     7
421
 16777215
 74
     2
 91
        2
 64
     7
 65
     7
 75
     1
175
     1
 42
40.0
 92
        8
 66
     7
 43
1.0
 76
     1
 77
     6
 78
     2
 67
     7
 79
     3
170
     0
171
     0
290
     0
174
     0
 93
        1
 44
0.0
173
     0
291
     0
 45
0.0
1001
ACAD
1000
AcDbSavedByObjectVersion
1070
     0
  0
VISUALSTYLE
  5
875
102
{ACAD_XDICTIONARY
360
B64
102
}
102
{ACAD_REACTORS
330
863
102
}
330
863
100
AcDbVisualStyle
  2
Sketchy
 70
    24
 71
     1
 72
     2
 73
     2
 90
        0
 40
-0.6
 41
-30.0
 62
     5
 63
     7
421
 16777215
 74
     2
 91
        2
 64
     7
 65
     7
 75
     1
175
     1
 42
40.0
 92
       11
 66
     7
 43
1.0
 76
     1
 77
     6
 78
     2
 67
     7
 79
     6
170
     0
171
     0
290
     0
174
     0
 93
        1
 44
0.0
173
     0
291
     0
 45
0.0
1001
ACAD
1000
AcDbSavedByObjectVersion
1070
     0
  0
VISUALSTYLE
  5
870
102
{ACAD_XDICTIONARY
360
B5A
102
}
102
{ACAD_REACTORS
330
863
102
}
330
863
100
AcDbVisualStyle
  2
Thicken
 70
    13
 71
     2
 72
     2
 73
     0
 90
        0
 40
-0.6
 41
-30.0
 62
     5
 63
     7
421
 16777215
 74
     1
 91
        4
 64
     7
 65
   257
 75
     1
175
     1
 42
1.0
 92
       12
 66
     7
 43
1.0
 76
     1
 77
     6
 78
     2
 67
     7
 79
     5
170
     0
171
     0
290
     0
174
     0
 93
        1
 44
0.0
173
     0
291
     1
 45
0.0
1001
ACAD
1000
AcDbSavedByObjectVersion
1070
     0
  0
VISUALSTYLE
  5
86A
102
{ACAD_XDICTIONARY
360
B4E
102
}
102
{ACAD_REACTORS
330
863
102
}
330
863
100
AcDbVisualStyle
  2
Wireframe
 70
     5
 71
     0
 72
     2
 73
     0
 90
        0
 40
-0.6
 41
-30.0
 62
     5
 63
     7
421
 16777215
 74
     1
 91
        4
 64
     7
 65
   257
 75
     1
175
     1
 42
1.0
 92
        0
 66
   257
 43
1.0
 76
     1
 77
     6
 78
     2
 67
     7
 79
     3
170
     0
171
     0
290
     0
174
     0
 93
        1
 44
0.0
173
     0
291
     0
 45
0.0
1001
ACAD
1000
AcDbSavedByObjectVersion
1070
     0
  0
VISUALSTYLE
  5
876
102
{ACAD_XDICTIONARY
360
B66
102
}
102
{ACAD_REACTORS
330
863
102
}
330
863
100
AcDbVisualStyle
  2
X-Ray
 70
    25
 71
     2
 72
     2
 73
     1
 90
        1
 40
0.5
 41
-30.0
 62
     5
 63
     7
421
 16777215
 74
     1
 91
        0
 64
     7
 65
   257
 75
     1
175
     1
 42
1.0
 92
        8
 66
     7
 43
1.0
 76
     1
 77
     6
 78
     2
 67
     7
 79
     3
170
     0
171
     0
290
     0
174
     0
 93
       13
 44
0.0
173
     0
291
     0
 45
0.0
1001
ACAD
1000
AcDbSavedByObjectVersion
1070
     0
  0
DICTIONARYVAR
  5
AF5
102
{ACAD_REACTORS
330
125
102
}
330
125
100
DictionaryVariables
280
     0
  1
1:1
  0
DICTIONARYVAR
  5
AF2
102
{ACAD_REACTORS
330
125
102
}
330
125
100
DictionaryVariables
280
     0
  1
STANDARD
  0
DICTIONARYVAR
  5
AF1
102
{ACAD_REACTORS
330
125
102
}
330
125
100
DictionaryVariables
280
     0
  1
STANDARD
  0
DICTIONARYVAR
  5
AF3
102
{ACAD_REACTORS
330
125
102
}
330
125
100
DictionaryVariables
280
     0
  1
Imperial24
  0
DICTIONARYVAR
  5
AF4
102
{ACAD_REACTORS
330
125
102
}
330
125
100
DictionaryVariables
280
     0
  1
Imperial24
  0
DICTIONARYVAR
  5
126
102
{ACAD_REACTORS
330
125
102
}
330
125
100
DictionaryVariables
280
     0
  1
1
  0
DICTIONARYVAR
  5
127
102
{ACAD_REACTORS
330
125
102
}
330
125
100
DictionaryVariables
280
     0
  1

  0
DICTIONARY
  5
854
330
853
100
AcDbDictionary
280
     1
281
     1
  3
ACAD_XREC_ROUNDTRIP
360
B40
  3
BUMPTILE
360
856
  3
DIFFUSETILE
360
855
  3
OPACITYTILE
360
859
  3
REFLECTIONTILE
360
858
  3
REFRACTIONTILE
360
85A
  3
SPECULARTILE
360
857
  0
DICTIONARY
  5
84C
330
84B
100
AcDbDictionary
280
     1
281
     1
  3
ACAD_XREC_ROUNDTRIP
360
B3F
  3
BUMPTILE
360
84E
  3
DIFFUSETILE
360
84D
  3
OPACITYTILE
360
851
  3
REFLECTIONTILE
360
850
  3
REFRACTIONTILE
360
852
  3
SPECULARTILE
360
84F
  0
DICTIONARY
  5
85C
330
85B
100
AcDbDictionary
280
     1
281
     1
  3
ACAD_XREC_ROUNDTRIP
360
B41
  3
BUMPTILE
360
85E
  3
DIFFUSETILE
360
85D
  3
OPACITYTILE
360
861
  3
REFLECTIONTILE
360
860
  3
REFRACTIONTILE
360
862
  3
SPECULARTILE
360
85F
  0
DICTIONARY
  5
B73
330
891
100
AcDbDictionary
280
     1
281
     1
  3
ACAD_XREC_ROUNDTRIP
360
B74
  0
DICTIONARY
  5
AB5
330
87D
100
AcDbDictionary
280
     1
281
     1
  3
ACAD_ROUNDTRIP_2008_TABLESTYLE_CELLSTYLEMAP
360
B3D
  3
ACAD_XREC_ROUNDTRIP
360
B72
  0
DICTIONARY
  5
B4C
330
869
100
AcDbDictionary
280
     1
281
     1
  3
ACAD_XREC_ROUNDTRIP
360
B4D
  0
DICTIONARY
  5
B4A
330
868
100
AcDbDictionary
280
     1
281
     1
  3
ACAD_XREC_ROUNDTRIP
360
B4B
  0
DICTIONARY
  5
B58
330
86F
100
AcDbDictionary
280
     1
281
     1
  3
ACAD_XREC_ROUNDTRIP
360
B59
  0
DICTIONARY
  5
B60
330
873
100
AcDbDictionary
280
     1
281
     1
  3
ACAD_XREC_ROUNDTRIP
360
B61
  0
DICTIONARY
  5
B52
330
86C
100
AcDbDictionary
280
     1
281
     1
  3
ACAD_XREC_ROUNDTRIP
360
B53
  0
DICTIONARY
  5
B56
330
86E
100
AcDbDictionary
280
     1
281
     1
  3
ACAD_XREC_ROUNDTRIP
360
B57
  0
DICTIONARY
  5
B70
330
87B
100
AcDbDictionary
280
     1
281
     1
  3
ACAD_XREC_ROUNDTRIP
360
B71
  0
DICTIONARY
  5
B5E
330
872
100
AcDbDictionary
280
     1
281
     1
  3
ACAD_XREC_ROUNDTRIP
360
B5F
  0
DICTIONARY
  5
B42
330
864
100
AcDbDictionary
280
     1
281
     1
  3
ACAD_XREC_ROUNDTRIP
360
B43
  0
DICTIONARY
  5
B44
330
865
100
AcDbDictionary
280
     1
281
     1
  3
ACAD_XREC_ROUNDTRIP
360
B45
  0
DICTIONARY
  5
B46
330
866
100
AcDbDictionary
280
     1
281
     1
  3
ACAD_XREC_ROUNDTRIP
360
B47
  0
DICTIONARY
  5
B48
330
867
100
AcDbDictionary
280
     1
281
     1
  3
ACAD_XREC_ROUNDTRIP
360
B49
  0
DICTIONARY
  5
B50
330
86B
100
AcDbDictionary
280
     1
281
     1
  3
ACAD_XREC_ROUNDTRIP
360
B51
  0
DICTIONARY
  5
B6C
330
879
100
AcDbDictionary
280
     1
281
     1
  3
ACAD_XREC_ROUNDTRIP
360
B6D
  0
DICTIONARY
  5
B5C
330
871
100
AcDbDictionary
280
     1
281
     1
  3
ACAD_XREC_ROUNDTRIP
360
B5D
  0
DICTIONARY
  5
B6E
330
87A
100
AcDbDictionary
280
     1
281
     1
  3
ACAD_XREC_ROUNDTRIP
360
B6F
  0
DICTIONARY
  5
B54
330
86D
100
AcDbDictionary
280
     1
281
     1
  3
ACAD_XREC_ROUNDTRIP
360
B55
  0
DICTIONARY
  5
B6A
330
878
100
AcDbDictionary
280
     1
281
     1
  3
ACAD_XREC_ROUNDTRIP
360
B6B
  0
DICTIONARY
  5
B68
330
877
100
AcDbDictionary
280
     1
281
     1
  3
ACAD_XREC_ROUNDTRIP
360
B69
  0
DICTIONARY
  5
B62
330
874
100
AcDbDictionary
280
     1
281
     1
  3
ACAD_XREC_ROUNDTRIP
360
B63
  0
DICTIONARY
  5
B64
330
875
100
AcDbDictionary
280
     1
281
     1
  3
ACAD_XREC_ROUNDTRIP
360
B65
  0
DICTIONARY
  5
B5A
330
870
100
AcDbDictionary
280
     1
281
     1
  3
ACAD_XREC_ROUNDTRIP
360
B5B
  0
DICTIONARY
  5
B4E
330
86A
100
AcDbDictionary
280
     1
281
     1
  3
ACAD_XREC_ROUNDTRIP
360
B4F
  0
DICTIONARY
  5
B66
330
876
100
AcDbDictionary
280
     1
281
     1
  3
ACAD_XREC_ROUNDTRIP
360
B67
  0
XRECORD
  5
B40
102
{ACAD_REACTORS
330
854
102
}
330
854
100
AcDbXrecord
280
     1
102
MATERIAL
148
0.0
149
0.0
149
0.0
 93
        0
 94
      127
282
     0
 72
     0
 77
     0
171
     0
175
     0
179
     0
273
     0
  0
XRECORD
  5
856
102
{ACAD_REACTORS
330
854
102
}
330
854
100
AcDbXrecord
280
     1
270
     1
271
     1
  0
XRECORD
  5
855
102
{ACAD_REACTORS
330
854
102
}
330
854
100
AcDbXrecord
280
     1
270
     1
271
     1
  0
XRECORD
  5
859
102
{ACAD_REACTORS
330
854
102
}
330
854
100
AcDbXrecord
280
     1
270
     1
271
     1
  0
XRECORD
  5
858
102
{ACAD_REACTORS
330
854
102
}
330
854
100
AcDbXrecord
280
     1
270
     1
271
     1
  0
XRECORD
  5
85A
102
{ACAD_REACTORS
330
854
102
}
330
854
100
AcDbXrecord
280
     1
270
     1
271
     1
  0
XRECORD
  5
857
102
{ACAD_REACTORS
330
854
102
}
330
854
100
AcDbXrecord
280
     1
270
     1
271
     1
  0
XRECORD
  5
B3F
102
{ACAD_REACTORS
330
84C
102
}
330
84C
100
AcDbXrecord
280
     1
102
MATERIAL
148
0.0
149
0.0
149
0.0
 93
        0
 94
      127
282
     0
 72
     0
 77
     0
171
     0
175
     0
179
     0
273
     0
  0
XRECORD
  5
84E
102
{ACAD_REACTORS
330
84C
102
}
330
84C
100
AcDbXrecord
280
     1
270
     1
271
     1
  0
XRECORD
  5
84D
102
{ACAD_REACTORS
330
84C
102
}
330
84C
100
AcDbXrecord
280
     1
270
     1
271
     1
  0
XRECORD
  5
851
102
{ACAD_REACTORS
330
84C
102
}
330
84C
100
AcDbXrecord
280
     1
270
     1
271
     1
  0
XRECORD
  5
850
102
{ACAD_REACTORS
330
84C
102
}
330
84C
100
AcDbXrecord
280
     1
270
     1
271
     1
  0
XRECORD
  5
852
102
{ACAD_REACTORS
330
84C
102
}
330
84C
100
AcDbXrecord
280
     1
270
     1
271
     1
  0
XRECORD
  5
84F
102
{ACAD_REACTORS
330
84C
102
}
330
84C
100
AcDbXrecord
280
     1
270
     1
271
     1
  0
XRECORD
  5
B41
102
{ACAD_REACTORS
330
85C
102
}
330
85C
100
AcDbXrecord
280
     1
102
MATERIAL
148
0.0
149
0.0
149
0.0
 93
        0
 94
      127
282
     0
 72
     0
 77
     0
171
     0
175
     0
179
     0
273
     0
  0
XRECORD
  5
85E
102
{ACAD_REACTORS
330
85C
102
}
330
85C
100
AcDbXrecord
280
     1
270
     1
271
     1
  0
XRECORD
  5
85D
102
{ACAD_REACTORS
330
85C
102
}
330
85C
100
AcDbXrecord
280
     1
270
     1
271
     1
  0
XRECORD
  5
861
102
{ACAD_REACTORS
330
85C
102
}
330
85C
100
AcDbXrecord
280
     1
270
     1
271
     1
  0
XRECORD
  5
860
102
{ACAD_REACTORS
330
85C
102
}
330
85C
100
AcDbXrecord
280
     1
270
     1
271
     1
  0
XRECORD
  5
862
102
{ACAD_REACTORS
330
85C
102
}
330
85C
100
AcDbXrecord
280
     1
270
     1
271
     1
  0
XRECORD
  5
85F
102
{ACAD_REACTORS
330
85C
102
}
330
85C
100
AcDbXrecord
280
     1
270
     1
271
     1
  0
XRECORD
  5
B74
102
{ACAD_REACTORS
330
B73
102
}
330
B73
100
AcDbXrecord
280
     1
102
ACAD_ROUNDTRIP_2012_MLEADER_STYLE
298
     1
  0
CELLSTYLEMAP
  5
B3D
102
{ACAD_REACTORS
330
AB5
102
}
330
AB5
100
AcDbCellStyleMap
 90
        3
300
CELLSTYLE
  1
TABLEFORMAT_BEGIN
 90
        5
170
     1
 91
        0
 92
    32768
 62
   257
 93
        1
300
CONTENTFORMAT
  1
CONTENTFORMAT_BEGIN
 90
        0
 91
        0
 92
      512
 93
        0
300

 40
0.0
140
1.0
 94
        5
 62
     0
340
11
144
0.25
309
CONTENTFORMAT_END
171
     0
 94
        0
309
TABLEFORMAT_END
  1
CELLSTYLE_BEGIN
 90
        1
 91
        1
300
_TITLE
309
CELLSTYLE_END
300
CELLSTYLE
  1
TABLEFORMAT_BEGIN
 90
        5
170
     1
 91
        0
 92
        0
 62
   257
 93
        1
300
CONTENTFORMAT
  1
CONTENTFORMAT_BEGIN
 90
        0
 91
        0
 92
      512
 93
        0
300

 40
0.0
140
1.0
 94
        5
 62
     0
340
11
144
0.18
309
CONTENTFORMAT_END
171
     0
 94
        0
309
TABLEFORMAT_END
  1
CELLSTYLE_BEGIN
 90
        2
 91
        1
300
_HEADER
309
CELLSTYLE_END
300
CELLSTYLE
  1
TABLEFORMAT_BEGIN
 90
        5
170
     1
 91
        0
 92
        0
 62
   257
 93
        1
300
CONTENTFORMAT
  1
CONTENTFORMAT_BEGIN
 90
        0
 91
        0
 92
      512
 93
        0
300

 40
0.0
140
1.0
 94
        2
 62
     0
340
11
144
0.18
309
CONTENTFORMAT_END
171
     0
 94
        0
309
TABLEFORMAT_END
  1
CELLSTYLE_BEGIN
 90
        3
 91
        2
300
_DATA
309
CELLSTYLE_END
  0
XRECORD
  5
B72
102
{ACAD_REACTORS
330
AB5
102
}
330
AB5
100
AcDbXrecord
280
     1
102
ACAD_ROUNDTRIP_PRE2007_TABLESTYLE
 90
      512
 91
        0
  1

 92
      512
 93
        0
  2

 94
      512
 95
        0
  3

  0
XRECORD
  5
B4D
102
{ACAD_REACTORS
330
B4C
102
}
330
B4C
100
AcDbXrecord
280
     1
102
RTVSPost2010Prop28
280
     1
102
RTVSPost2010PropOp28
 70
     1
102
RTVSPost2010Prop29
280
     1
102
RTVSPost2010PropOp29
 70
     1
102
RTVSPost2010Prop30
280
     0
102
RTVSPost2010PropOp30
 70
     1
102
RTVSPost2010Prop31
280
     0
102
RTVSPost2010PropOp31
 70
     1
102
RTVSPost2010Prop32
280
     0
102
RTVSPost2010PropOp32
 70
     1
102
RTVSPost2010Prop33
280
     0
102
RTVSPost2010PropOp33
 70
     1
102
RTVSPost2010Prop34
280
     0
102
RTVSPost2010PropOp34
 70
     1
102
RTVSPost2010Prop35
280
     0
102
RTVSPost2010PropOp35
 70
     1
102
RTVSPost2010Prop36
280
     0
102
RTVSPost2010PropOp36
 70
     1
102
RTVSPost2010Prop37
 90
       50
102
RTVSPost2010PropOp37
 70
     1
102
RTVSPost2010Prop38
140
0.0
102
RTVSPost2010PropOp38
 70
     1
102
RTVSPost2010Prop39
140
1.0
102
RTVSPost2010PropOp39
 70
     1
102
RTVSPost2010Prop40
 90
        0
102
RTVSPost2010PropOp40
 70
     1
102
RTVSPost2010Prop41ColorIndex
 90
       18
102
RTVSPost2010Prop41ColorRGB
 90
        0
102
RTVSPost2010PropOp41
 70
     1
102
RTVSPost2010Prop42
 90
       50
102
RTVSPost2010PropOp42
 70
     1
102
RTVSPost2010Prop43
 90
        3
102
RTVSPost2010PropOp43
 70
     1
102
RTVSPost2010Prop44ColorIndex
 90
        5
102
RTVSPost2010Prop44ColorRGB
 90
      255
102
RTVSPost2010PropOp44
 70
     1
102
RTVSPost2010Prop45
280
     0
102
RTVSPost2010PropOp45
 70
     1
102
RTVSPost2010Prop46
 90
       50
102
RTVSPost2010PropOp46
 70
     1
102
RTVSPost2010Prop47
 90
       50
102
RTVSPost2010PropOp47
 70
     1
102
RTVSPost2010Prop48
 90
       50
102
RTVSPost2010PropOp48
 70
     1
102
RTVSPost2010Prop49
280
     0
102
RTVSPost2010PropOp49
 70
     1
102
RTVSPost2010Prop50
 90
       50
102
RTVSPost2010PropOp50
 70
     1
102
RTVSPost2010Prop51ColorIndex
 90
      256
102
RTVSPost2010Prop51ColorRGB
 90
-16777216
102
RTVSPost2010PropOp51
 70
     0
102
RTVSPost2010Prop52
140
1.0
102
RTVSPost2010PropOp52
 70
     0
102
RTVSPost2010Prop53
 90
        2
102
RTVSPost2010PropOp53
 70
     1
102
RTVSPost2010Prop54
  1
strokes_ogs.tif
102
RTVSPost2010PropOp54
 70
     1
102
RTVSPost2010Prop55
280
     0
102
RTVSPost2010PropOp55
 70
     1
102
RTVSPost2010Prop56
140
1.0
102
RTVSPost2010PropOp56
 70
     1
102
RTVSPost2010Prop57
140
1.0
102
RTVSPost2010PropOp57
 70
     1
102
RTVSPropertyOp0
 70
     1
102
RTVSPropertyOp1
 70
     1
102
RTVSPropertyOp2
 70
     1
102
RTVSPropertyOp3
 70
     1
102
RTVSPropertyOp4
 70
     1
102
RTVSPropertyOp5
 70
     1
102
RTVSPropertyOp6
 70
     1
102
RTVSPropertyOp7
 70
     1
102
RTVSPropertyOp8
 70
     1
102
RTVSPropertyOp9
 70
     1
102
RTVSPropertyOp10
 70
     1
102
RTVSPropertyOp11
 70
     1
102
RTVSPropertyOp12
 70
     1
102
RTVSPropertyOp13
 70
     1
102
RTVSPropertyOp14
 70
     1
102
RTVSPropertyOp15
 70
     1
102
RTVSPropertyOp16
 70
     1
102
RTVSPropertyOp17
 70
     1
102
RTVSPropertyOp18
 70
     1
102
RTVSPropertyOp19
 70
     1
102
RTVSPropertyOp20
 70
     1
102
RTVSPropertyOp21
 70
     1
102
RTVSPropertyOp22
 70
     1
102
RTVSPropertyOp23
 70
     1
102
RTVSPropertyOp24
 70
     1
102
RTVSPropertyOp25
 70
     1
102
RTVSPropertyOp26
 70
     1
102
RTVSPropertyOp27
 70
     1
102
RTVSPropertyOp28
 70
     1
102
RTVSPropertyOp29
 70
     1
102
RTVSPropertyOp30
 70
     1
102
RTVSPropertyOp31
 70
     1
102
RTVSPropertyOp32
 70
     1
102
RTVSPropertyOp33
 70
     1
102
RTVSPropertyOp34
 70
     1
102
RTVSPropertyOp35
 70
     1
102
RTVSPropertyOp36
 70
     1
102
RTVSPropertyOp37
 70
     1
102
RTVSPropertyOp38
 70
     1
102
RTVSPropertyOp39
 70
     1
102
RTVSPropertyOp40
 70
     1
102
RTVSPropertyOp41
 70
     1
102
RTVSPropertyOp42
 70
     1
102
RTVSPropertyOp43
 70
     1
102
RTVSPropertyOp44
 70
     1
102
RTVSPropertyOp45
 70
     1
102
RTVSPropertyOp46
 70
     1
102
RTVSPropertyOp47
 70
     1
102
RTVSPropertyOp48
 70
     1
102
RTVSPropertyOp49
 70
     1
102
RTVSPropertyOp50
 70
     1
102
RTVSPropertyOp51
 70
     0
102
RTVSPropertyOp52
 70
     0
102
RTVSPropertyOp53
 70
     1
102
RTVSPropertyOp54
 70
     1
102
RTVSPropertyOp55
 70
     1
102
RTVSPropertyOp56
 70
     1
102
RTVSPropertyOp57
 70
     1
102
RTVSPropertyOp58
 70
     1
102
RTVSPropertyOp59
 70
     1
102
RTVSPropertyOp60
 70
     1
102
RTVSPropertyOp61
 70
     1
102
RTVSPropertyOp62
 70
     1
  0
XRECORD
  5
B4B
102
{ACAD_REACTORS
330
B4A
102
}
330
B4A
100
AcDbXrecord
280
     1
102
RTVSPost2010Prop28
280
     0
102
RTVSPost2010PropOp28
 70
     1
102
RTVSPost2010Prop29
280
     1
102
RTVSPost2010PropOp29
 70
     1
102
RTVSPost2010Prop30
280
     1
102
RTVSPost2010PropOp30
 70
     1
102
RTVSPost2010Prop31
280
     0
102
RTVSPost2010PropOp31
 70
     1
102
RTVSPost2010Prop32
280
     0
102
RTVSPost2010PropOp32
 70
     1
102
RTVSPost2010Prop33
280
     0
102
RTVSPost2010PropOp33
 70
     1
102
RTVSPost2010Prop34
280
     0
102
RTVSPost2010PropOp34
 70
     1
102
RTVSPost2010Prop35
280
     0
102
RTVSPost2010PropOp35
 70
     1
102
RTVSPost2010Prop36
280
     0
102
RTVSPost2010PropOp36
 70
     1
102
RTVSPost2010Prop37
 90
       50
102
RTVSPost2010PropOp37
 70
     1
102
RTVSPost2010Prop38
140
0.0
102
RTVSPost2010PropOp38
 70
     1
102
RTVSPost2010Prop39
140
1.0
102
RTVSPost2010PropOp39
 70
     1
102
RTVSPost2010Prop40
 90
        0
102
RTVSPost2010PropOp40
 70
     1
102
RTVSPost2010Prop41ColorIndex
 90
       18
102
RTVSPost2010Prop41ColorRGB
 90
        0
102
RTVSPost2010PropOp41
 70
     1
102
RTVSPost2010Prop42
 90
       50
102
RTVSPost2010PropOp42
 70
     1
102
RTVSPost2010Prop43
 90
        3
102
RTVSPost2010PropOp43
 70
     1
102
RTVSPost2010Prop44ColorIndex
 90
        5
102
RTVSPost2010Prop44ColorRGB
 90
      255
102
RTVSPost2010PropOp44
 70
     1
102
RTVSPost2010Prop45
280
     0
102
RTVSPost2010PropOp45
 70
     1
102
RTVSPost2010Prop46
 90
       50
102
RTVSPost2010PropOp46
 70
     1
102
RTVSPost2010Prop47
 90
       50
102
RTVSPost2010PropOp47
 70
     1
102
RTVSPost2010Prop48
 90
       50
102
RTVSPost2010PropOp48
 70
     1
102
RTVSPost2010Prop49
280
     0
102
RTVSPost2010PropOp49
 70
     1
102
RTVSPost2010Prop50
 90
       50
102
RTVSPost2010PropOp50
 70
     1
102
RTVSPost2010Prop51ColorIndex
 90
      256
102
RTVSPost2010Prop51ColorRGB
 90
-16777216
102
RTVSPost2010PropOp51
 70
     0
102
RTVSPost2010Prop52
140
1.0
102
RTVSPost2010PropOp52
 70
     0
102
RTVSPost2010Prop53
 90
        2
102
RTVSPost2010PropOp53
 70
     1
102
RTVSPost2010Prop54
  1
strokes_ogs.tif
102
RTVSPost2010PropOp54
 70
     1
102
RTVSPost2010Prop55
280
     0
102
RTVSPost2010PropOp55
 70
     1
102
RTVSPost2010Prop56
140
1.0
102
RTVSPost2010PropOp56
 70
     1
102
RTVSPost2010Prop57
140
1.0
102
RTVSPost2010PropOp57
 70
     1
102
RTVSPropertyOp0
 70
     1
102
RTVSPropertyOp1
 70
     1
102
RTVSPropertyOp2
 70
     1
102
RTVSPropertyOp3
 70
     1
102
RTVSPropertyOp4
 70
     1
102
RTVSPropertyOp5
 70
     1
102
RTVSPropertyOp6
 70
     1
102
RTVSPropertyOp7
 70
     1
102
RTVSPropertyOp8
 70
     1
102
RTVSPropertyOp9
 70
     1
102
RTVSPropertyOp10
 70
     1
102
RTVSPropertyOp11
 70
     1
102
RTVSPropertyOp12
 70
     1
102
RTVSPropertyOp13
 70
     1
102
RTVSPropertyOp14
 70
     1
102
RTVSPropertyOp15
 70
     1
102
RTVSPropertyOp16
 70
     1
102
RTVSPropertyOp17
 70
     1
102
RTVSPropertyOp18
 70
     1
102
RTVSPropertyOp19
 70
     1
102
RTVSPropertyOp20
 70
     1
102
RTVSPropertyOp21
 70
     1
102
RTVSPropertyOp22
 70
     1
102
RTVSPropertyOp23
 70
     1
102
RTVSPropertyOp24
 70
     1
102
RTVSPropertyOp25
 70
     1
102
RTVSPropertyOp26
 70
     1
102
RTVSPropertyOp27
 70
     1
102
RTVSPropertyOp28
 70
     1
102
RTVSPropertyOp29
 70
     1
102
RTVSPropertyOp30
 70
     1
102
RTVSPropertyOp31
 70
     1
102
RTVSPropertyOp32
 70
     1
102
RTVSPropertyOp33
 70
     1
102
RTVSPropertyOp34
 70
     1
102
RTVSPropertyOp35
 70
     1
102
RTVSPropertyOp36
 70
     1
102
RTVSPropertyOp37
 70
     1
102
RTVSPropertyOp38
 70
     1
102
RTVSPropertyOp39
 70
     1
102
RTVSPropertyOp40
 70
     1
102
RTVSPropertyOp41
 70
     1
102
RTVSPropertyOp42
 70
     1
102
RTVSPropertyOp43
 70
     1
102
RTVSPropertyOp44
 70
     1
102
RTVSPropertyOp45
 70
     1
102
RTVSPropertyOp46
 70
     1
102
RTVSPropertyOp47
 70
     1
102
RTVSPropertyOp48
 70
     1
102
RTVSPropertyOp49
 70
     1
102
RTVSPropertyOp50
 70
     1
102
RTVSPropertyOp51
 70
     0
102
RTVSPropertyOp52
 70
     0
102
RTVSPropertyOp53
 70
     1
102
RTVSPropertyOp54
 70
     1
102
RTVSPropertyOp55
 70
     1
102
RTVSPropertyOp56
 70
     1
102
RTVSPropertyOp57
 70
     1
102
RTVSPropertyOp58
 70
     1
102
RTVSPropertyOp59
 70
     1
102
RTVSPropertyOp60
 70
     1
102
RTVSPropertyOp61
 70
     1
102
RTVSPropertyOp62
 70
     1
  0
XRECORD
  5
B59
102
{ACAD_REACTORS
330
B58
102
}
330
B58
100
AcDbXrecord
280
     1
102
RTVSPost2010Prop28
280
     0
102
RTVSPost2010PropOp28
 70
     1
102
RTVSPost2010Prop29
280
     1
102
RTVSPost2010PropOp29
 70
     1
102
RTVSPost2010Prop30
280
     1
102
RTVSPost2010PropOp30
 70
     1
102
RTVSPost2010Prop31
280
     0
102
RTVSPost2010PropOp31
 70
     1
102
RTVSPost2010Prop32
280
     0
102
RTVSPost2010PropOp32
 70
     1
102
RTVSPost2010Prop33
280
     0
102
RTVSPost2010PropOp33
 70
     1
102
RTVSPost2010Prop34
280
     0
102
RTVSPost2010PropOp34
 70
     1
102
RTVSPost2010Prop35
280
     0
102
RTVSPost2010PropOp35
 70
     1
102
RTVSPost2010Prop36
280
     0
102
RTVSPost2010PropOp36
 70
     1
102
RTVSPost2010Prop37
 90
       50
102
RTVSPost2010PropOp37
 70
     1
102
RTVSPost2010Prop38
140
0.0
102
RTVSPost2010PropOp38
 70
     1
102
RTVSPost2010Prop39
140
1.0
102
RTVSPost2010PropOp39
 70
     1
102
RTVSPost2010Prop40
 90
        0
102
RTVSPost2010PropOp40
 70
     1
102
RTVSPost2010Prop41ColorIndex
 90
       18
102
RTVSPost2010Prop41ColorRGB
 90
        0
102
RTVSPost2010PropOp41
 70
     1
102
RTVSPost2010Prop42
 90
       50
102
RTVSPost2010PropOp42
 70
     1
102
RTVSPost2010Prop43
 90
        3
102
RTVSPost2010PropOp43
 70
     1
102
RTVSPost2010Prop44ColorIndex
 90
        5
102
RTVSPost2010Prop44ColorRGB
 90
      255
102
RTVSPost2010PropOp44
 70
     1
102
RTVSPost2010Prop45
280
     0
102
RTVSPost2010PropOp45
 70
     1
102
RTVSPost2010Prop46
 90
       50
102
RTVSPost2010PropOp46
 70
     1
102
RTVSPost2010Prop47
 90
       50
102
RTVSPost2010PropOp47
 70
     1
102
RTVSPost2010Prop48
 90
       50
102
RTVSPost2010PropOp48
 70
     1
102
RTVSPost2010Prop49
280
     0
102
RTVSPost2010PropOp49
 70
     1
102
RTVSPost2010Prop50
 90
       50
102
RTVSPost2010PropOp50
 70
     1
102
RTVSPost2010Prop51ColorIndex
 90
      256
102
RTVSPost2010Prop51ColorRGB
 90
-16777216
102
RTVSPost2010PropOp51
 70
     0
102
RTVSPost2010Prop52
140
1.0
102
RTVSPost2010PropOp52
 70
     0
102
RTVSPost2010Prop53
 90
        2
102
RTVSPost2010PropOp53
 70
     1
102
RTVSPost2010Prop54
  1
strokes_ogs.tif
102
RTVSPost2010PropOp54
 70
     1
102
RTVSPost2010Prop55
280
     0
102
RTVSPost2010PropOp55
 70
     1
102
RTVSPost2010Prop56
140
1.0
102
RTVSPost2010PropOp56
 70
     1
102
RTVSPost2010Prop57
140
1.0
102
RTVSPost2010PropOp57
 70
     1
102
RTVSPropertyOp0
 70
     1
102
RTVSPropertyOp1
 70
     1
102
RTVSPropertyOp2
 70
     1
102
RTVSPropertyOp3
 70
     1
102
RTVSPropertyOp4
 70
     1
102
RTVSPropertyOp5
 70
     1
102
RTVSPropertyOp6
 70
     1
102
RTVSPropertyOp7
 70
     1
102
RTVSPropertyOp8
 70
     1
102
RTVSPropertyOp9
 70
     1
102
RTVSPropertyOp10
 70
     1
102
RTVSPropertyOp11
 70
     1
102
RTVSPropertyOp12
 70
     1
102
RTVSPropertyOp13
 70
     1
102
RTVSPropertyOp14
 70
     1
102
RTVSPropertyOp15
 70
     1
102
RTVSPropertyOp16
 70
     1
102
RTVSPropertyOp17
 70
     1
102
RTVSPropertyOp18
 70
     1
102
RTVSPropertyOp19
 70
     1
102
RTVSPropertyOp20
 70
     1
102
RTVSPropertyOp21
 70
     1
102
RTVSPropertyOp22
 70
     1
102
RTVSPropertyOp23
 70
     1
102
RTVSPropertyOp24
 70
     1
102
RTVSPropertyOp25
 70
     1
102
RTVSPropertyOp26
 70
     1
102
RTVSPropertyOp27
 70
     1
102
RTVSPropertyOp28
 70
     1
102
RTVSPropertyOp29
 70
     1
102
RTVSPropertyOp30
 70
     1
102
RTVSPropertyOp31
 70
     1
102
RTVSPropertyOp32
 70
     1
102
RTVSPropertyOp33
 70
     1
102
RTVSPropertyOp34
 70
     1
102
RTVSPropertyOp35
 70
     1
102
RTVSPropertyOp36
 70
     1
102
RTVSPropertyOp37
 70
     1
102
RTVSPropertyOp38
 70
     1
102
RTVSPropertyOp39
 70
     1
102
RTVSPropertyOp40
 70
     1
102
RTVSPropertyOp41
 70
     1
102
RTVSPropertyOp42
 70
     1
102
RTVSPropertyOp43
 70
     1
102
RTVSPropertyOp44
 70
     1
102
RTVSPropertyOp45
 70
     1
102
RTVSPropertyOp46
 70
     1
102
RTVSPropertyOp47
 70
     1
102
RTVSPropertyOp48
 70
     1
102
RTVSPropertyOp49
 70
     1
102
RTVSPropertyOp50
 70
     1
102
RTVSPropertyOp51
 70
     0
102
RTVSPropertyOp52
 70
     0
102
RTVSPropertyOp53
 70
     1
102
RTVSPropertyOp54
 70
     1
102
RTVSPropertyOp55
 70
     1
102
RTVSPropertyOp56
 70
     1
102
RTVSPropertyOp57
 70
     1
102
RTVSPropertyOp58
 70
     1
102
RTVSPropertyOp59
 70
     1
102
RTVSPropertyOp60
 70
     1
102
RTVSPropertyOp61
 70
     1
102
RTVSPropertyOp62
 70
     1
  0
XRECORD
  5
B61
102
{ACAD_REACTORS
330
B60
102
}
330
B60
100
AcDbXrecord
280
     1
102
RTVSPost2010Prop28
280
     0
102
RTVSPost2010PropOp28
 70
     1
102
RTVSPost2010Prop29
280
     1
102
RTVSPost2010PropOp29
 70
     1
102
RTVSPost2010Prop30
280
     1
102
RTVSPost2010PropOp30
 70
     1
102
RTVSPost2010Prop31
280
     0
102
RTVSPost2010PropOp31
 70
     1
102
RTVSPost2010Prop32
280
     0
102
RTVSPost2010PropOp32
 70
     1
102
RTVSPost2010Prop33
280
     0
102
RTVSPost2010PropOp33
 70
     1
102
RTVSPost2010Prop34
280
     0
102
RTVSPost2010PropOp34
 70
     1
102
RTVSPost2010Prop35
280
     0
102
RTVSPost2010PropOp35
 70
     1
102
RTVSPost2010Prop36
280
     0
102
RTVSPost2010PropOp36
 70
     1
102
RTVSPost2010Prop37
 90
       50
102
RTVSPost2010PropOp37
 70
     1
102
RTVSPost2010Prop38
140
0.0
102
RTVSPost2010PropOp38
 70
     1
102
RTVSPost2010Prop39
140
1.0
102
RTVSPost2010PropOp39
 70
     1
102
RTVSPost2010Prop40
 90
        0
102
RTVSPost2010PropOp40
 70
     1
102
RTVSPost2010Prop41ColorIndex
 90
       18
102
RTVSPost2010Prop41ColorRGB
 90
        0
102
RTVSPost2010PropOp41
 70
     1
102
RTVSPost2010Prop42
 90
       50
102
RTVSPost2010PropOp42
 70
     1
102
RTVSPost2010Prop43
 90
        3
102
RTVSPost2010PropOp43
 70
     1
102
RTVSPost2010Prop44ColorIndex
 90
        5
102
RTVSPost2010Prop44ColorRGB
 90
      255
102
RTVSPost2010PropOp44
 70
     1
102
RTVSPost2010Prop45
280
     0
102
RTVSPost2010PropOp45
 70
     1
102
RTVSPost2010Prop46
 90
       50
102
RTVSPost2010PropOp46
 70
     1
102
RTVSPost2010Prop47
 90
       50
102
RTVSPost2010PropOp47
 70
     1
102
RTVSPost2010Prop48
 90
       50
102
RTVSPost2010PropOp48
 70
     1
102
RTVSPost2010Prop49
280
     0
102
RTVSPost2010PropOp49
 70
     1
102
RTVSPost2010Prop50
 90
       50
102
RTVSPost2010PropOp50
 70
     1
102
RTVSPost2010Prop51ColorIndex
 90
      256
102
RTVSPost2010Prop51ColorRGB
 90
-16777216
102
RTVSPost2010PropOp51
 70
     0
102
RTVSPost2010Prop52
140
1.0
102
RTVSPost2010PropOp52
 70
     0
102
RTVSPost2010Prop53
 90
        2
102
RTVSPost2010PropOp53
 70
     1
102
RTVSPost2010Prop54
  1
strokes_ogs.tif
102
RTVSPost2010PropOp54
 70
     1
102
RTVSPost2010Prop55
280
     0
102
RTVSPost2010PropOp55
 70
     1
102
RTVSPost2010Prop56
140
1.0
102
RTVSPost2010PropOp56
 70
     1
102
RTVSPost2010Prop57
140
1.0
102
RTVSPost2010PropOp57
 70
     1
102
RTVSPropertyOp0
 70
     1
102
RTVSPropertyOp1
 70
     1
102
RTVSPropertyOp2
 70
     1
102
RTVSPropertyOp3
 70
     1
102
RTVSPropertyOp4
 70
     1
102
RTVSPropertyOp5
 70
     1
102
RTVSPropertyOp6
 70
     1
102
RTVSPropertyOp7
 70
     1
102
RTVSPropertyOp8
 70
     1
102
RTVSPropertyOp9
 70
     1
102
RTVSPropertyOp10
 70
     1
102
RTVSPropertyOp11
 70
     1
102
RTVSPropertyOp12
 70
     1
102
RTVSPropertyOp13
 70
     1
102
RTVSPropertyOp14
 70
     1
102
RTVSPropertyOp15
 70
     1
102
RTVSPropertyOp16
 70
     1
102
RTVSPropertyOp17
 70
     1
102
RTVSPropertyOp18
 70
     1
102
RTVSPropertyOp19
 70
     1
102
RTVSPropertyOp20
 70
     1
102
RTVSPropertyOp21
 70
     1
102
RTVSPropertyOp22
 70
     1
102
RTVSPropertyOp23
 70
     1
102
RTVSPropertyOp24
 70
     1
102
RTVSPropertyOp25
 70
     1
102
RTVSPropertyOp26
 70
     1
102
RTVSPropertyOp27
 70
     1
102
RTVSPropertyOp28
 70
     1
102
RTVSPropertyOp29
 70
     1
102
RTVSPropertyOp30
 70
     1
102
RTVSPropertyOp31
 70
     1
102
RTVSPropertyOp32
 70
     1
102
RTVSPropertyOp33
 70
     1
102
RTVSPropertyOp34
 70
     1
102
RTVSPropertyOp35
 70
     1
102
RTVSPropertyOp36
 70
     1
102
RTVSPropertyOp37
 70
     1
102
RTVSPropertyOp38
 70
     1
102
RTVSPropertyOp39
 70
     1
102
RTVSPropertyOp40
 70
     1
102
RTVSPropertyOp41
 70
     1
102
RTVSPropertyOp42
 70
     1
102
RTVSPropertyOp43
 70
     1
102
RTVSPropertyOp44
 70
     1
102
RTVSPropertyOp45
 70
     1
102
RTVSPropertyOp46
 70
     1
102
RTVSPropertyOp47
 70
     1
102
RTVSPropertyOp48
 70
     1
102
RTVSPropertyOp49
 70
     1
102
RTVSPropertyOp50
 70
     1
102
RTVSPropertyOp51
 70
     0
102
RTVSPropertyOp52
 70
     0
102
RTVSPropertyOp53
 70
     1
102
RTVSPropertyOp54
 70
     1
102
RTVSPropertyOp55
 70
     1
102
RTVSPropertyOp56
 70
     1
102
RTVSPropertyOp57
 70
     1
102
RTVSPropertyOp58
 70
     1
102
RTVSPropertyOp59
 70
     1
102
RTVSPropertyOp60
 70
     1
102
RTVSPropertyOp61
 70
     1
102
RTVSPropertyOp62
 70
     1
  0
XRECORD
  5
B53
102
{ACAD_REACTORS
330
B52
102
}
330
B52
100
AcDbXrecord
280
     1
102
RTVSPost2010Prop28
280
     0
102
RTVSPost2010PropOp28
 70
     1
102
RTVSPost2010Prop29
280
     1
102
RTVSPost2010PropOp29
 70
     1
102
RTVSPost2010Prop30
280
     1
102
RTVSPost2010PropOp30
 70
     1
102
RTVSPost2010Prop31
280
     0
102
RTVSPost2010PropOp31
 70
     1
102
RTVSPost2010Prop32
280
     0
102
RTVSPost2010PropOp32
 70
     1
102
RTVSPost2010Prop33
280
     0
102
RTVSPost2010PropOp33
 70
     1
102
RTVSPost2010Prop34
280
     0
102
RTVSPost2010PropOp34
 70
     1
102
RTVSPost2010Prop35
280
     0
102
RTVSPost2010PropOp35
 70
     1
102
RTVSPost2010Prop36
280
     0
102
RTVSPost2010PropOp36
 70
     1
102
RTVSPost2010Prop37
 90
       50
102
RTVSPost2010PropOp37
 70
     1
102
RTVSPost2010Prop38
140
0.0
102
RTVSPost2010PropOp38
 70
     1
102
RTVSPost2010Prop39
140
1.0
102
RTVSPost2010PropOp39
 70
     1
102
RTVSPost2010Prop40
 90
        0
102
RTVSPost2010PropOp40
 70
     1
102
RTVSPost2010Prop41ColorIndex
 90
       18
102
RTVSPost2010Prop41ColorRGB
 90
        0
102
RTVSPost2010PropOp41
 70
     1
102
RTVSPost2010Prop42
 90
       50
102
RTVSPost2010PropOp42
 70
     1
102
RTVSPost2010Prop43
 90
        3
102
RTVSPost2010PropOp43
 70
     1
102
RTVSPost2010Prop44ColorIndex
 90
        5
102
RTVSPost2010Prop44ColorRGB
 90
      255
102
RTVSPost2010PropOp44
 70
     1
102
RTVSPost2010Prop45
280
     0
102
RTVSPost2010PropOp45
 70
     1
102
RTVSPost2010Prop46
 90
       50
102
RTVSPost2010PropOp46
 70
     1
102
RTVSPost2010Prop47
 90
       50
102
RTVSPost2010PropOp47
 70
     1
102
RTVSPost2010Prop48
 90
       50
102
RTVSPost2010PropOp48
 70
     1
102
RTVSPost2010Prop49
280
     0
102
RTVSPost2010PropOp49
 70
     1
102
RTVSPost2010Prop50
 90
       50
102
RTVSPost2010PropOp50
 70
     1
102
RTVSPost2010Prop51ColorIndex
 90
      256
102
RTVSPost2010Prop51ColorRGB
 90
-16777216
102
RTVSPost2010PropOp51
 70
     0
102
RTVSPost2010Prop52
140
1.0
102
RTVSPost2010PropOp52
 70
     0
102
RTVSPost2010Prop53
 90
        2
102
RTVSPost2010PropOp53
 70
     1
102
RTVSPost2010Prop54
  1
strokes_ogs.tif
102
RTVSPost2010PropOp54
 70
     1
102
RTVSPost2010Prop55
280
     0
102
RTVSPost2010PropOp55
 70
     1
102
RTVSPost2010Prop56
140
1.0
102
RTVSPost2010PropOp56
 70
     1
102
RTVSPost2010Prop57
140
1.0
102
RTVSPost2010PropOp57
 70
     1
102
RTVSPropertyOp0
 70
     1
102
RTVSPropertyOp1
 70
     1
102
RTVSPropertyOp2
 70
     1
102
RTVSPropertyOp3
 70
     1
102
RTVSPropertyOp4
 70
     1
102
RTVSPropertyOp5
 70
     1
102
RTVSPropertyOp6
 70
     1
102
RTVSPropertyOp7
 70
     1
102
RTVSPropertyOp8
 70
     1
102
RTVSPropertyOp9
 70
     1
102
RTVSPropertyOp10
 70
     1
102
RTVSPropertyOp11
 70
     1
102
RTVSPropertyOp12
 70
     1
102
RTVSPropertyOp13
 70
     1
102
RTVSPropertyOp14
 70
     1
102
RTVSPropertyOp15
 70
     1
102
RTVSPropertyOp16
 70
     1
102
RTVSPropertyOp17
 70
     1
102
RTVSPropertyOp18
 70
     1
102
RTVSPropertyOp19
 70
     1
102
RTVSPropertyOp20
 70
     1
102
RTVSPropertyOp21
 70
     1
102
RTVSPropertyOp22
 70
     1
102
RTVSPropertyOp23
 70
     1
102
RTVSPropertyOp24
 70
     1
102
RTVSPropertyOp25
 70
     1
102
RTVSPropertyOp26
 70
     1
102
RTVSPropertyOp27
 70
     1
102
RTVSPropertyOp28
 70
     1
102
RTVSPropertyOp29
 70
     1
102
RTVSPropertyOp30
 70
     1
102
RTVSPropertyOp31
 70
     1
102
RTVSPropertyOp32
 70
     1
102
RTVSPropertyOp33
 70
     1
102
RTVSPropertyOp34
 70
     1
102
RTVSPropertyOp35
 70
     1
102
RTVSPropertyOp36
 70
     1
102
RTVSPropertyOp37
 70
     1
102
RTVSPropertyOp38
 70
     1
102
RTVSPropertyOp39
 70
     1
102
RTVSPropertyOp40
 70
     1
102
RTVSPropertyOp41
 70
     1
102
RTVSPropertyOp42
 70
     1
102
RTVSPropertyOp43
 70
     1
102
RTVSPropertyOp44
 70
     1
102
RTVSPropertyOp45
 70
     1
102
RTVSPropertyOp46
 70
     1
102
RTVSPropertyOp47
 70
     1
102
RTVSPropertyOp48
 70
     1
102
RTVSPropertyOp49
 70
     1
102
RTVSPropertyOp50
 70
     1
102
RTVSPropertyOp51
 70
     0
102
RTVSPropertyOp52
 70
     0
102
RTVSPropertyOp53
 70
     1
102
RTVSPropertyOp54
 70
     1
102
RTVSPropertyOp55
 70
     1
102
RTVSPropertyOp56
 70
     1
102
RTVSPropertyOp57
 70
     1
102
RTVSPropertyOp58
 70
     1
102
RTVSPropertyOp59
 70
     1
102
RTVSPropertyOp60
 70
     1
102
RTVSPropertyOp61
 70
     1
102
RTVSPropertyOp62
 70
     1
  0
XRECORD
  5
B57
102
{ACAD_REACTORS
330
B56
102
}
330
B56
100
AcDbXrecord
280
     1
102
RTVSPost2010Prop28
280
     0
102
RTVSPost2010PropOp28
 70
     1
102
RTVSPost2010Prop29
280
     1
102
RTVSPost2010PropOp29
 70
     1
102
RTVSPost2010Prop30
280
     1
102
RTVSPost2010PropOp30
 70
     1
102
RTVSPost2010Prop31
280
     0
102
RTVSPost2010PropOp31
 70
     1
102
RTVSPost2010Prop32
280
     0
102
RTVSPost2010PropOp32
 70
     1
102
RTVSPost2010Prop33
280
     0
102
RTVSPost2010PropOp33
 70
     1
102
RTVSPost2010Prop34
280
     0
102
RTVSPost2010PropOp34
 70
     1
102
RTVSPost2010Prop35
280
     0
102
RTVSPost2010PropOp35
 70
     1
102
RTVSPost2010Prop36
280
     0
102
RTVSPost2010PropOp36
 70
     1
102
RTVSPost2010Prop37
 90
       50
102
RTVSPost2010PropOp37
 70
     1
102
RTVSPost2010Prop38
140
0.0
102
RTVSPost2010PropOp38
 70
     1
102
RTVSPost2010Prop39
140
1.0
102
RTVSPost2010PropOp39
 70
     1
102
RTVSPost2010Prop40
 90
        0
102
RTVSPost2010PropOp40
 70
     1
102
RTVSPost2010Prop41ColorIndex
 90
       18
102
RTVSPost2010Prop41ColorRGB
 90
        0
102
RTVSPost2010PropOp41
 70
     1
102
RTVSPost2010Prop42
 90
       50
102
RTVSPost2010PropOp42
 70
     1
102
RTVSPost2010Prop43
 90
        3
102
RTVSPost2010PropOp43
 70
     1
102
RTVSPost2010Prop44ColorIndex
 90
        5
102
RTVSPost2010Prop44ColorRGB
 90
      255
102
RTVSPost2010PropOp44
 70
     1
102
RTVSPost2010Prop45
280
     0
102
RTVSPost2010PropOp45
 70
     1
102
RTVSPost2010Prop46
 90
       50
102
RTVSPost2010PropOp46
 70
     1
102
RTVSPost2010Prop47
 90
       50
102
RTVSPost2010PropOp47
 70
     1
102
RTVSPost2010Prop48
 90
       50
102
RTVSPost2010PropOp48
 70
     1
102
RTVSPost2010Prop49
280
     0
102
RTVSPost2010PropOp49
 70
     1
102
RTVSPost2010Prop50
 90
       50
102
RTVSPost2010PropOp50
 70
     1
102
RTVSPost2010Prop51ColorIndex
 90
      256
102
RTVSPost2010Prop51ColorRGB
 90
-16777216
102
RTVSPost2010PropOp51
 70
     0
102
RTVSPost2010Prop52
140
1.0
102
RTVSPost2010PropOp52
 70
     0
102
RTVSPost2010Prop53
 90
        2
102
RTVSPost2010PropOp53
 70
     1
102
RTVSPost2010Prop54
  1
strokes_ogs.tif
102
RTVSPost2010PropOp54
 70
     1
102
RTVSPost2010Prop55
280
     0
102
RTVSPost2010PropOp55
 70
     1
102
RTVSPost2010Prop56
140
1.0
102
RTVSPost2010PropOp56
 70
     1
102
RTVSPost2010Prop57
140
1.0
102
RTVSPost2010PropOp57
 70
     1
102
RTVSPropertyOp0
 70
     1
102
RTVSPropertyOp1
 70
     1
102
RTVSPropertyOp2
 70
     1
102
RTVSPropertyOp3
 70
     1
102
RTVSPropertyOp4
 70
     1
102
RTVSPropertyOp5
 70
     1
102
RTVSPropertyOp6
 70
     1
102
RTVSPropertyOp7
 70
     1
102
RTVSPropertyOp8
 70
     1
102
RTVSPropertyOp9
 70
     1
102
RTVSPropertyOp10
 70
     1
102
RTVSPropertyOp11
 70
     1
102
RTVSPropertyOp12
 70
     1
102
RTVSPropertyOp13
 70
     1
102
RTVSPropertyOp14
 70
     1
102
RTVSPropertyOp15
 70
     1
102
RTVSPropertyOp16
 70
     1
102
RTVSPropertyOp17
 70
     1
102
RTVSPropertyOp18
 70
     1
102
RTVSPropertyOp19
 70
     1
102
RTVSPropertyOp20
 70
     1
102
RTVSPropertyOp21
 70
     1
102
RTVSPropertyOp22
 70
     1
102
RTVSPropertyOp23
 70
     1
102
RTVSPropertyOp24
 70
     1
102
RTVSPropertyOp25
 70
     1
102
RTVSPropertyOp26
 70
     1
102
RTVSPropertyOp27
 70
     1
102
RTVSPropertyOp28
 70
     1
102
RTVSPropertyOp29
 70
     1
102
RTVSPropertyOp30
 70
     1
102
RTVSPropertyOp31
 70
     1
102
RTVSPropertyOp32
 70
     1
102
RTVSPropertyOp33
 70
     1
102
RTVSPropertyOp34
 70
     1
102
RTVSPropertyOp35
 70
     1
102
RTVSPropertyOp36
 70
     1
102
RTVSPropertyOp37
 70
     1
102
RTVSPropertyOp38
 70
     1
102
RTVSPropertyOp39
 70
     1
102
RTVSPropertyOp40
 70
     1
102
RTVSPropertyOp41
 70
     1
102
RTVSPropertyOp42
 70
     1
102
RTVSPropertyOp43
 70
     1
102
RTVSPropertyOp44
 70
     1
102
RTVSPropertyOp45
 70
     1
102
RTVSPropertyOp46
 70
     1
102
RTVSPropertyOp47
 70
     1
102
RTVSPropertyOp48
 70
     1
102
RTVSPropertyOp49
 70
     1
102
RTVSPropertyOp50
 70
     1
102
RTVSPropertyOp51
 70
     0
102
RTVSPropertyOp52
 70
     0
102
RTVSPropertyOp53
 70
     1
102
RTVSPropertyOp54
 70
     1
102
RTVSPropertyOp55
 70
     1
102
RTVSPropertyOp56
 70
     1
102
RTVSPropertyOp57
 70
     1
102
RTVSPropertyOp58
 70
     1
102
RTVSPropertyOp59
 70
     1
102
RTVSPropertyOp60
 70
     1
102
RTVSPropertyOp61
 70
     1
102
RTVSPropertyOp62
 70
     1
  0
XRECORD
  5
B71
102
{ACAD_REACTORS
330
B70
102
}
330
B70
100
AcDbXrecord
280
     1
102
RTVSPost2010Prop28
280
     0
102
RTVSPost2010PropOp28
 70
     0
102
RTVSPost2010Prop29
280
     1
102
RTVSPost2010PropOp29
 70
     0
102
RTVSPost2010Prop30
280
     1
102
RTVSPost2010PropOp30
 70
     0
102
RTVSPost2010Prop31
280
     0
102
RTVSPost2010PropOp31
 70
     0
102
RTVSPost2010Prop32
280
     0
102
RTVSPost2010PropOp32
 70
     0
102
RTVSPost2010Prop33
280
     0
102
RTVSPost2010PropOp33
 70
     0
102
RTVSPost2010Prop34
280
     0
102
RTVSPost2010PropOp34
 70
     0
102
RTVSPost2010Prop35
280
     0
102
RTVSPost2010PropOp35
 70
     0
102
RTVSPost2010Prop36
280
     0
102
RTVSPost2010PropOp36
 70
     0
102
RTVSPost2010Prop37
 90
       50
102
RTVSPost2010PropOp37
 70
     0
102
RTVSPost2010Prop38
140
0.0
102
RTVSPost2010PropOp38
 70
     0
102
RTVSPost2010Prop39
140
1.0
102
RTVSPost2010PropOp39
 70
     0
102
RTVSPost2010Prop40
 90
        0
102
RTVSPost2010PropOp40
 70
     0
102
RTVSPost2010Prop41ColorIndex
 90
       18
102
RTVSPost2010Prop41ColorRGB
 90
        0
102
RTVSPost2010PropOp41
 70
     0
102
RTVSPost2010Prop42
 90
       50
102
RTVSPost2010PropOp42
 70
     0
102
RTVSPost2010Prop43
 90
        3
102
RTVSPost2010PropOp43
 70
     0
102
RTVSPost2010Prop44ColorIndex
 90
        5
102
RTVSPost2010Prop44ColorRGB
 90
      255
102
RTVSPost2010PropOp44
 70
     0
102
RTVSPost2010Prop45
280
     0
102
RTVSPost2010PropOp45
 70
     0
102
RTVSPost2010Prop46
 90
       50
102
RTVSPost2010PropOp46
 70
     0
102
RTVSPost2010Prop47
 90
       50
102
RTVSPost2010PropOp47
 70
     0
102
RTVSPost2010Prop48
 90
       50
102
RTVSPost2010PropOp48
 70
     0
102
RTVSPost2010Prop49
280
     0
102
RTVSPost2010PropOp49
 70
     0
102
RTVSPost2010Prop50
 90
       50
102
RTVSPost2010PropOp50
 70
     0
102
RTVSPost2010Prop51ColorIndex
 90
      256
102
RTVSPost2010Prop51ColorRGB
 90
-16777216
102
RTVSPost2010PropOp51
 70
     0
102
RTVSPost2010Prop52
140
1.0
102
RTVSPost2010PropOp52
 70
     0
102
RTVSPost2010Prop53
 90
        2
102
RTVSPost2010PropOp53
 70
     0
102
RTVSPost2010Prop54
  1
strokes_ogs.tif
102
RTVSPost2010PropOp54
 70
     0
102
RTVSPost2010Prop55
280
     0
102
RTVSPost2010PropOp55
 70
     0
102
RTVSPost2010Prop56
140
1.0
102
RTVSPost2010PropOp56
 70
     0
102
RTVSPost2010Prop57
140
1.0
102
RTVSPost2010PropOp57
 70
     0
102
RTVSPropertyOp0
 70
     0
102
RTVSPropertyOp1
 70
     0
102
RTVSPropertyOp2
 70
     0
102
RTVSPropertyOp3
 70
     0
102
RTVSPropertyOp4
 70
     0
102
RTVSPropertyOp5
 70
     0
102
RTVSPropertyOp6
 70
     0
102
RTVSPropertyOp7
 70
     0
102
RTVSPropertyOp8
 70
     0
102
RTVSPropertyOp9
 70
     0
102
RTVSPropertyOp10
 70
     0
102
RTVSPropertyOp11
 70
     0
102
RTVSPropertyOp12
 70
     0
102
RTVSPropertyOp13
 70
     0
102
RTVSPropertyOp14
 70
     2
102
RTVSPropertyOp15
 70
     0
102
RTVSPropertyOp16
 70
     0
102
RTVSPropertyOp17
 70
     0
102
RTVSPropertyOp18
 70
     0
102
RTVSPropertyOp19
 70
     0
102
RTVSPropertyOp20
 70
     0
102
RTVSPropertyOp21
 70
     0
102
RTVSPropertyOp22
 70
     0
102
RTVSPropertyOp23
 70
     0
102
RTVSPropertyOp24
 70
     0
102
RTVSPropertyOp25
 70
     0
102
RTVSPropertyOp26
 70
     0
102
RTVSPropertyOp27
 70
     0
102
RTVSPropertyOp28
 70
     0
102
RTVSPropertyOp29
 70
     0
102
RTVSPropertyOp30
 70
     0
102
RTVSPropertyOp31
 70
     0
102
RTVSPropertyOp32
 70
     0
102
RTVSPropertyOp33
 70
     0
102
RTVSPropertyOp34
 70
     0
102
RTVSPropertyOp35
 70
     0
102
RTVSPropertyOp36
 70
     0
102
RTVSPropertyOp37
 70
     0
102
RTVSPropertyOp38
 70
     0
102
RTVSPropertyOp39
 70
     0
102
RTVSPropertyOp40
 70
     0
102
RTVSPropertyOp41
 70
     0
102
RTVSPropertyOp42
 70
     0
102
RTVSPropertyOp43
 70
     0
102
RTVSPropertyOp44
 70
     0
102
RTVSPropertyOp45
 70
     0
102
RTVSPropertyOp46
 70
     0
102
RTVSPropertyOp47
 70
     0
102
RTVSPropertyOp48
 70
     0
102
RTVSPropertyOp49
 70
     0
102
RTVSPropertyOp50
 70
     0
102
RTVSPropertyOp51
 70
     0
102
RTVSPropertyOp52
 70
     0
102
RTVSPropertyOp53
 70
     0
102
RTVSPropertyOp54
 70
     0
102
RTVSPropertyOp55
 70
     0
102
RTVSPropertyOp56
 70
     0
102
RTVSPropertyOp57
 70
     0
102
RTVSPropertyOp58
 70
     0
102
RTVSPropertyOp59
 70
     0
102
RTVSPropertyOp60
 70
     0
102
RTVSPropertyOp61
 70
     0
102
RTVSPropertyOp62
 70
     0
  0
XRECORD
  5
B5F
102
{ACAD_REACTORS
330
B5E
102
}
330
B5E
100
AcDbXrecord
280
     1
102
RTVSPost2010Prop28
280
     0
102
RTVSPost2010PropOp28
 70
     1
102
RTVSPost2010Prop29
280
     1
102
RTVSPost2010PropOp29
 70
     1
102
RTVSPost2010Prop30
280
     1
102
RTVSPost2010PropOp30
 70
     1
102
RTVSPost2010Prop31
280
     0
102
RTVSPost2010PropOp31
 70
     1
102
RTVSPost2010Prop32
280
     0
102
RTVSPost2010PropOp32
 70
     1
102
RTVSPost2010Prop33
280
     0
102
RTVSPost2010PropOp33
 70
     1
102
RTVSPost2010Prop34
280
     0
102
RTVSPost2010PropOp34
 70
     1
102
RTVSPost2010Prop35
280
     0
102
RTVSPost2010PropOp35
 70
     1
102
RTVSPost2010Prop36
280
     0
102
RTVSPost2010PropOp36
 70
     1
102
RTVSPost2010Prop37
 90
       50
102
RTVSPost2010PropOp37
 70
     1
102
RTVSPost2010Prop38
140
0.0
102
RTVSPost2010PropOp38
 70
     1
102
RTVSPost2010Prop39
140
1.0
102
RTVSPost2010PropOp39
 70
     1
102
RTVSPost2010Prop40
 90
        0
102
RTVSPost2010PropOp40
 70
     1
102
RTVSPost2010Prop41ColorIndex
 90
       18
102
RTVSPost2010Prop41ColorRGB
 90
        0
102
RTVSPost2010PropOp41
 70
     1
102
RTVSPost2010Prop42
 90
       50
102
RTVSPost2010PropOp42
 70
     1
102
RTVSPost2010Prop43
 90
        3
102
RTVSPost2010PropOp43
 70
     1
102
RTVSPost2010Prop44ColorIndex
 90
        5
102
RTVSPost2010Prop44ColorRGB
 90
      255
102
RTVSPost2010PropOp44
 70
     1
102
RTVSPost2010Prop45
280
     0
102
RTVSPost2010PropOp45
 70
     1
102
RTVSPost2010Prop46
 90
       50
102
RTVSPost2010PropOp46
 70
     1
102
RTVSPost2010Prop47
 90
       50
102
RTVSPost2010PropOp47
 70
     1
102
RTVSPost2010Prop48
 90
       50
102
RTVSPost2010PropOp48
 70
     1
102
RTVSPost2010Prop49
280
     0
102
RTVSPost2010PropOp49
 70
     1
102
RTVSPost2010Prop50
 90
       50
102
RTVSPost2010PropOp50
 70
     1
102
RTVSPost2010Prop51ColorIndex
 90
      256
102
RTVSPost2010Prop51ColorRGB
 90
-16777216
102
RTVSPost2010PropOp51
 70
     0
102
RTVSPost2010Prop52
140
1.0
102
RTVSPost2010PropOp52
 70
     0
102
RTVSPost2010Prop53
 90
        2
102
RTVSPost2010PropOp53
 70
     1
102
RTVSPost2010Prop54
  1
strokes_ogs.tif
102
RTVSPost2010PropOp54
 70
     1
102
RTVSPost2010Prop55
280
     0
102
RTVSPost2010PropOp55
 70
     1
102
RTVSPost2010Prop56
140
1.0
102
RTVSPost2010PropOp56
 70
     1
102
RTVSPost2010Prop57
140
1.0
102
RTVSPost2010PropOp57
 70
     1
102
RTVSPropertyOp0
 70
     1
102
RTVSPropertyOp1
 70
     1
102
RTVSPropertyOp2
 70
     1
102
RTVSPropertyOp3
 70
     1
102
RTVSPropertyOp4
 70
     1
102
RTVSPropertyOp5
 70
     1
102
RTVSPropertyOp6
 70
     1
102
RTVSPropertyOp7
 70
     1
102
RTVSPropertyOp8
 70
     1
102
RTVSPropertyOp9
 70
     1
102
RTVSPropertyOp10
 70
     1
102
RTVSPropertyOp11
 70
     1
102
RTVSPropertyOp12
 70
     1
102
RTVSPropertyOp13
 70
     1
102
RTVSPropertyOp14
 70
     1
102
RTVSPropertyOp15
 70
     1
102
RTVSPropertyOp16
 70
     1
102
RTVSPropertyOp17
 70
     1
102
RTVSPropertyOp18
 70
     1
102
RTVSPropertyOp19
 70
     1
102
RTVSPropertyOp20
 70
     1
102
RTVSPropertyOp21
 70
     1
102
RTVSPropertyOp22
 70
     1
102
RTVSPropertyOp23
 70
     1
102
RTVSPropertyOp24
 70
     1
102
RTVSPropertyOp25
 70
     1
102
RTVSPropertyOp26
 70
     1
102
RTVSPropertyOp27
 70
     1
102
RTVSPropertyOp28
 70
     1
102
RTVSPropertyOp29
 70
     1
102
RTVSPropertyOp30
 70
     1
102
RTVSPropertyOp31
 70
     1
102
RTVSPropertyOp32
 70
     1
102
RTVSPropertyOp33
 70
     1
102
RTVSPropertyOp34
 70
     1
102
RTVSPropertyOp35
 70
     1
102
RTVSPropertyOp36
 70
     1
102
RTVSPropertyOp37
 70
     1
102
RTVSPropertyOp38
 70
     1
102
RTVSPropertyOp39
 70
     1
102
RTVSPropertyOp40
 70
     1
102
RTVSPropertyOp41
 70
     1
102
RTVSPropertyOp42
 70
     1
102
RTVSPropertyOp43
 70
     1
102
RTVSPropertyOp44
 70
     1
102
RTVSPropertyOp45
 70
     1
102
RTVSPropertyOp46
 70
     1
102
RTVSPropertyOp47
 70
     1
102
RTVSPropertyOp48
 70
     1
102
RTVSPropertyOp49
 70
     1
102
RTVSPropertyOp50
 70
     1
102
RTVSPropertyOp51
 70
     0
102
RTVSPropertyOp52
 70
     0
102
RTVSPropertyOp53
 70
     1
102
RTVSPropertyOp54
 70
     1
102
RTVSPropertyOp55
 70
     1
102
RTVSPropertyOp56
 70
     1
102
RTVSPropertyOp57
 70
     1
102
RTVSPropertyOp58
 70
     1
102
RTVSPropertyOp59
 70
     1
102
RTVSPropertyOp60
 70
     1
102
RTVSPropertyOp61
 70
     1
102
RTVSPropertyOp62
 70
     1
  0
XRECORD
  5
B43
102
{ACAD_REACTORS
330
B42
102
}
330
B42
100
AcDbXrecord
280
     1
102
RTVSPost2010Prop28
280
     0
102
RTVSPost2010PropOp28
 70
     1
102
RTVSPost2010Prop29
280
     1
102
RTVSPost2010PropOp29
 70
     1
102
RTVSPost2010Prop30
280
     1
102
RTVSPost2010PropOp30
 70
     1
102
RTVSPost2010Prop31
280
     0
102
RTVSPost2010PropOp31
 70
     1
102
RTVSPost2010Prop32
280
     0
102
RTVSPost2010PropOp32
 70
     1
102
RTVSPost2010Prop33
280
     0
102
RTVSPost2010PropOp33
 70
     1
102
RTVSPost2010Prop34
280
     0
102
RTVSPost2010PropOp34
 70
     1
102
RTVSPost2010Prop35
280
     0
102
RTVSPost2010PropOp35
 70
     1
102
RTVSPost2010Prop36
280
     0
102
RTVSPost2010PropOp36
 70
     1
102
RTVSPost2010Prop37
 90
       50
102
RTVSPost2010PropOp37
 70
     1
102
RTVSPost2010Prop38
140
0.0
102
RTVSPost2010PropOp38
 70
     1
102
RTVSPost2010Prop39
140
1.0
102
RTVSPost2010PropOp39
 70
     1
102
RTVSPost2010Prop40
 90
        0
102
RTVSPost2010PropOp40
 70
     1
102
RTVSPost2010Prop41ColorIndex
 90
       18
102
RTVSPost2010Prop41ColorRGB
 90
        0
102
RTVSPost2010PropOp41
 70
     1
102
RTVSPost2010Prop42
 90
       50
102
RTVSPost2010PropOp42
 70
     1
102
RTVSPost2010Prop43
 90
        3
102
RTVSPost2010PropOp43
 70
     1
102
RTVSPost2010Prop44ColorIndex
 90
        5
102
RTVSPost2010Prop44ColorRGB
 90
      255
102
RTVSPost2010PropOp44
 70
     1
102
RTVSPost2010Prop45
280
     0
102
RTVSPost2010PropOp45
 70
     1
102
RTVSPost2010Prop46
 90
       50
102
RTVSPost2010PropOp46
 70
     1
102
RTVSPost2010Prop47
 90
       50
102
RTVSPost2010PropOp47
 70
     1
102
RTVSPost2010Prop48
 90
       50
102
RTVSPost2010PropOp48
 70
     1
102
RTVSPost2010Prop49
280
     0
102
RTVSPost2010PropOp49
 70
     1
102
RTVSPost2010Prop50
 90
       50
102
RTVSPost2010PropOp50
 70
     1
102
RTVSPost2010Prop51ColorIndex
 90
      256
102
RTVSPost2010Prop51ColorRGB
 90
-16777216
102
RTVSPost2010PropOp51
 70
     0
102
RTVSPost2010Prop52
140
1.0
102
RTVSPost2010PropOp52
 70
     0
102
RTVSPost2010Prop53
 90
        2
102
RTVSPost2010PropOp53
 70
     1
102
RTVSPost2010Prop54
  1
strokes_ogs.tif
102
RTVSPost2010PropOp54
 70
     1
102
RTVSPost2010Prop55
280
     0
102
RTVSPost2010PropOp55
 70
     1
102
RTVSPost2010Prop56
140
1.0
102
RTVSPost2010PropOp56
 70
     1
102
RTVSPost2010Prop57
140
1.0
102
RTVSPost2010PropOp57
 70
     1
102
RTVSPropertyOp0
 70
     1
102
RTVSPropertyOp1
 70
     1
102
RTVSPropertyOp2
 70
     1
102
RTVSPropertyOp3
 70
     1
102
RTVSPropertyOp4
 70
     1
102
RTVSPropertyOp5
 70
     1
102
RTVSPropertyOp6
 70
     1
102
RTVSPropertyOp7
 70
     1
102
RTVSPropertyOp8
 70
     1
102
RTVSPropertyOp9
 70
     1
102
RTVSPropertyOp10
 70
     1
102
RTVSPropertyOp11
 70
     1
102
RTVSPropertyOp12
 70
     1
102
RTVSPropertyOp13
 70
     1
102
RTVSPropertyOp14
 70
     1
102
RTVSPropertyOp15
 70
     1
102
RTVSPropertyOp16
 70
     1
102
RTVSPropertyOp17
 70
     1
102
RTVSPropertyOp18
 70
     1
102
RTVSPropertyOp19
 70
     1
102
RTVSPropertyOp20
 70
     1
102
RTVSPropertyOp21
 70
     1
102
RTVSPropertyOp22
 70
     1
102
RTVSPropertyOp23
 70
     1
102
RTVSPropertyOp24
 70
     1
102
RTVSPropertyOp25
 70
     1
102
RTVSPropertyOp26
 70
     1
102
RTVSPropertyOp27
 70
     1
102
RTVSPropertyOp28
 70
     1
102
RTVSPropertyOp29
 70
     1
102
RTVSPropertyOp30
 70
     1
102
RTVSPropertyOp31
 70
     1
102
RTVSPropertyOp32
 70
     1
102
RTVSPropertyOp33
 70
     1
102
RTVSPropertyOp34
 70
     1
102
RTVSPropertyOp35
 70
     1
102
RTVSPropertyOp36
 70
     1
102
RTVSPropertyOp37
 70
     1
102
RTVSPropertyOp38
 70
     1
102
RTVSPropertyOp39
 70
     1
102
RTVSPropertyOp40
 70
     1
102
RTVSPropertyOp41
 70
     1
102
RTVSPropertyOp42
 70
     1
102
RTVSPropertyOp43
 70
     1
102
RTVSPropertyOp44
 70
     1
102
RTVSPropertyOp45
 70
     1
102
RTVSPropertyOp46
 70
     1
102
RTVSPropertyOp47
 70
     1
102
RTVSPropertyOp48
 70
     1
102
RTVSPropertyOp49
 70
     1
102
RTVSPropertyOp50
 70
     1
102
RTVSPropertyOp51
 70
     0
102
RTVSPropertyOp52
 70
     0
102
RTVSPropertyOp53
 70
     1
102
RTVSPropertyOp54
 70
     1
102
RTVSPropertyOp55
 70
     1
102
RTVSPropertyOp56
 70
     1
102
RTVSPropertyOp57
 70
     1
102
RTVSPropertyOp58
 70
     1
102
RTVSPropertyOp59
 70
     1
102
RTVSPropertyOp60
 70
     1
102
RTVSPropertyOp61
 70
     1
102
RTVSPropertyOp62
 70
     1
  0
XRECORD
  5
B45
102
{ACAD_REACTORS
330
B44
102
}
330
B44
100
AcDbXrecord
280
     1
102
RTVSPost2010Prop28
280
     0
102
RTVSPost2010PropOp28
 70
     1
102
RTVSPost2010Prop29
280
     1
102
RTVSPost2010PropOp29
 70
     1
102
RTVSPost2010Prop30
280
     1
102
RTVSPost2010PropOp30
 70
     1
102
RTVSPost2010Prop31
280
     0
102
RTVSPost2010PropOp31
 70
     1
102
RTVSPost2010Prop32
280
     0
102
RTVSPost2010PropOp32
 70
     1
102
RTVSPost2010Prop33
280
     0
102
RTVSPost2010PropOp33
 70
     1
102
RTVSPost2010Prop34
280
     0
102
RTVSPost2010PropOp34
 70
     1
102
RTVSPost2010Prop35
280
     0
102
RTVSPost2010PropOp35
 70
     1
102
RTVSPost2010Prop36
280
     0
102
RTVSPost2010PropOp36
 70
     1
102
RTVSPost2010Prop37
 90
       50
102
RTVSPost2010PropOp37
 70
     1
102
RTVSPost2010Prop38
140
0.0
102
RTVSPost2010PropOp38
 70
     1
102
RTVSPost2010Prop39
140
1.0
102
RTVSPost2010PropOp39
 70
     1
102
RTVSPost2010Prop40
 90
        0
102
RTVSPost2010PropOp40
 70
     1
102
RTVSPost2010Prop41ColorIndex
 90
       18
102
RTVSPost2010Prop41ColorRGB
 90
        0
102
RTVSPost2010PropOp41
 70
     1
102
RTVSPost2010Prop42
 90
       50
102
RTVSPost2010PropOp42
 70
     1
102
RTVSPost2010Prop43
 90
        3
102
RTVSPost2010PropOp43
 70
     1
102
RTVSPost2010Prop44ColorIndex
 90
        5
102
RTVSPost2010Prop44ColorRGB
 90
      255
102
RTVSPost2010PropOp44
 70
     1
102
RTVSPost2010Prop45
280
     0
102
RTVSPost2010PropOp45
 70
     1
102
RTVSPost2010Prop46
 90
       50
102
RTVSPost2010PropOp46
 70
     1
102
RTVSPost2010Prop47
 90
       50
102
RTVSPost2010PropOp47
 70
     1
102
RTVSPost2010Prop48
 90
       50
102
RTVSPost2010PropOp48
 70
     1
102
RTVSPost2010Prop49
280
     0
102
RTVSPost2010PropOp49
 70
     1
102
RTVSPost2010Prop50
 90
       50
102
RTVSPost2010PropOp50
 70
     1
102
RTVSPost2010Prop51ColorIndex
 90
      256
102
RTVSPost2010Prop51ColorRGB
 90
-16777216
102
RTVSPost2010PropOp51
 70
     0
102
RTVSPost2010Prop52
140
1.0
102
RTVSPost2010PropOp52
 70
     0
102
RTVSPost2010Prop53
 90
        2
102
RTVSPost2010PropOp53
 70
     1
102
RTVSPost2010Prop54
  1
strokes_ogs.tif
102
RTVSPost2010PropOp54
 70
     1
102
RTVSPost2010Prop55
280
     0
102
RTVSPost2010PropOp55
 70
     1
102
RTVSPost2010Prop56
140
1.0
102
RTVSPost2010PropOp56
 70
     1
102
RTVSPost2010Prop57
140
1.0
102
RTVSPost2010PropOp57
 70
     1
102
RTVSPropertyOp0
 70
     1
102
RTVSPropertyOp1
 70
     1
102
RTVSPropertyOp2
 70
     1
102
RTVSPropertyOp3
 70
     1
102
RTVSPropertyOp4
 70
     1
102
RTVSPropertyOp5
 70
     1
102
RTVSPropertyOp6
 70
     1
102
RTVSPropertyOp7
 70
     1
102
RTVSPropertyOp8
 70
     1
102
RTVSPropertyOp9
 70
     1
102
RTVSPropertyOp10
 70
     1
102
RTVSPropertyOp11
 70
     1
102
RTVSPropertyOp12
 70
     1
102
RTVSPropertyOp13
 70
     1
102
RTVSPropertyOp14
 70
     1
102
RTVSPropertyOp15
 70
     1
102
RTVSPropertyOp16
 70
     1
102
RTVSPropertyOp17
 70
     1
102
RTVSPropertyOp18
 70
     1
102
RTVSPropertyOp19
 70
     1
102
RTVSPropertyOp20
 70
     1
102
RTVSPropertyOp21
 70
     1
102
RTVSPropertyOp22
 70
     1
102
RTVSPropertyOp23
 70
     1
102
RTVSPropertyOp24
 70
     1
102
RTVSPropertyOp25
 70
     1
102
RTVSPropertyOp26
 70
     1
102
RTVSPropertyOp27
 70
     1
102
RTVSPropertyOp28
 70
     1
102
RTVSPropertyOp29
 70
     1
102
RTVSPropertyOp30
 70
     1
102
RTVSPropertyOp31
 70
     1
102
RTVSPropertyOp32
 70
     1
102
RTVSPropertyOp33
 70
     1
102
RTVSPropertyOp34
 70
     1
102
RTVSPropertyOp35
 70
     1
102
RTVSPropertyOp36
 70
     1
102
RTVSPropertyOp37
 70
     1
102
RTVSPropertyOp38
 70
     1
102
RTVSPropertyOp39
 70
     1
102
RTVSPropertyOp40
 70
     1
102
RTVSPropertyOp41
 70
     1
102
RTVSPropertyOp42
 70
     1
102
RTVSPropertyOp43
 70
     1
102
RTVSPropertyOp44
 70
     1
102
RTVSPropertyOp45
 70
     1
102
RTVSPropertyOp46
 70
     1
102
RTVSPropertyOp47
 70
     1
102
RTVSPropertyOp48
 70
     1
102
RTVSPropertyOp49
 70
     1
102
RTVSPropertyOp50
 70
     1
102
RTVSPropertyOp51
 70
     0
102
RTVSPropertyOp52
 70
     0
102
RTVSPropertyOp53
 70
     1
102
RTVSPropertyOp54
 70
     1
102
RTVSPropertyOp55
 70
     1
102
RTVSPropertyOp56
 70
     1
102
RTVSPropertyOp57
 70
     1
102
RTVSPropertyOp58
 70
     1
102
RTVSPropertyOp59
 70
     1
102
RTVSPropertyOp60
 70
     1
102
RTVSPropertyOp61
 70
     1
102
RTVSPropertyOp62
 70
     1
  0
XRECORD
  5
B47
102
{ACAD_REACTORS
330
B46
102
}
330
B46
100
AcDbXrecord
280
     1
102
RTVSPost2010Prop28
280
     0
102
RTVSPost2010PropOp28
 70
     1
102
RTVSPost2010Prop29
280
     1
102
RTVSPost2010PropOp29
 70
     1
102
RTVSPost2010Prop30
280
     1
102
RTVSPost2010PropOp30
 70
     1
102
RTVSPost2010Prop31
280
     0
102
RTVSPost2010PropOp31
 70
     1
102
RTVSPost2010Prop32
280
     0
102
RTVSPost2010PropOp32
 70
     1
102
RTVSPost2010Prop33
280
     0
102
RTVSPost2010PropOp33
 70
     1
102
RTVSPost2010Prop34
280
     0
102
RTVSPost2010PropOp34
 70
     1
102
RTVSPost2010Prop35
280
     0
102
RTVSPost2010PropOp35
 70
     1
102
RTVSPost2010Prop36
280
     0
102
RTVSPost2010PropOp36
 70
     1
102
RTVSPost2010Prop37
 90
       50
102
RTVSPost2010PropOp37
 70
     1
102
RTVSPost2010Prop38
140
0.0
102
RTVSPost2010PropOp38
 70
     1
102
RTVSPost2010Prop39
140
1.0
102
RTVSPost2010PropOp39
 70
     1
102
RTVSPost2010Prop40
 90
        0
102
RTVSPost2010PropOp40
 70
     1
102
RTVSPost2010Prop41ColorIndex
 90
       18
102
RTVSPost2010Prop41ColorRGB
 90
        0
102
RTVSPost2010PropOp41
 70
     1
102
RTVSPost2010Prop42
 90
       50
102
RTVSPost2010PropOp42
 70
     1
102
RTVSPost2010Prop43
 90
        3
102
RTVSPost2010PropOp43
 70
     1
102
RTVSPost2010Prop44ColorIndex
 90
        5
102
RTVSPost2010Prop44ColorRGB
 90
      255
102
RTVSPost2010PropOp44
 70
     1
102
RTVSPost2010Prop45
280
     0
102
RTVSPost2010PropOp45
 70
     1
102
RTVSPost2010Prop46
 90
       50
102
RTVSPost2010PropOp46
 70
     1
102
RTVSPost2010Prop47
 90
       50
102
RTVSPost2010PropOp47
 70
     1
102
RTVSPost2010Prop48
 90
       50
102
RTVSPost2010PropOp48
 70
     1
102
RTVSPost2010Prop49
280
     0
102
RTVSPost2010PropOp49
 70
     1
102
RTVSPost2010Prop50
 90
       50
102
RTVSPost2010PropOp50
 70
     1
102
RTVSPost2010Prop51ColorIndex
 90
      256
102
RTVSPost2010Prop51ColorRGB
 90
-16777216
102
RTVSPost2010PropOp51
 70
     0
102
RTVSPost2010Prop52
140
1.0
102
RTVSPost2010PropOp52
 70
     0
102
RTVSPost2010Prop53
 90
        2
102
RTVSPost2010PropOp53
 70
     1
102
RTVSPost2010Prop54
  1
strokes_ogs.tif
102
RTVSPost2010PropOp54
 70
     1
102
RTVSPost2010Prop55
280
     0
102
RTVSPost2010PropOp55
 70
     1
102
RTVSPost2010Prop56
140
1.0
102
RTVSPost2010PropOp56
 70
     1
102
RTVSPost2010Prop57
140
1.0
102
RTVSPost2010PropOp57
 70
     1
102
RTVSPropertyOp0
 70
     1
102
RTVSPropertyOp1
 70
     1
102
RTVSPropertyOp2
 70
     1
102
RTVSPropertyOp3
 70
     1
102
RTVSPropertyOp4
 70
     1
102
RTVSPropertyOp5
 70
     1
102
RTVSPropertyOp6
 70
     1
102
RTVSPropertyOp7
 70
     1
102
RTVSPropertyOp8
 70
     1
102
RTVSPropertyOp9
 70
     1
102
RTVSPropertyOp10
 70
     1
102
RTVSPropertyOp11
 70
     1
102
RTVSPropertyOp12
 70
     1
102
RTVSPropertyOp13
 70
     1
102
RTVSPropertyOp14
 70
     1
102
RTVSPropertyOp15
 70
     1
102
RTVSPropertyOp16
 70
     1
102
RTVSPropertyOp17
 70
     1
102
RTVSPropertyOp18
 70
     1
102
RTVSPropertyOp19
 70
     1
102
RTVSPropertyOp20
 70
     1
102
RTVSPropertyOp21
 70
     1
102
RTVSPropertyOp22
 70
     1
102
RTVSPropertyOp23
 70
     1
102
RTVSPropertyOp24
 70
     1
102
RTVSPropertyOp25
 70
     1
102
RTVSPropertyOp26
 70
     1
102
RTVSPropertyOp27
 70
     1
102
RTVSPropertyOp28
 70
     1
102
RTVSPropertyOp29
 70
     1
102
RTVSPropertyOp30
 70
     1
102
RTVSPropertyOp31
 70
     1
102
RTVSPropertyOp32
 70
     1
102
RTVSPropertyOp33
 70
     1
102
RTVSPropertyOp34
 70
     1
102
RTVSPropertyOp35
 70
     1
102
RTVSPropertyOp36
 70
     1
102
RTVSPropertyOp37
 70
     1
102
RTVSPropertyOp38
 70
     1
102
RTVSPropertyOp39
 70
     1
102
RTVSPropertyOp40
 70
     1
102
RTVSPropertyOp41
 70
     1
102
RTVSPropertyOp42
 70
     1
102
RTVSPropertyOp43
 70
     1
102
RTVSPropertyOp44
 70
     1
102
RTVSPropertyOp45
 70
     1
102
RTVSPropertyOp46
 70
     1
102
RTVSPropertyOp47
 70
     1
102
RTVSPropertyOp48
 70
     1
102
RTVSPropertyOp49
 70
     1
102
RTVSPropertyOp50
 70
     1
102
RTVSPropertyOp51
 70
     0
102
RTVSPropertyOp52
 70
     0
102
RTVSPropertyOp53
 70
     1
102
RTVSPropertyOp54
 70
     1
102
RTVSPropertyOp55
 70
     1
102
RTVSPropertyOp56
 70
     1
102
RTVSPropertyOp57
 70
     1
102
RTVSPropertyOp58
 70
     1
102
RTVSPropertyOp59
 70
     1
102
RTVSPropertyOp60
 70
     1
102
RTVSPropertyOp61
 70
     1
102
RTVSPropertyOp62
 70
     1
  0
XRECORD
  5
B49
102
{ACAD_REACTORS
330
B48
102
}
330
B48
100
AcDbXrecord
280
     1
102
RTVSPost2010Prop28
280
     0
102
RTVSPost2010PropOp28
 70
     1
102
RTVSPost2010Prop29
280
     1
102
RTVSPost2010PropOp29
 70
     1
102
RTVSPost2010Prop30
280
     1
102
RTVSPost2010PropOp30
 70
     1
102
RTVSPost2010Prop31
280
     0
102
RTVSPost2010PropOp31
 70
     1
102
RTVSPost2010Prop32
280
     0
102
RTVSPost2010PropOp32
 70
     1
102
RTVSPost2010Prop33
280
     0
102
RTVSPost2010PropOp33
 70
     1
102
RTVSPost2010Prop34
280
     0
102
RTVSPost2010PropOp34
 70
     1
102
RTVSPost2010Prop35
280
     0
102
RTVSPost2010PropOp35
 70
     1
102
RTVSPost2010Prop36
280
     0
102
RTVSPost2010PropOp36
 70
     1
102
RTVSPost2010Prop37
 90
       50
102
RTVSPost2010PropOp37
 70
     1
102
RTVSPost2010Prop38
140
0.0
102
RTVSPost2010PropOp38
 70
     1
102
RTVSPost2010Prop39
140
1.0
102
RTVSPost2010PropOp39
 70
     1
102
RTVSPost2010Prop40
 90
        0
102
RTVSPost2010PropOp40
 70
     1
102
RTVSPost2010Prop41ColorIndex
 90
       18
102
RTVSPost2010Prop41ColorRGB
 90
        0
102
RTVSPost2010PropOp41
 70
     1
102
RTVSPost2010Prop42
 90
       50
102
RTVSPost2010PropOp42
 70
     1
102
RTVSPost2010Prop43
 90
        3
102
RTVSPost2010PropOp43
 70
     1
102
RTVSPost2010Prop44ColorIndex
 90
        5
102
RTVSPost2010Prop44ColorRGB
 90
      255
102
RTVSPost2010PropOp44
 70
     1
102
RTVSPost2010Prop45
280
     0
102
RTVSPost2010PropOp45
 70
     1
102
RTVSPost2010Prop46
 90
       50
102
RTVSPost2010PropOp46
 70
     1
102
RTVSPost2010Prop47
 90
       50
102
RTVSPost2010PropOp47
 70
     1
102
RTVSPost2010Prop48
 90
       50
102
RTVSPost2010PropOp48
 70
     1
102
RTVSPost2010Prop49
280
     0
102
RTVSPost2010PropOp49
 70
     1
102
RTVSPost2010Prop50
 90
       50
102
RTVSPost2010PropOp50
 70
     1
102
RTVSPost2010Prop51ColorIndex
 90
      256
102
RTVSPost2010Prop51ColorRGB
 90
-16777216
102
RTVSPost2010PropOp51
 70
     0
102
RTVSPost2010Prop52
140
1.0
102
RTVSPost2010PropOp52
 70
     0
102
RTVSPost2010Prop53
 90
        2
102
RTVSPost2010PropOp53
 70
     1
102
RTVSPost2010Prop54
  1
strokes_ogs.tif
102
RTVSPost2010PropOp54
 70
     1
102
RTVSPost2010Prop55
280
     0
102
RTVSPost2010PropOp55
 70
     1
102
RTVSPost2010Prop56
140
1.0
102
RTVSPost2010PropOp56
 70
     1
102
RTVSPost2010Prop57
140
1.0
102
RTVSPost2010PropOp57
 70
     1
102
RTVSPropertyOp0
 70
     1
102
RTVSPropertyOp1
 70
     1
102
RTVSPropertyOp2
 70
     1
102
RTVSPropertyOp3
 70
     1
102
RTVSPropertyOp4
 70
     1
102
RTVSPropertyOp5
 70
     1
102
RTVSPropertyOp6
 70
     1
102
RTVSPropertyOp7
 70
     1
102
RTVSPropertyOp8
 70
     1
102
RTVSPropertyOp9
 70
     1
102
RTVSPropertyOp10
 70
     1
102
RTVSPropertyOp11
 70
     1
102
RTVSPropertyOp12
 70
     1
102
RTVSPropertyOp13
 70
     1
102
RTVSPropertyOp14
 70
     1
102
RTVSPropertyOp15
 70
     1
102
RTVSPropertyOp16
 70
     1
102
RTVSPropertyOp17
 70
     1
102
RTVSPropertyOp18
 70
     1
102
RTVSPropertyOp19
 70
     1
102
RTVSPropertyOp20
 70
     1
102
RTVSPropertyOp21
 70
     1
102
RTVSPropertyOp22
 70
     1
102
RTVSPropertyOp23
 70
     1
102
RTVSPropertyOp24
 70
     1
102
RTVSPropertyOp25
 70
     1
102
RTVSPropertyOp26
 70
     1
102
RTVSPropertyOp27
 70
     1
102
RTVSPropertyOp28
 70
     1
102
RTVSPropertyOp29
 70
     1
102
RTVSPropertyOp30
 70
     1
102
RTVSPropertyOp31
 70
     1
102
RTVSPropertyOp32
 70
     1
102
RTVSPropertyOp33
 70
     1
102
RTVSPropertyOp34
 70
     1
102
RTVSPropertyOp35
 70
     1
102
RTVSPropertyOp36
 70
     1
102
RTVSPropertyOp37
 70
     1
102
RTVSPropertyOp38
 70
     1
102
RTVSPropertyOp39
 70
     1
102
RTVSPropertyOp40
 70
     1
102
RTVSPropertyOp41
 70
     1
102
RTVSPropertyOp42
 70
     1
102
RTVSPropertyOp43
 70
     1
102
RTVSPropertyOp44
 70
     1
102
RTVSPropertyOp45
 70
     1
102
RTVSPropertyOp46
 70
     1
102
RTVSPropertyOp47
 70
     1
102
RTVSPropertyOp48
 70
     1
102
RTVSPropertyOp49
 70
     1
102
RTVSPropertyOp50
 70
     1
102
RTVSPropertyOp51
 70
     0
102
RTVSPropertyOp52
 70
     0
102
RTVSPropertyOp53
 70
     1
102
RTVSPropertyOp54
 70
     1
102
RTVSPropertyOp55
 70
     1
102
RTVSPropertyOp56
 70
     1
102
RTVSPropertyOp57
 70
     1
102
RTVSPropertyOp58
 70
     1
102
RTVSPropertyOp59
 70
     1
102
RTVSPropertyOp60
 70
     1
102
RTVSPropertyOp61
 70
     1
102
RTVSPropertyOp62
 70
     1
  0
XRECORD
  5
B51
102
{ACAD_REACTORS
330
B50
102
}
330
B50
100
AcDbXrecord
280
     1
102
RTVSPost2010Prop28
280
     0
102
RTVSPost2010PropOp28
 70
     1
102
RTVSPost2010Prop29
280
     1
102
RTVSPost2010PropOp29
 70
     1
102
RTVSPost2010Prop30
280
     1
102
RTVSPost2010PropOp30
 70
     1
102
RTVSPost2010Prop31
280
     0
102
RTVSPost2010PropOp31
 70
     1
102
RTVSPost2010Prop32
280
     0
102
RTVSPost2010PropOp32
 70
     1
102
RTVSPost2010Prop33
280
     0
102
RTVSPost2010PropOp33
 70
     1
102
RTVSPost2010Prop34
280
     0
102
RTVSPost2010PropOp34
 70
     1
102
RTVSPost2010Prop35
280
     0
102
RTVSPost2010PropOp35
 70
     1
102
RTVSPost2010Prop36
280
     0
102
RTVSPost2010PropOp36
 70
     1
102
RTVSPost2010Prop37
 90
       50
102
RTVSPost2010PropOp37
 70
     1
102
RTVSPost2010Prop38
140
0.0
102
RTVSPost2010PropOp38
 70
     1
102
RTVSPost2010Prop39
140
1.0
102
RTVSPost2010PropOp39
 70
     1
102
RTVSPost2010Prop40
 90
        0
102
RTVSPost2010PropOp40
 70
     1
102
RTVSPost2010Prop41ColorIndex
 90
       18
102
RTVSPost2010Prop41ColorRGB
 90
        0
102
RTVSPost2010PropOp41
 70
     1
102
RTVSPost2010Prop42
 90
       50
102
RTVSPost2010PropOp42
 70
     1
102
RTVSPost2010Prop43
 90
        3
102
RTVSPost2010PropOp43
 70
     1
102
RTVSPost2010Prop44ColorIndex
 90
        5
102
RTVSPost2010Prop44ColorRGB
 90
      255
102
RTVSPost2010PropOp44
 70
     1
102
RTVSPost2010Prop45
280
     0
102
RTVSPost2010PropOp45
 70
     1
102
RTVSPost2010Prop46
 90
       50
102
RTVSPost2010PropOp46
 70
     1
102
RTVSPost2010Prop47
 90
       50
102
RTVSPost2010PropOp47
 70
     1
102
RTVSPost2010Prop48
 90
       50
102
RTVSPost2010PropOp48
 70
     1
102
RTVSPost2010Prop49
280
     0
102
RTVSPost2010PropOp49
 70
     1
102
RTVSPost2010Prop50
 90
       50
102
RTVSPost2010PropOp50
 70
     1
102
RTVSPost2010Prop51ColorIndex
 90
      256
102
RTVSPost2010Prop51ColorRGB
 90
-16777216
102
RTVSPost2010PropOp51
 70
     0
102
RTVSPost2010Prop52
140
1.0
102
RTVSPost2010PropOp52
 70
     0
102
RTVSPost2010Prop53
 90
        2
102
RTVSPost2010PropOp53
 70
     1
102
RTVSPost2010Prop54
  1
strokes_ogs.tif
102
RTVSPost2010PropOp54
 70
     1
102
RTVSPost2010Prop55
280
     0
102
RTVSPost2010PropOp55
 70
     1
102
RTVSPost2010Prop56
140
1.0
102
RTVSPost2010PropOp56
 70
     1
102
RTVSPost2010Prop57
140
1.0
102
RTVSPost2010PropOp57
 70
     1
102
RTVSPropertyOp0
 70
     1
102
RTVSPropertyOp1
 70
     1
102
RTVSPropertyOp2
 70
     1
102
RTVSPropertyOp3
 70
     1
102
RTVSPropertyOp4
 70
     1
102
RTVSPropertyOp5
 70
     1
102
RTVSPropertyOp6
 70
     1
102
RTVSPropertyOp7
 70
     1
102
RTVSPropertyOp8
 70
     1
102
RTVSPropertyOp9
 70
     1
102
RTVSPropertyOp10
 70
     1
102
RTVSPropertyOp11
 70
     1
102
RTVSPropertyOp12
 70
     1
102
RTVSPropertyOp13
 70
     1
102
RTVSPropertyOp14
 70
     1
102
RTVSPropertyOp15
 70
     1
102
RTVSPropertyOp16
 70
     1
102
RTVSPropertyOp17
 70
     1
102
RTVSPropertyOp18
 70
     1
102
RTVSPropertyOp19
 70
     1
102
RTVSPropertyOp20
 70
     1
102
RTVSPropertyOp21
 70
     1
102
RTVSPropertyOp22
 70
     1
102
RTVSPropertyOp23
 70
     1
102
RTVSPropertyOp24
 70
     1
102
RTVSPropertyOp25
 70
     1
102
RTVSPropertyOp26
 70
     1
102
RTVSPropertyOp27
 70
     1
102
RTVSPropertyOp28
 70
     1
102
RTVSPropertyOp29
 70
     1
102
RTVSPropertyOp30
 70
     1
102
RTVSPropertyOp31
 70
     1
102
RTVSPropertyOp32
 70
     1
102
RTVSPropertyOp33
 70
     1
102
RTVSPropertyOp34
 70
     1
102
RTVSPropertyOp35
 70
     1
102
RTVSPropertyOp36
 70
     1
102
RTVSPropertyOp37
 70
     1
102
RTVSPropertyOp38
 70
     1
102
RTVSPropertyOp39
 70
     1
102
RTVSPropertyOp40
 70
     1
102
RTVSPropertyOp41
 70
     1
102
RTVSPropertyOp42
 70
     1
102
RTVSPropertyOp43
 70
     1
102
RTVSPropertyOp44
 70
     1
102
RTVSPropertyOp45
 70
     1
102
RTVSPropertyOp46
 70
     1
102
RTVSPropertyOp47
 70
     1
102
RTVSPropertyOp48
 70
     1
102
RTVSPropertyOp49
 70
     1
102
RTVSPropertyOp50
 70
     1
102
RTVSPropertyOp51
 70
     0
102
RTVSPropertyOp52
 70
     0
102
RTVSPropertyOp53
 70
     1
102
RTVSPropertyOp54
 70
     1
102
RTVSPropertyOp55
 70
     1
102
RTVSPropertyOp56
 70
     1
102
RTVSPropertyOp57
 70
     1
102
RTVSPropertyOp58
 70
     1
102
RTVSPropertyOp59
 70
     1
102
RTVSPropertyOp60
 70
     1
102
RTVSPropertyOp61
 70
     1
102
RTVSPropertyOp62
 70
     1
  0
XRECORD
  5
B6D
102
{ACAD_REACTORS
330
B6C
102
}
330
B6C
100
AcDbXrecord
280
     1
102
RTVSPost2010Prop28
280
     0
102
RTVSPost2010PropOp28
 70
     0
102
RTVSPost2010Prop29
280
     1
102
RTVSPost2010PropOp29
 70
     0
102
RTVSPost2010Prop30
280
     1
102
RTVSPost2010PropOp30
 70
     0
102
RTVSPost2010Prop31
280
     0
102
RTVSPost2010PropOp31
 70
     0
102
RTVSPost2010Prop32
280
     0
102
RTVSPost2010PropOp32
 70
     0
102
RTVSPost2010Prop33
280
     0
102
RTVSPost2010PropOp33
 70
     0
102
RTVSPost2010Prop34
280
     0
102
RTVSPost2010PropOp34
 70
     0
102
RTVSPost2010Prop35
280
     0
102
RTVSPost2010PropOp35
 70
     0
102
RTVSPost2010Prop36
280
     0
102
RTVSPost2010PropOp36
 70
     0
102
RTVSPost2010Prop37
 90
       50
102
RTVSPost2010PropOp37
 70
     0
102
RTVSPost2010Prop38
140
0.0
102
RTVSPost2010PropOp38
 70
     0
102
RTVSPost2010Prop39
140
1.0
102
RTVSPost2010PropOp39
 70
     0
102
RTVSPost2010Prop40
 90
        0
102
RTVSPost2010PropOp40
 70
     0
102
RTVSPost2010Prop41ColorIndex
 90
       18
102
RTVSPost2010Prop41ColorRGB
 90
        0
102
RTVSPost2010PropOp41
 70
     0
102
RTVSPost2010Prop42
 90
       50
102
RTVSPost2010PropOp42
 70
     0
102
RTVSPost2010Prop43
 90
        3
102
RTVSPost2010PropOp43
 70
     0
102
RTVSPost2010Prop44ColorIndex
 90
        5
102
RTVSPost2010Prop44ColorRGB
 90
      255
102
RTVSPost2010PropOp44
 70
     0
102
RTVSPost2010Prop45
280
     0
102
RTVSPost2010PropOp45
 70
     0
102
RTVSPost2010Prop46
 90
       50
102
RTVSPost2010PropOp46
 70
     0
102
RTVSPost2010Prop47
 90
       50
102
RTVSPost2010PropOp47
 70
     0
102
RTVSPost2010Prop48
 90
       50
102
RTVSPost2010PropOp48
 70
     0
102
RTVSPost2010Prop49
280
     0
102
RTVSPost2010PropOp49
 70
     0
102
RTVSPost2010Prop50
 90
       50
102
RTVSPost2010PropOp50
 70
     0
102
RTVSPost2010Prop51ColorIndex
 90
      256
102
RTVSPost2010Prop51ColorRGB
 90
-16777216
102
RTVSPost2010PropOp51
 70
     0
102
RTVSPost2010Prop52
140
1.0
102
RTVSPost2010PropOp52
 70
     0
102
RTVSPost2010Prop53
 90
        2
102
RTVSPost2010PropOp53
 70
     0
102
RTVSPost2010Prop54
  1
strokes_ogs.tif
102
RTVSPost2010PropOp54
 70
     0
102
RTVSPost2010Prop55
280
     0
102
RTVSPost2010PropOp55
 70
     0
102
RTVSPost2010Prop56
140
1.0
102
RTVSPost2010PropOp56
 70
     0
102
RTVSPost2010Prop57
140
1.0
102
RTVSPost2010PropOp57
 70
     0
102
RTVSPropertyOp0
 70
     0
102
RTVSPropertyOp1
 70
     0
102
RTVSPropertyOp2
 70
     0
102
RTVSPropertyOp3
 70
     0
102
RTVSPropertyOp4
 70
     0
102
RTVSPropertyOp5
 70
     0
102
RTVSPropertyOp6
 70
     0
102
RTVSPropertyOp7
 70
     0
102
RTVSPropertyOp8
 70
     0
102
RTVSPropertyOp9
 70
     0
102
RTVSPropertyOp10
 70
     0
102
RTVSPropertyOp11
 70
     0
102
RTVSPropertyOp12
 70
     0
102
RTVSPropertyOp13
 70
     0
102
RTVSPropertyOp14
 70
     2
102
RTVSPropertyOp15
 70
     0
102
RTVSPropertyOp16
 70
     0
102
RTVSPropertyOp17
 70
     0
102
RTVSPropertyOp18
 70
     0
102
RTVSPropertyOp19
 70
     0
102
RTVSPropertyOp20
 70
     0
102
RTVSPropertyOp21
 70
     0
102
RTVSPropertyOp22
 70
     0
102
RTVSPropertyOp23
 70
     0
102
RTVSPropertyOp24
 70
     0
102
RTVSPropertyOp25
 70
     0
102
RTVSPropertyOp26
 70
     0
102
RTVSPropertyOp27
 70
     0
102
RTVSPropertyOp28
 70
     0
102
RTVSPropertyOp29
 70
     0
102
RTVSPropertyOp30
 70
     0
102
RTVSPropertyOp31
 70
     0
102
RTVSPropertyOp32
 70
     0
102
RTVSPropertyOp33
 70
     0
102
RTVSPropertyOp34
 70
     0
102
RTVSPropertyOp35
 70
     0
102
RTVSPropertyOp36
 70
     0
102
RTVSPropertyOp37
 70
     0
102
RTVSPropertyOp38
 70
     0
102
RTVSPropertyOp39
 70
     0
102
RTVSPropertyOp40
 70
     0
102
RTVSPropertyOp41
 70
     0
102
RTVSPropertyOp42
 70
     0
102
RTVSPropertyOp43
 70
     0
102
RTVSPropertyOp44
 70
     0
102
RTVSPropertyOp45
 70
     0
102
RTVSPropertyOp46
 70
     0
102
RTVSPropertyOp47
 70
     0
102
RTVSPropertyOp48
 70
     0
102
RTVSPropertyOp49
 70
     0
102
RTVSPropertyOp50
 70
     0
102
RTVSPropertyOp51
 70
     0
102
RTVSPropertyOp52
 70
     0
102
RTVSPropertyOp53
 70
     0
102
RTVSPropertyOp54
 70
     0
102
RTVSPropertyOp55
 70
     0
102
RTVSPropertyOp56
 70
     0
102
RTVSPropertyOp57
 70
     0
102
RTVSPropertyOp58
 70
     0
102
RTVSPropertyOp59
 70
     0
102
RTVSPropertyOp60
 70
     0
102
RTVSPropertyOp61
 70
     0
102
RTVSPropertyOp62
 70
     0
  0
XRECORD
  5
B5D
102
{ACAD_REACTORS
330
B5C
102
}
330
B5C
100
AcDbXrecord
280
     1
102
RTVSPost2010Prop28
280
     0
102
RTVSPost2010PropOp28
 70
     1
102
RTVSPost2010Prop29
280
     1
102
RTVSPost2010PropOp29
 70
     1
102
RTVSPost2010Prop30
280
     1
102
RTVSPost2010PropOp30
 70
     1
102
RTVSPost2010Prop31
280
     0
102
RTVSPost2010PropOp31
 70
     1
102
RTVSPost2010Prop32
280
     0
102
RTVSPost2010PropOp32
 70
     1
102
RTVSPost2010Prop33
280
     0
102
RTVSPost2010PropOp33
 70
     1
102
RTVSPost2010Prop34
280
     0
102
RTVSPost2010PropOp34
 70
     1
102
RTVSPost2010Prop35
280
     0
102
RTVSPost2010PropOp35
 70
     1
102
RTVSPost2010Prop36
280
     0
102
RTVSPost2010PropOp36
 70
     1
102
RTVSPost2010Prop37
 90
       50
102
RTVSPost2010PropOp37
 70
     1
102
RTVSPost2010Prop38
140
0.0
102
RTVSPost2010PropOp38
 70
     1
102
RTVSPost2010Prop39
140
1.0
102
RTVSPost2010PropOp39
 70
     1
102
RTVSPost2010Prop40
 90
        0
102
RTVSPost2010PropOp40
 70
     1
102
RTVSPost2010Prop41ColorIndex
 90
       18
102
RTVSPost2010Prop41ColorRGB
 90
        0
102
RTVSPost2010PropOp41
 70
     1
102
RTVSPost2010Prop42
 90
       50
102
RTVSPost2010PropOp42
 70
     1
102
RTVSPost2010Prop43
 90
        3
102
RTVSPost2010PropOp43
 70
     1
102
RTVSPost2010Prop44ColorIndex
 90
        5
102
RTVSPost2010Prop44ColorRGB
 90
      255
102
RTVSPost2010PropOp44
 70
     1
102
RTVSPost2010Prop45
280
     0
102
RTVSPost2010PropOp45
 70
     1
102
RTVSPost2010Prop46
 90
       50
102
RTVSPost2010PropOp46
 70
     1
102
RTVSPost2010Prop47
 90
       50
102
RTVSPost2010PropOp47
 70
     1
102
RTVSPost2010Prop48
 90
       50
102
RTVSPost2010PropOp48
 70
     1
102
RTVSPost2010Prop49
280
     0
102
RTVSPost2010PropOp49
 70
     1
102
RTVSPost2010Prop50
 90
       50
102
RTVSPost2010PropOp50
 70
     1
102
RTVSPost2010Prop51ColorIndex
 90
      256
102
RTVSPost2010Prop51ColorRGB
 90
-16777216
102
RTVSPost2010PropOp51
 70
     0
102
RTVSPost2010Prop52
140
1.0
102
RTVSPost2010PropOp52
 70
     0
102
RTVSPost2010Prop53
 90
        2
102
RTVSPost2010PropOp53
 70
     1
102
RTVSPost2010Prop54
  1
strokes_ogs.tif
102
RTVSPost2010PropOp54
 70
     1
102
RTVSPost2010Prop55
280
     0
102
RTVSPost2010PropOp55
 70
     1
102
RTVSPost2010Prop56
140
1.0
102
RTVSPost2010PropOp56
 70
     1
102
RTVSPost2010Prop57
140
1.0
102
RTVSPost2010PropOp57
 70
     1
102
RTVSPropertyOp0
 70
     1
102
RTVSPropertyOp1
 70
     1
102
RTVSPropertyOp2
 70
     1
102
RTVSPropertyOp3
 70
     1
102
RTVSPropertyOp4
 70
     1
102
RTVSPropertyOp5
 70
     1
102
RTVSPropertyOp6
 70
     1
102
RTVSPropertyOp7
 70
     1
102
RTVSPropertyOp8
 70
     1
102
RTVSPropertyOp9
 70
     1
102
RTVSPropertyOp10
 70
     1
102
RTVSPropertyOp11
 70
     1
102
RTVSPropertyOp12
 70
     1
102
RTVSPropertyOp13
 70
     1
102
RTVSPropertyOp14
 70
     1
102
RTVSPropertyOp15
 70
     1
102
RTVSPropertyOp16
 70
     1
102
RTVSPropertyOp17
 70
     1
102
RTVSPropertyOp18
 70
     1
102
RTVSPropertyOp19
 70
     1
102
RTVSPropertyOp20
 70
     1
102
RTVSPropertyOp21
 70
     1
102
RTVSPropertyOp22
 70
     1
102
RTVSPropertyOp23
 70
     1
102
RTVSPropertyOp24
 70
     1
102
RTVSPropertyOp25
 70
     1
102
RTVSPropertyOp26
 70
     1
102
RTVSPropertyOp27
 70
     1
102
RTVSPropertyOp28
 70
     1
102
RTVSPropertyOp29
 70
     1
102
RTVSPropertyOp30
 70
     1
102
RTVSPropertyOp31
 70
     1
102
RTVSPropertyOp32
 70
     1
102
RTVSPropertyOp33
 70
     1
102
RTVSPropertyOp34
 70
     1
102
RTVSPropertyOp35
 70
     1
102
RTVSPropertyOp36
 70
     1
102
RTVSPropertyOp37
 70
     1
102
RTVSPropertyOp38
 70
     1
102
RTVSPropertyOp39
 70
     1
102
RTVSPropertyOp40
 70
     1
102
RTVSPropertyOp41
 70
     1
102
RTVSPropertyOp42
 70
     1
102
RTVSPropertyOp43
 70
     1
102
RTVSPropertyOp44
 70
     1
102
RTVSPropertyOp45
 70
     1
102
RTVSPropertyOp46
 70
     1
102
RTVSPropertyOp47
 70
     1
102
RTVSPropertyOp48
 70
     1
102
RTVSPropertyOp49
 70
     1
102
RTVSPropertyOp50
 70
     1
102
RTVSPropertyOp51
 70
     0
102
RTVSPropertyOp52
 70
     0
102
RTVSPropertyOp53
 70
     1
102
RTVSPropertyOp54
 70
     1
102
RTVSPropertyOp55
 70
     1
102
RTVSPropertyOp56
 70
     1
102
RTVSPropertyOp57
 70
     1
102
RTVSPropertyOp58
 70
     1
102
RTVSPropertyOp59
 70
     1
102
RTVSPropertyOp60
 70
     1
102
RTVSPropertyOp61
 70
     1
102
RTVSPropertyOp62
 70
     1
  0
XRECORD
  5
B6F
102
{ACAD_REACTORS
330
B6E
102
}
330
B6E
100
AcDbXrecord
280
     1
102
RTVSPost2010Prop28
280
     0
102
RTVSPost2010PropOp28
 70
     0
102
RTVSPost2010Prop29
280
     1
102
RTVSPost2010PropOp29
 70
     0
102
RTVSPost2010Prop30
280
     1
102
RTVSPost2010PropOp30
 70
     0
102
RTVSPost2010Prop31
280
     0
102
RTVSPost2010PropOp31
 70
     0
102
RTVSPost2010Prop32
280
     0
102
RTVSPost2010PropOp32
 70
     0
102
RTVSPost2010Prop33
280
     0
102
RTVSPost2010PropOp33
 70
     0
102
RTVSPost2010Prop34
280
     0
102
RTVSPost2010PropOp34
 70
     0
102
RTVSPost2010Prop35
280
     0
102
RTVSPost2010PropOp35
 70
     0
102
RTVSPost2010Prop36
280
     0
102
RTVSPost2010PropOp36
 70
     0
102
RTVSPost2010Prop37
 90
       50
102
RTVSPost2010PropOp37
 70
     0
102
RTVSPost2010Prop38
140
0.0
102
RTVSPost2010PropOp38
 70
     0
102
RTVSPost2010Prop39
140
1.0
102
RTVSPost2010PropOp39
 70
     0
102
RTVSPost2010Prop40
 90
        0
102
RTVSPost2010PropOp40
 70
     0
102
RTVSPost2010Prop41ColorIndex
 90
       18
102
RTVSPost2010Prop41ColorRGB
 90
        0
102
RTVSPost2010PropOp41
 70
     0
102
RTVSPost2010Prop42
 90
       50
102
RTVSPost2010PropOp42
 70
     0
102
RTVSPost2010Prop43
 90
        3
102
RTVSPost2010PropOp43
 70
     0
102
RTVSPost2010Prop44ColorIndex
 90
        5
102
RTVSPost2010Prop44ColorRGB
 90
      255
102
RTVSPost2010PropOp44
 70
     0
102
RTVSPost2010Prop45
280
     0
102
RTVSPost2010PropOp45
 70
     0
102
RTVSPost2010Prop46
 90
       50
102
RTVSPost2010PropOp46
 70
     0
102
RTVSPost2010Prop47
 90
       50
102
RTVSPost2010PropOp47
 70
     0
102
RTVSPost2010Prop48
 90
       50
102
RTVSPost2010PropOp48
 70
     0
102
RTVSPost2010Prop49
280
     0
102
RTVSPost2010PropOp49
 70
     0
102
RTVSPost2010Prop50
 90
       50
102
RTVSPost2010PropOp50
 70
     0
102
RTVSPost2010Prop51ColorIndex
 90
      256
102
RTVSPost2010Prop51ColorRGB
 90
-16777216
102
RTVSPost2010PropOp51
 70
     0
102
RTVSPost2010Prop52
140
1.0
102
RTVSPost2010PropOp52
 70
     0
102
RTVSPost2010Prop53
 90
        2
102
RTVSPost2010PropOp53
 70
     0
102
RTVSPost2010Prop54
  1
strokes_ogs.tif
102
RTVSPost2010PropOp54
 70
     0
102
RTVSPost2010Prop55
280
     0
102
RTVSPost2010PropOp55
 70
     0
102
RTVSPost2010Prop56
140
1.0
102
RTVSPost2010PropOp56
 70
     0
102
RTVSPost2010Prop57
140
1.0
102
RTVSPost2010PropOp57
 70
     0
102
RTVSPropertyOp0
 70
     0
102
RTVSPropertyOp1
 70
     0
102
RTVSPropertyOp2
 70
     0
102
RTVSPropertyOp3
 70
     0
102
RTVSPropertyOp4
 70
     0
102
RTVSPropertyOp5
 70
     0
102
RTVSPropertyOp6
 70
     0
102
RTVSPropertyOp7
 70
     0
102
RTVSPropertyOp8
 70
     0
102
RTVSPropertyOp9
 70
     0
102
RTVSPropertyOp10
 70
     0
102
RTVSPropertyOp11
 70
     0
102
RTVSPropertyOp12
 70
     0
102
RTVSPropertyOp13
 70
     0
102
RTVSPropertyOp14
 70
     2
102
RTVSPropertyOp15
 70
     0
102
RTVSPropertyOp16
 70
     0
102
RTVSPropertyOp17
 70
     0
102
RTVSPropertyOp18
 70
     0
102
RTVSPropertyOp19
 70
     0
102
RTVSPropertyOp20
 70
     0
102
RTVSPropertyOp21
 70
     0
102
RTVSPropertyOp22
 70
     0
102
RTVSPropertyOp23
 70
     0
102
RTVSPropertyOp24
 70
     0
102
RTVSPropertyOp25
 70
     0
102
RTVSPropertyOp26
 70
     0
102
RTVSPropertyOp27
 70
     0
102
RTVSPropertyOp28
 70
     0
102
RTVSPropertyOp29
 70
     0
102
RTVSPropertyOp30
 70
     0
102
RTVSPropertyOp31
 70
     0
102
RTVSPropertyOp32
 70
     0
102
RTVSPropertyOp33
 70
     0
102
RTVSPropertyOp34
 70
     0
102
RTVSPropertyOp35
 70
     0
102
RTVSPropertyOp36
 70
     0
102
RTVSPropertyOp37
 70
     0
102
RTVSPropertyOp38
 70
     0
102
RTVSPropertyOp39
 70
     0
102
RTVSPropertyOp40
 70
     0
102
RTVSPropertyOp41
 70
     0
102
RTVSPropertyOp42
 70
     0
102
RTVSPropertyOp43
 70
     0
102
RTVSPropertyOp44
 70
     0
102
RTVSPropertyOp45
 70
     0
102
RTVSPropertyOp46
 70
     0
102
RTVSPropertyOp47
 70
     0
102
RTVSPropertyOp48
 70
     0
102
RTVSPropertyOp49
 70
     0
102
RTVSPropertyOp50
 70
     0
102
RTVSPropertyOp51
 70
     0
102
RTVSPropertyOp52
 70
     0
102
RTVSPropertyOp53
 70
     0
102
RTVSPropertyOp54
 70
     0
102
RTVSPropertyOp55
 70
     0
102
RTVSPropertyOp56
 70
     0
102
RTVSPropertyOp57
 70
     0
102
RTVSPropertyOp58
 70
     0
102
RTVSPropertyOp59
 70
     0
102
RTVSPropertyOp60
 70
     0
102
RTVSPropertyOp61
 70
     0
102
RTVSPropertyOp62
 70
     0
  0
XRECORD
  5
B55
102
{ACAD_REACTORS
330
B54
102
}
330
B54
100
AcDbXrecord
280
     1
102
RTVSPost2010Prop28
280
     0
102
RTVSPost2010PropOp28
 70
     1
102
RTVSPost2010Prop29
280
     1
102
RTVSPost2010PropOp29
 70
     1
102
RTVSPost2010Prop30
280
     1
102
RTVSPost2010PropOp30
 70
     1
102
RTVSPost2010Prop31
280
     0
102
RTVSPost2010PropOp31
 70
     1
102
RTVSPost2010Prop32
280
     0
102
RTVSPost2010PropOp32
 70
     1
102
RTVSPost2010Prop33
280
     0
102
RTVSPost2010PropOp33
 70
     1
102
RTVSPost2010Prop34
280
     0
102
RTVSPost2010PropOp34
 70
     1
102
RTVSPost2010Prop35
280
     0
102
RTVSPost2010PropOp35
 70
     1
102
RTVSPost2010Prop36
280
     0
102
RTVSPost2010PropOp36
 70
     1
102
RTVSPost2010Prop37
 90
       50
102
RTVSPost2010PropOp37
 70
     1
102
RTVSPost2010Prop38
140
0.0
102
RTVSPost2010PropOp38
 70
     1
102
RTVSPost2010Prop39
140
1.0
102
RTVSPost2010PropOp39
 70
     1
102
RTVSPost2010Prop40
 90
        0
102
RTVSPost2010PropOp40
 70
     1
102
RTVSPost2010Prop41ColorIndex
 90
       18
102
RTVSPost2010Prop41ColorRGB
 90
        0
102
RTVSPost2010PropOp41
 70
     1
102
RTVSPost2010Prop42
 90
       50
102
RTVSPost2010PropOp42
 70
     1
102
RTVSPost2010Prop43
 90
        3
102
RTVSPost2010PropOp43
 70
     1
102
RTVSPost2010Prop44ColorIndex
 90
        5
102
RTVSPost2010Prop44ColorRGB
 90
      255
102
RTVSPost2010PropOp44
 70
     1
102
RTVSPost2010Prop45
280
     0
102
RTVSPost2010PropOp45
 70
     1
102
RTVSPost2010Prop46
 90
       50
102
RTVSPost2010PropOp46
 70
     1
102
RTVSPost2010Prop47
 90
       50
102
RTVSPost2010PropOp47
 70
     1
102
RTVSPost2010Prop48
 90
       50
102
RTVSPost2010PropOp48
 70
     1
102
RTVSPost2010Prop49
280
     0
102
RTVSPost2010PropOp49
 70
     1
102
RTVSPost2010Prop50
 90
       50
102
RTVSPost2010PropOp50
 70
     1
102
RTVSPost2010Prop51ColorIndex
 90
      256
102
RTVSPost2010Prop51ColorRGB
 90
-16777216
102
RTVSPost2010PropOp51
 70
     0
102
RTVSPost2010Prop52
140
1.0
102
RTVSPost2010PropOp52
 70
     0
102
RTVSPost2010Prop53
 90
        2
102
RTVSPost2010PropOp53
 70
     1
102
RTVSPost2010Prop54
  1
strokes_ogs.tif
102
RTVSPost2010PropOp54
 70
     1
102
RTVSPost2010Prop55
280
     0
102
RTVSPost2010PropOp55
 70
     1
102
RTVSPost2010Prop56
140
1.0
102
RTVSPost2010PropOp56
 70
     1
102
RTVSPost2010Prop57
140
1.0
102
RTVSPost2010PropOp57
 70
     1
102
RTVSPropertyOp0
 70
     1
102
RTVSPropertyOp1
 70
     1
102
RTVSPropertyOp2
 70
     1
102
RTVSPropertyOp3
 70
     1
102
RTVSPropertyOp4
 70
     1
102
RTVSPropertyOp5
 70
     1
102
RTVSPropertyOp6
 70
     1
102
RTVSPropertyOp7
 70
     1
102
RTVSPropertyOp8
 70
     1
102
RTVSPropertyOp9
 70
     1
102
RTVSPropertyOp10
 70
     1
102
RTVSPropertyOp11
 70
     1
102
RTVSPropertyOp12
 70
     1
102
RTVSPropertyOp13
 70
     1
102
RTVSPropertyOp14
 70
     1
102
RTVSPropertyOp15
 70
     1
102
RTVSPropertyOp16
 70
     1
102
RTVSPropertyOp17
 70
     1
102
RTVSPropertyOp18
 70
     1
102
RTVSPropertyOp19
 70
     1
102
RTVSPropertyOp20
 70
     1
102
RTVSPropertyOp21
 70
     1
102
RTVSPropertyOp22
 70
     1
102
RTVSPropertyOp23
 70
     1
102
RTVSPropertyOp24
 70
     1
102
RTVSPropertyOp25
 70
     1
102
RTVSPropertyOp26
 70
     1
102
RTVSPropertyOp27
 70
     1
102
RTVSPropertyOp28
 70
     1
102
RTVSPropertyOp29
 70
     1
102
RTVSPropertyOp30
 70
     1
102
RTVSPropertyOp31
 70
     1
102
RTVSPropertyOp32
 70
     1
102
RTVSPropertyOp33
 70
     1
102
RTVSPropertyOp34
 70
     1
102
RTVSPropertyOp35
 70
     1
102
RTVSPropertyOp36
 70
     1
102
RTVSPropertyOp37
 70
     1
102
RTVSPropertyOp38
 70
     1
102
RTVSPropertyOp39
 70
     1
102
RTVSPropertyOp40
 70
     1
102
RTVSPropertyOp41
 70
     1
102
RTVSPropertyOp42
 70
     1
102
RTVSPropertyOp43
 70
     1
102
RTVSPropertyOp44
 70
     1
102
RTVSPropertyOp45
 70
     1
102
RTVSPropertyOp46
 70
     1
102
RTVSPropertyOp47
 70
     1
102
RTVSPropertyOp48
 70
     1
102
RTVSPropertyOp49
 70
     1
102
RTVSPropertyOp50
 70
     1
102
RTVSPropertyOp51
 70
     0
102
RTVSPropertyOp52
 70
     0
102
RTVSPropertyOp53
 70
     1
102
RTVSPropertyOp54
 70
     1
102
RTVSPropertyOp55
 70
     1
102
RTVSPropertyOp56
 70
     1
102
RTVSPropertyOp57
 70
     1
102
RTVSPropertyOp58
 70
     1
102
RTVSPropertyOp59
 70
     1
102
RTVSPropertyOp60
 70
     1
102
RTVSPropertyOp61
 70
     1
102
RTVSPropertyOp62
 70
     1
  0
XRECORD
  5
B6B
102
{ACAD_REACTORS
330
B6A
102
}
330
B6A
100
AcDbXrecord
280
     1
102
RTVSPost2010Prop28
280
     0
102
RTVSPost2010PropOp28
 70
     1
102
RTVSPost2010Prop29
280
     1
102
RTVSPost2010PropOp29
 70
     1
102
RTVSPost2010Prop30
280
     1
102
RTVSPost2010PropOp30
 70
     1
102
RTVSPost2010Prop31
280
     0
102
RTVSPost2010PropOp31
 70
     1
102
RTVSPost2010Prop32
280
     0
102
RTVSPost2010PropOp32
 70
     1
102
RTVSPost2010Prop33
280
     0
102
RTVSPost2010PropOp33
 70
     1
102
RTVSPost2010Prop34
280
     0
102
RTVSPost2010PropOp34
 70
     1
102
RTVSPost2010Prop35
280
     0
102
RTVSPost2010PropOp35
 70
     1
102
RTVSPost2010Prop36
280
     0
102
RTVSPost2010PropOp36
 70
     1
102
RTVSPost2010Prop37
 90
       50
102
RTVSPost2010PropOp37
 70
     1
102
RTVSPost2010Prop38
140
0.0
102
RTVSPost2010PropOp38
 70
     1
102
RTVSPost2010Prop39
140
1.0
102
RTVSPost2010PropOp39
 70
     1
102
RTVSPost2010Prop40
 90
        0
102
RTVSPost2010PropOp40
 70
     1
102
RTVSPost2010Prop41ColorIndex
 90
       18
102
RTVSPost2010Prop41ColorRGB
 90
        0
102
RTVSPost2010PropOp41
 70
     1
102
RTVSPost2010Prop42
 90
       50
102
RTVSPost2010PropOp42
 70
     1
102
RTVSPost2010Prop43
 90
        3
102
RTVSPost2010PropOp43
 70
     1
102
RTVSPost2010Prop44ColorIndex
 90
        5
102
RTVSPost2010Prop44ColorRGB
 90
      255
102
RTVSPost2010PropOp44
 70
     1
102
RTVSPost2010Prop45
280
     0
102
RTVSPost2010PropOp45
 70
     1
102
RTVSPost2010Prop46
 90
       50
102
RTVSPost2010PropOp46
 70
     1
102
RTVSPost2010Prop47
 90
       50
102
RTVSPost2010PropOp47
 70
     1
102
RTVSPost2010Prop48
 90
       50
102
RTVSPost2010PropOp48
 70
     1
102
RTVSPost2010Prop49
280
     0
102
RTVSPost2010PropOp49
 70
     1
102
RTVSPost2010Prop50
 90
       50
102
RTVSPost2010PropOp50
 70
     1
102
RTVSPost2010Prop51ColorIndex
 90
      256
102
RTVSPost2010Prop51ColorRGB
 90
-16777216
102
RTVSPost2010PropOp51
 70
     0
102
RTVSPost2010Prop52
140
1.0
102
RTVSPost2010PropOp52
 70
     0
102
RTVSPost2010Prop53
 90
        2
102
RTVSPost2010PropOp53
 70
     1
102
RTVSPost2010Prop54
  1
strokes_ogs.tif
102
RTVSPost2010PropOp54
 70
     1
102
RTVSPost2010Prop55
280
     0
102
RTVSPost2010PropOp55
 70
     1
102
RTVSPost2010Prop56
140
1.0
102
RTVSPost2010PropOp56
 70
     1
102
RTVSPost2010Prop57
140
1.0
102
RTVSPost2010PropOp57
 70
     1
102
RTVSPropertyOp0
 70
     1
102
RTVSPropertyOp1
 70
     1
102
RTVSPropertyOp2
 70
     1
102
RTVSPropertyOp3
 70
     1
102
RTVSPropertyOp4
 70
     1
102
RTVSPropertyOp5
 70
     1
102
RTVSPropertyOp6
 70
     1
102
RTVSPropertyOp7
 70
     1
102
RTVSPropertyOp8
 70
     1
102
RTVSPropertyOp9
 70
     1
102
RTVSPropertyOp10
 70
     1
102
RTVSPropertyOp11
 70
     1
102
RTVSPropertyOp12
 70
     1
102
RTVSPropertyOp13
 70
     1
102
RTVSPropertyOp14
 70
     1
102
RTVSPropertyOp15
 70
     1
102
RTVSPropertyOp16
 70
     1
102
RTVSPropertyOp17
 70
     1
102
RTVSPropertyOp18
 70
     1
102
RTVSPropertyOp19
 70
     1
102
RTVSPropertyOp20
 70
     1
102
RTVSPropertyOp21
 70
     1
102
RTVSPropertyOp22
 70
     1
102
RTVSPropertyOp23
 70
     1
102
RTVSPropertyOp24
 70
     1
102
RTVSPropertyOp25
 70
     1
102
RTVSPropertyOp26
 70
     1
102
RTVSPropertyOp27
 70
     1
102
RTVSPropertyOp28
 70
     1
102
RTVSPropertyOp29
 70
     1
102
RTVSPropertyOp30
 70
     1
102
RTVSPropertyOp31
 70
     1
102
RTVSPropertyOp32
 70
     1
102
RTVSPropertyOp33
 70
     1
102
RTVSPropertyOp34
 70
     1
102
RTVSPropertyOp35
 70
     1
102
RTVSPropertyOp36
 70
     1
102
RTVSPropertyOp37
 70
     1
102
RTVSPropertyOp38
 70
     1
102
RTVSPropertyOp39
 70
     1
102
RTVSPropertyOp40
 70
     1
102
RTVSPropertyOp41
 70
     1
102
RTVSPropertyOp42
 70
     1
102
RTVSPropertyOp43
 70
     1
102
RTVSPropertyOp44
 70
     1
102
RTVSPropertyOp45
 70
     1
102
RTVSPropertyOp46
 70
     1
102
RTVSPropertyOp47
 70
     1
102
RTVSPropertyOp48
 70
     1
102
RTVSPropertyOp49
 70
     1
102
RTVSPropertyOp50
 70
     1
102
RTVSPropertyOp51
 70
     0
102
RTVSPropertyOp52
 70
     0
102
RTVSPropertyOp53
 70
     1
102
RTVSPropertyOp54
 70
     1
102
RTVSPropertyOp55
 70
     1
102
RTVSPropertyOp56
 70
     1
102
RTVSPropertyOp57
 70
     1
102
RTVSPropertyOp58
 70
     1
102
RTVSPropertyOp59
 70
     1
102
RTVSPropertyOp60
 70
     1
102
RTVSPropertyOp61
 70
     1
102
RTVSPropertyOp62
 70
     1
  0
XRECORD
  5
B69
102
{ACAD_REACTORS
330
B68
102
}
330
B68
100
AcDbXrecord
280
     1
102
RTVSPost2010Prop28
280
     0
102
RTVSPost2010PropOp28
 70
     1
102
RTVSPost2010Prop29
280
     1
102
RTVSPost2010PropOp29
 70
     1
102
RTVSPost2010Prop30
280
     1
102
RTVSPost2010PropOp30
 70
     1
102
RTVSPost2010Prop31
280
     0
102
RTVSPost2010PropOp31
 70
     1
102
RTVSPost2010Prop32
280
     0
102
RTVSPost2010PropOp32
 70
     1
102
RTVSPost2010Prop33
280
     0
102
RTVSPost2010PropOp33
 70
     1
102
RTVSPost2010Prop34
280
     0
102
RTVSPost2010PropOp34
 70
     1
102
RTVSPost2010Prop35
280
     0
102
RTVSPost2010PropOp35
 70
     1
102
RTVSPost2010Prop36
280
     0
102
RTVSPost2010PropOp36
 70
     1
102
RTVSPost2010Prop37
 90
       50
102
RTVSPost2010PropOp37
 70
     1
102
RTVSPost2010Prop38
140
0.0
102
RTVSPost2010PropOp38
 70
     1
102
RTVSPost2010Prop39
140
1.0
102
RTVSPost2010PropOp39
 70
     1
102
RTVSPost2010Prop40
 90
        0
102
RTVSPost2010PropOp40
 70
     1
102
RTVSPost2010Prop41ColorIndex
 90
       18
102
RTVSPost2010Prop41ColorRGB
 90
        0
102
RTVSPost2010PropOp41
 70
     1
102
RTVSPost2010Prop42
 90
       50
102
RTVSPost2010PropOp42
 70
     1
102
RTVSPost2010Prop43
 90
        3
102
RTVSPost2010PropOp43
 70
     1
102
RTVSPost2010Prop44ColorIndex
 90
        5
102
RTVSPost2010Prop44ColorRGB
 90
      255
102
RTVSPost2010PropOp44
 70
     1
102
RTVSPost2010Prop45
280
     0
102
RTVSPost2010PropOp45
 70
     1
102
RTVSPost2010Prop46
 90
       50
102
RTVSPost2010PropOp46
 70
     1
102
RTVSPost2010Prop47
 90
       50
102
RTVSPost2010PropOp47
 70
     1
102
RTVSPost2010Prop48
 90
       50
102
RTVSPost2010PropOp48
 70
     1
102
RTVSPost2010Prop49
280
     0
102
RTVSPost2010PropOp49
 70
     1
102
RTVSPost2010Prop50
 90
       50
102
RTVSPost2010PropOp50
 70
     1
102
RTVSPost2010Prop51ColorIndex
 90
      256
102
RTVSPost2010Prop51ColorRGB
 90
-16777216
102
RTVSPost2010PropOp51
 70
     0
102
RTVSPost2010Prop52
140
1.0
102
RTVSPost2010PropOp52
 70
     0
102
RTVSPost2010Prop53
 90
        2
102
RTVSPost2010PropOp53
 70
     1
102
RTVSPost2010Prop54
  1
strokes_ogs.tif
102
RTVSPost2010PropOp54
 70
     1
102
RTVSPost2010Prop55
280
     0
102
RTVSPost2010PropOp55
 70
     1
102
RTVSPost2010Prop56
140
1.0
102
RTVSPost2010PropOp56
 70
     1
102
RTVSPost2010Prop57
140
1.0
102
RTVSPost2010PropOp57
 70
     1
102
RTVSPropertyOp0
 70
     1
102
RTVSPropertyOp1
 70
     1
102
RTVSPropertyOp2
 70
     1
102
RTVSPropertyOp3
 70
     1
102
RTVSPropertyOp4
 70
     1
102
RTVSPropertyOp5
 70
     1
102
RTVSPropertyOp6
 70
     1
102
RTVSPropertyOp7
 70
     1
102
RTVSPropertyOp8
 70
     1
102
RTVSPropertyOp9
 70
     1
102
RTVSPropertyOp10
 70
     1
102
RTVSPropertyOp11
 70
     1
102
RTVSPropertyOp12
 70
     1
102
RTVSPropertyOp13
 70
     1
102
RTVSPropertyOp14
 70
     1
102
RTVSPropertyOp15
 70
     1
102
RTVSPropertyOp16
 70
     1
102
RTVSPropertyOp17
 70
     1
102
RTVSPropertyOp18
 70
     1
102
RTVSPropertyOp19
 70
     1
102
RTVSPropertyOp20
 70
     1
102
RTVSPropertyOp21
 70
     1
102
RTVSPropertyOp22
 70
     1
102
RTVSPropertyOp23
 70
     1
102
RTVSPropertyOp24
 70
     1
102
RTVSPropertyOp25
 70
     1
102
RTVSPropertyOp26
 70
     1
102
RTVSPropertyOp27
 70
     1
102
RTVSPropertyOp28
 70
     1
102
RTVSPropertyOp29
 70
     1
102
RTVSPropertyOp30
 70
     1
102
RTVSPropertyOp31
 70
     1
102
RTVSPropertyOp32
 70
     1
102
RTVSPropertyOp33
 70
     1
102
RTVSPropertyOp34
 70
     1
102
RTVSPropertyOp35
 70
     1
102
RTVSPropertyOp36
 70
     1
102
RTVSPropertyOp37
 70
     1
102
RTVSPropertyOp38
 70
     1
102
RTVSPropertyOp39
 70
     1
102
RTVSPropertyOp40
 70
     1
102
RTVSPropertyOp41
 70
     1
102
RTVSPropertyOp42
 70
     1
102
RTVSPropertyOp43
 70
     1
102
RTVSPropertyOp44
 70
     1
102
RTVSPropertyOp45
 70
     1
102
RTVSPropertyOp46
 70
     1
102
RTVSPropertyOp47
 70
     1
102
RTVSPropertyOp48
 70
     1
102
RTVSPropertyOp49
 70
     1
102
RTVSPropertyOp50
 70
     1
102
RTVSPropertyOp51
 70
     0
102
RTVSPropertyOp52
 70
     0
102
RTVSPropertyOp53
 70
     1
102
RTVSPropertyOp54
 70
     1
102
RTVSPropertyOp55
 70
     1
102
RTVSPropertyOp56
 70
     1
102
RTVSPropertyOp57
 70
     1
102
RTVSPropertyOp58
 70
     1
102
RTVSPropertyOp59
 70
     1
102
RTVSPropertyOp60
 70
     1
102
RTVSPropertyOp61
 70
     1
102
RTVSPropertyOp62
 70
     1
  0
XRECORD
  5
B63
102
{ACAD_REACTORS
330
B62
102
}
330
B62
100
AcDbXrecord
280
     1
102
RTVSPost2010Prop28
280
     0
102
RTVSPost2010PropOp28
 70
     1
102
RTVSPost2010Prop29
280
     1
102
RTVSPost2010PropOp29
 70
     1
102
RTVSPost2010Prop30
280
     1
102
RTVSPost2010PropOp30
 70
     1
102
RTVSPost2010Prop31
280
     0
102
RTVSPost2010PropOp31
 70
     1
102
RTVSPost2010Prop32
280
     0
102
RTVSPost2010PropOp32
 70
     1
102
RTVSPost2010Prop33
280
     0
102
RTVSPost2010PropOp33
 70
     1
102
RTVSPost2010Prop34
280
     0
102
RTVSPost2010PropOp34
 70
     1
102
RTVSPost2010Prop35
280
     0
102
RTVSPost2010PropOp35
 70
     1
102
RTVSPost2010Prop36
280
     0
102
RTVSPost2010PropOp36
 70
     1
102
RTVSPost2010Prop37
 90
       50
102
RTVSPost2010PropOp37
 70
     1
102
RTVSPost2010Prop38
140
0.0
102
RTVSPost2010PropOp38
 70
     1
102
RTVSPost2010Prop39
140
1.0
102
RTVSPost2010PropOp39
 70
     1
102
RTVSPost2010Prop40
 90
        0
102
RTVSPost2010PropOp40
 70
     1
102
RTVSPost2010Prop41ColorIndex
 90
       18
102
RTVSPost2010Prop41ColorRGB
 90
        0
102
RTVSPost2010PropOp41
 70
     1
102
RTVSPost2010Prop42
 90
       50
102
RTVSPost2010PropOp42
 70
     1
102
RTVSPost2010Prop43
 90
        3
102
RTVSPost2010PropOp43
 70
     1
102
RTVSPost2010Prop44ColorIndex
 90
        5
102
RTVSPost2010Prop44ColorRGB
 90
      255
102
RTVSPost2010PropOp44
 70
     1
102
RTVSPost2010Prop45
280
     0
102
RTVSPost2010PropOp45
 70
     1
102
RTVSPost2010Prop46
 90
       50
102
RTVSPost2010PropOp46
 70
     1
102
RTVSPost2010Prop47
 90
       50
102
RTVSPost2010PropOp47
 70
     1
102
RTVSPost2010Prop48
 90
       50
102
RTVSPost2010PropOp48
 70
     1
102
RTVSPost2010Prop49
280
     0
102
RTVSPost2010PropOp49
 70
     1
102
RTVSPost2010Prop50
 90
       50
102
RTVSPost2010PropOp50
 70
     1
102
RTVSPost2010Prop51ColorIndex
 90
      256
102
RTVSPost2010Prop51ColorRGB
 90
-16777216
102
RTVSPost2010PropOp51
 70
     0
102
RTVSPost2010Prop52
140
1.0
102
RTVSPost2010PropOp52
 70
     0
102
RTVSPost2010Prop53
 90
        2
102
RTVSPost2010PropOp53
 70
     1
102
RTVSPost2010Prop54
  1
strokes_ogs.tif
102
RTVSPost2010PropOp54
 70
     1
102
RTVSPost2010Prop55
280
     0
102
RTVSPost2010PropOp55
 70
     1
102
RTVSPost2010Prop56
140
1.0
102
RTVSPost2010PropOp56
 70
     1
102
RTVSPost2010Prop57
140
1.0
102
RTVSPost2010PropOp57
 70
     1
102
RTVSPropertyOp0
 70
     1
102
RTVSPropertyOp1
 70
     1
102
RTVSPropertyOp2
 70
     1
102
RTVSPropertyOp3
 70
     1
102
RTVSPropertyOp4
 70
     1
102
RTVSPropertyOp5
 70
     1
102
RTVSPropertyOp6
 70
     1
102
RTVSPropertyOp7
 70
     1
102
RTVSPropertyOp8
 70
     1
102
RTVSPropertyOp9
 70
     1
102
RTVSPropertyOp10
 70
     1
102
RTVSPropertyOp11
 70
     1
102
RTVSPropertyOp12
 70
     1
102
RTVSPropertyOp13
 70
     1
102
RTVSPropertyOp14
 70
     1
102
RTVSPropertyOp15
 70
     1
102
RTVSPropertyOp16
 70
     1
102
RTVSPropertyOp17
 70
     1
102
RTVSPropertyOp18
 70
     1
102
RTVSPropertyOp19
 70
     1
102
RTVSPropertyOp20
 70
     1
102
RTVSPropertyOp21
 70
     1
102
RTVSPropertyOp22
 70
     1
102
RTVSPropertyOp23
 70
     1
102
RTVSPropertyOp24
 70
     1
102
RTVSPropertyOp25
 70
     1
102
RTVSPropertyOp26
 70
     1
102
RTVSPropertyOp27
 70
     1
102
RTVSPropertyOp28
 70
     1
102
RTVSPropertyOp29
 70
     1
102
RTVSPropertyOp30
 70
     1
102
RTVSPropertyOp31
 70
     1
102
RTVSPropertyOp32
 70
     1
102
RTVSPropertyOp33
 70
     1
102
RTVSPropertyOp34
 70
     1
102
RTVSPropertyOp35
 70
     1
102
RTVSPropertyOp36
 70
     1
102
RTVSPropertyOp37
 70
     1
102
RTVSPropertyOp38
 70
     1
102
RTVSPropertyOp39
 70
     1
102
RTVSPropertyOp40
 70
     1
102
RTVSPropertyOp41
 70
     1
102
RTVSPropertyOp42
 70
     1
102
RTVSPropertyOp43
 70
     1
102
RTVSPropertyOp44
 70
     1
102
RTVSPropertyOp45
 70
     1
102
RTVSPropertyOp46
 70
     1
102
RTVSPropertyOp47
 70
     1
102
RTVSPropertyOp48
 70
     1
102
RTVSPropertyOp49
 70
     1
102
RTVSPropertyOp50
 70
     1
102
RTVSPropertyOp51
 70
     0
102
RTVSPropertyOp52
 70
     0
102
RTVSPropertyOp53
 70
     1
102
RTVSPropertyOp54
 70
     1
102
RTVSPropertyOp55
 70
     1
102
RTVSPropertyOp56
 70
     1
102
RTVSPropertyOp57
 70
     1
102
RTVSPropertyOp58
 70
     1
102
RTVSPropertyOp59
 70
     1
102
RTVSPropertyOp60
 70
     1
102
RTVSPropertyOp61
 70
     1
102
RTVSPropertyOp62
 70
     1
  0
XRECORD
  5
B65
102
{ACAD_REACTORS
330
B64
102
}
330
B64
100
AcDbXrecord
280
     1
102
RTVSPost2010Prop28
280
     0
102
RTVSPost2010PropOp28
 70
     1
102
RTVSPost2010Prop29
280
     1
102
RTVSPost2010PropOp29
 70
     1
102
RTVSPost2010Prop30
280
     1
102
RTVSPost2010PropOp30
 70
     1
102
RTVSPost2010Prop31
280
     0
102
RTVSPost2010PropOp31
 70
     1
102
RTVSPost2010Prop32
280
     0
102
RTVSPost2010PropOp32
 70
     1
102
RTVSPost2010Prop33
280
     0
102
RTVSPost2010PropOp33
 70
     1
102
RTVSPost2010Prop34
280
     0
102
RTVSPost2010PropOp34
 70
     1
102
RTVSPost2010Prop35
280
     0
102
RTVSPost2010PropOp35
 70
     1
102
RTVSPost2010Prop36
280
     0
102
RTVSPost2010PropOp36
 70
     1
102
RTVSPost2010Prop37
 90
       50
102
RTVSPost2010PropOp37
 70
     1
102
RTVSPost2010Prop38
140
0.0
102
RTVSPost2010PropOp38
 70
     1
102
RTVSPost2010Prop39
140
1.0
102
RTVSPost2010PropOp39
 70
     1
102
RTVSPost2010Prop40
 90
        0
102
RTVSPost2010PropOp40
 70
     1
102
RTVSPost2010Prop41ColorIndex
 90
       18
102
RTVSPost2010Prop41ColorRGB
 90
        0
102
RTVSPost2010PropOp41
 70
     1
102
RTVSPost2010Prop42
 90
       50
102
RTVSPost2010PropOp42
 70
     1
102
RTVSPost2010Prop43
 90
        3
102
RTVSPost2010PropOp43
 70
     1
102
RTVSPost2010Prop44ColorIndex
 90
        5
102
RTVSPost2010Prop44ColorRGB
 90
      255
102
RTVSPost2010PropOp44
 70
     1
102
RTVSPost2010Prop45
280
     0
102
RTVSPost2010PropOp45
 70
     1
102
RTVSPost2010Prop46
 90
       50
102
RTVSPost2010PropOp46
 70
     1
102
RTVSPost2010Prop47
 90
       50
102
RTVSPost2010PropOp47
 70
     1
102
RTVSPost2010Prop48
 90
       50
102
RTVSPost2010PropOp48
 70
     1
102
RTVSPost2010Prop49
280
     0
102
RTVSPost2010PropOp49
 70
     1
102
RTVSPost2010Prop50
 90
       50
102
RTVSPost2010PropOp50
 70
     1
102
RTVSPost2010Prop51ColorIndex
 90
      256
102
RTVSPost2010Prop51ColorRGB
 90
-16777216
102
RTVSPost2010PropOp51
 70
     0
102
RTVSPost2010Prop52
140
1.0
102
RTVSPost2010PropOp52
 70
     0
102
RTVSPost2010Prop53
 90
        2
102
RTVSPost2010PropOp53
 70
     1
102
RTVSPost2010Prop54
  1
strokes_ogs.tif
102
RTVSPost2010PropOp54
 70
     1
102
RTVSPost2010Prop55
280
     0
102
RTVSPost2010PropOp55
 70
     1
102
RTVSPost2010Prop56
140
1.0
102
RTVSPost2010PropOp56
 70
     1
102
RTVSPost2010Prop57
140
1.0
102
RTVSPost2010PropOp57
 70
     1
102
RTVSPropertyOp0
 70
     1
102
RTVSPropertyOp1
 70
     1
102
RTVSPropertyOp2
 70
     1
102
RTVSPropertyOp3
 70
     1
102
RTVSPropertyOp4
 70
     1
102
RTVSPropertyOp5
 70
     1
102
RTVSPropertyOp6
 70
     1
102
RTVSPropertyOp7
 70
     1
102
RTVSPropertyOp8
 70
     1
102
RTVSPropertyOp9
 70
     1
102
RTVSPropertyOp10
 70
     1
102
RTVSPropertyOp11
 70
     1
102
RTVSPropertyOp12
 70
     1
102
RTVSPropertyOp13
 70
     1
102
RTVSPropertyOp14
 70
     1
102
RTVSPropertyOp15
 70
     1
102
RTVSPropertyOp16
 70
     1
102
RTVSPropertyOp17
 70
     1
102
RTVSPropertyOp18
 70
     1
102
RTVSPropertyOp19
 70
     1
102
RTVSPropertyOp20
 70
     1
102
RTVSPropertyOp21
 70
     1
102
RTVSPropertyOp22
 70
     1
102
RTVSPropertyOp23
 70
     1
102
RTVSPropertyOp24
 70
     1
102
RTVSPropertyOp25
 70
     1
102
RTVSPropertyOp26
 70
     1
102
RTVSPropertyOp27
 70
     1
102
RTVSPropertyOp28
 70
     1
102
RTVSPropertyOp29
 70
     1
102
RTVSPropertyOp30
 70
     1
102
RTVSPropertyOp31
 70
     1
102
RTVSPropertyOp32
 70
     1
102
RTVSPropertyOp33
 70
     1
102
RTVSPropertyOp34
 70
     1
102
RTVSPropertyOp35
 70
     1
102
RTVSPropertyOp36
 70
     1
102
RTVSPropertyOp37
 70
     1
102
RTVSPropertyOp38
 70
     1
102
RTVSPropertyOp39
 70
     1
102
RTVSPropertyOp40
 70
     1
102
RTVSPropertyOp41
 70
     1
102
RTVSPropertyOp42
 70
     1
102
RTVSPropertyOp43
 70
     1
102
RTVSPropertyOp44
 70
     1
102
RTVSPropertyOp45
 70
     1
102
RTVSPropertyOp46
 70
     1
102
RTVSPropertyOp47
 70
     1
102
RTVSPropertyOp48
 70
     1
102
RTVSPropertyOp49
 70
     1
102
RTVSPropertyOp50
 70
     1
102
RTVSPropertyOp51
 70
     0
102
RTVSPropertyOp52
 70
     0
102
RTVSPropertyOp53
 70
     1
102
RTVSPropertyOp54
 70
     1
102
RTVSPropertyOp55
 70
     1
102
RTVSPropertyOp56
 70
     1
102
RTVSPropertyOp57
 70
     1
102
RTVSPropertyOp58
 70
     1
102
RTVSPropertyOp59
 70
     1
102
RTVSPropertyOp60
 70
     1
102
RTVSPropertyOp61
 70
     1
102
RTVSPropertyOp62
 70
     1
  0
XRECORD
  5
B5B
102
{ACAD_REACTORS
330
B5A
102
}
330
B5A
100
AcDbXrecord
280
     1
102
RTVSPost2010Prop28
280
     0
102
RTVSPost2010PropOp28
 70
     1
102
RTVSPost2010Prop29
280
     1
102
RTVSPost2010PropOp29
 70
     1
102
RTVSPost2010Prop30
280
     1
102
RTVSPost2010PropOp30
 70
     1
102
RTVSPost2010Prop31
280
     0
102
RTVSPost2010PropOp31
 70
     1
102
RTVSPost2010Prop32
280
     0
102
RTVSPost2010PropOp32
 70
     1
102
RTVSPost2010Prop33
280
     0
102
RTVSPost2010PropOp33
 70
     1
102
RTVSPost2010Prop34
280
     0
102
RTVSPost2010PropOp34
 70
     1
102
RTVSPost2010Prop35
280
     0
102
RTVSPost2010PropOp35
 70
     1
102
RTVSPost2010Prop36
280
     0
102
RTVSPost2010PropOp36
 70
     1
102
RTVSPost2010Prop37
 90
       50
102
RTVSPost2010PropOp37
 70
     1
102
RTVSPost2010Prop38
140
0.0
102
RTVSPost2010PropOp38
 70
     1
102
RTVSPost2010Prop39
140
1.0
102
RTVSPost2010PropOp39
 70
     1
102
RTVSPost2010Prop40
 90
        0
102
RTVSPost2010PropOp40
 70
     1
102
RTVSPost2010Prop41ColorIndex
 90
       18
102
RTVSPost2010Prop41ColorRGB
 90
        0
102
RTVSPost2010PropOp41
 70
     1
102
RTVSPost2010Prop42
 90
       50
102
RTVSPost2010PropOp42
 70
     1
102
RTVSPost2010Prop43
 90
        3
102
RTVSPost2010PropOp43
 70
     1
102
RTVSPost2010Prop44ColorIndex
 90
        5
102
RTVSPost2010Prop44ColorRGB
 90
      255
102
RTVSPost2010PropOp44
 70
     1
102
RTVSPost2010Prop45
280
     0
102
RTVSPost2010PropOp45
 70
     1
102
RTVSPost2010Prop46
 90
       50
102
RTVSPost2010PropOp46
 70
     1
102
RTVSPost2010Prop47
 90
       50
102
RTVSPost2010PropOp47
 70
     1
102
RTVSPost2010Prop48
 90
       50
102
RTVSPost2010PropOp48
 70
     1
102
RTVSPost2010Prop49
280
     0
102
RTVSPost2010PropOp49
 70
     1
102
RTVSPost2010Prop50
 90
       50
102
RTVSPost2010PropOp50
 70
     1
102
RTVSPost2010Prop51ColorIndex
 90
      256
102
RTVSPost2010Prop51ColorRGB
 90
-16777216
102
RTVSPost2010PropOp51
 70
     0
102
RTVSPost2010Prop52
140
1.0
102
RTVSPost2010PropOp52
 70
     0
102
RTVSPost2010Prop53
 90
        2
102
RTVSPost2010PropOp53
 70
     1
102
RTVSPost2010Prop54
  1
strokes_ogs.tif
102
RTVSPost2010PropOp54
 70
     1
102
RTVSPost2010Prop55
280
     0
102
RTVSPost2010PropOp55
 70
     1
102
RTVSPost2010Prop56
140
1.0
102
RTVSPost2010PropOp56
 70
     1
102
RTVSPost2010Prop57
140
1.0
102
RTVSPost2010PropOp57
 70
     1
102
RTVSPropertyOp0
 70
     1
102
RTVSPropertyOp1
 70
     1
102
RTVSPropertyOp2
 70
     1
102
RTVSPropertyOp3
 70
     1
102
RTVSPropertyOp4
 70
     1
102
RTVSPropertyOp5
 70
     1
102
RTVSPropertyOp6
 70
     1
102
RTVSPropertyOp7
 70
     1
102
RTVSPropertyOp8
 70
     1
102
RTVSPropertyOp9
 70
     1
102
RTVSPropertyOp10
 70
     1
102
RTVSPropertyOp11
 70
     1
102
RTVSPropertyOp12
 70
     1
102
RTVSPropertyOp13
 70
     1
102
RTVSPropertyOp14
 70
     1
102
RTVSPropertyOp15
 70
     1
102
RTVSPropertyOp16
 70
     1
102
RTVSPropertyOp17
 70
     1
102
RTVSPropertyOp18
 70
     1
102
RTVSPropertyOp19
 70
     1
102
RTVSPropertyOp20
 70
     1
102
RTVSPropertyOp21
 70
     1
102
RTVSPropertyOp22
 70
     1
102
RTVSPropertyOp23
 70
     1
102
RTVSPropertyOp24
 70
     1
102
RTVSPropertyOp25
 70
     1
102
RTVSPropertyOp26
 70
     1
102
RTVSPropertyOp27
 70
     1
102
RTVSPropertyOp28
 70
     1
102
RTVSPropertyOp29
 70
     1
102
RTVSPropertyOp30
 70
     1
102
RTVSPropertyOp31
 70
     1
102
RTVSPropertyOp32
 70
     1
102
RTVSPropertyOp33
 70
     1
102
RTVSPropertyOp34
 70
     1
102
RTVSPropertyOp35
 70
     1
102
RTVSPropertyOp36
 70
     1
102
RTVSPropertyOp37
 70
     1
102
RTVSPropertyOp38
 70
     1
102
RTVSPropertyOp39
 70
     1
102
RTVSPropertyOp40
 70
     1
102
RTVSPropertyOp41
 70
     1
102
RTVSPropertyOp42
 70
     1
102
RTVSPropertyOp43
 70
     1
102
RTVSPropertyOp44
 70
     1
102
RTVSPropertyOp45
 70
     1
102
RTVSPropertyOp46
 70
     1
102
RTVSPropertyOp47
 70
     1
102
RTVSPropertyOp48
 70
     1
102
RTVSPropertyOp49
 70
     1
102
RTVSPropertyOp50
 70
     1
102
RTVSPropertyOp51
 70
     0
102
RTVSPropertyOp52
 70
     0
102
RTVSPropertyOp53
 70
     1
102
RTVSPropertyOp54
 70
     1
102
RTVSPropertyOp55
 70
     1
102
RTVSPropertyOp56
 70
     1
102
RTVSPropertyOp57
 70
     1
102
RTVSPropertyOp58
 70
     1
102
RTVSPropertyOp59
 70
     1
102
RTVSPropertyOp60
 70
     1
102
RTVSPropertyOp61
 70
     1
102
RTVSPropertyOp62
 70
     1
  0
XRECORD
  5
B4F
102
{ACAD_REACTORS
330
B4E
102
}
330
B4E
100
AcDbXrecord
280
     1
102
RTVSPost2010Prop28
280
     0
102
RTVSPost2010PropOp28
 70
     1
102
RTVSPost2010Prop29
280
     1
102
RTVSPost2010PropOp29
 70
     1
102
RTVSPost2010Prop30
280
     1
102
RTVSPost2010PropOp30
 70
     1
102
RTVSPost2010Prop31
280
     0
102
RTVSPost2010PropOp31
 70
     1
102
RTVSPost2010Prop32
280
     0
102
RTVSPost2010PropOp32
 70
     1
102
RTVSPost2010Prop33
280
     0
102
RTVSPost2010PropOp33
 70
     1
102
RTVSPost2010Prop34
280
     0
102
RTVSPost2010PropOp34
 70
     1
102
RTVSPost2010Prop35
280
     0
102
RTVSPost2010PropOp35
 70
     1
102
RTVSPost2010Prop36
280
     0
102
RTVSPost2010PropOp36
 70
     1
102
RTVSPost2010Prop37
 90
       50
102
RTVSPost2010PropOp37
 70
     1
102
RTVSPost2010Prop38
140
0.0
102
RTVSPost2010PropOp38
 70
     1
102
RTVSPost2010Prop39
140
1.0
102
RTVSPost2010PropOp39
 70
     1
102
RTVSPost2010Prop40
 90
        0
102
RTVSPost2010PropOp40
 70
     1
102
RTVSPost2010Prop41ColorIndex
 90
       18
102
RTVSPost2010Prop41ColorRGB
 90
        0
102
RTVSPost2010PropOp41
 70
     1
102
RTVSPost2010Prop42
 90
       50
102
RTVSPost2010PropOp42
 70
     1
102
RTVSPost2010Prop43
 90
        3
102
RTVSPost2010PropOp43
 70
     1
102
RTVSPost2010Prop44ColorIndex
 90
        5
102
RTVSPost2010Prop44ColorRGB
 90
      255
102
RTVSPost2010PropOp44
 70
     1
102
RTVSPost2010Prop45
280
     0
102
RTVSPost2010PropOp45
 70
     1
102
RTVSPost2010Prop46
 90
       50
102
RTVSPost2010PropOp46
 70
     1
102
RTVSPost2010Prop47
 90
       50
102
RTVSPost2010PropOp47
 70
     1
102
RTVSPost2010Prop48
 90
       50
102
RTVSPost2010PropOp48
 70
     1
102
RTVSPost2010Prop49
280
     0
102
RTVSPost2010PropOp49
 70
     1
102
RTVSPost2010Prop50
 90
       50
102
RTVSPost2010PropOp50
 70
     1
102
RTVSPost2010Prop51ColorIndex
 90
      256
102
RTVSPost2010Prop51ColorRGB
 90
-16777216
102
RTVSPost2010PropOp51
 70
     0
102
RTVSPost2010Prop52
140
1.0
102
RTVSPost2010PropOp52
 70
     0
102
RTVSPost2010Prop53
 90
        2
102
RTVSPost2010PropOp53
 70
     1
102
RTVSPost2010Prop54
  1
strokes_ogs.tif
102
RTVSPost2010PropOp54
 70
     1
102
RTVSPost2010Prop55
280
     0
102
RTVSPost2010PropOp55
 70
     1
102
RTVSPost2010Prop56
140
1.0
102
RTVSPost2010PropOp56
 70
     1
102
RTVSPost2010Prop57
140
1.0
102
RTVSPost2010PropOp57
 70
     1
102
RTVSPropertyOp0
 70
     1
102
RTVSPropertyOp1
 70
     1
102
RTVSPropertyOp2
 70
     1
102
RTVSPropertyOp3
 70
     1
102
RTVSPropertyOp4
 70
     1
102
RTVSPropertyOp5
 70
     1
102
RTVSPropertyOp6
 70
     1
102
RTVSPropertyOp7
 70
     1
102
RTVSPropertyOp8
 70
     1
102
RTVSPropertyOp9
 70
     1
102
RTVSPropertyOp10
 70
     1
102
RTVSPropertyOp11
 70
     1
102
RTVSPropertyOp12
 70
     1
102
RTVSPropertyOp13
 70
     1
102
RTVSPropertyOp14
 70
     1
102
RTVSPropertyOp15
 70
     1
102
RTVSPropertyOp16
 70
     1
102
RTVSPropertyOp17
 70
     1
102
RTVSPropertyOp18
 70
     1
102
RTVSPropertyOp19
 70
     1
102
RTVSPropertyOp20
 70
     1
102
RTVSPropertyOp21
 70
     1
102
RTVSPropertyOp22
 70
     1
102
RTVSPropertyOp23
 70
     1
102
RTVSPropertyOp24
 70
     1
102
RTVSPropertyOp25
 70
     1
102
RTVSPropertyOp26
 70
     1
102
RTVSPropertyOp27
 70
     1
102
RTVSPropertyOp28
 70
     1
102
RTVSPropertyOp29
 70
     1
102
RTVSPropertyOp30
 70
     1
102
RTVSPropertyOp31
 70
     1
102
RTVSPropertyOp32
 70
     1
102
RTVSPropertyOp33
 70
     1
102
RTVSPropertyOp34
 70
     1
102
RTVSPropertyOp35
 70
     1
102
RTVSPropertyOp36
 70
     1
102
RTVSPropertyOp37
 70
     1
102
RTVSPropertyOp38
 70
     1
102
RTVSPropertyOp39
 70
     1
102
RTVSPropertyOp40
 70
     1
102
RTVSPropertyOp41
 70
     1
102
RTVSPropertyOp42
 70
     1
102
RTVSPropertyOp43
 70
     1
102
RTVSPropertyOp44
 70
     1
102
RTVSPropertyOp45
 70
     1
102
RTVSPropertyOp46
 70
     1
102
RTVSPropertyOp47
 70
     1
102
RTVSPropertyOp48
 70
     1
102
RTVSPropertyOp49
 70
     1
102
RTVSPropertyOp50
 70
     1
102
RTVSPropertyOp51
 70
     0
102
RTVSPropertyOp52
 70
     0
102
RTVSPropertyOp53
 70
     1
102
RTVSPropertyOp54
 70
     1
102
RTVSPropertyOp55
 70
     1
102
RTVSPropertyOp56
 70
     1
102
RTVSPropertyOp57
 70
     1
102
RTVSPropertyOp58
 70
     1
102
RTVSPropertyOp59
 70
     1
102
RTVSPropertyOp60
 70
     1
102
RTVSPropertyOp61
 70
     1
102
RTVSPropertyOp62
 70
     1
  0
XRECORD
  5
B67
102
{ACAD_REACTORS
330
B66
102
}
330
B66
100
AcDbXrecord
280
     1
102
RTVSPost2010Prop28
280
     0
102
RTVSPost2010PropOp28
 70
     1
102
RTVSPost2010Prop29
280
     1
102
RTVSPost2010PropOp29
 70
     1
102
RTVSPost2010Prop30
280
     1
102
RTVSPost2010PropOp30
 70
     1
102
RTVSPost2010Prop31
280
     0
102
RTVSPost2010PropOp31
 70
     1
102
RTVSPost2010Prop32
280
     0
102
RTVSPost2010PropOp32
 70
     1
102
RTVSPost2010Prop33
280
     0
102
RTVSPost2010PropOp33
 70
     1
102
RTVSPost2010Prop34
280
     0
102
RTVSPost2010PropOp34
 70
     1
102
RTVSPost2010Prop35
280
     0
102
RTVSPost2010PropOp35
 70
     1
102
RTVSPost2010Prop36
280
     0
102
RTVSPost2010PropOp36
 70
     1
102
RTVSPost2010Prop37
 90
       50
102
RTVSPost2010PropOp37
 70
     1
102
RTVSPost2010Prop38
140
0.0
102
RTVSPost2010PropOp38
 70
     1
102
RTVSPost2010Prop39
140
1.0
102
RTVSPost2010PropOp39
 70
     1
102
RTVSPost2010Prop40
 90
        0
102
RTVSPost2010PropOp40
 70
     1
102
RTVSPost2010Prop41ColorIndex
 90
       18
102
RTVSPost2010Prop41ColorRGB
 90
        0
102
RTVSPost2010PropOp41
 70
     1
102
RTVSPost2010Prop42
 90
       50
102
RTVSPost2010PropOp42
 70
     1
102
RTVSPost2010Prop43
 90
        3
102
RTVSPost2010PropOp43
 70
     1
102
RTVSPost2010Prop44ColorIndex
 90
        5
102
RTVSPost2010Prop44ColorRGB
 90
      255
102
RTVSPost2010PropOp44
 70
     1
102
RTVSPost2010Prop45
280
     0
102
RTVSPost2010PropOp45
 70
     1
102
RTVSPost2010Prop46
 90
       50
102
RTVSPost2010PropOp46
 70
     1
102
RTVSPost2010Prop47
 90
       50
102
RTVSPost2010PropOp47
 70
     1
102
RTVSPost2010Prop48
 90
       50
102
RTVSPost2010PropOp48
 70
     1
102
RTVSPost2010Prop49
280
     0
102
RTVSPost2010PropOp49
 70
     1
102
RTVSPost2010Prop50
 90
       50
102
RTVSPost2010PropOp50
 70
     1
102
RTVSPost2010Prop51ColorIndex
 90
      256
102
RTVSPost2010Prop51ColorRGB
 90
-16777216
102
RTVSPost2010PropOp51
 70
     0
102
RTVSPost2010Prop52
140
1.0
102
RTVSPost2010PropOp52
 70
     0
102
RTVSPost2010Prop53
 90
        2
102
RTVSPost2010PropOp53
 70
     1
102
RTVSPost2010Prop54
  1
strokes_ogs.tif
102
RTVSPost2010PropOp54
 70
     1
102
RTVSPost2010Prop55
280
     0
102
RTVSPost2010PropOp55
 70
     1
102
RTVSPost2010Prop56
140
1.0
102
RTVSPost2010PropOp56
 70
     1
102
RTVSPost2010Prop57
140
1.0
102
RTVSPost2010PropOp57
 70
     1
102
RTVSPropertyOp0
 70
     1
102
RTVSPropertyOp1
 70
     1
102
RTVSPropertyOp2
 70
     1
102
RTVSPropertyOp3
 70
     1
102
RTVSPropertyOp4
 70
     1
102
RTVSPropertyOp5
 70
     1
102
RTVSPropertyOp6
 70
     1
102
RTVSPropertyOp7
 70
     1
102
RTVSPropertyOp8
 70
     1
102
RTVSPropertyOp9
 70
     1
102
RTVSPropertyOp10
 70
     1
102
RTVSPropertyOp11
 70
     1
102
RTVSPropertyOp12
 70
     1
102
RTVSPropertyOp13
 70
     1
102
RTVSPropertyOp14
 70
     1
102
RTVSPropertyOp15
 70
     1
102
RTVSPropertyOp16
 70
     1
102
RTVSPropertyOp17
 70
     1
102
RTVSPropertyOp18
 70
     1
102
RTVSPropertyOp19
 70
     1
102
RTVSPropertyOp20
 70
     1
102
RTVSPropertyOp21
 70
     1
102
RTVSPropertyOp22
 70
     1
102
RTVSPropertyOp23
 70
     1
102
RTVSPropertyOp24
 70
     1
102
RTVSPropertyOp25
 70
     1
102
RTVSPropertyOp26
 70
     1
102
RTVSPropertyOp27
 70
     1
102
RTVSPropertyOp28
 70
     1
102
RTVSPropertyOp29
 70
     1
102
RTVSPropertyOp30
 70
     1
102
RTVSPropertyOp31
 70
     1
102
RTVSPropertyOp32
 70
     1
102
RTVSPropertyOp33
 70
     1
102
RTVSPropertyOp34
 70
     1
102
RTVSPropertyOp35
 70
     1
102
RTVSPropertyOp36
 70
     1
102
RTVSPropertyOp37
 70
     1
102
RTVSPropertyOp38
 70
     1
102
RTVSPropertyOp39
 70
     1
102
RTVSPropertyOp40
 70
     1
102
RTVSPropertyOp41
 70
     1
102
RTVSPropertyOp42
 70
     1
102
RTVSPropertyOp43
 70
     1
102
RTVSPropertyOp44
 70
     1
102
RTVSPropertyOp45
 70
     1
102
RTVSPropertyOp46
 70
     1
102
RTVSPropertyOp47
 70
     1
102
RTVSPropertyOp48
 70
     1
102
RTVSPropertyOp49
 70
     1
102
RTVSPropertyOp50
 70
     1
102
RTVSPropertyOp51
 70
     0
102
RTVSPropertyOp52
 70
     0
102
RTVSPropertyOp53
 70
     1
102
RTVSPropertyOp54
 70
     1
102
RTVSPropertyOp55
 70
     1
102
RTVSPropertyOp56
 70
     1
102
RTVSPropertyOp57
 70
     1
102
RTVSPropertyOp58
 70
     1
102
RTVSPropertyOp59
 70
     1
102
RTVSPropertyOp60
 70
     1
102
RTVSPropertyOp61
 70
     1
102
RTVSPropertyOp62
 70
     1
  0
ENDSEC
  0
EOF
