  0
SECTION
  2
HEADER
  9
$ACADVER
  1
AC1018
  9
$ACADMAINTVER
 70
     2
  9
$DWGCODEPAGE
  3
ANSI_1252
  9
$INSBASE
 10
0.0
 20
0.0
 30
0.0
  9
$EXTMIN
 10
-0.0064041928749248
 20
-0.0090573584946014
 30
-0.0000000000112498
  9
$EXTMAX
 10
420.0064100605654
 20
594.0090656570857
 30
0.0000000000002956
  9
$LIMMIN
 10
0.0
 20
0.0
  9
$LIMMAX
 10
419.9999999999999
 20
594.0000000000002
  9
$ORTHOMODE
 70
     1
  9
$REGENMODE
 70
     1
  9
$FILLMODE
 70
     1
  9
$QTEXTMODE
 70
     0
  9
$MIRRTEXT
 70
     1
  9
$LTSCALE
 40
20.0
  9
$ATTMODE
 70
     1
  9
$TEXTSIZE
 40
3.5
  9
$TRACEWID
 40
0.5
  9
$TEXTSTYLE
  7
STANDARD
  9
$CLAYER
  8
SCHRAFF
  9
$CELTYPE
  6
ByLayer
  9
$CECOLOR
 62
   256
  9
$CELTSCALE
 40
1.0
  9
$DISPSILH
 70
     0
  9
$DIMSCALE
 40
2.0
  9
$DIMASZ
 40
3.5
  9
$DIMEXO
 40
1.0
  9
$DIMDLI
 40
7.0
  9
$DIMRND
 40
0.0
  9
$DIMDLE
 40
0.0
  9
$DIMEXE
 40
1.0
  9
$DIMTP
 40
0.0
  9
$DIMTM
 40
0.0
  9
$DIMTXT
 40
3.5
  9
$DIMCEN
 40
1.5
  9
$DIMTSZ
 40
0.0
  9
$DIMTOL
 70
     0
  9
$DIMLIM
 70
     0
  9
$DIMTIH
 70
     0
  9
$DIMTOH
 70
     0
  9
$DIMSE1
 70
     0
  9
$DIMSE2
 70
     0
  9
$DIMTAD
 70
     1
  9
$DIMZIN
 70
     8
  9
$DIMBLK
  1

  9
$DIMASO
 70
     1
  9
$DIMSHO
 70
     0
  9
$DIMPOST
  1

  9
$DIMAPOST
  1

  9
$DIMALT
 70
     0
  9
$DIMALTD
 70
     2
  9
$DIMALTF
 40
25.4
  9
$DIMLFAC
 40
1.0
  9
$DIMTOFL
 70
     1
  9
$DIMTVP
 40
0.0
  9
$DIMTIX
 70
     0
  9
$DIMSOXD
 70
     0
  9
$DIMSAH
 70
     0
  9
$DIMBLK1
  1

  9
$DIMBLK2
  1

  9
$DIMSTYLE
  2
Standard
  9
$DIMCLRD
 70
     0
  9
$DIMCLRE
 70
     0
  9
$DIMCLRT
 70
     1
  9
$DIMTFAC
 40
0.5142857142857144
  9
$DIMGAP
 40
1.5
  9
$DIMJUST
 70
     0
  9
$DIMSD1
 70
     0
  9
$DIMSD2
 70
     0
  9
$DIMTOLJ
 70
     1
  9
$DIMTZIN
 70
     8
  9
$DIMALTZ
 70
     8
  9
$DIMALTTZ
 70
     8
  9
$DIMUPT
 70
     0
  9
$DIMDEC
 70
     2
  9
$DIMTDEC
 70
     2
  9
$DIMALTU
 70
     2
  9
$DIMALTTD
 70
     2
  9
$DIMTXSTY
  7
STANDARD
  9
$DIMAUNIT
 70
     0
  9
$DIMADEC
 70
     2
  9
$DIMALTRND
 40
0.0
  9
$DIMAZIN
 70
     2
  9
$DIMDSEP
 70
    46
  9
$DIMATFIT
 70
     3
  9
$DIMFRAC
 70
     0
  9
$DIMLDRBLK
  1

  9
$DIMLUNIT
 70
     2
  9
$DIMLWD
 70
    -2
  9
$DIMLWE
 70
    -2
  9
$DIMTMOVE
 70
     0
  9
$LUNITS
 70
     2
  9
$LUPREC
 70
     2
  9
$SKETCHINC
 40
1.0
  9
$FILLETRAD
 40
0.0
  9
$AUNITS
 70
     0
  9
$AUPREC
 70
     0
  9
$MENU
  1
ACAD
  9
$ELEVATION
 40
0.0
  9
$PELEVATION
 40
0.0
  9
$THICKNESS
 40
0.0
  9
$LIMCHECK
 70
     0
  9
$CHAMFERA
 40
0.0
  9
$CHAMFERB
 40
0.0
  9
$CHAMFERC
 40
0.0
  9
$CHAMFERD
 40
0.0
  9
$SKPOLY
 70
     0
  9
$TDCREATE
 40
2455397.823042361
  9
$TDUCREATE
 40
2455397.781375695
  9
$TDUPDATE
 40
2455532.564401748
  9
$TDUUPDATE
 40
2455532.522735081
  9
$TDINDWG
 40
0.0748299421
  9
$TDUSRTIMER
 40
0.0748299421
  9
$USRTIMER
 70
     1
  9
$ANGBASE
 50
0.0
  9
$ANGDIR
 70
     0
  9
$PDMODE
 70
     0
  9
$PDSIZE
 40
0.0
  9
$PLINEWID
 40
0.0
  9
$SPLFRAME
 70
     0
  9
$SPLINETYPE
 70
     6
  9
$SPLINESEGS
 70
     8
  9
$HANDSEED
  5
15FA
  9
$SURFTAB1
 70
     6
  9
$SURFTAB2
 70
     6
  9
$SURFTYPE
 70
     6
  9
$SURFU
 70
     6
  9
$SURFV
 70
     6
  9
$UCSBASE
  2

  9
$UCSNAME
  2

  9
$UCSORG
 10
0.0
 20
0.0
 30
0.0
  9
$UCSXDIR
 10
1.0
 20
0.0
 30
0.0
  9
$UCSYDIR
 10
0.0
 20
1.0
 30
0.0
  9
$UCSORTHOREF
  2

  9
$UCSORTHOVIEW
 70
     0
  9
$UCSORGTOP
 10
0.0
 20
0.0
 30
0.0
  9
$UCSORGBOTTOM
 10
0.0
 20
0.0
 30
0.0
  9
$UCSORGLEFT
 10
0.0
 20
0.0
 30
0.0
  9
$UCSORGRIGHT
 10
0.0
 20
0.0
 30
0.0
  9
$UCSORGFRONT
 10
0.0
 20
0.0
 30
0.0
  9
$UCSORGBACK
 10
0.0
 20
0.0
 30
0.0
  9
$PUCSBASE
  2

  9
$PUCSNAME
  2

  9
$PUCSORG
 10
0.0
 20
0.0
 30
0.0
  9
$PUCSXDIR
 10
1.0
 20
0.0
 30
0.0
  9
$PUCSYDIR
 10
0.0
 20
1.0
 30
0.0
  9
$PUCSORTHOREF
  2

  9
$PUCSORTHOVIEW
 70
     0
  9
$PUCSORGTOP
 10
0.0
 20
0.0
 30
0.0
  9
$PUCSORGBOTTOM
 10
0.0
 20
0.0
 30
0.0
  9
$PUCSORGLEFT
 10
0.0
 20
0.0
 30
0.0
  9
$PUCSORGRIGHT
 10
0.0
 20
0.0
 30
0.0
  9
$PUCSORGFRONT
 10
0.0
 20
0.0
 30
0.0
  9
$PUCSORGBACK
 10
0.0
 20
0.0
 30
0.0
  9
$USERI1
 70
     0
  9
$USERI2
 70
     0
  9
$USERI3
 70
     0
  9
$USERI4
 70
     0
  9
$USERI5
 70
     0
  9
$USERR1
 40
0.0
  9
$USERR2
 40
0.0
  9
$USERR3
 40
0.0
  9
$USERR4
 40
0.0
  9
$USERR5
 40
0.0
  9
$WORLDVIEW
 70
     1
  9
$SHADEDGE
 70
     3
  9
$SHADEDIF
 70
    70
  9
$TILEMODE
 70
     1
  9
$MAXACTVP
 70
    16
  9
$PINSBASE
 10
0.0
 20
0.0
 30
0.0
  9
$PLIMCHECK
 70
     0
  9
$PEXTMIN
 10
1.000000000000000E+20
 20
1.000000000000000E+20
 30
1.000000000000000E+20
  9
$PEXTMAX
 10
-1.000000000000000E+20
 20
-1.000000000000000E+20
 30
-1.000000000000000E+20
  9
$PLIMMIN
 10
0.0
 20
0.0
  9
$PLIMMAX
 10
12.0
 20
9.0
  9
$UNITMODE
 70
     0
  9
$VISRETAIN
 70
     0
  9
$PLINEGEN
 70
     0
  9
$PSLTSCALE
 70
     0
  9
$TREEDEPTH
 70
  3020
  9
$CMLSTYLE
  2
Standard
  9
$CMLJUST
 70
     0
  9
$CMLSCALE
 40
1.0
  9
$PROXYGRAPHICS
 70
     1
  9
$MEASUREMENT
 70
     0
  9
$CELWEIGHT
370
    -1
  9
$ENDCAPS
280
     0
  9
$JOINSTYLE
280
     0
  9
$LWDISPLAY
290
     0
  9
$INSUNITS
 70
     0
  9
$HYPERLINKBASE
  1

  9
$STYLESHEET
  1
monochrome 1.ctb
  9
$XEDIT
290
     1
  9
$CEPSNTYPE
380
     0
  9
$PSTYLEMODE
290
     1
  9
$FINGERPRINTGUID
  2
{D68B0D02-A558-11D7-B632-000102183313}
  9
$VERSIONGUID
  2
{28376676-796E-48B9-99B1-D2C8C537AA96}
  9
$EXTNAMES
290
     1
  9
$PSVPSCALE
 40
0.0
  9
$OLESTARTUP
290
     0
  9
$SORTENTS
280
   127
  9
$INDEXCTL
280
     0
  9
$HIDETEXT
280
     0
  9
$XCLIPFRAME
290
     0
  9
$HALOGAP
280
     0
  9
$OBSCOLOR
 70
   257
  9
$OBSLTYPE
280
     0
  9
$INTERSECTIONDISPLAY
280
     0
  9
$INTERSECTIONCOLOR
 70
   257
  9
$DIMASSOC
280
     1
  9
$PROJECTNAME
  1

  0
ENDSEC
  0
SECTION
  2
CLASSES
  0
CLASS
  1
ACDBDICTIONARYWDFLT
  2
AcDbDictionaryWithDefault
  3
ObjectDBX Classes
 90
        0
 91
        1
280
     0
281
     0
  0
CLASS
  1
DICTIONARYVAR
  2
AcDbDictionaryVar
  3
ObjectDBX Classes
 90
        0
 91
        2
280
     0
281
     0
  0
ENDSEC
  0
SECTION
  2
TABLES
  0
TABLE
  2
VPORT
  5
8
330
0
100
AcDbSymbolTable
 70
     2
  0
VPORT
  5
15F9
330
8
100
AcDbSymbolTableRecord
100
AcDbViewportTableRecord
  2
*Active
 70
     0
 10
0.0
 20
0.0
 11
1.0
 21
1.0
 12
210.0000029338453
 22
297.0000041492956
 13
0.0
 23
0.0
 14
1.0
 24
1.0
 15
10.0
 25
10.0
 16
0.0
 26
0.0
 36
1.0
 17
0.0
 27
0.0
 37
0.0
 40
598.8150392175905
 41
1.336927223719676
 42
50.0
 43
0.0
 44
0.0
 50
0.0
 51
0.0
 71
     0
 72
  1500
 73
     1
 74
     0
 75
     0
 76
     0
 77
     0
 78
     0
281
     0
 65
     1
110
0.0
120
0.0
130
0.0
111
1.0
121
0.0
131
0.0
112
0.0
122
1.0
132
0.0
 79
     0
146
0.0
  0
ENDTAB
  0
TABLE
  2
LTYPE
  5
5
330
0
100
AcDbSymbolTable
 70
     3
  0
LTYPE
  5
13
330
5
100
AcDbSymbolTableRecord
100
AcDbLinetypeTableRecord
  2
ByBlock
 70
     0
  3

 72
    65
 73
     0
 40
0.0
  0
LTYPE
  5
14
330
5
100
AcDbSymbolTableRecord
100
AcDbLinetypeTableRecord
  2
ByLayer
 70
     0
  3

 72
    65
 73
     0
 40
0.0
  0
LTYPE
  5
15
330
5
100
AcDbSymbolTableRecord
100
AcDbLinetypeTableRecord
  2
Continuous
 70
     0
  3
Solid line
 72
    65
 73
     0
 40
0.0
  0
LTYPE
  5
25
330
5
100
AcDbSymbolTableRecord
100
AcDbLinetypeTableRecord
  2
STRICHPUNKT
 70
     0
  3
__ . __ . __ . __ . __ . __ . __ . __ . __ . __
 72
    65
 73
     4
 40
1.0
 49
0.5
 74
     0
 49
-0.25
 74
     0
 49
0.0
 74
     0
 49
-0.25
 74
     0
  0
LTYPE
  5
32
330
5
100
AcDbSymbolTableRecord
100
AcDbLinetypeTableRecord
  2
AUSGEZOGEN
 70
     0
  3
Ausgezogene Linie
 72
    65
 73
     0
 40
0.0
  0
ENDTAB
  0
TABLE
  2
LAYER
  5
2
330
0
100
AcDbSymbolTable
 70
     9
  0
LAYER
  5
10
330
2
100
AcDbSymbolTableRecord
100
AcDbLayerTableRecord
  2
0
 70
     0
 62
     7
  6
Continuous
370
    -3
390
F
  0
LAYER
  5
2A
330
2
100
AcDbSymbolTableRecord
100
AcDbLayerTableRecord
  2
VOLL
 70
     0
 62
     1
  6
Continuous
370
    -3
390
F
  0
LAYER
  5
2B
330
2
100
AcDbSymbolTableRecord
100
AcDbLayerTableRecord
  2
HILF
 70
     0
 62
     2
  6
Continuous
370
    -3
390
F
  0
LAYER
  5
2C
330
2
100
AcDbSymbolTableRecord
100
AcDbLayerTableRecord
  2
MITTEL
 70
     0
 62
     2
  6
STRICHPUNKT
370
    -3
390
F
  0
LAYER
  5
2F
330
2
100
AcDbSymbolTableRecord
100
AcDbLayerTableRecord
  2
BEM
 70
     0
 62
     7
  6
Continuous
370
    -3
390
F
  0
LAYER
  5
30
330
2
100
AcDbSymbolTableRecord
100
AcDbLayerTableRecord
  2
STEMPEL
 70
     0
 62
     3
  6
Continuous
370
    -3
390
F
  0
LAYER
  5
31
330
2
100
AcDbSymbolTableRecord
100
AcDbLayerTableRecord
  2
TEXT
 70
     0
 62
     7
  6
Continuous
370
    -3
390
F
  0
LAYER
  5
19D
330
2
100
AcDbSymbolTableRecord
100
AcDbLayerTableRecord
  2
DEFPOINTS
 70
     0
 62
     7
  6
AUSGEZOGEN
290
     0
370
    -3
390
F
  0
LAYER
  5
36A
330
2
100
AcDbSymbolTableRecord
100
AcDbLayerTableRecord
  2
SCHRAFF
 70
     0
 62
     7
  6
Continuous
370
    -3
390
F
  0
ENDTAB
  0
TABLE
  2
STYLE
  5
3
330
0
100
AcDbSymbolTable
 70
     2
  0
STYLE
  5
11
330
3
100
AcDbSymbolTableRecord
100
AcDbTextStyleTableRecord
  2
STANDARD
 70
     0
 40
0.0
 41
0.8
 50
0.0
 71
     0
 42
3.5
  3
simplex.shx
  4

  0
STYLE
  5
24
330
3
100
AcDbSymbolTableRecord
100
AcDbTextStyleTableRecord
  2
GREEKS
 70
     0
 40
0.0
 41
0.8
 50
0.0
 71
     0
 42
2.5
  3
SIMPLEX.shx
  4

  0
ENDTAB
  0
TABLE
  2
VIEW
  5
6
330
0
100
AcDbSymbolTable
 70
     0
  0
ENDTAB
  0
TABLE
  2
UCS
  5
7
330
0
100
AcDbSymbolTable
 70
     0
  0
ENDTAB
  0
TABLE
  2
APPID
  5
9
330
0
100
AcDbSymbolTable
 70
     1
  0
APPID
  5
12
330
9
100
AcDbSymbolTableRecord
100
AcDbRegAppTableRecord
  2
ACAD
 70
     0
  0
ENDTAB
  0
TABLE
  2
DIMSTYLE
  5
A
330
0
100
AcDbSymbolTable
 70
     1
100
AcDbDimStyleTable
 71
     1
340
9D
  0
DIMSTYLE
105
9D
102
{ACAD_REACTORS
330
1496
330
14DE
102
}
330
A
100
AcDbSymbolTableRecord
100
AcDbDimStyleTableRecord
  2
Standard
 70
     0
340
11
  0
ENDTAB
  0
TABLE
  2
BLOCK_RECORD
  5
1
330
0
100
AcDbSymbolTable
 70
     3
  0
BLOCK_RECORD
  5
1E
102
{ACAD_XDICTIONARY
360
A0
102
}
330
1
100
AcDbSymbolTableRecord
100
AcDbBlockTableRecord
  2
*Model_Space
340
21
  0
BLOCK_RECORD
  5
1A
102
{ACAD_XDICTIONARY
360
A2
102
}
330
1
100
AcDbSymbolTableRecord
100
AcDbBlockTableRecord
  2
*Paper_Space
340
1D
  0
BLOCK_RECORD
  5
22
330
1
100
AcDbSymbolTableRecord
100
AcDbBlockTableRecord
  2
LOGO
340
0
102
{BLKREFS
331
9B
102
}
  0
BLOCK_RECORD
  5
14A7
330
1
100
AcDbSymbolTableRecord
100
AcDbBlockTableRecord
  2
*D1
340
0
  0
BLOCK_RECORD
  5
14DF
330
1
100
AcDbSymbolTableRecord
100
AcDbBlockTableRecord
  2
*D2
340
0
  0
ENDTAB
  0
ENDSEC
  0
SECTION
  2
BLOCKS
  0
BLOCK
  5
35
330
1E
100
AcDbEntity
  8
0
100
AcDbBlockBegin
  2
*Model_Space
 70
     0
 10
0.0
 20
0.0
 30
0.0
  3
*Model_Space
  1

  0
ENDBLK
  5
36
330
1E
100
AcDbEntity
  8
0
100
AcDbBlockEnd
  0
BLOCK
  5
33
330
1A
100
AcDbEntity
 67
     1
  8
0
100
AcDbBlockBegin
  2
*Paper_Space
 70
     0
 10
0.0
 20
0.0
 30
0.0
  3
*Paper_Space
  1

  0
ENDBLK
  5
34
330
1A
100
AcDbEntity
 67
     1
  8
0
100
AcDbBlockEnd
  0
BLOCK
  5
37
330
22
100
AcDbEntity
  8
0
100
AcDbBlockBegin
  2
LOGO
 70
     0
 10
0.0
 20
0.0
 30
0.0
  3
LOGO
  1

  0
ARC
  5
38
330
22
100
AcDbEntity
  8
0
100
AcDbCircle
 10
11.59973089678112
 20
-9.271599258481501
 30
0.0
 40
4.5
100
AcDbArc
 50
270.0
 51
231.0575587310159
  0
LINE
  5
39
330
22
100
AcDbEntity
  8
0
100
AcDbLine
 10
3.599730896781125
 20
-4.771599258481529
 30
0.0
 11
3.599730896781153
 21
-11.77159925848133
 31
0.0
  0
LINE
  5
3A
330
22
100
AcDbEntity
  8
0
100
AcDbLine
 10
2.599730896781125
 20
-4.771599258481529
 30
0.0
 11
2.599730896781153
 21
-11.77159925848133
 31
0.0
  0
CIRCLE
  5
3B
330
22
100
AcDbEntity
  8
0
100
AcDbCircle
 10
11.59973089678112
 20
-9.271599258481501
 30
0.0
 40
3.5
  0
ARC
  5
3C
330
22
100
AcDbEntity
  8
0
100
AcDbCircle
 10
31.59973089678115
 20
-9.271599258481472
 30
0.0
 40
4.5
100
AcDbArc
 50
270.0
 51
231.0575587310182
  0
LINE
  5
3D
330
22
100
AcDbEntity
  8
0
100
AcDbLine
 10
17.59973089678112
 20
-4.771599258481472
 30
0.0
 11
17.59973089678115
 21
-13.77159925848147
 31
0.0
  0
ARC
  5
3E
330
22
100
AcDbEntity
  8
0
100
AcDbCircle
 10
22.59973089678116
 20
-7.271599258481472
 30
0.0
 40
2.5
100
AcDbArc
 50
293.1161887722295
 51
90.0
  0
CIRCLE
  5
3F
330
22
100
AcDbEntity
  8
0
100
AcDbCircle
 10
31.59973089678115
 20
-9.271599258481472
 30
0.0
 40
3.5
  0
ARC
  5
40
330
22
100
AcDbEntity
  8
0
100
AcDbCircle
 10
4.599730896781153
 20
-11.77159925848133
 30
0.0
 40
1.0
100
AcDbArc
 50
180.0
 51
270.0
  0
ARC
  5
41
330
22
100
AcDbEntity
  8
0
100
AcDbCircle
 10
4.599730896781153
 20
-11.77159925848133
 30
0.0
 40
2.0
100
AcDbArc
 50
179.9999999999992
 51
270.0
  0
LINE
  5
42
330
22
100
AcDbEntity
  8
0
100
AcDbLine
 10
11.59973089678115
 20
-13.77159925848144
 30
0.0
 11
4.599730896781153
 21
-13.77159925848147
 31
0.0
  0
LINE
  5
43
330
22
100
AcDbEntity
  8
0
100
AcDbLine
 10
8.771303772034769
 20
-12.77159925848136
 30
0.0
 11
4.599730896781153
 21
-12.77159925848133
 31
0.0
  0
LINE
  5
44
330
22
100
AcDbEntity
  8
0
100
AcDbLine
 10
31.59973089678115
 20
-13.77159925848147
 30
0.0
 11
23.6715276665056
 21
-13.77159925848144
 31
0.0
  0
LINE
  5
45
330
22
100
AcDbEntity
  8
0
100
AcDbLine
 10
23.56565672307022
 20
-9.51278021337896
 30
0.0
 11
24.4388546544846
 21
-12.77159925848144
 31
0.0
  0
LINE
  5
46
330
22
100
AcDbEntity
  8
0
100
AcDbLine
 10
22.59973089678116
 20
-9.771599258481472
 30
0.0
 11
18.59973089678112
 21
-9.771599258481472
 31
0.0
  0
LINE
  5
47
330
22
100
AcDbEntity
  8
0
100
AcDbLine
 10
18.59973089678115
 20
-13.77159925848144
 30
0.0
 11
17.59973089678115
 21
-13.77159925848144
 31
0.0
  0
LINE
  5
48
330
22
100
AcDbEntity
  8
0
100
AcDbLine
 10
18.59973089678115
 20
-9.771599258481472
 30
0.0
 11
18.59973089678115
 21
-13.77159925848144
 31
0.0
  0
LINE
  5
49
330
22
100
AcDbEntity
  8
0
100
AcDbLine
 10
22.59973089678116
 20
-9.771599258481472
 30
0.0
 11
23.67152766650562
 21
-13.77159925848147
 31
0.0
  0
ARC
  5
4A
330
22
100
AcDbEntity
  8
0
100
AcDbCircle
 10
22.59973089678116
 20
-7.271599258481472
 30
0.0
 40
2.5
100
AcDbArc
 50
270.0
 51
270.0000000000007
  0
LINE
  5
4B
330
22
100
AcDbEntity
  8
0
100
AcDbLine
 10
28.77130377203494
 20
-12.77159925848147
 30
0.0
 11
24.43885465448463
 21
-12.77159925848144
 31
0.0
  0
LINE
  5
4C
330
22
100
AcDbEntity
  8
0
100
AcDbLine
 10
3.599730896781125
 20
-4.771599258481472
 30
0.0
 11
2.599730896781125
 21
-4.771599258481472
 31
0.0
  0
LINE
  5
4D
330
22
100
AcDbEntity
  8
0
100
AcDbLine
 10
22.59973089678116
 20
-8.771599258481472
 30
0.0
 11
18.59973089678115
 21
-8.771599258481472
 31
0.0
  0
LINE
  5
4E
330
22
100
AcDbEntity
  8
0
100
AcDbLine
 10
22.59973089678116
 20
-5.771599258481472
 30
0.0
 11
18.59973089678115
 21
-5.771599258481472
 31
0.0
  0
LINE
  5
4F
330
22
100
AcDbEntity
  8
0
100
AcDbLine
 10
22.59973089678116
 20
-4.771599258481472
 30
0.0
 11
17.59973089678115
 21
-4.771599258481472
 31
0.0
  0
LINE
  5
50
330
22
100
AcDbEntity
  8
0
100
AcDbLine
 10
18.59973089678115
 20
-5.771599258481472
 30
0.0
 11
18.59973089678115
 21
-8.771599258481472
 31
0.0
  0
ARC
  5
51
330
22
100
AcDbEntity
  8
0
100
AcDbCircle
 10
22.59973089678116
 20
-7.271599258481472
 30
0.0
 40
1.5
100
AcDbArc
 50
270.0
 51
90.0
  0
ENDBLK
  5
52
330
22
100
AcDbEntity
  8
0
100
AcDbBlockEnd
  0
BLOCK
  5
14B1
330
14A7
100
AcDbEntity
  8
0
100
AcDbBlockBegin
  2
*D1
 70
     1
 10
0.0
 20
0.0
 30
0.0
  3
*D1
  1

  0
LINE
  5
15E6
330
14A7
100
AcDbEntity
  8
BEM
 62
     0
370
    -2
100
AcDbLine
 10
142.7762989971419
 20
457.7936068218178
 30
0.0
 11
142.7762989971419
 21
470.7110847206544
 31
0.0
  0
LINE
  5
15E7
330
14A7
100
AcDbEntity
  8
BEM
 62
     0
370
    -2
100
AcDbLine
 10
311.076298997142
 20
457.7936068218178
 30
0.0
 11
311.076298997142
 21
470.7110847206544
 31
0.0
  0
LINE
  5
15E8
330
14A7
100
AcDbEntity
  8
BEM
 62
     0
370
    -2
100
AcDbLine
 10
149.7762989971419
 20
468.7110847206544
 30
0.0
 11
304.076298997142
 21
468.7110847206544
 31
0.0
  0
SOLID
  5
15E9
330
14A7
100
AcDbEntity
  8
BEM
 62
     0
100
AcDbTrace
 10
149.7762989971419
 20
469.8777513873211
 30
0.0
 11
149.7762989971419
 21
467.5444180539876
 31
0.0
 12
142.7762989971419
 22
468.7110847206544
 32
0.0
 13
142.7762989971419
 23
468.7110847206544
 33
0.0
  0
SOLID
  5
15EA
330
14A7
100
AcDbEntity
  8
BEM
 62
     0
100
AcDbTrace
 10
304.076298997142
 20
469.8777513873211
 30
0.0
 11
304.076298997142
 21
467.5444180539876
 31
0.0
 12
311.076298997142
 22
468.7110847206544
 32
0.0
 13
311.076298997142
 23
468.7110847206544
 33
0.0
  0
MTEXT
  5
15EB
330
14A7
100
AcDbEntity
  8
BEM
 62
     1
100
AcDbMText
 10
226.9262989971419
 20
475.2110847206544
 30
0.0
 40
7.0
 41
0.0
 71
     5
 72
     1
  1
\A1;%%c168.3
  7
GREEKS
 73
     1
 44
1.0
  0
POINT
  5
15EC
330
14A7
100
AcDbEntity
  8
DEFPOINTS
 62
     0
100
AcDbPoint
 10
142.7762989971419
 20
455.7936068218179
 30
0.0
  0
POINT
  5
15ED
330
14A7
100
AcDbEntity
  8
DEFPOINTS
 62
     0
100
AcDbPoint
 10
311.076298997142
 20
455.7936068218177
 30
0.0
  0
POINT
  5
15EE
330
14A7
100
AcDbEntity
  8
DEFPOINTS
 62
     0
100
AcDbPoint
 10
311.076298997142
 20
468.7110847206544
 30
0.0
  0
ENDBLK
  5
14B2
330
14A7
100
AcDbEntity
  8
0
100
AcDbBlockEnd
  0
BLOCK
  5
14E9
330
14DF
100
AcDbEntity
  8
0
100
AcDbBlockBegin
  2
*D2
 70
     1
 10
0.0
 20
0.0
 30
0.0
  3
*D2
  1

  0
LINE
  5
14EB
330
14DF
100
AcDbEntity
  8
BEM
 62
     0
370
    -2
100
AcDbLine
 10
140.7762989971419
 20
455.7936068218179
 30
0.0
 11
122.6616841376217
 21
455.7936068218179
 31
0.0
  0
LINE
  5
14EC
330
14DF
100
AcDbEntity
  8
BEM
 62
     0
370
    -2
100
AcDbLine
 10
140.7762989971419
 20
265.7936068218179
 30
0.0
 11
122.6616841376217
 21
265.793606821818
 31
0.0
  0
LINE
  5
14ED
330
14DF
100
AcDbEntity
  8
BEM
 62
     0
370
    -2
100
AcDbLine
 10
124.6616841376217
 20
448.7936068218179
 30
0.0
 11
124.6616841376217
 21
272.793606821818
 31
0.0
  0
SOLID
  5
14EE
330
14DF
100
AcDbEntity
  8
BEM
 62
     0
100
AcDbTrace
 10
123.4950174709551
 20
448.7936068218179
 30
0.0
 11
125.8283508042884
 21
448.7936068218179
 31
0.0
 12
124.6616841376217
 22
455.7936068218179
 32
0.0
 13
124.6616841376217
 23
455.7936068218179
 33
0.0
  0
SOLID
  5
14EF
330
14DF
100
AcDbEntity
  8
BEM
 62
     0
100
AcDbTrace
 10
123.495017470955
 20
272.793606821818
 30
0.0
 11
125.8283508042884
 21
272.793606821818
 31
0.0
 12
124.6616841376217
 22
265.793606821818
 32
0.0
 13
124.6616841376217
 23
265.793606821818
 33
0.0
  0
MTEXT
  5
14F0
330
14DF
100
AcDbEntity
  8
BEM
 62
     1
100
AcDbMText
 10
118.1616841376216
 20
360.793606821818
 30
0.0
 40
7.0
 41
0.0
 71
     5
 72
     1
  1
\A1;190
 11
0.0000000000000001
 21
1.0
 31
0.0
 73
     1
 44
1.0
  0
POINT
  5
14F1
330
14DF
100
AcDbEntity
  8
DEFPOINTS
 62
     0
100
AcDbPoint
 10
142.7762989971419
 20
455.7936068218179
 30
0.0
  0
POINT
  5
14F2
330
14DF
100
AcDbEntity
  8
DEFPOINTS
 62
     0
100
AcDbPoint
 10
142.7762989971419
 20
265.7936068218179
 30
0.0
  0
POINT
  5
14F3
330
14DF
100
AcDbEntity
  8
DEFPOINTS
 62
     0
100
AcDbPoint
 10
124.6616841376217
 20
265.793606821818
 30
0.0
  0
ENDBLK
  5
14EA
330
14DF
100
AcDbEntity
  8
0
100
AcDbBlockEnd
  0
ENDSEC
  0
SECTION
  2
ENTITIES
  0
LINE
  5
57
330
1E
100
AcDbEntity
  8
STEMPEL
100
AcDbLine
 10
410.0
 20
110.0
 30
0.0
 11
39.99999999999997
 21
110.0
 31
0.0
  0
LINE
  5
58
330
1E
100
AcDbEntity
  8
STEMPEL
100
AcDbLine
 10
136.0000000000001
 20
109.9999999999999
 30
0.0
 11
136.0
 21
9.999999999999971
 31
0.0
  0
LINE
  5
59
330
1E
100
AcDbEntity
  8
STEMPEL
100
AcDbLine
 10
220.0
 20
110.0
 30
0.0
 11
220.0
 21
9.999999999999971
 31
0.0
  0
LINE
  5
5A
330
1E
100
AcDbEntity
  8
STEMPEL
100
AcDbLine
 10
332.0
 20
109.9999999999997
 30
0.0
 11
332.0
 21
40.0
 31
0.0
  0
LINE
  5
5B
330
1E
100
AcDbEntity
  8
STEMPEL
100
AcDbLine
 10
135.9999999999999
 20
29.99999999999997
 30
0.0
 11
39.99999999999997
 21
29.99999999999997
 31
0.0
  0
LINE
  5
5C
330
1E
100
AcDbEntity
  8
STEMPEL
100
AcDbLine
 10
410.0
 20
40.0
 30
0.0
 11
136.0000000000001
 21
39.99999999999997
 31
0.0
  0
LINE
  5
5D
330
1E
100
AcDbEntity
  8
STEMPEL
100
AcDbLine
 10
410.0
 20
80.0
 30
0.0
 11
136.0000000000001
 21
79.99999999999994
 31
0.0
  0
LINE
  5
5E
330
1E
100
AcDbEntity
  8
VOLL
100
AcDbLine
 10
54.00000000000009
 20
110.0
 30
0.0
 11
53.99999999999997
 21
9.999999999999971
 31
0.0
  0
LINE
  5
5F
330
1E
100
AcDbEntity
  8
VOLL
100
AcDbLine
 10
94.00000000000011
 20
109.9999999999999
 30
0.0
 11
94.0
 21
9.999999999999971
 31
0.0
  0
LINE
  5
60
330
1E
100
AcDbEntity
  8
VOLL
100
AcDbLine
 10
114.0000000000001
 20
109.9999999999999
 30
0.0
 11
114.0
 21
9.999999999999971
 31
0.0
  0
LINE
  5
61
330
1E
100
AcDbEntity
  8
VOLL
100
AcDbLine
 10
154.0000000000001
 20
79.99999999999994
 30
0.0
 11
154.0000000000001
 21
39.99999999999997
 31
0.0
  0
LINE
  5
62
330
1E
100
AcDbEntity
  8
VOLL
100
AcDbLine
 10
180.0000000000001
 20
109.9999999999998
 30
0.0
 11
180.0
 21
39.99999999999997
 31
0.0
  0
LINE
  5
63
330
1E
100
AcDbEntity
  8
HILF
100
AcDbLine
 10
40.00000000000008
 20
100.0
 30
0.0
 11
136.0000000000001
 21
100.0
 31
0.0
  0
LINE
  5
64
330
1E
100
AcDbEntity
  8
HILF
100
AcDbLine
 10
40.00000000000008
 20
90.00000000000005
 30
0.0
 11
136.0000000000001
 21
90.00000000000005
 31
0.0
  0
LINE
  5
65
330
1E
100
AcDbEntity
  8
HILF
100
AcDbLine
 10
40.00000000000008
 20
79.99999999999994
 30
0.0
 11
136.0000000000001
 21
79.99999999999994
 31
0.0
  0
LINE
  5
66
330
1E
100
AcDbEntity
  8
HILF
100
AcDbLine
 10
40.00000000000008
 20
69.99999999999994
 30
0.0
 11
136.0000000000001
 21
69.99999999999994
 31
0.0
  0
LINE
  5
67
330
1E
100
AcDbEntity
  8
HILF
100
AcDbLine
 10
40.00000000000008
 20
59.99999999999997
 30
0.0
 11
136.0000000000001
 21
59.99999999999997
 31
0.0
  0
LINE
  5
68
330
1E
100
AcDbEntity
  8
HILF
100
AcDbLine
 10
40.00000000000008
 20
49.99999999999997
 30
0.0
 11
136.0000000000001
 21
49.99999999999997
 31
0.0
  0
LINE
  5
69
330
1E
100
AcDbEntity
  8
HILF
100
AcDbLine
 10
40.00000000000008
 20
39.99999999999997
 30
0.0
 11
136.0000000000001
 21
39.99999999999997
 31
0.0
  0
LINE
  5
6A
330
1E
100
AcDbEntity
  8
HILF
100
AcDbLine
 10
136.0000000000001
 20
69.99999999999994
 30
0.0
 11
220.0
 21
69.99999999999994
 31
0.0
  0
LINE
  5
6B
330
1E
100
AcDbEntity
  8
HILF
100
AcDbLine
 10
136.0000000000001
 20
59.99999999999997
 30
0.0
 11
220.0
 21
59.99999999999997
 31
0.0
  0
LINE
  5
6C
330
1E
100
AcDbEntity
  8
HILF
100
AcDbLine
 10
136.0000000000001
 20
49.99999999999997
 30
0.0
 11
220.0
 21
49.99999999999997
 31
0.0
  0
LINE
  5
6D
330
1E
100
AcDbEntity
  8
HILF
100
AcDbLine
 10
224.7736801096948
 20
84.03758247564139
 30
0.0
 11
324.8353916556311
 21
84.03758247564139
 31
0.0
  0
LINE
  5
6E
330
1E
100
AcDbEntity
  8
HILF
100
AcDbLine
 10
224.7736801096948
 20
69.99999999999994
 30
0.0
 11
324.835391655631
 21
69.99999999999994
 31
0.0
  0
LINE
  5
6F
330
1E
100
AcDbEntity
  8
HILF
100
AcDbLine
 10
224.7736801096948
 20
59.99999999999997
 30
0.0
 11
324.835391655631
 21
59.99999999999997
 31
0.0
  0
LINE
  5
70
330
1E
100
AcDbEntity
  8
HILF
100
AcDbLine
 10
224.7736801096948
 20
49.99999999999997
 30
0.0
 11
324.835391655631
 21
49.99999999999997
 31
0.0
  0
LINE
  5
71
330
1E
100
AcDbEntity
  8
VOLL
100
AcDbLine
 10
332.0
 20
60.0
 30
0.0
 11
410.0
 21
60.0
 31
0.0
  0
LINE
  5
72
330
1E
100
AcDbEntity
  8
HILF
100
AcDbLine
 10
336.7238616296993
 20
83.77983636955827
 30
0.0
 11
404.8588839326728
 21
83.77983636955827
 31
0.0
  0
LINE
  5
73
330
1E
100
AcDbEntity
  8
HILF
100
AcDbLine
 10
223.4909699289885
 20
14.89398258028314
 30
0.0
 11
404.8588839326728
 21
14.89398258028314
 31
0.0
  0
TEXT
  5
74
330
1E
100
AcDbEntity
  8
TEXT
100
AcDbText
 10
63.86165979631819
 20
18.67381894984132
 30
0.0
 40
4.0
  1
Änderung
 41
0.8
  7
GREEKS
 72
     1
 11
74.60451693917534
 21
18.67381894984132
 31
0.0
100
AcDbText
  0
TEXT
  5
75
330
1E
100
AcDbEntity
  8
TEXT
100
AcDbText
 10
143.5163572150377
 20
102.4620895087088
 30
0.0
 40
5.0
  1
Maßstab
 41
0.8
  7
GREEKS
100
AcDbText
  0
TEXT
  5
76
330
1E
100
AcDbEntity
  8
TEXT
100
AcDbText
 10
184.2858954734051
 20
102.4184168434819
 30
0.0
 40
5.0
  1
Zul. Abw.
 41
0.8
  7
GREEKS
100
AcDbText
  0
TEXT
  5
77
330
1E
100
AcDbEntity
  8
TEXT
100
AcDbText
 10
224.877940380901
 20
102.5489328011779
 30
0.0
 40
5.0
  1
Benennung
 41
0.8
  7
GREEKS
100
AcDbText
  0
TEXT
  5
78
330
1E
100
AcDbEntity
  8
TEXT
100
AcDbText
 10
336.178754957634
 20
102.3132034537136
 30
0.0
 40
5.0
  1
Zeichnungs Nr.
 41
0.8
  7
GREEKS
100
AcDbText
  0
TEXT
  5
79
330
1E
100
AcDbEntity
  8
TEXT
100
AcDbText
 10
224.742238391136
 20
30.84560570193057
 30
0.0
 40
5.0
  1
Bauvorhaben
 41
0.8
  7
GREEKS
100
AcDbText
  0
TEXT
  5
7A
330
1E
100
AcDbEntity
  8
TEXT
100
AcDbText
 10
336.7238616296993
 20
73.1811823709997
 30
0.0
 40
5.0
  1
Ersatz für:
 41
0.8
  7
GREEKS
100
AcDbText
  0
TEXT
  5
7B
330
1E
100
AcDbEntity
  8
TEXT
100
AcDbText
 10
48.26641107045756
 20
13.65465846027192
 30
0.0
 40
4.0
  1
Index
 50
90.0
 41
0.8
  7
GREEKS
100
AcDbText
  0
TEXT
  5
7C
330
1E
100
AcDbEntity
  8
TEXT
100
AcDbText
 10
100.0934676075481
 20
18.6715626933981
 30
0.0
 40
4.0
  1
Tag
 41
0.8
  7
GREEKS
 72
     1
 11
103.8268009408814
 21
18.6715626933981
 31
0.0
100
AcDbText
  0
TEXT
  5
7D
330
1E
100
AcDbEntity
  8
TEXT
100
AcDbText
 10
119.0122744386592
 20
18.59324216966408
 30
0.0
 40
4.0
  1
Name
 41
0.8
  7
GREEKS
 72
     1
 11
125.3360839624688
 21
18.59324216966408
 31
0.0
100
AcDbText
  0
TEXT
  5
7E
330
1E
100
AcDbEntity
  8
TEXT
100
AcDbText
 10
162.3311673153651
 20
73.31880501229926
 30
0.0
 40
4.0
  1
Tag
 41
0.8
  7
GREEKS
100
AcDbText
  0
TEXT
  5
7F
330
1E
100
AcDbEntity
  8
TEXT
100
AcDbText
 10
192.4626584226295
 20
73.30961091915225
 30
0.0
 40
4.0
  1
Name
 41
0.8
  7
GREEKS
100
AcDbText
  0
TEXT
  5
80
330
1E
100
AcDbEntity
  8
TEXT
100
AcDbText
 10
137.5836127167615
 20
63.62990369617964
 30
0.0
 40
4.0
  1
Gez.
 41
0.8
  7
GREEKS
100
AcDbText
  0
TEXT
  5
81
330
1E
100
AcDbEntity
  8
TEXT
100
AcDbText
 10
137.5515086571672
 20
53.68926291428377
 30
0.0
 40
4.0
  1
Gepr.
 41
0.8
  7
GREEKS
100
AcDbText
  0
TEXT
  5
82
330
1E
100
AcDbEntity
  8
TEXT
100
AcDbText
 10
137.6006777387304
 20
43.52946389649807
 30
0.0
 40
4.0
  1
Norm.
 41
0.8
  7
GREEKS
100
AcDbText
  0
LINE
  5
83
330
1E
100
AcDbEntity
  8
STEMPEL
100
AcDbLine
 10
49.99999999999989
 20
10.0
 30
0.0
 11
410.0
 21
10.0
 31
0.0
  0
TEXT
  5
84
330
1E
100
AcDbEntity
  8
TEXT
100
AcDbText
 10
337.2400861497006
 20
52.07416177878602
 30
0.0
 40
5.0
  1
ersetzt durch:
 41
0.8
  7
GREEKS
100
AcDbText
  0
LINE
  5
85
330
1E
100
AcDbEntity
  8
STEMPEL
100
AcDbLine
 10
410.0
 20
10.0
 30
0.0
 11
39.99999999999989
 21
10.0
 31
0.0
  0
LINE
  5
86
330
1E
100
AcDbEntity
  8
STEMPEL
100
AcDbLine
 10
410.0
 20
10.0
 30
0.0
 11
410.0
 21
584.0
 31
0.0
  0
LINE
  5
87
330
1E
100
AcDbEntity
  8
STEMPEL
100
AcDbLine
 10
40.0
 20
10.0
 30
0.0
 11
39.99999999999989
 21
584.0
 31
0.0
  0
LINE
  5
88
330
1E
100
AcDbEntity
  8
STEMPEL
100
AcDbLine
 10
410.0
 20
584.0
 30
0.0
 11
39.99999999999989
 21
584.0
 31
0.0
  0
LINE
  5
89
330
1E
100
AcDbEntity
  8
HILF
100
AcDbLine
 10
0.0
 20
0.0
 30
0.0
 11
-0.0000000000001137
 21
594.0
 31
0.0
  0
LINE
  5
8A
330
1E
100
AcDbEntity
  8
HILF
100
AcDbLine
 10
419.9999999999999
 20
594.0000000000002
 30
0.0
 11
0.0
 21
594.0
 31
0.0
  0
LINE
  5
8B
330
1E
100
AcDbEntity
  8
HILF
100
AcDbLine
 10
420.0
 20
0.0
 30
0.0
 11
0.0
 21
0.0
 31
0.0
  0
LINE
  5
8C
330
1E
100
AcDbEntity
  8
HILF
100
AcDbLine
 10
31.08767135713856
 20
297.0
 30
0.0
 11
0.0000000000001137
 21
297.0
 31
0.0
  0
LINE
  5
8E
330
1E
100
AcDbEntity
  8
HILF
100
AcDbLine
 10
420.0
 20
-0.0000000000001137
 30
0.0
 11
419.9999999999999
 21
594.0
 31
0.0
  0
TEXT
  5
8F
330
1E
100
AcDbEntity
  8
VOLL
100
AcDbText
 10
78.07675471698113
 20
31.02594776470585
 30
0.0
 40
1.8
  1

  7
GREEKS
100
AcDbText
  0
TEXT
  5
90
330
1E
100
AcDbEntity
  8
TEXT
100
AcDbText
 10
41.85509950977674
 20
111.6719999999999
 30
0.0
 40
5.0
  1
Erstellt mit AUTOCAD 2004
 41
0.8
  7
GREEKS
100
AcDbText
  0
TEXT
  5
91
330
1E
100
AcDbEntity
  8
TEXT
100
AcDbText
 10
194.4216048581257
 20
63.0896391972351
 30
0.0
 40
4.0
  1
Koeh
 41
0.8
  7
GREEKS
 72
     1
 11
199.6787477152685
 21
63.0896391972351
 31
0.0
100
AcDbText
  0
TEXT
  5
92
330
1E
100
AcDbEntity
  8
TEXT
 62
     1
100
AcDbText
 10
347.6127282634644
 20
88.14901428913959
 30
0.0
 40
7.0
  1
58056125W
 41
0.8
  7
GREEKS
 72
     1
 11
371.0793949301311
 21
88.14901428913959
 31
0.0
100
AcDbText
  0
TEXT
  5
93
330
1E
100
AcDbEntity
  8
TEXT
 62
     1
100
AcDbText
 10
150.5006306481887
 20
88.14901428913959
 30
0.0
 40
7.0
  1
1:2
 41
0.8
  7
GREEKS
100
AcDbText
  0
TEXT
  5
95
330
1E
100
AcDbEntity
  8
TEXT
 62
     1
100
AcDbText
 10
226.8935731057402
 20
87.41748789253779
 30
0.0
 40
7.0
  1
Verbundrohr DN125
 41
0.8
  7
GREEKS
100
AcDbText
  0
TEXT
  5
98
330
1E
100
AcDbEntity
  8
TEXT
100
AcDbText
 10
225.1296391125315
 20
51.64011943042158
 30
0.0
 40
5.0
  1
EDV-Art.Nr. 58056.125X
 41
0.8
  7
GREEKS
100
AcDbText
  0
TEXT
  5
99
330
1E
100
AcDbEntity
  8
TEXT
100
AcDbText
 10
224.9837501577827
 20
42.62974153022632
 30
0.0
 40
4.0
  1
58056125W.DWG
 41
0.8
  7
GREEKS
100
AcDbText
  0
TEXT
  5
9A
330
1E
100
AcDbEntity
  8
TEXT
100
AcDbText
 10
182.626132208084
 20
90.76363841023022
 30
0.0
 40
4.0
  1
DIN EN1123-2
 41
0.8
  7
GREEKS
 72
     1
 11
199.6166083985602
 21
90.76363841023022
 31
0.0
100
AcDbText
  0
INSERT
  5
9B
330
1E
100
AcDbEntity
  8
STEMPEL
100
AcDbBlockReference
  2
LOGO
 10
140.9955485457794
 20
45.02105276448322
 30
0.0
 41
2.0
 42
2.0
 43
2.0
  0
TEXT
  5
118
330
1E
100
AcDbEntity
  8
BEM
100
AcDbText
 10
417.3022923857165
 20
10.16790107998849
 30
0.0
 40
4.0
  1
Diese Zeichnung ist urheberrechtlich geschützt und bleibt unser Eigentum. Sie darf weder ganz noch teilweise verfielfältigt und nicht an Dritte weitergegeben werden.
 50
90.0
 41
0.8
  7
GREEKS
100
AcDbText
  0
TEXT
  5
6CB
330
1E
100
AcDbEntity
  8
TEXT
 62
     1
100
AcDbText
 10
245.030129115258
 20
129.7422179729062
 30
0.0
 40
7.0
  1
und innenbeschichtet
 41
0.8
  7
GREEKS
100
AcDbText
  0
TEXT
  5
6CC
330
1E
100
AcDbEntity
  8
TEXT
 62
     1
100
AcDbText
 10
194.0267602645567
 20
117.1473825875242
 30
0.0
 40
7.0
  1
Dämmung: 2 K-PU-Schaum
 41
0.8
  7
GREEKS
100
AcDbText
  0
TEXT
  5
6CD
330
1E
100
AcDbEntity
  8
TEXT
 62
     1
100
AcDbText
 10
197.3756002392442
 20
141.011271812132
 30
0.0
 40
7.0
  1
Innenrohr: E195 EN10305 feuerverzinkt
 41
0.8
  7
GREEKS
100
AcDbText
  0
TEXT
  5
6CE
330
1E
100
AcDbEntity
  8
TEXT
 62
     1
100
AcDbText
 10
193.6033828683802
 20
152.364339848487
 30
0.0
 40
7.0
  1
Außenrohr: E195 EN10305 feuerverzinkt
 41
0.8
  7
GREEKS
100
AcDbText
  0
TEXT
  5
6CF
330
1E
100
AcDbEntity
  8
TEXT
100
AcDbText
 10
225.1296391125315
 20
71.64011943042154
 30
0.0
 40
5.0
  1
Doppelmuffen
 41
0.8
  7
GREEKS
100
AcDbText
  0
LINE
  5
FC0
330
1E
100
AcDbEntity
  8
MITTEL
100
AcDbLine
 10
226.9262989971418
 20
460.793606821818
 30
0.0
 11
226.926298997142
 21
260.7936068218179
 31
0.0
  0
LINE
  5
FE0
102
{ACAD_REACTORS
330
1546
330
1573
330
1584
102
}
330
1E
100
AcDbEntity
  8
STEMPEL
100
AcDbLine
 10
311.076298997142
 20
455.7936068218179
 30
0.0
 11
142.7762989971419
 21
455.793606821818
 31
0.0
  0
TEXT
  5
FFE
330
1E
100
AcDbEntity
  8
TEXT
 62
     1
100
AcDbText
 10
216.4862470460372
 20
416.7459196695326
 30
0.0
 40
7.0
  1
DN125
 50
90.0
 41
0.8
  7
GREEKS
100
AcDbText
  0
LINE
  5
13CE
102
{ACAD_REACTORS
330
1546
330
1573
330
1595
102
}
330
1E
100
AcDbEntity
  8
STEMPEL
100
AcDbLine
 10
142.7762989971419
 20
265.7936068218179
 30
0.0
 11
311.0762989971419
 21
265.7936068218179
 31
0.0
  0
LINE
  5
1402
102
{ACAD_REACTORS
330
1546
330
1584
330
15BE
102
}
330
1E
100
AcDbEntity
  8
STEMPEL
100
AcDbLine
 10
302.9262989971419
 20
442.1912293773536
 30
0.0
 11
302.9262989971419
 21
423.0846068218178
 31
0.0
  0
LINE
  5
1403
102
{ACAD_REACTORS
330
1546
102
}
330
1E
100
AcDbEntity
  8
STEMPEL
100
AcDbLine
 10
300.4262989971419
 20
442.1912293773536
 30
0.0
 11
300.4262989971419
 21
423.0846068218179
 31
0.0
  0
LINE
  5
1405
102
{ACAD_REACTORS
330
1546
102
}
330
1E
100
AcDbEntity
  8
STEMPEL
100
AcDbLine
 10
153.4262989971419
 20
442.1912293773536
 30
0.0
 11
153.4262989971419
 21
423.0846068218179
 31
0.0
  0
LINE
  5
1406
102
{ACAD_REACTORS
330
1546
330
1584
330
15BE
102
}
330
1E
100
AcDbEntity
  8
STEMPEL
100
AcDbLine
 10
150.9262989971419
 20
442.1912293773536
 30
0.0
 11
150.9262989971419
 21
423.0846068218179
 31
0.0
  0
LINE
  5
1407
330
1E
100
AcDbEntity
  8
HILF
100
AcDbLine
 10
159.4764549459602
 20
407.2702822213512
 30
0.0
 11
294.3761430483235
 21
407.2702822213512
 31
0.0
  0
LINE
  5
1409
330
1E
100
AcDbEntity
  8
HILF
100
AcDbLine
 10
164.4369773227212
 20
377.0286962259878
 30
0.0
 11
289.4156206715625
 21
377.0286962259878
 31
0.0
  0
LINE
  5
140A
330
1E
100
AcDbEntity
  8
HILF
100
AcDbLine
 10
160.7456402152465
 20
384.6308153833184
 30
0.0
 11
293.1069577790376
 21
384.6308153833184
 31
0.0
  0
LINE
  5
140B
102
{ACAD_REACTORS
330
1546
102
}
330
1E
100
AcDbEntity
  8
STEMPEL
100
AcDbLine
 10
162.9262989971419
 20
373.2936068218179
 30
0.0
 11
162.9262989971419
 21
348.2936068218179
 31
0.0
  0
LINE
  5
140C
102
{ACAD_REACTORS
330
1546
330
15BE
102
}
330
1E
100
AcDbEntity
  8
STEMPEL
100
AcDbLine
 10
160.4262989971418
 20
373.2936068218179
 30
0.0
 11
160.4262989971418
 21
348.2936068218179
 31
0.0
  0
LINE
  5
140D
102
{ACAD_REACTORS
330
1546
102
}
330
1E
100
AcDbEntity
  8
STEMPEL
100
AcDbLine
 10
157.9262989971419
 20
402.7936068218179
 30
0.0
 11
157.9262989971419
 21
389.2623262444891
 31
0.0
  0
LINE
  5
140E
102
{ACAD_REACTORS
330
1546
330
15BE
102
}
330
1E
100
AcDbEntity
  8
STEMPEL
100
AcDbLine
 10
155.4262989971419
 20
402.7936068218179
 30
0.0
 11
155.4262989971418
 21
389.2623262444891
 31
0.0
  0
ARC
  5
140F
102
{ACAD_REACTORS
330
1546
102
}
330
1E
100
AcDbEntity
  8
STEMPEL
100
AcDbCircle
 10
173.4262989971418
 20
389.2623262444891
 30
0.0
 40
15.5
100
AcDbArc
 50
180.0
 51
214.7719440319491
  0
ARC
  5
1410
102
{ACAD_REACTORS
330
1546
330
15BE
102
}
330
1E
100
AcDbEntity
  8
STEMPEL
100
AcDbCircle
 10
173.4262989971418
 20
389.2623262444891
 30
0.0
 40
18.0
100
AcDbArc
 50
180.0
 51
214.7719440319491
  0
ARC
  5
1411
102
{ACAD_REACTORS
330
1546
330
15BE
102
}
330
1E
100
AcDbEntity
  8
STEMPEL
100
AcDbCircle
 10
150.4262989971417
 20
373.2936068218179
 30
0.0
 40
10.0
100
AcDbArc
 50
0.0
 51
34.77194403194904
  0
ARC
  5
1412
102
{ACAD_REACTORS
330
1546
102
}
330
1E
100
AcDbEntity
  8
STEMPEL
100
AcDbCircle
 10
150.4262989971417
 20
373.2936068218179
 30
0.0
 40
12.5
100
AcDbArc
 50
0.0
 51
34.77194403194904
  0
ARC
  5
1413
102
{ACAD_REACTORS
330
1546
102
}
330
1E
100
AcDbEntity
  8
STEMPEL
100
AcDbCircle
 10
137.4262989971419
 20
402.7936068218179
 30
0.0
 40
20.5
100
AcDbArc
 50
0.0
 51
25.22714436590881
  0
ARC
  5
1414
102
{ACAD_REACTORS
330
1546
330
15BE
102
}
330
1E
100
AcDbEntity
  8
STEMPEL
100
AcDbCircle
 10
137.4262989971419
 20
402.7936068218179
 30
0.0
 40
18.0
100
AcDbArc
 50
0.0
 51
25.00715833654666
  0
ARC
  5
1415
102
{ACAD_REACTORS
330
1546
102
}
330
1E
100
AcDbEntity
  8
STEMPEL
100
AcDbCircle
 10
180.9262989971419
 20
423.0846068218179
 30
0.0
 40
27.5
100
AcDbArc
 50
180.0
 51
204.8431689300336
  0
ARC
  5
1416
102
{ACAD_REACTORS
330
1546
330
15BE
102
}
330
1E
100
AcDbEntity
  8
STEMPEL
100
AcDbCircle
 10
180.9262989971419
 20
423.0846068218179
 30
0.0
 40
29.99973625969209
100
AcDbArc
 50
180.0
 51
205.0071583365467
  0
LINE
  5
1417
102
{ACAD_REACTORS
330
1546
330
15BE
102
}
330
1E
100
AcDbEntity
  8
STEMPEL
100
AcDbLine
 10
150.9265627374498
 20
423.0846068218179
 30
0.0
 11
150.9262989971419
 21
423.0846068218179
 31
0.0
  0
LINE
  5
1418
102
{ACAD_REACTORS
330
1546
330
15BE
102
}
330
1E
100
AcDbEntity
  8
STEMPEL
100
AcDbLine
 10
293.4262989971419
 20
373.2936068218178
 30
0.0
 11
293.4262989971419
 21
348.293606821818
 31
0.0
  0
LINE
  5
1419
102
{ACAD_REACTORS
330
1546
102
}
330
1E
100
AcDbEntity
  8
STEMPEL
100
AcDbLine
 10
290.9262989971419
 20
373.2936068218178
 30
0.0
 11
290.9262989971419
 21
348.293606821818
 31
0.0
  0
LINE
  5
141B
102
{ACAD_REACTORS
330
1546
330
15BE
102
}
330
1E
100
AcDbEntity
  8
STEMPEL
100
AcDbLine
 10
298.4262989971419
 20
402.7936068218178
 30
0.0
 11
298.4262989971419
 21
389.262326244489
 31
0.0
  0
LINE
  5
141C
102
{ACAD_REACTORS
330
1546
102
}
330
1E
100
AcDbEntity
  8
STEMPEL
100
AcDbLine
 10
295.9262989971419
 20
402.7936068218178
 30
0.0
 11
295.9262989971419
 21
389.262326244489
 31
0.0
  0
ARC
  5
141D
102
{ACAD_REACTORS
330
1546
102
}
330
1E
100
AcDbEntity
  8
STEMPEL
100
AcDbCircle
 10
280.4262989971419
 20
389.2623262444891
 30
0.0
 40
15.5
100
AcDbArc
 50
325.228055968051
 51
0.0
  0
ARC
  5
141E
102
{ACAD_REACTORS
330
1546
330
15BE
102
}
330
1E
100
AcDbEntity
  8
STEMPEL
100
AcDbCircle
 10
303.4262989971419
 20
373.2936068218178
 30
0.0
 40
10.0
100
AcDbArc
 50
145.2280559680509
 51
180.0
  0
ARC
  5
141F
102
{ACAD_REACTORS
330
1546
102
}
330
1E
100
AcDbEntity
  8
STEMPEL
100
AcDbCircle
 10
303.4262989971419
 20
373.2936068218178
 30
0.0
 40
12.5
100
AcDbArc
 50
145.2280559680509
 51
180.0
  0
ARC
  5
1420
102
{ACAD_REACTORS
330
1546
330
15BE
102
}
330
1E
100
AcDbEntity
  8
STEMPEL
100
AcDbCircle
 10
280.4262989971419
 20
389.262326244489
 30
0.0
 40
18.0
100
AcDbArc
 50
325.228055968051
 51
0.0
  0
ARC
  5
1421
102
{ACAD_REACTORS
330
1546
102
}
330
1E
100
AcDbEntity
  8
STEMPEL
100
AcDbCircle
 10
316.4262989971419
 20
402.7936068218178
 30
0.0
 40
20.5
100
AcDbArc
 50
154.7728556340955
 51
180.0
  0
ARC
  5
1422
102
{ACAD_REACTORS
330
1546
330
15BE
102
}
330
1E
100
AcDbEntity
  8
STEMPEL
100
AcDbCircle
 10
316.4262989971419
 20
402.7936068218178
 30
0.0
 40
18.0
100
AcDbArc
 50
154.9928416634576
 51
180.0
  0
ARC
  5
1423
102
{ACAD_REACTORS
330
1546
330
15BE
102
}
330
1E
100
AcDbEntity
  8
STEMPEL
100
AcDbCircle
 10
272.9262989971419
 20
423.0846068218179
 30
0.0
 40
29.99973625969209
100
AcDbArc
 50
334.9928416634577
 51
0.0
  0
ARC
  5
1424
102
{ACAD_REACTORS
330
1546
102
}
330
1E
100
AcDbEntity
  8
STEMPEL
100
AcDbCircle
 10
272.9262989971419
 20
423.0846068218179
 30
0.0
 40
27.5
100
AcDbArc
 50
335.1568310699678
 51
0.0
  0
LINE
  5
1425
102
{ACAD_REACTORS
330
1546
330
15BE
102
}
330
1E
100
AcDbEntity
  8
STEMPEL
100
AcDbLine
 10
302.926035256834
 20
423.0846068218178
 30
0.0
 11
302.9262989971419
 21
423.0846068218178
 31
0.0
  0
ARC
  5
1427
102
{ACAD_REACTORS
330
1546
102
}
330
1E
100
AcDbEntity
  8
STEMPEL
100
AcDbCircle
 10
180.9262989971419
 20
442.1912293773536
 30
0.0
 40
27.5
100
AcDbArc
 50
155.0000000000079
 51
180.0
  0
ARC
  5
1428
102
{ACAD_REACTORS
330
1546
330
1584
102
}
330
1E
100
AcDbEntity
  8
STEMPEL
100
AcDbCircle
 10
180.9262989971419
 20
442.1912293773536
 30
0.0
 40
30.0
100
AcDbArc
 50
155.0000000000065
 51
180.0
  0
LINE
  5
1429
102
{ACAD_REACTORS
330
1546
102
}
330
1E
100
AcDbEntity
  8
STEMPEL
100
AcDbLine
 10
156.9262989971418
 20
455.7936068218179
 30
0.0
 11
156.002834853634
 21
453.8132315752228
 31
0.0
  0
LINE
  5
142A
102
{ACAD_REACTORS
330
1546
330
1584
102
}
330
1E
100
AcDbEntity
  8
STEMPEL
100
AcDbLine
 10
154.1678541997356
 20
455.7936068218179
 30
0.0
 11
153.7370653860424
 21
454.8697772295748
 31
0.0
  0
ARC
  5
142B
102
{ACAD_REACTORS
330
1546
330
1584
102
}
330
1E
100
AcDbEntity
  8
STEMPEL
100
AcDbCircle
 10
272.9262989971419
 20
442.1912293773536
 30
0.0
 40
30.0
100
AcDbArc
 50
0.0
 51
24.99999999999207
  0
ARC
  5
142C
102
{ACAD_REACTORS
330
1546
102
}
330
1E
100
AcDbEntity
  8
STEMPEL
100
AcDbCircle
 10
272.9262989971419
 20
442.1912293773536
 30
0.0
 40
27.5
100
AcDbArc
 50
0.0
 51
24.99999999998912
  0
LINE
  5
142D
102
{ACAD_REACTORS
330
1546
330
1584
102
}
330
1E
100
AcDbEntity
  8
STEMPEL
100
AcDbLine
 10
299.6847437945481
 20
455.7936068218179
 30
0.0
 11
300.1155326082413
 21
454.8697772295748
 31
0.0
  0
LINE
  5
142E
102
{ACAD_REACTORS
330
1546
102
}
330
1E
100
AcDbEntity
  8
STEMPEL
100
AcDbLine
 10
296.9262989971419
 20
455.7936068218179
 30
0.0
 11
297.8497631406498
 21
453.8132315752227
 31
0.0
  0
LINE
  5
142F
102
{ACAD_REACTORS
330
1546
102
}
330
1E
100
AcDbEntity
  8
STEMPEL
100
AcDbLine
 10
296.926298997142
 20
265.7936068218179
 30
0.0
 11
297.8497631406499
 21
267.773982068413
 31
0.0
  0
LINE
  5
1430
102
{ACAD_REACTORS
330
1546
330
1595
102
}
330
1E
100
AcDbEntity
  8
STEMPEL
100
AcDbLine
 10
299.6847437945482
 20
265.7936068218179
 30
0.0
 11
300.1155326082415
 21
266.717436414061
 31
0.0
  0
ARC
  5
1431
102
{ACAD_REACTORS
330
1546
102
}
330
1E
100
AcDbEntity
  8
STEMPEL
100
AcDbCircle
 10
272.926298997142
 20
279.3959842662822
 30
0.0
 40
27.5
100
AcDbArc
 50
335.0000000000108
 51
0.0
  0
ARC
  5
1432
102
{ACAD_REACTORS
330
1546
330
1595
102
}
330
1E
100
AcDbEntity
  8
STEMPEL
100
AcDbCircle
 10
272.926298997142
 20
279.3959842662822
 30
0.0
 40
30.0
100
AcDbArc
 50
335.0000000000079
 51
0.0
  0
LINE
  5
1433
102
{ACAD_REACTORS
330
1546
330
1595
102
}
330
1E
100
AcDbEntity
  8
STEMPEL
100
AcDbLine
 10
154.1678541997357
 20
265.7936068218179
 30
0.0
 11
153.7370653860425
 21
266.7174364140609
 31
0.0
  0
LINE
  5
1434
102
{ACAD_REACTORS
330
1546
102
}
330
1E
100
AcDbEntity
  8
STEMPEL
100
AcDbLine
 10
156.926298997142
 20
265.7936068218179
 30
0.0
 11
156.0028348536341
 21
267.7739820684129
 31
0.0
  0
ARC
  5
1435
102
{ACAD_REACTORS
330
1546
330
1595
102
}
330
1E
100
AcDbEntity
  8
STEMPEL
100
AcDbCircle
 10
180.926298997142
 20
279.3959842662821
 30
0.0
 40
30.0
100
AcDbArc
 50
180.0
 51
204.9999999999935
  0
ARC
  5
1436
102
{ACAD_REACTORS
330
1546
102
}
330
1E
100
AcDbEntity
  8
STEMPEL
100
AcDbCircle
 10
180.926298997142
 20
279.3959842662821
 30
0.0
 40
27.5
100
AcDbArc
 50
180.0
 51
204.9999999999921
  0
LINE
  5
1438
102
{ACAD_REACTORS
330
1546
330
15BE
102
}
330
1E
100
AcDbEntity
  8
STEMPEL
100
AcDbLine
 10
302.9260352568341
 20
298.5026068218179
 30
0.0
 11
302.926298997142
 21
298.5026068218179
 31
0.0
  0
ARC
  5
1439
102
{ACAD_REACTORS
330
1546
102
}
330
1E
100
AcDbEntity
  8
STEMPEL
100
AcDbCircle
 10
272.926298997142
 20
298.5026068218179
 30
0.0
 40
27.5
100
AcDbArc
 50
0.0
 51
24.84316893003221
  0
ARC
  5
143A
102
{ACAD_REACTORS
330
1546
330
15BE
102
}
330
1E
100
AcDbEntity
  8
STEMPEL
100
AcDbCircle
 10
272.926298997142
 20
298.5026068218179
 30
0.0
 40
29.99973625969209
100
AcDbArc
 50
0.0
 51
25.00715833654233
  0
ARC
  5
143B
102
{ACAD_REACTORS
330
1546
330
15BE
102
}
330
1E
100
AcDbEntity
  8
STEMPEL
100
AcDbCircle
 10
316.426298997142
 20
318.793606821818
 30
0.0
 40
18.0
100
AcDbArc
 50
180.0
 51
205.0071583365423
  0
ARC
  5
143C
102
{ACAD_REACTORS
330
1546
102
}
330
1E
100
AcDbEntity
  8
STEMPEL
100
AcDbCircle
 10
316.426298997142
 20
318.793606821818
 30
0.0
 40
20.5
100
AcDbArc
 50
180.0
 51
205.2271443659044
  0
ARC
  5
143D
102
{ACAD_REACTORS
330
1546
330
15BE
102
}
330
1E
100
AcDbEntity
  8
STEMPEL
100
AcDbCircle
 10
280.426298997142
 20
332.3248873991468
 30
0.0
 40
18.0
100
AcDbArc
 50
0.0
 51
34.77194403194904
  0
ARC
  5
143E
102
{ACAD_REACTORS
330
1546
102
}
330
1E
100
AcDbEntity
  8
STEMPEL
100
AcDbCircle
 10
303.426298997142
 20
348.293606821818
 30
0.0
 40
12.5
100
AcDbArc
 50
180.0
 51
214.7719440319491
  0
ARC
  5
143F
102
{ACAD_REACTORS
330
1546
330
15BE
102
}
330
1E
100
AcDbEntity
  8
STEMPEL
100
AcDbCircle
 10
303.426298997142
 20
348.293606821818
 30
0.0
 40
10.0
100
AcDbArc
 50
180.0
 51
214.7719440319491
  0
ARC
  5
1440
102
{ACAD_REACTORS
330
1546
102
}
330
1E
100
AcDbEntity
  8
STEMPEL
100
AcDbCircle
 10
280.426298997142
 20
332.3248873991468
 30
0.0
 40
15.5
100
AcDbArc
 50
0.0
 51
34.77194403194904
  0
LINE
  5
1441
102
{ACAD_REACTORS
330
1546
102
}
330
1E
100
AcDbEntity
  8
STEMPEL
100
AcDbLine
 10
295.926298997142
 20
318.793606821818
 30
0.0
 11
295.926298997142
 21
332.3248873991468
 31
0.0
  0
LINE
  5
1442
102
{ACAD_REACTORS
330
1546
330
15BE
102
}
330
1E
100
AcDbEntity
  8
STEMPEL
100
AcDbLine
 10
298.426298997142
 20
318.793606821818
 30
0.0
 11
298.426298997142
 21
332.3248873991468
 31
0.0
  0
LINE
  5
1443
102
{ACAD_REACTORS
330
1546
330
15BE
102
}
330
1E
100
AcDbEntity
  8
STEMPEL
100
AcDbLine
 10
150.9265627374499
 20
298.5026068218179
 30
0.0
 11
150.926298997142
 21
298.5026068218179
 31
0.0
  0
ARC
  5
1444
102
{ACAD_REACTORS
330
1546
330
15BE
102
}
330
1E
100
AcDbEntity
  8
STEMPEL
100
AcDbCircle
 10
180.926298997142
 20
298.5026068218179
 30
0.0
 40
29.99973625969209
100
AcDbArc
 50
154.9928416634533
 51
180.0
  0
ARC
  5
1445
102
{ACAD_REACTORS
330
1546
102
}
330
1E
100
AcDbEntity
  8
STEMPEL
100
AcDbCircle
 10
180.926298997142
 20
298.5026068218179
 30
0.0
 40
27.5
100
AcDbArc
 50
155.1568310699664
 51
180.0
  0
ARC
  5
1446
102
{ACAD_REACTORS
330
1546
330
15BE
102
}
330
1E
100
AcDbEntity
  8
STEMPEL
100
AcDbCircle
 10
137.426298997142
 20
318.7936068218179
 30
0.0
 40
18.0
100
AcDbArc
 50
334.9928416634534
 51
0.0
  0
ARC
  5
1447
102
{ACAD_REACTORS
330
1546
102
}
330
1E
100
AcDbEntity
  8
STEMPEL
100
AcDbCircle
 10
137.426298997142
 20
318.7936068218179
 30
0.0
 40
20.5
100
AcDbArc
 50
334.7728556340912
 51
0.0
  0
ARC
  5
1448
102
{ACAD_REACTORS
330
1546
102
}
330
1E
100
AcDbEntity
  8
STEMPEL
100
AcDbCircle
 10
150.4262989971419
 20
348.2936068218179
 30
0.0
 40
12.5
100
AcDbArc
 50
325.228055968051
 51
0.0
  0
ARC
  5
1449
102
{ACAD_REACTORS
330
1546
330
15BE
102
}
330
1E
100
AcDbEntity
  8
STEMPEL
100
AcDbCircle
 10
150.4262989971419
 20
348.2936068218179
 30
0.0
 40
10.0
100
AcDbArc
 50
325.228055968051
 51
0.0
  0
ARC
  5
144A
102
{ACAD_REACTORS
330
1546
330
15BE
102
}
330
1E
100
AcDbEntity
  8
STEMPEL
100
AcDbCircle
 10
173.426298997142
 20
332.3248873991468
 30
0.0
 40
18.0
100
AcDbArc
 50
145.2280559680509
 51
180.0
  0
ARC
  5
144B
102
{ACAD_REACTORS
330
1546
102
}
330
1E
100
AcDbEntity
  8
STEMPEL
100
AcDbCircle
 10
173.426298997142
 20
332.3248873991466
 30
0.0
 40
15.5
100
AcDbArc
 50
145.2280559680509
 51
180.0
  0
LINE
  5
144C
102
{ACAD_REACTORS
330
1546
330
15BE
102
}
330
1E
100
AcDbEntity
  8
STEMPEL
100
AcDbLine
 10
155.426298997142
 20
318.7936068218179
 30
0.0
 11
155.4262989971419
 21
332.3248873991466
 31
0.0
  0
LINE
  5
144D
102
{ACAD_REACTORS
330
1546
102
}
330
1E
100
AcDbEntity
  8
STEMPEL
100
AcDbLine
 10
157.926298997142
 20
318.7936068218179
 30
0.0
 11
157.926298997142
 21
332.3248873991466
 31
0.0
  0
LINE
  5
144E
330
1E
100
AcDbEntity
  8
HILF
100
AcDbLine
 10
160.7456402152466
 20
336.9563982603174
 30
0.0
 11
293.1069577790377
 21
336.9563982603174
 31
0.0
  0
LINE
  5
144F
330
1E
100
AcDbEntity
  8
HILF
100
AcDbLine
 10
164.4369773227213
 20
344.558517417648
 30
0.0
 11
289.4156206715626
 21
344.558517417648
 31
0.0
  0
LINE
  5
1450
330
1E
100
AcDbEntity
  8
HILF
100
AcDbLine
 10
159.4764549459603
 20
314.3169314222846
 30
0.0
 11
294.3761430483236
 21
314.3169314222846
 31
0.0
  0
LINE
  5
1451
102
{ACAD_REACTORS
330
1546
330
1595
330
15BE
102
}
330
1E
100
AcDbEntity
  8
STEMPEL
100
AcDbLine
 10
150.926298997142
 20
279.3959842662821
 30
0.0
 11
150.926298997142
 21
298.5026068218179
 31
0.0
  0
LINE
  5
1452
102
{ACAD_REACTORS
330
1546
102
}
330
1E
100
AcDbEntity
  8
STEMPEL
100
AcDbLine
 10
153.426298997142
 20
279.3959842662821
 30
0.0
 11
153.426298997142
 21
298.5026068218179
 31
0.0
  0
LINE
  5
1453
102
{ACAD_REACTORS
330
1546
102
}
330
1E
100
AcDbEntity
  8
STEMPEL
100
AcDbLine
 10
300.426298997142
 20
279.3959842662822
 30
0.0
 11
300.426298997142
 21
298.5026068218179
 31
0.0
  0
LINE
  5
1454
102
{ACAD_REACTORS
330
1546
330
1595
330
15BE
102
}
330
1E
100
AcDbEntity
  8
STEMPEL
100
AcDbLine
 10
302.926298997142
 20
279.3959842662822
 30
0.0
 11
302.926298997142
 21
298.5026068218179
 31
0.0
  0
LINE
  5
1492
102
{ACAD_REACTORS
330
1584
330
15BE
102
}
330
1E
100
AcDbEntity
  8
STEMPEL
100
AcDbLine
 10
308.176298997142
 20
439.7936068218178
 30
0.0
 11
302.9262989971419
 21
439.7936068218178
 31
0.0
  0
LINE
  5
1493
102
{ACAD_REACTORS
330
1573
102
}
330
1E
100
AcDbEntity
  8
STEMPEL
100
AcDbLine
 10
311.076298997142
 20
455.7936068218177
 30
0.0
 11
311.076298997142
 21
265.7936068218179
 31
0.0
  0
LINE
  5
1494
102
{ACAD_REACTORS
330
1573
330
1584
330
1595
330
15BE
102
}
330
1E
100
AcDbEntity
  8
STEMPEL
100
AcDbLine
 10
308.176298997142
 20
455.7936068218177
 30
0.0
 11
308.1762989971421
 21
265.7936068218179
 31
0.0
  0
DIMENSION
  5
1496
330
1E
100
AcDbEntity
  8
BEM
100
AcDbDimension
  2
*D1
 10
311.076298997142
 20
468.7110847206544
 30
0.0
 11
226.9262989971419
 21
475.2110847206544
 31
0.0
 70
    32
  1
%%c<>
 71
     5
 42
168.3000000000001
  3
Standard
100
AcDbAlignedDimension
 13
142.7762989971419
 23
455.7936068218179
 33
0.0
 14
311.076298997142
 24
455.7936068218177
 34
0.0
100
AcDbRotatedDimension
1001
ACAD
1000
DSTYLE
1002
{
1070
    40
1040
2.0
1070
    41
1040
3.5
1070
    42
1040
1.0
1070
    43
1040
7.0
1070
    44
1040
1.0
1070
    73
1070
     0
1070
    74
1070
     0
1070
    77
1070
     1
1070
    78
1070
     8
1070
    79
1070
     2
1070
   140
1040
3.5
1070
   141
1040
1.5
1070
   146
1040
0.5142857142857144
1070
   147
1040
1.5
1070
   172
1070
     1
1070
   178
1070
     1
1070
   179
1070
     2
1070
   271
1070
     2
1070
   272
1070
     2
1070
   284
1070
     8
1070
   285
1070
     8
1070
   286
1070
     8
1070
   289
1070
     0
1070
   340
1005
24
1002
}
  0
LINE
  5
1498
102
{ACAD_REACTORS
330
1584
330
15BE
102
}
330
1E
100
AcDbEntity
  8
STEMPEL
100
AcDbLine
 10
150.9262989971418
 20
439.7936068218179
 30
0.0
 11
145.6762989971418
 21
439.7936068218178
 31
0.0
  0
LINE
  5
1499
102
{ACAD_REACTORS
330
1573
102
}
330
1E
100
AcDbEntity
  8
STEMPEL
100
AcDbLine
 10
142.7762989971419
 20
455.7936068218179
 30
0.0
 11
142.7762989971419
 21
265.7936068218179
 31
0.0
  0
LINE
  5
149A
102
{ACAD_REACTORS
330
1573
330
1584
330
1595
330
15BE
102
}
330
1E
100
AcDbEntity
  8
STEMPEL
100
AcDbLine
 10
145.6762989971418
 20
455.7936068218179
 30
0.0
 11
145.6762989971419
 21
265.7936068218179
 31
0.0
  0
DIMENSION
  5
14DE
330
1E
100
AcDbEntity
  8
BEM
100
AcDbDimension
  2
*D2
 10
124.6616841376217
 20
265.793606821818
 30
0.0
 11
118.1616841376216
 21
360.793606821818
 31
0.0
 70
    32
 71
     5
 42
189.9999999999999
  3
Standard
100
AcDbAlignedDimension
 13
142.7762989971419
 23
455.7936068218179
 33
0.0
 14
142.7762989971419
 24
265.7936068218179
 34
0.0
 50
90.0
100
AcDbRotatedDimension
1001
ACAD
1000
DSTYLE
1002
{
1070
    40
1040
2.0
1070
    41
1040
3.5
1070
    42
1040
1.0
1070
    43
1040
7.0
1070
    44
1040
1.0
1070
    73
1070
     0
1070
    74
1070
     0
1070
    77
1070
     1
1070
    78
1070
     8
1070
    79
1070
     2
1070
   140
1040
3.5
1070
   141
1040
1.5
1070
   146
1040
0.5142857142857144
1070
   147
1040
1.5
1070
   172
1070
     1
1070
   178
1070
     1
1070
   179
1070
     2
1070
   271
1070
     2
1070
   272
1070
     2
1070
   284
1070
     8
1070
   285
1070
     8
1070
   286
1070
     8
1002
}
  0
LINE
  5
14F4
102
{ACAD_REACTORS
330
1595
330
15BE
102
}
330
1E
100
AcDbEntity
  8
STEMPEL
100
AcDbLine
 10
308.1762989971419
 20
281.7936068218178
 30
0.0
 11
302.9262989971418
 21
281.7936068218178
 31
0.0
  0
LINE
  5
14F5
102
{ACAD_REACTORS
330
1595
330
15BE
102
}
330
1E
100
AcDbEntity
  8
STEMPEL
100
AcDbLine
 10
150.9262989971418
 20
281.7936068218179
 30
0.0
 11
145.6762989971417
 21
281.7936068218179
 31
0.0
  0
HATCH
  5
1546
330
1E
100
AcDbEntity
  8
SCHRAFF
100
AcDbHatch
 10
0.0
 20
0.0
 30
0.0
210
0.0
220
0.0
230
1.0
  2
_USER
 70
     0
 71
     1
 91
        2
 92
        7
 72
     1
 73
     1
 93
       38
 10
290.9262989971419
 20
348.293606821818
 42
0.1528962216020382
 10
293.1584418542848
 20
341.1647142224112
 42
-0.1528962216020409
 10
295.926298997142
 20
332.3248873991468
 42
0.0
 10
295.926298997142
 20
318.793606821818
 42
0.1085781327855232
 10
297.8149360144467
 20
310.1990057300653
 42
-0.1102736034490074
 10
300.426298997142
 20
298.5026068218179
 42
0.0
 10
300.426298997142
 20
279.3959842662822
 42
-0.1095178116832408
 10
297.8497631406499
 20
267.773982068413
 42
0.0
 10
296.926298997142
 20
265.7936068218179
 42
0.0
 10
299.6847437945482
 20
265.7936068218179
 42
0.0
 10
300.1155326082415
 20
266.717436414061
 42
0.1095178116832425
 10
302.926298997142
 20
279.3959842662821
 42
0.0
 10
302.926298997142
 20
298.5026068218179
 42
0.0
 10
302.9260352568341
 20
298.5026068218179
 42
0.109549420553767
 10
300.1137093661542
 20
311.1844400125681
 42
-0.1095494205537661
 10
298.426298997142
 20
318.793606821818
 42
0.0
 10
298.426298997142
 20
332.3248873991468
 42
0.1528962216020392
 10
295.2120132828563
 20
342.5904927422926
 42
-0.1528962216020407
 10
293.4262989971419
 20
348.293606821818
 42
0.0
 10
293.4262989971419
 20
373.2936068218178
 42
-0.1528962216020417
 10
295.2120132828562
 20
378.9967209013433
 42
0.1528962216020372
 10
298.4262989971419
 20
389.262326244489
 42
0.0
 10
298.4262989971419
 20
402.7936068218178
 42
-0.1095494205537222
 10
300.1137093661528
 20
410.4027736310649
 42
0.1095494205537929
 10
302.926035256834
 20
423.0846068218178
 42
0.0
 10
302.9262989971419
 20
423.0846068218177
 42
0.0
 10
302.9262989971419
 20
442.1912293773536
 42
0.1095178116832439
 10
300.1155326082413
 20
454.8697772295748
 42
0.0
 10
299.6847437945482
 20
455.7936068218179
 42
0.0
 10
296.9262989971419
 20
455.7936068218179
 42
0.0
 10
297.8497631406498
 20
453.8132315752227
 42
-0.1095178116832413
 10
300.4262989971419
 20
442.1912293773536
 42
0.0
 10
300.4262989971419
 20
423.0846068218179
 42
-0.1102736034490952
 10
297.8149360144426
 20
411.3882079135619
 42
0.108578132785405
 10
295.9262989971419
 20
402.7936068218179
 42
0.0
 10
295.9262989971419
 20
389.262326244489
 42
-0.1528962216020408
 10
293.1584418542847
 20
380.4224994212246
 42
0.1528962216020375
 10
290.9262989971419
 20
373.2936068218178
 42
0.0
 97
       38
330
141E
330
1420
330
141B
330
1422
330
1423
330
1425
330
1402
330
142B
330
142D
330
FE0
330
142E
330
142C
330
1403
330
1424
330
1421
330
141C
330
141D
330
141F
330
1419
330
143E
330
1440
330
1441
330
143C
330
1439
330
1453
330
1431
330
142F
330
13CE
330
1430
330
1432
330
1454
330
1438
330
143A
330
143B
330
1442
330
143D
330
143F
330
1418
 92
        7
 72
     1
 73
     1
 93
       38
 10
162.9262989971419
 20
373.2936068218179
 42
0.1528962216020379
 10
160.694156139999
 20
380.4224994212246
 42
-0.1528962216020404
 10
157.9262989971419
 20
389.2623262444891
 42
0.0
 10
157.9262989971419
 20
402.7936068218179
 42
0.1085781327853976
 10
156.0376619798415
 20
411.3882079135613
 42
-0.1102736034491007
 10
153.4262989971419
 20
423.0846068218179
 42
0.0
 10
153.4262989971419
 20
442.1912293773536
 42
-0.1095178116832406
 10
156.002834853634
 20
453.8132315752228
 42
0.0
 10
156.9262989971418
 20
455.793606821818
 42
0.0
 10
154.1678541997356
 20
455.793606821818
 42
0.0
 10
153.7370653860424
 20
454.8697772295748
 42
0.1095178116832427
 10
150.9262989971419
 20
442.1912293773537
 42
0.0
 10
150.9262989971419
 20
423.084606821818
 42
0.0
 10
150.9265627374498
 20
423.0846068218179
 42
0.1095494205537667
 10
153.7388886281296
 20
410.4027736310678
 42
-0.1095494205537668
 10
155.4262989971419
 20
402.7936068218179
 42
0.0
 10
155.4262989971418
 20
389.2623262444891
 42
0.152896221602039
 10
158.6405847114275
 20
378.9967209013433
 42
-0.1528962216020382
 10
160.4262989971418
 20
373.293606821818
 42
0.0
 10
160.4262989971418
 20
348.2936068218179
 42
-0.1528962216020408
 10
158.6405847114275
 20
342.5904927422924
 42
0.1528962216020377
 10
155.4262989971419
 20
332.3248873991466
 42
0.0
 10
155.426298997142
 20
318.7936068218179
 42
-0.1095494205537411
 10
153.7388886281305
 20
311.1844400125696
 42
0.1095494205537824
 10
150.9265627374499
 20
298.5026068218179
 42
0.0
 10
150.926298997142
 20
298.5026068218179
 42
0.0
 10
150.926298997142
 20
279.3959842662821
 42
0.1095178116832433
 10
153.7370653860425
 20
266.7174364140609
 42
0.0
 10
154.1678541997357
 20
265.7936068218179
 42
0.0
 10
156.9262989971419
 20
265.793606821818
 42
0.0
 10
156.0028348536341
 20
267.7739820684129
 42
-0.1095178116832411
 10
153.426298997142
 20
279.3959842662821
 42
0.0
 10
153.426298997142
 20
298.5026068218179
 42
-0.1102736034491076
 10
156.0376619798419
 20
310.1990057300751
 42
0.1085781327853883
 10
157.926298997142
 20
318.7936068218179
 42
0.0
 10
157.926298997142
 20
332.3248873991466
 42
-0.1528962216020417
 10
160.6941561399992
 20
341.1647142224112
 42
0.1528962216020354
 10
162.9262989971419
 20
348.2936068218179
 42
0.0
 97
       38
330
1412
330
140F
330
140D
330
1413
330
1415
330
1405
330
1427
330
1429
330
FE0
330
142A
330
1428
330
1406
330
1417
330
1416
330
1414
330
140E
330
1410
330
1411
330
140C
330
1449
330
144A
330
144C
330
1446
330
1444
330
1443
330
1451
330
1435
330
1433
330
13CE
330
1434
330
1436
330
1452
330
1445
330
1447
330
144D
330
144B
330
1448
330
140B
 75
     0
 76
     0
 52
45.0
 41
2.0
 77
     0
 78
     1
 53
45.0
 43
0.0
 44
0.0
 45
-1.414213562373094
 46
1.414213562373095
 79
     0
 47
0.4472077782041002
 98
        2
 10
292.108290597716
 20
362.9234937839392
 10
162.3263083480847
 20
362.9234937839392
  0
HATCH
  5
1573
330
1E
100
AcDbEntity
  8
SCHRAFF
100
AcDbHatch
 10
0.0
 20
0.0
 30
0.0
210
0.0
220
0.0
230
1.0
  2
_USER
 70
     0
 71
     1
 91
        2
 92
        7
 72
     0
 73
     1
 93
        4
 10
311.076298997142
 20
455.7936068218179
 10
308.1762989971419
 20
455.7936068218178
 10
308.1762989971421
 20
265.7936068218179
 10
311.076298997142
 20
265.7936068218179
 97
        4
330
FE0
330
1494
330
13CE
330
1493
 92
        7
 72
     0
 73
     1
 93
        4
 10
145.6762989971418
 20
455.793606821818
 10
142.7762989971419
 20
455.7936068218179
 10
142.7762989971419
 20
265.7936068218179
 10
145.6762989971419
 20
265.7936068218179
 97
        4
330
FE0
330
1499
330
13CE
330
149A
 75
     0
 76
     0
 52
135.0
 41
2.0
 77
     0
 78
     1
 53
135.0
 43
0.0
 44
0.0
 45
-1.414213562373095
 46
-1.414213562373094
 79
     0
 47
0.4472077782041002
 98
        2
 10
310.4567764634753
 20
390.6503761207462
 10
144.4253444510132
 20
388.4143365906189
  0
HATCH
  5
1584
330
1E
100
AcDbEntity
  8
SCHRAFF
100
AcDbHatch
 10
0.0
 20
0.0
 30
0.0
210
0.0
220
0.0
230
1.0
  2
NET
 70
     0
 71
     1
 91
        2
 92
        7
 72
     1
 73
     1
 93
        6
 10
308.176298997142
 20
455.7936068218178
 42
0.0
 10
299.6847437945482
 20
455.7936068218178
 42
0.0
 10
300.1155326082413
 20
454.8697772295748
 42
-0.1095178116832429
 10
302.9262989971419
 20
442.1912293773536
 42
0.0
 10
302.9262989971419
 20
439.7936068218178
 42
0.0
 10
308.176298997142
 20
439.7936068218178
 42
0.0
 97
        6
330
FE0
330
142D
330
142B
330
1402
330
1492
330
1494
 92
        7
 72
     1
 73
     1
 93
        6
 10
153.7370653860424
 20
454.8697772295748
 42
0.0
 10
154.1678541997356
 20
455.7936068218179
 42
0.0
 10
145.6762989971419
 20
455.7936068218181
 42
0.0
 10
145.6762989971419
 20
439.7936068218178
 42
0.0
 10
150.9262989971419
 20
439.7936068218179
 42
0.0
 10
150.9262989971419
 20
442.1912293773536
 42
-0.1095178116832432
 97
        6
330
142A
330
FE0
330
149A
330
1498
330
1406
330
1428
 75
     0
 76
     1
 52
45.0
 41
20.0
 77
     0
 78
     2
 53
45.0
 43
0.0
 44
0.0
 45
-1.767766952966368
 46
1.767766952966368
 79
     0
 53
135.0
 43
0.0
 44
0.0
 45
-1.767766952966368
 46
-1.767766952966368
 79
     0
 47
0.4472077782041002
 98
        2
 10
305.5340129746887
 20
448.7873871109736
 10
150.6906825791507
 20
450.1290102692808
  0
HATCH
  5
1595
330
1E
100
AcDbEntity
  8
SCHRAFF
100
AcDbHatch
 10
0.0
 20
0.0
 30
0.0
210
0.0
220
0.0
230
1.0
  2
NET
 70
     0
 71
     1
 91
        2
 92
        7
 72
     1
 73
     1
 93
        6
 10
308.1762989971421
 20
281.7936068218178
 42
0.0
 10
302.926298997142
 20
281.7936068218178
 42
0.0
 10
302.926298997142
 20
279.3959842662822
 42
-0.1095178116832434
 10
300.1155326082415
 20
266.717436414061
 42
0.0
 10
299.6847437945484
 20
265.793606821818
 42
0.0
 10
308.1762989971421
 20
265.7936068218179
 42
0.0
 97
        6
330
14F4
330
1454
330
1432
330
1430
330
13CE
330
1494
 92
        7
 72
     1
 73
     1
 93
        6
 10
150.926298997142
 20
279.3959842662821
 42
0.0
 10
150.926298997142
 20
281.7936068218179
 42
0.0
 10
145.6762989971419
 20
281.793606821818
 42
0.0
 10
145.6762989971419
 20
265.7936068218179
 42
0.0
 10
154.1678541997357
 20
265.7936068218179
 42
0.0
 10
153.7370653860425
 20
266.7174364140609
 42
-0.1095178116832438
 97
        6
330
1451
330
14F5
330
149A
330
13CE
330
1433
330
1435
 75
     0
 76
     1
 52
45.0
 41
20.0
 77
     0
 78
     2
 53
45.0
 43
0.0
 44
0.0
 45
-1.767766952966368
 46
1.767766952966368
 79
     0
 53
135.0
 43
0.0
 44
0.0
 45
-1.767766952966368
 46
-1.767766952966368
 79
     0
 47
0.4472077782041002
 98
        2
 10
305.5340129746887
 20
277.5068072433912
 10
149.3481101231214
 20
274.3763527408671
  0
HATCH
  5
15BE
330
1E
100
AcDbEntity
  8
SCHRAFF
100
AcDbHatch
 10
0.0
 20
0.0
 30
0.0
210
0.0
220
0.0
230
1.0
  2
HONEY
 70
     0
 71
     1
 91
        2
 92
        7
 72
     1
 73
     1
 93
       18
 10
293.4262989971419
 20
373.2936068218178
 42
0.0
 10
293.4262989971419
 20
348.293606821818
 42
0.1528962216020374
 10
295.2120132828562
 20
342.5904927422927
 42
-0.152896221602041
 10
298.426298997142
 20
332.3248873991468
 42
0.0
 10
298.426298997142
 20
318.793606821818
 42
0.1095494205537661
 10
300.1137093661542
 20
311.1844400125681
 42
-0.109549420553767
 10
302.9260352568341
 20
298.5026068218179
 42
0.0
 10
302.926298997142
 20
298.5026068218179
 42
0.0
 10
302.926298997142
 20
281.7936068218178
 42
0.0
 10
308.1762989971421
 20
281.7936068218178
 42
0.0
 10
308.1762989971419
 20
439.7936068218178
 42
0.0
 10
302.926298997142
 20
439.7936068218179
 42
0.0
 10
302.9262989971419
 20
423.0846068218178
 42
0.0
 10
302.926035256834
 20
423.0846068218178
 42
-0.1095494205537216
 10
300.1137093661563
 20
410.4027736310725
 42
0.1095494205538402
 10
298.4262989971419
 20
402.7936068218179
 42
0.0
 10
298.4262989971419
 20
389.262326244489
 42
-0.1528962216020418
 10
295.2120132828561
 20
378.996720901343
 42
0.152896221602035
 97
       18
330
1492
330
1402
330
1425
330
1423
330
1422
330
141B
330
1420
330
141E
330
1418
330
143F
330
143D
330
1442
330
143B
330
143A
330
1438
330
1454
330
14F4
330
1494
 92
        7
 72
     1
 73
     1
 93
       18
 10
160.4262989971418
 20
373.2936068218179
 42
0.1528962216020382
 10
158.6405847114275
 20
378.9967209013433
 42
-0.1528962216020397
 10
155.4262989971418
 20
389.2623262444891
 42
0.0
 10
155.4262989971419
 20
402.7936068218179
 42
0.1095494205537668
 10
153.7388886281296
 20
410.4027736310678
 42
-0.1095494205537667
 10
150.9265627374498
 20
423.0846068218179
 42
0.0
 10
150.9262989971418
 20
423.0846068218179
 42
0.0
 10
150.9262989971419
 20
439.7936068218179
 42
0.0
 10
145.6762989971418
 20
439.7936068218178
 42
0.0
 10
145.6762989971419
 20
281.7936068218179
 42
0.0
 10
150.926298997142
 20
281.7936068218179
 42
0.0
 10
150.926298997142
 20
298.5026068218179
 42
0.0
 10
150.9265627374499
 20
298.5026068218179
 42
-0.1095494205537413
 10
153.7388886281284
 20
311.1844400125652
 42
0.1095494205538098
 10
155.426298997142
 20
318.7936068218179
 42
0.0
 10
155.4262989971419
 20
332.3248873991466
 42
-0.1528962216020436
 10
158.6405847114278
 20
342.5904927422927
 42
0.1528962216020302
 10
160.4262989971418
 20
348.2936068218179
 42
0.0
 97
       18
330
1411
330
1410
330
140E
330
1414
330
1416
330
1417
330
1406
330
1498
330
149A
330
14F5
330
1451
330
1443
330
1444
330
1446
330
144C
330
144A
330
1449
330
140C
 75
     0
 76
     1
 52
0.0
 41
25.0
 77
     0
 78
     3
 53
0.0
 43
0.0
 44
0.0
 45
4.6875
 46
2.706329374999999
 79
     2
 49
3.125
 49
-6.25
 53
120.0
 43
0.0
 44
0.0
 45
-4.687499989758061
 46
2.706329392739557
 79
     2
 49
3.125
 49
-6.25
 53
60.0
 43
0.0
 44
0.0
 45
0.0000000102419385
 46
5.412658767739556
 79
     2
 49
-6.25
 49
3.125
 47
0.4472077782041002
 98
        2
 10
300.611247302581
 20
374.1036872363052
 10
156.5084943719571
 20
358.0042079371978
  0
TEXT
  5
15DA
330
1E
100
AcDbEntity
  8
TEXT
100
AcDbText
 10
161.0085209177598
 20
63.10765040825732
 30
0.0
 40
4.0
  1
01.10.
 41
0.8
  7
GREEKS
 72
     1
 11
167.4085209177598
 21
63.10765040825732
 31
0.0
100
AcDbText
  0
TEXT
  5
15DB
330
1E
100
AcDbEntity
  8
TEXT
100
AcDbText
 10
138.622109822104
 20
73.14025471151666
 30
0.0
 40
4.0
  1
2007
 41
0.8
  7
GREEKS
100
AcDbText
  0
ENDSEC
  0
SECTION
  2
OBJECTS
  0
DICTIONARY
  5
C
330
0
100
AcDbDictionary
281
     1
  3
ACAD_COLOR
350
DF
  3
ACAD_GROUP
350
D
  3
ACAD_LAYOUT
350
19
  3
ACAD_MATERIAL
350
DE
  3
ACAD_MLINESTYLE
350
16
  3
ACAD_PLOTSETTINGS
350
18
  3
ACAD_PLOTSTYLENAME
350
E
  3
AcDbVariableDictionary
350
EA
  0
DICTIONARY
  5
A0
330
1E
100
AcDbDictionary
280
     1
281
     1
  3
ACAD_LAYOUTSELFREF
360
D4
  0
DICTIONARY
  5
A2
330
1A
100
AcDbDictionary
280
     1
281
     1
  3
ACAD_LAYOUTSELFREF
360
D3
  0
DICTIONARY
  5
DF
102
{ACAD_REACTORS
330
C
102
}
330
C
100
AcDbDictionary
281
     1
  0
DICTIONARY
  5
D
102
{ACAD_REACTORS
330
C
102
}
330
C
100
AcDbDictionary
281
     1
  0
DICTIONARY
  5
19
102
{ACAD_REACTORS
330
C
102
}
330
C
100
AcDbDictionary
281
     1
  3
Layout1
350
1D
  3
Model
350
21
  0
DICTIONARY
  5
DE
102
{ACAD_REACTORS
330
C
102
}
330
C
100
AcDbDictionary
281
     1
  0
DICTIONARY
  5
16
102
{ACAD_REACTORS
330
C
102
}
330
C
100
AcDbDictionary
281
     1
  3
Standard
350
17
  0
DICTIONARY
  5
18
102
{ACAD_REACTORS
330
C
102
}
330
C
100
AcDbDictionary
281
     1
  0
ACDBDICTIONARYWDFLT
  5
E
102
{ACAD_REACTORS
330
C
102
}
330
C
100
AcDbDictionary
281
     1
  3
Normal
350
F
100
AcDbDictionaryWithDefault
340
F
  0
DICTIONARY
  5
EA
102
{ACAD_REACTORS
330
C
102
}
330
C
100
AcDbDictionary
281
     1
  3
DIMASSOC
350
EB
  3
PROJECTNAME
350
EC
  0
XRECORD
  5
D4
102
{ACAD_REACTORS
330
A0
102
}
330
A0
100
AcDbXrecord
280
     1
340
1E
  0
XRECORD
  5
D3
102
{ACAD_REACTORS
330
A2
102
}
330
A2
100
AcDbXrecord
280
     1
340
1A
  0
LAYOUT
  5
1D
102
{ACAD_REACTORS
330
19
102
}
330
19
100
AcDbPlotSettings
  1

  2
\\NT_WORK01\HP LaserJet 5000 PCL 6
  4

  6

 40
0.0
 41
0.0
 42
0.0
 43
0.0
 44
0.0
 45
0.0
 46
0.0
 47
0.0
 48
0.0
 49
0.0
140
0.0
141
0.0
142
1.0
143
1.0
 70
   688
 72
     0
 73
     0
 74
     5
  7

 75
    16
147
1.0
 76
     0
 77
     2
 78
   300
148
0.0
149
0.0
100
AcDbLayout
  1
Layout1
 70
     0
 71
     1
 10
0.0
 20
0.0
 11
12.0
 21
9.0
 12
0.0
 22
0.0
 32
0.0
 14
1.000000000000000E+20
 24
1.000000000000000E+20
 34
1.000000000000000E+20
 15
-1.000000000000000E+20
 25
-1.000000000000000E+20
 35
-1.000000000000000E+20
146
0.0
 13
0.0
 23
0.0
 33
0.0
 16
1.0
 26
0.0
 36
0.0
 17
0.0
 27
1.0
 37
0.0
 76
     0
330
1A
  0
LAYOUT
  5
21
102
{ACAD_REACTORS
330
19
102
}
330
19
100
AcDbPlotSettings
  1

  2
none_device
  4
Letter_(8.50_x_11.00_Inches)
  6

 40
6.349999904632568
 41
6.349999904632568
 42
6.350006103515625
 43
6.350006103515625
 44
215.8999938964844
 45
279.3999938964844
 46
0.0
 47
0.0
 48
0.0
 49
0.0
140
0.0
141
0.0
142
1.0
143
1.0
 70
 11952
 72
     0
 73
     1
 74
     0
  7

 75
     0
147
1.0
 76
     0
 77
     2
 78
   300
148
-749.7820602958161
149
-2290.668953617082
100
AcDbLayout
  1
Model
 70
     1
 71
     0
 10
0.0
 20
0.0
 11
12.0
 21
9.0
 12
0.0
 22
0.0
 32
0.0
 14
0.0
 24
0.0
 34
0.0
 15
0.0
 25
0.0
 35
0.0
146
0.0
 13
0.0
 23
0.0
 33
0.0
 16
1.0
 26
0.0
 36
0.0
 17
0.0
 27
1.0
 37
0.0
 76
     0
330
1E
  0
MLINESTYLE
  5
17
102
{ACAD_REACTORS
330
16
102
}
330
16
100
AcDbMlineStyle
  2
STANDARD
 70
     0
  3

 62
   256
 51
90.0
 52
90.0
 71
     2
 49
0.5
 62
   256
  6
BYLAYER
 49
-0.5
 62
   256
  6
BYLAYER
  0
ACDBPLACEHOLDER
  5
F
102
{ACAD_REACTORS
330
E
102
}
330
E
  0
DICTIONARYVAR
  5
EB
102
{ACAD_REACTORS
330
EA
102
}
330
EA
100
DictionaryVariables
280
     0
  1
1
  0
DICTIONARYVAR
  5
EC
102
{ACAD_REACTORS
330
EA
102
}
330
EA
100
DictionaryVariables
280
     0
  1

  0
ENDSEC
  0
EOF
