  0
SECTION
  2
HEADER
  9
$ACADVER
  1
AC1018
  9
$ACADMAINTVER
 70
     2
  9
$DWGCODEPAGE
  3
ANSI_1252
  9
$INSBASE
 10
0.0
 20
0.0
 30
0.0
  9
$EXTMIN
 10
-0.012810439205964
 20
-0.0181176211630145
 30
-0.0000000000000053
  9
$EXTMAX
 10
210.012821685687
 20
297.0181335269
 30
0.0000000000000099
  9
$LIMMIN
 10
0.0
 20
0.0
  9
$LIMMAX
 10
210.0
 20
297.0
  9
$ORTHOMODE
 70
     1
  9
$REGENMODE
 70
     1
  9
$FILLMODE
 70
     1
  9
$QTEXTMODE
 70
     0
  9
$MIRRTEXT
 70
     1
  9
$LTSCALE
 40
10.0
  9
$ATTMODE
 70
     1
  9
$TEXTSIZE
 40
3.5
  9
$TRACEWID
 40
0.5
  9
$TEXTSTYLE
  7
STANDARD
  9
$CLAYER
  8
BEM
  9
$CELTYPE
  6
ByLayer
  9
$CECOLOR
 62
   256
  9
$CELTSCALE
 40
1.0
  9
$DISPSILH
 70
     0
  9
$DIMSCALE
 40
1.0
  9
$DIMASZ
 40
3.5
  9
$DIMEXO
 40
1.0
  9
$DIMDLI
 40
7.0
  9
$DIMRND
 40
0.0
  9
$DIMDLE
 40
0.0
  9
$DIMEXE
 40
1.0
  9
$DIMTP
 40
0.0
  9
$DIMTM
 40
0.0
  9
$DIMTXT
 40
3.5
  9
$DIMCEN
 40
1.5
  9
$DIMTSZ
 40
0.0
  9
$DIMTOL
 70
     0
  9
$DIMLIM
 70
     0
  9
$DIMTIH
 70
     0
  9
$DIMTOH
 70
     0
  9
$DIMSE1
 70
     0
  9
$DIMSE2
 70
     0
  9
$DIMTAD
 70
     1
  9
$DIMZIN
 70
     8
  9
$DIMBLK
  1

  9
$DIMASO
 70
     1
  9
$DIMSHO
 70
     0
  9
$DIMPOST
  1

  9
$DIMAPOST
  1

  9
$DIMALT
 70
     0
  9
$DIMALTD
 70
     2
  9
$DIMALTF
 40
25.4
  9
$DIMLFAC
 40
1.0
  9
$DIMTOFL
 70
     1
  9
$DIMTVP
 40
0.0
  9
$DIMTIX
 70
     0
  9
$DIMSOXD
 70
     0
  9
$DIMSAH
 70
     0
  9
$DIMBLK1
  1

  9
$DIMBLK2
  1

  9
$DIMSTYLE
  2
Standard
  9
$DIMCLRD
 70
     0
  9
$DIMCLRE
 70
     0
  9
$DIMCLRT
 70
     1
  9
$DIMTFAC
 40
0.5142857142857144
  9
$DIMGAP
 40
1.5
  9
$DIMJUST
 70
     0
  9
$DIMSD1
 70
     0
  9
$DIMSD2
 70
     0
  9
$DIMTOLJ
 70
     1
  9
$DIMTZIN
 70
     8
  9
$DIMALTZ
 70
     8
  9
$DIMALTTZ
 70
     8
  9
$DIMUPT
 70
     0
  9
$DIMDEC
 70
     2
  9
$DIMTDEC
 70
     2
  9
$DIMALTU
 70
     2
  9
$DIMALTTD
 70
     2
  9
$DIMTXSTY
  7
STANDARD
  9
$DIMAUNIT
 70
     0
  9
$DIMADEC
 70
     2
  9
$DIMALTRND
 40
0.0
  9
$DIMAZIN
 70
     2
  9
$DIMDSEP
 70
    46
  9
$DIMATFIT
 70
     3
  9
$DIMFRAC
 70
     0
  9
$DIMLDRBLK
  1

  9
$DIMLUNIT
 70
     2
  9
$DIMLWD
 70
    -2
  9
$DIMLWE
 70
    -2
  9
$DIMTMOVE
 70
     0
  9
$LUNITS
 70
     2
  9
$LUPREC
 70
     2
  9
$SKETCHINC
 40
1.0
  9
$FILLETRAD
 40
0.0
  9
$AUNITS
 70
     0
  9
$AUPREC
 70
     0
  9
$MENU
  1
ACAD
  9
$ELEVATION
 40
0.0
  9
$PELEVATION
 40
0.0
  9
$THICKNESS
 40
0.0
  9
$LIMCHECK
 70
     0
  9
$CHAMFERA
 40
0.0
  9
$CHAMFERB
 40
0.0
  9
$CHAMFERC
 40
0.0
  9
$CHAMFERD
 40
0.0
  9
$SKPOLY
 70
     0
  9
$TDCREATE
 40
2455397.823042361
  9
$TDUCREATE
 40
2455397.781375695
  9
$TDUPDATE
 40
2455532.562545382
  9
$TDUUPDATE
 40
2455532.520878715
  9
$TDINDWG
 40
0.0373983218
  9
$TDUSRTIMER
 40
0.0373983218
  9
$USRTIMER
 70
     1
  9
$ANGBASE
 50
0.0
  9
$ANGDIR
 70
     0
  9
$PDMODE
 70
     0
  9
$PDSIZE
 40
0.0
  9
$PLINEWID
 40
0.0
  9
$SPLFRAME
 70
     0
  9
$SPLINETYPE
 70
     6
  9
$SPLINESEGS
 70
     8
  9
$HANDSEED
  5
7E0
  9
$SURFTAB1
 70
     6
  9
$SURFTAB2
 70
     6
  9
$SURFTYPE
 70
     6
  9
$SURFU
 70
     6
  9
$SURFV
 70
     6
  9
$UCSBASE
  2

  9
$UCSNAME
  2

  9
$UCSORG
 10
0.0
 20
0.0
 30
0.0
  9
$UCSXDIR
 10
1.0
 20
0.0
 30
0.0
  9
$UCSYDIR
 10
0.0
 20
1.0
 30
0.0
  9
$UCSORTHOREF
  2

  9
$UCSORTHOVIEW
 70
     0
  9
$UCSORGTOP
 10
0.0
 20
0.0
 30
0.0
  9
$UCSORGBOTTOM
 10
0.0
 20
0.0
 30
0.0
  9
$UCSORGLEFT
 10
0.0
 20
0.0
 30
0.0
  9
$UCSORGRIGHT
 10
0.0
 20
0.0
 30
0.0
  9
$UCSORGFRONT
 10
0.0
 20
0.0
 30
0.0
  9
$UCSORGBACK
 10
0.0
 20
0.0
 30
0.0
  9
$PUCSBASE
  2

  9
$PUCSNAME
  2

  9
$PUCSORG
 10
0.0
 20
0.0
 30
0.0
  9
$PUCSXDIR
 10
1.0
 20
0.0
 30
0.0
  9
$PUCSYDIR
 10
0.0
 20
1.0
 30
0.0
  9
$PUCSORTHOREF
  2

  9
$PUCSORTHOVIEW
 70
     0
  9
$PUCSORGTOP
 10
0.0
 20
0.0
 30
0.0
  9
$PUCSORGBOTTOM
 10
0.0
 20
0.0
 30
0.0
  9
$PUCSORGLEFT
 10
0.0
 20
0.0
 30
0.0
  9
$PUCSORGRIGHT
 10
0.0
 20
0.0
 30
0.0
  9
$PUCSORGFRONT
 10
0.0
 20
0.0
 30
0.0
  9
$PUCSORGBACK
 10
0.0
 20
0.0
 30
0.0
  9
$USERI1
 70
     0
  9
$USERI2
 70
     0
  9
$USERI3
 70
     0
  9
$USERI4
 70
     0
  9
$USERI5
 70
     0
  9
$USERR1
 40
0.0
  9
$USERR2
 40
0.0
  9
$USERR3
 40
0.0
  9
$USERR4
 40
0.0
  9
$USERR5
 40
0.0
  9
$WORLDVIEW
 70
     1
  9
$SHADEDGE
 70
     3
  9
$SHADEDIF
 70
    70
  9
$TILEMODE
 70
     1
  9
$MAXACTVP
 70
    16
  9
$PINSBASE
 10
0.0
 20
0.0
 30
0.0
  9
$PLIMCHECK
 70
     0
  9
$PEXTMIN
 10
1.000000000000000E+20
 20
1.000000000000000E+20
 30
1.000000000000000E+20
  9
$PEXTMAX
 10
-1.000000000000000E+20
 20
-1.000000000000000E+20
 30
-1.000000000000000E+20
  9
$PLIMMIN
 10
0.0
 20
0.0
  9
$PLIMMAX
 10
12.0
 20
9.0
  9
$UNITMODE
 70
     0
  9
$VISRETAIN
 70
     0
  9
$PLINEGEN
 70
     0
  9
$PSLTSCALE
 70
     0
  9
$TREEDEPTH
 70
  3020
  9
$CMLSTYLE
  2
Standard
  9
$CMLJUST
 70
     0
  9
$CMLSCALE
 40
1.0
  9
$PROXYGRAPHICS
 70
     1
  9
$MEASUREMENT
 70
     0
  9
$CELWEIGHT
370
    -1
  9
$ENDCAPS
280
     0
  9
$JOINSTYLE
280
     0
  9
$LWDISPLAY
290
     0
  9
$INSUNITS
 70
     0
  9
$HYPERLINKBASE
  1

  9
$STYLESHEET
  1
monochrome 1.ctb
  9
$XEDIT
290
     1
  9
$CEPSNTYPE
380
     0
  9
$PSTYLEMODE
290
     1
  9
$FINGERPRINTGUID
  2
{D68B0D02-A558-11D7-B632-000102183313}
  9
$VERSIONGUID
  2
{7A7B2869-E9D9-43CC-BF5D-B579A3F007BC}
  9
$EXTNAMES
290
     1
  9
$PSVPSCALE
 40
0.0
  9
$OLESTARTUP
290
     0
  9
$SORTENTS
280
   127
  9
$INDEXCTL
280
     0
  9
$HIDETEXT
280
     0
  9
$XCLIPFRAME
290
     0
  9
$HALOGAP
280
     0
  9
$OBSCOLOR
 70
   257
  9
$OBSLTYPE
280
     0
  9
$INTERSECTIONDISPLAY
280
     0
  9
$INTERSECTIONCOLOR
 70
   257
  9
$DIMASSOC
280
     1
  9
$PROJECTNAME
  1

  0
ENDSEC
  0
SECTION
  2
CLASSES
  0
CLASS
  1
ACDBDICTIONARYWDFLT
  2
AcDbDictionaryWithDefault
  3
ObjectDBX Classes
 90
        0
 91
        1
280
     0
281
     0
  0
CLASS
  1
DICTIONARYVAR
  2
AcDbDictionaryVar
  3
ObjectDBX Classes
 90
        0
 91
        2
280
     0
281
     0
  0
ENDSEC
  0
SECTION
  2
TABLES
  0
TABLE
  2
VPORT
  5
8
330
0
100
AcDbSymbolTable
 70
     2
  0
VPORT
  5
7DF
330
8
100
AcDbSymbolTableRecord
100
AcDbViewportTableRecord
  2
*Active
 70
     0
 10
0.0
 20
0.0
 11
1.0
 21
1.0
 12
105.0000056232405
 22
148.5000079528685
 13
0.0
 23
0.0
 14
1.0
 24
1.0
 15
10.0
 25
10.0
 16
0.0
 26
0.0
 36
1.0
 17
0.0
 27
0.0
 37
0.0
 40
299.4349288154767
 41
1.336927223719676
 42
50.0
 43
0.0
 44
0.0
 50
0.0
 51
0.0
 71
     0
 72
  1500
 73
     1
 74
     0
 75
     0
 76
     0
 77
     0
 78
     0
281
     0
 65
     1
110
0.0
120
0.0
130
0.0
111
1.0
121
0.0
131
0.0
112
0.0
122
1.0
132
0.0
 79
     0
146
0.0
  0
ENDTAB
  0
TABLE
  2
LTYPE
  5
5
330
0
100
AcDbSymbolTable
 70
     3
  0
LTYPE
  5
13
330
5
100
AcDbSymbolTableRecord
100
AcDbLinetypeTableRecord
  2
ByBlock
 70
     0
  3

 72
    65
 73
     0
 40
0.0
  0
LTYPE
  5
14
330
5
100
AcDbSymbolTableRecord
100
AcDbLinetypeTableRecord
  2
ByLayer
 70
     0
  3

 72
    65
 73
     0
 40
0.0
  0
LTYPE
  5
15
330
5
100
AcDbSymbolTableRecord
100
AcDbLinetypeTableRecord
  2
Continuous
 70
     0
  3
Solid line
 72
    65
 73
     0
 40
0.0
  0
LTYPE
  5
25
330
5
100
AcDbSymbolTableRecord
100
AcDbLinetypeTableRecord
  2
STRICHPUNKT
 70
     0
  3
__ . __ . __ . __ . __ . __ . __ . __ . __ . __
 72
    65
 73
     4
 40
1.0
 49
0.5
 74
     0
 49
-0.25
 74
     0
 49
0.0
 74
     0
 49
-0.25
 74
     0
  0
LTYPE
  5
32
330
5
100
AcDbSymbolTableRecord
100
AcDbLinetypeTableRecord
  2
AUSGEZOGEN
 70
     0
  3
Ausgezogene Linie
 72
    65
 73
     0
 40
0.0
  0
ENDTAB
  0
TABLE
  2
LAYER
  5
2
330
0
100
AcDbSymbolTable
 70
     9
  0
LAYER
  5
10
330
2
100
AcDbSymbolTableRecord
100
AcDbLayerTableRecord
  2
0
 70
     0
 62
     7
  6
Continuous
370
    -3
390
F
  0
LAYER
  5
2A
330
2
100
AcDbSymbolTableRecord
100
AcDbLayerTableRecord
  2
VOLL
 70
     0
 62
     1
  6
Continuous
370
    -3
390
F
  0
LAYER
  5
2B
330
2
100
AcDbSymbolTableRecord
100
AcDbLayerTableRecord
  2
HILF
 70
     0
 62
     2
  6
Continuous
370
    -3
390
F
  0
LAYER
  5
2C
330
2
100
AcDbSymbolTableRecord
100
AcDbLayerTableRecord
  2
MITTEL
 70
     0
 62
     2
  6
STRICHPUNKT
370
    -3
390
F
  0
LAYER
  5
2F
330
2
100
AcDbSymbolTableRecord
100
AcDbLayerTableRecord
  2
BEM
 70
     0
 62
     7
  6
Continuous
370
    -3
390
F
  0
LAYER
  5
30
330
2
100
AcDbSymbolTableRecord
100
AcDbLayerTableRecord
  2
STEMPEL
 70
     0
 62
     3
  6
Continuous
370
    -3
390
F
  0
LAYER
  5
31
330
2
100
AcDbSymbolTableRecord
100
AcDbLayerTableRecord
  2
TEXT
 70
     0
 62
     7
  6
Continuous
370
    -3
390
F
  0
LAYER
  5
19D
330
2
100
AcDbSymbolTableRecord
100
AcDbLayerTableRecord
  2
DEFPOINTS
 70
     0
 62
     7
  6
AUSGEZOGEN
290
     0
370
    -3
390
F
  0
LAYER
  5
36A
330
2
100
AcDbSymbolTableRecord
100
AcDbLayerTableRecord
  2
SCHRAFF
 70
     0
 62
     7
  6
Continuous
370
    -3
390
F
  0
ENDTAB
  0
TABLE
  2
STYLE
  5
3
330
0
100
AcDbSymbolTable
 70
     2
  0
STYLE
  5
11
330
3
100
AcDbSymbolTableRecord
100
AcDbTextStyleTableRecord
  2
STANDARD
 70
     0
 40
0.0
 41
0.8
 50
0.0
 71
     0
 42
3.5
  3
simplex.shx
  4

  0
STYLE
  5
24
330
3
100
AcDbSymbolTableRecord
100
AcDbTextStyleTableRecord
  2
GREEKS
 70
     0
 40
0.0
 41
0.8
 50
0.0
 71
     0
 42
2.5
  3
SIMPLEX.shx
  4

  0
ENDTAB
  0
TABLE
  2
VIEW
  5
6
330
0
100
AcDbSymbolTable
 70
     0
  0
ENDTAB
  0
TABLE
  2
UCS
  5
7
330
0
100
AcDbSymbolTable
 70
     0
  0
ENDTAB
  0
TABLE
  2
APPID
  5
9
330
0
100
AcDbSymbolTable
 70
     1
  0
APPID
  5
12
330
9
100
AcDbSymbolTableRecord
100
AcDbRegAppTableRecord
  2
ACAD
 70
     0
  0
ENDTAB
  0
TABLE
  2
DIMSTYLE
  5
A
330
0
100
AcDbSymbolTable
 70
     1
100
AcDbDimStyleTable
 71
     1
340
9D
  0
DIMSTYLE
105
9D
102
{ACAD_REACTORS
330
783
330
7A2
102
}
330
A
100
AcDbSymbolTableRecord
100
AcDbDimStyleTableRecord
  2
Standard
 70
     0
340
11
  0
ENDTAB
  0
TABLE
  2
BLOCK_RECORD
  5
1
330
0
100
AcDbSymbolTable
 70
     3
  0
BLOCK_RECORD
  5
1E
102
{ACAD_XDICTIONARY
360
A0
102
}
330
1
100
AcDbSymbolTableRecord
100
AcDbBlockTableRecord
  2
*Model_Space
340
21
  0
BLOCK_RECORD
  5
1A
102
{ACAD_XDICTIONARY
360
A2
102
}
330
1
100
AcDbSymbolTableRecord
100
AcDbBlockTableRecord
  2
*Paper_Space
340
1D
  0
BLOCK_RECORD
  5
22
330
1
100
AcDbSymbolTableRecord
100
AcDbBlockTableRecord
  2
LOGO
340
0
102
{BLKREFS
331
9B
102
}
  0
BLOCK_RECORD
  5
784
330
1
100
AcDbSymbolTableRecord
100
AcDbBlockTableRecord
  2
*D1
340
0
  0
BLOCK_RECORD
  5
7A3
330
1
100
AcDbSymbolTableRecord
100
AcDbBlockTableRecord
  2
*D2
340
0
  0
ENDTAB
  0
ENDSEC
  0
SECTION
  2
BLOCKS
  0
BLOCK
  5
35
330
1E
100
AcDbEntity
  8
0
100
AcDbBlockBegin
  2
*Model_Space
 70
     0
 10
0.0
 20
0.0
 30
0.0
  3
*Model_Space
  1

  0
ENDBLK
  5
36
330
1E
100
AcDbEntity
  8
0
100
AcDbBlockEnd
  0
BLOCK
  5
33
330
1A
100
AcDbEntity
 67
     1
  8
0
100
AcDbBlockBegin
  2
*Paper_Space
 70
     0
 10
0.0
 20
0.0
 30
0.0
  3
*Paper_Space
  1

  0
ENDBLK
  5
34
330
1A
100
AcDbEntity
 67
     1
  8
0
100
AcDbBlockEnd
  0
BLOCK
  5
37
330
22
100
AcDbEntity
  8
0
100
AcDbBlockBegin
  2
LOGO
 70
     0
 10
0.0
 20
0.0
 30
0.0
  3
LOGO
  1

  0
ARC
  5
38
330
22
100
AcDbEntity
  8
0
100
AcDbCircle
 10
11.59973089678112
 20
-9.271599258481501
 30
0.0
 40
4.5
100
AcDbArc
 50
270.0
 51
231.0575587310159
  0
LINE
  5
39
330
22
100
AcDbEntity
  8
0
100
AcDbLine
 10
3.599730896781125
 20
-4.771599258481529
 30
0.0
 11
3.599730896781153
 21
-11.77159925848133
 31
0.0
  0
LINE
  5
3A
330
22
100
AcDbEntity
  8
0
100
AcDbLine
 10
2.599730896781125
 20
-4.771599258481529
 30
0.0
 11
2.599730896781153
 21
-11.77159925848133
 31
0.0
  0
CIRCLE
  5
3B
330
22
100
AcDbEntity
  8
0
100
AcDbCircle
 10
11.59973089678112
 20
-9.271599258481501
 30
0.0
 40
3.5
  0
ARC
  5
3C
330
22
100
AcDbEntity
  8
0
100
AcDbCircle
 10
31.59973089678115
 20
-9.271599258481472
 30
0.0
 40
4.5
100
AcDbArc
 50
270.0
 51
231.0575587310182
  0
LINE
  5
3D
330
22
100
AcDbEntity
  8
0
100
AcDbLine
 10
17.59973089678112
 20
-4.771599258481472
 30
0.0
 11
17.59973089678115
 21
-13.77159925848147
 31
0.0
  0
ARC
  5
3E
330
22
100
AcDbEntity
  8
0
100
AcDbCircle
 10
22.59973089678116
 20
-7.271599258481472
 30
0.0
 40
2.5
100
AcDbArc
 50
293.1161887722295
 51
90.0
  0
CIRCLE
  5
3F
330
22
100
AcDbEntity
  8
0
100
AcDbCircle
 10
31.59973089678115
 20
-9.271599258481472
 30
0.0
 40
3.5
  0
ARC
  5
40
330
22
100
AcDbEntity
  8
0
100
AcDbCircle
 10
4.599730896781153
 20
-11.77159925848133
 30
0.0
 40
1.0
100
AcDbArc
 50
180.0
 51
270.0
  0
ARC
  5
41
330
22
100
AcDbEntity
  8
0
100
AcDbCircle
 10
4.599730896781153
 20
-11.77159925848133
 30
0.0
 40
2.0
100
AcDbArc
 50
179.9999999999992
 51
270.0
  0
LINE
  5
42
330
22
100
AcDbEntity
  8
0
100
AcDbLine
 10
11.59973089678115
 20
-13.77159925848144
 30
0.0
 11
4.599730896781153
 21
-13.77159925848147
 31
0.0
  0
LINE
  5
43
330
22
100
AcDbEntity
  8
0
100
AcDbLine
 10
8.771303772034769
 20
-12.77159925848136
 30
0.0
 11
4.599730896781153
 21
-12.77159925848133
 31
0.0
  0
LINE
  5
44
330
22
100
AcDbEntity
  8
0
100
AcDbLine
 10
31.59973089678115
 20
-13.77159925848147
 30
0.0
 11
23.6715276665056
 21
-13.77159925848144
 31
0.0
  0
LINE
  5
45
330
22
100
AcDbEntity
  8
0
100
AcDbLine
 10
23.56565672307022
 20
-9.51278021337896
 30
0.0
 11
24.4388546544846
 21
-12.77159925848144
 31
0.0
  0
LINE
  5
46
330
22
100
AcDbEntity
  8
0
100
AcDbLine
 10
22.59973089678116
 20
-9.771599258481472
 30
0.0
 11
18.59973089678112
 21
-9.771599258481472
 31
0.0
  0
LINE
  5
47
330
22
100
AcDbEntity
  8
0
100
AcDbLine
 10
18.59973089678115
 20
-13.77159925848144
 30
0.0
 11
17.59973089678115
 21
-13.77159925848144
 31
0.0
  0
LINE
  5
48
330
22
100
AcDbEntity
  8
0
100
AcDbLine
 10
18.59973089678115
 20
-9.771599258481472
 30
0.0
 11
18.59973089678115
 21
-13.77159925848144
 31
0.0
  0
LINE
  5
49
330
22
100
AcDbEntity
  8
0
100
AcDbLine
 10
22.59973089678116
 20
-9.771599258481472
 30
0.0
 11
23.67152766650562
 21
-13.77159925848147
 31
0.0
  0
ARC
  5
4A
330
22
100
AcDbEntity
  8
0
100
AcDbCircle
 10
22.59973089678116
 20
-7.271599258481472
 30
0.0
 40
2.5
100
AcDbArc
 50
270.0
 51
270.0000000000007
  0
LINE
  5
4B
330
22
100
AcDbEntity
  8
0
100
AcDbLine
 10
28.77130377203494
 20
-12.77159925848147
 30
0.0
 11
24.43885465448463
 21
-12.77159925848144
 31
0.0
  0
LINE
  5
4C
330
22
100
AcDbEntity
  8
0
100
AcDbLine
 10
3.599730896781125
 20
-4.771599258481472
 30
0.0
 11
2.599730896781125
 21
-4.771599258481472
 31
0.0
  0
LINE
  5
4D
330
22
100
AcDbEntity
  8
0
100
AcDbLine
 10
22.59973089678116
 20
-8.771599258481472
 30
0.0
 11
18.59973089678115
 21
-8.771599258481472
 31
0.0
  0
LINE
  5
4E
330
22
100
AcDbEntity
  8
0
100
AcDbLine
 10
22.59973089678116
 20
-5.771599258481472
 30
0.0
 11
18.59973089678115
 21
-5.771599258481472
 31
0.0
  0
LINE
  5
4F
330
22
100
AcDbEntity
  8
0
100
AcDbLine
 10
22.59973089678116
 20
-4.771599258481472
 30
0.0
 11
17.59973089678115
 21
-4.771599258481472
 31
0.0
  0
LINE
  5
50
330
22
100
AcDbEntity
  8
0
100
AcDbLine
 10
18.59973089678115
 20
-5.771599258481472
 30
0.0
 11
18.59973089678115
 21
-8.771599258481472
 31
0.0
  0
ARC
  5
51
330
22
100
AcDbEntity
  8
0
100
AcDbCircle
 10
22.59973089678116
 20
-7.271599258481472
 30
0.0
 40
1.5
100
AcDbArc
 50
270.0
 51
90.0
  0
ENDBLK
  5
52
330
22
100
AcDbEntity
  8
0
100
AcDbBlockEnd
  0
BLOCK
  5
78E
330
784
100
AcDbEntity
  8
0
100
AcDbBlockBegin
  2
*D1
 70
     1
 10
0.0
 20
0.0
 30
0.0
  3
*D1
  1

  0
LINE
  5
7CC
330
784
100
AcDbEntity
  8
BEM
 62
     0
370
    -2
100
AcDbLine
 10
157.0
 20
221.4999999999999
 30
0.0
 11
157.0
 21
230.332827494126
 31
0.0
  0
LINE
  5
7CD
330
784
100
AcDbEntity
  8
BEM
 62
     0
370
    -2
100
AcDbLine
 10
68.0
 20
221.5
 30
0.0
 11
68.0
 21
230.332827494126
 31
0.0
  0
LINE
  5
7CE
330
784
100
AcDbEntity
  8
BEM
 62
     0
370
    -2
100
AcDbLine
 10
153.4999999999999
 20
229.332827494126
 30
0.0
 11
71.5
 21
229.332827494126
 31
0.0
  0
SOLID
  5
7CF
330
784
100
AcDbEntity
  8
BEM
 62
     0
100
AcDbTrace
 10
153.4999999999999
 20
229.9161608274594
 30
0.0
 11
153.4999999999999
 21
228.7494941607927
 31
0.0
 12
157.0
 22
229.332827494126
 32
0.0
 13
157.0
 23
229.332827494126
 33
0.0
  0
SOLID
  5
7D0
330
784
100
AcDbEntity
  8
BEM
 62
     0
100
AcDbTrace
 10
71.5
 20
229.9161608274594
 30
0.0
 11
71.5
 21
228.7494941607927
 31
0.0
 12
68.0
 22
229.332827494126
 32
0.0
 13
68.0
 23
229.332827494126
 33
0.0
  0
MTEXT
  5
7D1
330
784
100
AcDbEntity
  8
BEM
 62
     1
100
AcDbMText
 10
112.5
 20
232.582827494126
 30
0.0
 40
3.5
 41
0.0
 71
     5
 72
     1
  1
\A1;%%c89
 73
     1
 44
1.0
  0
POINT
  5
7D2
330
784
100
AcDbEntity
  8
DEFPOINTS
 62
     0
100
AcDbPoint
 10
157.0
 20
220.5
 30
0.0
  0
POINT
  5
7D3
330
784
100
AcDbEntity
  8
DEFPOINTS
 62
     0
100
AcDbPoint
 10
68.0
 20
220.5
 30
0.0
  0
POINT
  5
7D4
330
784
100
AcDbEntity
  8
DEFPOINTS
 62
     0
100
AcDbPoint
 10
68.0
 20
229.332827494126
 30
0.0
  0
ENDBLK
  5
78F
330
784
100
AcDbEntity
  8
0
100
AcDbBlockEnd
  0
BLOCK
  5
7AD
330
7A3
100
AcDbEntity
  8
0
100
AcDbBlockBegin
  2
*D2
 70
     1
 10
0.0
 20
0.0
 30
0.0
  3
*D2
  1

  0
LINE
  5
7A4
330
7A3
100
AcDbEntity
  8
BEM
 62
     0
370
    -2
100
AcDbLine
 10
67.0
 20
220.5
 30
0.0
 11
55.6504836264153
 21
220.5
 31
0.0
  0
LINE
  5
7A5
330
7A3
100
AcDbEntity
  8
BEM
 62
     0
370
    -2
100
AcDbLine
 10
67.0
 20
126.4999999999999
 30
0.0
 11
55.65048362641528
 21
126.4999999999999
 31
0.0
  0
LINE
  5
7A6
330
7A3
100
AcDbEntity
  8
BEM
 62
     0
370
    -2
100
AcDbLine
 10
56.6504836264153
 20
217.0000000000001
 30
0.0
 11
56.65048362641528
 21
130.0
 31
0.0
  0
SOLID
  5
7A7
330
7A3
100
AcDbEntity
  8
BEM
 62
     0
100
AcDbTrace
 10
56.06715029308197
 20
217.0000000000001
 30
0.0
 11
57.23381695974864
 21
217.0000000000001
 31
0.0
 12
56.6504836264153
 22
220.5
 32
0.0
 13
56.6504836264153
 23
220.5
 33
0.0
  0
SOLID
  5
7A8
330
7A3
100
AcDbEntity
  8
BEM
 62
     0
100
AcDbTrace
 10
56.06715029308194
 20
130.0
 30
0.0
 11
57.23381695974861
 21
130.0
 31
0.0
 12
56.65048362641528
 22
126.4999999999999
 32
0.0
 13
56.65048362641528
 23
126.4999999999999
 33
0.0
  0
MTEXT
  5
7A9
330
7A3
100
AcDbEntity
  8
BEM
 62
     1
100
AcDbMText
 10
53.40048362641526
 20
173.5
 30
0.0
 40
3.5
 41
0.0
 71
     5
 72
     1
  1
\A1;94
 11
0.0000000000000001
 21
1.0
 31
0.0
 73
     1
 44
1.0
  0
POINT
  5
7AA
330
7A3
100
AcDbEntity
  8
DEFPOINTS
 62
     0
100
AcDbPoint
 10
68.0
 20
220.5
 30
0.0
  0
POINT
  5
7AB
330
7A3
100
AcDbEntity
  8
DEFPOINTS
 62
     0
100
AcDbPoint
 10
68.0
 20
126.4999999999999
 30
0.0
  0
POINT
  5
7AC
330
7A3
100
AcDbEntity
  8
DEFPOINTS
 62
     0
100
AcDbPoint
 10
56.65048362641528
 20
126.4999999999999
 30
0.0
  0
ENDBLK
  5
7AE
330
7A3
100
AcDbEntity
  8
0
100
AcDbBlockEnd
  0
ENDSEC
  0
SECTION
  2
ENTITIES
  0
LINE
  5
57
330
1E
100
AcDbEntity
  8
STEMPEL
100
AcDbLine
 10
205.0
 20
55.00000000000003
 30
0.0
 11
19.99999999999998
 21
55.0
 31
0.0
  0
LINE
  5
58
330
1E
100
AcDbEntity
  8
STEMPEL
100
AcDbLine
 10
68.00000000000006
 20
54.99999999999997
 30
0.0
 11
68.0
 21
4.999999999999985
 31
0.0
  0
LINE
  5
59
330
1E
100
AcDbEntity
  8
STEMPEL
100
AcDbLine
 10
110.0
 20
55.00000000000003
 30
0.0
 11
110.0
 21
4.999999999999985
 31
0.0
  0
LINE
  5
5A
330
1E
100
AcDbEntity
  8
STEMPEL
100
AcDbLine
 10
166.0
 20
54.99999999999989
 30
0.0
 11
166.0
 21
20.0
 31
0.0
  0
LINE
  5
5B
330
1E
100
AcDbEntity
  8
STEMPEL
100
AcDbLine
 10
67.99999999999994
 20
14.99999999999998
 30
0.0
 11
19.99999999999998
 21
14.99999999999998
 31
0.0
  0
LINE
  5
5C
330
1E
100
AcDbEntity
  8
STEMPEL
100
AcDbLine
 10
205.0
 20
20.0
 30
0.0
 11
68.00000000000006
 21
19.99999999999998
 31
0.0
  0
LINE
  5
5D
330
1E
100
AcDbEntity
  8
STEMPEL
100
AcDbLine
 10
205.0
 20
40.0
 30
0.0
 11
68.00000000000006
 21
39.99999999999997
 31
0.0
  0
LINE
  5
5E
330
1E
100
AcDbEntity
  8
VOLL
100
AcDbLine
 10
27.00000000000005
 20
55.00000000000003
 30
0.0
 11
26.99999999999999
 21
4.999999999999985
 31
0.0
  0
LINE
  5
5F
330
1E
100
AcDbEntity
  8
VOLL
100
AcDbLine
 10
47.00000000000005
 20
54.99999999999997
 30
0.0
 11
47.0
 21
4.999999999999985
 31
0.0
  0
LINE
  5
60
330
1E
100
AcDbEntity
  8
VOLL
100
AcDbLine
 10
57.00000000000006
 20
54.99999999999997
 30
0.0
 11
57.0
 21
4.999999999999985
 31
0.0
  0
LINE
  5
61
330
1E
100
AcDbEntity
  8
VOLL
100
AcDbLine
 10
77.00000000000006
 20
39.99999999999997
 30
0.0
 11
77.00000000000006
 21
19.99999999999998
 31
0.0
  0
LINE
  5
62
330
1E
100
AcDbEntity
  8
VOLL
100
AcDbLine
 10
90.00000000000005
 20
54.99999999999992
 30
0.0
 11
90.0
 21
19.99999999999998
 31
0.0
  0
LINE
  5
63
330
1E
100
AcDbEntity
  8
HILF
100
AcDbLine
 10
20.00000000000004
 20
50.00000000000003
 30
0.0
 11
68.00000000000006
 21
50.00000000000003
 31
0.0
  0
LINE
  5
64
330
1E
100
AcDbEntity
  8
HILF
100
AcDbLine
 10
20.00000000000004
 20
45.00000000000002
 30
0.0
 11
68.00000000000006
 21
45.00000000000002
 31
0.0
  0
LINE
  5
65
330
1E
100
AcDbEntity
  8
HILF
100
AcDbLine
 10
20.00000000000004
 20
39.99999999999997
 30
0.0
 11
68.00000000000006
 21
39.99999999999997
 31
0.0
  0
LINE
  5
66
330
1E
100
AcDbEntity
  8
HILF
100
AcDbLine
 10
20.00000000000004
 20
34.99999999999997
 30
0.0
 11
68.00000000000006
 21
34.99999999999997
 31
0.0
  0
LINE
  5
67
330
1E
100
AcDbEntity
  8
HILF
100
AcDbLine
 10
20.00000000000004
 20
29.99999999999999
 30
0.0
 11
68.00000000000006
 21
29.99999999999999
 31
0.0
  0
LINE
  5
68
330
1E
100
AcDbEntity
  8
HILF
100
AcDbLine
 10
20.00000000000004
 20
24.99999999999999
 30
0.0
 11
68.00000000000006
 21
24.99999999999999
 31
0.0
  0
LINE
  5
69
330
1E
100
AcDbEntity
  8
HILF
100
AcDbLine
 10
20.00000000000004
 20
19.99999999999998
 30
0.0
 11
68.00000000000006
 21
19.99999999999998
 31
0.0
  0
LINE
  5
6A
330
1E
100
AcDbEntity
  8
HILF
100
AcDbLine
 10
68.00000000000006
 20
34.99999999999997
 30
0.0
 11
110.0
 21
34.99999999999997
 31
0.0
  0
LINE
  5
6B
330
1E
100
AcDbEntity
  8
HILF
100
AcDbLine
 10
68.00000000000006
 20
29.99999999999999
 30
0.0
 11
110.0
 21
29.99999999999999
 31
0.0
  0
LINE
  5
6C
330
1E
100
AcDbEntity
  8
HILF
100
AcDbLine
 10
68.00000000000006
 20
24.99999999999999
 30
0.0
 11
110.0
 21
24.99999999999999
 31
0.0
  0
LINE
  5
6D
330
1E
100
AcDbEntity
  8
HILF
100
AcDbLine
 10
112.3868400548474
 20
42.01879123782069
 30
0.0
 11
162.4176958278155
 21
42.01879123782069
 31
0.0
  0
LINE
  5
6E
330
1E
100
AcDbEntity
  8
HILF
100
AcDbLine
 10
112.3868400548474
 20
34.99999999999997
 30
0.0
 11
162.4176958278155
 21
34.99999999999997
 31
0.0
  0
LINE
  5
6F
330
1E
100
AcDbEntity
  8
HILF
100
AcDbLine
 10
112.3868400548474
 20
29.99999999999999
 30
0.0
 11
162.4176958278155
 21
29.99999999999999
 31
0.0
  0
LINE
  5
70
330
1E
100
AcDbEntity
  8
HILF
100
AcDbLine
 10
112.3868400548474
 20
24.99999999999999
 30
0.0
 11
162.4176958278155
 21
24.99999999999999
 31
0.0
  0
LINE
  5
71
330
1E
100
AcDbEntity
  8
VOLL
100
AcDbLine
 10
166.0
 20
30.0
 30
0.0
 11
205.0
 21
30.0
 31
0.0
  0
LINE
  5
72
330
1E
100
AcDbEntity
  8
HILF
100
AcDbLine
 10
168.3619308148496
 20
41.88991818477913
 30
0.0
 11
202.4294419663364
 21
41.88991818477913
 31
0.0
  0
LINE
  5
73
330
1E
100
AcDbEntity
  8
HILF
100
AcDbLine
 10
111.7454849644942
 20
7.446991290141568
 30
0.0
 11
202.4294419663364
 21
7.446991290141568
 31
0.0
  0
TEXT
  5
74
330
1E
100
AcDbEntity
  8
TEXT
100
AcDbText
 10
31.9308298981591
 20
9.336909474920659
 30
0.0
 40
2.0
  1
Änderung
 41
0.8
  7
GREEKS
 72
     1
 11
37.30225846958767
 21
9.336909474920659
 31
0.0
100
AcDbText
  0
TEXT
  5
75
330
1E
100
AcDbEntity
  8
TEXT
100
AcDbText
 10
71.75817860751886
 20
51.23104475435443
 30
0.0
 40
2.5
  1
Maßstab
 41
0.8
  7
GREEKS
100
AcDbText
  0
TEXT
  5
76
330
1E
100
AcDbEntity
  8
TEXT
100
AcDbText
 10
92.14294773670257
 20
51.20920842174095
 30
0.0
 40
2.5
  1
Zul. Abw.
 41
0.8
  7
GREEKS
100
AcDbText
  0
TEXT
  5
77
330
1E
100
AcDbEntity
  8
TEXT
100
AcDbText
 10
112.4389701904505
 20
51.27446640058898
 30
0.0
 40
2.5
  1
Benennung
 41
0.8
  7
GREEKS
100
AcDbText
  0
TEXT
  5
78
330
1E
100
AcDbEntity
  8
TEXT
100
AcDbText
 10
168.089377478817
 20
51.15660172685682
 30
0.0
 40
2.5
  1
Zeichnungs Nr.
 41
0.8
  7
GREEKS
100
AcDbText
  0
TEXT
  5
79
330
1E
100
AcDbEntity
  8
TEXT
100
AcDbText
 10
112.371119195568
 20
15.42280285096528
 30
0.0
 40
2.5
  1
Bauvorhaben
 41
0.8
  7
GREEKS
100
AcDbText
  0
TEXT
  5
7A
330
1E
100
AcDbEntity
  8
TEXT
100
AcDbText
 10
168.3619308148496
 20
36.59059118549985
 30
0.0
 40
2.5
  1
Ersatz für:
 41
0.8
  7
GREEKS
100
AcDbText
  0
TEXT
  5
7B
330
1E
100
AcDbEntity
  8
TEXT
100
AcDbText
 10
24.13320553522878
 20
6.827329230135958
 30
0.0
 40
2.0
  1
Index
 50
90.0
 41
0.8
  7
GREEKS
100
AcDbText
  0
TEXT
  5
7C
330
1E
100
AcDbEntity
  8
TEXT
100
AcDbText
 10
50.04673380377405
 20
9.33578134669905
 30
0.0
 40
2.0
  1
Tag
 41
0.8
  7
GREEKS
 72
     1
 11
51.91340047044072
 21
9.33578134669905
 31
0.0
100
AcDbText
  0
TEXT
  5
7D
330
1E
100
AcDbEntity
  8
TEXT
100
AcDbText
 10
59.50613721932963
 20
9.29662108483204
 30
0.0
 40
2.0
  1
Name
 41
0.8
  7
GREEKS
 72
     1
 11
62.66804198123439
 21
9.29662108483204
 31
0.0
100
AcDbText
  0
TEXT
  5
7E
330
1E
100
AcDbEntity
  8
TEXT
100
AcDbText
 10
81.16558365768254
 20
36.65940250614963
 30
0.0
 40
2.0
  1
Tag
 41
0.8
  7
GREEKS
100
AcDbText
  0
TEXT
  5
7F
330
1E
100
AcDbEntity
  8
TEXT
100
AcDbText
 10
96.23132921131475
 20
36.65480545957612
 30
0.0
 40
2.0
  1
Name
 41
0.8
  7
GREEKS
100
AcDbText
  0
TEXT
  5
80
330
1E
100
AcDbEntity
  8
TEXT
100
AcDbText
 10
68.79180635838077
 20
31.81495184808982
 30
0.0
 40
2.0
  1
Gez.
 41
0.8
  7
GREEKS
100
AcDbText
  0
TEXT
  5
81
330
1E
100
AcDbEntity
  8
TEXT
100
AcDbText
 10
68.77575432858361
 20
26.84463145714189
 30
0.0
 40
2.0
  1
Gepr.
 41
0.8
  7
GREEKS
100
AcDbText
  0
TEXT
  5
82
330
1E
100
AcDbEntity
  8
TEXT
100
AcDbText
 10
68.80033886936519
 20
21.76473194824904
 30
0.0
 40
2.0
  1
Norm.
 41
0.8
  7
GREEKS
100
AcDbText
  0
LINE
  5
83
330
1E
100
AcDbEntity
  8
STEMPEL
100
AcDbLine
 10
24.99999999999995
 20
5.0
 30
0.0
 11
205.0
 21
5.0
 31
0.0
  0
TEXT
  5
84
330
1E
100
AcDbEntity
  8
TEXT
100
AcDbText
 10
168.6200430748503
 20
26.03708088939301
 30
0.0
 40
2.5
  1
ersetzt durch:
 41
0.8
  7
GREEKS
100
AcDbText
  0
LINE
  5
85
330
1E
100
AcDbEntity
  8
STEMPEL
100
AcDbLine
 10
205.0
 20
5.0
 30
0.0
 11
19.99999999999994
 21
5.0
 31
0.0
  0
LINE
  5
86
330
1E
100
AcDbEntity
  8
STEMPEL
100
AcDbLine
 10
205.0
 20
5.0
 30
0.0
 11
205.0
 21
292.0
 31
0.0
  0
LINE
  5
87
330
1E
100
AcDbEntity
  8
STEMPEL
100
AcDbLine
 10
20.0
 20
5.0
 30
0.0
 11
19.99999999999994
 21
292.0
 31
0.0
  0
LINE
  5
88
330
1E
100
AcDbEntity
  8
STEMPEL
100
AcDbLine
 10
205.0
 20
292.0
 30
0.0
 11
19.99999999999994
 21
292.0
 31
0.0
  0
LINE
  5
89
330
1E
100
AcDbEntity
  8
HILF
100
AcDbLine
 10
0.0
 20
0.0
 30
0.0
 11
-0.0000000000000568
 21
297.0
 31
0.0
  0
LINE
  5
8A
330
1E
100
AcDbEntity
  8
HILF
100
AcDbLine
 10
210.0
 20
297.0000000000001
 30
0.0
 11
0.0
 21
297.0
 31
0.0
  0
LINE
  5
8B
330
1E
100
AcDbEntity
  8
HILF
100
AcDbLine
 10
210.0
 20
0.0
 30
0.0
 11
0.0
 21
0.0
 31
0.0
  0
LINE
  5
8C
330
1E
100
AcDbEntity
  8
HILF
100
AcDbLine
 10
15.54383567856928
 20
148.5
 30
0.0
 11
0.0000000000000568
 21
148.5
 31
0.0
  0
LINE
  5
8E
330
1E
100
AcDbEntity
  8
HILF
100
AcDbLine
 10
210.0
 20
-0.0000000000000568
 30
0.0
 11
210.0
 21
297.0
 31
0.0
  0
TEXT
  5
8F
330
1E
100
AcDbEntity
  8
VOLL
100
AcDbText
 10
78.07675471698113
 20
31.02594776470585
 30
0.0
 40
1.8
  1

  7
GREEKS
100
AcDbText
  0
TEXT
  5
90
330
1E
100
AcDbEntity
  8
TEXT
100
AcDbText
 10
20.92754975488837
 20
55.83599999999997
 30
0.0
 40
2.5
  1
Erstellt mit AUTOCAD 2004
 41
0.8
  7
GREEKS
100
AcDbText
  0
TEXT
  5
91
330
1E
100
AcDbEntity
  8
TEXT
100
AcDbText
 10
97.21080242906285
 20
31.54481959861755
 30
0.0
 40
2.0
  1
Koeh
 41
0.8
  7
GREEKS
 72
     1
 11
99.83937385763429
 21
31.54481959861755
 31
0.0
100
AcDbText
  0
TEXT
  5
92
330
1E
100
AcDbEntity
  8
TEXT
 62
     1
100
AcDbText
 10
173.5396974650655
 20
44.07450714456979
 30
0.0
 40
3.5
  1
58056050W
 41
0.8
  7
GREEKS
 72
     1
 11
185.5396974650655
 21
44.07450714456979
 31
0.0
100
AcDbText
  0
TEXT
  5
93
330
1E
100
AcDbEntity
  8
TEXT
 62
     1
100
AcDbText
 10
75.25031532409435
 20
44.07450714456979
 30
0.0
 40
3.5
  1
1:1
 41
0.8
  7
GREEKS
100
AcDbText
  0
TEXT
  5
95
330
1E
100
AcDbEntity
  8
TEXT
 62
     1
100
AcDbText
 10
113.4467865528701
 20
43.70874394626889
 30
0.0
 40
3.5
  1
Verbundrohr DN50
 41
0.8
  7
GREEKS
100
AcDbText
  0
TEXT
  5
98
330
1E
100
AcDbEntity
  8
TEXT
100
AcDbText
 10
112.5648195562657
 20
25.82005971521079
 30
0.0
 40
2.5
  1
EDV-Art.Nr. 58056.050X
 41
0.8
  7
GREEKS
100
AcDbText
  0
TEXT
  5
99
330
1E
100
AcDbEntity
  8
TEXT
100
AcDbText
 10
112.4918750788913
 20
21.31487076511316
 30
0.0
 40
2.0
  1
58056050W.DWG
 41
0.8
  7
GREEKS
100
AcDbText
  0
TEXT
  5
9A
330
1E
100
AcDbEntity
  8
TEXT
100
AcDbText
 10
91.31306610404202
 20
45.38181920511511
 30
0.0
 40
2.0
  1
DIN EN1123-2
 41
0.8
  7
GREEKS
 72
     1
 11
99.80830419928011
 21
45.38181920511511
 31
0.0
100
AcDbText
  0
INSERT
  5
9B
330
1E
100
AcDbEntity
  8
STEMPEL
100
AcDbBlockReference
  2
LOGO
 10
70.4977742728897
 20
22.51052638224161
 30
0.0
  0
TEXT
  5
118
330
1E
100
AcDbEntity
  8
BEM
100
AcDbText
 10
208.6511461928583
 20
5.083950539994247
 30
0.0
 40
2.0
  1
Diese Zeichnung ist urheberrechtlich geschützt und bleibt unser Eigentum. Sie darf weder ganz noch teilweise verfielfältigt und nicht an Dritte weitergegeben werden.
 50
90.0
 41
0.8
  7
GREEKS
100
AcDbText
  0
TEXT
  5
474
330
1E
100
AcDbEntity
  8
TEXT
 62
     1
100
AcDbText
 10
108.6175528115523
 20
204.2404754694582
 30
0.0
 40
3.5
  1
DN50
 50
90.0
 41
0.8
  7
GREEKS
100
AcDbText
  0
LINE
  5
49E
102
{ACAD_REACTORS
330
721
330
73F
102
}
330
1E
100
AcDbEntity
  8
STEMPEL
100
AcDbLine
 10
157.0
 20
126.5
 30
0.0
 11
68.0
 21
126.4999999999999
 31
0.0
  0
LINE
  5
4A7
330
1E
100
AcDbEntity
  8
MITTEL
100
AcDbLine
 10
112.5
 20
225.5
 30
0.0
 11
112.5
 21
121.5
 31
0.0
  0
LINE
  5
4BD
102
{ACAD_REACTORS
330
721
330
730
102
}
330
1E
100
AcDbEntity
  8
STEMPEL
100
AcDbLine
 10
157.0
 20
220.5
 30
0.0
 11
68.0
 21
220.5
 31
0.0
  0
LINE
  5
65B
330
1E
100
AcDbEntity
  8
HILF
100
AcDbLine
 10
85.85384656308253
 20
197.9438694742014
 30
0.0
 11
139.1461534369174
 21
197.9438694742014
 31
0.0
  0
LINE
  5
65C
330
1E
100
AcDbEntity
  8
HILF
100
AcDbLine
 10
86.47173816068017
 20
185.0327834862938
 30
0.0
 11
138.5282618393199
 21
185.0327834862938
 31
0.0
  0
LINE
  5
65D
330
1E
100
AcDbEntity
  8
HILF
100
AcDbLine
 10
88.68790203922173
 20
179.9743553084927
 30
0.0
 11
136.3120979607783
 21
179.9743553084927
 31
0.0
  0
LINE
  5
65F
102
{ACAD_REACTORS
330
718
102
}
330
1E
100
AcDbEntity
  8
STEMPEL
100
AcDbLine
 10
142.1063531499368
 20
220.5
 30
0.0
 11
82.89364685006324
 21
220.5
 31
0.0
  0
ARC
  5
660
102
{ACAD_REACTORS
330
718
102
}
330
1E
100
AcDbEntity
  8
STEMPEL
100
AcDbCircle
 10
73.0
 20
196.0
 30
0.0
 40
11.5
100
AcDbArc
 50
0.0
 51
19.46309944468874
  0
ARC
  5
661
102
{ACAD_REACTORS
330
718
330
75C
102
}
330
1E
100
AcDbEntity
  8
STEMPEL
100
AcDbCircle
 10
73.0
 20
196.0
 30
0.0
 40
10.0
100
AcDbArc
 50
0.0
 51
19.46309944468874
  0
ARC
  5
662
102
{ACAD_REACTORS
330
718
330
75C
102
}
330
1E
100
AcDbEntity
  8
STEMPEL
100
AcDbCircle
 10
95.00000000000005
 20
187.9083269131959
 30
0.0
 40
12.0
100
AcDbArc
 50
180.0
 51
211.7883306170509
  0
ARC
  5
663
102
{ACAD_REACTORS
330
718
102
}
330
1E
100
AcDbEntity
  8
STEMPEL
100
AcDbCircle
 10
95.00000000000005
 20
187.9083269131959
 30
0.0
 40
10.5
100
AcDbArc
 50
180.0
 51
211.7883306170509
  0
ARC
  5
664
102
{ACAD_REACTORS
330
718
330
75C
102
}
330
1E
100
AcDbEntity
  8
STEMPEL
100
AcDbCircle
 10
78.0
 20
177.3726731603432
 30
0.0
 40
8.0
100
AcDbArc
 50
0.0
 51
31.78833061705093
  0
ARC
  5
665
102
{ACAD_REACTORS
330
718
102
}
330
1E
100
AcDbEntity
  8
STEMPEL
100
AcDbCircle
 10
78.0
 20
177.3726731603431
 30
0.0
 40
9.5
100
AcDbArc
 50
0.0
 51
31.78833061705093
  0
LINE
  5
666
102
{ACAD_REACTORS
330
718
330
75C
102
}
330
1E
100
AcDbEntity
  8
STEMPEL
100
AcDbLine
 10
86.0
 20
177.3726731603432
 30
0.0
 11
86.0
 21
169.6273268396567
 31
0.0
  0
LINE
  5
667
102
{ACAD_REACTORS
330
718
102
}
330
1E
100
AcDbEntity
  8
STEMPEL
100
AcDbLine
 10
87.5
 20
177.3726731603431
 30
0.0
 11
87.5
 21
169.6273268396568
 31
0.0
  0
LINE
  5
668
330
1E
100
AcDbEntity
  8
STEMPEL
100
AcDbLine
 10
86.0
 20
182.5
 30
0.0
 11
86.0
 21
182.4961485433229
 31
0.0
  0
LINE
  5
669
102
{ACAD_REACTORS
330
718
330
75C
102
}
330
1E
100
AcDbEntity
  8
STEMPEL
100
AcDbLine
 10
83.00000000000006
 20
196.0
 30
0.0
 11
83.00000000000006
 21
187.9083269131959
 31
0.0
  0
LINE
  5
66A
102
{ACAD_REACTORS
330
718
102
}
330
1E
100
AcDbEntity
  8
STEMPEL
100
AcDbLine
 10
84.50000000000001
 20
196.0
 30
0.0
 11
84.50000000000001
 21
187.9083269131959
 31
0.0
  0
ARC
  5
66B
102
{ACAD_REACTORS
330
718
330
730
102
}
330
1E
100
AcDbEntity
  8
STEMPEL
100
AcDbCircle
 10
100.5
 20
212.1174986573392
 30
0.0
 40
19.5
100
AcDbArc
 50
154.5405714311903
 51
180.0
  0
ARC
  5
66C
102
{ACAD_REACTORS
330
718
102
}
330
1E
100
AcDbEntity
  8
STEMPEL
100
AcDbCircle
 10
100.5
 20
212.1174986573392
 30
0.0
 40
18.0
100
AcDbArc
 50
155.0000000000043
 51
180.0
  0
ARC
  5
66D
102
{ACAD_REACTORS
330
718
330
730
330
75C
102
}
330
1E
100
AcDbEntity
  8
STEMPEL
100
AcDbCircle
 10
106.0
 20
207.662
 30
0.0
 40
25.00003205712822
100
AcDbArc
 50
179.9082450082403
 51
199.4630994446887
  0
ARC
  5
66E
102
{ACAD_REACTORS
330
718
102
}
330
1E
100
AcDbEntity
  8
STEMPEL
100
AcDbCircle
 10
106.0
 20
207.662
 30
0.0
 40
23.5000320571282
100
AcDbArc
 50
179.9053619552037
 51
199.4630994446887
  0
LINE
  5
66F
102
{ACAD_REACTORS
330
718
330
730
102
}
330
1E
100
AcDbEntity
  8
STEMPEL
100
AcDbLine
 10
81.0
 20
212.1174986573392
 30
0.0
 11
81.0
 21
207.7020357020083
 31
0.0
  0
LINE
  5
670
102
{ACAD_REACTORS
330
718
102
}
330
1E
100
AcDbEntity
  8
STEMPEL
100
AcDbLine
 10
82.50000000000005
 20
212.1174986573392
 30
0.0
 11
82.50000000000005
 21
207.7008160540649
 31
0.0
  0
LINE
  5
671
330
1E
100
AcDbEntity
  8
STEMPEL
100
AcDbLine
 10
82.50000000000005
 20
207.6620000000001
 30
0.0
 11
82.49996794287183
 21
207.6620000000001
 31
0.0
  0
LINE
  5
672
102
{ACAD_REACTORS
330
718
102
}
330
1E
100
AcDbEntity
  8
STEMPEL
100
AcDbLine
 10
84.54802202925254
 20
220.5
 30
0.0
 11
84.18645983334057
 21
219.7246273686722
 31
0.0
  0
LINE
  5
673
102
{ACAD_REACTORS
330
730
102
}
330
1E
100
AcDbEntity
  8
STEMPEL
100
AcDbLine
 10
82.8929551508088
 20
220.5
 30
0.0
 11
82.82699815278538
 21
220.3585547612828
 31
0.0
  0
ARC
  5
674
102
{ACAD_REACTORS
330
718
330
75C
102
}
330
1E
100
AcDbEntity
  8
STEMPEL
100
AcDbCircle
 10
152.0
 20
196.0000000000001
 30
0.0
 40
10.0
100
AcDbArc
 50
160.5369005553112
 51
180.0
  0
ARC
  5
675
102
{ACAD_REACTORS
330
718
102
}
330
1E
100
AcDbEntity
  8
STEMPEL
100
AcDbCircle
 10
152.0
 20
196.0000000000001
 30
0.0
 40
11.5
100
AcDbArc
 50
160.5369005553112
 51
180.0
  0
ARC
  5
677
102
{ACAD_REACTORS
330
718
102
}
330
1E
100
AcDbEntity
  8
STEMPEL
100
AcDbCircle
 10
130.0
 20
187.908326913196
 30
0.0
 40
10.5
100
AcDbArc
 50
328.2116693829491
 51
0.0
  0
ARC
  5
678
102
{ACAD_REACTORS
330
718
330
75C
102
}
330
1E
100
AcDbEntity
  8
STEMPEL
100
AcDbCircle
 10
130.0
 20
187.908326913196
 30
0.0
 40
12.0
100
AcDbArc
 50
328.2116693829491
 51
0.0
  0
ARC
  5
679
102
{ACAD_REACTORS
330
718
102
}
330
1E
100
AcDbEntity
  8
STEMPEL
100
AcDbCircle
 10
147.0
 20
177.3726731603432
 30
0.0
 40
9.5
100
AcDbArc
 50
148.211669382949
 51
180.0
  0
ARC
  5
67A
102
{ACAD_REACTORS
330
718
330
75C
102
}
330
1E
100
AcDbEntity
  8
STEMPEL
100
AcDbCircle
 10
147.0
 20
177.3726731603433
 30
0.0
 40
8.0
100
AcDbArc
 50
148.211669382949
 51
180.0
  0
LINE
  5
67B
102
{ACAD_REACTORS
330
718
330
75C
102
}
330
1E
100
AcDbEntity
  8
STEMPEL
100
AcDbLine
 10
139.0
 20
177.3726731603433
 30
0.0
 11
139.0
 21
169.6273268396566
 31
0.0
  0
LINE
  5
67C
102
{ACAD_REACTORS
330
718
102
}
330
1E
100
AcDbEntity
  8
STEMPEL
100
AcDbLine
 10
137.5
 20
177.3726731603432
 30
0.0
 11
137.5
 21
169.6273268396567
 31
0.0
  0
LINE
  5
67D
330
1E
100
AcDbEntity
  8
STEMPEL
100
AcDbLine
 10
139.0
 20
182.5
 30
0.0
 11
139.0
 21
182.4961485433229
 31
0.0
  0
LINE
  5
67E
102
{ACAD_REACTORS
330
718
330
75C
102
}
330
1E
100
AcDbEntity
  8
STEMPEL
100
AcDbLine
 10
142.0
 20
196.0
 30
0.0
 11
142.0
 21
187.908326913196
 31
0.0
  0
LINE
  5
67F
102
{ACAD_REACTORS
330
718
102
}
330
1E
100
AcDbEntity
  8
STEMPEL
100
AcDbLine
 10
140.5
 20
196.0
 30
0.0
 11
140.5
 21
187.908326913196
 31
0.0
  0
ARC
  5
680
102
{ACAD_REACTORS
330
718
330
730
102
}
330
1E
100
AcDbEntity
  8
STEMPEL
100
AcDbCircle
 10
124.4999999999999
 20
212.1174986573392
 30
0.0
 40
19.5
100
AcDbArc
 50
0.0
 51
25.45942856880598
  0
ARC
  5
681
102
{ACAD_REACTORS
330
718
102
}
330
1E
100
AcDbEntity
  8
STEMPEL
100
AcDbCircle
 10
124.4999999999999
 20
212.1174986573392
 30
0.0
 40
18.0
100
AcDbArc
 50
0.0
 51
24.99999999999207
  0
ARC
  5
682
102
{ACAD_REACTORS
330
718
330
730
330
75C
102
}
330
1E
100
AcDbEntity
  8
STEMPEL
100
AcDbCircle
 10
118.9999999999999
 20
207.662
 30
0.0
 40
25.00003205712822
100
AcDbArc
 50
340.5369005553112
 51
0.091754991759665
  0
ARC
  5
683
102
{ACAD_REACTORS
330
718
102
}
330
1E
100
AcDbEntity
  8
STEMPEL
100
AcDbCircle
 10
118.9999999999999
 20
207.662
 30
0.0
 40
23.5000320571282
100
AcDbArc
 50
340.5369005553112
 51
0.0946380447970367
  0
LINE
  5
684
102
{ACAD_REACTORS
330
718
102
}
330
1E
100
AcDbEntity
  8
STEMPEL
100
AcDbLine
 10
142.4999999999999
 20
212.1174986573393
 30
0.0
 11
142.4999999999999
 21
207.7008160540649
 31
0.0
  0
LINE
  5
685
102
{ACAD_REACTORS
330
718
330
730
102
}
330
1E
100
AcDbEntity
  8
STEMPEL
100
AcDbLine
 10
144.0
 20
212.1174986573393
 30
0.0
 11
144.0
 21
207.7020357020084
 31
0.0
  0
LINE
  5
686
330
1E
100
AcDbEntity
  8
STEMPEL
100
AcDbLine
 10
142.4999999999999
 20
207.6620000000001
 30
0.0
 11
142.5000320571282
 21
207.6620000000001
 31
0.0
  0
LINE
  5
687
102
{ACAD_REACTORS
330
718
102
}
330
1E
100
AcDbEntity
  8
STEMPEL
100
AcDbLine
 10
140.4519779707474
 20
220.5
 30
0.0
 11
140.8135401666594
 21
219.7246273686723
 31
0.0
  0
LINE
  5
688
102
{ACAD_REACTORS
330
730
102
}
330
1E
100
AcDbEntity
  8
STEMPEL
100
AcDbLine
 10
142.1070448491912
 20
220.5
 30
0.0
 11
142.1730018472146
 21
220.3585547612828
 31
0.0
  0
LINE
  5
689
102
{ACAD_REACTORS
330
73F
102
}
330
1E
100
AcDbEntity
  8
STEMPEL
100
AcDbLine
 10
142.1070448491912
 20
126.4999999999999
 30
0.0
 11
142.1730018472146
 21
126.6414452387171
 31
0.0
  0
LINE
  5
68A
102
{ACAD_REACTORS
330
718
102
}
330
1E
100
AcDbEntity
  8
STEMPEL
100
AcDbLine
 10
140.4519779707474
 20
126.4999999999999
 30
0.0
 11
140.8135401666594
 21
127.2753726313276
 31
0.0
  0
LINE
  5
68B
330
1E
100
AcDbEntity
  8
STEMPEL
100
AcDbLine
 10
142.4999999999999
 20
139.3379999999998
 30
0.0
 11
142.5000320571282
 21
139.3379999999998
 31
0.0
  0
LINE
  5
68C
102
{ACAD_REACTORS
330
718
330
73F
102
}
330
1E
100
AcDbEntity
  8
STEMPEL
100
AcDbLine
 10
144.0
 20
134.8825013426607
 30
0.0
 11
144.0
 21
139.2979642979915
 31
0.0
  0
LINE
  5
68D
102
{ACAD_REACTORS
330
718
102
}
330
1E
100
AcDbEntity
  8
STEMPEL
100
AcDbLine
 10
142.4999999999999
 20
134.8825013426607
 30
0.0
 11
142.4999999999999
 21
139.299183945935
 31
0.0
  0
ARC
  5
68E
102
{ACAD_REACTORS
330
718
102
}
330
1E
100
AcDbEntity
  8
STEMPEL
100
AcDbCircle
 10
118.9999999999999
 20
139.3379999999999
 30
0.0
 40
23.5000320571282
100
AcDbArc
 50
359.905361955203
 51
19.46309944468875
  0
ARC
  5
68F
102
{ACAD_REACTORS
330
718
330
73F
330
75C
102
}
330
1E
100
AcDbEntity
  8
STEMPEL
100
AcDbCircle
 10
118.9999999999999
 20
139.3379999999999
 30
0.0
 40
25.00003205712822
100
AcDbArc
 50
359.9082450082403
 51
19.46309944468875
  0
ARC
  5
690
102
{ACAD_REACTORS
330
718
102
}
330
1E
100
AcDbEntity
  8
STEMPEL
100
AcDbCircle
 10
124.4999999999999
 20
134.8825013426608
 30
0.0
 40
18.0
100
AcDbArc
 50
335.0000000000079
 51
0.0
  0
ARC
  5
691
102
{ACAD_REACTORS
330
718
330
73F
102
}
330
1E
100
AcDbEntity
  8
STEMPEL
100
AcDbCircle
 10
124.4999999999999
 20
134.8825013426608
 30
0.0
 40
19.5
100
AcDbArc
 50
334.540571431194
 51
0.0
  0
LINE
  5
692
102
{ACAD_REACTORS
330
718
102
}
330
1E
100
AcDbEntity
  8
STEMPEL
100
AcDbLine
 10
140.5
 20
150.9999999999999
 30
0.0
 11
140.5
 21
159.0916730868039
 31
0.0
  0
LINE
  5
693
102
{ACAD_REACTORS
330
718
330
75C
102
}
330
1E
100
AcDbEntity
  8
STEMPEL
100
AcDbLine
 10
142.0
 20
150.9999999999999
 30
0.0
 11
142.0
 21
159.0916730868039
 31
0.0
  0
LINE
  5
694
330
1E
100
AcDbEntity
  8
STEMPEL
100
AcDbLine
 10
139.0
 20
164.4999999999999
 30
0.0
 11
139.0
 21
164.503851456677
 31
0.0
  0
ARC
  5
697
102
{ACAD_REACTORS
330
718
330
75C
102
}
330
1E
100
AcDbEntity
  8
STEMPEL
100
AcDbCircle
 10
147.0
 20
169.6273268396566
 30
0.0
 40
8.0
100
AcDbArc
 50
180.0
 51
211.7883306170509
  0
ARC
  5
698
102
{ACAD_REACTORS
330
718
102
}
330
1E
100
AcDbEntity
  8
STEMPEL
100
AcDbCircle
 10
147.0
 20
169.6273268396567
 30
0.0
 40
9.5
100
AcDbArc
 50
180.0
 51
211.7883306170509
  0
ARC
  5
699
102
{ACAD_REACTORS
330
718
330
75C
102
}
330
1E
100
AcDbEntity
  8
STEMPEL
100
AcDbCircle
 10
130.0
 20
159.0916730868039
 30
0.0
 40
12.0
100
AcDbArc
 50
0.0
 51
31.78833061705094
  0
ARC
  5
69A
102
{ACAD_REACTORS
330
718
102
}
330
1E
100
AcDbEntity
  8
STEMPEL
100
AcDbCircle
 10
130.0
 20
159.0916730868039
 30
0.0
 40
10.5
100
AcDbArc
 50
0.0
 51
31.78833061705094
  0
ARC
  5
69C
102
{ACAD_REACTORS
330
718
102
}
330
1E
100
AcDbEntity
  8
STEMPEL
100
AcDbCircle
 10
152.0
 20
150.9999999999998
 30
0.0
 40
11.5
100
AcDbArc
 50
180.0
 51
199.4630994446887
  0
ARC
  5
69D
102
{ACAD_REACTORS
330
718
330
75C
102
}
330
1E
100
AcDbEntity
  8
STEMPEL
100
AcDbCircle
 10
152.0
 20
150.9999999999998
 30
0.0
 40
10.0
100
AcDbArc
 50
180.0
 51
199.4630994446887
  0
LINE
  5
69E
102
{ACAD_REACTORS
330
73F
102
}
330
1E
100
AcDbEntity
  8
STEMPEL
100
AcDbLine
 10
82.8929551508088
 20
126.4999999999999
 30
0.0
 11
82.82699815278538
 21
126.6414452387172
 31
0.0
  0
LINE
  5
69F
102
{ACAD_REACTORS
330
718
102
}
330
1E
100
AcDbEntity
  8
STEMPEL
100
AcDbLine
 10
84.54802202925254
 20
126.4999999999999
 30
0.0
 11
84.18645983334057
 21
127.2753726313277
 31
0.0
  0
LINE
  5
6A0
330
1E
100
AcDbEntity
  8
STEMPEL
100
AcDbLine
 10
82.50000000000005
 20
139.3379999999999
 30
0.0
 11
82.49996794287183
 21
139.3379999999999
 31
0.0
  0
LINE
  5
6A1
102
{ACAD_REACTORS
330
718
102
}
330
1E
100
AcDbEntity
  8
STEMPEL
100
AcDbLine
 10
82.50000000000005
 20
134.8825013426608
 30
0.0
 11
82.50000000000005
 21
139.299183945935
 31
0.0
  0
LINE
  5
6A2
102
{ACAD_REACTORS
330
718
330
73F
102
}
330
1E
100
AcDbEntity
  8
STEMPEL
100
AcDbLine
 10
81.0
 20
134.8825013426608
 30
0.0
 11
81.0
 21
139.2979642979916
 31
0.0
  0
ARC
  5
6A3
102
{ACAD_REACTORS
330
718
102
}
330
1E
100
AcDbEntity
  8
STEMPEL
100
AcDbCircle
 10
106.0
 20
139.3379999999999
 30
0.0
 40
23.5000320571282
100
AcDbArc
 50
160.5369005553112
 51
180.0946380447962
  0
ARC
  5
6A4
102
{ACAD_REACTORS
330
718
330
73F
330
75C
102
}
330
1E
100
AcDbEntity
  8
STEMPEL
100
AcDbCircle
 10
106.0
 20
139.3379999999999
 30
0.0
 40
25.00003205712822
100
AcDbArc
 50
160.5369005553112
 51
180.0917549917596
  0
ARC
  5
6A5
102
{ACAD_REACTORS
330
718
102
}
330
1E
100
AcDbEntity
  8
STEMPEL
100
AcDbCircle
 10
100.5
 20
134.8825013426608
 30
0.0
 40
18.0
100
AcDbArc
 50
180.0
 51
204.9999999999957
  0
ARC
  5
6A6
102
{ACAD_REACTORS
330
718
330
73F
102
}
330
1E
100
AcDbEntity
  8
STEMPEL
100
AcDbCircle
 10
100.5
 20
134.8825013426608
 30
0.0
 40
19.5
100
AcDbArc
 50
180.0
 51
205.4594285688096
  0
LINE
  5
6A7
102
{ACAD_REACTORS
330
718
102
}
330
1E
100
AcDbEntity
  8
STEMPEL
100
AcDbLine
 10
84.50000000000001
 20
150.9999999999999
 30
0.0
 11
84.50000000000001
 21
159.091673086804
 31
0.0
  0
LINE
  5
6A8
102
{ACAD_REACTORS
330
718
330
75C
102
}
330
1E
100
AcDbEntity
  8
STEMPEL
100
AcDbLine
 10
83.00000000000006
 20
150.9999999999999
 30
0.0
 11
83.00000000000006
 21
159.091673086804
 31
0.0
  0
LINE
  5
6A9
330
1E
100
AcDbEntity
  8
STEMPEL
100
AcDbLine
 10
86.0
 20
164.4999999999999
 30
0.0
 11
86.0
 21
164.503851456677
 31
0.0
  0
ARC
  5
6AC
102
{ACAD_REACTORS
330
718
102
}
330
1E
100
AcDbEntity
  8
STEMPEL
100
AcDbCircle
 10
78.0
 20
169.6273268396568
 30
0.0
 40
9.5
100
AcDbArc
 50
328.2116693829491
 51
0.0
  0
ARC
  5
6AD
102
{ACAD_REACTORS
330
718
330
75C
102
}
330
1E
100
AcDbEntity
  8
STEMPEL
100
AcDbCircle
 10
78.0
 20
169.6273268396567
 30
0.0
 40
8.0
100
AcDbArc
 50
328.2116693829491
 51
0.0
  0
ARC
  5
6AE
102
{ACAD_REACTORS
330
718
102
}
330
1E
100
AcDbEntity
  8
STEMPEL
100
AcDbCircle
 10
95.00000000000005
 20
159.091673086804
 30
0.0
 40
10.5
100
AcDbArc
 50
148.2116693829491
 51
180.0
  0
ARC
  5
6AF
102
{ACAD_REACTORS
330
718
330
75C
102
}
330
1E
100
AcDbEntity
  8
STEMPEL
100
AcDbCircle
 10
95.00000000000005
 20
159.091673086804
 30
0.0
 40
12.0
100
AcDbArc
 50
148.2116693829491
 51
180.0
  0
ARC
  5
6B0
102
{ACAD_REACTORS
330
718
330
75C
102
}
330
1E
100
AcDbEntity
  8
STEMPEL
100
AcDbCircle
 10
73.0
 20
150.9999999999999
 30
0.0
 40
10.0
100
AcDbArc
 50
340.5369005553112
 51
0.0
  0
ARC
  5
6B1
102
{ACAD_REACTORS
330
718
102
}
330
1E
100
AcDbEntity
  8
STEMPEL
100
AcDbCircle
 10
73.0
 20
150.9999999999999
 30
0.0
 40
11.5
100
AcDbArc
 50
340.5369005553112
 51
0.0
  0
LINE
  5
6B2
102
{ACAD_REACTORS
330
718
102
}
330
1E
100
AcDbEntity
  8
STEMPEL
100
AcDbLine
 10
142.1063531499368
 20
126.5
 30
0.0
 11
82.89364685006324
 21
126.4999999999999
 31
0.0
  0
LINE
  5
6B3
330
1E
100
AcDbEntity
  8
HILF
100
AcDbLine
 10
88.68790203922173
 20
167.0256446915072
 30
0.0
 11
136.3120979607783
 21
167.0256446915072
 31
0.0
  0
LINE
  5
6B4
330
1E
100
AcDbEntity
  8
HILF
100
AcDbLine
 10
86.47173816068017
 20
161.9672165137061
 30
0.0
 11
138.5282618393199
 21
161.9672165137061
 31
0.0
  0
LINE
  5
6B5
330
1E
100
AcDbEntity
  8
HILF
100
AcDbLine
 10
85.85384656308253
 20
149.0561305257985
 30
0.0
 11
139.1461534369174
 21
149.0561305257985
 31
0.0
  0
LINE
  5
6B6
102
{ACAD_REACTORS
330
721
102
}
330
1E
100
AcDbEntity
  8
STEMPEL
100
AcDbLine
 10
68.0
 20
220.5
 30
0.0
 11
68.0
 21
126.4999999999999
 31
0.0
  0
LINE
  5
6B7
102
{ACAD_REACTORS
330
721
102
}
330
1E
100
AcDbEntity
  8
STEMPEL
100
AcDbLine
 10
157.0
 20
220.5
 30
0.0
 11
157.0
 21
126.5
 31
0.0
  0
LINE
  5
6B8
102
{ACAD_REACTORS
330
721
330
730
330
73F
330
75C
102
}
330
1E
100
AcDbEntity
  8
STEMPEL
100
AcDbLine
 10
155.4
 20
220.5
 30
0.0
 11
155.4
 21
126.5
 31
0.0
  0
LINE
  5
6B9
102
{ACAD_REACTORS
330
721
330
730
330
73F
330
75C
102
}
330
1E
100
AcDbEntity
  8
STEMPEL
100
AcDbLine
 10
69.59999999999999
 20
220.5
 30
0.0
 11
69.59999999999999
 21
126.4999999999999
 31
0.0
  0
TEXT
  5
6CB
330
1E
100
AcDbEntity
  8
TEXT
 62
     1
100
AcDbText
 10
122.515064557629
 20
64.87110898645312
 30
0.0
 40
3.5
  1
und innenbeschichtet
 41
0.8
  7
GREEKS
100
AcDbText
  0
TEXT
  5
6CC
330
1E
100
AcDbEntity
  8
TEXT
 62
     1
100
AcDbText
 10
97.01338013227838
 20
58.57369129376209
 30
0.0
 40
3.5
  1
Dämmung: 2 K-PU-Schaum
 41
0.8
  7
GREEKS
100
AcDbText
  0
TEXT
  5
6CD
330
1E
100
AcDbEntity
  8
TEXT
 62
     1
100
AcDbText
 10
98.68780011962213
 20
70.505635906066
 30
0.0
 40
3.5
  1
Innenrohr: E195 EN10305 feuerverzinkt
 41
0.8
  7
GREEKS
100
AcDbText
  0
TEXT
  5
6CE
330
1E
100
AcDbEntity
  8
TEXT
 62
     1
100
AcDbText
 10
96.80169143419011
 20
76.18216992424351
 30
0.0
 40
3.5
  1
Außenrohr: E195 EN10305 feuerverzinkt
 41
0.8
  7
GREEKS
100
AcDbText
  0
TEXT
  5
6CF
330
1E
100
AcDbEntity
  8
TEXT
100
AcDbText
 10
112.5648195562657
 20
35.82005971521077
 30
0.0
 40
2.5
  1
Doppelmuffen
 41
0.8
  7
GREEKS
100
AcDbText
  0
LINE
  5
6D0
102
{ACAD_REACTORS
330
730
330
75C
102
}
330
1E
100
AcDbEntity
  8
STEMPEL
100
AcDbLine
 10
155.3999999999999
 20
206.4999999999999
 30
0.0
 11
143.9730126107651
 21
206.4999999999999
 31
0.0
  0
LINE
  5
6D1
102
{ACAD_REACTORS
330
73F
330
75C
102
}
330
1E
100
AcDbEntity
  8
STEMPEL
100
AcDbLine
 10
155.4
 20
140.5
 30
0.0
 11
143.9730126107651
 21
140.5
 31
0.0
  0
LINE
  5
6D2
102
{ACAD_REACTORS
330
730
330
75C
102
}
330
1E
100
AcDbEntity
  8
STEMPEL
100
AcDbLine
 10
81.02698738923484
 20
206.4999999999999
 30
0.0
 11
69.59999999999999
 21
206.5
 31
0.0
  0
LINE
  5
6D3
102
{ACAD_REACTORS
330
73F
330
75C
102
}
330
1E
100
AcDbEntity
  8
STEMPEL
100
AcDbLine
 10
81.02698738923484
 20
140.5
 30
0.0
 11
69.59999999999999
 21
140.4999999999999
 31
0.0
  0
HATCH
  5
718
330
1E
100
AcDbEntity
  8
SCHRAFF
100
AcDbHatch
 10
0.0
 20
0.0
 30
0.0
210
0.0
220
0.0
230
1.0
  2
_USER
 70
     0
 71
     1
 91
        2
 92
        7
 72
     1
 73
     1
 93
       34
 10
139.0
 20
177.3726731603433
 42
-0.1395991324168581
 10
140.2
 20
181.5869346614843
 42
0.1395991324168615
 10
142.0
 20
187.908326913196
 42
0.0
 10
142.0
 20
196.0
 42
-0.0851285408962513
 10
142.5714372072185
 20
199.3319969481643
 42
0.0847252966077949
 10
144.0
 20
207.6219642979749
 42
0.0
 10
144.0
 20
212.1174986573393
 42
0.1115469390821235
 10
142.1063531499368
 20
220.5
 42
0.0
 10
140.4519779707475
 20
220.4999999999999
 42
0.0
 10
140.8135401666594
 20
219.7246273686723
 42
-0.1095178116832501
 10
142.4999999999999
 20
212.1174986573392
 42
0.0
 10
142.4999999999999
 20
207.7008160540649
 42
-0.0855444844068157
 10
141.1571527883012
 20
199.8317964903888
 42
0.085128540896245
 10
140.5
 20
196.0000000000002
 42
0.0
 10
140.5
 20
187.908326913196
 42
-0.1395991324168585
 10
138.925
 20
182.3771086929484
 42
0.1395991324168608
 10
137.5
 20
177.3726731603433
 42
0.0
 10
137.5
 20
169.6273268396567
 42
0.13959913241686
 10
138.925
 20
164.6228913070517
 42
-0.1395991324168631
 10
140.5
 20
159.0916730868039
 42
0.0
 10
140.5
 20
150.9999999999999
 42
0.0851285408962493
 10
141.1571527883012
 20
147.1682035096111
 42
-0.0855444844068157
 10
142.4999999999999
 20
139.299183945935
 42
0.0
 10
142.4999999999999
 20
134.8825013426607
 42
-0.1095178116832489
 10
140.8135401666594
 20
127.2753726313276
 42
0.0
 10
140.4519779707475
 20
126.5
 42
0.0
 10
142.1063531499368
 20
126.5
 42
0.1115469390821229
 10
144.0
 20
134.8825013426607
 42
0.0
 10
144.0
 20
139.3780357020008
 42
0.0847252966080391
 10
142.5714372072184
 20
147.6680030518357
 42
-0.0851285408962461
 10
142.0
 20
150.9999999999997
 42
0.0
 10
142.0
 20
159.0916730868039
 42
0.1395991324168602
 10
140.2
 20
165.4130653385155
 42
-0.13959913241686
 10
139.0
 20
169.6273268396566
 42
0.0
 97
       34
330
67A
330
678
330
67E
330
674
330
682
330
685
330
680
330
65F
330
687
330
681
330
684
330
683
330
675
330
67F
330
677
330
679
330
67C
330
698
330
69A
330
692
330
69C
330
68E
330
68D
330
690
330
68A
330
6B2
330
691
330
68C
330
68F
330
69D
330
693
330
699
330
697
330
67B
 92
        7
 72
     1
 73
     1
 93
       34
 10
87.5
 20
177.3726731603431
 42
0.1395991324168613
 10
86.07500000000003
 20
182.3771086929482
 42
-0.1395991324168623
 10
84.50000000000001
 20
187.9083269131959
 42
0.0
 10
84.50000000000001
 20
196.0
 42
0.0851285408962495
 10
83.8428472116988
 20
199.8317964903888
 42
-0.0855444844068155
 10
82.50000000000005
 20
207.7008160540649
 42
0.0
 10
82.50000000000005
 20
212.1174986573392
 42
-0.1095178116832487
 10
84.18645983334057
 20
219.7246273686722
 42
0.0
 10
84.54802202925254
 20
220.5
 42
0.0
 10
82.89364685006324
 20
220.5
 42
0.111546939082125
 10
81.0
 20
212.1174986573392
 42
0.0
 10
81.0
 20
207.621964297992
 42
0.0847252966079684
 10
82.42856279278155
 20
199.3319969481641
 42
-0.0851285408962498
 10
83.00000000000006
 20
196.0
 42
0.0
 10
83.00000000000006
 20
187.9083269131959
 42
0.1395991324168603
 10
84.80000000000002
 20
181.5869346614843
 42
-0.1395991324168601
 10
86.0
 20
177.3726731603432
 42
0.0
 10
86.0
 20
169.6273268396567
 42
-0.1395991324168581
 10
84.80000000000005
 20
165.4130653385156
 42
0.1395991324168614
 10
83.00000000000006
 20
159.091673086804
 42
0.0
 10
83.00000000000006
 20
150.9999999999999
 42
-0.0851285408962499
 10
82.42856279278155
 20
147.6680030518357
 42
0.0847252966079536
 10
81.0
 20
139.3780357020094
 42
0.0
 10
81.0
 20
134.8825013426608
 42
0.1115469390821249
 10
82.89364685006324
 20
126.4999999999999
 42
0.0
 10
84.54802202925254
 20
126.5
 42
0.0
 10
84.18645983334057
 20
127.2753726313277
 42
-0.1095178116832485
 10
82.50000000000005
 20
134.8825013426607
 42
0.0
 10
82.50000000000005
 20
139.299183945935
 42
-0.0855444844068155
 10
83.8428472116988
 20
147.1682035096111
 42
0.085128540896249
 10
84.50000000000001
 20
150.9999999999999
 42
0.0
 10
84.50000000000001
 20
159.091673086804
 42
-0.1395991324168584
 10
86.07499999999999
 20
164.6228913070516
 42
0.1395991324168655
 10
87.5
 20
169.6273268396568
 42
0.0
 97
       34
330
665
330
663
330
66A
330
660
330
66E
330
670
330
66C
330
672
330
65F
330
66B
330
66F
330
66D
330
661
330
669
330
662
330
664
330
666
330
6AD
330
6AF
330
6A8
330
6B0
330
6A4
330
6A2
330
6A6
330
6B2
330
69F
330
6A5
330
6A1
330
6A3
330
6B1
330
6A7
330
6AE
330
6AC
330
667
 75
     0
 76
     0
 52
45.0
 41
2.0
 77
     0
 78
     1
 53
45.0
 43
0.0
 44
0.0
 45
-1.414213562373094
 46
1.414213562373095
 79
     0
 47
0.2247496312443231
 98
        2
 10
137.831413805022
 20
175.3156644434669
 10
86.55225517764051
 20
171.0454212982914
  0
HATCH
  5
721
330
1E
100
AcDbEntity
  8
SCHRAFF
100
AcDbHatch
 10
0.0
 20
0.0
 30
0.0
210
0.0
220
0.0
230
1.0
  2
_USER
 70
     0
 71
     1
 91
        2
 92
        7
 72
     0
 73
     1
 93
        4
 10
157.0
 20
220.4999999999999
 10
155.4
 20
220.4999999999999
 10
155.4
 20
126.5
 10
157.0
 20
126.5
 97
        4
330
4BD
330
6B8
330
49E
330
6B7
 92
        7
 72
     0
 73
     1
 93
        4
 10
69.59999999999998
 20
220.5
 10
68.0
 20
220.5
 10
68.0
 20
126.4999999999999
 10
69.59999999999999
 20
126.4999999999999
 97
        4
330
4BD
330
6B6
330
49E
330
6B9
 75
     0
 76
     0
 52
135.0
 41
2.0
 77
     0
 78
     1
 53
135.0
 43
0.0
 44
0.0
 45
-1.414213562373095
 46
-1.414213562373094
 79
     0
 47
0.2247496312443231
 98
        2
 10
156.0490100054139
 20
196.2173799701041
 10
68.78447621727673
 20
203.6341182116843
  0
HATCH
  5
730
330
1E
100
AcDbEntity
  8
SCHRAFF
100
AcDbHatch
 10
0.0
 20
0.0
 30
0.0
210
0.0
220
0.0
230
1.0
  2
NET
 70
     0
 71
     1
 91
        2
 92
        7
 72
     1
 73
     1
 93
        7
 10
155.4
 20
220.5
 42
0.0
 10
142.1070448491912
 20
220.5
 42
0.0
 10
142.1730018472128
 20
220.3585547612866
 42
-0.1095178116832962
 10
144.0
 20
212.1174986573392
 42
0.0
 10
144.0
 20
207.7020357020084
 42
-0.0120251093634704
 10
143.9730126107651
 20
206.4999999999999
 42
0.0
 10
155.4
 20
206.4999999999999
 42
0.0
 97
        7
330
4BD
330
688
330
680
330
685
330
682
330
6D0
330
6B8
 92
        7
 72
     1
 73
     1
 93
        7
 10
82.82699815278599
 20
220.3585547612841
 42
0.0
 10
82.89295515080882
 20
220.5
 42
0.0
 10
69.59999999999998
 20
220.5
 42
0.0
 10
69.59999999999998
 20
206.5
 42
0.0
 10
81.02698738923484
 20
206.4999999999999
 42
-0.0120251093634696
 10
81.0
 20
207.7020357020083
 42
0.0
 10
81.0
 20
212.1174986573392
 42
-0.10951781168326
 97
        7
330
673
330
4BD
330
6B9
330
6D2
330
66D
330
66F
330
66B
 75
     0
 76
     1
 52
45.0
 41
15.0
 77
     0
 78
     2
 53
45.0
 43
0.0
 44
0.0
 45
-1.325825214724776
 46
1.325825214724776
 79
     0
 53
135.0
 43
0.0
 44
0.0
 45
-1.325825214724776
 46
-1.325825214724776
 79
     0
 47
0.2247496312443231
 98
        2
 10
147.7273917384759
 20
211.7251050026035
 10
76.20646000415854
 20
216.6695966971181
  0
HATCH
  5
73F
330
1E
100
AcDbEntity
  8
SCHRAFF
100
AcDbHatch
 10
0.0
 20
0.0
 30
0.0
210
0.0
220
0.0
230
1.0
  2
NET
 70
     0
 71
     1
 91
        2
 92
        7
 72
     1
 73
     1
 93
        7
 10
155.4
 20
140.5
 42
0.0
 10
143.9730126107651
 20
140.5
 42
-0.0120251093634704
 10
144.0
 20
139.2979642979915
 42
0.0
 10
144.0
 20
134.8825013426607
 42
-0.1095178116832568
 10
142.1730018472141
 20
126.641445238716
 42
0.0
 10
142.1070448491912
 20
126.5
 42
0.0
 10
155.4
 20
126.5
 42
0.0
 97
        7
330
6D1
330
68F
330
68C
330
691
330
689
330
49E
330
6B8
 92
        7
 72
     1
 73
     1
 93
        7
 10
81.0
 20
139.2979642979916
 42
-0.0120251093634693
 10
81.02698738923484
 20
140.5
 42
0.0
 10
69.59999999999999
 20
140.4999999999999
 42
0.0
 10
69.59999999999998
 20
126.4999999999999
 42
0.0
 10
82.8929551508088
 20
126.4999999999999
 42
0.0
 10
82.82699815278538
 20
126.6414452387172
 42
-0.1095178116832417
 10
81.0
 20
134.8825013426608
 42
0.0
 97
        7
330
6A4
330
6D3
330
6B9
330
49E
330
69E
330
6A6
330
6A2
 75
     0
 76
     1
 52
45.0
 41
15.0
 77
     0
 78
     2
 53
45.0
 43
0.0
 44
0.0
 45
-1.325825214724776
 46
1.325825214724776
 79
     0
 53
135.0
 43
0.0
 44
0.0
 45
-1.325825214724776
 46
-1.325825214724776
 79
     0
 47
0.2247496312443231
 98
        2
 10
146.1530320719603
 20
132.6132343913292
 10
78.90536209716197
 20
134.8607304888707
  0
HATCH
  5
75C
330
1E
100
AcDbEntity
  8
SCHRAFF
100
AcDbHatch
 10
0.0
 20
0.0
 30
0.0
210
0.0
220
0.0
230
1.0
  2
HONEY
 70
     0
 71
     1
 91
        2
 92
        7
 72
     1
 73
     1
 93
       14
 10
155.4
 20
206.4999999999999
 42
0.0
 10
143.9730126107651
 20
206.4999999999999
 42
-0.073431177183853
 10
142.5714372072184
 20
199.3319969481642
 42
0.0851285408962461
 10
142.0
 20
196.0000000000001
 42
0.0
 10
142.0
 20
187.908326913196
 42
-0.1395991324168581
 10
140.2000000000001
 20
181.5869346614844
 42
0.1395991324168622
 10
139.0
 20
177.3726731603433
 42
0.0
 10
139.0
 20
169.6273268396566
 42
0.13959913241686
 10
140.2
 20
165.4130653385155
 42
-0.1395991324168603
 10
142.0
 20
159.0916730868039
 42
0.0
 10
142.0
 20
150.9999999999999
 42
0.0851285408962474
 10
142.5714372072184
 20
147.6680030518358
 42
-0.0734311771838539
 10
143.9730126107651
 20
140.5
 42
0.0
 10
155.4
 20
140.5
 42
0.0
 97
       14
330
6D0
330
682
330
674
330
67E
330
678
330
67A
330
67B
330
697
330
699
330
693
330
69D
330
68F
330
6D1
330
6B8
 92
        7
 72
     1
 73
     1
 93
       14
 10
86.0
 20
177.3726731603432
 42
0.1395991324168601
 10
84.80000000000002
 20
181.5869346614843
 42
-0.1395991324168603
 10
83.00000000000006
 20
187.9083269131959
 42
0.0
 10
83.00000000000006
 20
196.0
 42
0.0851285408962468
 10
82.42856279278159
 20
199.331996948164
 42
-0.0734311771838551
 10
81.02698738923484
 20
206.4999999999999
 42
0.0
 10
69.59999999999999
 20
206.5
 42
0.0
 10
69.59999999999999
 20
140.4999999999999
 42
0.0
 10
81.02698738923484
 20
140.5
 42
-0.0734311771838539
 10
82.42856279278155
 20
147.6680030518357
 42
0.0851285408962499
 10
83.00000000000006
 20
150.9999999999999
 42
0.0
 10
83.00000000000006
 20
159.091673086804
 42
-0.139599132416858
 10
84.79999999999998
 20
165.4130653385155
 42
0.1395991324168633
 10
86.0
 20
169.6273268396567
 42
0.0
 97
       14
330
664
330
662
330
669
330
661
330
66D
330
6D2
330
6B9
330
6D3
330
6A4
330
6B0
330
6A8
330
6AF
330
6AD
330
666
 75
     0
 76
     1
 52
0.0
 41
20.0
 77
     0
 78
     3
 53
0.0
 43
0.0
 44
0.0
 45
3.75
 46
2.1650635
 79
     2
 49
2.5
 49
-5.0
 53
120.0
 43
0.0
 44
0.0
 45
-3.749999991806449
 46
2.165063514191645
 79
     2
 49
2.5
 49
-5.0
 53
60.0
 43
0.0
 44
0.0
 45
0.0000000081935508
 46
4.330127014191645
 79
     2
 49
-5.0
 49
2.5
 47
0.2247496312443231
 98
        2
 10
147.7273917384759
 20
177.7879102907242
 10
80.70463105727458
 20
177.113661741385
  0
DIMENSION
  5
783
330
1E
100
AcDbEntity
  8
BEM
100
AcDbDimension
  2
*D1
 10
68.0
 20
229.332827494126
 30
0.0
 11
112.5
 21
232.582827494126
 31
0.0
 70
    32
  1
%%c<>
 71
     5
 42
88.99999999999996
  3
Standard
100
AcDbAlignedDimension
 13
157.0
 23
220.5
 33
0.0
 14
68.0
 24
220.5
 34
0.0
100
AcDbRotatedDimension
1001
ACAD
1000
DSTYLE
1002
{
1070
    41
1040
3.5
1070
    42
1040
1.0
1070
    43
1040
7.0
1070
    44
1040
1.0
1070
    73
1070
     0
1070
    74
1070
     0
1070
    77
1070
     1
1070
    78
1070
     8
1070
    79
1070
     2
1070
   140
1040
3.5
1070
   141
1040
1.5
1070
   146
1040
0.5142857142857144
1070
   147
1040
1.5
1070
   172
1070
     1
1070
   178
1070
     1
1070
   179
1070
     2
1070
   271
1070
     2
1070
   272
1070
     2
1070
   284
1070
     8
1070
   285
1070
     8
1070
   286
1070
     8
1002
}
  0
DIMENSION
  5
7A2
330
1E
100
AcDbEntity
  8
BEM
100
AcDbDimension
  2
*D2
 10
56.65048362641528
 20
126.4999999999999
 30
0.0
 11
53.40048362641526
 21
173.5
 31
0.0
 70
    32
 71
     5
 42
94.00000000000009
  3
Standard
100
AcDbAlignedDimension
 13
68.0
 23
220.5
 33
0.0
 14
68.0
 24
126.4999999999999
 34
0.0
 50
90.0
100
AcDbRotatedDimension
1001
ACAD
1000
DSTYLE
1002
{
1070
    41
1040
3.5
1070
    42
1040
1.0
1070
    43
1040
7.0
1070
    44
1040
1.0
1070
    73
1070
     0
1070
    74
1070
     0
1070
    77
1070
     1
1070
    78
1070
     8
1070
    79
1070
     2
1070
   140
1040
3.5
1070
   141
1040
1.5
1070
   146
1040
0.5142857142857144
1070
   147
1040
1.5
1070
   172
1070
     1
1070
   178
1070
     1
1070
   179
1070
     2
1070
   271
1070
     2
1070
   272
1070
     2
1070
   284
1070
     8
1070
   285
1070
     8
1070
   286
1070
     8
1002
}
  0
TEXT
  5
7C0
330
1E
100
AcDbEntity
  8
TEXT
100
AcDbText
 10
80.50426045887993
 20
31.55382520412866
 30
0.0
 40
2.0
  1
01.10.
 41
0.8
  7
GREEKS
 72
     1
 11
83.70426045887993
 21
31.55382520412866
 31
0.0
100
AcDbText
  0
TEXT
  5
7C1
330
1E
100
AcDbEntity
  8
TEXT
100
AcDbText
 10
69.31105491105199
 20
36.57012735575833
 30
0.0
 40
2.0
  1
2007
 41
0.8
  7
GREEKS
100
AcDbText
  0
ENDSEC
  0
SECTION
  2
OBJECTS
  0
DICTIONARY
  5
C
330
0
100
AcDbDictionary
281
     1
  3
ACAD_COLOR
350
DF
  3
ACAD_GROUP
350
D
  3
ACAD_LAYOUT
350
19
  3
ACAD_MATERIAL
350
DE
  3
ACAD_MLINESTYLE
350
16
  3
ACAD_PLOTSETTINGS
350
18
  3
ACAD_PLOTSTYLENAME
350
E
  3
AcDbVariableDictionary
350
EA
  0
DICTIONARY
  5
A0
330
1E
100
AcDbDictionary
280
     1
281
     1
  3
ACAD_LAYOUTSELFREF
360
D4
  0
DICTIONARY
  5
A2
330
1A
100
AcDbDictionary
280
     1
281
     1
  3
ACAD_LAYOUTSELFREF
360
D3
  0
DICTIONARY
  5
DF
102
{ACAD_REACTORS
330
C
102
}
330
C
100
AcDbDictionary
281
     1
  0
DICTIONARY
  5
D
102
{ACAD_REACTORS
330
C
102
}
330
C
100
AcDbDictionary
281
     1
  0
DICTIONARY
  5
19
102
{ACAD_REACTORS
330
C
102
}
330
C
100
AcDbDictionary
281
     1
  3
Layout1
350
1D
  3
Model
350
21
  0
DICTIONARY
  5
DE
102
{ACAD_REACTORS
330
C
102
}
330
C
100
AcDbDictionary
281
     1
  0
DICTIONARY
  5
16
102
{ACAD_REACTORS
330
C
102
}
330
C
100
AcDbDictionary
281
     1
  3
Standard
350
17
  0
DICTIONARY
  5
18
102
{ACAD_REACTORS
330
C
102
}
330
C
100
AcDbDictionary
281
     1
  0
ACDBDICTIONARYWDFLT
  5
E
102
{ACAD_REACTORS
330
C
102
}
330
C
100
AcDbDictionary
281
     1
  3
Normal
350
F
100
AcDbDictionaryWithDefault
340
F
  0
DICTIONARY
  5
EA
102
{ACAD_REACTORS
330
C
102
}
330
C
100
AcDbDictionary
281
     1
  3
DIMASSOC
350
EB
  3
PROJECTNAME
350
EC
  0
XRECORD
  5
D4
102
{ACAD_REACTORS
330
A0
102
}
330
A0
100
AcDbXrecord
280
     1
340
1E
  0
XRECORD
  5
D3
102
{ACAD_REACTORS
330
A2
102
}
330
A2
100
AcDbXrecord
280
     1
340
1A
  0
LAYOUT
  5
1D
102
{ACAD_REACTORS
330
19
102
}
330
19
100
AcDbPlotSettings
  1

  2
\\NT_WORK01\HP LaserJet 5000 PCL 6
  4

  6

 40
0.0
 41
0.0
 42
0.0
 43
0.0
 44
0.0
 45
0.0
 46
0.0
 47
0.0
 48
0.0
 49
0.0
140
0.0
141
0.0
142
1.0
143
1.0
 70
   688
 72
     0
 73
     0
 74
     5
  7

 75
    16
147
1.0
 76
     0
 77
     2
 78
   300
148
0.0
149
0.0
100
AcDbLayout
  1
Layout1
 70
     0
 71
     1
 10
0.0
 20
0.0
 11
12.0
 21
9.0
 12
0.0
 22
0.0
 32
0.0
 14
1.000000000000000E+20
 24
1.000000000000000E+20
 34
1.000000000000000E+20
 15
-1.000000000000000E+20
 25
-1.000000000000000E+20
 35
-1.000000000000000E+20
146
0.0
 13
0.0
 23
0.0
 33
0.0
 16
1.0
 26
0.0
 36
0.0
 17
0.0
 27
1.0
 37
0.0
 76
     0
330
1A
  0
LAYOUT
  5
21
102
{ACAD_REACTORS
330
19
102
}
330
19
100
AcDbPlotSettings
  1

  2
none_device
  4
Letter_(8.50_x_11.00_Inches)
  6

 40
6.349999904632568
 41
6.349999904632568
 42
6.350006103515625
 43
6.350006103515625
 44
215.8999938964844
 45
279.3999938964844
 46
0.0
 47
0.0
 48
0.0
 49
0.0
140
0.0
141
0.0
142
1.0
143
1.0
 70
 11952
 72
     0
 73
     1
 74
     0
  7

 75
     0
147
1.0
 76
     0
 77
     2
 78
   300
148
1164.777986426279
149
47.19713665290598
100
AcDbLayout
  1
Model
 70
     1
 71
     0
 10
0.0
 20
0.0
 11
12.0
 21
9.0
 12
0.0
 22
0.0
 32
0.0
 14
0.0
 24
0.0
 34
0.0
 15
0.0
 25
0.0
 35
0.0
146
0.0
 13
0.0
 23
0.0
 33
0.0
 16
1.0
 26
0.0
 36
0.0
 17
0.0
 27
1.0
 37
0.0
 76
     0
330
1E
  0
MLINESTYLE
  5
17
102
{ACAD_REACTORS
330
16
102
}
330
16
100
AcDbMlineStyle
  2
STANDARD
 70
     0
  3

 62
   256
 51
90.0
 52
90.0
 71
     2
 49
0.5
 62
   256
  6
BYLAYER
 49
-0.5
 62
   256
  6
BYLAYER
  0
ACDBPLACEHOLDER
  5
F
102
{ACAD_REACTORS
330
E
102
}
330
E
  0
DICTIONARYVAR
  5
EB
102
{ACAD_REACTORS
330
EA
102
}
330
EA
100
DictionaryVariables
280
     0
  1
1
  0
DICTIONARYVAR
  5
EC
102
{ACAD_REACTORS
330
EA
102
}
330
EA
100
DictionaryVariables
280
     0
  1

  0
ENDSEC
  0
EOF
