  0
SECTION
  2
HEADER
  9
$ACADVER
  1
AC1018
  9
$ACADMAINTVER
 70
     2
  9
$DWGCODEPAGE
  3
ANSI_1252
  9
$INSBASE
 10
0.0
 20
0.0
 30
0.0
  9
$EXTMIN
 10
-0.0181260584133725
 20
-0.0256328098773793
 30
-0.0015258207003583
  9
$EXTMAX
 10
594.0181288244414
 20
840.0256367214323
 30
0.0000000349246037
  9
$LIMMIN
 10
0.0
 20
0.0
  9
$LIMMAX
 10
594.0
 20
840.0
  9
$ORTHOMODE
 70
     0
  9
$REGENMODE
 70
     1
  9
$FILLMODE
 70
     1
  9
$QTEXTMODE
 70
     0
  9
$MIRRTEXT
 70
     1
  9
$LTSCALE
 40
20.0
  9
$ATTMODE
 70
     1
  9
$TEXTSIZE
 40
3.5
  9
$TRACEWID
 40
1.0
  9
$TEXTSTYLE
  7
STANDARD
  9
$CLAYER
  8
SCHRAFF
  9
$CELTYPE
  6
ByLayer
  9
$CECOLOR
 62
   256
  9
$CELTSCALE
 40
1.0
  9
$DISPSILH
 70
     0
  9
$DIMSCALE
 40
2.0
  9
$DIMASZ
 40
3.5
  9
$DIMEXO
 40
1.0
  9
$DIMDLI
 40
7.0
  9
$DIMRND
 40
0.0
  9
$DIMDLE
 40
0.0
  9
$DIMEXE
 40
1.0
  9
$DIMTP
 40
0.0
  9
$DIMTM
 40
0.0
  9
$DIMTXT
 40
3.5
  9
$DIMCEN
 40
1.5
  9
$DIMTSZ
 40
0.0
  9
$DIMTOL
 70
     0
  9
$DIMLIM
 70
     0
  9
$DIMTIH
 70
     0
  9
$DIMTOH
 70
     0
  9
$DIMSE1
 70
     0
  9
$DIMSE2
 70
     0
  9
$DIMTAD
 70
     1
  9
$DIMZIN
 70
     8
  9
$DIMBLK
  1

  9
$DIMASO
 70
     1
  9
$DIMSHO
 70
     0
  9
$DIMPOST
  1

  9
$DIMAPOST
  1

  9
$DIMALT
 70
     0
  9
$DIMALTD
 70
     2
  9
$DIMALTF
 40
25.4
  9
$DIMLFAC
 40
1.0
  9
$DIMTOFL
 70
     1
  9
$DIMTVP
 40
0.0
  9
$DIMTIX
 70
     0
  9
$DIMSOXD
 70
     0
  9
$DIMSAH
 70
     0
  9
$DIMBLK1
  1

  9
$DIMBLK2
  1

  9
$DIMSTYLE
  2
Standard
  9
$DIMCLRD
 70
     0
  9
$DIMCLRE
 70
     0
  9
$DIMCLRT
 70
     1
  9
$DIMTFAC
 40
0.5142857142857144
  9
$DIMGAP
 40
1.5
  9
$DIMJUST
 70
     0
  9
$DIMSD1
 70
     0
  9
$DIMSD2
 70
     0
  9
$DIMTOLJ
 70
     1
  9
$DIMTZIN
 70
     8
  9
$DIMALTZ
 70
     8
  9
$DIMALTTZ
 70
     8
  9
$DIMUPT
 70
     0
  9
$DIMDEC
 70
     2
  9
$DIMTDEC
 70
     2
  9
$DIMALTU
 70
     2
  9
$DIMALTTD
 70
     2
  9
$DIMTXSTY
  7
STANDARD
  9
$DIMAUNIT
 70
     0
  9
$DIMADEC
 70
     2
  9
$DIMALTRND
 40
0.0
  9
$DIMAZIN
 70
     2
  9
$DIMDSEP
 70
    46
  9
$DIMATFIT
 70
     3
  9
$DIMFRAC
 70
     0
  9
$DIMLDRBLK
  1

  9
$DIMLUNIT
 70
     2
  9
$DIMLWD
 70
    -2
  9
$DIMLWE
 70
    -2
  9
$DIMTMOVE
 70
     0
  9
$LUNITS
 70
     2
  9
$LUPREC
 70
     2
  9
$SKETCHINC
 40
1.0
  9
$FILLETRAD
 40
8.0
  9
$AUNITS
 70
     0
  9
$AUPREC
 70
     0
  9
$MENU
  1
ACAD
  9
$ELEVATION
 40
0.0
  9
$PELEVATION
 40
0.0
  9
$THICKNESS
 40
0.0
  9
$LIMCHECK
 70
     0
  9
$CHAMFERA
 40
0.0
  9
$CHAMFERB
 40
0.0
  9
$CHAMFERC
 40
0.0
  9
$CHAMFERD
 40
0.0
  9
$SKPOLY
 70
     0
  9
$TDCREATE
 40
2455397.867059838
  9
$TDUCREATE
 40
2455397.783726505
  9
$TDUPDATE
 40
2455659.453418125
  9
$TDUUPDATE
 40
2455659.370084791
  9
$TDINDWG
 40
0.3173137731
  9
$TDUSRTIMER
 40
0.3173137731
  9
$USRTIMER
 70
     1
  9
$ANGBASE
 50
0.0
  9
$ANGDIR
 70
     0
  9
$PDMODE
 70
     0
  9
$PDSIZE
 40
0.0
  9
$PLINEWID
 40
0.0
  9
$SPLFRAME
 70
     0
  9
$SPLINETYPE
 70
     6
  9
$SPLINESEGS
 70
     8
  9
$HANDSEED
  5
1AFF
  9
$SURFTAB1
 70
     6
  9
$SURFTAB2
 70
     6
  9
$SURFTYPE
 70
     6
  9
$SURFU
 70
     6
  9
$SURFV
 70
     6
  9
$UCSBASE
  2

  9
$UCSNAME
  2

  9
$UCSORG
 10
0.0
 20
0.0
 30
0.0
  9
$UCSXDIR
 10
1.0
 20
0.0
 30
0.0
  9
$UCSYDIR
 10
0.0
 20
1.0
 30
0.0
  9
$UCSORTHOREF
  2

  9
$UCSORTHOVIEW
 70
     0
  9
$UCSORGTOP
 10
0.0
 20
0.0
 30
0.0
  9
$UCSORGBOTTOM
 10
0.0
 20
0.0
 30
0.0
  9
$UCSORGLEFT
 10
0.0
 20
0.0
 30
0.0
  9
$UCSORGRIGHT
 10
0.0
 20
0.0
 30
0.0
  9
$UCSORGFRONT
 10
0.0
 20
0.0
 30
0.0
  9
$UCSORGBACK
 10
0.0
 20
0.0
 30
0.0
  9
$PUCSBASE
  2

  9
$PUCSNAME
  2

  9
$PUCSORG
 10
0.0
 20
0.0
 30
0.0
  9
$PUCSXDIR
 10
1.0
 20
0.0
 30
0.0
  9
$PUCSYDIR
 10
0.0
 20
1.0
 30
0.0
  9
$PUCSORTHOREF
  2

  9
$PUCSORTHOVIEW
 70
     0
  9
$PUCSORGTOP
 10
0.0
 20
0.0
 30
0.0
  9
$PUCSORGBOTTOM
 10
0.0
 20
0.0
 30
0.0
  9
$PUCSORGLEFT
 10
0.0
 20
0.0
 30
0.0
  9
$PUCSORGRIGHT
 10
0.0
 20
0.0
 30
0.0
  9
$PUCSORGFRONT
 10
0.0
 20
0.0
 30
0.0
  9
$PUCSORGBACK
 10
0.0
 20
0.0
 30
0.0
  9
$USERI1
 70
     0
  9
$USERI2
 70
     0
  9
$USERI3
 70
     0
  9
$USERI4
 70
     0
  9
$USERI5
 70
     0
  9
$USERR1
 40
0.0
  9
$USERR2
 40
0.0
  9
$USERR3
 40
0.0
  9
$USERR4
 40
0.0
  9
$USERR5
 40
0.0
  9
$WORLDVIEW
 70
     1
  9
$SHADEDGE
 70
     3
  9
$SHADEDIF
 70
    70
  9
$TILEMODE
 70
     1
  9
$MAXACTVP
 70
    16
  9
$PINSBASE
 10
0.0
 20
0.0
 30
0.0
  9
$PLIMCHECK
 70
     0
  9
$PEXTMIN
 10
1.000000000000000E+20
 20
1.000000000000000E+20
 30
1.000000000000000E+20
  9
$PEXTMAX
 10
-1.000000000000000E+20
 20
-1.000000000000000E+20
 30
-1.000000000000000E+20
  9
$PLIMMIN
 10
0.0
 20
0.0
  9
$PLIMMAX
 10
12.0
 20
9.0
  9
$UNITMODE
 70
     0
  9
$VISRETAIN
 70
     0
  9
$PLINEGEN
 70
     0
  9
$PSLTSCALE
 70
     0
  9
$TREEDEPTH
 70
  3020
  9
$CMLSTYLE
  2
Standard
  9
$CMLJUST
 70
     0
  9
$CMLSCALE
 40
1.0
  9
$PROXYGRAPHICS
 70
     1
  9
$MEASUREMENT
 70
     0
  9
$CELWEIGHT
370
    -1
  9
$ENDCAPS
280
     0
  9
$JOINSTYLE
280
     0
  9
$LWDISPLAY
290
     0
  9
$INSUNITS
 70
     0
  9
$HYPERLINKBASE
  1

  9
$STYLESHEET
  1
monochrome 1.ctb
  9
$XEDIT
290
     1
  9
$CEPSNTYPE
380
     0
  9
$PSTYLEMODE
290
     1
  9
$FINGERPRINTGUID
  2
{D68B0D0D-A558-11D7-B632-000102183313}
  9
$VERSIONGUID
  2
{2107F961-2A61-4FA2-A69D-FF319E5092FA}
  9
$EXTNAMES
290
     1
  9
$PSVPSCALE
 40
0.0
  9
$OLESTARTUP
290
     0
  9
$SORTENTS
280
   127
  9
$INDEXCTL
280
     0
  9
$HIDETEXT
280
     0
  9
$XCLIPFRAME
290
     0
  9
$HALOGAP
280
     0
  9
$OBSCOLOR
 70
   257
  9
$OBSLTYPE
280
     0
  9
$INTERSECTIONDISPLAY
280
     0
  9
$INTERSECTIONCOLOR
 70
   257
  9
$DIMASSOC
280
     1
  9
$PROJECTNAME
  1

  0
ENDSEC
  0
SECTION
  2
CLASSES
  0
CLASS
  1
ACDBDICTIONARYWDFLT
  2
AcDbDictionaryWithDefault
  3
ObjectDBX Classes
 90
        0
 91
        1
280
     0
281
     0
  0
CLASS
  1
DICTIONARYVAR
  2
AcDbDictionaryVar
  3
ObjectDBX Classes
 90
        0
 91
        2
280
     0
281
     0
  0
ENDSEC
  0
SECTION
  2
TABLES
  0
TABLE
  2
VPORT
  5
8
330
0
100
AcDbSymbolTable
 70
     3
  0
VPORT
  5
1AFE
330
8
100
AcDbSymbolTableRecord
100
AcDbViewportTableRecord
  2
*Active
 70
     0
 10
0.0
 20
0.0
 11
1.0
 21
1.0
 12
297.0
 22
420.0
 13
0.0
 23
0.0
 14
1.0
 24
1.0
 15
10.0
 25
10.0
 16
0.0
 26
0.0
 36
1.0
 17
0.0
 27
0.0
 37
0.0
 40
840.0
 41
1.334231805929919
 42
50.0
 43
0.0
 44
0.0
 50
0.0
 51
0.0
 71
     0
 72
  1500
 73
     1
 74
     0
 75
     0
 76
     0
 77
     0
 78
     0
281
     0
 65
     1
110
0.0
120
0.0
130
0.0
111
1.0
121
0.0
131
0.0
112
0.0
122
1.0
132
0.0
 79
     0
146
0.0
  0
ENDTAB
  0
TABLE
  2
LTYPE
  5
5
330
0
100
AcDbSymbolTable
 70
     2
  0
LTYPE
  5
13
330
5
100
AcDbSymbolTableRecord
100
AcDbLinetypeTableRecord
  2
ByBlock
 70
     0
  3

 72
    65
 73
     0
 40
0.0
  0
LTYPE
  5
14
330
5
100
AcDbSymbolTableRecord
100
AcDbLinetypeTableRecord
  2
ByLayer
 70
     0
  3

 72
    65
 73
     0
 40
0.0
  0
LTYPE
  5
15
330
5
100
AcDbSymbolTableRecord
100
AcDbLinetypeTableRecord
  2
Continuous
 70
     0
  3
Solid line
 72
    65
 73
     0
 40
0.0
  0
LTYPE
  5
25
330
5
100
AcDbSymbolTableRecord
100
AcDbLinetypeTableRecord
  2
STRICHPUNKT
 70
     0
  3
__ . __ . __ . __ . __ . __ . __ . __ . __ . __
 72
    65
 73
     4
 40
1.0
 49
0.5
 74
     0
 49
-0.25
 74
     0
 49
0.0
 74
     0
 49
-0.25
 74
     0
  0
ENDTAB
  0
TABLE
  2
LAYER
  5
2
330
0
100
AcDbSymbolTable
 70
     9
  0
LAYER
  5
10
330
2
100
AcDbSymbolTableRecord
100
AcDbLayerTableRecord
  2
0
 70
     0
 62
     7
  6
Continuous
370
    -3
390
F
  0
LAYER
  5
2B
330
2
100
AcDbSymbolTableRecord
100
AcDbLayerTableRecord
  2
VOLL
 70
     0
 62
     1
  6
Continuous
370
    -3
390
F
  0
LAYER
  5
2C
330
2
100
AcDbSymbolTableRecord
100
AcDbLayerTableRecord
  2
HILF
 70
     0
 62
     2
  6
Continuous
370
    -3
390
F
  0
LAYER
  5
2D
330
2
100
AcDbSymbolTableRecord
100
AcDbLayerTableRecord
  2
MITTEL
 70
     0
 62
     2
  6
STRICHPUNKT
370
    -3
390
F
  0
LAYER
  5
2F
330
2
100
AcDbSymbolTableRecord
100
AcDbLayerTableRecord
  2
BEM
 70
     0
 62
     7
  6
Continuous
370
    -3
390
F
  0
LAYER
  5
30
330
2
100
AcDbSymbolTableRecord
100
AcDbLayerTableRecord
  2
STEMPEL
 70
     0
 62
     3
  6
Continuous
370
    -3
390
F
  0
LAYER
  5
33
330
2
100
AcDbSymbolTableRecord
100
AcDbLayerTableRecord
  2
TEXT
 70
     0
 62
     7
  6
Continuous
370
    -3
390
F
  0
LAYER
  5
214
330
2
100
AcDbSymbolTableRecord
100
AcDbLayerTableRecord
  2
DEFPOINTS
 70
     0
 62
     7
  6
Continuous
290
     0
370
    -3
390
F
  0
LAYER
  5
215
330
2
100
AcDbSymbolTableRecord
100
AcDbLayerTableRecord
  2
SCHRAFF
 70
     0
 62
     7
  6
Continuous
370
    -3
390
F
  0
ENDTAB
  0
TABLE
  2
STYLE
  5
3
330
0
100
AcDbSymbolTable
 70
     2
  0
STYLE
  5
11
330
3
100
AcDbSymbolTableRecord
100
AcDbTextStyleTableRecord
  2
STANDARD
 70
     0
 40
0.0
 41
0.8
 50
0.0
 71
     0
 42
3.5
  3
simplex.shx
  4

  0
STYLE
  5
24
330
3
100
AcDbSymbolTableRecord
100
AcDbTextStyleTableRecord
  2
GREEKS
 70
     0
 40
0.0
 41
0.8
 50
0.0
 71
     0
 42
2.5
  3
SIMPLEX.shx
  4

  0
ENDTAB
  0
TABLE
  2
VIEW
  5
6
330
0
100
AcDbSymbolTable
 70
     0
  0
ENDTAB
  0
TABLE
  2
UCS
  5
7
330
0
100
AcDbSymbolTable
 70
     0
  0
ENDTAB
  0
TABLE
  2
APPID
  5
9
330
0
100
AcDbSymbolTable
 70
     1
  0
APPID
  5
12
330
9
100
AcDbSymbolTableRecord
100
AcDbRegAppTableRecord
  2
ACAD
 70
     0
  0
ENDTAB
  0
TABLE
  2
DIMSTYLE
  5
A
330
0
100
AcDbSymbolTable
 70
     1
100
AcDbDimStyleTable
 71
     1
340
A2
  0
DIMSTYLE
105
A2
102
{ACAD_REACTORS
330
11C0
330
11C3
330
11CB
330
11CF
330
11D4
330
1A15
102
}
330
A
100
AcDbSymbolTableRecord
100
AcDbDimStyleTableRecord
  2
Standard
 70
     0
340
11
  0
ENDTAB
  0
TABLE
  2
BLOCK_RECORD
  5
1
330
0
100
AcDbSymbolTable
 70
    11
  0
BLOCK_RECORD
  5
1E
102
{ACAD_XDICTIONARY
360
DB
102
}
330
1
100
AcDbSymbolTableRecord
100
AcDbBlockTableRecord
  2
*Model_Space
340
21
  0
BLOCK_RECORD
  5
1A
102
{ACAD_XDICTIONARY
360
DD
102
}
330
1
100
AcDbSymbolTableRecord
100
AcDbBlockTableRecord
  2
*Paper_Space
340
1D
  0
BLOCK_RECORD
  5
22
330
1
100
AcDbSymbolTableRecord
100
AcDbBlockTableRecord
  2
LOGO
340
0
102
{BLKREFS
331
56
102
}
  0
BLOCK_RECORD
  5
23
330
1
100
AcDbSymbolTableRecord
100
AcDbBlockTableRecord
  2
LORO
340
0
102
{BLKREFS
331
51F
331
17FD
102
}
  0
BLOCK_RECORD
  5
1219
330
1
100
AcDbSymbolTableRecord
100
AcDbBlockTableRecord
  2
*D3
340
0
  0
BLOCK_RECORD
  5
1233
330
1
100
AcDbSymbolTableRecord
100
AcDbBlockTableRecord
  2
*D5
340
0
  0
BLOCK_RECORD
  5
123F
330
1
100
AcDbSymbolTableRecord
100
AcDbBlockTableRecord
  2
*D6
340
0
  0
BLOCK_RECORD
  5
124B
330
1
100
AcDbSymbolTableRecord
100
AcDbBlockTableRecord
  2
*D7
340
0
  0
BLOCK_RECORD
  5
1257
330
1
100
AcDbSymbolTableRecord
100
AcDbBlockTableRecord
  2
*D8
340
0
  0
BLOCK_RECORD
  5
1586
330
1
100
AcDbSymbolTableRecord
100
AcDbBlockTableRecord
  2
*X9
340
0
102
{BLKREFS
331
1704
102
}
  0
BLOCK_RECORD
  5
1A16
330
1
100
AcDbSymbolTableRecord
100
AcDbBlockTableRecord
  2
*D10
340
0
  0
ENDTAB
  0
ENDSEC
  0
SECTION
  2
BLOCKS
  0
BLOCK
  5
37
330
1E
100
AcDbEntity
  8
0
100
AcDbBlockBegin
  2
*Model_Space
 70
     0
 10
0.0
 20
0.0
 30
0.0
  3
*Model_Space
  1

  0
ENDBLK
  5
38
330
1E
100
AcDbEntity
  8
0
100
AcDbBlockEnd
  0
BLOCK
  5
35
330
1A
100
AcDbEntity
 67
     1
  8
0
100
AcDbBlockBegin
  2
*Paper_Space
 70
     0
 10
0.0
 20
0.0
 30
0.0
  3
*Paper_Space
  1

  0
ENDBLK
  5
36
330
1A
100
AcDbEntity
 67
     1
  8
0
100
AcDbBlockEnd
  0
BLOCK
  5
39
330
22
100
AcDbEntity
  8
0
100
AcDbBlockBegin
  2
LOGO
 70
     0
 10
0.0
 20
0.0
 30
0.0
  3
LOGO
  1

  0
ARC
  5
3A
330
22
100
AcDbEntity
  8
0
100
AcDbCircle
 10
11.59973089678112
 20
-9.271599258481501
 30
0.0
 40
4.5
100
AcDbArc
 50
270.0
 51
231.0575587310159
  0
LINE
  5
3B
330
22
100
AcDbEntity
  8
0
100
AcDbLine
 10
3.599730896781125
 20
-4.771599258481529
 30
0.0
 11
3.599730896781153
 21
-11.77159925848133
 31
0.0
  0
LINE
  5
3C
330
22
100
AcDbEntity
  8
0
100
AcDbLine
 10
2.599730896781125
 20
-4.771599258481529
 30
0.0
 11
2.599730896781153
 21
-11.77159925848133
 31
0.0
  0
CIRCLE
  5
3D
330
22
100
AcDbEntity
  8
0
100
AcDbCircle
 10
11.59973089678112
 20
-9.271599258481501
 30
0.0
 40
3.5
  0
ARC
  5
3E
330
22
100
AcDbEntity
  8
0
100
AcDbCircle
 10
31.59973089678115
 20
-9.271599258481472
 30
0.0
 40
4.5
100
AcDbArc
 50
270.0
 51
231.0575587310182
  0
LINE
  5
3F
330
22
100
AcDbEntity
  8
0
100
AcDbLine
 10
17.59973089678112
 20
-4.771599258481472
 30
0.0
 11
17.59973089678115
 21
-13.77159925848147
 31
0.0
  0
ARC
  5
40
330
22
100
AcDbEntity
  8
0
100
AcDbCircle
 10
22.59973089678116
 20
-7.271599258481472
 30
0.0
 40
2.5
100
AcDbArc
 50
293.1161887722295
 51
90.0
  0
CIRCLE
  5
41
330
22
100
AcDbEntity
  8
0
100
AcDbCircle
 10
31.59973089678115
 20
-9.271599258481472
 30
0.0
 40
3.5
  0
ARC
  5
42
330
22
100
AcDbEntity
  8
0
100
AcDbCircle
 10
4.599730896781153
 20
-11.77159925848133
 30
0.0
 40
1.0
100
AcDbArc
 50
180.0
 51
270.0
  0
ARC
  5
43
330
22
100
AcDbEntity
  8
0
100
AcDbCircle
 10
4.599730896781153
 20
-11.77159925848133
 30
0.0
 40
2.0
100
AcDbArc
 50
179.9999999999992
 51
270.0
  0
LINE
  5
44
330
22
100
AcDbEntity
  8
0
100
AcDbLine
 10
11.59973089678115
 20
-13.77159925848144
 30
0.0
 11
4.599730896781153
 21
-13.77159925848147
 31
0.0
  0
LINE
  5
45
330
22
100
AcDbEntity
  8
0
100
AcDbLine
 10
8.771303772034769
 20
-12.77159925848136
 30
0.0
 11
4.599730896781153
 21
-12.77159925848133
 31
0.0
  0
LINE
  5
46
330
22
100
AcDbEntity
  8
0
100
AcDbLine
 10
31.59973089678115
 20
-13.77159925848147
 30
0.0
 11
23.6715276665056
 21
-13.77159925848144
 31
0.0
  0
LINE
  5
47
330
22
100
AcDbEntity
  8
0
100
AcDbLine
 10
23.56565672307022
 20
-9.51278021337896
 30
0.0
 11
24.4388546544846
 21
-12.77159925848144
 31
0.0
  0
LINE
  5
48
330
22
100
AcDbEntity
  8
0
100
AcDbLine
 10
22.59973089678116
 20
-9.771599258481472
 30
0.0
 11
18.59973089678112
 21
-9.771599258481472
 31
0.0
  0
LINE
  5
49
330
22
100
AcDbEntity
  8
0
100
AcDbLine
 10
18.59973089678115
 20
-13.77159925848144
 30
0.0
 11
17.59973089678115
 21
-13.77159925848144
 31
0.0
  0
LINE
  5
4A
330
22
100
AcDbEntity
  8
0
100
AcDbLine
 10
18.59973089678115
 20
-9.771599258481472
 30
0.0
 11
18.59973089678115
 21
-13.77159925848144
 31
0.0
  0
LINE
  5
4B
330
22
100
AcDbEntity
  8
0
100
AcDbLine
 10
22.59973089678116
 20
-9.771599258481472
 30
0.0
 11
23.67152766650562
 21
-13.77159925848147
 31
0.0
  0
ARC
  5
4C
330
22
100
AcDbEntity
  8
0
100
AcDbCircle
 10
22.59973089678116
 20
-7.271599258481472
 30
0.0
 40
2.5
100
AcDbArc
 50
270.0
 51
270.0000000000007
  0
LINE
  5
4D
330
22
100
AcDbEntity
  8
0
100
AcDbLine
 10
28.77130377203494
 20
-12.77159925848147
 30
0.0
 11
24.43885465448463
 21
-12.77159925848144
 31
0.0
  0
LINE
  5
4E
330
22
100
AcDbEntity
  8
0
100
AcDbLine
 10
3.599730896781125
 20
-4.771599258481472
 30
0.0
 11
2.599730896781125
 21
-4.771599258481472
 31
0.0
  0
LINE
  5
4F
330
22
100
AcDbEntity
  8
0
100
AcDbLine
 10
22.59973089678116
 20
-8.771599258481472
 30
0.0
 11
18.59973089678115
 21
-8.771599258481472
 31
0.0
  0
LINE
  5
50
330
22
100
AcDbEntity
  8
0
100
AcDbLine
 10
22.59973089678116
 20
-5.771599258481472
 30
0.0
 11
18.59973089678115
 21
-5.771599258481472
 31
0.0
  0
LINE
  5
51
330
22
100
AcDbEntity
  8
0
100
AcDbLine
 10
22.59973089678116
 20
-4.771599258481472
 30
0.0
 11
17.59973089678115
 21
-4.771599258481472
 31
0.0
  0
LINE
  5
52
330
22
100
AcDbEntity
  8
0
100
AcDbLine
 10
18.59973089678115
 20
-5.771599258481472
 30
0.0
 11
18.59973089678115
 21
-8.771599258481472
 31
0.0
  0
ARC
  5
53
330
22
100
AcDbEntity
  8
0
100
AcDbCircle
 10
22.59973089678116
 20
-7.271599258481472
 30
0.0
 40
1.5
100
AcDbArc
 50
270.0
 51
90.0
  0
ENDBLK
  5
54
330
22
100
AcDbEntity
  8
0
100
AcDbBlockEnd
  0
BLOCK
  5
55
330
23
100
AcDbEntity
  8
0
100
AcDbBlockBegin
  2
LORO
 70
     0
 10
0.0
 20
0.0
 30
0.0
  3
LORO
  1

  0
INSERT
  5
56
330
23
100
AcDbEntity
  8
STEMPEL
100
AcDbBlockReference
  2
LOGO
 10
-1.748032802467321
 20
3.771489518552062
 30
0.0
  0
ENDBLK
  5
57
330
23
100
AcDbEntity
  8
0
100
AcDbBlockEnd
  0
BLOCK
  5
1223
330
1219
100
AcDbEntity
  8
0
100
AcDbBlockBegin
  2
*D3
 70
     1
 10
0.0
 20
0.0
 30
0.0
  3
*D3
  1

  0
LINE
  5
131B
330
1219
100
AcDbEntity
  8
BEM
 62
     0
370
    -2
100
AcDbLine
 10
240.0343301930129
 20
755.1870369371804
 30
0.0
 11
273.1933025649502
 21
755.1870369371803
 31
0.0
  0
LINE
  5
131C
330
1219
100
AcDbEntity
  8
BEM
 62
     0
370
    -2
100
AcDbLine
 10
216.9844662307018
 20
180.1870369371804
 30
0.0
 11
273.19330256495
 21
180.1870369371804
 31
0.0
  0
LINE
  5
131D
330
1219
100
AcDbEntity
  8
BEM
 62
     0
370
    -2
100
AcDbLine
 10
271.1933025649502
 20
748.1870369371803
 30
0.0
 11
271.19330256495
 21
187.1870369371804
 31
0.0
  0
SOLID
  5
131E
330
1219
100
AcDbEntity
  8
BEM
 62
     0
100
AcDbTrace
 10
270.0266358982835
 20
748.1870369371803
 30
0.0
 11
272.3599692316168
 21
748.1870369371803
 31
0.0
 12
271.1933025649502
 22
755.1870369371803
 32
0.0
 13
271.1933025649502
 23
755.1870369371803
 33
0.0
  0
SOLID
  5
131F
330
1219
100
AcDbEntity
  8
BEM
 62
     0
100
AcDbTrace
 10
270.0266358982834
 20
187.1870369371804
 30
0.0
 11
272.3599692316167
 21
187.1870369371804
 31
0.0
 12
271.19330256495
 22
180.1870369371804
 32
0.0
 13
271.19330256495
 23
180.1870369371804
 33
0.0
  0
MTEXT
  5
1320
330
1219
100
AcDbEntity
  8
BEM
 62
     1
100
AcDbMText
 10
264.69330256495
 20
467.6870369371804
 30
0.0
 40
7.0
 41
0.0
 71
     5
 72
     1
  1
\A1;575
 11
0.0000000000000001
 21
1.0
 31
0.0
 73
     1
 44
1.0
  0
POINT
  5
1321
330
1219
100
AcDbEntity
  8
DEFPOINTS
 62
     0
100
AcDbPoint
 10
238.0343301930129
 20
755.1870369371804
 30
0.0
  0
POINT
  5
1322
330
1219
100
AcDbEntity
  8
DEFPOINTS
 62
     0
100
AcDbPoint
 10
214.9844662307017
 20
180.1870369371804
 30
0.0
  0
POINT
  5
1323
330
1219
100
AcDbEntity
  8
DEFPOINTS
 62
     0
100
AcDbPoint
 10
271.19330256495
 20
180.1870369371804
 30
0.0
  0
ENDBLK
  5
1224
330
1219
100
AcDbEntity
  8
0
100
AcDbBlockEnd
  0
BLOCK
  5
123D
330
1233
100
AcDbEntity
  8
0
100
AcDbBlockBegin
  2
*D5
 70
     1
 10
0.0
 20
0.0
 30
0.0
  3
*D5
  1

  0
LINE
  5
1307
330
1233
100
AcDbEntity
  8
BEM
 62
     0
370
    -2
100
AcDbLine
 10
105.0343301930129
 20
757.1870369371804
 30
0.0
 11
105.0343301930129
 21
787.9564209205272
 31
0.0
  0
LINE
  5
1308
330
1233
100
AcDbEntity
  8
BEM
 62
     0
370
    -2
100
AcDbLine
 10
238.0343301930129
 20
757.1870369371804
 30
0.0
 11
238.0343301930129
 21
787.9564209205272
 31
0.0
  0
LINE
  5
1309
330
1233
100
AcDbEntity
  8
BEM
 62
     0
370
    -2
100
AcDbLine
 10
112.0343301930129
 20
785.9564209205272
 30
0.0
 11
231.0343301930129
 21
785.9564209205272
 31
0.0
  0
SOLID
  5
130A
330
1233
100
AcDbEntity
  8
BEM
 62
     0
100
AcDbTrace
 10
112.0343301930129
 20
787.1230875871938
 30
0.0
 11
112.0343301930129
 21
784.7897542538605
 31
0.0
 12
105.0343301930129
 22
785.9564209205272
 32
0.0
 13
105.0343301930129
 23
785.9564209205272
 33
0.0
  0
SOLID
  5
130B
330
1233
100
AcDbEntity
  8
BEM
 62
     0
100
AcDbTrace
 10
231.0343301930129
 20
787.1230875871938
 30
0.0
 11
231.0343301930129
 21
784.7897542538605
 31
0.0
 12
238.0343301930129
 22
785.9564209205272
 32
0.0
 13
238.0343301930129
 23
785.9564209205272
 33
0.0
  0
MTEXT
  5
130C
330
1233
100
AcDbEntity
  8
BEM
 62
     1
100
AcDbMText
 10
171.5343301930129
 20
792.4564209205271
 30
0.0
 40
7.0
 41
0.0
 71
     5
 72
     1
  1
\A1;%%c133
 73
     1
 44
1.0
  0
POINT
  5
130D
330
1233
100
AcDbEntity
  8
DEFPOINTS
 62
     0
100
AcDbPoint
 10
105.0343301930129
 20
755.1870369371804
 30
0.0
  0
POINT
  5
130E
330
1233
100
AcDbEntity
  8
DEFPOINTS
 62
     0
100
AcDbPoint
 10
238.0343301930129
 20
755.1870369371804
 30
0.0
  0
POINT
  5
130F
330
1233
100
AcDbEntity
  8
DEFPOINTS
 62
     0
100
AcDbPoint
 10
238.0343301930129
 20
785.9564209205272
 30
0.0
  0
ENDBLK
  5
123E
330
1233
100
AcDbEntity
  8
0
100
AcDbBlockEnd
  0
BLOCK
  5
1249
330
123F
100
AcDbEntity
  8
0
100
AcDbBlockBegin
  2
*D6
 70
     1
 10
0.0
 20
0.0
 30
0.0
  3
*D6
  1

  0
LINE
  5
12FE
330
123F
100
AcDbEntity
  8
BEM
 62
     0
370
    -2
100
AcDbLine
 10
127.034330193013
 20
184.8157064697318
 30
0.0
 11
127.034330193013
 21
155.84259462747
 31
0.0
  0
LINE
  5
12FF
330
123F
100
AcDbEntity
  8
BEM
 62
     0
370
    -2
100
AcDbLine
 10
216.0343301930129
 20
184.8157064697325
 30
0.0
 11
216.0343301930129
 21
155.84259462747
 31
0.0
  0
LINE
  5
1300
330
123F
100
AcDbEntity
  8
BEM
 62
     0
370
    -2
100
AcDbLine
 10
134.034330193013
 20
157.84259462747
 30
0.0
 11
209.0343301930129
 21
157.84259462747
 31
0.0
  0
SOLID
  5
1301
330
123F
100
AcDbEntity
  8
BEM
 62
     0
100
AcDbTrace
 10
134.034330193013
 20
159.0092612941367
 30
0.0
 11
134.034330193013
 21
156.6759279608033
 31
0.0
 12
127.034330193013
 22
157.84259462747
 32
0.0
 13
127.034330193013
 23
157.84259462747
 33
0.0
  0
SOLID
  5
1302
330
123F
100
AcDbEntity
  8
BEM
 62
     0
100
AcDbTrace
 10
209.0343301930129
 20
159.0092612941367
 30
0.0
 11
209.0343301930129
 21
156.6759279608033
 31
0.0
 12
216.0343301930129
 22
157.84259462747
 32
0.0
 13
216.0343301930129
 23
157.84259462747
 33
0.0
  0
MTEXT
  5
1303
330
123F
100
AcDbEntity
  8
BEM
 62
     1
100
AcDbMText
 10
171.534330193013
 20
164.34259462747
 30
0.0
 40
7.0
 41
0.0
 71
     5
 72
     1
  1
\A1;%%C89
 73
     1
 44
1.0
  0
POINT
  5
1304
330
123F
100
AcDbEntity
  8
DEFPOINTS
 62
     0
100
AcDbPoint
 10
127.034330193013
 20
186.8157064697318
 30
0.0
  0
POINT
  5
1305
330
123F
100
AcDbEntity
  8
DEFPOINTS
 62
     0
100
AcDbPoint
 10
216.0343301930129
 20
186.8157064697325
 30
0.0
  0
POINT
  5
1306
330
123F
100
AcDbEntity
  8
DEFPOINTS
 62
     0
100
AcDbPoint
 10
216.0343301930129
 20
157.84259462747
 30
0.0
  0
ENDBLK
  5
124A
330
123F
100
AcDbEntity
  8
0
100
AcDbBlockEnd
  0
BLOCK
  5
1255
330
124B
100
AcDbEntity
  8
0
100
AcDbBlockBegin
  2
*D7
 70
     1
 10
0.0
 20
0.0
 30
0.0
  3
*D7
  1

  0
LINE
  5
12F5
330
124B
100
AcDbEntity
  8
BEM
 62
     0
370
    -2
100
AcDbLine
 10
217.534330193013
 20
757.1870369371804
 30
0.0
 11
217.534330193013
 21
770.6552306069767
 31
0.0
  0
LINE
  5
12F6
330
124B
100
AcDbEntity
  8
BEM
 62
     0
370
    -2
100
AcDbLine
 10
125.5343301930129
 20
757.1870369371804
 30
0.0
 11
125.5343301930129
 21
770.6552306069767
 31
0.0
  0
LINE
  5
12F7
330
124B
100
AcDbEntity
  8
BEM
 62
     0
370
    -2
100
AcDbLine
 10
210.534330193013
 20
768.6552306069767
 30
0.0
 11
132.5343301930129
 21
768.6552306069767
 31
0.0
  0
SOLID
  5
12F8
330
124B
100
AcDbEntity
  8
BEM
 62
     0
100
AcDbTrace
 10
210.534330193013
 20
769.8218972736433
 30
0.0
 11
210.534330193013
 21
767.48856394031
 31
0.0
 12
217.534330193013
 22
768.6552306069767
 32
0.0
 13
217.534330193013
 23
768.6552306069767
 33
0.0
  0
SOLID
  5
12F9
330
124B
100
AcDbEntity
  8
BEM
 62
     0
100
AcDbTrace
 10
132.5343301930129
 20
769.8218972736433
 30
0.0
 11
132.5343301930129
 21
767.48856394031
 31
0.0
 12
125.5343301930129
 22
768.6552306069767
 32
0.0
 13
125.5343301930129
 23
768.6552306069767
 33
0.0
  0
MTEXT
  5
12FA
330
124B
100
AcDbEntity
  8
BEM
 62
     1
100
AcDbMText
 10
171.534330193013
 20
775.1552306069767
 30
0.0
 40
7.0
 41
0.0
 71
     5
 72
     1
  1
\A1;%%c92
 73
     1
 44
1.0
  0
POINT
  5
12FB
330
124B
100
AcDbEntity
  8
DEFPOINTS
 62
     0
100
AcDbPoint
 10
217.534330193013
 20
755.1870369371804
 30
0.0
  0
POINT
  5
12FC
330
124B
100
AcDbEntity
  8
DEFPOINTS
 62
     0
100
AcDbPoint
 10
125.5343301930129
 20
755.1870369371804
 30
0.0
  0
POINT
  5
12FD
330
124B
100
AcDbEntity
  8
DEFPOINTS
 62
     0
100
AcDbPoint
 10
125.5343301930129
 20
768.6552306069767
 30
0.0
  0
ENDBLK
  5
1256
330
124B
100
AcDbEntity
  8
0
100
AcDbBlockEnd
  0
BLOCK
  5
1261
330
1257
100
AcDbEntity
  8
0
100
AcDbBlockBegin
  2
*D8
 70
     1
 10
0.0
 20
0.0
 30
0.0
  3
*D8
  1

  0
LINE
  5
1A6F
330
1257
100
AcDbEntity
  8
BEM
 62
     0
370
    -2
100
AcDbLine
 10
240.0343301930129
 20
230.1870369371804
 30
0.0
 11
256.9794228225705
 21
230.1870369371804
 31
0.0
  0
LINE
  5
1A70
330
1257
100
AcDbEntity
  8
BEM
 62
     0
370
    -2
100
AcDbLine
 10
240.0343301930129
 20
755.1870369371804
 30
0.0
 11
256.9794228225706
 21
755.1870369371803
 31
0.0
  0
LINE
  5
1A71
330
1257
100
AcDbEntity
  8
BEM
 62
     0
370
    -2
100
AcDbLine
 10
254.9794228225705
 20
237.1870369371805
 30
0.0
 11
254.9794228225706
 21
748.1870369371804
 31
0.0
  0
SOLID
  5
1A72
330
1257
100
AcDbEntity
  8
BEM
 62
     0
100
AcDbTrace
 10
253.8127561559038
 20
237.1870369371805
 30
0.0
 11
256.1460894892372
 21
237.1870369371805
 31
0.0
 12
254.9794228225705
 22
230.1870369371804
 32
0.0
 13
254.9794228225705
 23
230.1870369371804
 33
0.0
  0
SOLID
  5
1A73
330
1257
100
AcDbEntity
  8
BEM
 62
     0
100
AcDbTrace
 10
253.8127561559039
 20
748.1870369371804
 30
0.0
 11
256.1460894892373
 21
748.1870369371803
 31
0.0
 12
254.9794228225706
 22
755.1870369371804
 32
0.0
 13
254.9794228225706
 23
755.1870369371804
 33
0.0
  0
MTEXT
  5
1A74
330
1257
100
AcDbEntity
  8
BEM
 62
     1
100
AcDbMText
 10
248.4794228225704
 20
487.6870369371804
 30
0.0
 40
7.0
 41
0.0
 71
     5
 72
     1
  1
\A1;525
 11
0.0000000000000001
 21
1.0
 31
0.0
 73
     1
 44
1.0
  0
POINT
  5
1A75
330
1257
100
AcDbEntity
  8
DEFPOINTS
 62
     0
100
AcDbPoint
 10
238.0343301930129
 20
230.1870369371804
 30
0.0
  0
POINT
  5
1A76
330
1257
100
AcDbEntity
  8
DEFPOINTS
 62
     0
100
AcDbPoint
 10
238.0343301930129
 20
755.1870369371804
 30
0.0
  0
POINT
  5
1A77
330
1257
100
AcDbEntity
  8
DEFPOINTS
 62
     0
100
AcDbPoint
 10
254.9794228225706
 20
755.1870369371804
 30
0.0
  0
ENDBLK
  5
1262
330
1257
100
AcDbEntity
  8
0
100
AcDbBlockEnd
  0
BLOCK
  5
1587
330
1586
100
AcDbEntity
  8
0
100
AcDbBlockBegin
  2
*X9
 70
     1
 10
0.0
 20
0.0
 30
0.0
  3
*X9
  1

  0
LINE
  5
1588
330
1586
100
AcDbEntity
  8
0
 62
     0
100
AcDbLine
 10
325.4365141208694
 20
210.5316621780554
 30
0.0
 11
325.4758181626154
 21
210.5709662198014
 31
0.0
  0
LINE
  5
1589
330
1586
100
AcDbEntity
  8
0
 62
     0
100
AcDbLine
 10
337.6224971661557
 20
222.7176452233417
 30
0.0
 11
338.1534561471507
 21
223.2486042043367
 31
0.0
  0
LINE
  5
158A
330
1586
100
AcDbEntity
  8
0
 62
     0
100
AcDbLine
 10
324.7313716620805
 20
210.7104031957497
 30
0.0
 11
325.4758181626154
 21
211.4548496962846
 31
0.0
  0
LINE
  5
158B
330
1586
100
AcDbEntity
  8
0
 62
     0
100
AcDbLine
 10
337.1812162912775
 20
223.1602478249467
 30
0.0
 11
337.7121043154472
 21
223.6911358491164
 31
0.0
  0
LINE
  5
158C
330
1586
100
AcDbEntity
  8
0
 62
     0
100
AcDbLine
 10
324.7313716620805
 20
211.5942866722329
 30
0.0
 11
325.4758181626154
 21
212.3387331727678
 31
0.0
  0
LINE
  5
158D
330
1586
100
AcDbEntity
  8
0
 62
     0
100
AcDbLine
 10
336.6954717793256
 20
223.558386789478
 30
0.0
 11
337.2311020395847
 21
224.0940170497371
 31
0.0
  0
LINE
  5
158E
330
1586
100
AcDbEntity
  8
0
 62
     0
100
AcDbLine
 10
324.7313716620805
 20
212.4781701487161
 30
0.0
 11
325.4758181626154
 21
213.222616649251
 31
0.0
  0
LINE
  5
158F
330
1586
100
AcDbEntity
  8
0
 62
     0
100
AcDbLine
 10
336.1638989353182
 20
223.9106974219537
 30
0.0
 11
336.709486724358
 21
224.4562852109936
 31
0.0
  0
LINE
  5
1590
330
1586
100
AcDbEntity
  8
0
 62
     0
100
AcDbLine
 10
324.7313716620805
 20
213.3620536251993
 30
0.0
 11
325.4758181626154
 21
214.1065001257342
 31
0.0
  0
LINE
  5
1591
330
1586
100
AcDbEntity
  8
0
 62
     0
100
AcDbLine
 10
335.5835239602339
 20
224.2142059233527
 30
0.0
 11
336.1451951915614
 21
224.7758771546802
 31
0.0
  0
LINE
  5
1592
330
1586
100
AcDbEntity
  8
0
 62
     0
100
AcDbLine
 10
324.7313716620805
 20
214.2459371016824
 30
0.0
 11
325.4758181626154
 21
214.9903836022173
 31
0.0
  0
LINE
  5
1593
330
1586
100
AcDbEntity
  8
0
 62
     0
100
AcDbLine
 10
334.9492191473872
 20
224.4637845869892
 30
0.0
 11
335.5347750811848
 21
225.0493405207867
 31
0.0
  0
LINE
  5
1594
330
1586
100
AcDbEntity
  8
0
 62
     0
100
AcDbLine
 10
324.7313716620805
 20
215.1298205781656
 30
0.0
 11
325.4758181626154
 21
215.8742670787005
 31
0.0
  0
LINE
  5
1595
330
1586
100
AcDbEntity
  8
0
 62
     0
100
AcDbLine
 10
334.2525718874358
 20
224.6510208035209
 30
0.0
 11
334.8728271950407
 21
225.2712761111258
 31
0.0
  0
LINE
  5
1596
330
1586
100
AcDbEntity
  8
0
 62
     0
100
AcDbLine
 10
324.7313716620805
 20
216.0137040546488
 30
0.0
 11
325.4758181626154
 21
216.7581505551837
 31
0.0
  0
LINE
  5
1597
330
1586
100
AcDbEntity
  8
0
 62
     0
100
AcDbLine
 10
333.4794514923765
 20
224.7617838849448
 30
0.0
 11
334.1509329595022
 21
225.4332653520705
 31
0.0
  0
LINE
  5
1598
330
1586
100
AcDbEntity
  8
0
 62
     0
100
AcDbLine
 10
324.7313716620805
 20
216.897587531132
 30
0.0
 11
325.4758181626154
 21
217.6420340316669
 31
0.0
  0
LINE
  5
1599
330
1586
100
AcDbEntity
  8
0
 62
     0
100
AcDbLine
 10
332.9813716620805
 20
225.147587531132
 30
0.0
 11
333.3554441470569
 21
225.5216600161084
 31
0.0
  0
LINE
  5
159A
330
1586
100
AcDbEntity
  8
0
 62
     0
100
AcDbLine
 10
326.6154463090038
 20
218.7816621780554
 30
0.0
 11
326.7427720358962
 21
218.9089879049477
 31
0.0
  0
LINE
  5
159B
330
1586
100
AcDbEntity
  8
0
 62
     0
100
AcDbLine
 10
332.6040459351883
 20
224.7702618042398
 30
0.0
 11
332.9813716620805
 21
225.147587531132
 31
0.0
  0
LINE
  5
159C
330
1586
100
AcDbEntity
  8
0
 62
     0
100
AcDbLine
 10
324.7313716620805
 20
217.7814710076152
 30
0.0
 11
325.4758181626154
 21
218.5259175081501
 31
0.0
  0
LINE
  5
159D
330
1586
100
AcDbEntity
  8
0
 62
     0
100
AcDbLine
 10
331.5701563844061
 20
224.6202557299408
 30
0.0
 11
332.4622901889078
 21
225.5123895344425
 31
0.0
  0
LINE
  5
159E
330
1586
100
AcDbEntity
  8
0
 62
     0
100
AcDbLine
 10
325.7315628325207
 20
218.7816621780554
 30
0.0
 11
326.8927781101951
 21
219.9428774557298
 31
0.0
  0
LINE
  5
159F
330
1586
100
AcDbEntity
  8
0
 62
     0
100
AcDbLine
 10
324.7313716620805
 20
218.6653544840984
 30
0.0
 11
325.5976793560375
 21
219.5316621780554
 31
0.0
  0
LINE
  5
15A0
330
1586
100
AcDbEntity
  8
0
 62
     0
100
AcDbLine
 10
330.1894097290572
 20
224.1233925510751
 30
0.0
 11
331.421715819314
 21
225.3556986413319
 31
0.0
  0
LINE
  5
15A1
330
1586
100
AcDbEntity
  8
0
 62
     0
100
AcDbLine
 10
326.1573351988041
 20
220.091318020822
 30
0.0
 11
327.3896412890608
 21
221.3236241110787
 31
0.0
  0
LINE
  5
15A2
330
1586
100
AcDbEntity
  8
0
 62
     0
100
AcDbLine
 10
326.6074660222772
 20
221.4253323207783
 30
0.0
 11
330.0877015193577
 21
224.9055678178587
 31
0.0
  0
LINE
  5
15A3
330
1586
100
AcDbEntity
  8
0
 62
     0
100
AcDbLine
 10
338.0192942243137
 20
222.2305588050165
 30
0.0
 11
338.5551432267084
 21
222.7664078074112
 31
0.0
  0
LINE
  5
15A4
330
1586
100
AcDbEntity
  8
0
 62
     0
100
AcDbLine
 10
338.3701992108119
 20
221.6975803150317
 30
0.0
 11
338.9161725546613
 21
222.2435536588809
 31
0.0
  0
LINE
  5
15A5
330
1586
100
AcDbEntity
  8
0
 62
     0
100
AcDbLine
 10
338.6721839044243
 20
221.1156815321608
 30
0.0
 11
339.2344446362812
 21
221.6779422640177
 31
0.0
  0
LINE
  5
15A6
330
1586
100
AcDbEntity
  8
0
 62
     0
100
AcDbLine
 10
338.9200428937809
 20
220.4796570450342
 30
0.0
 11
339.5064587931154
 21
221.0660729443687
 31
0.0
  0
LINE
  5
15A7
330
1586
100
AcDbEntity
  8
0
 62
     0
100
AcDbLine
 10
339.1052376170281
 20
219.7809682917983
 30
0.0
 11
339.726744732631
 21
220.4024754074011
 31
0.0
  0
LINE
  5
15A8
330
1586
100
AcDbEntity
  8
0
 62
     0
100
AcDbLine
 10
339.2134029843627
 20
219.0052501826496
 30
0.0
 11
339.8867680115265
 21
219.6786152098135
 31
0.0
  0
LINE
  5
15A9
330
1586
100
AcDbEntity
  8
0
 62
     0
100
AcDbLine
 10
339.8736984562517
 20
218.7816621780554
 30
0.0
 11
340.6236984562517
 21
219.5316621780554
 31
0.0
  0
LINE
  5
15AA
330
1586
100
AcDbEntity
  8
0
 62
     0
100
AcDbLine
 10
340.4869251615456
 20
218.5110054068662
 30
0.0
 11
341.2313716620805
 21
219.2554519074011
 31
0.0
  0
LINE
  5
15AB
330
1586
100
AcDbEntity
  8
0
 62
     0
100
AcDbLine
 10
340.4869251615456
 20
217.627121930383
 30
0.0
 11
341.2313716620805
 21
218.3715684309179
 31
0.0
  0
LINE
  5
15AC
330
1586
100
AcDbEntity
  8
0
 62
     0
100
AcDbLine
 10
340.4869251615456
 20
216.7432384538998
 30
0.0
 11
341.2313716620805
 21
217.4876849544347
 31
0.0
  0
LINE
  5
15AD
330
1586
100
AcDbEntity
  8
0
 62
     0
100
AcDbLine
 10
340.4869251615456
 20
215.8593549774166
 30
0.0
 11
341.2313716620805
 21
216.6038014779515
 31
0.0
  0
LINE
  5
15AE
330
1586
100
AcDbEntity
  8
0
 62
     0
100
AcDbLine
 10
340.4869251615456
 20
214.9754715009335
 30
0.0
 11
341.2313716620805
 21
215.7199180014683
 31
0.0
  0
LINE
  5
15AF
330
1586
100
AcDbEntity
  8
0
 62
     0
100
AcDbLine
 10
340.4869251615456
 20
214.0915880244503
 30
0.0
 11
341.2313716620805
 21
214.8360345249852
 31
0.0
  0
LINE
  5
15B0
330
1586
100
AcDbEntity
  8
0
 62
     0
100
AcDbLine
 10
340.4869251615456
 20
213.2077045479671
 30
0.0
 11
341.2313716620805
 21
213.9521510485019
 31
0.0
  0
LINE
  5
15B1
330
1586
100
AcDbEntity
  8
0
 62
     0
100
AcDbLine
 10
340.4869251615456
 20
212.3238210714839
 30
0.0
 11
341.2313716620805
 21
213.0682675720188
 31
0.0
  0
LINE
  5
15B2
330
1586
100
AcDbEntity
  8
0
 62
     0
100
AcDbLine
 10
340.4869251615456
 20
211.4399375950007
 30
0.0
 11
341.2313716620805
 21
212.1843840955356
 31
0.0
  0
LINE
  5
15B3
330
1586
100
AcDbEntity
  8
0
 62
     0
100
AcDbLine
 10
340.4869251615456
 20
210.5560541185175
 30
0.0
 11
341.2313716620805
 21
211.3005006190524
 31
0.0
  0
LINE
  5
15B4
330
1586
100
AcDbEntity
  8
0
 62
     0
100
AcDbLine
 10
328.1557987718817
 20
222.5036070771421
 30
0.0
 11
327.6232465008
 21
223.0361593482238
 31
0.0
  0
LINE
  5
15B5
330
1586
100
AcDbEntity
  8
0
 62
     0
100
AcDbLine
 10
327.7794284784955
 20
221.9960938940452
 30
0.0
 11
327.2397047373217
 21
222.535817635219
 31
0.0
  0
LINE
  5
15B6
330
1586
100
AcDbEntity
  8
0
 62
     0
100
AcDbLine
 10
327.4500910387705
 20
221.441547857287
 30
0.0
 11
326.8976172935869
 21
221.9940216024706
 31
0.0
  0
LINE
  5
15B7
330
1586
100
AcDbEntity
  8
0
 62
     0
100
AcDbLine
 10
327.1717008030955
 20
220.8360546164788
 30
0.0
 11
326.5996660449972
 21
221.4080893745771
 31
0.0
  0
LINE
  5
15B8
330
1586
100
AcDbEntity
  8
0
 62
     0
100
AcDbLine
 10
326.9507687558025
 20
220.1731031872887
 30
0.0
 11
326.3501462089371
 21
220.773725734154
 31
0.0
  0
LINE
  5
15B9
330
1586
100
AcDbEntity
  8
0
 62
     0
100
AcDbLine
 10
326.798019669841
 20
219.4419687967669
 30
0.0
 11
326.1557263795717
 21
220.0842620870362
 31
0.0
  0
LINE
  5
15BA
330
1586
100
AcDbEntity
  8
0
 62
     0
100
AcDbLine
 10
326.5744428120694
 20
218.7816621780554
 30
0.0
 11
325.8244428120694
 21
219.5316621780554
 31
0.0
  0
LINE
  5
15BB
330
1586
100
AcDbEntity
  8
0
 62
     0
100
AcDbLine
 10
325.6905593355861
 20
218.7816621780554
 30
0.0
 11
324.9405593355862
 21
219.5316621780554
 31
0.0
  0
LINE
  5
15BC
330
1586
100
AcDbEntity
  8
0
 62
     0
100
AcDbLine
 10
325.4758181626154
 20
218.112519874543
 30
0.0
 11
324.7313716620805
 21
218.8569663750779
 31
0.0
  0
LINE
  5
15BD
330
1586
100
AcDbEntity
  8
0
 62
     0
100
AcDbLine
 10
325.4758181626154
 20
217.2286363980598
 30
0.0
 11
324.7313716620805
 21
217.9730828985947
 31
0.0
  0
LINE
  5
15BE
330
1586
100
AcDbEntity
  8
0
 62
     0
100
AcDbLine
 10
325.4758181626154
 20
216.3447529215766
 30
0.0
 11
324.7313716620805
 21
217.0891994221115
 31
0.0
  0
LINE
  5
15BF
330
1586
100
AcDbEntity
  8
0
 62
     0
100
AcDbLine
 10
325.4758181626154
 20
215.4608694450935
 30
0.0
 11
324.7313716620805
 21
216.2053159456283
 31
0.0
  0
LINE
  5
15C0
330
1586
100
AcDbEntity
  8
0
 62
     0
100
AcDbLine
 10
325.4758181626154
 20
214.5769859686102
 30
0.0
 11
324.7313716620805
 21
215.3214324691452
 31
0.0
  0
LINE
  5
15C1
330
1586
100
AcDbEntity
  8
0
 62
     0
100
AcDbLine
 10
325.4758181626154
 20
213.693102492127
 30
0.0
 11
324.7313716620805
 21
214.437548992662
 31
0.0
  0
LINE
  5
15C2
330
1586
100
AcDbEntity
  8
0
 62
     0
100
AcDbLine
 10
325.4758181626154
 20
212.8092190156439
 30
0.0
 11
324.7313716620805
 21
213.5536655161788
 31
0.0
  0
LINE
  5
15C3
330
1586
100
AcDbEntity
  8
0
 62
     0
100
AcDbLine
 10
325.4758181626154
 20
211.9253355391607
 30
0.0
 11
324.7313716620805
 21
212.6697820396956
 31
0.0
  0
LINE
  5
15C4
330
1586
100
AcDbEntity
  8
0
 62
     0
100
AcDbLine
 10
325.4758181626154
 20
211.0414520626775
 30
0.0
 11
324.7313716620805
 21
211.7858985632124
 31
0.0
  0
LINE
  5
15C5
330
1586
100
AcDbEntity
  8
0
 62
     0
100
AcDbLine
 10
325.1017245707544
 20
210.5316621780554
 30
0.0
 11
324.7313716620805
 21
210.9020150867292
 31
0.0
  0
LINE
  5
15C6
330
1586
100
AcDbEntity
  8
0
 62
     0
100
AcDbLine
 10
341.0116271474517
 20
210.5316621780554
 30
0.0
 11
340.4869251615456
 21
211.0563641639614
 31
0.0
  0
LINE
  5
15C7
330
1586
100
AcDbEntity
  8
0
 62
     0
100
AcDbLine
 10
328.5771079136893
 20
222.9661814118178
 30
0.0
 11
328.0467750537135
 21
223.4965142717935
 31
0.0
  0
LINE
  5
15C8
330
1586
100
AcDbEntity
  8
0
 62
     0
100
AcDbLine
 10
341.2313716620805
 20
211.1958011399097
 30
0.0
 11
340.4869251615456
 21
211.9402476404446
 31
0.0
  0
LINE
  5
15C9
330
1586
100
AcDbEntity
  8
0
 62
     0
100
AcDbLine
 10
329.042723057233
 20
223.3844497447572
 30
0.0
 11
328.5098422052155
 21
223.9173305967747
 31
0.0
  0
LINE
  5
15CA
330
1586
100
AcDbEntity
  8
0
 62
     0
100
AcDbLine
 10
341.2313716620805
 20
212.0796846163929
 30
0.0
 11
340.4869251615456
 21
212.8241311169278
 31
0.0
  0
LINE
  5
15CB
330
1586
100
AcDbEntity
  8
0
 62
     0
100
AcDbLine
 10
329.5533713458117
 20
223.7576849326617
 30
0.0
 11
329.0129627403728
 21
224.2980935381006
 31
0.0
  0
LINE
  5
15CC
330
1586
100
AcDbEntity
  8
0
 62
     0
100
AcDbLine
 10
341.2313716620805
 20
212.963568092876
 30
0.0
 11
340.4869251615456
 21
213.708014593411
 31
0.0
  0
LINE
  5
15CD
330
1586
100
AcDbEntity
  8
0
 62
     0
100
AcDbLine
 10
330.1112564454982
 20
224.0836833094584
 30
0.0
 11
329.5576792847347
 21
224.6372604702219
 31
0.0
  0
LINE
  5
15CE
330
1586
100
AcDbEntity
  8
0
 62
     0
100
AcDbLine
 10
341.2313716620805
 20
213.8474515693592
 30
0.0
 11
340.4869251615456
 21
214.5918980698942
 31
0.0
  0
LINE
  5
15CF
330
1586
100
AcDbEntity
  8
0
 62
     0
100
AcDbLine
 10
330.7204393950377
 20
224.3583838364021
 30
0.0
 11
330.1467684958794
 21
224.9320547355604
 31
0.0
  0
LINE
  5
15D0
330
1586
100
AcDbEntity
  8
0
 62
     0
100
AcDbLine
 10
341.2313716620805
 20
214.7313350458424
 30
0.0
 11
340.4869251615456
 21
215.4757815463773
 31
0.0
  0
LINE
  5
15D1
330
1586
100
AcDbEntity
  8
0
 62
     0
100
AcDbLine
 10
331.3876543327777
 20
224.5750523751453
 30
0.0
 11
330.7846582723917
 21
225.1780484355313
 31
0.0
  0
LINE
  5
15D2
330
1586
100
AcDbEntity
  8
0
 62
     0
100
AcDbLine
 10
341.2313716620805
 20
215.6152185223256
 30
0.0
 11
340.4869251615456
 21
216.3596650228605
 31
0.0
  0
LINE
  5
15D3
330
1586
100
AcDbEntity
  8
0
 62
     0
100
AcDbLine
 10
332.1240124673378
 20
224.7225777170684
 30
0.0
 11
331.4782224750612
 21
225.368367709345
 31
0.0
  0
LINE
  5
15D4
330
1586
100
AcDbEntity
  8
0
 62
     0
100
AcDbLine
 10
341.2313716620805
 20
216.4991019988088
 30
0.0
 11
340.4869251615456
 21
217.2435484993437
 31
0.0
  0
LINE
  5
15D5
330
1586
100
AcDbEntity
  8
0
 62
     0
100
AcDbLine
 10
332.9488958576332
 20
224.7815778032561
 30
0.0
 11
332.2383568309636
 21
225.4921168299257
 31
0.0
  0
LINE
  5
15D6
330
1586
100
AcDbEntity
  8
0
 62
     0
100
AcDbLine
 10
341.2313716620805
 20
217.382985475292
 30
0.0
 11
340.4869251615456
 21
218.1274319758269
 31
0.0
  0
LINE
  5
15D7
330
1586
100
AcDbEntity
  8
0
 62
     0
100
AcDbLine
 10
333.9006739933436
 20
224.713683144029
 30
0.0
 11
333.0834391250875
 21
225.530918012285
 31
0.0
  0
LINE
  5
15D8
330
1586
100
AcDbEntity
  8
0
 62
     0
100
AcDbLine
 10
339.8326949593171
 20
218.7816621780554
 30
0.0
 11
339.1633926280541
 21
219.4509645093185
 31
0.0
  0
LINE
  5
15D9
330
1586
100
AcDbEntity
  8
0
 62
     0
100
AcDbLine
 10
341.2313716620805
 20
218.2668689517752
 30
0.0
 11
339.9665784358003
 21
219.5316621780554
 31
0.0
  0
LINE
  5
15DA
330
1586
100
AcDbEntity
  8
0
 62
     0
100
AcDbLine
 10
335.0791483562753
 20
224.4190922575803
 30
0.0
 11
334.0483779824878
 21
225.4498626313679
 31
0.0
  0
LINE
  5
15DB
330
1586
100
AcDbEntity
  8
0
 62
     0
100
AcDbLine
 10
339.899572115393
 20
219.5986684984627
 30
0.0
 11
338.8688017416054
 21
220.6294388722503
 31
0.0
  0
LINE
  5
15DC
330
1586
100
AcDbEntity
  8
0
 62
     0
100
AcDbLine
 10
341.2313716620805
 20
219.1507524282584
 30
0.0
 11
340.8504619122834
 21
219.5316621780554
 31
0.0
  0
LINE
  5
15DD
330
1586
100
AcDbEntity
  8
0
 62
     0
100
AcDbLine
 10
339.6147368192537
 20
220.7673872710852
 30
0.0
 11
335.2170967551103
 21
225.1650273352286
 31
0.0
  0
LINE
  5
15DE
330
1586
100
AcDbEntity
  8
0
 62
     0
100
AcDbLine
 10
338.7063135163592
 20
222.5596940504629
 30
0.0
 11
337.009403534488
 21
224.2566040323341
 31
0.0
  0
ENDBLK
  5
15DF
330
1586
100
AcDbEntity
  8
0
100
AcDbBlockEnd
  0
BLOCK
  5
1A20
330
1A16
100
AcDbEntity
  8
0
100
AcDbBlockBegin
  2
*D10
 70
     1
 10
0.0
 20
0.0
 30
0.0
  3
*D10
  1

  0
LINE
  5
1A5D
330
1A16
100
AcDbEntity
  8
SCHRAFF
 62
     0
370
    -2
100
AcDbLine
 10
411.2041648102816
 20
180.1870369371804
 30
0.0
 11
453.8734695507118
 21
180.1870369371804
 31
0.0
  0
LINE
  5
1A5E
330
1A16
100
AcDbEntity
  8
SCHRAFF
 62
     0
370
    -2
100
AcDbLine
 10
426.284496644264
 20
540.1870369371804
 30
0.0
 11
453.8734695507119
 21
540.1870369371804
 31
0.0
  0
LINE
  5
1A5F
330
1A16
100
AcDbEntity
  8
SCHRAFF
 62
     0
370
    -2
100
AcDbLine
 10
451.8734695507118
 20
187.1870369371804
 30
0.0
 11
451.8734695507118
 21
533.1870369371804
 31
0.0
  0
SOLID
  5
1A60
330
1A16
100
AcDbEntity
  8
SCHRAFF
 62
     0
100
AcDbTrace
 10
450.7068028840451
 20
187.1870369371804
 30
0.0
 11
453.0401362173785
 21
187.1870369371804
 31
0.0
 12
451.8734695507118
 22
180.1870369371804
 32
0.0
 13
451.8734695507118
 23
180.1870369371804
 33
0.0
  0
SOLID
  5
1A61
330
1A16
100
AcDbEntity
  8
SCHRAFF
 62
     0
100
AcDbTrace
 10
450.7068028840452
 20
533.1870369371804
 30
0.0
 11
453.0401362173785
 21
533.1870369371804
 31
0.0
 12
451.8734695507118
 22
540.1870369371804
 32
0.0
 13
451.8734695507118
 23
540.1870369371804
 33
0.0
  0
MTEXT
  5
1A62
330
1A16
100
AcDbEntity
  8
SCHRAFF
 62
     1
100
AcDbMText
 10
445.3734695507117
 20
360.1870369371805
 30
0.0
 40
7.0
 41
0.0
 71
     5
 72
     1
  1
\A1;360
 11
0.0000000000000001
 21
1.0
 31
0.0
 73
     1
 44
1.0
  0
POINT
  5
1A63
330
1A16
100
AcDbEntity
  8
DEFPOINTS
 62
     0
100
AcDbPoint
 10
409.2041648102816
 20
180.1870369371804
 30
0.0
  0
POINT
  5
1A64
330
1A16
100
AcDbEntity
  8
DEFPOINTS
 62
     0
100
AcDbPoint
 10
424.284496644264
 20
540.1870369371804
 30
0.0
  0
POINT
  5
1A65
330
1A16
100
AcDbEntity
  8
DEFPOINTS
 62
     0
100
AcDbPoint
 10
451.8734695507118
 20
540.1870369371804
 30
0.0
  0
ENDBLK
  5
1A21
330
1A16
100
AcDbEntity
  8
0
100
AcDbBlockEnd
  0
ENDSEC
  0
SECTION
  2
ENTITIES
  0
LINE
  5
87
330
1E
100
AcDbEntity
  8
HILF
100
AcDbLine
 10
594.0
 20
-0.0000000000000568
 30
0.0
 11
594.0
 21
840.0
 31
0.0
  0
LINE
  5
88
330
1E
100
AcDbEntity
  8
HILF
100
AcDbLine
 10
594.0
 20
840.0
 30
0.0
 11
0.0
 21
840.0
 31
0.0
  0
LINE
  5
89
330
1E
100
AcDbEntity
  8
HILF
100
AcDbLine
 10
0.0
 20
840.0
 30
0.0
 11
0.0
 21
0.0
 31
0.0
  0
LINE
  5
8B
330
1E
100
AcDbEntity
  8
STEMPEL
100
AcDbLine
 10
10.0
 20
830.0
 30
0.0
 11
10.0
 21
39.99999999999995
 31
0.0
  0
LINE
  5
8D
330
1E
100
AcDbEntity
  8
STEMPEL
100
AcDbLine
 10
584.0
 20
39.99999999999995
 30
0.0
 11
584.0
 21
830.0
 31
0.0
  0
LINE
  5
8E
330
1E
100
AcDbEntity
  8
STEMPEL
100
AcDbLine
 10
584.0
 20
830.0
 30
0.0
 11
10.0
 21
830.0
 31
0.0
  0
LINE
  5
9C
330
1E
100
AcDbEntity
  8
BEM
100
AcDbLine
 10
594.0
 20
455.9999999999999
 30
0.0
 11
584.0
 21
455.9999999999999
 31
0.0
  0
LINE
  5
13E
330
1E
100
AcDbEntity
  8
HILF
100
AcDbLine
 10
594.0
 20
-0.0000000000000568
 30
0.0
 11
0.0
 21
0.0
 31
0.0
  0
LINE
  5
13F
330
1E
100
AcDbEntity
  8
STEMPEL
100
AcDbLine
 10
584.0
 20
39.99999999999995
 30
0.0
 11
10.0
 21
39.99999999999995
 31
0.0
  0
LINE
  5
14A
330
1E
100
AcDbEntity
  8
HILF
100
AcDbLine
 10
297.0
 20
-0.0000000000000568
 30
0.0
 11
297.0
 21
39.99999999999995
 31
0.0
  0
TEXT
  5
15B
330
1E
100
AcDbEntity
  8
BEM
100
AcDbText
 10
583.8320989200114
 20
837.3022923857165
 30
0.0
 40
4.0
  1
Diese Zeichnung ist urheberrechtlich geschützt und bleibt unser Eigentum. Sie darf weder ganz noch teilweise verfielfältigt und nicht an Dritte weitergegeben werden.
 50
180.0
 41
0.8
  7
GREEKS
100
AcDbText
  0
TEXT
  5
51E
330
1E
100
AcDbEntity
  8
TEXT
100
AcDbText
 10
506.678711924761
 20
612.2898419893275
 30
0.0
 40
4.0
  1
DIN EN1123-2
 50
90.0
 41
0.8
  7
GREEKS
 72
     1
 11
506.678711924761
 21
629.2803181798038
 31
0.0
100
AcDbText
  0
INSERT
  5
51F
330
1E
100
AcDbEntity
  8
HILF
100
AcDbBlockReference
  2
LORO
 10
557.0194069970104
 20
573.0624985962354
 30
0.0
 41
2.0
 42
2.0
 43
2.0
 50
90.0
  0
TEXT
  5
520
330
1E
100
AcDbEntity
  8
TEXT
100
AcDbText
 10
479.8856414948956
 20
470.0441139350127
 30
0.0
 40
5.0
  1
Erstellt mit AUTOCAD 2004
 50
90.0
 41
0.8
  7
GREEKS
100
AcDbText
  0
TEXT
  5
521
330
1E
100
AcDbEntity
  8
TEXT
 62
     1
100
AcDbText
 10
506.5292291158502
 20
582.703491203422
 30
0.0
 40
7.0
  1
1:2
 50
90.0
 41
0.8
  7
GREEKS
100
AcDbText
  0
TEXT
  5
522
330
1E
100
AcDbEntity
  8
TEXT
100
AcDbText
 10
550.6887237520849
 20
654.1676050109347
 30
0.0
 40
4.0
  1
58054080W.DWG
 50
90.0
 41
0.8
  7
GREEKS
100
AcDbText
  0
TEXT
  5
523
330
1E
100
AcDbEntity
  8
TEXT
100
AcDbText
 10
541.4090266215394
 20
654.3410940884991
 30
0.0
 40
5.0
  1
EDV-Art.Nr. 58054.080X
 50
90.0
 41
0.8
  7
GREEKS
100
AcDbText
  0
TEXT
  5
524
330
1E
100
AcDbEntity
  8
TEXT
100
AcDbText
 10
531.6544091479096
 20
654.3410940884991
 30
0.0
 40
5.0
  1
Reinigungsöffnung
 50
90.0
 41
0.8
  7
GREEKS
100
AcDbText
  0
TEXT
  5
525
330
1E
100
AcDbEntity
  8
TEXT
100
AcDbText
 10
521.8997861689246
 20
654.3410940884991
 30
0.0
 40
5.0
  1
Reinigungsrohr mit runder
 50
90.0
 41
0.8
  7
GREEKS
100
AcDbText
  0
TEXT
  5
526
330
1E
100
AcDbEntity
  8
TEXT
100
AcDbText
 10
531.0570234483452
 20
624.0231753226609
 30
0.0
 40
4.0
  1
Koeh
 50
90.0
 41
0.8
  7
GREEKS
 72
     1
 11
531.0570234483452
 21
629.2803181798038
 31
0.0
100
AcDbText
  0
TEXT
  5
527
330
1E
100
AcDbEntity
  8
TEXT
100
AcDbText
 10
530.8491412387978
 20
590.1565237511869
 30
0.0
 40
4.0
  1
07.04.
 50
90.0
 41
0.8
  7
GREEKS
 72
     1
 11
530.8491412387978
 21
597.1660475607107
 31
0.0
100
AcDbText
  0
TEXT
  5
528
330
1E
100
AcDbEntity
  8
TEXT
100
AcDbText
 10
491.16010388621
 20
618.5090226415829
 30
0.0
 40
5.0
  1
Zul.Abw.
 50
90.0
 41
0.8
  7
GREEKS
100
AcDbText
  0
TEXT
  5
529
330
1E
100
AcDbEntity
  8
TEXT
 62
     1
100
AcDbText
 10
506.6265692434746
 20
766.1294755517469
 30
0.0
 40
7.0
  1
58054080W
 50
90.0
 41
0.8
  7
GREEKS
 72
     1
 11
506.6265692434746
 21
790.1294755517469
 31
0.0
100
AcDbText
  0
TEXT
  5
52A
330
1E
100
AcDbEntity
  8
TEXT
 62
     1
100
AcDbText
 10
506.6265692434746
 20
655.0390572473189
 30
0.0
 40
7.0
  1
Verbundrohr DN80
 50
90.0
 41
0.8
  7
GREEKS
100
AcDbText
  0
TEXT
  5
52B
330
1E
100
AcDbEntity
  8
TEXT
100
AcDbText
 10
521.0331740347627
 20
568.8693027807324
 30
0.0
 40
4.0
  1
2011
 50
90.0
 41
0.8
  7
GREEKS
100
AcDbText
  0
TEXT
  5
52C
330
1E
100
AcDbEntity
  8
TEXT
100
AcDbText
 10
541.925838221214
 20
757.2400861497007
 30
0.0
 40
5.0
  1
ersetzt durch:
 50
90.0
 41
0.8
  7
GREEKS
100
AcDbText
  0
TEXT
  5
52D
330
1E
100
AcDbEntity
  8
TEXT
100
AcDbText
 10
550.470536103502
 20
567.6006777387303
 30
0.0
 40
4.0
  1
Norm.
 50
90.0
 41
0.8
  7
GREEKS
100
AcDbText
  0
TEXT
  5
52E
330
1E
100
AcDbEntity
  8
TEXT
100
AcDbText
 10
540.3107370857163
 20
567.5515086571672
 30
0.0
 40
4.0
  1
Gepr.
 50
90.0
 41
0.8
  7
GREEKS
100
AcDbText
  0
TEXT
  5
52F
330
1E
100
AcDbEntity
  8
TEXT
100
AcDbText
 10
530.3700963038204
 20
567.5836127167615
 30
0.0
 40
4.0
  1
Gez.
 50
90.0
 41
0.8
  7
GREEKS
100
AcDbText
  0
TEXT
  5
530
330
1E
100
AcDbEntity
  8
TEXT
100
AcDbText
 10
520.6903890808478
 20
622.4626584226296
 30
0.0
 40
4.0
  1
Name
 50
90.0
 41
0.8
  7
GREEKS
100
AcDbText
  0
TEXT
  5
531
330
1E
100
AcDbEntity
  8
TEXT
100
AcDbText
 10
520.6811949877008
 20
592.3311673153651
 30
0.0
 40
4.0
  1
Tag
 50
90.0
 41
0.8
  7
GREEKS
100
AcDbText
  0
TEXT
  5
532
330
1E
100
AcDbEntity
  8
TEXT
100
AcDbText
 10
575.4067578303359
 20
548.9795678138292
 30
0.0
 40
4.0
  1
Name
 50
90.0
 41
0.8
  7
GREEKS
 72
     1
 11
575.4067578303359
 21
555.3033773376387
 31
0.0
100
AcDbText
  0
TEXT
  5
533
330
1E
100
AcDbEntity
  8
TEXT
100
AcDbText
 10
575.3284373066019
 20
529.8990113186978
 30
0.0
 40
4.0
  1
Tag
 50
90.0
 41
0.8
  7
GREEKS
 72
     1
 11
575.3284373066019
 21
533.6323446520311
 31
0.0
100
AcDbText
  0
TEXT
  5
534
330
1E
100
AcDbEntity
  8
TEXT
100
AcDbText
 10
580.3453415397281
 20
478.2664110704577
 30
0.0
 40
4.0
  1
Index
 50
180.0
 41
0.8
  7
GREEKS
100
AcDbText
  0
TEXT
  5
535
330
1E
100
AcDbEntity
  8
TEXT
100
AcDbText
 10
520.8188176290003
 20
756.7238616296995
 30
0.0
 40
5.0
  1
Ersatz für:
 50
90.0
 41
0.8
  7
GREEKS
100
AcDbText
  0
TEXT
  5
536
330
1E
100
AcDbEntity
  8
TEXT
100
AcDbText
 10
563.1543942980694
 20
654.7422383911359
 30
0.0
 40
5.0
  1
Bauvorhaben
 50
90.0
 41
0.8
  7
GREEKS
100
AcDbText
  0
TEXT
  5
537
330
1E
100
AcDbEntity
  8
TEXT
100
AcDbText
 10
491.6867965462863
 20
756.1787549576343
 30
0.0
 40
5.0
  1
Zeichnungs Nr.
 50
90.0
 41
0.8
  7
GREEKS
100
AcDbText
  0
TEXT
  5
538
330
1E
100
AcDbEntity
  8
TEXT
100
AcDbText
 10
491.4510671988221
 20
654.8779403809009
 30
0.0
 40
5.0
  1
Benennung
 50
90.0
 41
0.8
  7
GREEKS
100
AcDbText
  0
TEXT
  5
539
330
1E
100
AcDbEntity
  8
TEXT
100
AcDbText
 10
491.5379104912911
 20
573.5163572150376
 30
0.0
 40
5.0
  1
Maßstab
 50
90.0
 41
0.8
  7
GREEKS
100
AcDbText
  0
TEXT
  5
53A
330
1E
100
AcDbEntity
  8
TEXT
100
AcDbText
 10
575.3261810501587
 20
492.3998239263297
 30
0.0
 40
4.0
  1
Änderung
 50
90.0
 41
0.8
  7
GREEKS
 72
     1
 11
575.3261810501587
 21
503.1426810691868
 31
0.0
100
AcDbText
  0
LINE
  5
53B
330
1E
100
AcDbEntity
  8
HILF
100
AcDbLine
 10
579.1060174197169
 20
654.7736801096948
 30
0.0
 11
579.1060174197169
 21
824.858883932673
 31
0.0
  0
LINE
  5
53C
330
1E
100
AcDbEntity
  8
HILF
100
AcDbLine
 10
510.2201636304418
 20
756.7238616296995
 30
0.0
 11
510.2201636304418
 21
824.858883932673
 31
0.0
  0
LINE
  5
53D
330
1E
100
AcDbEntity
  8
VOLL
100
AcDbLine
 10
534.0
 20
752.0000000000002
 30
0.0
 11
534.0
 21
830.0000000000002
 31
0.0
  0
LINE
  5
53E
330
1E
100
AcDbEntity
  8
HILF
100
AcDbLine
 10
544.0
 20
654.7736801096948
 30
0.0
 11
544.0
 21
746.6297842514811
 31
0.0
  0
LINE
  5
53F
330
1E
100
AcDbEntity
  8
HILF
100
AcDbLine
 10
534.0
 20
654.7736801096948
 30
0.0
 11
534.0
 21
746.6297842514811
 31
0.0
  0
LINE
  5
540
330
1E
100
AcDbEntity
  8
HILF
100
AcDbLine
 10
524.0
 20
654.7736801096948
 30
0.0
 11
524.0
 21
746.6297842514811
 31
0.0
  0
LINE
  5
541
330
1E
100
AcDbEntity
  8
HILF
100
AcDbLine
 10
509.9624175243587
 20
654.7736801096948
 30
0.0
 11
509.9624175243587
 21
746.6297842514811
 31
0.0
  0
LINE
  5
542
330
1E
100
AcDbEntity
  8
HILF
100
AcDbLine
 10
544.0
 20
566.0000000000002
 30
0.0
 11
544.0
 21
650.0
 31
0.0
  0
LINE
  5
543
330
1E
100
AcDbEntity
  8
HILF
100
AcDbLine
 10
534.0
 20
566.0000000000002
 30
0.0
 11
534.0
 21
650.0
 31
0.0
  0
LINE
  5
544
330
1E
100
AcDbEntity
  8
HILF
100
AcDbLine
 10
524.0
 20
566.0000000000002
 30
0.0
 11
524.0
 21
650.0
 31
0.0
  0
LINE
  5
545
330
1E
100
AcDbEntity
  8
HILF
100
AcDbLine
 10
554.0
 20
470.0000000000001
 30
0.0
 11
554.0
 21
566.0000000000002
 31
0.0
  0
LINE
  5
546
330
1E
100
AcDbEntity
  8
HILF
100
AcDbLine
 10
544.0
 20
470.0000000000001
 30
0.0
 11
544.0
 21
566.0000000000002
 31
0.0
  0
LINE
  5
547
330
1E
100
AcDbEntity
  8
HILF
100
AcDbLine
 10
534.0
 20
470.0000000000001
 30
0.0
 11
534.0
 21
566.0000000000002
 31
0.0
  0
LINE
  5
548
330
1E
100
AcDbEntity
  8
HILF
100
AcDbLine
 10
524.0
 20
470.0000000000001
 30
0.0
 11
524.0
 21
566.0000000000002
 31
0.0
  0
LINE
  5
549
330
1E
100
AcDbEntity
  8
HILF
100
AcDbLine
 10
514.0
 20
470.0000000000001
 30
0.0
 11
514.0
 21
566.0000000000002
 31
0.0
  0
LINE
  5
54A
330
1E
100
AcDbEntity
  8
HILF
100
AcDbLine
 10
504.0
 20
470.0000000000001
 30
0.0
 11
504.0
 21
566.0000000000002
 31
0.0
  0
LINE
  5
54B
330
1E
100
AcDbEntity
  8
HILF
100
AcDbLine
 10
494.0
 20
470.0000000000001
 30
0.0
 11
494.0
 21
566.0000000000002
 31
0.0
  0
LINE
  5
54C
330
1E
100
AcDbEntity
  8
VOLL
100
AcDbLine
 10
484.0000000000002
 20
610.0000000000002
 30
0.0
 11
554.0
 21
610.0
 31
0.0
  0
LINE
  5
54D
330
1E
100
AcDbEntity
  8
VOLL
100
AcDbLine
 10
514.0
 20
584.0000000000002
 30
0.0
 11
554.0
 21
584.0000000000002
 31
0.0
  0
LINE
  5
54E
330
1E
100
AcDbEntity
  8
VOLL
100
AcDbLine
 10
484.0000000000001
 20
544.0000000000002
 30
0.0
 11
584.0000000000001
 21
544.0
 31
0.0
  0
LINE
  5
54F
330
1E
100
AcDbEntity
  8
VOLL
100
AcDbLine
 10
484.0000000000001
 20
524.0000000000001
 30
0.0
 11
584.0000000000001
 21
524.0
 31
0.0
  0
LINE
  5
550
330
1E
100
AcDbEntity
  8
VOLL
100
AcDbLine
 10
484.0
 20
484.0000000000001
 30
0.0
 11
584.0
 21
484.0
 31
0.0
  0
LINE
  5
551
330
1E
100
AcDbEntity
  8
STEMPEL
100
AcDbLine
 10
514.0
 20
830.0000000000002
 30
0.0
 11
514.0
 21
566.0000000000002
 31
0.0
  0
LINE
  5
552
330
1E
100
AcDbEntity
  8
STEMPEL
100
AcDbLine
 10
554.0
 20
830.0000000000002
 30
0.0
 11
554.0
 21
566.0
 31
0.0
  0
LINE
  5
553
330
1E
100
AcDbEntity
  8
STEMPEL
100
AcDbLine
 10
564.0
 20
566.0
 30
0.0
 11
564.0
 21
470.0000000000001
 31
0.0
  0
LINE
  5
554
330
1E
100
AcDbEntity
  8
STEMPEL
100
AcDbLine
 10
484.0000000000003
 20
752.0000000000002
 30
0.0
 11
554.0
 21
752.0000000000002
 31
0.0
  0
LINE
  5
555
330
1E
100
AcDbEntity
  8
STEMPEL
100
AcDbLine
 10
484.0
 20
650.0
 30
0.0
 11
584.0
 21
650.0
 31
0.0
  0
LINE
  5
556
330
1E
100
AcDbEntity
  8
STEMPEL
100
AcDbLine
 10
484.0000000000001
 20
566.0000000000002
 30
0.0
 11
584.0000000000001
 21
566.0
 31
0.0
  0
LINE
  5
557
330
1E
100
AcDbEntity
  8
STEMPEL
100
AcDbLine
 10
484.0
 20
470.0000000000001
 30
0.0
 11
584.0
 21
470.0000000000001
 31
0.0
  0
LINE
  5
558
330
1E
100
AcDbEntity
  8
STEMPEL
100
AcDbLine
 10
484.0
 20
830.0000000000002
 30
0.0
 11
484.0
 21
470.0000000000001
 31
0.0
  0
TEXT
  5
559
330
1E
100
AcDbEntity
  8
TEXT
 62
     1
100
AcDbText
 10
527.9174041819253
 20
305.9498287315037
 30
0.0
 40
7.0
  1
und innenbeschichtet
 50
90.0
 41
0.8
  7
GREEKS
100
AcDbText
  0
TEXT
  5
55A
330
1E
100
AcDbEntity
  8
TEXT
 62
     1
100
AcDbText
 10
540.5122395673074
 20
250.8008892107925
 30
0.0
 40
7.0
  1
Dämmung: 2 K-PU-Schaum
 50
90.0
 41
0.8
  7
GREEKS
100
AcDbText
  0
TEXT
  5
55B
330
1E
100
AcDbEntity
  8
TEXT
 62
     1
100
AcDbText
 10
516.6483503426995
 20
258.2952998554897
 30
0.0
 40
7.0
  1
Innenrohr: E195 EN10305 feuerverzinkt
 50
90.0
 41
0.8
  7
GREEKS
100
AcDbText
  0
TEXT
  5
55C
330
1E
100
AcDbEntity
  8
TEXT
 62
     1
100
AcDbText
 10
505.2952823063447
 20
254.5230824846258
 30
0.0
 40
7.0
  1
Außenrohr: E195 EN10305 feuerverzinkt
 50
90.0
 41
0.8
  7
GREEKS
100
AcDbText
  0
HATCH
  5
11BA
330
1E
100
AcDbEntity
  8
SCHRAFF
100
AcDbHatch
 10
0.0
 20
0.0
 30
0.0
210
0.0
220
0.0
230
1.0
  2
NET
 70
     0
 71
     1
 91
        2
 92
        7
 72
     1
 73
     1
 93
        7
 10
234.0454394201285
 20
741.1870369371804
 42
0.0
 10
235.0803389168311
 20
742.1864277641994
 42
0.0
 10
235.534330193013
 20
755.1870369371804
 42
0.0
 10
219.2997348633531
 20
755.1870369371804
 42
0.0
 10
220.3295017541145
 20
752.9786947134306
 42
-0.1095178116832403
 10
222.6343301930129
 20
742.5822854746095
 42
0.0
 10
222.6343301930129
 20
741.1870369371804
 42
0.0
 97
        7
330
11C4
330
11F2
330
11E9
330
11EE
330
11DF
330
11E1
330
11E0
 92
        7
 72
     1
 73
     1
 93
        7
 10
107.5343301930131
 20
755.1870369371805
 42
0.0
 10
107.9883214691949
 20
742.1864277641994
 42
0.0
 10
109.0232209658974
 20
741.1870369371804
 42
0.0
 10
120.434330193013
 20
741.1870369371803
 42
0.0
 10
120.434330193013
 20
742.5822854746094
 42
-0.1095178116832409
 10
122.7391586319114
 20
752.9786947134306
 42
0.0
 10
123.768925522673
 20
755.1870369371804
 42
0.0
 97
        7
330
1206
330
11C4
330
120B
330
120C
330
11C2
330
1202
330
11FE
 75
     0
 76
     1
 52
45.0
 41
20.0
 77
     0
 78
     2
 53
45.0
 43
-53.43030490809088
 44
228.2224807670568
 45
-1.767766952966368
 46
1.767766952966368
 79
     0
 53
135.0
 43
-53.43030490809088
 44
228.2224807670568
 45
-1.767766952966368
 46
-1.767766952966368
 79
     0
 47
0.7284445147448161
 98
        2
 10
228.5634815032181
 20
746.7600978466346
 10
111.9303757762691
 20
751.1307647069068
  0
TEXT
  5
11BE
330
1E
100
AcDbEntity
  8
TEXT
 62
     1
100
AcDbText
 10
156.5521602235535
 20
661.6023951597622
 30
0.0
 40
7.0
  1
DN80
 50
90.0
 41
0.8
  7
GREEKS
100
AcDbText
  0
DIMENSION
  5
11C0
330
1E
100
AcDbEntity
  8
BEM
100
AcDbDimension
  2
*D3
 10
271.19330256495
 20
180.1870369371804
 30
0.0
 11
264.69330256495
 21
467.6870369371804
 31
0.0
 70
    32
 71
     5
 42
575.0
  3
Standard
100
AcDbAlignedDimension
 13
238.0343301930129
 23
755.1870369371804
 33
0.0
 14
214.9844662307017
 24
180.1870369371804
 34
0.0
 50
90.0
100
AcDbRotatedDimension
1001
ACAD
1000
DSTYLE
1002
{
1070
    40
1040
2.0
1070
    41
1040
3.5
1070
    42
1040
1.0
1070
    43
1040
7.0
1070
    44
1040
1.0
1070
    73
1070
     0
1070
    74
1070
     0
1070
    77
1070
     1
1070
    78
1070
     8
1070
    79
1070
     2
1070
   140
1040
3.5
1070
   141
1040
1.5
1070
   146
1040
0.5142857142857144
1070
   147
1040
1.5
1070
   172
1070
     1
1070
   178
1070
     1
1070
   179
1070
     2
1070
   271
1070
     2
1070
   272
1070
     2
1070
   284
1070
     8
1070
   285
1070
     8
1070
   286
1070
     8
1002
}
  0
LINE
  5
11C2
102
{ACAD_REACTORS
330
11BA
330
1AE3
102
}
330
1E
100
AcDbEntity
  8
STEMPEL
100
AcDbLine
 10
120.434330193013
 20
741.1870369371803
 30
0.0
 11
109.0232209658975
 21
741.1870369371804
 31
0.0
  0
DIMENSION
  5
11C3
330
1E
100
AcDbEntity
  8
BEM
100
AcDbDimension
  2
*D5
 10
238.0343301930129
 20
785.9564209205272
 30
0.0
 11
171.5343301930129
 21
792.4564209205271
 31
0.0
 70
    32
  1
%%c<>
 71
     5
 42
133.0
  3
Standard
100
AcDbAlignedDimension
 13
105.0343301930129
 23
755.1870369371804
 33
0.0
 14
238.0343301930129
 24
755.1870369371804
 34
0.0
 50
180.0
100
AcDbRotatedDimension
1001
ACAD
1000
DSTYLE
1002
{
1070
    40
1040
2.0
1070
    41
1040
3.5
1070
    42
1040
1.0
1070
    43
1040
7.0
1070
    44
1040
1.0
1070
    73
1070
     0
1070
    74
1070
     0
1070
    77
1070
     1
1070
    78
1070
     8
1070
    79
1070
     2
1070
   140
1040
3.5
1070
   141
1040
1.5
1070
   146
1040
0.5142857142857144
1070
   147
1040
1.5
1070
   172
1070
     1
1070
   178
1070
     1
1070
   179
1070
     2
1070
   271
1070
     2
1070
   272
1070
     2
1070
   284
1070
     8
1070
   285
1070
     8
1070
   286
1070
     8
1002
}
  0
LINE
  5
11C4
102
{ACAD_REACTORS
330
11BA
330
18AC
330
18F6
102
}
330
1E
100
AcDbEntity
  8
STEMPEL
100
AcDbLine
 10
238.0343301930129
 20
755.1870369371804
 30
0.0
 11
105.0343301930129
 21
755.1870369371804
 31
0.0
  0
LINE
  5
11C5
102
{ACAD_REACTORS
330
18F6
102
}
330
1E
100
AcDbEntity
  8
STEMPEL
100
AcDbLine
 10
107.5343301930129
 20
230.1870369371804
 30
0.0
 11
105.0343301930129
 21
230.1870369371804
 31
0.0
  0
LINE
  5
11C6
102
{ACAD_REACTORS
330
1AE3
102
}
330
1E
100
AcDbEntity
  8
STEMPEL
100
AcDbLine
 10
110.0930625048809
 20
246.1870369371804
 30
0.0
 11
127.0343301930131
 21
246.1870369371804
 31
0.0
  0
LINE
  5
11C7
102
{ACAD_REACTORS
330
18AC
102
}
330
1E
100
AcDbEntity
  8
STEMPEL
100
AcDbLine
 10
128.634330193013
 20
186.9416275241889
 30
0.0
 11
129.7041378222277
 21
180.1870369371804
 31
0.0
  0
LINE
  5
11C8
102
{ACAD_REACTORS
330
18AC
102
}
330
1E
100
AcDbEntity
  8
STEMPEL
100
AcDbLine
 10
127.034330193013
 20
186.8157064697318
 30
0.0
 11
128.0841941553241
 21
180.1870369371804
 31
0.0
  0
LINE
  5
11C9
102
{ACAD_REACTORS
330
18AC
102
}
330
1E
100
AcDbEntity
  8
STEMPEL
100
AcDbLine
 10
214.434330193013
 20
186.9416275241896
 30
0.0
 11
213.3645225637983
 21
180.1870369371804
 31
0.0
  0
LINE
  5
11CA
102
{ACAD_REACTORS
330
18AC
102
}
330
1E
100
AcDbEntity
  8
STEMPEL
100
AcDbLine
 10
216.0343301930129
 20
186.8157064697325
 30
0.0
 11
214.9844662307017
 21
180.1870369371804
 31
0.0
  0
DIMENSION
  5
11CB
330
1E
100
AcDbEntity
  8
BEM
100
AcDbDimension
  2
*D6
 10
216.0343301930129
 20
157.84259462747
 30
0.0
 11
171.534330193013
 21
164.34259462747
 31
0.0
 70
    32
  1
%%C<>
 71
     5
 42
88.99999999999989
  3
Standard
100
AcDbAlignedDimension
 13
127.034330193013
 23
186.8157064697318
 33
0.0
 14
216.0343301930129
 24
186.8157064697325
 34
0.0
 50
180.0
100
AcDbRotatedDimension
1001
ACAD
1000
DSTYLE
1002
{
1070
    40
1040
2.0
1070
    41
1040
3.5
1070
    42
1040
1.0
1070
    43
1040
7.0
1070
    44
1040
1.0
1070
    73
1070
     0
1070
    74
1070
     0
1070
    77
1070
     1
1070
    78
1070
     8
1070
    79
1070
     2
1070
   140
1040
3.5
1070
   141
1040
1.5
1070
   146
1040
0.5142857142857144
1070
   147
1040
1.5
1070
   172
1070
     1
1070
   178
1070
     1
1070
   179
1070
     2
1070
   271
1070
     2
1070
   272
1070
     2
1070
   284
1070
     8
1070
   285
1070
     8
1070
   286
1070
     8
1002
}
  0
LINE
  5
11CC
330
1E
100
AcDbEntity
  8
MITTEL
100
AcDbLine
 10
171.5343301930129
 20
760.1870369371804
 30
0.0
 11
171.5343301930129
 21
175.1870369371804
 31
0.0
  0
LINE
  5
11CD
102
{ACAD_REACTORS
330
18AC
102
}
330
1E
100
AcDbEntity
  8
STEMPEL
100
AcDbLine
 10
214.9844662307017
 20
180.1870369371804
 30
0.0
 11
128.0841941553241
 21
180.1870369371804
 31
0.0
  0
POINT
  5
11CE
330
1E
100
AcDbEntity
  8
STEMPEL
100
AcDbPoint
 10
214.9844662307018
 20
180.1870369371804
 30
0.0
  0
DIMENSION
  5
11CF
330
1E
100
AcDbEntity
  8
BEM
100
AcDbDimension
  2
*D7
 10
125.5343301930129
 20
768.6552306069767
 30
0.0
 11
171.534330193013
 21
775.1552306069767
 31
0.0
 70
    32
  1
%%c<>
 71
     5
 42
92.00000000000011
  3
Standard
100
AcDbAlignedDimension
 13
217.534330193013
 23
755.1870369371804
 33
0.0
 14
125.5343301930129
 24
755.1870369371804
 34
0.0
 50
180.0
100
AcDbRotatedDimension
1001
ACAD
1000
DSTYLE
1002
{
1070
    40
1040
2.0
1070
    41
1040
3.5
1070
    42
1040
1.0
1070
    43
1040
7.0
1070
    44
1040
1.0
1070
    73
1070
     0
1070
    74
1070
     0
1070
    77
1070
     1
1070
    78
1070
     8
1070
    79
1070
     2
1070
   140
1040
3.5
1070
   141
1040
1.5
1070
   146
1040
0.5142857142857144
1070
   147
1040
1.5
1070
   172
1070
     1
1070
   178
1070
     1
1070
   179
1070
     2
1070
   271
1070
     2
1070
   272
1070
     2
1070
   284
1070
     8
1070
   285
1070
     8
1070
   286
1070
     8
1002
}
  0
LINE
  5
11D0
330
1E
100
AcDbEntity
  8
HILF
100
AcDbLine
 10
213.0579920058033
 20
692.1075430177438
 30
0.0
 11
130.0106683802223
 21
692.1075430177438
 31
0.0
  0
LINE
  5
11D1
330
1E
100
AcDbEntity
  8
HILF
100
AcDbLine
 10
215.2755831678321
 20
697.2351047368994
 30
0.0
 11
127.7930772181942
 21
697.2351047368994
 31
0.0
  0
LINE
  5
11D2
330
1E
100
AcDbEntity
  8
HILF
100
AcDbLine
 10
216.1600459300112
 20
722.4566568911907
 30
0.0
 11
126.9086144560149
 21
722.4566568911907
 31
0.0
  0
LINE
  5
11D3
330
1E
100
AcDbEntity
  8
HILF
100
AcDbLine
 10
212.7944428592059
 20
186.8157064697317
 30
0.0
 11
130.27421752682
 21
186.8157064697317
 31
0.0
  0
DIMENSION
  5
11D4
330
1E
100
AcDbEntity
  8
BEM
100
AcDbDimension
  2
*D8
 10
254.9794228225706
 20
755.1870369371804
 30
0.0
 11
254.9794228225704
 21
487.6870369371804
 31
0.0
 70
   160
 71
     5
 42
525.0
  3
Standard
100
AcDbAlignedDimension
 13
238.0343301930129
 23
230.1870369371804
 33
0.0
 14
238.0343301930129
 24
755.1870369371804
 34
0.0
 50
90.0
100
AcDbRotatedDimension
1001
ACAD
1000
DSTYLE
1002
{
1070
    40
1040
2.0
1070
    41
1040
3.5
1070
    42
1040
1.0
1070
    43
1040
7.0
1070
    44
1040
1.0
1070
    73
1070
     0
1070
    74
1070
     0
1070
    77
1070
     1
1070
    78
1070
     8
1070
    79
1070
     2
1070
   140
1040
3.5
1070
   141
1040
1.5
1070
   146
1040
0.5142857142857144
1070
   147
1040
1.5
1070
   172
1070
     1
1070
   178
1070
     1
1070
   179
1070
     2
1070
   271
1070
     2
1070
   272
1070
     2
1070
   284
1070
     8
1070
   285
1070
     8
1070
   286
1070
     8
1002
}
  0
LINE
  5
11D5
102
{ACAD_REACTORS
330
18F6
330
1AE3
102
}
330
1E
100
AcDbEntity
  8
STEMPEL
100
AcDbLine
 10
235.5343301930129
 20
755.1870369371804
 30
0.0
 11
235.5343301930129
 21
230.1870369371804
 31
0.0
  0
LINE
  5
11D6
102
{ACAD_REACTORS
330
18F6
102
}
330
1E
100
AcDbEntity
  8
STEMPEL
100
AcDbLine
 10
238.0343301930129
 20
755.1870369371804
 30
0.0
 11
238.034330193013
 21
228.1870369371805
 31
0.0
  0
LINE
  5
11D7
102
{ACAD_REACTORS
330
18AC
102
}
330
1E
100
AcDbEntity
  8
STEMPEL
100
AcDbLine
 10
214.434330193013
 20
689.8804372726118
 30
0.0
 11
214.434330193013
 21
186.9416275241896
 31
0.0
  0
LINE
  5
11D8
102
{ACAD_REACTORS
330
18AC
330
1AE3
102
}
330
1E
100
AcDbEntity
  8
STEMPEL
100
AcDbLine
 10
216.034330193013
 20
689.8804372726118
 30
0.0
 11
216.0343301930129
 21
186.8157064697325
 31
0.0
  0
LINE
  5
11DA
102
{ACAD_REACTORS
330
1AE3
102
}
330
1E
100
AcDbEntity
  8
STEMPEL
100
AcDbLine
 10
232.975597881145
 20
246.1870369371804
 30
0.0
 11
216.0343301930129
 21
246.1870369371804
 31
0.0
  0
LINE
  5
11DB
102
{ACAD_REACTORS
330
18F6
102
}
330
1E
100
AcDbEntity
  8
STEMPEL
100
AcDbLine
 10
238.0343301930129
 20
230.1870369371804
 30
0.0
 11
235.5343301930129
 21
230.1870369371804
 31
0.0
  0
LINE
  5
11DC
102
{ACAD_REACTORS
330
1AE3
102
}
330
1E
100
AcDbEntity
  8
STEMPEL
100
AcDbLine
 10
235.0453968745501
 20
244.1882552831423
 30
0.0
 11
232.975597881145
 21
246.1870369371804
 31
0.0
  0
LINE
  5
11DD
102
{ACAD_REACTORS
330
1AE3
102
}
330
1E
100
AcDbEntity
  8
STEMPEL
100
AcDbLine
 10
235.5343301930129
 20
230.1870369371804
 30
0.0
 11
235.0453968745501
 21
244.1882552831423
 31
0.0
  0
LINE
  5
11DE
330
1E
100
AcDbEntity
  8
STEMPEL
100
AcDbLine
 10
220.5343301930129
 20
236.1870369371804
 30
0.0
 11
216.0343301930127
 21
236.1870369371804
 31
0.0
  0
LINE
  5
11DF
102
{ACAD_REACTORS
330
11BA
330
1AE3
102
}
330
1E
100
AcDbEntity
  8
STEMPEL
100
AcDbLine
 10
234.0454394201287
 20
741.1870369371804
 30
0.0
 11
222.6343301930128
 21
741.1870369371804
 31
0.0
  0
LINE
  5
11E0
102
{ACAD_REACTORS
330
11BA
330
1AE3
102
}
330
1E
100
AcDbEntity
  8
STEMPEL
100
AcDbLine
 10
235.534330193013
 20
755.1870369371804
 30
0.0
 11
235.0803389168311
 21
742.1864277641995
 31
0.0
  0
LINE
  5
11E1
102
{ACAD_REACTORS
330
11BA
330
1AE3
102
}
330
1E
100
AcDbEntity
  8
STEMPEL
100
AcDbLine
 10
235.0803389168311
 20
742.1864277641995
 30
0.0
 11
234.0454394201287
 21
741.1870369371804
 31
0.0
  0
LINE
  5
11E2
102
{ACAD_REACTORS
330
18AC
102
}
330
1E
100
AcDbEntity
  8
STEMPEL
100
AcDbLine
 10
217.534330193013
 20
719.8469038739853
 30
0.0
 11
217.534330193013
 21
700.5757633545973
 31
0.0
  0
LINE
  5
11E3
102
{ACAD_REACTORS
330
18AC
330
1AE3
102
}
330
1E
100
AcDbEntity
  8
STEMPEL
100
AcDbLine
 10
219.134330193013
 20
719.8469038739853
 30
0.0
 11
219.134330193013
 21
700.5757633545973
 31
0.0
  0
ARC
  5
11E4
102
{ACAD_REACTORS
330
18AC
102
}
330
1E
100
AcDbEntity
  8
STEMPEL
100
AcDbCircle
 10
224.0343301930129
 20
689.8804372726118
 30
0.0
 40
9.599999999999999
100
AcDbArc
 50
147.6719358778383
 51
180.0
  0
POINT
  5
11E5
330
1E
100
AcDbEntity
  8
STEMPEL
100
AcDbPoint
 10
217.8563462160487
 20
695.1870369371804
 30
0.0
  0
ARC
  5
11E6
102
{ACAD_REACTORS
330
18AC
102
}
330
1E
100
AcDbEntity
  8
STEMPEL
100
AcDbCircle
 10
207.1343301930129
 20
700.5757633545973
 30
0.0
 40
10.4
100
AcDbArc
 50
327.6719358778383
 51
0.0
  0
ARC
  5
11E7
102
{ACAD_REACTORS
330
18AC
330
1AE3
102
}
330
1E
100
AcDbEntity
  8
STEMPEL
100
AcDbCircle
 10
224.0343301930129
 20
689.8804372726118
 30
0.0
 40
8.0
100
AcDbArc
 50
147.6719358778383
 51
180.0
  0
ARC
  5
11E8
102
{ACAD_REACTORS
330
18AC
330
1AE3
102
}
330
1E
100
AcDbEntity
  8
STEMPEL
100
AcDbCircle
 10
207.1343301930129
 20
700.5757633545973
 30
0.0
 40
12.0
100
AcDbArc
 50
327.6719358778383
 51
0.0
  0
ARC
  5
11E9
102
{ACAD_REACTORS
330
11BA
330
18AC
102
}
330
1E
100
AcDbEntity
  8
STEMPEL
100
AcDbCircle
 10
198.0343301930129
 20
742.5822854746094
 30
0.0
 40
24.6
100
AcDbArc
 50
0.0
 51
24.99999999999242
  0
ARC
  5
11EA
102
{ACAD_REACTORS
330
18AC
102
}
330
1E
100
AcDbEntity
  8
STEMPEL
100
AcDbCircle
 10
198.0343301930129
 20
742.5822854746094
 30
0.0
 40
23.0
100
AcDbArc
 50
0.0
 51
24.99999999999242
  0
ARC
  5
11EB
102
{ACAD_REACTORS
330
18AC
102
}
330
1E
100
AcDbEntity
  8
STEMPEL
100
AcDbCircle
 10
231.1343301930129
 20
719.8469038739853
 30
0.0
 40
13.6
100
AcDbArc
 50
154.8779398133636
 51
180.0
  0
ARC
  5
11EC
102
{ACAD_REACTORS
330
18AC
330
1AE3
102
}
330
1E
100
AcDbEntity
  8
STEMPEL
100
AcDbCircle
 10
231.1343301930129
 20
719.8469038739853
 30
0.0
 40
12.0
100
AcDbArc
 50
154.8779398133636
 51
180.0
  0
LINE
  5
11ED
102
{ACAD_REACTORS
330
18AC
102
}
330
1E
100
AcDbEntity
  8
STEMPEL
100
AcDbLine
 10
221.0343301930129
 20
742.5822854746094
 30
0.0
 11
221.0343301930129
 21
735.4869018981997
 31
0.0
  0
LINE
  5
11EE
102
{ACAD_REACTORS
330
11BA
330
18AC
330
1AE3
102
}
330
1E
100
AcDbEntity
  8
STEMPEL
100
AcDbLine
 10
222.6343301930129
 20
742.5822854746094
 30
0.0
 11
222.6343301930129
 21
735.4869018981997
 31
0.0
  0
ARC
  5
11EF
102
{ACAD_REACTORS
330
18AC
102
}
330
1E
100
AcDbEntity
  8
STEMPEL
100
AcDbCircle
 10
197.6343301930128
 20
735.5551819463901
 30
0.0
 40
23.40009324312573
100
AcDbArc
 50
334.7888220683156
 51
0.156485954331086
  0
ARC
  5
11F0
102
{ACAD_REACTORS
330
18AC
330
1AE3
102
}
330
1E
100
AcDbEntity
  8
STEMPEL
100
AcDbCircle
 10
197.6343301930128
 20
735.5551819463901
 30
0.0
 40
25.00009324312574
100
AcDbArc
 50
334.7888220683156
 51
0.156485954331086
  0
LINE
  5
11F1
102
{ACAD_REACTORS
330
18AC
102
}
330
1E
100
AcDbEntity
  8
STEMPEL
100
AcDbLine
 10
217.534330193013
 20
755.1870369371804
 30
0.0
 11
218.8794092948558
 21
752.3025054946456
 31
0.0
  0
LINE
  5
11F2
102
{ACAD_REACTORS
330
11BA
330
18AC
102
}
330
1E
100
AcDbEntity
  8
STEMPEL
100
AcDbLine
 10
219.299734863353
 20
755.1870369371804
 30
0.0
 11
220.3295017541145
 21
752.9786947134306
 31
0.0
  0
LINE
  5
11F3
102
{ACAD_REACTORS
330
18AC
102
}
330
1E
100
AcDbEntity
  8
STEMPEL
100
AcDbLine
 10
128.634330193013
 20
689.8804372726118
 30
0.0
 11
128.634330193013
 21
575.0870369371804
 31
0.0
  0
LINE
  5
11F4
102
{ACAD_REACTORS
330
18AC
330
1953
330
1AE3
102
}
330
1E
100
AcDbEntity
  8
STEMPEL
100
AcDbLine
 10
127.0343301930129
 20
689.8804372726118
 30
0.0
 11
127.0343301930129
 21
575.0870369371804
 31
0.0
  0
LINE
  5
11F5
330
1E
100
AcDbEntity
  8
STEMPEL
100
AcDbLine
 10
122.5343301930131
 20
236.1870369371804
 30
0.0
 11
127.0343301930131
 21
236.1870369371804
 31
0.0
  0
LINE
  5
11F7
102
{ACAD_REACTORS
330
18AC
102
}
330
1E
100
AcDbEntity
  8
STEMPEL
100
AcDbLine
 10
125.5343301930129
 20
719.8469038739853
 30
0.0
 11
125.5343301930129
 21
700.5757633545973
 31
0.0
  0
LINE
  5
11F8
102
{ACAD_REACTORS
330
18AC
330
1AE3
102
}
330
1E
100
AcDbEntity
  8
STEMPEL
100
AcDbLine
 10
123.934330193013
 20
719.8469038739853
 30
0.0
 11
123.934330193013
 21
700.5757633545973
 31
0.0
  0
ARC
  5
11F9
102
{ACAD_REACTORS
330
18AC
330
1AE3
102
}
330
1E
100
AcDbEntity
  8
STEMPEL
100
AcDbCircle
 10
135.9343301930129
 20
700.5757633545973
 30
0.0
 40
12.0
100
AcDbArc
 50
180.0
 51
212.3280641221617
  0
ARC
  5
11FA
102
{ACAD_REACTORS
330
18AC
102
}
330
1E
100
AcDbEntity
  8
STEMPEL
100
AcDbCircle
 10
135.9343301930129
 20
700.5757633545973
 30
0.0
 40
10.4
100
AcDbArc
 50
180.0
 51
212.3280641221617
  0
ARC
  5
11FB
102
{ACAD_REACTORS
330
18AC
102
}
330
1E
100
AcDbEntity
  8
STEMPEL
100
AcDbCircle
 10
119.0343301930129
 20
689.8804372726118
 30
0.0
 40
9.599999999999999
100
AcDbArc
 50
0.0
 51
32.32806412216171
  0
ARC
  5
11FC
102
{ACAD_REACTORS
330
18AC
330
1AE3
102
}
330
1E
100
AcDbEntity
  8
STEMPEL
100
AcDbCircle
 10
119.0343301930129
 20
689.8804372726118
 30
0.0
 40
8.0
100
AcDbArc
 50
0.0
 51
32.32806412216171
  0
ARC
  5
11FD
102
{ACAD_REACTORS
330
18AC
102
}
330
1E
100
AcDbEntity
  8
STEMPEL
100
AcDbCircle
 10
145.0343301930129
 20
742.5822854746094
 30
0.0
 40
23.0
100
AcDbArc
 50
155.0000000000076
 51
180.0
  0
ARC
  5
11FE
102
{ACAD_REACTORS
330
11BA
330
18AC
102
}
330
1E
100
AcDbEntity
  8
STEMPEL
100
AcDbCircle
 10
145.0343301930129
 20
742.5822854746094
 30
0.0
 40
24.6
100
AcDbArc
 50
155.0000000000039
 51
180.0
  0
ARC
  5
11FF
102
{ACAD_REACTORS
330
18AC
102
}
330
1E
100
AcDbEntity
  8
STEMPEL
100
AcDbCircle
 10
111.9343301930129
 20
719.8469038739853
 30
0.0
 40
13.6
100
AcDbArc
 50
0.0
 51
25.1220601866364
  0
ARC
  5
1200
102
{ACAD_REACTORS
330
18AC
330
1AE3
102
}
330
1E
100
AcDbEntity
  8
STEMPEL
100
AcDbCircle
 10
111.9343301930129
 20
719.8469038739853
 30
0.0
 40
12.0
100
AcDbArc
 50
0.0
 51
25.12206018663276
  0
LINE
  5
1201
102
{ACAD_REACTORS
330
18AC
102
}
330
1E
100
AcDbEntity
  8
STEMPEL
100
AcDbLine
 10
122.0343301930129
 20
742.5822854746094
 30
0.0
 11
122.0343301930129
 21
735.4869018981997
 31
0.0
  0
LINE
  5
1202
102
{ACAD_REACTORS
330
11BA
330
18AC
330
1AE3
102
}
330
1E
100
AcDbEntity
  8
STEMPEL
100
AcDbLine
 10
120.434330193013
 20
742.5822854746094
 30
0.0
 11
120.434330193013
 21
735.4869018981997
 31
0.0
  0
ARC
  5
1203
102
{ACAD_REACTORS
330
18AC
102
}
330
1E
100
AcDbEntity
  8
STEMPEL
100
AcDbCircle
 10
145.434330193013
 20
735.5551819463901
 30
0.0
 40
23.40009324312573
100
AcDbArc
 50
179.8435140456689
 51
205.2111779316844
  0
ARC
  5
1204
102
{ACAD_REACTORS
330
18AC
330
1AE3
102
}
330
1E
100
AcDbEntity
  8
STEMPEL
100
AcDbCircle
 10
145.4343301930129
 20
735.5551819463901
 30
0.0
 40
25.00009324312574
100
AcDbArc
 50
179.8435140456689
 51
205.2111779316807
  0
LINE
  5
1205
102
{ACAD_REACTORS
330
18AC
102
}
330
1E
100
AcDbEntity
  8
STEMPEL
100
AcDbLine
 10
125.5343301930129
 20
755.1870369371804
 30
0.0
 11
124.1892510911702
 21
752.3025054946456
 31
0.0
  0
LINE
  5
1206
102
{ACAD_REACTORS
330
11BA
330
18AC
102
}
330
1E
100
AcDbEntity
  8
STEMPEL
100
AcDbLine
 10
123.768925522673
 20
755.1870369371804
 30
0.0
 11
122.7391586319114
 21
752.9786947134306
 31
0.0
  0
LINE
  5
1207
102
{ACAD_REACTORS
330
18F6
330
1AE3
102
}
330
1E
100
AcDbEntity
  8
STEMPEL
100
AcDbLine
 10
107.5343301930129
 20
755.1870369371804
 30
0.0
 11
107.5343301930129
 21
589.1870369371802
 31
0.0
  0
LINE
  5
1208
102
{ACAD_REACTORS
330
18F6
330
191E
330
195C
102
}
330
1E
100
AcDbEntity
  8
STEMPEL
100
AcDbLine
 10
105.0343301930129
 20
755.1870369371804
 30
0.0
 11
105.0343301930128
 21
589.1870369371802
 31
0.0
  0
LINE
  5
1209
102
{ACAD_REACTORS
330
1AE3
102
}
330
1E
100
AcDbEntity
  8
STEMPEL
100
AcDbLine
 10
108.023263511476
 20
244.1882552831423
 30
0.0
 11
110.0930625048809
 21
246.1870369371804
 31
0.0
  0
LINE
  5
120A
102
{ACAD_REACTORS
330
1AE3
102
}
330
1E
100
AcDbEntity
  8
STEMPEL
100
AcDbLine
 10
107.5343301930131
 20
230.1870369371804
 30
0.0
 11
108.023263511476
 21
244.1882552831423
 31
0.0
  0
LINE
  5
120B
102
{ACAD_REACTORS
330
11BA
330
1AE3
102
}
330
1E
100
AcDbEntity
  8
STEMPEL
100
AcDbLine
 10
107.5343301930131
 20
755.1870369371804
 30
0.0
 11
107.9883214691949
 21
742.1864277641994
 31
0.0
  0
LINE
  5
120C
102
{ACAD_REACTORS
330
11BA
330
1AE3
102
}
330
1E
100
AcDbEntity
  8
STEMPEL
100
AcDbLine
 10
107.9883214691949
 20
742.1864277641994
 30
0.0
 11
109.0232209658975
 21
741.1870369371804
 31
0.0
  0
LINE
  5
1331
330
1E
100
AcDbEntity
  8
STEMPEL
100
AcDbLine
 10
299.2540287725928
 20
755.1870369371804
 30
0.0
 11
299.2540287725928
 21
228.1870369371805
 31
0.0
  0
LINE
  5
135E
330
1E
100
AcDbEntity
  8
STEMPEL
100
AcDbLine
 10
432.2540287725928
 20
230.1870369371804
 30
0.0
 11
299.2540287725928
 21
230.1870369371804
 31
0.0
  0
LINE
  5
1363
330
1E
100
AcDbEntity
  8
STEMPEL
100
AcDbLine
 10
432.2540287725928
 20
755.1870369371804
 30
0.0
 11
432.2540287725928
 21
228.1870369371805
 31
0.0
  0
LINE
  5
1366
330
1E
100
AcDbEntity
  8
HILF
100
AcDbLine
 10
408.6340851056893
 20
186.8157064697317
 30
0.0
 11
322.8739724394965
 21
186.8157064697317
 31
0.0
  0
POINT
  5
136B
330
1E
100
AcDbEntity
  8
STEMPEL
100
AcDbPoint
 10
409.2041648102817
 20
180.1870369371804
 30
0.0
  0
LINE
  5
136C
330
1E
100
AcDbEntity
  8
STEMPEL
100
AcDbLine
 10
409.2041648102816
 20
180.1870369371804
 30
0.0
 11
322.303892734904
 21
180.1870369371804
 31
0.0
  0
LINE
  5
136D
330
1E
100
AcDbEntity
  8
MITTEL
100
AcDbLine
 10
365.7540287725928
 20
760.1870369371804
 30
0.0
 11
365.7540287725928
 21
175.1870369371804
 31
0.0
  0
LINE
  5
136F
330
1E
100
AcDbEntity
  8
STEMPEL
100
AcDbLine
 10
410.2540287725928
 20
186.8157064697325
 30
0.0
 11
409.2041648102816
 21
180.1870369371804
 31
0.0
  0
LINE
  5
1371
330
1E
100
AcDbEntity
  8
STEMPEL
100
AcDbLine
 10
321.2540287725929
 20
186.8157064697318
 30
0.0
 11
322.303892734904
 21
180.1870369371804
 31
0.0
  0
LINE
  5
1375
330
1E
100
AcDbEntity
  8
STEMPEL
100
AcDbLine
 10
432.2540287725928
 20
755.1870369371804
 30
0.0
 11
299.2540287725928
 21
755.1870369371804
 31
0.0
  0
LINE
  5
1418
330
1E
100
AcDbEntity
  8
STEMPEL
100
AcDbLine
 10
410.2540287725928
 20
228.1870369371806
 30
0.0
 11
410.2540287725928
 21
186.8157064697325
 31
0.0
  0
LINE
  5
1419
330
1E
100
AcDbEntity
  8
STEMPEL
100
AcDbLine
 10
321.254028772593
 20
228.1870369371806
 30
0.0
 11
321.2540287725929
 21
186.8157064697318
 31
0.0
  0
LINE
  5
141B
330
1E
100
AcDbEntity
  8
MITTEL
100
AcDbLine
 10
171.5343301930129
 20
540.1870369371803
 30
0.0
 11
78.03433019301292
 21
540.1870369371803
 31
0.0
  0
LINE
  5
144C
330
1E
100
AcDbEntity
  8
STEMPEL
  6
Continuous
100
AcDbLine
 10
93.58325260013158
 20
499.6870369371802
 30
0.0
 11
102.5982712270975
 21
499.6870369371802
 31
0.0
  0
LINE
  5
144D
102
{ACAD_REACTORS
330
1AE3
102
}
330
1E
100
AcDbEntity
  8
STEMPEL
  6
Continuous
100
AcDbLine
 10
93.58325260013158
 20
498.0870369371802
 30
0.0
 11
102.5960501448221
 21
498.0870369371802
 31
0.0
  0
LINE
  5
1450
330
1E
100
AcDbEntity
  8
HILF
  6
Continuous
100
AcDbLine
 10
118.2594191914556
 20
506.5323241869549
 30
0.0
 11
118.2594191914556
 21
573.8417496874055
 31
0.0
  0
LINE
  5
1459
102
{ACAD_REACTORS
330
1953
330
1AE3
102
}
330
1E
100
AcDbEntity
  8
STEMPEL
  6
Continuous
100
AcDbLine
 10
121.0557997932109
 20
503.6870369371801
 30
0.0
 11
127.0343301930129
 21
503.6870369371801
 31
0.0
  0
ARC
  5
145E
330
1E
100
AcDbEntity
  8
STEMPEL
  6
Continuous
100
AcDbCircle
 10
102.6643301930129
 20
523.0870369371802
 30
0.0
 40
23.40009324312573
100
AcDbArc
 50
269.8382525687428
 51
303.8703620574912
  0
ARC
  5
145F
102
{ACAD_REACTORS
330
1AE3
102
}
330
1E
100
AcDbEntity
  8
STEMPEL
  6
Continuous
100
AcDbCircle
 10
102.6643301930129
 20
523.0870369371802
 30
0.0
 40
25.00009324312574
100
AcDbArc
 50
269.8435140456494
 51
303.8703620574912
  0
LINE
  5
146C
330
1E
100
AcDbEntity
  8
STEMPEL
  6
Continuous
100
AcDbLine
 10
83.03433019301293
 20
579.9524342654556
 30
0.0
 11
83.03433019301293
 21
578.1870369371804
 31
0.0
  0
ARC
  5
146D
102
{ACAD_REACTORS
330
1AE3
102
}
330
1E
100
AcDbEntity
  8
STEMPEL
  6
Continuous
100
AcDbCircle
 10
93.58325260013154
 20
523.0870369371802
 30
0.0
 40
25.0
100
AcDbArc
 50
245.0418036876905
 51
270.0
  0
ARC
  5
146E
330
1E
100
AcDbEntity
  8
STEMPEL
  6
Continuous
100
AcDbCircle
 10
93.58325260013154
 20
523.0870369371802
 30
0.0
 40
23.4
100
AcDbArc
 50
245.000000000004
 51
270.0
  0
LINE
  5
146F
330
1E
100
AcDbEntity
  8
STEMPEL
  6
Continuous
100
AcDbLine
 10
83.03433019301293
 20
502.1870369371803
 30
0.0
 11
83.69398527539908
 21
501.8794347205226
 31
0.0
  0
LINE
  5
1475
102
{ACAD_REACTORS
330
18AC
102
}
330
1E
100
AcDbEntity
  8
STEMPEL
  6
Continuous
100
AcDbLine
 10
121.0557997932109
 20
505.2870369371802
 30
0.0
 11
128.6343301930131
 21
505.2870369371802
 31
0.0
  0
ARC
  5
1476
102
{ACAD_REACTORS
330
1AE3
102
}
330
1E
100
AcDbEntity
  8
STEMPEL
  6
Continuous
100
AcDbCircle
 10
121.0557997932108
 20
495.6870369371801
 30
0.0
 40
8.0
100
AcDbArc
 50
90.0
 51
123.8703620574913
  0
ARC
  5
1477
330
1E
100
AcDbEntity
  8
STEMPEL
  6
Continuous
100
AcDbCircle
 10
121.0557997932108
 20
495.6870369371801
 30
0.0
 40
9.599999999999999
100
AcDbArc
 50
90.0
 51
123.8703620574913
  0
ARC
  5
1478
330
1E
100
AcDbEntity
  8
STEMPEL
  6
Continuous
100
AcDbCircle
 10
121.0557997932107
 20
584.6870369371803
 30
0.0
 40
9.599999999999999
100
AcDbArc
 50
236.1296379425087
 51
270.0
  0
ARC
  5
1479
102
{ACAD_REACTORS
330
1AE3
102
}
330
1E
100
AcDbEntity
  8
STEMPEL
  6
Continuous
100
AcDbCircle
 10
121.0557997932107
 20
584.6870369371803
 30
0.0
 40
8.0
100
AcDbArc
 50
236.1296379425087
 51
270.0
  0
LINE
  5
147A
102
{ACAD_REACTORS
330
18AC
102
}
330
1E
100
AcDbEntity
  8
STEMPEL
  6
Continuous
100
AcDbLine
 10
121.0557997932108
 20
575.0870369371804
 30
0.0
 11
128.6343301930131
 21
575.0870369371804
 31
0.0
  0
LINE
  5
147B
330
1E
100
AcDbEntity
  8
STEMPEL
  6
Continuous
100
AcDbLine
 10
83.0343301930128
 20
578.1870369371802
 30
0.0
 11
83.69398527539898
 21
578.4946391538378
 31
0.0
  0
ARC
  5
147C
330
1E
100
AcDbEntity
  8
STEMPEL
  6
Continuous
100
AcDbCircle
 10
93.58325260013154
 20
557.2870369371802
 30
0.0
 40
23.4
100
AcDbArc
 50
90.00000000000005
 51
114.9999999999961
  0
ARC
  5
147D
102
{ACAD_REACTORS
330
1AE3
102
}
330
1E
100
AcDbEntity
  8
STEMPEL
  6
Continuous
100
AcDbCircle
 10
93.58325260013154
 20
557.2870369371802
 30
0.0
 40
25.0
100
AcDbArc
 50
90.00000000000005
 51
114.9581963123095
  0
ARC
  5
147E
102
{ACAD_REACTORS
330
1AE3
102
}
330
1E
100
AcDbEntity
  8
STEMPEL
  6
Continuous
100
AcDbCircle
 10
102.6643301930129
 20
557.2870369371802
 30
0.0
 40
25.00009324312574
100
AcDbArc
 50
56.12963794250891
 51
90.15648595435065
  0
ARC
  5
147F
330
1E
100
AcDbEntity
  8
STEMPEL
  6
Continuous
100
AcDbCircle
 10
102.6643301930129
 20
557.2870369371802
 30
0.0
 40
23.40009324312573
100
AcDbArc
 50
56.12963794250891
 51
90.16174743125723
  0
LINE
  5
1480
102
{ACAD_REACTORS
330
1953
330
1AE3
102
}
330
1E
100
AcDbEntity
  8
STEMPEL
  6
Continuous
100
AcDbLine
 10
121.0557997932108
 20
576.6870369371803
 30
0.0
 11
127.0343301930128
 21
576.6870369371803
 31
0.0
  0
LINE
  5
1481
102
{ACAD_REACTORS
330
1AE3
102
}
330
1E
100
AcDbEntity
  8
STEMPEL
  6
Continuous
100
AcDbLine
 10
93.58325260013145
 20
582.2870369371803
 30
0.0
 11
102.596050144822
 21
582.2870369371803
 31
0.0
  0
LINE
  5
1482
330
1E
100
AcDbEntity
  8
STEMPEL
  6
Continuous
100
AcDbLine
 10
93.58325260013145
 20
580.6870369371803
 30
0.0
 11
102.5982712270973
 21
580.6870369371803
 31
0.0
  0
ELLIPSE
  5
14AB
330
1E
100
AcDbEntity
  8
STEMPEL
100
AcDbEllipse
 10
128.634330193013
 20
540.1870369371803
 30
0.0
 11
0.0
 21
34.9000000000001
 31
0.0
210
0.0
220
0.0
230
1.0
 40
0.4381462956223536
 41
3.141592653589793
 42
6.283185307179586
  0
LINE
  5
14AD
102
{ACAD_REACTORS
330
18AC
102
}
330
1E
100
AcDbEntity
  8
STEMPEL
100
AcDbLine
 10
128.634330193013
 20
505.2870369371802
 30
0.0
 11
128.634330193013
 21
186.9416275241889
 31
0.0
  0
LINE
  5
14AE
102
{ACAD_REACTORS
330
18AC
330
1953
330
1AE3
102
}
330
1E
100
AcDbEntity
  8
STEMPEL
100
AcDbLine
 10
127.0343301930129
 20
505.2870369371802
 30
0.0
 11
127.034330193013
 21
186.8157064697318
 31
0.0
  0
LINE
  5
14B2
102
{ACAD_REACTORS
330
191E
330
1A14
330
1AE3
102
}
330
1E
100
AcDbEntity
  8
STEMPEL
100
AcDbLine
 10
83.03433019301293
 20
591.1870369371801
 30
0.0
 11
83.03433019301293
 21
578.1870369371804
 31
0.0
  0
LINE
  5
14B3
102
{ACAD_REACTORS
330
191E
330
195C
102
}
330
1E
100
AcDbEntity
  8
STEMPEL
100
AcDbLine
 10
105.0343301930129
 20
591.1870369371803
 30
0.0
 11
83.03433019301293
 21
591.1870369371803
 31
0.0
  0
LINE
  5
14B4
102
{ACAD_REACTORS
330
191E
330
195C
102
}
330
1E
100
AcDbEntity
  8
STEMPEL
100
AcDbLine
 10
105.0343301930129
 20
489.1870369371802
 30
0.0
 11
83.03433019301293
 21
489.1870369371802
 31
0.0
  0
LINE
  5
14B5
102
{ACAD_REACTORS
330
18F6
330
1AE3
102
}
330
1E
100
AcDbEntity
  8
STEMPEL
100
AcDbLine
 10
107.5343301930129
 20
491.1870369371801
 30
0.0
 11
107.5343301930129
 21
230.1870369371804
 31
0.0
  0
LINE
  5
14B6
102
{ACAD_REACTORS
330
18F6
330
191E
330
195C
102
}
330
1E
100
AcDbEntity
  8
STEMPEL
100
AcDbLine
 10
105.0343301930129
 20
491.1870369371802
 30
0.0
 11
105.0343301930129
 21
228.1870369371805
 31
0.0
  0
LINE
  5
14B7
102
{ACAD_REACTORS
330
18F6
330
191E
330
1AE3
102
}
330
1E
100
AcDbEntity
  8
STEMPEL
100
AcDbLine
 10
107.5343301930129
 20
589.1870369371802
 30
0.0
 11
83.03433019301293
 21
589.1870369371803
 31
0.0
  0
LINE
  5
14B8
102
{ACAD_REACTORS
330
18F6
330
191E
330
1AE3
102
}
330
1E
100
AcDbEntity
  8
STEMPEL
100
AcDbLine
 10
107.5343301930129
 20
491.1870369371801
 30
0.0
 11
83.03433019301293
 21
491.1870369371802
 31
0.0
  0
LINE
  5
1691
330
1E
100
AcDbEntity
  8
STEMPEL
100
AcDbLine
 10
64.05320852725225
 20
544.1870369371804
 30
0.0
 11
64.05320852725225
 21
547.6925904366455
 31
0.0
  0
LINE
  5
1692
330
1E
100
AcDbEntity
  8
STEMPEL
100
AcDbLine
 10
63.2410307007612
 20
544.1870369371804
 30
0.0
 11
65.80320852725225
 21
544.1870369371804
 31
0.0
  0
POINT
  5
1693
330
1E
100
AcDbEntity
  8
DEFPOINTS
  6
ByBlock
 62
     0
100
AcDbPoint
 10
63.2410307007612
 20
544.1870369371804
 30
0.0
  0
LINE
  5
1694
330
1E
100
AcDbEntity
  8
STEMPEL
100
AcDbLine
 10
63.30320852725225
 20
547.115240167456
 30
0.0
 11
63.30320852725225
 21
548.4370369371804
 31
0.0
  0
LINE
  5
1695
330
1E
100
AcDbEntity
  8
STEMPEL
100
AcDbLine
 10
66.55320852725225
 20
543.9398136869129
 30
0.0
 11
71.55320852725225
 21
543.9398136869129
 31
0.0
  0
ARC
  5
1696
330
1E
100
AcDbEntity
  8
STEMPEL
100
AcDbCircle
 10
68.52543074947428
 20
545.8162020617793
 30
0.0
 40
2.722222222222121
100
AcDbArc
 50
136.4264214034776
 51
223.5735785965246
  0
LINE
  5
1697
330
1E
100
AcDbEntity
  8
STEMPEL
100
AcDbLine
 10
63.2410307007612
 20
536.1870369371804
 30
0.0
 11
65.80320852725225
 21
536.1870369371804
 31
0.0
  0
LINE
  5
1698
330
1E
100
AcDbEntity
  8
HILF
100
AcDbLine
 10
62.2410307007612
 20
537.1870369371804
 30
0.0
 11
65.80320852725225
 21
537.1870369371804
 31
0.0
  0
LINE
  5
1699
330
1E
100
AcDbEntity
  8
HILF
100
AcDbLine
 10
62.2410307007612
 20
543.1870369371804
 30
0.0
 11
65.80320852725225
 21
543.1870369371804
 31
0.0
  0
LINE
  5
169A
330
1E
100
AcDbEntity
  8
STEMPEL
100
AcDbLine
 10
62.2410307007612
 20
537.1870369371804
 30
0.0
 11
62.2410307007612
 21
543.1870369371804
 31
0.0
  0
LINE
  5
169B
330
1E
100
AcDbEntity
  8
STEMPEL
100
AcDbLine
 10
62.2410307007612
 20
537.1870369371804
 30
0.0
 11
63.2410307007612
 21
536.1870369371804
 31
0.0
  0
POINT
  5
169C
330
1E
100
AcDbEntity
  8
DEFPOINTS
  6
ByBlock
 62
     0
100
AcDbPoint
 10
63.2410307007612
 20
536.1870369371804
 30
0.0
  0
LINE
  5
169D
330
1E
100
AcDbEntity
  8
STEMPEL
100
AcDbLine
 10
63.30320852725225
 20
531.9370369371804
 30
0.0
 11
63.30320852725225
 21
533.2588337069048
 31
0.0
  0
LINE
  5
169E
330
1E
100
AcDbEntity
  8
STEMPEL
100
AcDbLine
 10
64.05320852725225
 20
532.6814834377152
 30
0.0
 11
64.05320852725225
 21
536.1870369371804
 31
0.0
  0
LINE
  5
169F
330
1E
100
AcDbEntity
  8
STEMPEL
100
AcDbLine
 10
66.55320852725225
 20
536.4342601874478
 30
0.0
 11
71.55320852725225
 21
536.4342601874478
 31
0.0
  0
ARC
  5
16A0
330
1E
100
AcDbEntity
  8
STEMPEL
100
AcDbCircle
 10
68.5254307494744
 20
534.5578718125816
 30
0.0
 40
2.722222222222224
100
AcDbArc
 50
136.4264214034776
 51
223.5735785965224
  0
LINE
  5
16A1
330
1E
100
AcDbEntity
  8
STEMPEL
100
AcDbLine
 10
65.80320852725225
 20
534.5578718125816
 30
0.0
 11
65.80320852725225
 21
545.8162020617793
 31
0.0
  0
ARC
  5
16A2
330
1E
100
AcDbEntity
  8
STEMPEL
100
AcDbCircle
 10
64.30320852725222
 20
540.1870369371804
 30
0.0
 40
7.0
100
AcDbArc
 50
98.21321070173667
 51
261.7867892982634
  0
ARC
  5
16A3
330
1E
100
AcDbEntity
  8
STEMPEL
100
AcDbCircle
 10
64.30320852725222
 20
540.1870369371804
 30
0.0
 40
6.25
100
AcDbArc
 50
92.29244277595389
 51
267.7075572240461
  0
ARC
  5
16A4
330
1E
100
AcDbEntity
  8
STEMPEL
100
AcDbCircle
 10
75.56709741614113
 20
540.1870369371804
 30
0.0
 40
9.763888888888962
100
AcDbArc
 50
157.3964409848427
 51
202.6035590151573
  0
LINE
  5
16A5
330
1E
100
AcDbEntity
  8
STEMPEL
100
AcDbLine
 10
63.2410307007612
 20
536.1870369371804
 30
0.0
 11
63.2410307007612
 21
544.1870369371804
 31
0.0
  0
LINE
  5
16A6
330
1E
100
AcDbEntity
  8
STEMPEL
100
AcDbLine
 10
63.2410307007612
 20
544.1870369371804
 30
0.0
 11
62.2410307007612
 21
543.1870369371804
 31
0.0
  0
LINE
  5
16AC
330
1E
100
AcDbEntity
  8
STEMPEL
100
AcDbLine
 10
89.80103070076097
 20
577.6870369371804
 30
0.0
 11
91.30103070076097
 21
577.6870369371804
 31
0.0
  0
LINE
  5
16AD
102
{ACAD_REACTORS
330
1A14
102
}
330
1E
100
AcDbEntity
  8
STEMPEL
100
AcDbLine
 10
77.80320852725203
 20
578.1870369371804
 30
0.0
 11
83.03433019301293
 21
578.1870369371804
 31
0.0
  0
ARC
  5
16B8
330
1E
100
AcDbEntity
  8
STEMPEL
100
AcDbCircle
 10
84.30103070076095
 20
564.1096866679908
 30
0.0
 40
2.5
100
AcDbArc
 50
120.0000000000005
 51
180.0
  0
POINT
  5
16B9
330
1E
100
AcDbEntity
  8
DEFPOINTS
  6
ByBlock
 62
     0
100
AcDbPoint
 10
83.43500529697644
 20
564.6096866679908
 30
0.0
  0
ARC
  5
16BA
330
1E
100
AcDbEntity
  8
STEMPEL
100
AcDbCircle
 10
84.30103070076095
 20
564.1096866679908
 30
0.0
 40
1.0
100
AcDbArc
 50
120.0000000000005
 51
180.0
  0
ARC
  5
16BB
330
1E
100
AcDbEntity
  8
STEMPEL
100
AcDbCircle
 10
87.80103070076094
 20
571.3265650328611
 30
0.0
 40
2.0
100
AcDbArc
 50
300.0000000000005
 51
0.0
  0
ARC
  5
16BC
330
1E
100
AcDbEntity
  8
STEMPEL
100
AcDbCircle
 10
87.80103070076094
 20
571.3265650328611
 30
0.0
 40
3.5
100
AcDbArc
 50
300.0000000000005
 51
0.0
  0
LINE
  5
16BD
330
1E
100
AcDbEntity
  8
STEMPEL
100
AcDbLine
 10
83.80103070076097
 20
564.9757120717752
 30
0.0
 11
89.55103070076097
 21
568.2954761196156
 31
0.0
  0
LINE
  5
16BE
330
1E
100
AcDbEntity
  8
STEMPEL
100
AcDbLine
 10
83.05103070076098
 20
566.2747501774519
 30
0.0
 11
88.80103070076097
 21
569.5945142252923
 31
0.0
  0
LINE
  5
16BF
330
1E
100
AcDbEntity
  8
STEMPEL
100
AcDbLine
 10
85.5687976537273
 20
548.5405903277738
 30
0.0
 11
83.59392391957431
 21
550.5154640619266
 31
0.0
  0
ARC
  5
16C0
330
1E
100
AcDbEntity
  8
STEMPEL
100
AcDbCircle
 10
83.80103070076094
 20
546.7728233748073
 30
0.0
 40
2.5
100
AcDbArc
 50
0.0
 51
45.0
  0
ARC
  5
16C1
330
1E
100
AcDbEntity
  8
STEMPEL
100
AcDbCircle
 10
84.30103070076095
 20
551.2225708431132
 30
0.0
 40
2.5
100
AcDbArc
 50
180.0
 51
225.0
  0
ARC
  5
16C2
330
1E
100
AcDbEntity
  8
STEMPEL
100
AcDbCircle
 10
83.80103070076094
 20
546.7728233748073
 30
0.0
 40
1.0
100
AcDbArc
 50
0.0
 51
45.0
  0
LINE
  5
16C3
330
1E
100
AcDbEntity
  8
STEMPEL
100
AcDbLine
 10
84.50813748194741
 20
547.4799301559938
 30
0.0
 11
82.53326374779453
 21
549.4548038901468
 31
0.0
  0
ARC
  5
16C4
330
1E
100
AcDbEntity
  8
STEMPEL
100
AcDbCircle
 10
84.30103070076095
 20
551.2225708431132
 30
0.0
 40
1.0
100
AcDbArc
 50
180.0
 51
225.0
  0
LINE
  5
16C5
330
1E
100
AcDbEntity
  8
STEMPEL
100
AcDbLine
 10
81.80103070076098
 20
544.1870369371804
 30
0.0
 11
81.80103070076098
 21
564.1096866679908
 31
0.0
  0
LINE
  5
16C6
330
1E
100
AcDbEntity
  8
STEMPEL
100
AcDbLine
 10
83.30103070076097
 20
551.2225708431132
 30
0.0
 11
83.30103070076097
 21
564.1096866679908
 31
0.0
  0
LINE
  5
16C7
330
1E
100
AcDbEntity
  8
STEMPEL
100
AcDbLine
 10
72.30320852725225
 20
544.1870369371805
 30
0.0
 11
84.80103070076097
 21
544.1870369371804
 31
0.0
  0
LINE
  5
16C8
330
1E
100
AcDbEntity
  8
STEMPEL
100
AcDbLine
 10
77.80320852725203
 20
568.1870369371804
 30
0.0
 11
86.36320852725186
 21
568.1870369371804
 31
0.0
  0
LINE
  5
16D1
330
1E
100
AcDbEntity
  8
STEMPEL
100
AcDbLine
 10
85.5687976537273
 20
531.833483546587
 30
0.0
 11
83.59392391957442
 21
529.8586098124342
 31
0.0
  0
ARC
  5
16D2
330
1E
100
AcDbEntity
  8
STEMPEL
100
AcDbCircle
 10
83.80103070076094
 20
533.6012504995535
 30
0.0
 40
2.5
100
AcDbArc
 50
315.0
 51
0.0
  0
LINE
  5
16D3
330
1E
100
AcDbEntity
  8
STEMPEL
100
AcDbLine
 10
84.50813748194741
 20
532.894143718367
 30
0.0
 11
82.53326374779453
 21
530.9192699842141
 31
0.0
  0
ARC
  5
16D4
330
1E
100
AcDbEntity
  8
STEMPEL
100
AcDbCircle
 10
84.30103070076095
 20
529.1515030312478
 30
0.0
 40
2.5
100
AcDbArc
 50
135.0
 51
180.0
  0
ARC
  5
16D5
330
1E
100
AcDbEntity
  8
STEMPEL
100
AcDbCircle
 10
84.30103070076095
 20
529.1515030312476
 30
0.0
 40
1.0
100
AcDbArc
 50
135.0
 51
180.0
  0
ARC
  5
16D6
330
1E
100
AcDbEntity
  8
STEMPEL
100
AcDbCircle
 10
83.80103070076094
 20
533.6012504995535
 30
0.0
 40
1.0
100
AcDbArc
 50
315.0
 51
0.0
  0
ARC
  5
16D7
330
1E
100
AcDbEntity
  8
STEMPEL
100
AcDbCircle
 10
84.30103070076095
 20
516.2643872063701
 30
0.0
 40
2.5
100
AcDbArc
 50
180.0
 51
239.9999999999995
  0
ARC
  5
16D8
330
1E
100
AcDbEntity
  8
STEMPEL
100
AcDbCircle
 10
84.30103070076095
 20
516.2643872063701
 30
0.0
 40
1.0
100
AcDbArc
 50
180.0
 51
239.9999999999995
  0
POINT
  5
16D9
330
1E
100
AcDbEntity
  8
DEFPOINTS
  6
ByBlock
 62
     0
100
AcDbPoint
 10
83.43500529697644
 20
515.76438720637
 30
0.0
  0
LINE
  5
16DA
330
1E
100
AcDbEntity
  8
STEMPEL
100
AcDbLine
 10
83.80103070076097
 20
515.3983618025856
 30
0.0
 11
89.55103070076097
 21
512.0785977547452
 31
0.0
  0
LINE
  5
16DB
330
1E
100
AcDbEntity
  8
STEMPEL
100
AcDbLine
 10
83.05103070076098
 20
514.0993236969089
 30
0.0
 11
88.80103070076097
 21
510.7795596490687
 31
0.0
  0
LINE
  5
16DC
330
1E
100
AcDbEntity
  8
STEMPEL
100
AcDbLine
 10
83.30103070076097
 20
516.2643872063701
 30
0.0
 11
83.30103070076097
 21
529.1515030312476
 31
0.0
  0
LINE
  5
16DD
330
1E
100
AcDbEntity
  8
STEMPEL
100
AcDbLine
 10
81.80103070076098
 20
516.2643872063701
 30
0.0
 11
81.80103070076098
 21
536.1870369371804
 31
0.0
  0
LINE
  5
16DE
330
1E
100
AcDbEntity
  8
STEMPEL
100
AcDbLine
 10
77.80320852725203
 20
512.1870369371804
 30
0.0
 11
86.36320852725226
 21
512.1870369371804
 31
0.0
  0
LINE
  5
16DF
330
1E
100
AcDbEntity
  8
STEMPEL
100
AcDbLine
 10
72.30320852725225
 20
536.1870369371804
 30
0.0
 11
84.80103070076097
 21
536.1870369371804
 31
0.0
  0
LINE
  5
16E0
330
1E
100
AcDbEntity
  8
HILF
100
AcDbLine
 10
72.30320852725225
 20
543.1870369371806
 30
0.0
 11
84.80103070076097
 21
543.1870369371806
 31
0.0
  0
LINE
  5
16E1
330
1E
100
AcDbEntity
  8
HILF
100
AcDbLine
 10
72.30320852725225
 20
537.1870369371804
 30
0.0
 11
84.80103070076097
 21
537.1870369371804
 31
0.0
  0
LINE
  5
16E2
330
1E
100
AcDbEntity
  8
STEMPEL
100
AcDbLine
 10
86.30103070076097
 20
533.6012504995535
 30
0.0
 11
86.30103070076097
 21
546.7728233748073
 31
0.0
  0
LINE
  5
16E3
330
1E
100
AcDbEntity
  8
STEMPEL
100
AcDbLine
 10
84.80103070076097
 20
533.6012504995535
 30
0.0
 11
84.80103070076097
 21
546.7728233748073
 31
0.0
  0
LINE
  5
16E5
330
1E
100
AcDbEntity
  8
STEMPEL
100
AcDbLine
 10
72.30320852725225
 20
534.5578718125816
 30
0.0
 11
72.30320852725225
 21
545.8162020617793
 31
0.0
  0
LINE
  5
16E6
330
1E
100
AcDbEntity
  8
STEMPEL
100
AcDbLine
 10
72.30320852725225
 20
531.9370369371804
 30
0.0
 11
72.30320852725225
 21
548.4370369371804
 31
0.0
  0
LINE
  5
16E7
330
1E
100
AcDbEntity
  8
STEMPEL
100
AcDbLine
 10
77.80320852725203
 20
544.1870369371804
 30
0.0
 11
77.80320852725203
 21
578.1870369371804
 31
0.0
  0
LINE
  5
16E8
330
1E
100
AcDbEntity
  8
STEMPEL
100
AcDbLine
 10
77.80320852725203
 20
544.1870369371806
 30
0.0
 11
77.80320852725203
 21
578.1523829612224
 31
0.0
  0
LINE
  5
16EB
330
1E
100
AcDbEntity
  8
STEMPEL
100
AcDbLine
 10
89.80103070076097
 20
571.3265650328611
 30
0.0
 11
89.80103070076095
 21
580.37934729158
 31
0.0
  0
LINE
  5
16F5
330
1E
100
AcDbEntity
  8
STEMPEL
100
AcDbLine
 10
89.80103070076097
 20
502.6870369371804
 30
0.0
 11
91.30103070076097
 21
502.6870369371804
 31
0.0
  0
LINE
  5
16F6
330
1E
100
AcDbEntity
  8
STEMPEL
100
AcDbLine
 10
89.80103070076095
 20
499.9947265827804
 30
0.0
 11
89.80103070076097
 21
509.0475088414997
 31
0.0
  0
LINE
  5
16F7
102
{ACAD_REACTORS
330
1A14
102
}
330
1E
100
AcDbEntity
  8
STEMPEL
100
AcDbLine
 10
77.80320852725203
 20
502.1870369371804
 30
0.0
 11
83.03433019301259
 21
502.1870369371804
 31
0.0
  0
LINE
  5
16FB
330
1E
100
AcDbEntity
  8
STEMPEL
100
AcDbLine
 10
91.30103070076097
 20
502.6870369371804
 30
0.0
 11
91.30103070076097
 21
577.6870369371804
 31
0.0
  0
LINE
  5
16FE
330
1E
100
AcDbEntity
  8
STEMPEL
100
AcDbLine
 10
77.80320852725203
 20
502.1870369371804
 30
0.0
 11
77.80320852725203
 21
536.1870369371804
 31
0.0
  0
LINE
  5
16FF
330
1E
100
AcDbEntity
  8
STEMPEL
100
AcDbLine
 10
77.80320852725203
 20
502.2216909131383
 30
0.0
 11
77.80320852725203
 21
536.1870369371804
 31
0.0
  0
ARC
  5
1700
330
1E
100
AcDbEntity
  8
STEMPEL
100
AcDbCircle
 10
87.80103070076094
 20
509.0475088414997
 30
0.0
 40
3.5
100
AcDbArc
 50
0.0
 51
59.99999999999946
  0
ARC
  5
1702
330
1E
100
AcDbEntity
  8
STEMPEL
100
AcDbCircle
 10
87.80103070076094
 20
509.0475088414997
 30
0.0
 40
2.0
100
AcDbArc
 50
0.0
 51
59.99999999999946
  0
INSERT
  5
1704
330
1E
100
AcDbEntity
  8
BEM
100
AcDbBlockReference
  2
*X9
 10
282.8348707053075
 20
212.2056652750999
 30
0.0
 50
90.0
1001
ACAD
1000
HATCH
1002
{
1070
    16
1000
NET,I
1040
5.0
1040
0.7853981633974483
1002
}
  0
LINE
  5
1705
330
1E
100
AcDbEntity
  8
STEMPEL
100
AcDbLine
 10
64.05320852725225
 20
532.6814834377152
 30
0.0
 11
72.30320852725225
 21
532.6814834377152
 31
0.0
  0
LINE
  5
1706
330
1E
100
AcDbEntity
  8
STEMPEL
100
AcDbLine
 10
63.30320852725225
 20
531.9370369371804
 30
0.0
 11
72.30320852725225
 21
531.9370369371804
 31
0.0
  0
LINE
  5
1707
330
1E
100
AcDbEntity
  8
STEMPEL
100
AcDbLine
 10
64.05320852725225
 20
547.6925904366455
 30
0.0
 11
72.30320852725225
 21
547.6925904366455
 31
0.0
  0
LINE
  5
1708
330
1E
100
AcDbEntity
  8
STEMPEL
100
AcDbLine
 10
63.30320852725225
 20
548.4370369371804
 30
0.0
 11
72.30320852725225
 21
548.4370369371804
 31
0.0
  0
ARC
  5
170A
330
1E
100
AcDbEntity
  8
STEMPEL
100
AcDbCircle
 10
69.58098630503005
 20
545.8162020617793
 30
0.0
 40
2.722222222222121
100
AcDbArc
 50
316.4264214034754
 51
43.57357859652237
  0
ARC
  5
170B
330
1E
100
AcDbEntity
  8
STEMPEL
100
AcDbCircle
 10
69.58098630502994
 20
534.5578718125816
 30
0.0
 40
2.722222222222224
100
AcDbArc
 50
316.4264214034776
 51
43.57357859652237
  0
ARC
  5
170C
330
1E
100
AcDbEntity
  8
STEMPEL
100
AcDbCircle
 10
62.53931963836319
 20
540.1870369371804
 30
0.0
 40
9.763888888888962
100
AcDbArc
 50
337.3964409848427
 51
22.60355901515604
  0
LINE
  5
178E
102
{ACAD_REACTORS
330
1946
330
1A14
102
}
330
1E
100
AcDbEntity
  8
STEMPEL
100
AcDbLine
 10
79.2519338156182
 20
590.1024522288512
 30
0.0
 11
86.30320852725224
 21
592.1243727161306
 31
0.0
  0
LINE
  5
178F
102
{ACAD_REACTORS
330
1946
102
}
330
1E
100
AcDbEntity
  8
STEMPEL
100
AcDbLine
 10
78.94713217852035
 20
591.6885340271496
 30
0.0
 11
85.85980328294226
 21
593.6707105696114
 31
0.0
  0
ARC
  5
1790
102
{ACAD_REACTORS
330
1946
102
}
330
1E
100
AcDbEntity
  8
STEMPEL
100
AcDbCircle
 10
79.95320852725233
 20
588.1799288369747
 30
0.0
 40
3.649999999999999
100
AcDbArc
 50
106.0000000000016
 51
180.0
  0
ARC
  5
1791
102
{ACAD_REACTORS
330
1946
330
1A14
102
}
330
1E
100
AcDbEntity
  8
STEMPEL
100
AcDbCircle
 10
79.80320852725224
 20
588.1799288369747
 30
0.0
 40
2.0
100
AcDbArc
 50
106.0000000000016
 51
180.0
  0
ARC
  5
1792
102
{ACAD_REACTORS
330
1946
102
}
330
1E
100
AcDbEntity
  8
STEMPEL
100
AcDbCircle
 10
76.64489178839862
 20
579.0664537598764
 30
0.0
 40
1.34168326114714
100
AcDbArc
 50
104.753890012619
 51
255.246109987381
  0
LINE
  5
1793
330
1E
100
AcDbEntity
  8
STEMPEL
100
AcDbLine
 10
75.30320852725157
 20
579.0664537598764
 30
0.0
 11
75.30320852725157
 21
574.6875729904322
 31
0.0
  0
ARC
  5
1794
102
{ACAD_REACTORS
330
1946
102
}
330
1E
100
AcDbEntity
  8
STEMPEL
100
AcDbCircle
 10
76.64489178839862
 20
574.6875729904322
 30
0.0
 40
1.34168326114714
100
AcDbArc
 50
104.753890012619
 51
255.246109987381
  0
LINE
  5
1795
102
{ACAD_REACTORS
330
1946
102
}
330
1E
100
AcDbEntity
  8
STEMPEL
100
AcDbLine
 10
76.30320852725157
 20
575.9850191443415
 30
0.0
 11
76.30320852725157
 21
577.7690076059669
 31
0.0
  0
LINE
  5
1796
102
{ACAD_REACTORS
330
1946
102
}
330
1E
100
AcDbEntity
  8
STEMPEL
100
AcDbLine
 10
76.3032085272518
 20
580.3638999137858
 30
0.0
 11
76.3032085272518
 21
588.1799288369743
 31
0.0
  0
ARC
  5
1797
102
{ACAD_REACTORS
330
1946
102
}
330
1E
100
AcDbEntity
  8
STEMPEL
100
AcDbCircle
 10
74.30320852725199
 20
562.5171639561021
 30
0.0
 40
3.5
100
AcDbArc
 50
299.9999999999998
 51
0.0
  0
ARC
  5
1798
102
{ACAD_REACTORS
330
1946
102
}
330
1E
100
AcDbEntity
  8
STEMPEL
100
AcDbCircle
 10
74.30320852725177
 20
562.6037664964806
 30
0.0
 40
2.0
100
AcDbArc
 50
300.0000000000078
 51
0.0
  0
LINE
  5
1799
102
{ACAD_REACTORS
330
1946
102
}
330
1E
100
AcDbEntity
  8
STEMPEL
100
AcDbLine
 10
74.05320852725203
 20
560.1500278524249
 30
0.0
 11
75.30320852725203
 21
560.8717156889119
 31
0.0
  0
LINE
  5
179A
102
{ACAD_REACTORS
330
1946
102
}
330
1E
100
AcDbEntity
  8
STEMPEL
100
AcDbLine
 10
74.80320852725225
 20
558.76438720637
 30
0.0
 11
76.05320852725203
 21
559.486075042857
 31
0.0
  0
ARC
  5
179B
330
1E
100
AcDbEntity
  8
STEMPEL
100
AcDbCircle
 10
76.64489178839897
 20
569.457243182485
 30
0.0
 40
1.34168326114714
100
AcDbArc
 50
180.0000000000016
 51
255.246109987381
  0
LINE
  5
179C
102
{ACAD_REACTORS
330
1946
102
}
330
1E
100
AcDbEntity
  8
STEMPEL
100
AcDbLine
 10
76.3032085272518
 20
562.6037664964806
 30
0.0
 11
76.3032085272518
 21
568.1597970285756
 31
0.0
  0
POINT
  5
179D
330
1E
100
AcDbEntity
  8
DEFPOINTS
  6
ByBlock
 62
     0
100
AcDbPoint
 10
77.30320852725111
 20
567.1870369371804
 30
0.0
  0
LINE
  5
179E
102
{ACAD_REACTORS
330
1946
102
}
330
1E
100
AcDbEntity
  8
STEMPEL
100
AcDbLine
 10
73.80320852725225
 20
544.6870369371804
 30
0.0
 11
72.30320852725225
 21
544.6870369371804
 31
0.0
  0
ARC
  5
179F
102
{ACAD_REACTORS
330
1946
102
}
330
1E
100
AcDbEntity
  8
STEMPEL
100
AcDbCircle
 10
75.80320852725222
 20
557.1189389391797
 30
0.0
 40
3.5
100
AcDbArc
 50
120.000000000007
 51
180.0
  0
ARC
  5
17A0
102
{ACAD_REACTORS
330
1946
102
}
330
1E
100
AcDbEntity
  8
STEMPEL
100
AcDbCircle
 10
75.80320852725222
 20
557.0323363988008
 30
0.0
 40
2.0
100
AcDbArc
 50
119.9999999999997
 51
180.0
  0
LINE
  5
17A3
330
1E
100
AcDbEntity
  8
STEMPEL
100
AcDbLine
 10
75.30320852725179
 20
569.457243182485
 30
0.0
 11
75.30320852725157
 21
574.6875729904322
 31
0.0
  0
LINE
  5
17A4
102
{ACAD_REACTORS
330
1946
102
}
330
1E
100
AcDbEntity
  8
STEMPEL
100
AcDbLine
 10
76.3032085272518
 20
568.1597970285756
 30
0.0
 11
76.30320852725157
 21
573.3901268365228
 31
0.0
  0
LINE
  5
17A5
102
{ACAD_REACTORS
330
1946
102
}
330
1E
100
AcDbEntity
  8
STEMPEL
100
AcDbLine
 10
73.80320852725225
 20
535.6870369371804
 30
0.0
 11
72.30320852725225
 21
535.6870369371804
 31
0.0
  0
LINE
  5
17A6
102
{ACAD_REACTORS
330
1946
102
}
330
1E
100
AcDbEntity
  8
STEMPEL
100
AcDbLine
 10
74.80320852725203
 20
521.609686667991
 30
0.0
 11
76.05320852725203
 21
520.8879988315039
 31
0.0
  0
ARC
  5
17A7
102
{ACAD_REACTORS
330
1946
102
}
330
1E
100
AcDbEntity
  8
STEMPEL
100
AcDbCircle
 10
74.30320852725199
 20
517.8569099182587
 30
0.0
 40
3.5
100
AcDbArc
 50
0.0
 51
60.00000000000026
  0
ARC
  5
17A8
102
{ACAD_REACTORS
330
1946
102
}
330
1E
100
AcDbEntity
  8
STEMPEL
100
AcDbCircle
 10
75.80320852725222
 20
523.2551349351811
 30
0.0
 40
3.5
100
AcDbArc
 50
180.0
 51
239.999999999993
  0
ARC
  5
17A9
102
{ACAD_REACTORS
330
1946
102
}
330
1E
100
AcDbEntity
  8
STEMPEL
100
AcDbCircle
 10
74.30320852725177
 20
517.7703073778802
 30
0.0
 40
2.0
100
AcDbArc
 50
0.0
 51
59.9999999999922
  0
LINE
  5
17AA
102
{ACAD_REACTORS
330
1946
102
}
330
1E
100
AcDbEntity
  8
STEMPEL
100
AcDbLine
 10
74.05320852725203
 20
520.2240460219359
 30
0.0
 11
75.30320852725179
 21
519.5023581854489
 31
0.0
  0
ARC
  5
17AB
102
{ACAD_REACTORS
330
1946
102
}
330
1E
100
AcDbEntity
  8
STEMPEL
100
AcDbCircle
 10
75.80320852725222
 20
523.34173747556
 30
0.0
 40
2.0
100
AcDbArc
 50
180.0
 51
240.0000000000002
  0
LINE
  5
17AC
330
1E
100
AcDbEntity
  8
MITTEL
100
AcDbLine
 10
52.30320852725222
 20
540.1870369371804
 30
0.0
 11
91.30320852725224
 21
540.1870369371804
 31
0.0
  0
POINT
  5
17AD
330
1E
100
AcDbEntity
  8
DEFPOINTS
  6
ByBlock
 62
     0
100
AcDbPoint
 10
76.3032085272518
 20
513.1870369371804
 30
0.0
  0
LINE
  5
17AE
102
{ACAD_REACTORS
330
1946
330
1A14
102
}
330
1E
100
AcDbEntity
  8
STEMPEL
100
AcDbLine
 10
79.25193381561808
 20
490.2716216455097
 30
0.0
 11
86.30320852725224
 21
488.2497011582302
 31
0.0
  0
ARC
  5
17AF
102
{ACAD_REACTORS
330
1946
102
}
330
1E
100
AcDbEntity
  8
STEMPEL
100
AcDbCircle
 10
79.95320852725232
 20
492.1941450373861
 30
0.0
 40
3.649999999999999
100
AcDbArc
 50
180.0
 51
253.9999999999984
  0
ARC
  5
17B0
102
{ACAD_REACTORS
330
1946
330
1A14
102
}
330
1E
100
AcDbEntity
  8
STEMPEL
100
AcDbCircle
 10
79.80320852725222
 20
492.1941450373861
 30
0.0
 40
2.0
100
AcDbArc
 50
180.0
 51
253.9999999999984
  0
LINE
  5
17B1
330
1E
100
AcDbEntity
  8
STEMPEL
100
AcDbLine
 10
86.30320852725224
 20
488.2497011582302
 30
0.0
 11
86.30320852725224
 21
489.1870369371802
 31
0.0
  0
LINE
  5
17B2
102
{ACAD_REACTORS
330
1946
330
1A14
102
}
330
1E
100
AcDbEntity
  8
STEMPEL
100
AcDbLine
 10
77.80320852725203
 20
588.1799288369747
 30
0.0
 11
77.80320852725203
 21
544.1870369371805
 31
0.0
  0
LINE
  5
17B4
102
{ACAD_REACTORS
330
1946
102
}
330
1E
100
AcDbEntity
  8
STEMPEL
100
AcDbLine
 10
76.3032085272518
 20
517.7703073778802
 30
0.0
 11
76.3032085272518
 21
492.1941450373865
 31
0.0
  0
LINE
  5
17B5
330
1E
100
AcDbEntity
  8
STEMPEL
100
AcDbLine
 10
86.30320852725224
 20
592.1243727161305
 30
0.0
 11
86.30320852725224
 21
591.1870369371803
 31
0.0
  0
LINE
  5
17B6
102
{ACAD_REACTORS
330
1946
102
}
330
1E
100
AcDbEntity
  8
STEMPEL
100
AcDbLine
 10
72.30320852725225
 20
557.1189389391797
 30
0.0
 11
72.30320852725225
 21
523.2551349351811
 31
0.0
  0
LINE
  5
17B7
102
{ACAD_REACTORS
330
1946
102
}
330
1E
100
AcDbEntity
  8
STEMPEL
100
AcDbLine
 10
73.80320852725225
 20
557.0323363988008
 30
0.0
 11
73.80320852725225
 21
544.1870369371805
 31
0.0
  0
LINE
  5
17B8
102
{ACAD_REACTORS
330
1946
102
}
330
1E
100
AcDbEntity
  8
STEMPEL
100
AcDbLine
 10
78.94713217852035
 20
488.6855398472111
 30
0.0
 11
85.85980328294233
 21
486.7033633047494
 31
0.0
  0
LINE
  5
17BA
102
{ACAD_REACTORS
330
1946
102
}
330
1E
100
AcDbEntity
  8
STEMPEL
100
AcDbLine
 10
86.30320852725224
 20
592.1243727161306
 30
0.0
 11
85.85980328294231
 21
593.6707105696113
 31
0.0
  0
LINE
  5
17BB
102
{ACAD_REACTORS
330
1946
102
}
330
1E
100
AcDbEntity
  8
STEMPEL
100
AcDbLine
 10
86.30320852725224
 20
488.2497011582302
 30
0.0
 11
85.85980328294231
 21
486.7033633047493
 31
0.0
  0
LINE
  5
17BD
102
{ACAD_REACTORS
330
1946
102
}
330
1E
100
AcDbEntity
  8
STEMPEL
100
AcDbLine
 10
73.80320852725225
 20
536.1870369371804
 30
0.0
 11
73.80320852725225
 21
523.34173747556
 31
0.0
  0
LINE
  5
17BE
102
{ACAD_REACTORS
330
1946
330
1A14
102
}
330
1E
100
AcDbEntity
  8
STEMPEL
100
AcDbLine
 10
77.80320852725203
 20
536.1870369371804
 30
0.0
 11
77.80320852725203
 21
492.1941450373861
 31
0.0
  0
LINE
  5
17BF
102
{ACAD_REACTORS
330
191E
330
1A14
330
1AE3
102
}
330
1E
100
AcDbEntity
  8
STEMPEL
100
AcDbLine
 10
83.03433019301293
 20
502.1870369371804
 30
0.0
 11
83.03433019301293
 21
489.1870369371802
 31
0.0
  0
LINE
  5
17C0
330
1E
100
AcDbEntity
  8
STEMPEL
  6
Continuous
100
AcDbLine
 10
83.03433019301293
 20
502.1870369371804
 30
0.0
 11
83.03433019301293
 21
500.421639608905
 31
0.0
  0
INSERT
  5
17FD
330
1E
100
AcDbEntity
  8
BEM
100
AcDbBlockReference
  2
LORO
 10
349.4744929773267
 20
574.1870369371804
 30
0.0
 41
0.9248843894513356
 42
0.9248843894513356
 43
0.9248843894513186
  0
CIRCLE
  5
17FF
330
1E
100
AcDbEntity
  8
STEMPEL
100
AcDbCircle
 10
365.7540287725928
 20
540.1870369371804
 30
0.0
 40
8.25
  0
CIRCLE
  5
1800
330
1E
100
AcDbEntity
  8
STEMPEL
100
AcDbCircle
 10
365.7540287725928
 20
540.1870369371804
 30
0.0
 40
6.985206773719767
  0
CIRCLE
  5
1801
330
1E
100
AcDbEntity
  8
HILF
100
AcDbCircle
 10
365.7540287725928
 20
540.1870369371804
 30
0.0
 40
16.44336621861237
  0
CIRCLE
  5
1802
330
1E
100
AcDbEntity
  8
HILF
100
AcDbCircle
 10
365.7540287725928
 20
540.1870369371804
 30
0.0
 40
21.0748115340003
  0
CIRCLE
  5
1804
330
1E
100
AcDbEntity
  8
STEMPEL
100
AcDbCircle
 10
365.7540287725928
 20
540.1870369371804
 30
0.0
 40
53.53046787167112
  0
CIRCLE
  5
1805
330
1E
100
AcDbEntity
  8
HILF
100
AcDbCircle
 10
365.7540287725928
 20
540.1870369371804
 30
0.0
 40
50.68564445792645
  0
LINE
  5
1806
330
1E
100
AcDbEntity
  8
MITTEL
100
AcDbLine
 10
307.2235609009216
 20
540.1870369371804
 30
0.0
 11
424.284496644264
 21
540.1870369371804
 31
0.0
  0
HATCH
  5
18AC
330
1E
100
AcDbEntity
  8
SCHRAFF
100
AcDbHatch
 10
0.0
 20
0.0
 30
0.0
210
0.0
220
0.0
230
1.0
  2
_USER
 70
     0
 71
     1
 91
        3
 92
        7
 72
     1
 73
     1
 93
       22
 10
216.034330193013
 20
689.8804372726118
 42
-0.1420008527982259
 10
217.2743301930129
 20
694.1585677054059
 42
0.1420008527982334
 10
219.134330193013
 20
700.5757633545973
 42
0.0
 10
219.134330193013
 20
719.8469038739853
 42
-0.1108768121412012
 10
220.286030956328
 20
724.9766605613283
 42
0.1089723179978437
 10
222.6343301930129
 20
735.4869018982362
 42
0.0
 10
222.6343301930129
 20
742.5822854746094
 42
0.1095178116832415
 10
220.3295017541145
 20
752.9786947134306
 42
0.0
 10
219.2997348633531
 20
755.1870369371804
 42
0.0
 10
217.534330193013
 20
755.1870369371804
 42
0.0
 10
218.8794092948558
 20
752.3025054946456
 42
-0.1095178116832438
 10
221.0343301930129
 20
742.5822854746093
 42
0.0
 10
221.0343301930129
 20
735.6212409122806
 42
-0.1112043308284187
 10
218.80386702459
 20
725.5844711330389
 42
0.1093117521961046
 10
217.534330193013
 20
719.8469038739853
 42
0.0
 10
217.534330193013
 20
700.5757633545973
 42
-0.1420008527982276
 10
215.922330193013
 20
695.0141937919649
 42
0.1420008527982334
 10
214.434330193013
 20
689.8804372726117
 42
0.0
 10
214.434330193013
 20
186.9416275241895
 42
0.0
 10
213.3645225637983
 20
180.1870369371804
 42
0.0
 10
214.9844662307017
 20
180.1870369371804
 42
0.0
 10
216.034330193013
 20
186.8157064697326
 42
0.0
 97
       22
330
11E7
330
11E8
330
11E3
330
11EC
330
11F0
330
11EE
330
11E9
330
11F2
330
11C4
330
11F1
330
11EA
330
11ED
330
11EF
330
11EB
330
11E2
330
11E6
330
11E4
330
11D7
330
11C9
330
11CD
330
11CA
330
11D8
 92
        7
 72
     1
 73
     1
 93
       20
 10
128.634330193013
 20
689.8804372726118
 42
0.1420008527982281
 10
127.146330193013
 20
695.0141937919648
 42
-0.1420008527982305
 10
125.5343301930129
 20
700.5757633545973
 42
0.0
 10
125.5343301930129
 20
719.8469038739853
 42
0.1093117521961237
 10
124.2647933614354
 20
725.5844711330398
 42
-0.1112043308283809
 10
122.0343301930129
 20
735.621240912278
 42
0.0
 10
122.0343301930129
 20
742.5822854746094
 42
-0.1095178116832431
 10
124.1892510911702
 20
752.3025054946456
 42
0.0
 10
125.5343301930129
 20
755.1870369371804
 42
0.0
 10
123.768925522673
 20
755.1870369371803
 42
0.0
 10
122.7391586319114
 20
752.9786947134306
 42
0.1095178116832432
 10
120.434330193013
 20
742.5822854746091
 42
0.0
 10
120.434330193013
 20
735.4869018981545
 42
0.1089723179968048
 10
122.7826294296888
 20
724.9766605613474
 42
-0.1108768121416478
 10
123.934330193013
 20
719.8469038739853
 42
0.0
 10
123.934330193013
 20
700.5757633545973
 42
0.142000852798232
 10
125.7943301930129
 20
694.1585677054059
 42
-0.142000852798227
 10
127.0343301930129
 20
689.8804372726118
 42
0.0
 10
127.0343301930129
 20
575.0870369371803
 42
0.0
 10
128.634330193013
 20
575.0870369371804
 42
0.0
 97
       20
330
11FB
330
11FA
330
11F7
330
11FF
330
1203
330
1201
330
11FD
330
1205
330
11C4
330
1206
330
11FE
330
1202
330
1204
330
1200
330
11F8
330
11F9
330
11FC
330
11F4
330
147A
330
11F3
 92
        7
 72
     0
 73
     1
 93
        6
 10
128.6343301930131
 20
505.2870369371802
 10
127.0343301930129
 20
505.2870369371802
 10
127.034330193013
 20
186.8157064697318
 10
128.0841941553241
 20
180.1870369371804
 10
129.7041378222277
 20
180.1870369371804
 10
128.634330193013
 20
186.9416275241887
 97
        6
330
1475
330
14AE
330
11C8
330
11CD
330
11C7
330
14AD
 75
     0
 76
     0
 52
45.0
 41
2.0
 77
     0
 78
     1
 53
45.0
 43
0.0
 44
0.0
 45
-1.414213562373094
 46
1.414213562373095
 79
     0
 47
1.192265809326924
 98
        3
 10
215.0808692095743
 20
606.8135680670173
 10
127.983908651433
 20
604.4290348042925
 10
127.983908651433
 20
400.5515813587415
  0
HATCH
  5
18F6
330
1E
100
AcDbEntity
  8
SCHRAFF
100
AcDbHatch
 10
0.0
 20
0.0
 30
0.0
210
0.0
220
0.0
230
1.0
  2
_USER
 70
     0
 71
     1
 91
        3
 92
        7
 72
     0
 73
     1
 93
        4
 10
235.5343301930129
 20
230.1870369371804
 10
238.034330193013
 20
230.1870369371804
 10
238.0343301930129
 20
755.1870369371805
 10
235.5343301930129
 20
755.1870369371805
 97
        4
330
11C4
330
11D5
330
11DB
330
11D6
 92
        7
 72
     0
 73
     1
 93
        4
 10
107.5343301930129
 20
755.1870369371805
 10
105.0343301930129
 20
755.1870369371804
 10
105.0343301930128
 20
589.1870369371803
 10
107.5343301930129
 20
589.1870369371802
 97
        4
330
11C4
330
1208
330
14B7
330
1207
 92
        7
 72
     0
 73
     1
 93
        4
 10
107.5343301930129
 20
491.1870369371801
 10
105.0343301930129
 20
491.1870369371801
 10
105.0343301930129
 20
230.1870369371805
 10
107.5343301930129
 20
230.1870369371805
 97
        4
330
14B8
330
14B6
330
11C5
330
14B5
 75
     0
 76
     0
 52
135.0
 41
2.0
 77
     0
 78
     1
 53
135.0
 43
0.0
 44
-5.0
 45
-1.414213562373095
 46
-1.414213562373094
 79
     0
 47
1.192265809326924
 98
        3
 10
236.5568321913047
 20
654.2732622437094
 10
106.5079456697026
 20
643.5428704779221
 10
106.5079456697026
 20
425.3582273516156
  0
HATCH
  5
1913
330
1E
100
AcDbEntity
  8
SCHRAFF
100
AcDbHatch
 10
0.0
 20
0.0
 30
0.0
210
0.0
220
0.0
230
1.0
  2
_USER
 70
     0
 71
     0
 91
        2
 92
        7
 72
     1
 73
     1
 93
       13
 10
127.0343301930129
 20
575.0870369371804
 42
0.0
 10
127.034330193013
 20
576.6870369371803
 42
0.0
 10
121.0557997932108
 20
576.6870369371803
 42
-0.1488727637539886
 10
116.5972743060977
 20
578.0446314632
 42
0.1495707665362708
 10
102.596050144822
 20
582.2870369371803
 42
0.0
 10
93.58325260013145
 20
582.2870369371803
 42
0.1093332246020741
 10
83.03433019301293
 20
579.9524342654556
 42
0.0
 10
83.03433019301293
 20
578.1870369371804
 42
0.0
 10
83.69398527539898
 20
578.4946391538378
 42
-0.1095178116832409
 10
93.58325260013126
 20
580.6870369371803
 42
0.0
 10
102.5982712270973
 20
580.6870369371803
 42
-0.1495942377330216
 10
115.705569208675
 20
576.7161503684037
 42
0.1488727637539777
 10
121.0557997932104
 20
575.0870369371804
 42
0.0
 97
        0
 92
        7
 72
     1
 73
     1
 93
       13
 10
102.5960501448221
 20
498.0870369371802
 42
0.14957076653627
 10
116.5972743060977
 20
502.3294424111607
 42
-0.148872763753977
 10
121.0557997932104
 20
503.6870369371801
 42
0.0
 10
127.0343301930129
 20
503.6870369371802
 42
0.0
 10
127.0343301930129
 20
505.2870369371802
 42
0.0
 10
121.0557997932109
 20
505.2870369371802
 42
0.1488727637539889
 10
115.7055692086751
 20
503.6579235059567
 42
-0.149594237733021
 10
102.5982712270975
 20
499.6870369371802
 42
0.0
 10
93.58325260013158
 20
499.6870369371802
 42
-0.1095178116832428
 10
83.69398527539908
 20
501.8794347205226
 42
0.0
 10
83.03433019301291
 20
502.1870369371803
 42
0.0
 10
83.03433019301293
 20
500.421639608905
 42
0.1093332246020748
 10
93.58325260013154
 20
498.0870369371802
 42
0.0
 97
        0
 75
     0
 76
     0
 52
135.0
 41
2.0
 77
     0
 78
     1
 53
135.0
 43
0.0
 44
-5.0
 45
-1.414213562373095
 46
-1.414213562373094
 79
     0
 47
0.2733648096976607
 98
        2
 10
123.5492980578738
 20
575.7204018855452
 10
99.74974115823124
 20
498.6315233457237
  0
HATCH
  5
191E
330
1E
100
AcDbEntity
  8
SCHRAFF
100
AcDbHatch
 10
0.0
 20
0.0
 30
0.0
210
0.0
220
0.0
230
1.0
  2
_USER
 70
     0
 71
     1
 91
        2
 92
        7
 72
     0
 73
     1
 93
        4
 10
105.0343301930128
 20
589.1870369371802
 10
105.0343301930128
 20
591.1870369371803
 10
83.03433019301293
 20
591.1870369371804
 10
83.03433019301291
 20
589.1870369371803
 97
        4
330
14B3
330
14B2
330
14B7
330
1208
 92
        7
 72
     0
 73
     1
 93
        4
 10
83.03433019301293
 20
491.1870369371803
 10
83.03433019301291
 20
489.1870369371803
 10
105.0343301930129
 20
489.1870369371804
 10
105.0343301930129
 20
491.1870369371801
 97
        4
330
14B8
330
17BF
330
14B4
330
14B6
 75
     0
 76
     0
 52
45.0
 41
2.0
 77
     0
 78
     1
 53
45.0
 43
0.0
 44
-5.0
 45
-1.414213562373094
 46
1.414213562373095
 79
     0
 47
0.2733648135935636
 98
        2
 10
97.68651969199254
 20
589.9683070653066
 10
92.2153569235761
 20
490.4635143874068
  0
HATCH
  5
1946
330
1E
100
AcDbEntity
  8
SCHRAFF
100
AcDbHatch
 10
0.0
 20
0.0
 30
0.0
210
0.0
220
0.0
230
1.0
  2
_USER
 70
     0
 71
     1
 91
        2
 92
        7
 72
     1
 73
     1
 93
       21
 10
76.3032085272518
 20
562.6037664964806
 42
-0.267949192431072
 10
75.30320852725203
 20
560.8717156889119
 42
0.0
 10
74.05320852725203
 20
560.1500278524249
 42
0.2679491924311049
 10
72.30320852725225
 20
557.1189389391795
 42
0.0
 10
72.30320852725225
 20
544.6870369371804
 42
0.0
 10
73.80320852725226
 20
544.6870369371804
 42
0.0
 10
73.80320852725225
 20
557.0323363988008
 42
-0.2679491924311194
 10
74.80320852725201
 20
558.7643872063698
 42
0.0
 10
76.05320852725203
 20
559.486075042857
 42
0.2679491924311232
 10
77.80320852725203
 20
562.5171639561025
 42
0.0
 10
77.80320852725203
 20
588.1799288369747
 42
-0.3345953195020192
 10
79.25193381561799
 20
590.1024522288511
 42
0.0
 10
86.30320852725224
 20
592.1243727161306
 42
0.0
 10
85.85980328294231
 20
593.6707105696114
 42
0.0
 10
78.94713217852035
 20
591.6885340271496
 42
0.3345953195021398
 10
76.3032085272518
 20
588.1799288369743
 42
0.0
 10
76.3032085272518
 20
580.3638999137858
 42
0.7707448952597935
 10
76.30320852725157
 20
577.7690076059669
 42
0.0
 10
76.30320852725157
 20
575.9850191443415
 42
0.7707448952596609
 10
76.30320852725157
 20
573.3901268365228
 42
0.0
 10
76.3032085272518
 20
568.1597970285756
 42
0.0
 97
       21
330
1791
330
178E
330
17BA
330
178F
330
1790
330
1796
330
1792
330
1795
330
1794
330
17A4
330
179C
330
1798
330
1799
330
179F
330
17B6
330
179E
330
17B7
330
17A0
330
179A
330
1797
330
17B2
 92
        7
 72
     1
 73
     1
 93
       16
 10
73.80320852725226
 20
535.6870369371804
 42
0.0
 10
72.30320852725225
 20
535.6870369371804
 42
0.0
 10
72.30320852725225
 20
523.2551349351811
 42
0.2679491924311081
 10
74.05320852725229
 20
520.2240460219358
 42
0.0
 10
75.30320852725179
 20
519.5023581854489
 42
-0.2679491924311201
 10
76.3032085272518
 20
517.7703073778801
 42
0.0
 10
76.3032085272518
 20
492.1941450373865
 42
0.3345953195020795
 10
78.94713217851952
 20
488.6855398472114
 42
0.0
 10
85.85980328294233
 20
486.7033633047494
 42
0.0
 10
86.30320852725226
 20
488.2497011582302
 42
0.0
 10
79.25193381561808
 20
490.2716216455097
 42
-0.3345953195020455
 10
77.80320852725203
 20
492.1941450373861
 42
0.0
 10
77.80320852725203
 20
517.8569099182587
 42
0.2679491924310972
 10
76.05320852725203
 20
520.8879988315039
 42
0.0
 10
74.80320852725203
 20
521.609686667991
 42
-0.2679491924311215
 10
73.80320852725225
 20
523.34173747556
 42
0.0
 97
       16
330
17A5
330
17B6
330
17A8
330
17AA
330
17A9
330
17B4
330
17AF
330
17B8
330
17BB
330
17AE
330
17B0
330
17BE
330
17A7
330
17A6
330
17AB
330
17BD
 75
     0
 76
     0
 52
135.0
 41
2.0
 77
     0
 78
     1
 53
135.0
 43
0.0
 44
-5.0
 45
-1.414213562373095
 46
-1.414213562373094
 79
     0
 47
0.2733648135935636
 98
        2
 10
77.16965740547948
 20
583.4075522870746
 10
73.06628342421618
 20
527.6411287556263
  0
ARC
  5
1947
102
{ACAD_REACTORS
330
1953
330
1AE3
102
}
330
1E
100
AcDbEntity
  8
SCHRAFF
100
AcDbCircle
 10
127.0343301930129
 20
576.6870369371803
 30
0.0
 40
4.0
100
AcDbArc
 50
90.0
 51
180.0
  0
ARC
  5
1948
102
{ACAD_REACTORS
330
195C
102
}
330
1E
100
AcDbEntity
  8
SCHRAFF
100
AcDbCircle
 10
105.0343301930128
 20
591.1870369371803
 30
0.0
 40
4.0
100
AcDbArc
 50
90.0
 51
180.0
  0
ARC
  5
1949
102
{ACAD_REACTORS
330
195C
102
}
330
1E
100
AcDbEntity
  8
SCHRAFF
100
AcDbCircle
 10
105.0343301930128
 20
489.1870369371803
 30
0.0
 40
4.0
100
AcDbArc
 50
179.9999999999999
 51
269.9999999999999
  0
ARC
  5
194A
102
{ACAD_REACTORS
330
1953
330
1AE3
102
}
330
1E
100
AcDbEntity
  8
SCHRAFF
100
AcDbCircle
 10
127.0343301930129
 20
503.6870369371803
 30
0.0
 40
4.0
100
AcDbArc
 50
179.9999999999999
 51
269.9999999999999
  0
HATCH
  5
1953
330
1E
100
AcDbEntity
  8
SCHRAFF
100
AcDbHatch
 10
0.0
 20
0.0
 30
0.0
210
0.0
220
0.0
230
1.0
  2
_USER
 70
     0
 71
     1
 91
        2
 92
        7
 72
     1
 73
     1
 93
        3
 10
123.0343301930129
 20
576.6870369371803
 42
0.0
 10
127.0343301930129
 20
576.6870369371803
 42
0.0
 10
127.0343301930129
 20
580.6870369371803
 42
0.4142135623730951
 97
        3
330
1947
330
1480
330
11F4
 92
        7
 72
     1
 73
     1
 93
        3
 10
127.0343301930129
 20
499.6870369371803
 42
0.0
 10
127.034330193013
 20
503.6870369371801
 42
0.0
 10
123.0343301930129
 20
503.6870369371801
 42
0.4142135623730879
 97
        3
330
1459
330
194A
330
14AE
 75
     0
 76
     0
 52
0.0
 41
0.1
 77
     0
 78
     1
 53
0.0
 43
0.0
 44
-5.0
 45
0.0
 46
0.1
 79
     0
 47
0.2719965296138737
 98
        2
 10
125.1651571260204
 20
578.6206380690871
 10
124.620775596195
 20
501.6456182287218
  0
HATCH
  5
195C
330
1E
100
AcDbEntity
  8
SCHRAFF
100
AcDbHatch
 10
0.0
 20
0.0
 30
0.0
210
0.0
220
0.0
230
1.0
  2
_USER
 70
     0
 71
     1
 91
        2
 92
        7
 72
     1
 73
     1
 93
        3
 10
105.0343301930128
 20
591.1870369371801
 42
0.0
 10
105.0343301930128
 20
595.1870369371802
 42
0.4142135623730951
 10
101.0343301930129
 20
591.1870369371803
 42
0.0
 97
        3
330
1948
330
14B3
330
1208
 92
        7
 72
     1
 73
     1
 93
        3
 10
105.0343301930129
 20
485.1870369371803
 42
0.0
 10
105.0343301930129
 20
489.1870369371802
 42
0.0
 10
101.0343301930128
 20
489.1870369371802
 42
0.4142135623731014
 97
        3
330
14B4
330
1949
330
14B6
 75
     0
 76
     0
 52
0.0
 41
0.1
 77
     0
 78
     1
 53
0.0
 43
0.0
 44
-5.0
 45
0.0
 46
0.1
 79
     0
 47
0.2719965296138737
 98
        2
 10
103.3900407092305
 20
592.4924612157512
 10
102.5734760342939
 20
487.5017988602201
  0
HATCH
  5
1987
330
1E
100
AcDbEntity
  8
SCHRAFF
100
AcDbHatch
 10
0.0
 20
0.0
 30
0.0
210
0.0
220
0.0
230
1.0
  2
_USER
 70
     0
 71
     0
 91
        2
 92
        7
 72
     1
 73
     1
 93
       20
 10
89.55103070076097
 20
568.2954761196156
 42
0.2679491924311215
 10
91.30103070076097
 20
571.3265650328611
 42
0.0
 10
91.30103070076099
 20
577.6870369371805
 42
0.0
 10
89.80103070076095
 20
577.6870369371804
 42
0.0
 10
89.80103070076097
 20
571.3265650328611
 42
-0.2679491924311214
 10
88.80103070076097
 20
569.5945142252923
 42
0.0
 10
83.05103070076098
 20
566.2747501774519
 42
0.267949192431121
 10
81.80103070076098
 20
564.1096866679908
 42
0.0
 10
81.80103070076098
 20
551.2225708431132
 42
0.1989123673796549
 10
82.53326374779453
 20
549.4548038901468
 42
0.0
 10
84.50813748194741
 20
547.4799301559938
 42
-0.1989123673796702
 10
84.80103070076097
 20
546.7728233748073
 42
0.0
 10
84.80103070076099
 20
540.1870369371805
 42
0.0
 10
86.30103070076096
 20
540.1870369371804
 42
0.0
 10
86.30103070076097
 20
546.7728233748073
 42
0.1989123673796705
 10
85.56879765372732
 20
548.5405903277738
 42
0.0
 10
83.59392391957431
 20
550.5154640619266
 42
-0.1989123673796161
 10
83.30103070076097
 20
551.222570843113
 42
0.0
 10
83.30103070076097
 20
564.1096866679908
 42
-0.2679491924311201
 10
83.80103070076096
 20
564.9757120717752
 42
0.0
 97
        0
 92
        7
 72
     1
 73
     1
 93
       20
 10
86.30103070076097
 20
540.1870369371804
 42
0.0
 10
84.80103070076095
 20
540.1870369371804
 42
0.0
 10
84.80103070076097
 20
533.6012504995535
 42
-0.1989123673796345
 10
84.50813748194747
 20
532.894143718367
 42
0.0
 10
82.53326374779453
 20
530.9192699842141
 42
0.1989123673796549
 10
81.80103070076098
 20
529.1515030312478
 42
0.0
 10
81.80103070076098
 20
516.2643872063701
 42
0.2679491924311261
 10
83.05103070076105
 20
514.0993236969089
 42
0.0
 10
88.80103070076097
 20
510.7795596490687
 42
-0.2679491924311365
 10
89.80103070076097
 20
509.0475088414997
 42
0.0
 10
89.80103070076097
 20
502.6870369371804
 42
0.0
 10
91.30103070076097
 20
502.6870369371804
 42
0.0
 10
91.30103070076097
 20
509.0475088414997
 42
0.2679491924311214
 10
89.55103070076097
 20
512.0785977547452
 42
0.0
 10
83.80103070076097
 20
515.3983618025856
 42
-0.2679491924311222
 10
83.30103070076097
 20
516.2643872063701
 42
0.0
 10
83.30103070076097
 20
529.1515030312476
 42
-0.198912367379658
 10
83.59392391957442
 20
529.8586098124342
 42
0.0
 10
85.5687976537273
 20
531.833483546587
 42
0.1989123673796717
 10
86.30103070076097
 20
533.6012504995535
 42
0.0
 97
        0
 75
     0
 76
     0
 52
45.0
 41
2.0
 77
     0
 78
     1
 53
45.0
 43
0.0
 44
-5.0
 45
-1.414213562373094
 46
1.414213562373095
 79
     0
 47
0.1691946949933032
 98
        2
 10
87.63523477696981
 20
567.5940711881674
 10
85.60346404438405
 20
536.9698314645058
  0
HATCH
  5
199A
330
1E
100
AcDbEntity
  8
SCHRAFF
100
AcDbHatch
 10
0.0
 20
0.0
 30
0.0
210
0.0
220
0.0
230
1.0
  2
NET
 70
     0
 71
     0
 91
        2
 92
        7
 72
     1
 73
     1
 93
        8
 10
89.80103070076095
 20
580.37934729158
 42
0.0686040017685836
 10
83.69398527539898
 20
578.4946391538378
 42
0.0
 10
83.03433019301307
 20
578.1870369371804
 42
0.0
 10
77.80320852725203
 20
578.1870369371804
 42
0.0
 10
77.80320852725203
 20
568.1870369371804
 42
0.0
 10
86.36320852725209
 20
568.1870369371804
 42
0.0
 10
88.80103070076097
 20
569.5945142252923
 42
0.2679491924311212
 10
89.80103070076097
 20
571.3265650328611
 42
0.0
 97
        0
 92
        7
 72
     1
 73
     1
 93
        8
 10
88.80103070076097
 20
510.7795596490687
 42
0.0
 10
86.36320852725216
 20
512.1870369371803
 42
0.0
 10
77.80320852725203
 20
512.1870369371804
 42
0.0
 10
77.80320852725203
 20
502.1870369371804
 42
0.0
 10
83.03433019301245
 20
502.1870369371805
 42
0.0
 10
83.69398527539908
 20
501.8794347205226
 42
0.0686040017685823
 10
89.80103070076095
 20
499.9947265827804
 42
0.0
 10
89.80103070076097
 20
509.0475088414997
 42
0.2679491924311365
 97
        0
 75
     0
 76
     1
 52
45.0
 41
15.0
 77
     0
 78
     2
 53
45.0
 43
0.0
 44
-5.0
 45
-1.325825214724776
 46
1.325825214724776
 79
     0
 53
135.0
 43
0.0
 44
-5.0
 45
-1.325825214724776
 46
-1.325825214724776
 79
     0
 47
0.1691946949933032
 98
        2
 10
82.72511804582837
 20
571.6547438368395
 10
81.03197513369014
 20
510.4062624103979
  0
HATCH
  5
1A14
330
1E
100
AcDbEntity
  8
SCHRAFF
100
AcDbHatch
 10
0.0
 20
0.0
 30
0.0
210
0.0
220
0.0
230
1.0
  2
HONEY
 70
     0
 71
     1
 91
        2
 92
        7
 72
     1
 73
     1
 93
        5
 10
83.03433019301293
 20
591.1870369371803
 42
0.0
 10
79.2519338156182
 20
590.1024522288512
 42
0.3345953195020891
 10
77.80320852725203
 20
588.1799288369745
 42
0.0
 10
77.80320852725203
 20
578.1870369371804
 42
0.0
 10
83.03433019301293
 20
578.1870369371804
 42
0.0
 97
        5
330
178E
330
1791
330
17B2
330
16AD
330
14B2
 92
        7
 72
     1
 73
     1
 93
        5
 10
77.80320852725203
 20
492.1941450373861
 42
0.3345953195020212
 10
79.25193381561793
 20
490.2716216455097
 42
0.0
 10
83.03433019301291
 20
489.1870369371804
 42
0.0
 10
83.03433019301291
 20
502.1870369371804
 42
0.0
 10
77.80320852725203
 20
502.1870369371804
 42
0.0
 97
        5
330
16F7
330
17BE
330
17B0
330
17AE
330
17BF
 75
     0
 76
     1
 52
0.0
 41
25.0
 77
     0
 78
     3
 53
0.0
 43
0.0
 44
-5.0
 45
4.6875
 46
2.706329374999999
 79
     2
 49
3.125
 49
-6.25
 53
120.0
 43
0.0
 44
-5.0
 45
-4.687499989758061
 46
2.706329392739557
 79
     2
 49
3.124999999999999
 49
-6.249999999999999
 53
60.0
 43
0.0
 44
-5.0
 45
0.0000000102419385
 46
5.412658767739556
 79
     2
 49
-6.25
 49
3.125
 47
0.3949150306646607
 98
        2
 10
81.3728507957917
 20
582.3481300409646
 10
80.18727052916437
 20
496.2566521405472
  0
DIMENSION
  5
1A15
330
1E
100
AcDbEntity
  8
SCHRAFF
100
AcDbDimension
  2
*D10
 10
451.8734695507118
 20
540.1870369371804
 30
0.0
 11
445.3734695507117
 21
360.1870369371805
 31
0.0
 70
    32
 71
     5
 42
360.0
  3
Standard
100
AcDbAlignedDimension
 13
409.2041648102816
 23
180.1870369371804
 33
0.0
 14
424.284496644264
 24
540.1870369371804
 34
0.0
 50
90.0
100
AcDbRotatedDimension
1001
ACAD
1000
DSTYLE
1002
{
1070
    40
1040
2.0
1070
    41
1040
3.5
1070
    42
1040
1.0
1070
    43
1040
7.0
1070
    44
1040
1.0
1070
    73
1070
     0
1070
    74
1070
     0
1070
    77
1070
     1
1070
    78
1070
     8
1070
    79
1070
     2
1070
   140
1040
3.5
1070
   141
1040
1.5
1070
   146
1040
0.5142857142857144
1070
   147
1040
1.5
1070
   172
1070
     1
1070
   178
1070
     1
1070
   179
1070
     2
1070
   271
1070
     2
1070
   272
1070
     2
1070
   284
1070
     8
1070
   285
1070
     8
1070
   286
1070
     8
1002
}
  0
HATCH
  5
1A3C
330
1E
100
AcDbEntity
  8
SCHRAFF
100
AcDbHatch
 10
0.0
 20
0.0
 30
0.0
210
0.0
220
0.0
230
1.0
  2
NET
 70
     0
 71
     0
 91
        2
 92
        7
 72
     0
 73
     1
 93
       11
 10
235.0453968745501
 20
244.1882552831424
 10
232.9755978811451
 20
246.1870369371804
 10
216.034330193013
 20
246.1870369371805
 10
216.034330193013
 20
236.1870369371805
 10
220.5343301930129
 20
236.1870369371804
 10
223.9984318081507
 20
230.1870369371804
 10
231.0343301930132
 20
230.1870369371803
 10
231.0343301930132
 20
228.1870369371805
 10
238.034330193013
 20
228.1870369371804
 10
238.034330193013
 20
230.1870369371804
 10
235.5343301930129
 20
230.1870369371804
 97
        0
 92
        7
 72
     0
 73
     1
 93
       11
 10
127.0343301930129
 20
246.1870369371804
 10
110.0930625048809
 20
246.1870369371804
 10
108.023263511476
 20
244.1882552831423
 10
107.5343301930132
 20
230.1870369371805
 10
105.0343301930129
 20
230.1870369371804
 10
105.0343301930129
 20
228.1870369371805
 10
112.0343301930132
 20
228.1870369371805
 10
112.0343301930131
 20
230.1870369371804
 10
119.0702285778754
 20
230.1870369371803
 10
122.5343301930132
 20
236.1870369371804
 10
127.0343301930129
 20
236.1870369371804
 97
        0
 75
     0
 76
     1
 52
45.0
 41
20.0
 77
     0
 78
     2
 53
45.0
 43
-53.43030490809088
 44
-36.77751923294318
 45
-1.767766952966368
 46
1.767766952966368
 79
     0
 53
135.0
 43
-53.43030490809088
 44
-36.77751923294318
 45
-1.767766952966368
 46
-1.767766952966368
 79
     0
 47
0.2159429178754844
 98
        2
 10
227.1407843427228
 20
237.2730385884202
 10
113.0541412151501
 20
237.4889814483665
  0
LINE
  5
1A3D
330
1E
100
AcDbEntity
  8
STEMPEL
100
AcDbLine
 10
231.0343301930132
 20
230.1870369371804
 30
0.0
 11
231.0343301930132
 21
228.1870369371804
 31
0.0
  0
POINT
  5
1A3E
330
1E
100
AcDbEntity
  8
STEMPEL
100
AcDbPoint
 10
231.0343301930132
 20
228.1870369371804
 30
0.0
  0
LINE
  5
1A3F
330
1E
100
AcDbEntity
  8
STEMPEL
100
AcDbLine
 10
238.034330193013
 20
228.1870369371805
 30
0.0
 11
216.0343301930129
 21
228.1870369371805
 31
0.0
  0
LINE
  5
1A40
330
1E
100
AcDbEntity
  8
STEMPEL
100
AcDbLine
 10
231.0343301930132
 20
230.1870369371804
 30
0.0
 11
216.034330193013
 21
230.1870369371804
 31
0.0
  0
LINE
  5
1A41
330
1E
100
AcDbEntity
  8
STEMPEL
100
AcDbLine
 10
220.5343301930129
 20
236.1870369371804
 30
0.0
 11
223.9984318081506
 21
230.1870369371804
 31
0.0
  0
LINE
  5
1A42
330
1E
100
AcDbEntity
  8
STEMPEL
100
AcDbLine
 10
127.034330193013
 20
228.1870369371804
 30
0.0
 11
105.0343301930129
 21
228.1870369371805
 31
0.0
  0
LINE
  5
1A43
330
1E
100
AcDbEntity
  8
STEMPEL
100
AcDbLine
 10
127.034330193013
 20
230.1870369371803
 30
0.0
 11
112.0343301930131
 21
230.1870369371804
 31
0.0
  0
LINE
  5
1A44
330
1E
100
AcDbEntity
  8
STEMPEL
100
AcDbLine
 10
112.0343301930131
 20
230.1870369371804
 30
0.0
 11
112.0343301930131
 21
228.1870369371804
 31
0.0
  0
LINE
  5
1A45
330
1E
100
AcDbEntity
  8
STEMPEL
100
AcDbLine
 10
122.5343301930131
 20
236.1870369371804
 30
0.0
 11
119.0702285778755
 21
230.1870369371804
 31
0.0
  0
LINE
  5
1A46
330
1E
100
AcDbEntity
  8
STEMPEL
100
AcDbLine
 10
299.2540287725928
 20
228.1870369371805
 30
0.0
 11
432.2540287725928
 21
228.1870369371805
 31
0.0
  0
HATCH
  5
1AE3
330
1E
100
AcDbEntity
  8
SCHRAFF
100
AcDbHatch
 10
0.0
 20
0.0
 30
0.0
210
0.0
220
0.0
230
1.0
  2
HONEY
 70
     0
 71
     1
 91
        3
 92
        7
 72
     1
 73
     1
 93
       14
 10
235.534330193013
 20
755.1870369371771
 42
0.0
 10
235.0803389168311
 20
742.1864277641995
 42
0.0
 10
234.0454394201288
 20
741.1870369371805
 42
0.0
 10
222.634330193013
 20
741.1870369371803
 42
0.0
 10
222.6343301930129
 20
735.6234619945324
 42
-0.1111415761499419
 10
220.2530137850817
 20
724.9062470359469
 42
0.1092369723637629
 10
219.134330193013
 20
719.8469038739854
 42
0.0
 10
219.134330193013
 20
700.5757633545973
 42
-0.1420008527982277
 10
217.274330193013
 20
694.1585677054062
 42
0.1420008527982345
 10
216.034330193013
 20
689.8804372726118
 42
0.0
 10
216.0343301930129
 20
246.1870369371804
 42
0.0
 10
232.975597881145
 20
246.1870369371804
 42
0.0
 10
235.0453968745501
 20
244.1882552831423
 42
0.0
 10
235.5343301930129
 20
230.1870369371802
 42
0.0
 97
       14
330
11E0
330
11E1
330
11DF
330
11EE
330
11F0
330
11EC
330
11E3
330
11E8
330
11E7
330
11D8
330
11DA
330
11DC
330
11DD
330
11D5
 92
        7
 72
     1
 73
     1
 93
       19
 10
127.0343301930129
 20
689.8804372726118
 42
0.1420008527982312
 10
125.7943301930129
 20
694.158567705406
 42
-0.1420008527982292
 10
123.934330193013
 20
700.5757633545973
 42
0.0
 10
123.934330193013
 20
719.8469038739853
 42
0.1092369723635656
 10
122.8156466009481
 20
724.9062470359382
 42
-0.111141576150984
 10
120.434330193013
 20
735.6234619946256
 42
0.0
 10
120.434330193013
 20
741.1870369371803
 42
0.0
 10
109.0232209658974
 20
741.1870369371804
 42
0.0
 10
107.9883214691949
 20
742.1864277641994
 42
0.0
 10
107.5343301930129
 20
755.1870369371864
 42
0.0
 10
107.5343301930129
 20
589.1870369371804
 42
0.0
 10
83.03433019301293
 20
589.1870369371802
 42
0.0
 10
83.03433019301293
 20
579.9524342654555
 42
-0.1093332246020764
 10
93.58325260013165
 20
582.2870369371803
 42
0.0
 10
102.596050144822
 20
582.2870369371803
 42
-0.1495707665362709
 10
116.5972743060976
 20
578.0446314631998
 42
0.1488727637539764
 10
121.0557997932104
 20
576.6870369371803
 42
0.0
 10
123.0343301930129
 20
576.6870369371803
 42
-0.4142135623730951
 10
127.0343301930129
 20
580.6870369371803
 42
0.0
 97
       19
330
11FC
330
11F9
330
11F8
330
1200
330
1204
330
1202
330
11C2
330
120C
330
120B
330
1207
330
14B7
330
14B2
330
147D
330
1481
330
147E
330
1479
330
1480
330
1947
330
11F4
 92
        7
 72
     1
 73
     1
 93
       13
 10
127.0343301930129
 20
499.6870369371803
 42
-0.4142135623730921
 10
123.0343301930129
 20
503.6870369371801
 42
0.0
 10
121.0557997932109
 20
503.6870369371801
 42
0.1488727637539911
 10
116.5972743060977
 20
502.3294424111607
 42
-0.1495707665362698
 10
102.5960501448221
 20
498.0870369371802
 42
0.0
 10
93.58325260013158
 20
498.0870369371802
 42
-0.1093332246020751
 10
83.03433019301293
 20
500.421639608905
 42
0.0
 10
83.03433019301293
 20
491.1870369371801
 42
0.0
 10
107.5343301930129
 20
491.1870369371801
 42
0.0
 10
107.5343301930129
 20
230.1870369371736
 42
0.0
 10
108.023263511476
 20
244.1882552831423
 42
0.0
 10
110.0930625048809
 20
246.1870369371805
 42
0.0
 10
127.034330193013
 20
246.1870369371804
 42
0.0
 97
       13
330
194A
330
1459
330
1476
330
145F
330
144D
330
146D
330
17BF
330
14B8
330
14B5
330
120A
330
1209
330
11C6
330
14AE
 75
     0
 76
     1
 52
0.0
 41
30.0
 77
     0
 78
     3
 53
0.0
 43
0.0
 44
0.0
 45
5.625
 46
3.247595249999999
 79
     2
 49
3.75
 49
-7.5
 53
120.0
 43
0.0
 44
0.0
 45
-5.624999987709673
 46
3.247595271287468
 79
     2
 49
3.75
 49
-7.5
 53
60.0
 43
0.0
 44
0.0
 45
0.0000000122903263
 46
6.495190521287468
 79
     2
 49
-7.5
 49
3.75
 47
0.9665945061614308
 98
        3
 10
223.5361657506992
 20
661.712724277352
 10
119.0836937319818
 20
670.4120755843098
 10
111.3464738007683
 20
476.1265780576825
  0
TEXT
  5
1AE4
330
1E
100
AcDbEntity
  8
TEXT
 62
     1
100
AcDbText
 10
531.2335434983125
 20
790.1294755517469
 30
0.0
 40
7.0
  1

 50
90.0
 41
0.8
  7
GREEKS
 72
     1
 11
531.2335434983125
 21
790.1294755517469
 31
0.0
100
AcDbText
  0
TEXT
  5
1AED
330
1E
100
AcDbEntity
  8
TEXT
 62
     1
100
AcDbText
 10
110.0638917771018
 20
548.7116756180114
 30
0.0
 40
7.0
  1
DN70
 50
90.0
 41
0.8
  7
GREEKS
100
AcDbText
  0
ENDSEC
  0
SECTION
  2
OBJECTS
  0
DICTIONARY
  5
C
330
0
100
AcDbDictionary
281
     1
  3
ACAD_COLOR
350
11A
  3
ACAD_GROUP
350
D
  3
ACAD_LAYOUT
350
19
  3
ACAD_MATERIAL
350
119
  3
ACAD_MLINESTYLE
350
16
  3
ACAD_PLOTSETTINGS
350
18
  3
ACAD_PLOTSTYLENAME
350
E
  3
AcDbVariableDictionary
350
125
  0
DICTIONARY
  5
DB
330
1E
100
AcDbDictionary
280
     1
281
     1
  3
ACAD_LAYOUTSELFREF
360
10F
  0
DICTIONARY
  5
DD
330
1A
100
AcDbDictionary
280
     1
281
     1
  3
ACAD_LAYOUTSELFREF
360
10E
  0
DICTIONARY
  5
11A
102
{ACAD_REACTORS
330
C
102
}
330
C
100
AcDbDictionary
281
     1
  0
DICTIONARY
  5
D
102
{ACAD_REACTORS
330
C
102
}
330
C
100
AcDbDictionary
281
     1
  0
DICTIONARY
  5
19
102
{ACAD_REACTORS
330
C
102
}
330
C
100
AcDbDictionary
281
     1
  3
Layout1
350
1D
  3
Model
350
21
  0
DICTIONARY
  5
119
102
{ACAD_REACTORS
330
C
102
}
330
C
100
AcDbDictionary
281
     1
  0
DICTIONARY
  5
16
102
{ACAD_REACTORS
330
C
102
}
330
C
100
AcDbDictionary
281
     1
  3
Standard
350
17
  0
DICTIONARY
  5
18
102
{ACAD_REACTORS
330
C
102
}
330
C
100
AcDbDictionary
281
     1
  0
ACDBDICTIONARYWDFLT
  5
E
102
{ACAD_REACTORS
330
C
102
}
330
C
100
AcDbDictionary
281
     1
  3
Normal
350
F
100
AcDbDictionaryWithDefault
340
F
  0
DICTIONARY
  5
125
102
{ACAD_REACTORS
330
C
102
}
330
C
100
AcDbDictionary
281
     1
  3
DIMASSOC
350
126
  3
PROJECTNAME
350
127
  0
XRECORD
  5
10F
102
{ACAD_REACTORS
330
DB
102
}
330
DB
100
AcDbXrecord
280
     1
340
1E
  0
XRECORD
  5
10E
102
{ACAD_REACTORS
330
DD
102
}
330
DD
100
AcDbXrecord
280
     1
340
1A
  0
LAYOUT
  5
1D
102
{ACAD_REACTORS
330
19
102
}
330
19
100
AcDbPlotSettings
  1

  2
\\NT_WORK01\HP LaserJet 5000 PCL 6
  4

  6

 40
0.0
 41
0.0
 42
0.0
 43
0.0
 44
0.0
 45
0.0
 46
0.0
 47
0.0
 48
0.0
 49
0.0
140
0.0
141
0.0
142
1.0
143
1.0
 70
   688
 72
     0
 73
     0
 74
     5
  7

 75
    16
147
1.0
 76
     0
 77
     2
 78
   300
148
0.0
149
0.0
100
AcDbLayout
  1
Layout1
 70
     0
 71
     1
 10
0.0
 20
0.0
 11
12.0
 21
9.0
 12
0.0
 22
0.0
 32
0.0
 14
1.000000000000000E+20
 24
1.000000000000000E+20
 34
1.000000000000000E+20
 15
-1.000000000000000E+20
 25
-1.000000000000000E+20
 35
-1.000000000000000E+20
146
0.0
 13
0.0
 23
0.0
 33
0.0
 16
1.0
 26
0.0
 36
0.0
 17
0.0
 27
1.0
 37
0.0
 76
     0
330
1A
  0
LAYOUT
  5
21
102
{ACAD_REACTORS
330
19
102
}
330
19
100
AcDbPlotSettings
  1

  2
none_device
  4
Letter_(8.50_x_11.00_Inches)
  6

 40
6.349999904632568
 41
6.349999904632568
 42
6.350006103515625
 43
6.350006103515625
 44
215.8999938964844
 45
279.3999938964844
 46
0.0
 47
0.0
 48
0.0
 49
0.0
140
0.0
141
0.0
142
1.0
143
1.0
 70
 11952
 72
     0
 73
     1
 74
     0
  7

 75
     0
147
1.0
 76
     0
 77
     2
 78
   300
148
3251.517596906189
149
127.3175678089155
100
AcDbLayout
  1
Model
 70
     1
 71
     0
 10
0.0
 20
0.0
 11
12.0
 21
9.0
 12
0.0
 22
0.0
 32
0.0
 14
0.0
 24
0.0
 34
0.0
 15
0.0
 25
0.0
 35
0.0
146
0.0
 13
0.0
 23
0.0
 33
0.0
 16
1.0
 26
0.0
 36
0.0
 17
0.0
 27
1.0
 37
0.0
 76
     0
330
1E
  0
MLINESTYLE
  5
17
102
{ACAD_REACTORS
330
16
102
}
330
16
100
AcDbMlineStyle
  2
STANDARD
 70
     0
  3

 62
   256
 51
90.0
 52
90.0
 71
     2
 49
0.5
 62
   256
  6
BYLAYER
 49
-0.5
 62
   256
  6
BYLAYER
  0
ACDBPLACEHOLDER
  5
F
102
{ACAD_REACTORS
330
E
102
}
330
E
  0
DICTIONARYVAR
  5
126
102
{ACAD_REACTORS
330
125
102
}
330
125
100
DictionaryVariables
280
     0
  1
1
  0
DICTIONARYVAR
  5
127
102
{ACAD_REACTORS
330
125
102
}
330
125
100
DictionaryVariables
280
     0
  1

  0
ENDSEC
  0
EOF
