  0
SECTION
  2
HEADER
  9
$ACADVER
  1
AC1018
  9
$ACADMAINTVER
 70
     2
  9
$DWGCODEPAGE
  3
ANSI_1252
  9
$INSBASE
 10
0.0
 20
0.0
 30
0.0
  9
$EXTMIN
 10
-0.045311687738149
 20
-0.0640771341750224
 30
-0.000000000000013
  9
$EXTMAX
 10
594.0000027663659
 20
840.000003912033
 30
0.0000000000000023
  9
$LIMMIN
 10
0.0
 20
0.0
  9
$LIMMAX
 10
594.0
 20
840.0
  9
$ORTHOMODE
 70
     1
  9
$REGENMODE
 70
     1
  9
$FILLMODE
 70
     1
  9
$QTEXTMODE
 70
     0
  9
$MIRRTEXT
 70
     1
  9
$LTSCALE
 40
20.0
  9
$ATTMODE
 70
     1
  9
$TEXTSIZE
 40
3.5
  9
$TRACEWID
 40
1.0
  9
$TEXTSTYLE
  7
STANDARD
  9
$CLAYER
  8
VOLL
  9
$CELTYPE
  6
ByLayer
  9
$CECOLOR
 62
   256
  9
$CELTSCALE
 40
1.0
  9
$DISPSILH
 70
     0
  9
$DIMSCALE
 40
2.0
  9
$DIMASZ
 40
3.5
  9
$DIMEXO
 40
1.0
  9
$DIMDLI
 40
7.0
  9
$DIMRND
 40
0.0
  9
$DIMDLE
 40
0.0
  9
$DIMEXE
 40
1.0
  9
$DIMTP
 40
0.0
  9
$DIMTM
 40
0.0
  9
$DIMTXT
 40
3.5
  9
$DIMCEN
 40
1.5
  9
$DIMTSZ
 40
0.0
  9
$DIMTOL
 70
     0
  9
$DIMLIM
 70
     0
  9
$DIMTIH
 70
     0
  9
$DIMTOH
 70
     0
  9
$DIMSE1
 70
     0
  9
$DIMSE2
 70
     0
  9
$DIMTAD
 70
     1
  9
$DIMZIN
 70
     8
  9
$DIMBLK
  1

  9
$DIMASO
 70
     1
  9
$DIMSHO
 70
     0
  9
$DIMPOST
  1

  9
$DIMAPOST
  1

  9
$DIMALT
 70
     0
  9
$DIMALTD
 70
     2
  9
$DIMALTF
 40
25.4
  9
$DIMLFAC
 40
1.0
  9
$DIMTOFL
 70
     1
  9
$DIMTVP
 40
0.0
  9
$DIMTIX
 70
     0
  9
$DIMSOXD
 70
     0
  9
$DIMSAH
 70
     0
  9
$DIMBLK1
  1

  9
$DIMBLK2
  1

  9
$DIMSTYLE
  2
Standard
  9
$DIMCLRD
 70
     0
  9
$DIMCLRE
 70
     0
  9
$DIMCLRT
 70
     1
  9
$DIMTFAC
 40
0.5142857142857144
  9
$DIMGAP
 40
1.5
  9
$DIMJUST
 70
     0
  9
$DIMSD1
 70
     0
  9
$DIMSD2
 70
     0
  9
$DIMTOLJ
 70
     1
  9
$DIMTZIN
 70
     8
  9
$DIMALTZ
 70
     8
  9
$DIMALTTZ
 70
     8
  9
$DIMUPT
 70
     0
  9
$DIMDEC
 70
     2
  9
$DIMTDEC
 70
     2
  9
$DIMALTU
 70
     2
  9
$DIMALTTD
 70
     2
  9
$DIMTXSTY
  7
STANDARD
  9
$DIMAUNIT
 70
     0
  9
$DIMADEC
 70
     2
  9
$DIMALTRND
 40
0.0
  9
$DIMAZIN
 70
     2
  9
$DIMDSEP
 70
    46
  9
$DIMATFIT
 70
     3
  9
$DIMFRAC
 70
     0
  9
$DIMLDRBLK
  1

  9
$DIMLUNIT
 70
     2
  9
$DIMLWD
 70
    -2
  9
$DIMLWE
 70
    -2
  9
$DIMTMOVE
 70
     0
  9
$LUNITS
 70
     2
  9
$LUPREC
 70
     2
  9
$SKETCHINC
 40
1.0
  9
$FILLETRAD
 40
0.0
  9
$AUNITS
 70
     0
  9
$AUPREC
 70
     0
  9
$MENU
  1
ACAD
  9
$ELEVATION
 40
0.0
  9
$PELEVATION
 40
0.0
  9
$THICKNESS
 40
0.0
  9
$LIMCHECK
 70
     0
  9
$CHAMFERA
 40
0.0
  9
$CHAMFERB
 40
0.0
  9
$CHAMFERC
 40
0.0
  9
$CHAMFERD
 40
0.0
  9
$SKPOLY
 70
     0
  9
$TDCREATE
 40
2455397.867059838
  9
$TDUCREATE
 40
2455397.783726505
  9
$TDUPDATE
 40
2455659.449721216
  9
$TDUUPDATE
 40
2455659.366387882
  9
$TDINDWG
 40
0.0783338194
  9
$TDUSRTIMER
 40
0.0783338194
  9
$USRTIMER
 70
     1
  9
$ANGBASE
 50
0.0
  9
$ANGDIR
 70
     0
  9
$PDMODE
 70
     0
  9
$PDSIZE
 40
0.0
  9
$PLINEWID
 40
0.0
  9
$SPLFRAME
 70
     0
  9
$SPLINETYPE
 70
     6
  9
$SPLINESEGS
 70
     8
  9
$HANDSEED
  5
A75
  9
$SURFTAB1
 70
     6
  9
$SURFTAB2
 70
     6
  9
$SURFTYPE
 70
     6
  9
$SURFU
 70
     6
  9
$SURFV
 70
     6
  9
$UCSBASE
  2

  9
$UCSNAME
  2

  9
$UCSORG
 10
0.0
 20
0.0
 30
0.0
  9
$UCSXDIR
 10
1.0
 20
0.0
 30
0.0
  9
$UCSYDIR
 10
0.0
 20
1.0
 30
0.0
  9
$UCSORTHOREF
  2

  9
$UCSORTHOVIEW
 70
     0
  9
$UCSORGTOP
 10
0.0
 20
0.0
 30
0.0
  9
$UCSORGBOTTOM
 10
0.0
 20
0.0
 30
0.0
  9
$UCSORGLEFT
 10
0.0
 20
0.0
 30
0.0
  9
$UCSORGRIGHT
 10
0.0
 20
0.0
 30
0.0
  9
$UCSORGFRONT
 10
0.0
 20
0.0
 30
0.0
  9
$UCSORGBACK
 10
0.0
 20
0.0
 30
0.0
  9
$PUCSBASE
  2

  9
$PUCSNAME
  2

  9
$PUCSORG
 10
0.0
 20
0.0
 30
0.0
  9
$PUCSXDIR
 10
1.0
 20
0.0
 30
0.0
  9
$PUCSYDIR
 10
0.0
 20
1.0
 30
0.0
  9
$PUCSORTHOREF
  2

  9
$PUCSORTHOVIEW
 70
     0
  9
$PUCSORGTOP
 10
0.0
 20
0.0
 30
0.0
  9
$PUCSORGBOTTOM
 10
0.0
 20
0.0
 30
0.0
  9
$PUCSORGLEFT
 10
0.0
 20
0.0
 30
0.0
  9
$PUCSORGRIGHT
 10
0.0
 20
0.0
 30
0.0
  9
$PUCSORGFRONT
 10
0.0
 20
0.0
 30
0.0
  9
$PUCSORGBACK
 10
0.0
 20
0.0
 30
0.0
  9
$USERI1
 70
     0
  9
$USERI2
 70
     0
  9
$USERI3
 70
     0
  9
$USERI4
 70
     0
  9
$USERI5
 70
     0
  9
$USERR1
 40
0.0
  9
$USERR2
 40
0.0
  9
$USERR3
 40
0.0
  9
$USERR4
 40
0.0
  9
$USERR5
 40
0.0
  9
$WORLDVIEW
 70
     1
  9
$SHADEDGE
 70
     3
  9
$SHADEDIF
 70
    70
  9
$TILEMODE
 70
     1
  9
$MAXACTVP
 70
    16
  9
$PINSBASE
 10
0.0
 20
0.0
 30
0.0
  9
$PLIMCHECK
 70
     0
  9
$PEXTMIN
 10
1.000000000000000E+20
 20
1.000000000000000E+20
 30
1.000000000000000E+20
  9
$PEXTMAX
 10
-1.000000000000000E+20
 20
-1.000000000000000E+20
 30
-1.000000000000000E+20
  9
$PLIMMIN
 10
0.0
 20
0.0
  9
$PLIMMAX
 10
12.0
 20
9.0
  9
$UNITMODE
 70
     0
  9
$VISRETAIN
 70
     0
  9
$PLINEGEN
 70
     0
  9
$PSLTSCALE
 70
     0
  9
$TREEDEPTH
 70
  3020
  9
$CMLSTYLE
  2
Standard
  9
$CMLJUST
 70
     0
  9
$CMLSCALE
 40
1.0
  9
$PROXYGRAPHICS
 70
     1
  9
$MEASUREMENT
 70
     0
  9
$CELWEIGHT
370
    -1
  9
$ENDCAPS
280
     0
  9
$JOINSTYLE
280
     0
  9
$LWDISPLAY
290
     0
  9
$INSUNITS
 70
     0
  9
$HYPERLINKBASE
  1

  9
$STYLESHEET
  1
monochrome 1.ctb
  9
$XEDIT
290
     1
  9
$CEPSNTYPE
380
     0
  9
$PSTYLEMODE
290
     1
  9
$FINGERPRINTGUID
  2
{D68B0D0D-A558-11D7-B632-000102183313}
  9
$VERSIONGUID
  2
{5DBDB9BB-6FF9-4A02-B458-CB2818EDAFCA}
  9
$EXTNAMES
290
     1
  9
$PSVPSCALE
 40
0.0
  9
$OLESTARTUP
290
     0
  9
$SORTENTS
280
   127
  9
$INDEXCTL
280
     0
  9
$HIDETEXT
280
     0
  9
$XCLIPFRAME
290
     0
  9
$HALOGAP
280
     0
  9
$OBSCOLOR
 70
   257
  9
$OBSLTYPE
280
     0
  9
$INTERSECTIONDISPLAY
280
     0
  9
$INTERSECTIONCOLOR
 70
   257
  9
$DIMASSOC
280
     1
  9
$PROJECTNAME
  1

  0
ENDSEC
  0
SECTION
  2
CLASSES
  0
CLASS
  1
ACDBDICTIONARYWDFLT
  2
AcDbDictionaryWithDefault
  3
ObjectDBX Classes
 90
        0
 91
        1
280
     0
281
     0
  0
CLASS
  1
DICTIONARYVAR
  2
AcDbDictionaryVar
  3
ObjectDBX Classes
 90
        0
 91
        2
280
     0
281
     0
  0
ENDSEC
  0
SECTION
  2
TABLES
  0
TABLE
  2
VPORT
  5
8
330
0
100
AcDbSymbolTable
 70
     3
  0
VPORT
  5
A74
330
8
100
AcDbSymbolTableRecord
100
AcDbViewportTableRecord
  2
*Active
 70
     0
 10
0.0
 20
0.0
 11
1.0
 21
1.0
 12
297.0
 22
420.0
 13
0.0
 23
0.0
 14
1.0
 24
1.0
 15
10.0
 25
10.0
 16
0.0
 26
0.0
 36
1.0
 17
0.0
 27
0.0
 37
0.0
 40
840.0
 41
1.334231805929919
 42
50.0
 43
0.0
 44
0.0
 50
0.0
 51
0.0
 71
     0
 72
  1500
 73
     1
 74
     0
 75
     0
 76
     0
 77
     0
 78
     0
281
     0
 65
     1
110
0.0
120
0.0
130
0.0
111
1.0
121
0.0
131
0.0
112
0.0
122
1.0
132
0.0
 79
     0
146
0.0
  0
ENDTAB
  0
TABLE
  2
LTYPE
  5
5
330
0
100
AcDbSymbolTable
 70
     2
  0
LTYPE
  5
13
330
5
100
AcDbSymbolTableRecord
100
AcDbLinetypeTableRecord
  2
ByBlock
 70
     0
  3

 72
    65
 73
     0
 40
0.0
  0
LTYPE
  5
14
330
5
100
AcDbSymbolTableRecord
100
AcDbLinetypeTableRecord
  2
ByLayer
 70
     0
  3

 72
    65
 73
     0
 40
0.0
  0
LTYPE
  5
15
330
5
100
AcDbSymbolTableRecord
100
AcDbLinetypeTableRecord
  2
Continuous
 70
     0
  3
Solid line
 72
    65
 73
     0
 40
0.0
  0
LTYPE
  5
25
330
5
100
AcDbSymbolTableRecord
100
AcDbLinetypeTableRecord
  2
STRICHPUNKT
 70
     0
  3
__ . __ . __ . __ . __ . __ . __ . __ . __ . __
 72
    65
 73
     4
 40
1.0
 49
0.5
 74
     0
 49
-0.25
 74
     0
 49
0.0
 74
     0
 49
-0.25
 74
     0
  0
ENDTAB
  0
TABLE
  2
LAYER
  5
2
330
0
100
AcDbSymbolTable
 70
     9
  0
LAYER
  5
10
330
2
100
AcDbSymbolTableRecord
100
AcDbLayerTableRecord
  2
0
 70
     0
 62
     7
  6
Continuous
370
    -3
390
F
  0
LAYER
  5
2B
330
2
100
AcDbSymbolTableRecord
100
AcDbLayerTableRecord
  2
VOLL
 70
     0
 62
     1
  6
Continuous
370
    -3
390
F
  0
LAYER
  5
2C
330
2
100
AcDbSymbolTableRecord
100
AcDbLayerTableRecord
  2
HILF
 70
     0
 62
     2
  6
Continuous
370
    -3
390
F
  0
LAYER
  5
2D
330
2
100
AcDbSymbolTableRecord
100
AcDbLayerTableRecord
  2
MITTEL
 70
     0
 62
     2
  6
STRICHPUNKT
370
    -3
390
F
  0
LAYER
  5
2F
330
2
100
AcDbSymbolTableRecord
100
AcDbLayerTableRecord
  2
BEM
 70
     0
 62
     7
  6
Continuous
370
    -3
390
F
  0
LAYER
  5
30
330
2
100
AcDbSymbolTableRecord
100
AcDbLayerTableRecord
  2
STEMPEL
 70
     0
 62
     3
  6
Continuous
370
    -3
390
F
  0
LAYER
  5
33
330
2
100
AcDbSymbolTableRecord
100
AcDbLayerTableRecord
  2
TEXT
 70
     0
 62
     7
  6
Continuous
370
    -3
390
F
  0
LAYER
  5
214
330
2
100
AcDbSymbolTableRecord
100
AcDbLayerTableRecord
  2
DEFPOINTS
 70
     0
 62
     7
  6
Continuous
290
     0
370
    -3
390
F
  0
LAYER
  5
215
330
2
100
AcDbSymbolTableRecord
100
AcDbLayerTableRecord
  2
SCHRAFF
 70
     0
 62
     7
  6
Continuous
370
    -3
390
F
  0
ENDTAB
  0
TABLE
  2
STYLE
  5
3
330
0
100
AcDbSymbolTable
 70
     2
  0
STYLE
  5
11
330
3
100
AcDbSymbolTableRecord
100
AcDbTextStyleTableRecord
  2
STANDARD
 70
     0
 40
0.0
 41
0.8
 50
0.0
 71
     0
 42
3.5
  3
simplex.shx
  4

  0
STYLE
  5
24
330
3
100
AcDbSymbolTableRecord
100
AcDbTextStyleTableRecord
  2
GREEKS
 70
     0
 40
0.0
 41
0.8
 50
0.0
 71
     0
 42
2.5
  3
SIMPLEX.shx
  4

  0
ENDTAB
  0
TABLE
  2
VIEW
  5
6
330
0
100
AcDbSymbolTable
 70
     0
  0
ENDTAB
  0
TABLE
  2
UCS
  5
7
330
0
100
AcDbSymbolTable
 70
     0
  0
ENDTAB
  0
TABLE
  2
APPID
  5
9
330
0
100
AcDbSymbolTable
 70
     1
  0
APPID
  5
12
330
9
100
AcDbSymbolTableRecord
100
AcDbRegAppTableRecord
  2
ACAD
 70
     0
  0
ENDTAB
  0
TABLE
  2
DIMSTYLE
  5
A
330
0
100
AcDbSymbolTable
 70
     1
100
AcDbDimStyleTable
 71
     1
340
A2
  0
DIMSTYLE
105
A2
102
{ACAD_REACTORS
330
4AA
330
4B0
330
4D7
330
4D9
330
4DB
330
3D0
102
}
330
A
100
AcDbSymbolTableRecord
100
AcDbDimStyleTableRecord
  2
Standard
 70
     0
340
11
  0
ENDTAB
  0
TABLE
  2
BLOCK_RECORD
  5
1
330
0
100
AcDbSymbolTable
 70
     9
  0
BLOCK_RECORD
  5
1E
102
{ACAD_XDICTIONARY
360
DB
102
}
330
1
100
AcDbSymbolTableRecord
100
AcDbBlockTableRecord
  2
*Model_Space
340
21
  0
BLOCK_RECORD
  5
1A
102
{ACAD_XDICTIONARY
360
DD
102
}
330
1
100
AcDbSymbolTableRecord
100
AcDbBlockTableRecord
  2
*Paper_Space
340
1D
  0
BLOCK_RECORD
  5
22
330
1
100
AcDbSymbolTableRecord
100
AcDbBlockTableRecord
  2
LOGO
340
0
102
{BLKREFS
331
56
102
}
  0
BLOCK_RECORD
  5
23
330
1
100
AcDbSymbolTableRecord
100
AcDbBlockTableRecord
  2
LORO
340
0
102
{BLKREFS
331
51F
102
}
  0
BLOCK_RECORD
  5
55D
330
1
100
AcDbSymbolTableRecord
100
AcDbBlockTableRecord
  2
*D2
340
0
  0
BLOCK_RECORD
  5
569
330
1
100
AcDbSymbolTableRecord
100
AcDbBlockTableRecord
  2
*D3
340
0
  0
BLOCK_RECORD
  5
575
330
1
100
AcDbSymbolTableRecord
100
AcDbBlockTableRecord
  2
*D4
340
0
  0
BLOCK_RECORD
  5
58F
330
1
100
AcDbSymbolTableRecord
100
AcDbBlockTableRecord
  2
*D5
340
0
  0
BLOCK_RECORD
  5
5A9
330
1
100
AcDbSymbolTableRecord
100
AcDbBlockTableRecord
  2
*D6
340
0
  0
BLOCK_RECORD
  5
5B5
330
1
100
AcDbSymbolTableRecord
100
AcDbBlockTableRecord
  2
*D7
340
0
  0
BLOCK_RECORD
  5
74D
330
1
100
AcDbSymbolTableRecord
100
AcDbBlockTableRecord
  2
*X8
340
0
102
{BLKREFS
331
841
102
}
  0
ENDTAB
  0
ENDSEC
  0
SECTION
  2
BLOCKS
  0
BLOCK
  5
37
330
1E
100
AcDbEntity
  8
0
100
AcDbBlockBegin
  2
*Model_Space
 70
     0
 10
0.0
 20
0.0
 30
0.0
  3
*Model_Space
  1

  0
ENDBLK
  5
38
330
1E
100
AcDbEntity
  8
0
100
AcDbBlockEnd
  0
BLOCK
  5
35
330
1A
100
AcDbEntity
 67
     1
  8
0
100
AcDbBlockBegin
  2
*Paper_Space
 70
     0
 10
0.0
 20
0.0
 30
0.0
  3
*Paper_Space
  1

  0
ENDBLK
  5
36
330
1A
100
AcDbEntity
 67
     1
  8
0
100
AcDbBlockEnd
  0
BLOCK
  5
39
330
22
100
AcDbEntity
  8
0
100
AcDbBlockBegin
  2
LOGO
 70
     0
 10
0.0
 20
0.0
 30
0.0
  3
LOGO
  1

  0
ARC
  5
3A
330
22
100
AcDbEntity
  8
0
100
AcDbCircle
 10
11.59973089678112
 20
-9.271599258481501
 30
0.0
 40
4.5
100
AcDbArc
 50
270.0
 51
231.0575587310159
  0
LINE
  5
3B
330
22
100
AcDbEntity
  8
0
100
AcDbLine
 10
3.599730896781125
 20
-4.771599258481529
 30
0.0
 11
3.599730896781153
 21
-11.77159925848133
 31
0.0
  0
LINE
  5
3C
330
22
100
AcDbEntity
  8
0
100
AcDbLine
 10
2.599730896781125
 20
-4.771599258481529
 30
0.0
 11
2.599730896781153
 21
-11.77159925848133
 31
0.0
  0
CIRCLE
  5
3D
330
22
100
AcDbEntity
  8
0
100
AcDbCircle
 10
11.59973089678112
 20
-9.271599258481501
 30
0.0
 40
3.5
  0
ARC
  5
3E
330
22
100
AcDbEntity
  8
0
100
AcDbCircle
 10
31.59973089678115
 20
-9.271599258481472
 30
0.0
 40
4.5
100
AcDbArc
 50
270.0
 51
231.0575587310182
  0
LINE
  5
3F
330
22
100
AcDbEntity
  8
0
100
AcDbLine
 10
17.59973089678112
 20
-4.771599258481472
 30
0.0
 11
17.59973089678115
 21
-13.77159925848147
 31
0.0
  0
ARC
  5
40
330
22
100
AcDbEntity
  8
0
100
AcDbCircle
 10
22.59973089678116
 20
-7.271599258481472
 30
0.0
 40
2.5
100
AcDbArc
 50
293.1161887722295
 51
90.0
  0
CIRCLE
  5
41
330
22
100
AcDbEntity
  8
0
100
AcDbCircle
 10
31.59973089678115
 20
-9.271599258481472
 30
0.0
 40
3.5
  0
ARC
  5
42
330
22
100
AcDbEntity
  8
0
100
AcDbCircle
 10
4.599730896781153
 20
-11.77159925848133
 30
0.0
 40
1.0
100
AcDbArc
 50
180.0
 51
270.0
  0
ARC
  5
43
330
22
100
AcDbEntity
  8
0
100
AcDbCircle
 10
4.599730896781153
 20
-11.77159925848133
 30
0.0
 40
2.0
100
AcDbArc
 50
179.9999999999992
 51
270.0
  0
LINE
  5
44
330
22
100
AcDbEntity
  8
0
100
AcDbLine
 10
11.59973089678115
 20
-13.77159925848144
 30
0.0
 11
4.599730896781153
 21
-13.77159925848147
 31
0.0
  0
LINE
  5
45
330
22
100
AcDbEntity
  8
0
100
AcDbLine
 10
8.771303772034769
 20
-12.77159925848136
 30
0.0
 11
4.599730896781153
 21
-12.77159925848133
 31
0.0
  0
LINE
  5
46
330
22
100
AcDbEntity
  8
0
100
AcDbLine
 10
31.59973089678115
 20
-13.77159925848147
 30
0.0
 11
23.6715276665056
 21
-13.77159925848144
 31
0.0
  0
LINE
  5
47
330
22
100
AcDbEntity
  8
0
100
AcDbLine
 10
23.56565672307022
 20
-9.51278021337896
 30
0.0
 11
24.4388546544846
 21
-12.77159925848144
 31
0.0
  0
LINE
  5
48
330
22
100
AcDbEntity
  8
0
100
AcDbLine
 10
22.59973089678116
 20
-9.771599258481472
 30
0.0
 11
18.59973089678112
 21
-9.771599258481472
 31
0.0
  0
LINE
  5
49
330
22
100
AcDbEntity
  8
0
100
AcDbLine
 10
18.59973089678115
 20
-13.77159925848144
 30
0.0
 11
17.59973089678115
 21
-13.77159925848144
 31
0.0
  0
LINE
  5
4A
330
22
100
AcDbEntity
  8
0
100
AcDbLine
 10
18.59973089678115
 20
-9.771599258481472
 30
0.0
 11
18.59973089678115
 21
-13.77159925848144
 31
0.0
  0
LINE
  5
4B
330
22
100
AcDbEntity
  8
0
100
AcDbLine
 10
22.59973089678116
 20
-9.771599258481472
 30
0.0
 11
23.67152766650562
 21
-13.77159925848147
 31
0.0
  0
ARC
  5
4C
330
22
100
AcDbEntity
  8
0
100
AcDbCircle
 10
22.59973089678116
 20
-7.271599258481472
 30
0.0
 40
2.5
100
AcDbArc
 50
270.0
 51
270.0000000000007
  0
LINE
  5
4D
330
22
100
AcDbEntity
  8
0
100
AcDbLine
 10
28.77130377203494
 20
-12.77159925848147
 30
0.0
 11
24.43885465448463
 21
-12.77159925848144
 31
0.0
  0
LINE
  5
4E
330
22
100
AcDbEntity
  8
0
100
AcDbLine
 10
3.599730896781125
 20
-4.771599258481472
 30
0.0
 11
2.599730896781125
 21
-4.771599258481472
 31
0.0
  0
LINE
  5
4F
330
22
100
AcDbEntity
  8
0
100
AcDbLine
 10
22.59973089678116
 20
-8.771599258481472
 30
0.0
 11
18.59973089678115
 21
-8.771599258481472
 31
0.0
  0
LINE
  5
50
330
22
100
AcDbEntity
  8
0
100
AcDbLine
 10
22.59973089678116
 20
-5.771599258481472
 30
0.0
 11
18.59973089678115
 21
-5.771599258481472
 31
0.0
  0
LINE
  5
51
330
22
100
AcDbEntity
  8
0
100
AcDbLine
 10
22.59973089678116
 20
-4.771599258481472
 30
0.0
 11
17.59973089678115
 21
-4.771599258481472
 31
0.0
  0
LINE
  5
52
330
22
100
AcDbEntity
  8
0
100
AcDbLine
 10
18.59973089678115
 20
-5.771599258481472
 30
0.0
 11
18.59973089678115
 21
-8.771599258481472
 31
0.0
  0
ARC
  5
53
330
22
100
AcDbEntity
  8
0
100
AcDbCircle
 10
22.59973089678116
 20
-7.271599258481472
 30
0.0
 40
1.5
100
AcDbArc
 50
270.0
 51
90.0
  0
ENDBLK
  5
54
330
22
100
AcDbEntity
  8
0
100
AcDbBlockEnd
  0
BLOCK
  5
55
330
23
100
AcDbEntity
  8
0
100
AcDbBlockBegin
  2
LORO
 70
     0
 10
0.0
 20
0.0
 30
0.0
  3
LORO
  1

  0
INSERT
  5
56
330
23
100
AcDbEntity
  8
STEMPEL
100
AcDbBlockReference
  2
LOGO
 10
-1.748032802467321
 20
3.771489518552062
 30
0.0
  0
ENDBLK
  5
57
330
23
100
AcDbEntity
  8
0
100
AcDbBlockEnd
  0
BLOCK
  5
567
330
55D
100
AcDbEntity
  8
0
100
AcDbBlockBegin
  2
*D2
 70
     1
 10
0.0
 20
0.0
 30
0.0
  3
*D2
  1

  0
LINE
  5
942
330
55D
100
AcDbEntity
  8
BEM
 62
     0
370
    -2
100
AcDbLine
 10
210.3303298154858
 20
686.0335766453236
 30
0.0
 11
233.7601567970992
 21
686.0335766453236
 31
0.0
  0
LINE
  5
943
330
55D
100
AcDbEntity
  8
BEM
 62
     0
370
    -2
100
AcDbLine
 10
210.3303298154862
 20
178.0335766453236
 30
0.0
 11
233.760156797099
 21
178.0335766453236
 31
0.0
  0
LINE
  5
944
330
55D
100
AcDbEntity
  8
BEM
 62
     0
370
    -2
100
AcDbLine
 10
231.7601567970992
 20
679.0335766453235
 30
0.0
 11
231.760156797099
 21
185.0335766453236
 31
0.0
  0
SOLID
  5
945
330
55D
100
AcDbEntity
  8
BEM
 62
     0
100
AcDbTrace
 10
230.5934901304325
 20
679.0335766453235
 30
0.0
 11
232.9268234637658
 21
679.0335766453235
 31
0.0
 12
231.7601567970992
 22
686.0335766453236
 32
0.0
 13
231.7601567970992
 23
686.0335766453236
 33
0.0
  0
SOLID
  5
946
330
55D
100
AcDbEntity
  8
BEM
 62
     0
100
AcDbTrace
 10
230.5934901304324
 20
185.0335766453236
 30
0.0
 11
232.9268234637657
 21
185.0335766453236
 31
0.0
 12
231.760156797099
 22
178.0335766453236
 32
0.0
 13
231.760156797099
 23
178.0335766453236
 33
0.0
  0
MTEXT
  5
947
330
55D
100
AcDbEntity
  8
BEM
 62
     1
100
AcDbMText
 10
225.260156797099
 20
432.0335766453236
 30
0.0
 40
7.0
 41
0.0
 71
     5
 72
     1
  1
\A1;508
 11
0.0000000000000001
 21
1.0
 31
0.0
 73
     1
 44
1.0
  0
POINT
  5
948
330
55D
100
AcDbEntity
  8
DEFPOINTS
 62
     0
100
AcDbPoint
 10
208.3303298154858
 20
686.0335766453236
 30
0.0
  0
POINT
  5
949
330
55D
100
AcDbEntity
  8
DEFPOINTS
 62
     0
100
AcDbPoint
 10
208.3303298154862
 20
178.0335766453236
 30
0.0
  0
POINT
  5
94A
330
55D
100
AcDbEntity
  8
DEFPOINTS
 62
     0
100
AcDbPoint
 10
231.760156797099
 20
178.0335766453236
 30
0.0
  0
ENDBLK
  5
568
330
55D
100
AcDbEntity
  8
0
100
AcDbBlockEnd
  0
BLOCK
  5
573
330
569
100
AcDbEntity
  8
0
100
AcDbBlockBegin
  2
*D3
 70
     1
 10
0.0
 20
0.0
 30
0.0
  3
*D3
  1

  0
LINE
  5
939
330
569
100
AcDbEntity
  8
BEM
 62
     0
370
    -2
100
AcDbLine
 10
210.3303298154858
 20
686.0335766453236
 30
0.0
 11
254.691745430569
 21
686.0335766453236
 31
0.0
  0
LINE
  5
93A
330
569
100
AcDbEntity
  8
BEM
 62
     0
370
    -2
100
AcDbLine
 10
191.8986162541719
 20
148.0335766453238
 30
0.0
 11
254.6917454305689
 21
148.0335766453238
 31
0.0
  0
LINE
  5
93B
330
569
100
AcDbEntity
  8
BEM
 62
     0
370
    -2
100
AcDbLine
 10
252.691745430569
 20
679.0335766453235
 30
0.0
 11
252.6917454305689
 21
155.0335766453238
 31
0.0
  0
SOLID
  5
93C
330
569
100
AcDbEntity
  8
BEM
 62
     0
100
AcDbTrace
 10
251.5250787639023
 20
679.0335766453235
 30
0.0
 11
253.8584120972356
 21
679.0335766453235
 31
0.0
 12
252.691745430569
 22
686.0335766453236
 32
0.0
 13
252.691745430569
 23
686.0335766453236
 33
0.0
  0
SOLID
  5
93D
330
569
100
AcDbEntity
  8
BEM
 62
     0
100
AcDbTrace
 10
251.5250787639022
 20
155.0335766453238
 30
0.0
 11
253.8584120972355
 21
155.0335766453238
 31
0.0
 12
252.6917454305689
 22
148.0335766453238
 32
0.0
 13
252.6917454305689
 23
148.0335766453238
 33
0.0
  0
MTEXT
  5
93E
330
569
100
AcDbEntity
  8
BEM
 62
     1
100
AcDbMText
 10
246.1917454305689
 20
417.0335766453237
 30
0.0
 40
7.0
 41
0.0
 71
     5
 72
     1
  1
\A1;538
 11
0.0000000000000001
 21
1.0
 31
0.0
 73
     1
 44
1.0
  0
POINT
  5
93F
330
569
100
AcDbEntity
  8
DEFPOINTS
 62
     0
100
AcDbPoint
 10
208.3303298154858
 20
686.0335766453236
 30
0.0
  0
POINT
  5
940
330
569
100
AcDbEntity
  8
DEFPOINTS
 62
     0
100
AcDbPoint
 10
189.8986162541719
 20
148.0335766453238
 30
0.0
  0
POINT
  5
941
330
569
100
AcDbEntity
  8
DEFPOINTS
 62
     0
100
AcDbPoint
 10
252.6917454305689
 20
148.0335766453238
 30
0.0
  0
ENDBLK
  5
574
330
569
100
AcDbEntity
  8
0
100
AcDbBlockEnd
  0
BLOCK
  5
57F
330
575
100
AcDbEntity
  8
0
100
AcDbBlockBegin
  2
*D4
 70
     1
 10
0.0
 20
0.0
 30
0.0
  3
*D4
  1

  0
LINE
  5
930
330
575
100
AcDbEntity
  8
BEM
 62
     0
370
    -2
100
AcDbLine
 10
135.8783518447385
 20
688.0335766453238
 30
0.0
 11
135.8783518447385
 21
698.2411775968769
 31
0.0
  0
LINE
  5
931
330
575
100
AcDbEntity
  8
BEM
 62
     0
370
    -2
100
AcDbLine
 10
191.7823077862335
 20
688.0335766453235
 30
0.0
 11
191.7823077862335
 21
698.2411775968769
 31
0.0
  0
LINE
  5
932
330
575
100
AcDbEntity
  8
BEM
 62
     0
370
    -2
100
AcDbLine
 10
142.8783518447385
 20
696.2411775968769
 30
0.0
 11
184.7823077862335
 21
696.2411775968769
 31
0.0
  0
SOLID
  5
933
330
575
100
AcDbEntity
  8
BEM
 62
     0
100
AcDbTrace
 10
142.8783518447385
 20
697.4078442635435
 30
0.0
 11
142.8783518447385
 21
695.0745109302102
 31
0.0
 12
135.8783518447385
 22
696.2411775968769
 32
0.0
 13
135.8783518447385
 23
696.2411775968769
 33
0.0
  0
SOLID
  5
934
330
575
100
AcDbEntity
  8
BEM
 62
     0
100
AcDbTrace
 10
184.7823077862335
 20
697.4078442635435
 30
0.0
 11
184.7823077862335
 21
695.0745109302102
 31
0.0
 12
191.7823077862335
 22
696.2411775968769
 32
0.0
 13
191.7823077862335
 23
696.2411775968769
 33
0.0
  0
MTEXT
  5
935
330
575
100
AcDbEntity
  8
BEM
 62
     1
100
AcDbMText
 10
163.830329815486
 20
702.7411775968769
 30
0.0
 40
7.0
 41
0.0
 71
     5
 72
     1
  1
\A1;%%c56
 73
     1
 44
1.0
  0
POINT
  5
936
330
575
100
AcDbEntity
  8
DEFPOINTS
 62
     0
100
AcDbPoint
 10
135.8783518447385
 20
686.0335766453238
 30
0.0
  0
POINT
  5
937
330
575
100
AcDbEntity
  8
DEFPOINTS
 62
     0
100
AcDbPoint
 10
191.7823077862335
 20
686.0335766453236
 30
0.0
  0
POINT
  5
938
330
575
100
AcDbEntity
  8
DEFPOINTS
 62
     0
100
AcDbPoint
 10
191.7823077862335
 20
696.2411775968769
 30
0.0
  0
ENDBLK
  5
580
330
575
100
AcDbEntity
  8
0
100
AcDbBlockEnd
  0
BLOCK
  5
599
330
58F
100
AcDbEntity
  8
0
100
AcDbBlockBegin
  2
*D5
 70
     1
 10
0.0
 20
0.0
 30
0.0
  3
*D5
  1

  0
LINE
  5
A66
330
58F
100
AcDbEntity
  8
BEM
 62
     0
370
    -2
100
AcDbLine
 10
119.330329815486
 20
688.0335766453238
 30
0.0
 11
119.330329815486
 21
712.4696660271304
 31
0.0
  0
LINE
  5
A67
330
58F
100
AcDbEntity
  8
BEM
 62
     0
370
    -2
100
AcDbLine
 10
208.3303298154858
 20
688.0335766453235
 30
0.0
 11
208.3303298154858
 21
712.4696660271304
 31
0.0
  0
LINE
  5
A68
330
58F
100
AcDbEntity
  8
BEM
 62
     0
370
    -2
100
AcDbLine
 10
126.330329815486
 20
710.4696660271303
 30
0.0
 11
201.3303298154858
 21
710.4696660271303
 31
0.0
  0
SOLID
  5
A69
330
58F
100
AcDbEntity
  8
BEM
 62
     0
100
AcDbTrace
 10
126.330329815486
 20
711.636332693797
 30
0.0
 11
126.330329815486
 21
709.3029993604638
 31
0.0
 12
119.330329815486
 22
710.4696660271303
 32
0.0
 13
119.330329815486
 23
710.4696660271303
 33
0.0
  0
SOLID
  5
A6A
330
58F
100
AcDbEntity
  8
BEM
 62
     0
100
AcDbTrace
 10
201.3303298154858
 20
711.636332693797
 30
0.0
 11
201.3303298154858
 21
709.3029993604638
 31
0.0
 12
208.3303298154858
 22
710.4696660271303
 32
0.0
 13
208.3303298154858
 23
710.4696660271303
 33
0.0
  0
MTEXT
  5
A6B
330
58F
100
AcDbEntity
  8
BEM
 62
     1
100
AcDbMText
 10
163.8303298154859
 20
716.9696660271304
 30
0.0
 40
7.0
 41
0.0
 71
     5
 72
     1
  1
\A1;%%c89
 73
     1
 44
1.0
  0
POINT
  5
A6C
330
58F
100
AcDbEntity
  8
DEFPOINTS
 62
     0
100
AcDbPoint
 10
119.330329815486
 20
686.0335766453238
 30
0.0
  0
POINT
  5
A6D
330
58F
100
AcDbEntity
  8
DEFPOINTS
 62
     0
100
AcDbPoint
 10
208.3303298154858
 20
686.0335766453236
 30
0.0
  0
POINT
  5
A6E
330
58F
100
AcDbEntity
  8
DEFPOINTS
 62
     0
100
AcDbPoint
 10
208.3303298154858
 20
710.4696660271303
 30
0.0
  0
ENDBLK
  5
59A
330
58F
100
AcDbEntity
  8
0
100
AcDbBlockEnd
  0
BLOCK
  5
5B3
330
5A9
100
AcDbEntity
  8
0
100
AcDbBlockBegin
  2
*D6
 70
     1
 10
0.0
 20
0.0
 30
0.0
  3
*D6
  1

  0
LINE
  5
696
330
5A9
100
AcDbEntity
  8
BEM
 62
     0
370
    -2
100
AcDbLine
 10
137.3303298154941
 20
150.9680852308679
 30
0.0
 11
137.3303298154941
 21
126.002710846913
 31
0.0
  0
LINE
  5
697
330
5A9
100
AcDbEntity
  8
BEM
 62
     0
370
    -2
100
AcDbLine
 10
190.330329815486
 20
150.9680852309553
 30
0.0
 11
190.330329815486
 21
126.002710846913
 31
0.0
  0
LINE
  5
698
330
5A9
100
AcDbEntity
  8
BEM
 62
     0
370
    -2
100
AcDbLine
 10
144.3303298154941
 20
128.002710846913
 30
0.0
 11
183.330329815486
 21
128.002710846913
 31
0.0
  0
SOLID
  5
699
330
5A9
100
AcDbEntity
  8
BEM
 62
     0
100
AcDbTrace
 10
144.3303298154941
 20
129.1693775135797
 30
0.0
 11
144.3303298154941
 21
126.8360441802463
 31
0.0
 12
137.3303298154941
 22
128.002710846913
 32
0.0
 13
137.3303298154941
 23
128.002710846913
 33
0.0
  0
SOLID
  5
69A
330
5A9
100
AcDbEntity
  8
BEM
 62
     0
100
AcDbTrace
 10
183.330329815486
 20
129.1693775135797
 30
0.0
 11
183.330329815486
 21
126.8360441802463
 31
0.0
 12
190.330329815486
 22
128.002710846913
 32
0.0
 13
190.330329815486
 23
128.002710846913
 33
0.0
  0
MTEXT
  5
69B
330
5A9
100
AcDbEntity
  8
BEM
 62
     1
100
AcDbMText
 10
163.8303298154901
 20
134.502710846913
 30
0.0
 40
7.0
 41
0.0
 71
     5
 72
     1
  1
\A1;%%c53
 73
     1
 44
1.0
  0
POINT
  5
69C
330
5A9
100
AcDbEntity
  8
DEFPOINTS
 62
     0
100
AcDbPoint
 10
137.3303298154941
 20
152.9680852308679
 30
0.0
  0
POINT
  5
69D
330
5A9
100
AcDbEntity
  8
DEFPOINTS
 62
     0
100
AcDbPoint
 10
190.330329815486
 20
152.9680852309553
 30
0.0
  0
POINT
  5
69E
330
5A9
100
AcDbEntity
  8
DEFPOINTS
 62
     0
100
AcDbPoint
 10
190.330329815486
 20
128.002710846913
 30
0.0
  0
ENDBLK
  5
5B4
330
5A9
100
AcDbEntity
  8
0
100
AcDbBlockEnd
  0
BLOCK
  5
5BF
330
5B5
100
AcDbEntity
  8
0
100
AcDbBlockBegin
  2
*D7
 70
     1
 10
0.0
 20
0.0
 30
0.0
  3
*D7
  1

  0
LINE
  5
6D9
330
5B5
100
AcDbEntity
  8
BEM
 62
     0
370
    -2
100
AcDbLine
 10
400.603524872561
 20
508.0335766453239
 30
0.0
 11
418.7244166474143
 21
508.0335766453239
 31
0.0
  0
LINE
  5
6DA
330
5B5
100
AcDbEntity
  8
BEM
 62
     0
370
    -2
100
AcDbLine
 10
376.171811311247
 20
148.0335766453238
 30
0.0
 11
418.7244166474142
 21
148.0335766453238
 31
0.0
  0
LINE
  5
6DB
330
5B5
100
AcDbEntity
  8
BEM
 62
     0
370
    -2
100
AcDbLine
 10
416.7244166474143
 20
501.0335766453239
 30
0.0
 11
416.7244166474143
 21
155.0335766453238
 31
0.0
  0
SOLID
  5
6DC
330
5B5
100
AcDbEntity
  8
BEM
 62
     0
100
AcDbTrace
 10
415.5577499807476
 20
501.0335766453239
 30
0.0
 11
417.8910833140809
 21
501.0335766453239
 31
0.0
 12
416.7244166474143
 22
508.0335766453239
 32
0.0
 13
416.7244166474143
 23
508.0335766453239
 33
0.0
  0
SOLID
  5
6DD
330
5B5
100
AcDbEntity
  8
BEM
 62
     0
100
AcDbTrace
 10
415.5577499807476
 20
155.0335766453238
 30
0.0
 11
417.8910833140809
 21
155.0335766453238
 31
0.0
 12
416.7244166474143
 22
148.0335766453238
 32
0.0
 13
416.7244166474143
 23
148.0335766453238
 33
0.0
  0
MTEXT
  5
6DE
330
5B5
100
AcDbEntity
  8
BEM
 62
     1
100
AcDbMText
 10
410.2244166474141
 20
328.033576645324
 30
0.0
 40
7.0
 41
0.0
 71
     5
 72
     1
  1
\A1;360
 11
0.0000000000000001
 21
1.0
 31
0.0
 73
     1
 44
1.0
  0
POINT
  5
6DF
330
5B5
100
AcDbEntity
  8
DEFPOINTS
 62
     0
100
AcDbPoint
 10
398.6035248725611
 20
508.0335766453239
 30
0.0
  0
POINT
  5
6E0
330
5B5
100
AcDbEntity
  8
DEFPOINTS
 62
     0
100
AcDbPoint
 10
374.171811311247
 20
148.0335766453238
 30
0.0
  0
POINT
  5
6E1
330
5B5
100
AcDbEntity
  8
DEFPOINTS
 62
     0
100
AcDbPoint
 10
416.7244166474143
 20
148.0335766453238
 30
0.0
  0
ENDBLK
  5
5C0
330
5B5
100
AcDbEntity
  8
0
100
AcDbBlockEnd
  0
BLOCK
  5
74E
330
74D
100
AcDbEntity
  8
0
100
AcDbBlockBegin
  2
*X8
 70
     1
 10
0.0
 20
0.0
 30
0.0
  3
*X8
  1

  0
LINE
  5
74F
330
74D
100
AcDbEntity
  8
0
 62
     0
100
AcDbLine
 10
116.6688557798446
 20
37.4728962869513
 30
0.0
 11
118.1688557798446
 21
38.9728962869513
 31
0.0
  0
LINE
  5
750
330
74D
100
AcDbEntity
  8
0
 62
     0
100
AcDbLine
 10
115.2546422174715
 20
37.47289628695129
 30
0.0
 11
116.4022015681823
 21
38.62045563766208
 31
0.0
  0
LINE
  5
751
330
74D
100
AcDbEntity
  8
0
 62
     0
100
AcDbLine
 10
116.4022015681823
 20
38.62045563766209
 30
0.0
 11
116.7546422174715
 21
38.9728962869513
 31
0.0
  0
LINE
  5
752
330
74D
100
AcDbEntity
  8
0
 62
     0
100
AcDbLine
 10
113.8404286550984
 20
37.47289628695129
 30
0.0
 11
115.3404286550984
 21
38.97289628695129
 31
0.0
  0
LINE
  5
753
330
74D
100
AcDbEntity
  8
0
 62
     0
100
AcDbLine
 10
112.4262150927253
 20
37.47289628695128
 30
0.0
 11
113.9262150927253
 21
38.97289628695129
 31
0.0
  0
LINE
  5
754
330
74D
100
AcDbEntity
  8
0
 62
     0
100
AcDbLine
 10
111.0120015303522
 20
37.47289628695128
 30
0.0
 11
112.5120015303522
 21
38.97289628695129
 31
0.0
  0
LINE
  5
755
330
74D
100
AcDbEntity
  8
0
 62
     0
100
AcDbLine
 10
109.8256750849001
 20
37.70078340387231
 30
0.0
 11
111.0977879679791
 21
38.97289628695128
 31
0.0
  0
LINE
  5
756
330
74D
100
AcDbEntity
  8
0
 62
     0
100
AcDbLine
 10
109.0106948874558
 20
38.30001676880104
 30
0.0
 11
110.0743238519078
 21
39.36364573325305
 31
0.0
  0
LINE
  5
757
330
74D
100
AcDbEntity
  8
0
 62
     0
100
AcDbLine
 10
108.3643691766526
 20
39.06790462037099
 30
0.0
 11
109.4284092185544
 21
40.1319446622728
 31
0.0
  0
LINE
  5
758
330
74D
100
AcDbEntity
  8
0
 62
     0
100
AcDbLine
 10
107.3551472808598
 20
39.47289628695129
 30
0.0
 11
108.6189615858575
 21
40.73671059194899
 31
0.0
  0
LINE
  5
759
330
74D
100
AcDbEntity
  8
0
 62
     0
100
AcDbLine
 10
105.9409337184867
 20
39.47289628695129
 30
0.0
 11
107.4409337184867
 21
40.9728962869513
 31
0.0
  0
LINE
  5
75A
330
74D
100
AcDbEntity
  8
0
 62
     0
100
AcDbLine
 10
104.5267201561136
 20
39.47289628695129
 30
0.0
 11
106.0267201561136
 21
40.97289628695129
 31
0.0
  0
LINE
  5
75B
330
74D
100
AcDbEntity
  8
0
 62
     0
100
AcDbLine
 10
103.1125065937405
 20
39.47289628695129
 30
0.0
 11
104.6125065937405
 21
40.97289628695129
 31
0.0
  0
LINE
  5
75C
330
74D
100
AcDbEntity
  8
0
 62
     0
100
AcDbLine
 10
94.70394785226767
 20
32.4785511078515
 30
0.0
 11
100.9342639703329
 21
38.70886722591679
 31
0.0
  0
LINE
  5
75D
330
74D
100
AcDbEntity
  8
0
 62
     0
100
AcDbLine
 10
101.5909688954818
 20
39.3655721510656
 30
0.0
 11
103.1982930313674
 21
40.97289628695129
 31
0.0
  0
LINE
  5
75E
330
74D
100
AcDbEntity
  8
0
 62
     0
100
AcDbLine
 10
93.28407946899432
 20
32.47289628695124
 30
0.0
 11
94.82755894909768
 21
34.0163757670546
 31
0.0
  0
LINE
  5
75F
330
74D
100
AcDbEntity
  8
0
 62
     0
100
AcDbLine
 10
96.13971401964128
 20
35.32853083759821
 30
0.0
 11
101.7691857779554
 21
40.95800259591233
 31
0.0
  0
LINE
  5
760
330
74D
100
AcDbEntity
  8
0
 62
     0
100
AcDbLine
 10
91.86986590662122
 20
32.47289628695124
 30
0.0
 11
93.36986590662124
 21
33.97289628695125
 31
0.0
  0
LINE
  5
761
330
74D
100
AcDbEntity
  8
0
 62
     0
100
AcDbLine
 10
90.45565234424811
 20
32.47289628695123
 30
0.0
 11
91.95565234424813
 21
33.97289628695125
 31
0.0
  0
LINE
  5
762
330
74D
100
AcDbEntity
  8
0
 62
     0
100
AcDbLine
 10
90.0522015681823
 20
33.48365907325852
 30
0.0
 11
90.54143878187504
 21
33.97289628695125
 31
0.0
  0
LINE
  5
763
330
74D
100
AcDbEntity
  8
0
 62
     0
100
AcDbLine
 10
118.0830693422177
 20
37.4728962869513
 30
0.0
 11
119.5830693422177
 21
38.9728962869513
 31
0.0
  0
LINE
  5
764
330
74D
100
AcDbEntity
  8
0
 62
     0
100
AcDbLine
 10
119.4972829045908
 20
37.4728962869513
 30
0.0
 11
120.9972829045908
 21
38.9728962869513
 31
0.0
  0
LINE
  5
765
330
74D
100
AcDbEntity
  8
0
 62
     0
100
AcDbLine
 10
120.9114964669639
 20
37.4728962869513
 30
0.0
 11
124.1661901377725
 21
40.72758995775997
 31
0.0
  0
LINE
  5
766
330
74D
100
AcDbEntity
  8
0
 62
     0
100
AcDbLine
 10
122.3623518240468
 20
37.50953808166116
 30
0.0
 11
125.825710029337
 21
40.97289628695129
 31
0.0
  0
LINE
  5
767
330
74D
100
AcDbEntity
  8
0
 62
     0
100
AcDbLine
 10
125.7399235917101
 20
39.47289628695132
 30
0.0
 11
127.2399235917101
 21
40.9728962869513
 31
0.0
  0
LINE
  5
768
330
74D
100
AcDbEntity
  8
0
 62
     0
100
AcDbLine
 10
127.1541371540832
 20
39.47289628695132
 30
0.0
 11
128.6541371540832
 21
40.9728962869513
 31
0.0
  0
LINE
  5
769
330
74D
100
AcDbEntity
  8
0
 62
     0
100
AcDbLine
 10
128.5683507164563
 20
39.47289628695131
 30
0.0
 11
130.0683507164563
 21
40.97289628695131
 31
0.0
  0
LINE
  5
76A
330
74D
100
AcDbEntity
  8
0
 62
     0
100
AcDbLine
 10
129.9825642788294
 20
39.47289628695131
 30
0.0
 11
131.3999832813456
 21
40.89031528946753
 31
0.0
  0
LINE
  5
76B
330
74D
100
AcDbEntity
  8
0
 62
     0
100
AcDbLine
 10
131.2627782663418
 20
39.33889671209068
 30
0.0
 11
132.3380279714872
 21
40.41414641723611
 31
0.0
  0
LINE
  5
76C
330
74D
100
AcDbEntity
  8
0
 62
     0
100
AcDbLine
 10
131.9508157425897
 20
38.6127206259655
 30
0.0
 11
133.0155274639144
 21
39.67743234729022
 31
0.0
  0
LINE
  5
76D
330
74D
100
AcDbEntity
  8
0
 62
     0
100
AcDbLine
 10
132.5960586965202
 20
37.84375001752282
 30
0.0
 11
133.6607704178449
 21
38.90846173884753
 31
0.0
  0
LINE
  5
76E
330
74D
100
AcDbEntity
  8
0
 62
     0
100
AcDbLine
 10
133.2413016504506
 20
37.07477940908014
 30
0.0
 11
134.3060133717753
 21
38.13949113040486
 31
0.0
  0
LINE
  5
76F
330
74D
100
AcDbEntity
  8
0
 62
     0
100
AcDbLine
 10
133.886544604381
 20
36.30580880063746
 30
0.0
 11
134.9512563257057
 21
37.37052052196218
 31
0.0
  0
LINE
  5
770
330
74D
100
AcDbEntity
  8
0
 62
     0
100
AcDbLine
 10
134.5317875583114
 20
35.53683819219479
 30
0.0
 11
135.5964992796361
 21
36.6015499135195
 31
0.0
  0
LINE
  5
771
330
74D
100
AcDbEntity
  8
0
 62
     0
100
AcDbLine
 10
135.1770305122418
 20
34.76786758375211
 30
0.0
 11
136.2417422335665
 21
35.83257930507682
 31
0.0
  0
LINE
  5
772
330
74D
100
AcDbEntity
  8
0
 62
     0
100
AcDbLine
 10
135.8222734661722
 20
33.99889697530943
 30
0.0
 11
136.886985187497
 21
35.06360869663414
 31
0.0
  0
LINE
  5
773
330
74D
100
AcDbEntity
  8
0
 62
     0
100
AcDbLine
 10
136.4719689048079
 20
33.23437885157205
 30
0.0
 11
137.5329863989442
 21
34.29539634570829
 31
0.0
  0
LINE
  5
774
330
74D
100
AcDbEntity
  8
0
 62
     0
100
AcDbLine
 10
137.3140646070724
 20
32.66226099146336
 30
0.0
 11
138.6246999025603
 21
33.97289628695132
 31
0.0
  0
LINE
  5
775
330
74D
100
AcDbEntity
  8
0
 62
     0
100
AcDbLine
 10
138.5389134649334
 20
32.47289628695132
 30
0.0
 11
140.0389134649334
 21
33.97289628695132
 31
0.0
  0
LINE
  5
776
330
74D
100
AcDbEntity
  8
0
 62
     0
100
AcDbLine
 10
139.9531270273065
 20
32.47289628695132
 30
0.0
 11
141.4531270273065
 21
33.97289628695133
 31
0.0
  0
LINE
  5
777
330
74D
100
AcDbEntity
  8
0
 62
     0
100
AcDbLine
 10
141.3673405896796
 20
32.47289628695132
 30
0.0
 11
142.7522015681822
 21
33.85775726545399
 31
0.0
  0
ENDBLK
  5
778
330
74D
100
AcDbEntity
  8
0
100
AcDbBlockEnd
  0
ENDSEC
  0
SECTION
  2
ENTITIES
  0
LINE
  5
87
330
1E
100
AcDbEntity
  8
HILF
100
AcDbLine
 10
594.0
 20
-0.0000000000000568
 30
0.0
 11
594.0
 21
840.0
 31
0.0
  0
LINE
  5
88
330
1E
100
AcDbEntity
  8
HILF
100
AcDbLine
 10
594.0
 20
840.0
 30
0.0
 11
0.0
 21
840.0
 31
0.0
  0
LINE
  5
89
330
1E
100
AcDbEntity
  8
HILF
100
AcDbLine
 10
0.0
 20
840.0
 30
0.0
 11
0.0
 21
0.0
 31
0.0
  0
LINE
  5
8B
330
1E
100
AcDbEntity
  8
STEMPEL
100
AcDbLine
 10
10.0
 20
830.0
 30
0.0
 11
10.0
 21
39.99999999999995
 31
0.0
  0
LINE
  5
8D
330
1E
100
AcDbEntity
  8
STEMPEL
100
AcDbLine
 10
584.0
 20
39.99999999999995
 30
0.0
 11
584.0
 21
830.0
 31
0.0
  0
LINE
  5
8E
330
1E
100
AcDbEntity
  8
STEMPEL
100
AcDbLine
 10
584.0
 20
830.0
 30
0.0
 11
10.0
 21
830.0
 31
0.0
  0
LINE
  5
9C
330
1E
100
AcDbEntity
  8
BEM
100
AcDbLine
 10
594.0
 20
455.9999999999999
 30
0.0
 11
584.0
 21
455.9999999999999
 31
0.0
  0
LINE
  5
13E
330
1E
100
AcDbEntity
  8
HILF
100
AcDbLine
 10
594.0
 20
-0.0000000000000568
 30
0.0
 11
0.0
 21
0.0
 31
0.0
  0
LINE
  5
13F
330
1E
100
AcDbEntity
  8
STEMPEL
100
AcDbLine
 10
584.0
 20
39.99999999999995
 30
0.0
 11
10.0
 21
39.99999999999995
 31
0.0
  0
LINE
  5
14A
330
1E
100
AcDbEntity
  8
HILF
100
AcDbLine
 10
297.0
 20
-0.0000000000000568
 30
0.0
 11
297.0
 21
39.99999999999995
 31
0.0
  0
TEXT
  5
15B
330
1E
100
AcDbEntity
  8
BEM
100
AcDbText
 10
583.8320989200114
 20
837.3022923857165
 30
0.0
 40
4.0
  1
Diese Zeichnung ist urheberrechtlich geschützt und bleibt unser Eigentum. Sie darf weder ganz noch teilweise verfielfältigt und nicht an Dritte weitergegeben werden.
 50
180.0
 41
0.8
  7
GREEKS
100
AcDbText
  0
HATCH
  5
3CC
330
1E
100
AcDbEntity
  8
SCHRAFF
100
AcDbHatch
 10
0.0
 20
0.0
 30
0.0
210
0.0
220
0.0
230
1.0
  2
_USER
 70
     0
 71
     0
 91
        2
 92
       17
 93
        2
 72
     1
 10
120.9303298154861
 20
460.5335766453236
 11
120.9303298154864
 21
178.0335766453238
 72
     1
 10
120.9303298154864
 20
178.0335766453238
 11
120.9303298154861
 21
460.5335766453236
 97
        0
 92
       33
 93
        7
 72
     1
 10
119.3303298154861
 20
460.5335766453236
 11
119.3303298154862
 21
176.0335766453239
 72
     2
 10
116.3303298154861
 20
460.5335766453236
 40
4.599999999999999
 50
0.0
 51
90.0
 73
     1
 72
     2
 10
116.3303298154861
 20
460.5335766453236
 40
3.0
 50
0.0
 51
90.0
 73
     1
 72
     1
 10
116.3303298154861
 20
465.1335766453236
 11
115.830329815486
 21
465.1335766453236
 72
     1
 10
116.3303298154862
 20
463.5335766453236
 11
115.830329815486
 21
463.5335766453236
 72
     1
 10
115.830329815486
 20
465.1335766453236
 11
115.830329815486
 21
463.5335766453236
 72
     1
 10
115.8352665698364
 20
465.1335766453236
 11
115.8352665698364
 21
463.6235036004632
 97
        0
 75
     0
 76
     0
 52
135.0
 41
2.0
 77
     0
 78
     1
 53
135.0
 43
0.0
 44
42.21647432280406
 45
-1.414213562373095
 46
-1.414213562373094
 79
     0
 98
        1
 10
0.0
 20
42.21647432280406
  0
HATCH
  5
3CE
330
1E
100
AcDbEntity
  8
SCHRAFF
100
AcDbHatch
 10
0.0
 20
0.0
 30
0.0
210
0.0
220
0.0
230
1.0
  2
_USER
 70
     0
 71
     1
 91
        1
 92
        7
 72
     0
 73
     1
 93
        4
 10
208.3303298154858
 20
686.0335766453236
 10
206.7303298154859
 20
686.0335766453236
 10
206.7303298154861
 20
178.0335766453236
 10
208.3303298154862
 20
178.0335766453236
 97
        4
330
4D2
330
4A9
330
4A6
330
4A8
 75
     0
 76
     0
 52
135.0
 41
2.0
 77
     0
 78
     1
 53
135.0
 43
0.0
 44
42.21647432280406
 45
-1.414213562373095
 46
-1.414213562373094
 79
     0
 47
1.057315734841271
 98
        1
 10
207.5722816308044
 20
564.0690558760984
  0
DIMENSION
  5
3D0
330
1E
100
AcDbEntity
  8
BEM
100
AcDbDimension
  2
*D7
 10
416.7244166474143
 20
148.0335766453238
 30
0.0
 11
410.2244166474141
 21
328.033576645324
 31
0.0
 70
    32
 71
     5
 42
360.0000000000001
  3
Standard
100
AcDbAlignedDimension
 13
398.6035248725611
 23
508.0335766453239
 33
0.0
 14
374.171811311247
 24
148.0335766453238
 34
0.0
 50
90.0
100
AcDbRotatedDimension
1001
ACAD
1000
DSTYLE
1002
{
1070
    40
1040
2.0
1070
    41
1040
3.5
1070
    42
1040
1.0
1070
    43
1040
7.0
1070
    44
1040
1.0
1070
    73
1070
     0
1070
    74
1070
     0
1070
    77
1070
     1
1070
    78
1070
     8
1070
    79
1070
     2
1070
   140
1040
3.5
1070
   141
1040
1.5
1070
   146
1040
0.5
1070
   147
1040
1.5
1070
   172
1070
     1
1070
   178
1070
     1
1070
   179
1070
     2
1070
   271
1070
     2
1070
   272
1070
     2
1070
   284
1070
     8
1070
   285
1070
     8
1070
   286
1070
     8
1002
}
  0
LINE
  5
3D1
330
1E
100
AcDbEntity
  8
STEMPEL
100
AcDbLine
 10
392.6035248725609
 20
686.0335766453235
 30
0.0
 11
392.6035248725614
 21
176.0335766453234
 31
0.0
  0
LINE
  5
3D2
330
1E
100
AcDbEntity
  8
STEMPEL
100
AcDbLine
 10
303.6035248725611
 20
686.0335766453236
 30
0.0
 11
303.6035248725614
 21
176.0335766453234
 31
0.0
  0
LINE
  5
456
330
1E
100
AcDbEntity
  8
STEMPEL
100
AcDbLine
 10
119.3303298154861
 20
460.5335766453236
 30
0.0
 11
119.3303298154862
 21
176.0335766453239
 31
0.0
  0
LINE
  5
457
330
1E
100
AcDbEntity
  8
STEMPEL
100
AcDbLine
 10
120.9303298154861
 20
460.5335766453236
 30
0.0
 11
120.9303298154864
 21
178.0335766453238
 31
0.0
  0
LINE
  5
458
102
{ACAD_REACTORS
330
A61
102
}
330
1E
100
AcDbEntity
  8
STEMPEL
100
AcDbLine
 10
120.9303298154861
 20
460.5335766453236
 30
0.0
 11
120.9303298154864
 21
178.0335766453238
 31
0.0
  0
LINE
  5
46D
102
{ACAD_REACTORS
330
9C3
330
A61
102
}
330
1E
100
AcDbEntity
  8
STEMPEL
100
AcDbLine
 10
137.3303298154892
 20
478.5335766453235
 30
0.0
 11
137.3303298154941
 21
152.9680852308679
 31
0.0
  0
LINE
  5
46E
102
{ACAD_REACTORS
330
9C3
102
}
330
1E
100
AcDbEntity
  8
STEMPEL
100
AcDbLine
 10
138.8303298154859
 20
478.5335766453235
 30
0.0
 11
138.8303298154859
 21
153.0335766453238
 31
0.0
  0
LINE
  5
47B
330
1E
100
AcDbEntity
  8
HILF
100
AcDbLine
 10
373.1035248725611
 20
153.0335766453238
 30
0.0
 11
323.103524872561
 21
153.0335766453237
 31
0.0
  0
LINE
  5
47C
330
1E
100
AcDbEntity
  8
STEMPEL
100
AcDbLine
 10
374.171811311247
 20
148.0335766453238
 30
0.0
 11
322.0352384338757
 21
148.0335766453238
 31
0.0
  0
LINE
  5
47D
330
1E
100
AcDbEntity
  8
STEMPEL
100
AcDbLine
 10
392.6035248725609
 20
686.0335766453236
 30
0.0
 11
303.6035248725611
 21
686.0335766453238
 31
0.0
  0
LINE
  5
47E
330
1E
100
AcDbEntity
  8
STEMPEL
100
AcDbLine
 10
321.6035248725689
 20
176.0335766453234
 30
0.0
 11
321.6035248725692
 21
152.9680852308679
 31
0.0
  0
LINE
  5
47F
330
1E
100
AcDbEntity
  8
STEMPEL
100
AcDbLine
 10
321.6035248725692
 20
152.9680852308679
 30
0.0
 11
322.0352384338757
 21
148.0335766453238
 31
0.0
  0
LINE
  5
480
330
1E
100
AcDbEntity
  8
STEMPEL
100
AcDbLine
 10
392.6035248725614
 20
178.0335766453234
 30
0.0
 11
303.6035248725607
 21
178.0335766453239
 31
0.0
  0
LINE
  5
481
330
1E
100
AcDbEntity
  8
STEMPEL
100
AcDbLine
 10
374.6035248725612
 20
176.0335766453234
 30
0.0
 11
374.6035248725612
 21
152.9680852309553
 31
0.0
  0
LINE
  5
482
330
1E
100
AcDbEntity
  8
MITTEL
100
AcDbLine
 10
348.1035248725611
 20
691.0335766453238
 30
0.0
 11
348.1035248725614
 21
143.0335766453237
 31
0.0
  0
LINE
  5
483
330
1E
100
AcDbEntity
  8
STEMPEL
100
AcDbLine
 10
374.6035248725612
 20
152.9680852309553
 30
0.0
 11
374.171811311247
 21
148.0335766453238
 31
0.0
  0
LINE
  5
484
330
1E
100
AcDbEntity
  8
HILF
100
AcDbLine
 10
371.5977951162467
 20
153.0335766453238
 30
0.0
 11
324.609254628876
 21
153.0335766453237
 31
0.0
  0
LINE
  5
485
330
1E
100
AcDbEntity
  8
STEMPEL
100
AcDbLine
 10
374.171811311247
 20
148.0335766453238
 30
0.0
 11
322.0352384338757
 21
148.0335766453238
 31
0.0
  0
LINE
  5
486
330
1E
100
AcDbEntity
  8
STEMPEL
100
AcDbLine
 10
392.6035248725609
 20
686.0335766453236
 30
0.0
 11
303.6035248725611
 21
686.0335766453238
 31
0.0
  0
LINE
  5
487
330
1E
100
AcDbEntity
  8
STEMPEL
100
AcDbLine
 10
321.6035248725689
 20
176.0335766453234
 30
0.0
 11
321.6035248725692
 21
152.9680852308679
 31
0.0
  0
LINE
  5
488
330
1E
100
AcDbEntity
  8
STEMPEL
100
AcDbLine
 10
321.6035248725692
 20
152.9680852308679
 30
0.0
 11
322.0352384338757
 21
148.0335766453238
 31
0.0
  0
LINE
  5
48A
330
1E
100
AcDbEntity
  8
STEMPEL
100
AcDbLine
 10
321.6035248725676
 20
178.0335766453238
 30
0.0
 11
303.6035248725607
 21
178.0335766453239
 31
0.0
  0
LINE
  5
48B
330
1E
100
AcDbEntity
  8
STEMPEL
100
AcDbLine
 10
374.6035248725612
 20
176.0335766453234
 30
0.0
 11
374.6035248725612
 21
152.9680852309553
 31
0.0
  0
LINE
  5
48C
330
1E
100
AcDbEntity
  8
MITTEL
100
AcDbLine
 10
348.1035248725611
 20
691.0335766453238
 30
0.0
 11
348.1035248725614
 21
143.0335766453237
 31
0.0
  0
LINE
  5
48D
330
1E
100
AcDbEntity
  8
STEMPEL
100
AcDbLine
 10
374.6035248725612
 20
152.9680852309553
 30
0.0
 11
374.171811311247
 21
148.0335766453238
 31
0.0
  0
TEXT
  5
48F
330
1E
100
AcDbEntity
  8
TEXT
 62
     1
100
AcDbText
 10
155.9911709896357
 20
612.7929524578669
 30
0.0
 40
7.0
  1
DN50
 50
90.0
 41
0.8
  7
GREEKS
100
AcDbText
  0
LINE
  5
490
330
1E
100
AcDbEntity
  8
STEMPEL
100
AcDbLine
 10
191.7823077862335
 20
686.0335766453238
 30
0.0
 11
192.1438699821453
 21
685.2582040139962
 31
0.0
  0
LINE
  5
491
330
1E
100
AcDbEntity
  8
STEMPEL
100
AcDbLine
 10
193.4373746646772
 20
686.0335766453238
 30
0.0
 11
193.5033316627007
 21
685.8921314066066
 31
0.0
  0
ARC
  5
492
330
1E
100
AcDbEntity
  8
STEMPEL
100
AcDbCircle
 10
175.830329815486
 20
677.651075302663
 30
0.0
 40
19.5
100
AcDbArc
 50
0.0
 51
25.45942856880091
  0
ARC
  5
493
330
1E
100
AcDbEntity
  8
STEMPEL
100
AcDbCircle
 10
175.830329815486
 20
677.651075302663
 30
0.0
 40
18.0
100
AcDbArc
 50
0.0
 51
24.99999999999382
  0
LINE
  5
494
330
1E
100
AcDbEntity
  8
STEMPEL
100
AcDbLine
 10
193.830329815486
 20
673.1955766453238
 30
0.0
 11
193.8303618726143
 21
673.1955766453238
 31
0.0
  0
ARC
  5
495
330
1E
100
AcDbEntity
  8
STEMPEL
100
AcDbCircle
 10
170.330329815486
 20
673.1955766453238
 30
0.0
 40
25.00003205712822
100
AcDbArc
 50
340.5369005553154
 51
0.0917549917637361
  0
ARC
  5
496
330
1E
100
AcDbEntity
  8
STEMPEL
100
AcDbCircle
 10
170.330329815486
 20
673.1955766453238
 30
0.0
 40
23.5000320571282
100
AcDbArc
 50
340.5369005553154
 51
0.0946380447970313
  0
LINE
  5
497
330
1E
100
AcDbEntity
  8
STEMPEL
100
AcDbLine
 10
193.330329815486
 20
661.5335766453238
 30
0.0
 11
193.330329815486
 21
653.4419035585196
 31
0.0
  0
LINE
  5
498
330
1E
100
AcDbEntity
  8
STEMPEL
100
AcDbLine
 10
191.830329815486
 20
661.5335766453238
 30
0.0
 11
191.830329815486
 21
653.4419035585196
 31
0.0
  0
ARC
  5
499
330
1E
100
AcDbEntity
  8
STEMPEL
100
AcDbCircle
 10
203.330329815486
 20
661.533576645324
 30
0.0
 40
10.0
100
AcDbArc
 50
160.5369005553154
 51
180.0
  0
ARC
  5
49A
330
1E
100
AcDbEntity
  8
STEMPEL
100
AcDbCircle
 10
203.330329815486
 20
661.533576645324
 30
0.0
 40
11.5
100
AcDbArc
 50
160.5369005553154
 51
180.0
  0
LINE
  5
49B
330
1E
100
AcDbEntity
  8
STEMPEL
100
AcDbLine
 10
193.830329815486
 20
677.651075302663
 30
0.0
 11
193.830329815486
 21
673.2343926993888
 31
0.0
  0
LINE
  5
49C
330
1E
100
AcDbEntity
  8
STEMPEL
100
AcDbLine
 10
195.330329815486
 20
677.651075302663
 30
0.0
 11
195.330329815486
 21
673.2356123473323
 31
0.0
  0
LINE
  5
49D
330
1E
100
AcDbEntity
  8
STEMPEL
100
AcDbLine
 10
206.7303298154859
 20
672.0335766453236
 30
0.0
 11
195.3033424262512
 21
672.0335766453236
 31
0.0
  0
ARC
  5
49E
330
1E
100
AcDbEntity
  8
STEMPEL
100
AcDbCircle
 10
198.330329815486
 20
642.9062498056671
 30
0.0
 40
8.0
100
AcDbArc
 50
148.2116693829511
 51
180.0
  0
LINE
  5
49F
330
1E
100
AcDbEntity
  8
STEMPEL
100
AcDbLine
 10
190.330329815486
 20
648.0335766453237
 30
0.0
 11
190.330329815486
 21
648.0297251886468
 31
0.0
  0
ARC
  5
4A0
330
1E
100
AcDbEntity
  8
STEMPEL
100
AcDbCircle
 10
198.330329815486
 20
642.9062498056668
 30
0.0
 40
9.5
100
AcDbArc
 50
148.2116693829511
 51
180.0
  0
ARC
  5
4A1
330
1E
100
AcDbEntity
  8
STEMPEL
100
AcDbCircle
 10
181.330329815486
 20
653.4419035585196
 30
0.0
 40
10.5
100
AcDbArc
 50
328.2116693829511
 51
0.0
  0
ARC
  5
4A2
330
1E
100
AcDbEntity
  8
STEMPEL
100
AcDbCircle
 10
181.330329815486
 20
653.4419035585196
 30
0.0
 40
12.0
100
AcDbArc
 50
328.2116693829511
 51
0.0
  0
LINE
  5
4A3
330
1E
100
AcDbEntity
  8
STEMPEL
100
AcDbLine
 10
206.7303298154864
 20
178.0335766453238
 30
0.0
 11
206.1715975036184
 21
194.0335766453238
 31
0.0
  0
LINE
  5
4A5
330
1E
100
AcDbEntity
  8
STEMPEL
100
AcDbLine
 10
194.3303298154862
 20
184.0335766453238
 30
0.0
 11
190.3303298154865
 21
184.0335766453238
 31
0.0
  0
LINE
  5
4A6
102
{ACAD_REACTORS
330
3CE
102
}
330
1E
100
AcDbEntity
  8
STEMPEL
100
AcDbLine
 10
208.3303298154854
 20
178.0335766453236
 30
0.0
 11
206.7303298154861
 21
178.0335766453235
 31
0.0
  0
LINE
  5
4A7
330
1E
100
AcDbEntity
  8
STEMPEL
100
AcDbLine
 10
206.1715975036184
 20
194.0335766453238
 30
0.0
 11
190.3303298154865
 21
194.0335766453238
 31
0.0
  0
LINE
  5
4A8
102
{ACAD_REACTORS
330
3CE
102
}
330
1E
100
AcDbEntity
  8
STEMPEL
100
AcDbLine
 10
208.3303298154858
 20
686.0335766453236
 30
0.0
 11
208.3303298154862
 21
178.0335766453236
 31
0.0
  0
LINE
  5
4A9
102
{ACAD_REACTORS
330
3CE
102
}
330
1E
100
AcDbEntity
  8
STEMPEL
100
AcDbLine
 10
206.7303298154859
 20
686.0335766453236
 30
0.0
 11
206.7303298154861
 21
178.0335766453236
 31
0.0
  0
DIMENSION
  5
4AA
330
1E
100
AcDbEntity
  8
BEM
100
AcDbDimension
  2
*D2
 10
231.760156797099
 20
178.0335766453236
 30
0.0
 11
225.260156797099
 21
432.0335766453236
 31
0.0
 70
    32
 71
     5
 42
507.9999999999999
  3
Standard
100
AcDbAlignedDimension
 13
208.3303298154858
 23
686.0335766453236
 33
0.0
 14
208.3303298154862
 24
178.0335766453236
 34
0.0
 50
90.0
100
AcDbRotatedDimension
1001
ACAD
1000
DSTYLE
1002
{
1070
    40
1040
2.0
1070
    41
1040
3.5
1070
    42
1040
1.0
1070
    43
1040
7.0
1070
    44
1040
1.0
1070
    73
1070
     0
1070
    74
1070
     0
1070
    77
1070
     1
1070
    78
1070
     8
1070
    79
1070
     2
1070
   140
1040
3.5
1070
   141
1040
1.5
1070
   146
1040
0.5
1070
   147
1040
1.5
1070
   172
1070
     1
1070
   178
1070
     1
1070
   179
1070
     2
1070
   271
1070
     2
1070
   272
1070
     2
1070
   284
1070
     8
1070
   285
1070
     8
1070
   286
1070
     8
1002
}
  0
LINE
  5
4AB
330
1E
100
AcDbEntity
  8
STEMPEL
100
AcDbLine
 10
190.330329815486
 20
152.9680852309553
 30
0.0
 11
189.8986162541719
 21
148.0335766453238
 31
0.0
  0
LINE
  5
4AC
330
1E
100
AcDbEntity
  8
STEMPEL
100
AcDbLine
 10
188.830329815486
 20
153.0335766453175
 30
0.0
 11
188.392886497857
 21
148.0335766453238
 31
0.0
  0
LINE
  5
4AD
330
1E
100
AcDbEntity
  8
MITTEL
100
AcDbLine
 10
163.830329815486
 20
691.0335766453238
 30
0.0
 11
163.8303298154862
 21
143.0335766453237
 31
0.0
  0
LINE
  5
4AE
330
1E
100
AcDbEntity
  8
STEMPEL
100
AcDbLine
 10
190.330329815486
 20
642.9062498056671
 30
0.0
 11
190.330329815486
 21
152.9680852309553
 31
0.0
  0
LINE
  5
4AF
330
1E
100
AcDbEntity
  8
STEMPEL
100
AcDbLine
 10
188.830329815486
 20
642.9062498056668
 30
0.0
 11
188.830329815486
 21
153.0335766453175
 31
0.0
  0
DIMENSION
  5
4B0
330
1E
100
AcDbEntity
  8
BEM
100
AcDbDimension
  2
*D3
 10
252.6917454305689
 20
148.0335766453238
 30
0.0
 11
246.1917454305689
 21
417.0335766453237
 31
0.0
 70
    32
 71
     5
 42
537.9999999999998
  3
Standard
100
AcDbAlignedDimension
 13
208.3303298154858
 23
686.0335766453236
 33
0.0
 14
189.8986162541719
 24
148.0335766453238
 34
0.0
 50
90.0
100
AcDbRotatedDimension
1001
ACAD
1000
DSTYLE
1002
{
1070
    40
1040
2.0
1070
    41
1040
3.5
1070
    42
1040
1.0
1070
    43
1040
7.0
1070
    44
1040
1.0
1070
    73
1070
     0
1070
    74
1070
     0
1070
    77
1070
     1
1070
    78
1070
     8
1070
    79
1070
     2
1070
   140
1040
3.5
1070
   141
1040
1.5
1070
   146
1040
0.5
1070
   147
1040
1.5
1070
   172
1070
     1
1070
   178
1070
     1
1070
   179
1070
     2
1070
   271
1070
     2
1070
   272
1070
     2
1070
   284
1070
     8
1070
   285
1070
     8
1070
   286
1070
     8
1002
}
  0
LINE
  5
4B1
330
1E
100
AcDbEntity
  8
STEMPEL
100
AcDbLine
 10
135.8783518447385
 20
686.0335766453238
 30
0.0
 11
135.5167896488267
 21
685.2582040139959
 31
0.0
  0
LINE
  5
4B2
330
1E
100
AcDbEntity
  8
STEMPEL
100
AcDbLine
 10
134.2232849662948
 20
686.0335766453238
 30
0.0
 11
134.1573279682714
 21
685.8921314066065
 31
0.0
  0
ARC
  5
4B3
330
1E
100
AcDbEntity
  8
STEMPEL
100
AcDbCircle
 10
151.830329815486
 20
677.651075302663
 30
0.0
 40
18.0
100
AcDbArc
 50
155.0000000000013
 51
180.0
  0
ARC
  5
4B4
330
1E
100
AcDbEntity
  8
STEMPEL
100
AcDbCircle
 10
157.330329815486
 20
673.1955766453238
 30
0.0
 40
23.5000320571282
100
AcDbArc
 50
179.905361955203
 51
199.4630994446845
  0
LINE
  5
4B5
330
1E
100
AcDbEntity
  8
STEMPEL
100
AcDbLine
 10
133.830329815486
 20
673.1955766453238
 30
0.0
 11
133.8302977583578
 21
673.1955766453238
 31
0.0
  0
LINE
  5
4B6
330
1E
100
AcDbEntity
  8
STEMPEL
100
AcDbLine
 10
134.330329815486
 20
661.5335766453238
 30
0.0
 11
134.330329815486
 21
653.4419035585196
 31
0.0
  0
LINE
  5
4B7
330
1E
100
AcDbEntity
  8
STEMPEL
100
AcDbLine
 10
135.830329815486
 20
661.5335766453238
 30
0.0
 11
135.830329815486
 21
653.4419035585196
 31
0.0
  0
ARC
  5
4B8
330
1E
100
AcDbEntity
  8
STEMPEL
100
AcDbCircle
 10
124.330329815486
 20
661.5335766453238
 30
0.0
 40
11.5
100
AcDbArc
 50
0.0
 51
19.46309944468458
  0
ARC
  5
4B9
330
1E
100
AcDbEntity
  8
STEMPEL
100
AcDbCircle
 10
124.330329815486
 20
661.5335766453238
 30
0.0
 40
10.0
100
AcDbArc
 50
0.0
 51
19.46309944468458
  0
LINE
  5
4BA
330
1E
100
AcDbEntity
  8
STEMPEL
100
AcDbLine
 10
133.830329815486
 20
677.651075302663
 30
0.0
 11
133.830329815486
 21
673.2343926993888
 31
0.0
  0
LINE
  5
4BB
330
1E
100
AcDbEntity
  8
STEMPEL
100
AcDbLine
 10
132.3573172047208
 20
672.0335766453238
 30
0.0
 11
120.9303298154861
 21
672.0335766453238
 31
0.0
  0
LINE
  5
4BC
330
1E
100
AcDbEntity
  8
STEMPEL
100
AcDbLine
 10
132.330329815486
 20
677.651075302663
 30
0.0
 11
132.330329815486
 21
673.2356123473321
 31
0.0
  0
ARC
  5
4BD
330
1E
100
AcDbEntity
  8
STEMPEL
100
AcDbCircle
 10
151.830329815486
 20
677.651075302663
 30
0.0
 40
19.5
100
AcDbArc
 50
154.5405714311893
 51
180.0
  0
ARC
  5
4BE
330
1E
100
AcDbEntity
  8
STEMPEL
100
AcDbCircle
 10
157.330329815486
 20
673.1955766453238
 30
0.0
 40
25.00003205712822
100
AcDbArc
 50
179.9082450082428
 51
199.4630994446845
  0
ARC
  5
4BF
330
1E
100
AcDbEntity
  8
STEMPEL
100
AcDbCircle
 10
129.330329815486
 20
642.9062498056668
 30
0.0
 40
9.5
100
AcDbArc
 50
0.0
 51
31.78833061704886
  0
LINE
  5
4C0
330
1E
100
AcDbEntity
  8
STEMPEL
100
AcDbLine
 10
137.330329815486
 20
648.0335766453237
 30
0.0
 11
137.330329815486
 21
648.0297251886468
 31
0.0
  0
ARC
  5
4C1
330
1E
100
AcDbEntity
  8
STEMPEL
100
AcDbCircle
 10
129.330329815486
 20
642.9062498056671
 30
0.0
 40
8.0
100
AcDbArc
 50
0.0
 51
31.78833061704886
  0
ARC
  5
4C2
330
1E
100
AcDbEntity
  8
STEMPEL
100
AcDbCircle
 10
146.330329815486
 20
653.4419035585196
 30
0.0
 40
12.0
100
AcDbArc
 50
180.0
 51
211.7883306170488
  0
ARC
  5
4C3
330
1E
100
AcDbEntity
  8
STEMPEL
100
AcDbCircle
 10
146.330329815486
 20
653.4419035585196
 30
0.0
 40
10.5
100
AcDbArc
 50
180.0
 51
211.7883306170488
  0
LINE
  5
4C4
330
1E
100
AcDbEntity
  8
STEMPEL
100
AcDbLine
 10
133.3303298154862
 20
184.0335766453238
 30
0.0
 11
137.3303298154862
 21
184.0335766453238
 31
0.0
  0
LINE
  5
4C5
330
1E
100
AcDbEntity
  8
STEMPEL
100
AcDbLine
 10
120.9303298154864
 20
178.0335766453238
 30
0.0
 11
121.4890621273543
 21
194.0335766453238
 31
0.0
  0
LINE
  5
4C6
330
1E
100
AcDbEntity
  8
STEMPEL
100
AcDbLine
 10
120.9303298154864
 20
178.0335766453239
 30
0.0
 11
119.3303298154856
 21
178.0335766453239
 31
0.0
  0
LINE
  5
4C8
330
1E
100
AcDbEntity
  8
STEMPEL
100
AcDbLine
 10
121.4890621273543
 20
194.0335766453238
 30
0.0
 11
137.3303298154862
 21
194.0335766453238
 31
0.0
  0
LINE
  5
4C9
102
{ACAD_REACTORS
330
974
102
}
330
1E
100
AcDbEntity
  8
STEMPEL
100
AcDbLine
 10
119.330329815486
 20
686.0335766453238
 30
0.0
 11
119.3303298154861
 21
555.5335766453236
 31
0.0
  0
LINE
  5
4CA
330
1E
100
AcDbEntity
  8
STEMPEL
100
AcDbLine
 10
120.9303298154859
 20
686.0335766453238
 30
0.0
 11
120.930329815486
 21
555.5335766453236
 31
0.0
  0
LINE
  5
4CB
330
1E
100
AcDbEntity
  8
STEMPEL
100
AcDbLine
 10
138.8303298154859
 20
153.0335766453238
 30
0.0
 11
139.2677731331155
 21
148.0335766453237
 31
0.0
  0
LINE
  5
4CC
330
1E
100
AcDbEntity
  8
STEMPEL
100
AcDbLine
 10
137.3303298154941
 20
152.9680852308679
 30
0.0
 11
137.7620433768006
 21
148.0335766453238
 31
0.0
  0
LINE
  5
4CD
102
{ACAD_REACTORS
330
A61
102
}
330
1E
100
AcDbEntity
  8
STEMPEL
100
AcDbLine
 10
137.330329815486
 20
642.9062498056671
 30
0.0
 11
137.3303298154882
 21
537.5335766453235
 31
0.0
  0
LINE
  5
4CE
330
1E
100
AcDbEntity
  8
STEMPEL
100
AcDbLine
 10
138.830329815486
 20
642.9062498056668
 30
0.0
 11
138.830329815486
 21
537.5335766453235
 31
0.0
  0
LINE
  5
4CF
330
1E
100
AcDbEntity
  8
HILF
100
AcDbLine
 10
137.1841763785685
 20
663.4774461195251
 30
0.0
 11
190.4764832524035
 21
663.4774461195251
 31
0.0
  0
LINE
  5
4D0
330
1E
100
AcDbEntity
  8
HILF
100
AcDbLine
 10
137.8020679761662
 20
650.5663601316178
 30
0.0
 11
189.8585916548059
 21
650.5663601316178
 31
0.0
  0
LINE
  5
4D1
330
1E
100
AcDbEntity
  8
HILF
100
AcDbLine
 10
140.0182318547076
 20
645.5079319538165
 30
0.0
 11
187.6424277762644
 21
645.5079319538165
 31
0.0
  0
LINE
  5
4D2
102
{ACAD_REACTORS
330
3CE
102
}
330
1E
100
AcDbEntity
  8
STEMPEL
100
AcDbLine
 10
208.3303298154858
 20
686.0335766453236
 30
0.0
 11
119.330329815486
 21
686.0335766453238
 31
0.0
  0
LINE
  5
4D3
330
1E
100
AcDbEntity
  8
STEMPEL
100
AcDbLine
 10
189.8986162541719
 20
148.0335766453238
 30
0.0
 11
137.7620433768006
 21
148.0335766453238
 31
0.0
  0
LINE
  5
4D4
330
1E
100
AcDbEntity
  8
HILF
100
AcDbLine
 10
187.3246000591716
 20
153.0335766453238
 30
0.0
 11
140.3360595718009
 21
153.0335766453237
 31
0.0
  0
HATCH
  5
4D5
330
1E
100
AcDbEntity
  8
SCHRAFF
100
AcDbHatch
 10
0.0
 20
0.0
 30
0.0
210
0.0
220
0.0
230
1.0
  2
NET
 70
     0
 71
     0
 91
        2
 92
        7
 72
     1
 73
     1
 93
        7
 10
134.1573279682693
 20
685.8921314066021
 42
0.0
 10
134.2232849662947
 20
686.0335766453238
 42
0.0
 10
120.9303298154859
 20
686.0335766453238
 42
0.0
 10
120.9303298154859
 20
672.0335766453238
 42
0.0
 10
132.3573172047208
 20
672.0335766453238
 42
-0.0120251093634687
 10
132.330329815486
 20
673.2356123473321
 42
0.0
 10
132.330329815486
 20
677.651075302663
 42
-0.1095178116831768
 97
        0
 92
        7
 72
     1
 73
     1
 93
        7
 10
206.7303298154859
 20
686.0335766453236
 42
0.0
 10
193.4373746646772
 20
686.0335766453236
 42
0.0
 10
193.5033316626976
 20
685.892131406613
 42
-0.1095178116833281
 10
195.330329815486
 20
677.6510753026634
 42
0.0
 10
195.330329815486
 20
673.2356123473323
 42
-0.012025109363471
 10
195.3033424262512
 20
672.0335766453236
 42
0.0
 10
206.7303298154859
 20
672.0335766453236
 42
0.0
 97
        0
 75
     0
 76
     1
 52
45.0
 41
20.0
 77
     0
 78
     2
 53
45.0
 43
-61.16967018451396
 44
214.158582586138
 45
-1.767766952966368
 46
1.767766952966368
 79
     0
 53
135.0
 43
-61.16967018451396
 44
214.158582586138
 45
-1.767766952966368
 46
-1.767766952966368
 79
     0
 47
0.4171687699471339
 98
        2
 10
127.0461631719126
 20
678.5336104031316
 10
202.6034724607407
 20
679.7851172972184
  0
DIMENSION
  5
4D7
330
1E
100
AcDbEntity
  8
BEM
100
AcDbDimension
  2
*D4
 10
191.7823077862335
 20
696.2411775968769
 30
0.0
 11
163.830329815486
 21
702.7411775968769
 31
0.0
 70
    32
  1
%%c56
 71
     5
 42
55.90395594149504
  3
Standard
100
AcDbAlignedDimension
 13
135.8783518447385
 23
686.0335766453238
 33
0.0
 14
191.7823077862335
 24
686.0335766453236
 34
0.0
100
AcDbRotatedDimension
1001
ACAD
1000
DSTYLE
1002
{
1070
    40
1040
2.0
1070
    41
1040
3.5
1070
    42
1040
1.0
1070
    43
1040
7.0
1070
    44
1040
1.0
1070
    73
1070
     0
1070
    74
1070
     0
1070
    77
1070
     1
1070
    78
1070
     8
1070
    79
1070
     2
1070
   140
1040
3.5
1070
   141
1040
1.5
1070
   146
1040
0.5
1070
   147
1040
1.5
1070
   172
1070
     1
1070
   178
1070
     1
1070
   179
1070
     2
1070
   271
1070
     2
1070
   272
1070
     2
1070
   284
1070
     8
1070
   285
1070
     8
1070
   286
1070
     8
1002
}
  0
DIMENSION
  5
4D9
330
1E
100
AcDbEntity
  8
BEM
100
AcDbDimension
  2
*D5
 10
208.3303298154858
 20
710.4696660271303
 30
0.0
 11
163.8303298154859
 21
716.9696660271304
 31
0.0
 70
    32
  1
%%c<>
 71
     5
 42
88.99999999999977
  3
Standard
100
AcDbAlignedDimension
 13
119.330329815486
 23
686.0335766453238
 33
0.0
 14
208.3303298154858
 24
686.0335766453236
 34
0.0
100
AcDbRotatedDimension
1001
ACAD
1000
DSTYLE
1002
{
1070
    40
1040
2.0
1070
    41
1040
3.5
1070
    42
1040
1.0
1070
    43
1040
7.0
1070
    44
1040
1.0
1070
    73
1070
     0
1070
    74
1070
     0
1070
    77
1070
     1
1070
    78
1070
     8
1070
    79
1070
     2
1070
   140
1040
3.5
1070
   141
1040
1.5
1070
   146
1040
0.5
1070
   147
1040
1.5
1070
   172
1070
     1
1070
   178
1070
     1
1070
   179
1070
     2
1070
   271
1070
     2
1070
   272
1070
     2
1070
   284
1070
     8
1070
   285
1070
     8
1070
   286
1070
     8
1002
}
  0
DIMENSION
  5
4DB
330
1E
100
AcDbEntity
  8
BEM
100
AcDbDimension
  2
*D6
 10
190.330329815486
 20
128.002710846913
 30
0.0
 11
163.8303298154901
 21
134.502710846913
 31
0.0
 70
    32
  1
%%c<>
 71
     5
 42
52.99999999999193
  3
Standard
100
AcDbAlignedDimension
 13
137.3303298154941
 23
152.9680852308679
 33
0.0
 14
190.330329815486
 24
152.9680852309553
 34
0.0
100
AcDbRotatedDimension
1001
ACAD
1000
DSTYLE
1002
{
1070
    40
1040
2.0
1070
    41
1040
3.5
1070
    42
1040
1.0
1070
    43
1040
7.0
1070
    44
1040
1.0
1070
    73
1070
     0
1070
    74
1070
     0
1070
    77
1070
     1
1070
    78
1070
     8
1070
    79
1070
     2
1070
   140
1040
3.5
1070
   141
1040
1.5
1070
   146
1040
0.5
1070
   147
1040
1.5
1070
   172
1070
     1
1070
   178
1070
     1
1070
   179
1070
     2
1070
   271
1070
     2
1070
   272
1070
     2
1070
   284
1070
     8
1070
   285
1070
     8
1070
   286
1070
     8
1002
}
  0
LINE
  5
4DC
330
1E
100
AcDbEntity
  8
STEMPEL
100
AcDbLine
 10
191.7823077862335
 20
686.0335766453238
 30
0.0
 11
192.1438699821453
 21
685.2582040139962
 31
0.0
  0
LINE
  5
4DD
330
1E
100
AcDbEntity
  8
STEMPEL
100
AcDbLine
 10
193.4373746646772
 20
686.0335766453238
 30
0.0
 11
193.5033316627007
 21
685.8921314066066
 31
0.0
  0
ARC
  5
4DE
330
1E
100
AcDbEntity
  8
STEMPEL
100
AcDbCircle
 10
175.830329815486
 20
677.651075302663
 30
0.0
 40
19.5
100
AcDbArc
 50
0.0
 51
25.45942856880091
  0
ARC
  5
4DF
330
1E
100
AcDbEntity
  8
STEMPEL
100
AcDbCircle
 10
175.830329815486
 20
677.651075302663
 30
0.0
 40
18.0
100
AcDbArc
 50
0.0
 51
24.99999999999382
  0
LINE
  5
4E0
330
1E
100
AcDbEntity
  8
STEMPEL
100
AcDbLine
 10
193.830329815486
 20
673.1955766453238
 30
0.0
 11
193.8303618726143
 21
673.1955766453238
 31
0.0
  0
ARC
  5
4E1
102
{ACAD_REACTORS
330
A61
102
}
330
1E
100
AcDbEntity
  8
STEMPEL
100
AcDbCircle
 10
170.330329815486
 20
673.1955766453238
 30
0.0
 40
25.00003205712822
100
AcDbArc
 50
340.5369005553154
 51
0.0917549917637361
  0
ARC
  5
4E2
330
1E
100
AcDbEntity
  8
STEMPEL
100
AcDbCircle
 10
170.330329815486
 20
673.1955766453238
 30
0.0
 40
23.5000320571282
100
AcDbArc
 50
340.5369005553154
 51
0.0946380447970313
  0
LINE
  5
4E3
102
{ACAD_REACTORS
330
A61
102
}
330
1E
100
AcDbEntity
  8
STEMPEL
100
AcDbLine
 10
193.330329815486
 20
661.5335766453238
 30
0.0
 11
193.330329815486
 21
653.4419035585196
 31
0.0
  0
LINE
  5
4E4
330
1E
100
AcDbEntity
  8
STEMPEL
100
AcDbLine
 10
191.830329815486
 20
661.5335766453238
 30
0.0
 11
191.830329815486
 21
653.4419035585196
 31
0.0
  0
ARC
  5
4E5
102
{ACAD_REACTORS
330
A61
102
}
330
1E
100
AcDbEntity
  8
STEMPEL
100
AcDbCircle
 10
203.330329815486
 20
661.533576645324
 30
0.0
 40
10.0
100
AcDbArc
 50
160.5369005553154
 51
180.0
  0
ARC
  5
4E6
330
1E
100
AcDbEntity
  8
STEMPEL
100
AcDbCircle
 10
203.330329815486
 20
661.533576645324
 30
0.0
 40
11.5
100
AcDbArc
 50
160.5369005553154
 51
180.0
  0
LINE
  5
4E7
330
1E
100
AcDbEntity
  8
STEMPEL
100
AcDbLine
 10
193.830329815486
 20
677.651075302663
 30
0.0
 11
193.830329815486
 21
673.2343926993888
 31
0.0
  0
LINE
  5
4E8
330
1E
100
AcDbEntity
  8
STEMPEL
100
AcDbLine
 10
195.330329815486
 20
677.651075302663
 30
0.0
 11
195.330329815486
 21
673.2356123473323
 31
0.0
  0
LINE
  5
4E9
102
{ACAD_REACTORS
330
A61
102
}
330
1E
100
AcDbEntity
  8
STEMPEL
100
AcDbLine
 10
206.7303298154859
 20
672.0335766453236
 30
0.0
 11
195.3033424262512
 21
672.0335766453236
 31
0.0
  0
ARC
  5
4EA
102
{ACAD_REACTORS
330
A61
102
}
330
1E
100
AcDbEntity
  8
STEMPEL
100
AcDbCircle
 10
198.330329815486
 20
642.9062498056671
 30
0.0
 40
8.0
100
AcDbArc
 50
148.2116693829511
 51
180.0
  0
LINE
  5
4EB
330
1E
100
AcDbEntity
  8
STEMPEL
100
AcDbLine
 10
190.330329815486
 20
648.0335766453237
 30
0.0
 11
190.330329815486
 21
648.0297251886468
 31
0.0
  0
ARC
  5
4EC
330
1E
100
AcDbEntity
  8
STEMPEL
100
AcDbCircle
 10
198.330329815486
 20
642.9062498056668
 30
0.0
 40
9.5
100
AcDbArc
 50
148.2116693829511
 51
180.0
  0
ARC
  5
4ED
330
1E
100
AcDbEntity
  8
STEMPEL
100
AcDbCircle
 10
181.330329815486
 20
653.4419035585196
 30
0.0
 40
10.5
100
AcDbArc
 50
328.2116693829511
 51
0.0
  0
ARC
  5
4EE
102
{ACAD_REACTORS
330
A61
102
}
330
1E
100
AcDbEntity
  8
STEMPEL
100
AcDbCircle
 10
181.330329815486
 20
653.4419035585196
 30
0.0
 40
12.0
100
AcDbArc
 50
328.2116693829511
 51
0.0
  0
LINE
  5
4EF
330
1E
100
AcDbEntity
  8
STEMPEL
100
AcDbLine
 10
206.7303298154864
 20
178.0335766453238
 30
0.0
 11
206.1715975036184
 21
194.0335766453238
 31
0.0
  0
LINE
  5
4F1
330
1E
100
AcDbEntity
  8
STEMPEL
100
AcDbLine
 10
194.3303298154862
 20
184.0335766453238
 30
0.0
 11
190.3303298154865
 21
184.0335766453238
 31
0.0
  0
LINE
  5
4F3
102
{ACAD_REACTORS
330
A61
102
}
330
1E
100
AcDbEntity
  8
STEMPEL
100
AcDbLine
 10
206.1715975036184
 20
194.0335766453238
 30
0.0
 11
190.3303298154865
 21
194.0335766453238
 31
0.0
  0
LINE
  5
4F4
330
1E
100
AcDbEntity
  8
STEMPEL
100
AcDbLine
 10
208.3303298154858
 20
686.0335766453236
 30
0.0
 11
208.3303298154862
 21
176.0335766453234
 31
0.0
  0
LINE
  5
4F5
102
{ACAD_REACTORS
330
A61
102
}
330
1E
100
AcDbEntity
  8
STEMPEL
100
AcDbLine
 10
206.7303298154859
 20
686.0335766453236
 30
0.0
 11
206.7303298154861
 21
178.0335766453236
 31
0.0
  0
LINE
  5
4F6
330
1E
100
AcDbEntity
  8
STEMPEL
100
AcDbLine
 10
190.330329815486
 20
152.9680852309553
 30
0.0
 11
189.8986162541719
 21
148.0335766453238
 31
0.0
  0
LINE
  5
4F7
330
1E
100
AcDbEntity
  8
STEMPEL
100
AcDbLine
 10
188.830329815486
 20
153.0335766453175
 30
0.0
 11
188.392886497857
 21
148.0335766453238
 31
0.0
  0
LINE
  5
4F8
330
1E
100
AcDbEntity
  8
MITTEL
100
AcDbLine
 10
163.830329815486
 20
691.0335766453238
 30
0.0
 11
163.8303298154862
 21
143.0335766453237
 31
0.0
  0
LINE
  5
4F9
102
{ACAD_REACTORS
330
A61
102
}
330
1E
100
AcDbEntity
  8
STEMPEL
100
AcDbLine
 10
190.330329815486
 20
642.9062498056671
 30
0.0
 11
190.330329815486
 21
152.9680852309553
 31
0.0
  0
LINE
  5
4FA
330
1E
100
AcDbEntity
  8
STEMPEL
100
AcDbLine
 10
188.830329815486
 20
642.9062498056668
 30
0.0
 11
188.830329815486
 21
153.0335766453175
 31
0.0
  0
LINE
  5
4FB
330
1E
100
AcDbEntity
  8
STEMPEL
100
AcDbLine
 10
135.8783518447385
 20
686.0335766453238
 30
0.0
 11
135.5167896488267
 21
685.2582040139959
 31
0.0
  0
LINE
  5
4FC
330
1E
100
AcDbEntity
  8
STEMPEL
100
AcDbLine
 10
134.2232849662948
 20
686.0335766453238
 30
0.0
 11
134.1573279682714
 21
685.8921314066065
 31
0.0
  0
ARC
  5
4FD
330
1E
100
AcDbEntity
  8
STEMPEL
100
AcDbCircle
 10
151.830329815486
 20
677.651075302663
 30
0.0
 40
18.0
100
AcDbArc
 50
155.0000000000013
 51
180.0
  0
ARC
  5
4FE
330
1E
100
AcDbEntity
  8
STEMPEL
100
AcDbCircle
 10
157.330329815486
 20
673.1955766453238
 30
0.0
 40
23.5000320571282
100
AcDbArc
 50
179.905361955203
 51
199.4630994446845
  0
LINE
  5
4FF
330
1E
100
AcDbEntity
  8
STEMPEL
100
AcDbLine
 10
133.830329815486
 20
673.1955766453238
 30
0.0
 11
133.8302977583578
 21
673.1955766453238
 31
0.0
  0
LINE
  5
500
102
{ACAD_REACTORS
330
A61
102
}
330
1E
100
AcDbEntity
  8
STEMPEL
100
AcDbLine
 10
134.330329815486
 20
661.5335766453238
 30
0.0
 11
134.330329815486
 21
653.4419035585196
 31
0.0
  0
LINE
  5
501
330
1E
100
AcDbEntity
  8
STEMPEL
100
AcDbLine
 10
135.830329815486
 20
661.5335766453238
 30
0.0
 11
135.830329815486
 21
653.4419035585196
 31
0.0
  0
ARC
  5
502
330
1E
100
AcDbEntity
  8
STEMPEL
100
AcDbCircle
 10
124.330329815486
 20
661.5335766453238
 30
0.0
 40
11.5
100
AcDbArc
 50
0.0
 51
19.46309944468458
  0
ARC
  5
503
102
{ACAD_REACTORS
330
A61
102
}
330
1E
100
AcDbEntity
  8
STEMPEL
100
AcDbCircle
 10
124.330329815486
 20
661.5335766453238
 30
0.0
 40
10.0
100
AcDbArc
 50
0.0
 51
19.46309944468458
  0
LINE
  5
504
330
1E
100
AcDbEntity
  8
STEMPEL
100
AcDbLine
 10
133.830329815486
 20
677.651075302663
 30
0.0
 11
133.830329815486
 21
673.2343926993888
 31
0.0
  0
LINE
  5
505
102
{ACAD_REACTORS
330
A61
102
}
330
1E
100
AcDbEntity
  8
STEMPEL
100
AcDbLine
 10
132.3573172047208
 20
672.0335766453238
 30
0.0
 11
120.9303298154861
 21
672.0335766453238
 31
0.0
  0
LINE
  5
506
330
1E
100
AcDbEntity
  8
STEMPEL
100
AcDbLine
 10
132.330329815486
 20
677.651075302663
 30
0.0
 11
132.330329815486
 21
673.2356123473321
 31
0.0
  0
ARC
  5
507
330
1E
100
AcDbEntity
  8
STEMPEL
100
AcDbCircle
 10
151.830329815486
 20
677.651075302663
 30
0.0
 40
19.5
100
AcDbArc
 50
154.5405714311893
 51
180.0
  0
ARC
  5
508
102
{ACAD_REACTORS
330
A61
102
}
330
1E
100
AcDbEntity
  8
STEMPEL
100
AcDbCircle
 10
157.330329815486
 20
673.1955766453238
 30
0.0
 40
25.00003205712822
100
AcDbArc
 50
179.9082450082428
 51
199.4630994446845
  0
ARC
  5
509
330
1E
100
AcDbEntity
  8
STEMPEL
100
AcDbCircle
 10
129.330329815486
 20
642.9062498056668
 30
0.0
 40
9.5
100
AcDbArc
 50
0.0
 51
31.78833061704886
  0
LINE
  5
50A
330
1E
100
AcDbEntity
  8
STEMPEL
100
AcDbLine
 10
137.330329815486
 20
648.0335766453237
 30
0.0
 11
137.330329815486
 21
648.0297251886468
 31
0.0
  0
ARC
  5
50B
102
{ACAD_REACTORS
330
A61
102
}
330
1E
100
AcDbEntity
  8
STEMPEL
100
AcDbCircle
 10
129.330329815486
 20
642.9062498056671
 30
0.0
 40
8.0
100
AcDbArc
 50
0.0
 51
31.78833061704886
  0
ARC
  5
50C
102
{ACAD_REACTORS
330
A61
102
}
330
1E
100
AcDbEntity
  8
STEMPEL
100
AcDbCircle
 10
146.330329815486
 20
653.4419035585196
 30
0.0
 40
12.0
100
AcDbArc
 50
180.0
 51
211.7883306170488
  0
ARC
  5
50D
330
1E
100
AcDbEntity
  8
STEMPEL
100
AcDbCircle
 10
146.330329815486
 20
653.4419035585196
 30
0.0
 40
10.5
100
AcDbArc
 50
180.0
 51
211.7883306170488
  0
LINE
  5
50E
330
1E
100
AcDbEntity
  8
STEMPEL
100
AcDbLine
 10
133.3303298154862
 20
184.0335766453238
 30
0.0
 11
137.3303298154862
 21
184.0335766453238
 31
0.0
  0
LINE
  5
50F
330
1E
100
AcDbEntity
  8
STEMPEL
100
AcDbLine
 10
120.9303298154864
 20
178.0335766453238
 30
0.0
 11
121.4890621273543
 21
194.0335766453238
 31
0.0
  0
LINE
  5
512
102
{ACAD_REACTORS
330
A61
102
}
330
1E
100
AcDbEntity
  8
STEMPEL
100
AcDbLine
 10
121.4890621273543
 20
194.0335766453238
 30
0.0
 11
137.3303298154862
 21
194.0335766453238
 31
0.0
  0
LINE
  5
513
102
{ACAD_REACTORS
330
974
330
A61
102
}
330
1E
100
AcDbEntity
  8
STEMPEL
100
AcDbLine
 10
120.9303298154859
 20
686.0335766453238
 30
0.0
 11
120.930329815486
 21
555.5335766453236
 31
0.0
  0
LINE
  5
514
102
{ACAD_REACTORS
330
9C3
102
}
330
1E
100
AcDbEntity
  8
STEMPEL
100
AcDbLine
 10
138.8303298154859
 20
153.0335766453238
 30
0.0
 11
139.2677731331155
 21
148.0335766453237
 31
0.0
  0
LINE
  5
515
102
{ACAD_REACTORS
330
9C3
102
}
330
1E
100
AcDbEntity
  8
STEMPEL
100
AcDbLine
 10
137.3303298154941
 20
152.9680852308679
 30
0.0
 11
137.7620433768006
 21
148.0335766453238
 31
0.0
  0
LINE
  5
516
330
1E
100
AcDbEntity
  8
HILF
100
AcDbLine
 10
137.1841763785685
 20
663.4774461195251
 30
0.0
 11
190.4764832524035
 21
663.4774461195251
 31
0.0
  0
LINE
  5
517
330
1E
100
AcDbEntity
  8
HILF
100
AcDbLine
 10
137.8020679761662
 20
650.5663601316178
 30
0.0
 11
189.8585916548059
 21
650.5663601316178
 31
0.0
  0
LINE
  5
518
330
1E
100
AcDbEntity
  8
HILF
100
AcDbLine
 10
140.0182318547076
 20
645.5079319538165
 30
0.0
 11
187.6424277762644
 21
645.5079319538165
 31
0.0
  0
LINE
  5
519
102
{ACAD_REACTORS
330
974
102
}
330
1E
100
AcDbEntity
  8
STEMPEL
100
AcDbLine
 10
208.3303298154858
 20
686.0335766453236
 30
0.0
 11
119.330329815486
 21
686.0335766453238
 31
0.0
  0
LINE
  5
51A
102
{ACAD_REACTORS
330
9C3
102
}
330
1E
100
AcDbEntity
  8
STEMPEL
100
AcDbLine
 10
189.8986162541719
 20
148.0335766453238
 30
0.0
 11
137.7620433768006
 21
148.0335766453238
 31
0.0
  0
LINE
  5
51B
330
1E
100
AcDbEntity
  8
HILF
100
AcDbLine
 10
187.3246000591716
 20
153.0335766453238
 30
0.0
 11
140.3360595718009
 21
153.0335766453237
 31
0.0
  0
HATCH
  5
51C
330
1E
100
AcDbEntity
  8
SCHRAFF
100
AcDbHatch
 10
0.0
 20
0.0
 30
0.0
210
0.0
220
0.0
230
1.0
  2
NET
 70
     0
 71
     0
 91
        2
 92
        7
 72
     1
 73
     1
 93
        7
 10
134.1573279682693
 20
685.8921314066021
 42
0.0
 10
134.2232849662947
 20
686.0335766453238
 42
0.0
 10
120.9303298154859
 20
686.0335766453238
 42
0.0
 10
120.9303298154859
 20
672.0335766453238
 42
0.0
 10
132.3573172047208
 20
672.0335766453238
 42
-0.0120251093634687
 10
132.330329815486
 20
673.2356123473321
 42
0.0
 10
132.330329815486
 20
677.651075302663
 42
-0.1095178116831768
 97
        0
 92
        7
 72
     1
 73
     1
 93
        7
 10
206.7303298154859
 20
686.0335766453236
 42
0.0
 10
193.4373746646772
 20
686.0335766453236
 42
0.0
 10
193.5033316626976
 20
685.892131406613
 42
-0.1095178116833281
 10
195.330329815486
 20
677.6510753026634
 42
0.0
 10
195.330329815486
 20
673.2356123473323
 42
-0.012025109363471
 10
195.3033424262512
 20
672.0335766453236
 42
0.0
 10
206.7303298154859
 20
672.0335766453236
 42
0.0
 97
        0
 75
     0
 76
     1
 52
45.0
 41
20.0
 77
     0
 78
     2
 53
45.0
 43
-61.16967018451396
 44
214.158582586138
 45
-1.767766952966368
 46
1.767766952966368
 79
     0
 53
135.0
 43
-61.16967018451396
 44
214.158582586138
 45
-1.767766952966368
 46
-1.767766952966368
 79
     0
 47
0.4171687699471339
 98
        2
 10
127.0461631719126
 20
678.5336104031316
 10
202.6034724607407
 20
679.7851172972184
  0
TEXT
  5
51E
330
1E
100
AcDbEntity
  8
TEXT
100
AcDbText
 10
506.678711924761
 20
612.2898419893275
 30
0.0
 40
4.0
  1
DIN EN1123-2
 50
90.0
 41
0.8
  7
GREEKS
 72
     1
 11
506.678711924761
 21
629.2803181798038
 31
0.0
100
AcDbText
  0
INSERT
  5
51F
330
1E
100
AcDbEntity
  8
HILF
100
AcDbBlockReference
  2
LORO
 10
557.0194069970104
 20
573.0624985962354
 30
0.0
 41
2.0
 42
2.0
 43
2.0
 50
90.0
  0
TEXT
  5
520
330
1E
100
AcDbEntity
  8
TEXT
100
AcDbText
 10
479.8856414948956
 20
470.0441139350127
 30
0.0
 40
5.0
  1
Erstellt mit AUTOCAD 2004
 50
90.0
 41
0.8
  7
GREEKS
100
AcDbText
  0
TEXT
  5
521
330
1E
100
AcDbEntity
  8
TEXT
 62
     1
100
AcDbText
 10
506.5292291158502
 20
582.703491203422
 30
0.0
 40
7.0
  1
1:2
 50
90.0
 41
0.8
  7
GREEKS
100
AcDbText
  0
TEXT
  5
522
330
1E
100
AcDbEntity
  8
TEXT
100
AcDbText
 10
550.6887237520849
 20
654.1676050109347
 30
0.0
 40
4.0
  1
58054050W.DWG
 50
90.0
 41
0.8
  7
GREEKS
100
AcDbText
  0
TEXT
  5
523
330
1E
100
AcDbEntity
  8
TEXT
100
AcDbText
 10
541.4090266215394
 20
654.3410940884991
 30
0.0
 40
5.0
  1
EDV-Art.Nr. 58054.050X
 50
90.0
 41
0.8
  7
GREEKS
100
AcDbText
  0
TEXT
  5
524
330
1E
100
AcDbEntity
  8
TEXT
100
AcDbText
 10
531.6544091479096
 20
654.3410940884991
 30
0.0
 40
5.0
  1
Reinigungsöffnung
 50
90.0
 41
0.8
  7
GREEKS
100
AcDbText
  0
TEXT
  5
525
330
1E
100
AcDbEntity
  8
TEXT
100
AcDbText
 10
521.8997861689246
 20
654.3410940884991
 30
0.0
 40
5.0
  1
Reinigungsrohr mit runder
 50
90.0
 41
0.8
  7
GREEKS
100
AcDbText
  0
TEXT
  5
526
330
1E
100
AcDbEntity
  8
TEXT
100
AcDbText
 10
531.0570234483452
 20
624.0231753226609
 30
0.0
 40
4.0
  1
Koeh
 50
90.0
 41
0.8
  7
GREEKS
 72
     1
 11
531.0570234483452
 21
629.2803181798038
 31
0.0
100
AcDbText
  0
TEXT
  5
527
330
1E
100
AcDbEntity
  8
TEXT
100
AcDbText
 10
530.8491412387978
 20
590.1565237511869
 30
0.0
 40
4.0
  1
07.04.
 50
90.0
 41
0.8
  7
GREEKS
 72
     1
 11
530.8491412387978
 21
597.1660475607107
 31
0.0
100
AcDbText
  0
TEXT
  5
528
330
1E
100
AcDbEntity
  8
TEXT
100
AcDbText
 10
491.16010388621
 20
618.5090226415829
 30
0.0
 40
5.0
  1
Zul.Abw.
 50
90.0
 41
0.8
  7
GREEKS
100
AcDbText
  0
TEXT
  5
529
330
1E
100
AcDbEntity
  8
TEXT
 62
     1
100
AcDbText
 10
506.6265692434746
 20
766.1294755517469
 30
0.0
 40
7.0
  1
58054050W
 50
90.0
 41
0.8
  7
GREEKS
 72
     1
 11
506.6265692434746
 21
790.1294755517469
 31
0.0
100
AcDbText
  0
TEXT
  5
52A
330
1E
100
AcDbEntity
  8
TEXT
 62
     1
100
AcDbText
 10
506.6265692434746
 20
655.0390572473189
 30
0.0
 40
7.0
  1
Verbundrohr DN50
 50
90.0
 41
0.8
  7
GREEKS
100
AcDbText
  0
TEXT
  5
52B
330
1E
100
AcDbEntity
  8
TEXT
100
AcDbText
 10
521.0331740347627
 20
568.8693027807324
 30
0.0
 40
4.0
  1
2011
 50
90.0
 41
0.8
  7
GREEKS
100
AcDbText
  0
TEXT
  5
52C
330
1E
100
AcDbEntity
  8
TEXT
100
AcDbText
 10
541.925838221214
 20
757.2400861497007
 30
0.0
 40
5.0
  1
ersetzt durch:
 50
90.0
 41
0.8
  7
GREEKS
100
AcDbText
  0
TEXT
  5
52D
330
1E
100
AcDbEntity
  8
TEXT
100
AcDbText
 10
550.470536103502
 20
567.6006777387303
 30
0.0
 40
4.0
  1
Norm.
 50
90.0
 41
0.8
  7
GREEKS
100
AcDbText
  0
TEXT
  5
52E
330
1E
100
AcDbEntity
  8
TEXT
100
AcDbText
 10
540.3107370857163
 20
567.5515086571672
 30
0.0
 40
4.0
  1
Gepr.
 50
90.0
 41
0.8
  7
GREEKS
100
AcDbText
  0
TEXT
  5
52F
330
1E
100
AcDbEntity
  8
TEXT
100
AcDbText
 10
530.3700963038204
 20
567.5836127167615
 30
0.0
 40
4.0
  1
Gez.
 50
90.0
 41
0.8
  7
GREEKS
100
AcDbText
  0
TEXT
  5
530
330
1E
100
AcDbEntity
  8
TEXT
100
AcDbText
 10
520.6903890808478
 20
622.4626584226296
 30
0.0
 40
4.0
  1
Name
 50
90.0
 41
0.8
  7
GREEKS
100
AcDbText
  0
TEXT
  5
531
330
1E
100
AcDbEntity
  8
TEXT
100
AcDbText
 10
520.6811949877008
 20
592.3311673153651
 30
0.0
 40
4.0
  1
Tag
 50
90.0
 41
0.8
  7
GREEKS
100
AcDbText
  0
TEXT
  5
532
330
1E
100
AcDbEntity
  8
TEXT
100
AcDbText
 10
575.4067578303359
 20
548.9795678138292
 30
0.0
 40
4.0
  1
Name
 50
90.0
 41
0.8
  7
GREEKS
 72
     1
 11
575.4067578303359
 21
555.3033773376387
 31
0.0
100
AcDbText
  0
TEXT
  5
533
330
1E
100
AcDbEntity
  8
TEXT
100
AcDbText
 10
575.3284373066019
 20
529.8990113186978
 30
0.0
 40
4.0
  1
Tag
 50
90.0
 41
0.8
  7
GREEKS
 72
     1
 11
575.3284373066019
 21
533.6323446520311
 31
0.0
100
AcDbText
  0
TEXT
  5
534
330
1E
100
AcDbEntity
  8
TEXT
100
AcDbText
 10
580.3453415397281
 20
478.2664110704577
 30
0.0
 40
4.0
  1
Index
 50
180.0
 41
0.8
  7
GREEKS
100
AcDbText
  0
TEXT
  5
535
330
1E
100
AcDbEntity
  8
TEXT
100
AcDbText
 10
520.8188176290003
 20
756.7238616296995
 30
0.0
 40
5.0
  1
Ersatz für:
 50
90.0
 41
0.8
  7
GREEKS
100
AcDbText
  0
TEXT
  5
536
330
1E
100
AcDbEntity
  8
TEXT
100
AcDbText
 10
563.1543942980694
 20
654.7422383911359
 30
0.0
 40
5.0
  1
Bauvorhaben
 50
90.0
 41
0.8
  7
GREEKS
100
AcDbText
  0
TEXT
  5
537
330
1E
100
AcDbEntity
  8
TEXT
100
AcDbText
 10
491.6867965462863
 20
756.1787549576343
 30
0.0
 40
5.0
  1
Zeichnungs Nr.
 50
90.0
 41
0.8
  7
GREEKS
100
AcDbText
  0
TEXT
  5
538
330
1E
100
AcDbEntity
  8
TEXT
100
AcDbText
 10
491.4510671988221
 20
654.8779403809009
 30
0.0
 40
5.0
  1
Benennung
 50
90.0
 41
0.8
  7
GREEKS
100
AcDbText
  0
TEXT
  5
539
330
1E
100
AcDbEntity
  8
TEXT
100
AcDbText
 10
491.5379104912911
 20
573.5163572150376
 30
0.0
 40
5.0
  1
Maßstab
 50
90.0
 41
0.8
  7
GREEKS
100
AcDbText
  0
TEXT
  5
53A
330
1E
100
AcDbEntity
  8
TEXT
100
AcDbText
 10
575.3261810501587
 20
492.3998239263297
 30
0.0
 40
4.0
  1
Änderung
 50
90.0
 41
0.8
  7
GREEKS
 72
     1
 11
575.3261810501587
 21
503.1426810691868
 31
0.0
100
AcDbText
  0
LINE
  5
53B
330
1E
100
AcDbEntity
  8
HILF
100
AcDbLine
 10
579.1060174197169
 20
654.7736801096948
 30
0.0
 11
579.1060174197169
 21
824.858883932673
 31
0.0
  0
LINE
  5
53C
330
1E
100
AcDbEntity
  8
HILF
100
AcDbLine
 10
510.2201636304418
 20
756.7238616296995
 30
0.0
 11
510.2201636304418
 21
824.858883932673
 31
0.0
  0
LINE
  5
53D
330
1E
100
AcDbEntity
  8
VOLL
100
AcDbLine
 10
534.0
 20
752.0000000000002
 30
0.0
 11
534.0
 21
830.0000000000002
 31
0.0
  0
LINE
  5
53E
330
1E
100
AcDbEntity
  8
HILF
100
AcDbLine
 10
544.0
 20
654.7736801096948
 30
0.0
 11
544.0
 21
746.6297842514811
 31
0.0
  0
LINE
  5
53F
330
1E
100
AcDbEntity
  8
HILF
100
AcDbLine
 10
534.0
 20
654.7736801096948
 30
0.0
 11
534.0
 21
746.6297842514811
 31
0.0
  0
LINE
  5
540
330
1E
100
AcDbEntity
  8
HILF
100
AcDbLine
 10
524.0
 20
654.7736801096948
 30
0.0
 11
524.0
 21
746.6297842514811
 31
0.0
  0
LINE
  5
541
330
1E
100
AcDbEntity
  8
HILF
100
AcDbLine
 10
509.9624175243587
 20
654.7736801096948
 30
0.0
 11
509.9624175243587
 21
746.6297842514811
 31
0.0
  0
LINE
  5
542
330
1E
100
AcDbEntity
  8
HILF
100
AcDbLine
 10
544.0
 20
566.0000000000002
 30
0.0
 11
544.0
 21
650.0
 31
0.0
  0
LINE
  5
543
330
1E
100
AcDbEntity
  8
HILF
100
AcDbLine
 10
534.0
 20
566.0000000000002
 30
0.0
 11
534.0
 21
650.0
 31
0.0
  0
LINE
  5
544
330
1E
100
AcDbEntity
  8
HILF
100
AcDbLine
 10
524.0
 20
566.0000000000002
 30
0.0
 11
524.0
 21
650.0
 31
0.0
  0
LINE
  5
545
330
1E
100
AcDbEntity
  8
HILF
100
AcDbLine
 10
554.0
 20
470.0000000000001
 30
0.0
 11
554.0
 21
566.0000000000002
 31
0.0
  0
LINE
  5
546
330
1E
100
AcDbEntity
  8
HILF
100
AcDbLine
 10
544.0
 20
470.0000000000001
 30
0.0
 11
544.0
 21
566.0000000000002
 31
0.0
  0
LINE
  5
547
330
1E
100
AcDbEntity
  8
HILF
100
AcDbLine
 10
534.0
 20
470.0000000000001
 30
0.0
 11
534.0
 21
566.0000000000002
 31
0.0
  0
LINE
  5
548
330
1E
100
AcDbEntity
  8
HILF
100
AcDbLine
 10
524.0
 20
470.0000000000001
 30
0.0
 11
524.0
 21
566.0000000000002
 31
0.0
  0
LINE
  5
549
330
1E
100
AcDbEntity
  8
HILF
100
AcDbLine
 10
514.0
 20
470.0000000000001
 30
0.0
 11
514.0
 21
566.0000000000002
 31
0.0
  0
LINE
  5
54A
330
1E
100
AcDbEntity
  8
HILF
100
AcDbLine
 10
504.0
 20
470.0000000000001
 30
0.0
 11
504.0
 21
566.0000000000002
 31
0.0
  0
LINE
  5
54B
330
1E
100
AcDbEntity
  8
HILF
100
AcDbLine
 10
494.0
 20
470.0000000000001
 30
0.0
 11
494.0
 21
566.0000000000002
 31
0.0
  0
LINE
  5
54C
330
1E
100
AcDbEntity
  8
VOLL
100
AcDbLine
 10
484.0000000000002
 20
610.0000000000002
 30
0.0
 11
554.0
 21
610.0
 31
0.0
  0
LINE
  5
54D
330
1E
100
AcDbEntity
  8
VOLL
100
AcDbLine
 10
514.0
 20
584.0000000000002
 30
0.0
 11
554.0
 21
584.0000000000002
 31
0.0
  0
LINE
  5
54E
330
1E
100
AcDbEntity
  8
VOLL
100
AcDbLine
 10
484.0000000000001
 20
544.0000000000002
 30
0.0
 11
584.0000000000001
 21
544.0
 31
0.0
  0
LINE
  5
54F
330
1E
100
AcDbEntity
  8
VOLL
100
AcDbLine
 10
484.0000000000001
 20
524.0000000000001
 30
0.0
 11
584.0000000000001
 21
524.0
 31
0.0
  0
LINE
  5
550
330
1E
100
AcDbEntity
  8
VOLL
100
AcDbLine
 10
484.0
 20
484.0000000000001
 30
0.0
 11
584.0
 21
484.0
 31
0.0
  0
LINE
  5
551
330
1E
100
AcDbEntity
  8
STEMPEL
100
AcDbLine
 10
514.0
 20
830.0000000000002
 30
0.0
 11
514.0
 21
566.0000000000002
 31
0.0
  0
LINE
  5
552
330
1E
100
AcDbEntity
  8
STEMPEL
100
AcDbLine
 10
554.0
 20
830.0000000000002
 30
0.0
 11
554.0
 21
566.0
 31
0.0
  0
LINE
  5
553
330
1E
100
AcDbEntity
  8
STEMPEL
100
AcDbLine
 10
564.0
 20
566.0
 30
0.0
 11
564.0
 21
470.0000000000001
 31
0.0
  0
LINE
  5
554
330
1E
100
AcDbEntity
  8
STEMPEL
100
AcDbLine
 10
484.0000000000003
 20
752.0000000000002
 30
0.0
 11
554.0
 21
752.0000000000002
 31
0.0
  0
LINE
  5
555
330
1E
100
AcDbEntity
  8
STEMPEL
100
AcDbLine
 10
484.0
 20
650.0
 30
0.0
 11
584.0
 21
650.0
 31
0.0
  0
LINE
  5
556
330
1E
100
AcDbEntity
  8
STEMPEL
100
AcDbLine
 10
484.0000000000001
 20
566.0000000000002
 30
0.0
 11
584.0000000000001
 21
566.0
 31
0.0
  0
LINE
  5
557
330
1E
100
AcDbEntity
  8
STEMPEL
100
AcDbLine
 10
484.0
 20
470.0000000000001
 30
0.0
 11
584.0
 21
470.0000000000001
 31
0.0
  0
LINE
  5
558
330
1E
100
AcDbEntity
  8
STEMPEL
100
AcDbLine
 10
484.0
 20
830.0000000000002
 30
0.0
 11
484.0
 21
470.0000000000001
 31
0.0
  0
TEXT
  5
559
330
1E
100
AcDbEntity
  8
TEXT
 62
     1
100
AcDbText
 10
527.9174041819253
 20
305.9498287315037
 30
0.0
 40
7.0
  1
und innenbeschichtet
 50
90.0
 41
0.8
  7
GREEKS
100
AcDbText
  0
TEXT
  5
55A
330
1E
100
AcDbEntity
  8
TEXT
 62
     1
100
AcDbText
 10
540.5122395673074
 20
250.8008892107925
 30
0.0
 40
7.0
  1
Dämmung: 2 K-PU-Schaum
 50
90.0
 41
0.8
  7
GREEKS
100
AcDbText
  0
TEXT
  5
55B
330
1E
100
AcDbEntity
  8
TEXT
 62
     1
100
AcDbText
 10
516.6483503426995
 20
258.2952998554897
 30
0.0
 40
7.0
  1
Innenrohr: E195 EN10305 feuerverzinkt
 50
90.0
 41
0.8
  7
GREEKS
100
AcDbText
  0
TEXT
  5
55C
330
1E
100
AcDbEntity
  8
TEXT
 62
     1
100
AcDbText
 10
505.2952823063447
 20
254.5230824846258
 30
0.0
 40
7.0
  1
Außenrohr: E195 EN10305 feuerverzinkt
 50
90.0
 41
0.8
  7
GREEKS
100
AcDbText
  0
HATCH
  5
642
330
1E
100
AcDbEntity
  8
SCHRAFF
100
AcDbHatch
 10
0.0
 20
0.0
 30
0.0
210
0.0
220
0.0
230
1.0
  2
NET
 70
     0
 71
     0
 91
        2
 92
        7
 72
     0
 73
     1
 93
       10
 10
206.1715975036183
 20
194.0335766453237
 10
190.3303298154859
 20
194.0335766453238
 10
190.3303298154859
 20
184.0335766453237
 10
194.3303298154862
 20
184.0335766453238
 10
197.7944314306242
 20
178.0335766453236
 10
202.3303298154853
 20
178.0335766453236
 10
202.3303298154853
 20
176.0335766453235
 10
208.3303298154861
 20
176.0335766453234
 10
208.330329815486
 20
178.0335766453236
 10
206.7303298154863
 20
178.0335766453236
 97
        0
 92
        7
 72
     0
 73
     1
 93
       10
 10
137.3303298154915
 20
194.0335766453238
 10
121.4890621273543
 20
194.0335766453239
 10
120.9303298154863
 20
178.0335766453239
 10
119.3303298154862
 20
178.033576645324
 10
119.3303298154863
 20
176.0335766453239
 10
125.3303298154852
 20
176.0335766453239
 10
125.3303298154852
 20
178.0335766453239
 10
129.8662282003485
 20
178.0335766453239
 10
133.3303298154863
 20
184.0335766453238
 10
137.3303298154921
 20
184.0335766453238
 97
        0
 75
     0
 76
     1
 52
45.0
 41
20.0
 77
     0
 78
     2
 53
45.0
 43
-61.16967018451402
 44
-143.841417413862
 45
-1.767766952966368
 46
1.767766952966368
 79
     0
 53
135.0
 43
-61.16967018451402
 44
-143.841417413862
 45
-1.767766952966368
 46
-1.767766952966368
 79
     0
 47
0.1255994509103582
 98
        2
 10
197.9087104201352
 20
189.316902666467
 10
132.0548924966669
 20
190.3216985786994
  0
LINE
  5
643
330
1E
100
AcDbEntity
  8
STEMPEL
100
AcDbLine
 10
202.3303298154853
 20
178.0335766453236
 30
0.0
 11
190.3303298154859
 21
178.0335766453236
 31
0.0
  0
POINT
  5
644
330
1E
100
AcDbEntity
  8
STEMPEL
100
AcDbPoint
 10
202.3303298154853
 20
176.0335766453237
 30
0.0
  0
LINE
  5
645
330
1E
100
AcDbEntity
  8
STEMPEL
100
AcDbLine
 10
202.3303298154853
 20
178.0335766453237
 30
0.0
 11
202.3303298154853
 21
176.0335766453237
 31
0.0
  0
LINE
  5
646
330
1E
100
AcDbEntity
  8
STEMPEL
100
AcDbLine
 10
208.3303298154861
 20
176.0335766453234
 30
0.0
 11
190.3303298154859
 21
176.0335766453235
 31
0.0
  0
LINE
  5
647
330
1E
100
AcDbEntity
  8
STEMPEL
100
AcDbLine
 10
194.3303298154862
 20
184.0335766453238
 30
0.0
 11
197.794431430624
 21
178.0335766453238
 31
0.0
  0
LINE
  5
648
330
1E
100
AcDbEntity
  8
STEMPEL
100
AcDbLine
 10
194.3303298154862
 20
184.0335766453238
 30
0.0
 11
197.794431430624
 21
178.0335766453238
 31
0.0
  0
LINE
  5
649
330
1E
100
AcDbEntity
  8
STEMPEL
100
AcDbLine
 10
137.3303298154926
 20
176.0335766453239
 30
0.0
 11
119.3303298154862
 21
176.0335766453239
 31
0.0
  0
POINT
  5
64A
330
1E
100
AcDbEntity
  8
STEMPEL
100
AcDbPoint
 10
125.3303298154852
 20
176.0335766453237
 30
0.0
  0
LINE
  5
64B
330
1E
100
AcDbEntity
  8
STEMPEL
100
AcDbLine
 10
125.3303298154852
 20
178.0335766453237
 30
0.0
 11
125.3303298154852
 21
176.0335766453237
 31
0.0
  0
LINE
  5
64C
330
1E
100
AcDbEntity
  8
STEMPEL
100
AcDbLine
 10
137.3303298154924
 20
178.0335766453238
 30
0.0
 11
125.3303298154852
 21
178.0335766453239
 31
0.0
  0
LINE
  5
64D
330
1E
100
AcDbEntity
  8
STEMPEL
100
AcDbLine
 10
133.3303298154862
 20
184.0335766453238
 30
0.0
 11
129.8662282003484
 21
178.0335766453238
 31
0.0
  0
LINE
  5
64E
330
1E
100
AcDbEntity
  8
STEMPEL
100
AcDbLine
 10
137.3303298154924
 20
178.0335766453238
 30
0.0
 11
125.3303298154852
 21
178.0335766453239
 31
0.0
  0
LINE
  5
64F
330
1E
100
AcDbEntity
  8
STEMPEL
100
AcDbLine
 10
133.3303298154862
 20
184.0335766453238
 30
0.0
 11
129.8662282003484
 21
178.0335766453238
 31
0.0
  0
LINE
  5
650
330
1E
100
AcDbEntity
  8
STEMPEL
100
AcDbLine
 10
303.6035248725614
 20
176.0335766453234
 30
0.0
 11
392.6035248725615
 21
176.0335766453234
 31
0.0
  0
HATCH
  5
7FE
330
1E
100
AcDbEntity
  8
SCHRAFF
100
AcDbHatch
 10
0.0
 20
0.0
 30
0.0
210
0.0
220
0.0
230
1.0
  2
NET
 70
     0
 71
     1
 91
        2
 92
        7
 72
     1
 73
     1
 93
        8
 10
125.8352665698368
 20
536.6784255833922
 42
0.1156778201386609
 10
120.0562101408372
 20
538.0335766453235
 42
0.0
 10
118.3128311581467
 20
538.0335766453237
 42
0.0345339287938311
 10
115.8352665698367
 20
537.8622522470265
 42
0.0
 10
115.8352665698366
 20
526.0335766453238
 42
0.0
 10
121.7833043550163
 20
526.0335766453238
 42
0.0
 10
125.4780541795232
 20
529.1338398603598
 42
0.2216946626429502
 10
125.8352665698368
 20
529.8998843034788
 42
0.0
 97
        8
330
815
330
80A
330
809
330
861
330
846
330
83C
330
83A
330
83B
 92
        7
 72
     1
 73
     1
 93
        8
 10
121.7833043550161
 20
490.0335766453237
 42
0.0
 10
115.8352665698366
 20
490.0335766453239
 42
0.0
 10
115.8352665698365
 20
478.2049010436211
 42
0.034533928793847
 10
118.3128311581477
 20
478.0335766453239
 42
0.0
 10
120.0562101408372
 20
478.033576645324
 42
0.115677820138656
 10
125.8352665698366
 20
479.3887277072553
 42
0.0
 10
125.8352665698365
 20
486.1672689871688
 42
0.2216946626429747
 10
125.478054179523
 20
486.9333134302878
 42
0.0
 97
        8
330
845
330
803
330
81F
330
81E
330
81C
330
822
330
821
330
825
 75
     0
 76
     1
 52
45.0
 41
15.0
 77
     0
 78
     2
 53
45.0
 43
0.0000000000000284
 44
80.06666341276945
 45
-1.325825214724776
 46
1.325825214724776
 79
     0
 53
135.0
 43
0.0000000000000284
 44
80.06666341276945
 45
-1.325825214724776
 46
-1.325825214724776
 79
     0
 47
0.1201543260358664
 98
        2
 10
121.7352559497163
 20
531.5901133435163
 10
119.0903330272345
 20
487.012857270668
  0
HATCH
  5
7FF
330
1E
100
AcDbEntity
  8
SCHRAFF
100
AcDbHatch
 10
0.0
 20
0.0
 30
0.0
210
0.0
220
0.0
230
1.0
  2
_USER
 70
     0
 71
     0
 91
        2
 92
        7
 72
     1
 73
     1
 93
       10
 10
120.0562101408372
 20
539.5335766453237
 42
0.0
 10
118.3128311581467
 20
539.5335766453237
 42
0.0318605086976951
 10
115.8352665698367
 20
539.3755432906974
 42
0.0
 10
115.8352665698367
 20
537.8622522470265
 42
-0.0345339287938471
 10
118.3128311581478
 20
538.0335766453237
 42
0.0
 10
120.0562101408372
 20
538.0335766453235
 42
-0.1715728752537972
 10
128.2272218345479
 20
535.1446877564351
 42
0.1616168966555406
 10
133.8303298154859
 20
533.0407075183832
 42
0.0
 10
133.8303298154859
 20
534.5420458619744
 42
-0.1597524646571678
 10
129.1700308761304
 20
536.3113544231014
 42
0.1715728752538108
 97
        0
 92
        7
 72
     1
 73
     1
 93
       10
 10
129.1700308761303
 20
479.755798867546
 42
-0.1597524646571786
 10
133.830329815486
 20
481.5251074286733
 42
0.0
 10
133.830329815486
 20
483.0264457722643
 42
0.1616168966555332
 10
128.2272218345481
 20
480.9224655342127
 42
-0.1715728752538049
 10
120.0562101408372
 20
478.033576645324
 42
0.0
 10
118.3128311581467
 20
478.0335766453239
 42
-0.0345339287938334
 10
115.8352665698365
 20
478.2049010436211
 42
0.0
 10
115.8352665698365
 20
476.6916099999502
 42
0.0318605086976989
 10
118.3128311581468
 20
476.5335766453238
 42
0.0
 10
120.0562101408372
 20
476.5335766453238
 42
0.1715728752538073
 97
        0
 75
     0
 76
     0
 52
135.0
 41
2.0
 77
     0
 78
     1
 53
135.0
 43
0.0000000000000284
 44
80.06666341276945
 45
-1.414213562373095
 46
-1.414213562373094
 79
     0
 47
0.173097498091291
 98
        2
 10
122.4803747910151
 20
538.4084408859985
 10
117.6308466814266
 20
477.3050215290286
  0
HATCH
  5
800
330
1E
100
AcDbEntity
  8
SCHRAFF
100
AcDbHatch
 10
0.0
 20
0.0
 30
0.0
210
0.0
220
0.0
230
1.0
  2
_USER
 70
     0
 71
     1
 91
        2
 92
        7
 72
     0
 73
     1
 93
        4
 10
115.8352665698367
 20
552.5335766453237
 10
113.8352665698367
 20
552.5335766453237
 10
113.8352665698366
 20
512.033576645324
 10
115.8352665698366
 20
512.0335766453238
 97
        4
330
86A
330
804
330
802
330
861
 92
        7
 72
     0
 73
     1
 93
        4
 10
115.8352665698366
 20
504.0335766453239
 10
113.8352665698366
 20
504.0335766453239
 10
113.8352665698364
 20
463.5335766453243
 10
115.8352665698365
 20
463.5335766453239
 97
        4
330
801
330
804
330
86B
330
803
 75
     0
 76
     0
 52
45.0
 41
2.0
 77
     0
 78
     1
 53
45.0
 43
0.0000000000000284
 44
80.06666341276945
 45
-1.414213562373094
 46
1.414213562373095
 79
     0
 47
0.173097498091291
 98
        2
 10
114.686491521787
 20
535.811978190728
 10
115.2060844818047
 20
483.8827281973122
  0
LINE
  5
801
102
{ACAD_REACTORS
330
800
102
}
330
1E
100
AcDbEntity
  8
STEMPEL
100
AcDbLine
 10
115.8352665698366
 20
504.0335766453238
 30
0.0
 11
113.8352665698366
 21
504.0335766453239
 31
0.0
  0
LINE
  5
802
102
{ACAD_REACTORS
330
800
102
}
330
1E
100
AcDbEntity
  8
STEMPEL
100
AcDbLine
 10
115.8352665698366
 20
512.0335766453239
 30
0.0
 11
113.8352665698366
 21
512.033576645324
 31
0.0
  0
LINE
  5
803
102
{ACAD_REACTORS
330
800
330
7FE
330
A61
102
}
330
1E
100
AcDbEntity
  8
STEMPEL
100
AcDbLine
 10
115.8352665698366
 20
505.033576645324
 30
0.0
 11
115.8352665698365
 21
463.5335766453239
 31
0.0
  0
LINE
  5
804
102
{ACAD_REACTORS
330
800
102
}
330
1E
100
AcDbEntity
  8
STEMPEL
100
AcDbLine
 10
113.8352665698368
 20
552.5335766453237
 30
0.0
 11
113.8352665698364
 21
463.5335766453244
 31
0.0
  0
LINE
  5
805
330
1E
100
AcDbEntity
  8
HILF
100
AcDbLine
 10
163.8303298154861
 20
508.0335766453238
 30
0.0
 11
138.5729705026084
 21
482.7762173324432
 31
0.0
  0
LINE
  5
806
330
1E
100
AcDbEntity
  8
HILF
100
AcDbLine
 10
138.5729705026079
 20
533.2909359582048
 30
0.0
 11
163.8303298154861
 21
508.0335766453238
 31
0.0
  0
LINE
  5
807
330
1E
100
AcDbEntity
  8
MITTEL
100
AcDbLine
 10
163.8303298154861
 20
508.0335766453238
 30
0.0
 11
94.33526656983662
 21
508.033576645324
 31
0.0
  0
ARC
  5
808
102
{ACAD_REACTORS
330
A61
102
}
330
1E
100
AcDbEntity
  8
STEMPEL
  6
Continuous
100
AcDbCircle
 10
118.3128311581468
 20
520.0335766453236
 30
0.0
 40
19.5
100
AcDbArc
 50
90.0
 51
97.29942153278402
  0
ARC
  5
809
102
{ACAD_REACTORS
330
7FE
102
}
330
1E
100
AcDbEntity
  8
STEMPEL
  6
Continuous
100
AcDbCircle
 10
118.3128311581468
 20
520.0335766453236
 30
0.0
 40
18.0
100
AcDbArc
 50
90.0
 51
97.91144943474929
  0
LINE
  5
80A
102
{ACAD_REACTORS
330
7FE
102
}
330
1E
100
AcDbEntity
  8
STEMPEL
  6
Continuous
100
AcDbLine
 10
118.3128311581467
 20
538.0335766453237
 30
0.0
 11
120.0562101408372
 21
538.0335766453235
 31
0.0
  0
LINE
  5
80B
102
{ACAD_REACTORS
330
A61
102
}
330
1E
100
AcDbEntity
  8
STEMPEL
  6
Continuous
100
AcDbLine
 10
118.3128311581467
 20
539.5335766453237
 30
0.0
 11
120.0562101408372
 21
539.5335766453237
 31
0.0
  0
LINE
  5
80C
330
1E
100
AcDbEntity
  8
STEMPEL
100
AcDbLine
 10
133.8303298154859
 20
534.5420458619744
 30
0.0
 11
133.830329815486
 21
518.7490496331522
 31
0.0
  0
LINE
  5
80D
330
1E
100
AcDbEntity
  8
STEMPEL
100
AcDbLine
 10
134.3303298154883
 20
534.5335766453238
 30
0.0
 11
133.830329815486
 21
534.5335766453237
 31
0.0
  0
LINE
  5
80E
102
{ACAD_REACTORS
330
9C3
102
}
330
1E
100
AcDbEntity
  8
STEMPEL
100
AcDbLine
 10
134.3303298154893
 20
481.5335766453237
 30
0.0
 11
133.830329815486
 21
481.5335766453237
 31
0.0
  0
ARC
  5
80F
102
{ACAD_REACTORS
330
A61
102
}
330
1E
100
AcDbEntity
  8
STEMPEL
100
AcDbCircle
 10
134.3303298154883
 20
537.5335766453238
 30
0.0
 40
3.0
100
AcDbArc
 50
270.0
 51
0.0
  0
ARC
  5
810
102
{ACAD_REACTORS
330
9C3
330
A61
102
}
330
1E
100
AcDbEntity
  8
STEMPEL
100
AcDbCircle
 10
134.3303298154892
 20
478.5335766453238
 30
0.0
 40
3.0
100
AcDbArc
 50
0.0
 51
90.0
  0
ARC
  5
811
330
1E
100
AcDbEntity
  8
STEMPEL
100
AcDbCircle
 10
134.3303298154883
 20
537.5335766453238
 30
0.0
 40
4.5
100
AcDbArc
 50
270.000000000013
 51
0.0
  0
ARC
  5
812
102
{ACAD_REACTORS
330
9C3
102
}
330
1E
100
AcDbEntity
  8
STEMPEL
100
AcDbCircle
 10
134.3303298154892
 20
478.5335766453238
 30
0.0
 40
4.5
100
AcDbArc
 50
0.0
 51
90.0
  0
LINE
  5
813
330
1E
100
AcDbEntity
  8
STEMPEL
100
AcDbLine
 10
134.3303298154886
 20
533.0335766453238
 30
0.0
 11
133.8303298154863
 21
533.0335766453237
 31
0.0
  0
LINE
  5
814
102
{ACAD_REACTORS
330
9C3
102
}
330
1E
100
AcDbEntity
  8
STEMPEL
100
AcDbLine
 10
134.3303298154893
 20
483.0335766453238
 30
0.0
 11
133.830329815486
 21
483.0335766453238
 31
0.0
  0
ARC
  5
815
102
{ACAD_REACTORS
330
7FE
102
}
330
1E
100
AcDbEntity
  8
STEMPEL
100
AcDbCircle
 10
120.0562101408372
 20
525.0335766453235
 30
0.0
 40
13.0
100
AcDbArc
 50
51.05755873102246
 51
90.0
  0
ARC
  5
816
102
{ACAD_REACTORS
330
A61
102
}
330
1E
100
AcDbEntity
  8
STEMPEL
100
AcDbCircle
 10
120.0562101408372
 20
525.0335766453235
 30
0.0
 40
14.5
100
AcDbArc
 50
51.05755873102246
 51
90.0
  0
ARC
  5
817
102
{ACAD_REACTORS
330
A61
102
}
330
1E
100
AcDbEntity
  8
STEMPEL
100
AcDbCircle
 10
134.1983457645678
 20
542.5335766453238
 30
0.0
 40
8.0
100
AcDbArc
 50
231.0575587310225
 51
267.363349417958
  0
ARC
  5
818
330
1E
100
AcDbEntity
  8
STEMPEL
100
AcDbCircle
 10
134.1983457645678
 20
542.5335766453238
 30
0.0
 40
9.5
100
AcDbArc
 50
231.0575587310225
 51
267.7798907320183
  0
ARC
  5
819
330
1E
100
AcDbEntity
  8
STEMPEL
100
AcDbCircle
 10
134.1983457645678
 20
473.5335766453238
 30
0.0
 40
9.5
100
AcDbArc
 50
92.22010926798169
 51
128.9424412689775
  0
ARC
  5
81A
102
{ACAD_REACTORS
330
A61
102
}
330
1E
100
AcDbEntity
  8
STEMPEL
100
AcDbCircle
 10
134.1983457645678
 20
473.5335766453238
 30
0.0
 40
8.0
100
AcDbArc
 50
92.63665058204201
 51
128.9424412689775
  0
ARC
  5
81B
102
{ACAD_REACTORS
330
A61
102
}
330
1E
100
AcDbEntity
  8
STEMPEL
100
AcDbCircle
 10
120.0562101408372
 20
491.033576645324
 30
0.0
 40
14.5
100
AcDbArc
 50
270.0
 51
308.9424412689776
  0
ARC
  5
81C
102
{ACAD_REACTORS
330
7FE
102
}
330
1E
100
AcDbEntity
  8
STEMPEL
100
AcDbCircle
 10
120.0562101408372
 20
491.033576645324
 30
0.0
 40
13.0
100
AcDbArc
 50
270.0
 51
308.9424412689776
  0
LINE
  5
81D
102
{ACAD_REACTORS
330
A61
102
}
330
1E
100
AcDbEntity
  8
STEMPEL
  6
Continuous
100
AcDbLine
 10
118.3128311581467
 20
476.5335766453238
 30
0.0
 11
120.0562101408372
 21
476.5335766453238
 31
0.0
  0
LINE
  5
81E
102
{ACAD_REACTORS
330
7FE
102
}
330
1E
100
AcDbEntity
  8
STEMPEL
  6
Continuous
100
AcDbLine
 10
118.3128311581467
 20
478.0335766453239
 30
0.0
 11
120.0562101408372
 21
478.033576645324
 31
0.0
  0
ARC
  5
81F
102
{ACAD_REACTORS
330
7FE
102
}
330
1E
100
AcDbEntity
  8
STEMPEL
  6
Continuous
100
AcDbCircle
 10
118.3128311581468
 20
496.0335766453239
 30
0.0
 40
18.0
100
AcDbArc
 50
262.0885505652507
 51
270.0
  0
ARC
  5
820
102
{ACAD_REACTORS
330
A61
102
}
330
1E
100
AcDbEntity
  8
STEMPEL
  6
Continuous
100
AcDbCircle
 10
118.3128311581468
 20
496.0335766453239
 30
0.0
 40
19.5
100
AcDbArc
 50
262.700578467216
 51
270.0
  0
ARC
  5
821
102
{ACAD_REACTORS
330
7FE
102
}
330
1E
100
AcDbEntity
  8
STEMPEL
100
AcDbCircle
 10
124.8352665698366
 20
486.1672689871689
 30
0.0
 40
1.0
100
AcDbArc
 50
0.0
 51
50.0000000000045
  0
LINE
  5
822
102
{ACAD_REACTORS
330
7FE
102
}
330
1E
100
AcDbEntity
  8
STEMPEL
100
AcDbLine
 10
125.8352665698365
 20
486.1672689871688
 30
0.0
 11
125.8352665698366
 21
479.3887277072553
 31
0.0
  0
ARC
  5
823
330
1E
100
AcDbEntity
  8
STEMPEL
100
AcDbCircle
 10
121.3352665698366
 20
493.6730432089523
 30
0.0
 40
2.5
100
AcDbArc
 50
180.0
 51
230.0000000000045
  0
ARC
  5
824
330
1E
100
AcDbEntity
  8
STEMPEL
100
AcDbCircle
 10
121.3352665698367
 20
493.6730432089523
 30
0.0
 40
1.0
100
AcDbArc
 50
180.0
 51
229.9999999999953
  0
LINE
  5
825
102
{ACAD_REACTORS
330
7FE
102
}
330
1E
100
AcDbEntity
  8
STEMPEL
100
AcDbLine
 10
125.4780541795231
 20
486.9333134302877
 30
0.0
 11
119.7282975456203
 21
491.7579321011547
 31
0.0
  0
LINE
  5
826
330
1E
100
AcDbEntity
  8
STEMPEL
100
AcDbLine
 10
120.4780541795231
 20
501.7338398603599
 30
0.0
 11
119.7282975456203
 21
501.1047193453792
 31
0.0
  0
ARC
  5
827
330
1E
100
AcDbEntity
  8
STEMPEL
100
AcDbCircle
 10
121.3352665698367
 20
499.1896082375817
 30
0.0
 40
2.5
100
AcDbArc
 50
130.0000000000047
 51
180.0
  0
ARC
  5
828
330
1E
100
AcDbEntity
  8
STEMPEL
100
AcDbCircle
 10
119.8352665698367
 20
502.4998843034788
 30
0.0
 40
2.5
100
AcDbArc
 50
310.0000000000047
 51
0.0
  0
LINE
  5
829
330
1E
100
AcDbEntity
  8
STEMPEL
100
AcDbLine
 10
121.4422355940529
 20
500.5847731956813
 30
0.0
 11
120.6924789601501
 21
499.9556526807007
 31
0.0
  0
ARC
  5
82A
330
1E
100
AcDbEntity
  8
STEMPEL
100
AcDbCircle
 10
119.8352665698367
 20
502.4998843034788
 30
0.0
 40
1.0
100
AcDbArc
 50
310.0000000000047
 51
0.0
  0
ARC
  5
82B
330
1E
100
AcDbEntity
  8
STEMPEL
100
AcDbCircle
 10
121.3352665698366
 20
499.1896082375817
 30
0.0
 40
1.0
100
AcDbArc
 50
130.0000000000047
 51
180.0
  0
LINE
  5
82C
330
1E
100
AcDbEntity
  8
STEMPEL
100
AcDbLine
 10
118.8352665698366
 20
505.0335766453238
 30
0.0
 11
118.8352665698365
 21
493.6730432089523
 31
0.0
  0
LINE
  5
82D
330
1E
100
AcDbEntity
  8
STEMPEL
100
AcDbLine
 10
120.3352665698365
 20
499.1896082375817
 30
0.0
 11
120.3352665698367
 21
493.6730432089523
 31
0.0
  0
ARC
  5
82E
330
1E
100
AcDbEntity
  8
STEMPEL
100
AcDbCircle
 10
124.8352665698366
 20
486.1672689871689
 30
0.0
 40
2.5
100
AcDbArc
 50
0.0
 51
49.99999999999531
  0
LINE
  5
82F
330
1E
100
AcDbEntity
  8
STEMPEL
100
AcDbLine
 10
126.4422355940529
 20
488.0823800949662
 30
0.0
 11
120.6924789601501
 21
492.9069987658333
 31
0.0
  0
LINE
  5
830
330
1E
100
AcDbEntity
  8
STEMPEL
100
AcDbLine
 10
125.8352665698365
 20
481.6835766453237
 30
0.0
 11
127.3352665698365
 21
481.6835766453237
 31
0.0
  0
LINE
  5
831
330
1E
100
AcDbEntity
  8
STEMPEL
100
AcDbLine
 10
120.4780541795232
 20
514.3333134302877
 30
0.0
 11
119.7282975456204
 21
514.9624339452684
 31
0.0
  0
ARC
  5
832
330
1E
100
AcDbEntity
  8
STEMPEL
100
AcDbCircle
 10
121.3352665698368
 20
516.8775450530659
 30
0.0
 40
2.5
100
AcDbArc
 50
180.0
 51
230.0000000000045
  0
ARC
  5
833
330
1E
100
AcDbEntity
  8
STEMPEL
100
AcDbCircle
 10
119.8352665698368
 20
513.5672689871689
 30
0.0
 40
2.5
100
AcDbArc
 50
0.0
 51
49.99999999999531
  0
LINE
  5
834
330
1E
100
AcDbEntity
  8
STEMPEL
100
AcDbLine
 10
121.4422355940531
 20
515.4823800949663
 30
0.0
 11
120.6924789601502
 21
516.1115006099469
 31
0.0
  0
ARC
  5
835
330
1E
100
AcDbEntity
  8
STEMPEL
100
AcDbCircle
 10
121.3352665698368
 20
516.8775450530659
 30
0.0
 40
1.0
100
AcDbArc
 50
180.0
 51
229.9999999999953
  0
ARC
  5
836
330
1E
100
AcDbEntity
  8
STEMPEL
100
AcDbCircle
 10
119.8352665698368
 20
513.5672689871689
 30
0.0
 40
1.0
100
AcDbArc
 50
0.0
 51
49.99999999999531
  0
ARC
  5
837
330
1E
100
AcDbEntity
  8
STEMPEL
100
AcDbCircle
 10
121.3352665698368
 20
522.3941100816954
 30
0.0
 40
2.5
100
AcDbArc
 50
129.9999999999955
 51
180.0
  0
ARC
  5
838
330
1E
100
AcDbEntity
  8
STEMPEL
100
AcDbCircle
 10
121.3352665698368
 20
522.3941100816954
 30
0.0
 40
1.0
100
AcDbArc
 50
130.0000000000047
 51
180.0
  0
LINE
  5
839
330
1E
100
AcDbEntity
  8
STEMPEL
100
AcDbLine
 10
120.3352665698368
 20
522.3941100816952
 30
0.0
 11
120.3352665698368
 21
516.8775450530659
 31
0.0
  0
ARC
  5
83A
102
{ACAD_REACTORS
330
7FE
102
}
330
1E
100
AcDbEntity
  8
STEMPEL
100
AcDbCircle
 10
124.8352665698368
 20
529.8998843034788
 30
0.0
 40
1.0
100
AcDbArc
 50
310.0000000000047
 51
0.0
  0
LINE
  5
83B
102
{ACAD_REACTORS
330
7FE
102
}
330
1E
100
AcDbEntity
  8
STEMPEL
100
AcDbLine
 10
125.8352665698368
 20
536.6784255833922
 30
0.0
 11
125.8352665698368
 21
529.8998843034788
 31
0.0
  0
LINE
  5
83C
102
{ACAD_REACTORS
330
7FE
102
}
330
1E
100
AcDbEntity
  8
STEMPEL
100
AcDbLine
 10
125.4780541795232
 20
529.1338398603598
 30
0.0
 11
119.7282975456204
 21
524.3092211894929
 31
0.0
  0
ARC
  5
83D
330
1E
100
AcDbEntity
  8
STEMPEL
100
AcDbCircle
 10
124.8352665698368
 20
529.8998843034789
 30
0.0
 40
2.5
100
AcDbArc
 50
310.0000000000047
 51
0.0
  0
LINE
  5
83E
330
1E
100
AcDbEntity
  8
STEMPEL
100
AcDbLine
 10
125.8352665698368
 20
534.3835766453238
 30
0.0
 11
127.3352665698368
 21
534.3835766453237
 31
0.0
  0
LINE
  5
83F
330
1E
100
AcDbEntity
  8
STEMPEL
100
AcDbLine
 10
126.4422355940531
 20
527.9847731956814
 30
0.0
 11
120.6924789601502
 21
523.1601545248143
 31
0.0
  0
LINE
  5
840
330
1E
100
AcDbEntity
  8
STEMPEL
100
AcDbLine
 10
127.3352665698368
 20
534.3835766453237
 30
0.0
 11
127.3352665698365
 21
481.6835766453237
 31
0.0
  0
INSERT
  5
841
330
1E
100
AcDbEntity
  8
SCHRAFF
100
AcDbBlockReference
  2
*X8
 10
159.8081628567884
 20
624.4357782135059
 30
0.0
 41
-1.0
 50
90.0
1001
ACAD
1000
HATCH
1002
{
1070
    16
1000
_U,I
1040
1.0
1040
0.7853981633974483
1070
     0
1002
}
  0
LINE
  5
842
330
1E
100
AcDbEntity
  8
STEMPEL
100
AcDbLine
 10
120.8352665698368
 20
513.5672689871687
 30
0.0
 11
120.8352665698366
 21
502.4998843034788
 31
0.0
  0
LINE
  5
843
330
1E
100
AcDbEntity
  8
STEMPEL
100
AcDbLine
 10
122.3352665698368
 20
513.5672689871687
 30
0.0
 11
122.3352665698367
 21
502.4998843034787
 31
0.0
  0
LINE
  5
844
330
1E
100
AcDbEntity
  8
STEMPEL
100
AcDbLine
 10
118.8352665698368
 20
522.3941100816954
 30
0.0
 11
118.8352665698368
 21
511.0335766453239
 31
0.0
  0
LINE
  5
845
102
{ACAD_REACTORS
330
7FE
102
}
330
1E
100
AcDbEntity
  8
STEMPEL
100
AcDbLine
 10
115.8352665698366
 20
490.0335766453239
 30
0.0
 11
121.783304355016
 21
490.0335766453239
 31
0.0
  0
LINE
  5
846
102
{ACAD_REACTORS
330
7FE
102
}
330
1E
100
AcDbEntity
  8
STEMPEL
100
AcDbLine
 10
115.8352665698368
 20
526.0335766453238
 30
0.0
 11
121.7833043550164
 21
526.0335766453238
 31
0.0
  0
LINE
  5
847
330
1E
100
AcDbEntity
  8
STEMPEL
100
AcDbLine
 10
105.3352665698366
 20
513.5335766453239
 30
0.0
 11
104.8352665698366
 21
513.5335766453239
 31
0.0
  0
LINE
  5
848
330
1E
100
AcDbEntity
  8
STEMPEL
100
AcDbLine
 10
112.3352665698366
 20
514.5335766453239
 30
0.0
 11
105.3352665698366
 21
514.5335766453239
 31
0.0
  0
LINE
  5
849
330
1E
100
AcDbEntity
  8
STEMPEL
100
AcDbLine
 10
105.3352665698366
 20
502.5335766453239
 30
0.0
 11
104.8352665698366
 21
502.5335766453239
 31
0.0
  0
LINE
  5
84A
330
1E
100
AcDbEntity
  8
STEMPEL
100
AcDbLine
 10
112.3352665698366
 20
501.5335766453239
 30
0.0
 11
105.3352665698366
 21
501.5335766453239
 31
0.0
  0
ARC
  5
84B
330
1E
100
AcDbEntity
  8
STEMPEL
100
AcDbCircle
 10
104.8352665698366
 20
508.033576645324
 30
0.0
 40
5.5
100
AcDbArc
 50
90.0
 51
270.0
  0
LINE
  5
84C
330
1E
100
AcDbEntity
  8
STEMPEL
100
AcDbLine
 10
112.3352665698366
 20
501.5335766453239
 30
0.0
 11
112.3352665698366
 21
514.5335766453239
 31
0.0
  0
LINE
  5
84D
330
1E
100
AcDbEntity
  8
STEMPEL
100
AcDbLine
 10
105.3352665698366
 20
501.5335766453239
 30
0.0
 11
105.3352665698366
 21
502.533576645324
 31
0.0
  0
LINE
  5
84E
330
1E
100
AcDbEntity
  8
STEMPEL
100
AcDbLine
 10
108.0852665698366
 20
513.8070793372202
 30
0.0
 11
111.5852665698366
 21
513.8070793372202
 31
0.0
  0
LINE
  5
84F
330
1E
100
AcDbEntity
  8
STEMPEL
100
AcDbLine
 10
108.0852665698366
 20
510.920327991272
 30
0.0
 11
111.5852665698366
 21
510.920327991272
 31
0.0
  0
LINE
  5
850
330
1E
100
AcDbEntity
  8
STEMPEL
100
AcDbLine
 10
108.0852665698366
 20
505.1468252993758
 30
0.0
 11
111.5852665698366
 21
505.1468252993759
 31
0.0
  0
ARC
  5
851
330
1E
100
AcDbEntity
  8
STEMPEL
100
AcDbCircle
 10
113.265822125392
 20
508.033576645324
 30
0.0
 40
5.930555555555599
100
AcDbArc
 50
150.8722176851059
 51
209.1277823148941
  0
ARC
  5
852
330
1E
100
AcDbEntity
  8
STEMPEL
100
AcDbCircle
 10
109.0991554587253
 20
512.3637036642462
 30
0.0
 40
1.763888888888892
100
AcDbArc
 50
125.0858478081223
 51
234.9141521918777
  0
ARC
  5
853
330
1E
100
AcDbEntity
  8
STEMPEL
100
AcDbCircle
 10
110.5713776809477
 20
512.3637036642462
 30
0.0
 40
1.763888888888892
100
AcDbArc
 50
305.0858478081224
 51
54.91415219187762
  0
ARC
  5
854
330
1E
100
AcDbEntity
  8
STEMPEL
100
AcDbCircle
 10
106.4047110142809
 20
508.033576645324
 30
0.0
 40
5.930555555555599
100
AcDbArc
 50
330.8722176851059
 51
29.1277823148941
  0
LINE
  5
855
330
1E
100
AcDbEntity
  8
STEMPEL
100
AcDbLine
 10
108.0852665698366
 20
502.2600739534277
 30
0.0
 11
111.5852665698366
 21
502.2600739534277
 31
0.0
  0
LINE
  5
856
330
1E
100
AcDbEntity
  8
STEMPEL
100
AcDbLine
 10
112.3352665698366
 20
503.7034496264018
 30
0.0
 11
112.3352665698366
 21
512.3637036642461
 31
0.0
  0
ARC
  5
857
330
1E
100
AcDbEntity
  8
STEMPEL
100
AcDbCircle
 10
110.5713776809477
 20
503.7034496264019
 30
0.0
 40
1.763888888888892
100
AcDbArc
 50
305.0858478081224
 51
54.91415219187762
  0
LINE
  5
858
330
1E
100
AcDbEntity
  8
STEMPEL
100
AcDbLine
 10
107.3352665698364
 20
503.7034496264018
 30
0.0
 11
107.3352665698366
 21
512.3637036642461
 31
0.0
  0
ARC
  5
859
330
1E
100
AcDbEntity
  8
STEMPEL
100
AcDbCircle
 10
109.0991554587253
 20
503.7034496264019
 30
0.0
 40
1.763888888888892
100
AcDbArc
 50
125.0858478081223
 51
234.9141521918777
  0
LINE
  5
85A
330
1E
100
AcDbEntity
  8
STEMPEL
100
AcDbLine
 10
112.3352665698366
 20
514.0335766453237
 30
0.0
 11
112.3352665698366
 21
502.033576645324
 31
0.0
  0
LINE
  5
85B
330
1E
100
AcDbEntity
  8
STEMPEL
100
AcDbLine
 10
112.3352665698366
 20
502.033576645324
 30
0.0
 11
113.8352665698366
 21
502.0335766453239
 31
0.0
  0
LINE
  5
85C
330
1E
100
AcDbEntity
  8
STEMPEL
100
AcDbLine
 10
112.3352665698366
 20
514.0335766453239
 30
0.0
 11
113.8352665698366
 21
514.0335766453239
 31
0.0
  0
LINE
  5
85D
330
1E
100
AcDbEntity
  8
HILF
100
AcDbLine
 10
103.5852665698363
 20
510.2835766453237
 30
0.0
 11
107.3352665698365
 21
510.2835766453237
 31
0.0
  0
LINE
  5
85E
330
1E
100
AcDbEntity
  8
STEMPEL
100
AcDbLine
 10
103.3352665698366
 20
510.0335766453239
 30
0.0
 11
104.3352665698366
 21
511.033576645324
 31
0.0
  0
LINE
  5
85F
330
1E
100
AcDbEntity
  8
HILF
100
AcDbLine
 10
103.5852665698363
 20
505.7835766453236
 30
0.0
 11
107.3352665698364
 21
505.7835766453238
 31
0.0
  0
LINE
  5
860
330
1E
100
AcDbEntity
  8
STEMPEL
100
AcDbLine
 10
103.3352665698366
 20
506.0335766453234
 30
0.0
 11
104.3352665698366
 21
505.0335766453236
 31
0.0
  0
LINE
  5
861
102
{ACAD_REACTORS
330
800
330
7FE
330
974
330
A61
102
}
330
1E
100
AcDbEntity
  8
STEMPEL
100
AcDbLine
 10
115.8352665698367
 20
552.5335766453237
 30
0.0
 11
115.8352665698366
 21
511.0335766453239
 31
0.0
  0
LINE
  5
862
330
1E
100
AcDbEntity
  8
STEMPEL
100
AcDbLine
 10
112.3352665698366
 20
513.7835766453239
 30
0.0
 11
106.0852665698366
 21
513.783576645324
 31
0.0
  0
LINE
  5
863
330
1E
100
AcDbEntity
  8
STEMPEL
100
AcDbLine
 10
112.3352665698366
 20
502.2835766453239
 30
0.0
 11
106.0852665698366
 21
502.2835766453239
 31
0.0
  0
LINE
  5
864
330
1E
100
AcDbEntity
  8
STEMPEL
100
AcDbLine
 10
106.0852665698366
 20
503.2835766453238
 30
0.0
 11
104.8352665698366
 21
503.2835766453239
 31
0.0
  0
ARC
  5
865
330
1E
100
AcDbEntity
  8
STEMPEL
100
AcDbCircle
 10
104.8352665698366
 20
508.033576645324
 30
0.0
 40
4.75
100
AcDbArc
 50
90.0
 51
270.0
  0
LINE
  5
866
330
1E
100
AcDbEntity
  8
STEMPEL
100
AcDbLine
 10
106.0852665698366
 20
512.7835766453239
 30
0.0
 11
104.8352665698366
 21
512.7835766453239
 31
0.0
  0
LINE
  5
867
330
1E
100
AcDbEntity
  8
STEMPEL
100
AcDbLine
 10
106.0852665698366
 20
502.2835766453239
 30
0.0
 11
106.0852665698366
 21
503.2835766453238
 31
0.0
  0
LINE
  5
868
330
1E
100
AcDbEntity
  8
STEMPEL
100
AcDbLine
 10
106.0852665698366
 20
512.7835766453237
 30
0.0
 11
106.0852665698366
 21
513.783576645324
 31
0.0
  0
LINE
  5
869
330
1E
100
AcDbEntity
  8
STEMPEL
100
AcDbLine
 10
105.3352665698366
 20
513.533576645324
 30
0.0
 11
105.3352665698366
 21
514.5335766453239
 31
0.0
  0
LINE
  5
86A
102
{ACAD_REACTORS
330
800
330
974
102
}
330
1E
100
AcDbEntity
  8
STEMPEL
100
AcDbLine
 10
116.3303298154861
 20
552.5335766453237
 30
0.0
 11
113.8352665698368
 21
552.5335766453237
 31
0.0
  0
LINE
  5
86B
102
{ACAD_REACTORS
330
800
102
}
330
1E
100
AcDbEntity
  8
STEMPEL
100
AcDbLine
 10
116.3303298154862
 20
463.5335766453239
 30
0.0
 11
113.8352665698364
 21
463.5335766453244
 31
0.0
  0
LINE
  5
86C
102
{ACAD_REACTORS
330
974
330
A61
102
}
330
1E
100
AcDbEntity
  8
STEMPEL
100
AcDbLine
 10
116.330329815486
 20
550.9335766453237
 30
0.0
 11
115.8303298154859
 21
550.9335766453237
 31
0.0
  0
LINE
  5
86D
102
{ACAD_REACTORS
330
A61
102
}
330
1E
100
AcDbEntity
  8
STEMPEL
100
AcDbLine
 10
116.3303298154862
 20
465.1335766453239
 30
0.0
 11
115.8352665698365
 21
465.1335766453238
 31
0.0
  0
ARC
  5
86E
102
{ACAD_REACTORS
330
974
102
}
330
1E
100
AcDbEntity
  8
STEMPEL
100
AcDbCircle
 10
116.3303298154861
 20
555.5335766453238
 30
0.0
 40
3.0
100
AcDbArc
 50
270.0
 51
0.0
  0
ARC
  5
86F
330
1E
100
AcDbEntity
  8
STEMPEL
100
AcDbCircle
 10
116.3303298154862
 20
460.5335766453238
 30
0.0
 40
3.0
100
AcDbArc
 50
0.0
 51
90.0
  0
ARC
  5
870
102
{ACAD_REACTORS
330
A61
102
}
330
1E
100
AcDbEntity
  8
STEMPEL
100
AcDbCircle
 10
116.3303298154862
 20
460.5335766453238
 30
0.0
 40
4.599999999999999
100
AcDbArc
 50
0.0
 51
90.0
  0
ARC
  5
871
102
{ACAD_REACTORS
330
974
330
A61
102
}
330
1E
100
AcDbEntity
  8
STEMPEL
100
AcDbCircle
 10
116.3303298154861
 20
555.5335766453238
 30
0.0
 40
4.599999999999999
100
AcDbArc
 50
270.0
 51
0.0
  0
HATCH
  5
872
330
1E
100
AcDbEntity
  8
SCHRAFF
100
AcDbHatch
 10
0.0
 20
0.0
 30
0.0
210
0.0
220
0.0
230
1.0
  2
NET
 70
     0
 71
     0
 91
        2
 92
        7
 72
     1
 73
     1
 93
       15
 10
106.0852665698366
 20
512.7835766453239
 42
0.0
 10
106.0852665698366
 20
513.783576645324
 42
0.0
 10
108.0526064966835
 20
513.783576645324
 42
-0.0057031391269015
 10
108.0852665698363
 20
513.8070793372202
 42
0.0
 10
111.5852665698366
 20
513.8070793372202
 42
-0.0057031391269338
 10
111.6179266429895
 20
513.7835766453239
 42
0.0
 10
112.3352665698366
 20
513.7835766453239
 42
0.0
 10
112.3352665698366
 20
514.0335766453237
 42
0.0
 10
112.3352665698366
 20
514.5335766453239
 42
0.0
 10
105.3352665698366
 20
514.5335766453237
 42
0.0
 10
105.3352665698366
 20
513.5335766453239
 42
0.0
 10
104.8352665698366
 20
513.5335766453239
 42
0.4142135623730905
 10
99.33526656983667
 20
508.033576645324
 42
0.0
 10
100.0852665698366
 20
508.033576645324
 42
-0.4142135623730845
 10
104.8352665698366
 20
512.7835766453239
 42
0.0
 97
        0
 92
        7
 72
     1
 73
     1
 93
       14
 10
100.0852665698366
 20
508.033576645324
 42
0.0
 10
99.33526656983662
 20
508.033576645324
 42
0.4142135623730982
 10
104.8352665698366
 20
502.5335766453239
 42
0.0
 10
105.3352665698366
 20
502.5335766453239
 42
0.0
 10
105.3352665698365
 20
501.5335766453239
 42
0.0
 10
112.3352665698366
 20
501.5335766453239
 42
0.0
 10
112.3352665698365
 20
502.2835766453239
 42
0.0
 10
111.6179266429893
 20
502.2835766453239
 42
-0.0057031391268901
 10
111.5852665698366
 20
502.2600739534277
 42
0.0
 10
108.0852665698366
 20
502.2600739534277
 42
-0.0057031391269064
 10
108.0526064966837
 20
502.2835766453239
 42
0.0
 10
106.0852665698366
 20
502.2835766453239
 42
0.0
 10
106.0852665698366
 20
503.2835766453238
 42
0.0
 10
104.8352665698366
 20
503.2835766453239
 42
-0.4142135623730925
 97
        0
 75
     0
 76
     1
 52
45.0
 41
5.0
 77
     0
 78
     2
 53
45.0
 43
8.404936754350671
 44
42.21647432280429
 45
-0.4419417382415922
 46
0.4419417382415923
 79
     0
 53
135.0
 43
8.404936754350671
 44
42.21647432280429
 45
-0.4419417382415923
 46
-0.4419417382415922
 79
     0
 47
0.0446740355787235
 98
        2
 10
105.435836492475
 20
513.0808967905557
 10
99.98174840738005
 20
506.7371835124311
  0
ARC
  5
873
102
{ACAD_REACTORS
330
A61
102
}
330
1E
100
AcDbEntity
  8
SCHRAFF
100
AcDbCircle
 10
134.4593067018494
 20
529.26712069777
 30
0.0
 40
7.020634715904356
100
AcDbArc
 50
70.26185062703024
 51
121.1246413762756
  0
ARC
  5
874
102
{ACAD_REACTORS
330
A61
102
}
330
1E
100
AcDbEntity
  8
SCHRAFF
100
AcDbCircle
 10
134.3982765469093
 20
486.1878591208722
 30
0.0
 40
6.470435866758778
100
AcDbArc
 50
236.5353129313737
 51
292.0781950653439
  0
HATCH
  5
875
330
1E
100
AcDbEntity
  8
SCHRAFF
100
AcDbHatch
 10
0.0
 20
0.0
 30
0.0
210
0.0
220
0.0
230
1.0
  2
_USER
 70
     0
 71
     0
 91
        2
 92
        7
 72
     1
 73
     1
 93
        5
 10
136.8303298154859
 20
535.8752642501427
 42
0.225647641547331
 10
130.8303298154859
 20
535.2770989483464
 42
0.0974394995779249
 10
133.8303298154859
 20
534.5420458619744
 42
0.0
 10
133.8303298154859
 20
534.5335766453237
 42
0.0
 10
134.3303298154883
 20
534.5335766453238
 42
0.2513806714123738
 97
        0
 92
        7
 72
     1
 73
     1
 93
        5
 10
134.3303298154892
 20
481.5335766453237
 42
0.0
 10
133.830329815486
 20
481.5335766453237
 42
0.0
 10
133.830329815486
 20
481.5251074286733
 42
0.097439499577925
 10
130.8303298154861
 20
480.7900543423013
 42
0.2472105098084683
 10
136.830329815486
 20
480.1918890405063
 42
0.2513806714122364
 97
        0
 75
     0
 76
     0
 52
0.0
 41
0.1
 77
     0
 78
     1
 53
0.0
 43
0.0000000000000284
 44
42.21647432280429
 45
0.0
 46
0.1
 79
     0
 47
0.1745723791313494
 98
        2
 10
133.7583435873112
 20
535.3798973901304
 10
133.9330383407937
 20
480.5641694468934
  0
LINE
  5
876
330
1E
100
AcDbEntity
  8
STEMPEL
100
AcDbLine
 10
103.3352665698366
 20
510.0335766453239
 30
0.0
 11
103.3352665698366
 21
506.0335766453234
 31
0.0
  0
LINE
  5
877
330
1E
100
AcDbEntity
  8
STEMPEL
100
AcDbLine
 10
113.8352665698366
 20
505.0335766453239
 30
0.0
 11
120.8352665698368
 21
505.033576645324
 31
0.0
  0
LINE
  5
878
330
1E
100
AcDbEntity
  8
HILF
100
AcDbLine
 10
113.8352665698366
 20
505.7835766453239
 30
0.0
 11
120.8352665698368
 21
505.783576645324
 31
0.0
  0
LINE
  5
879
330
1E
100
AcDbEntity
  8
HILF
100
AcDbLine
 10
113.8352665698366
 20
510.2835766453239
 30
0.0
 11
120.8352665698368
 21
510.283576645324
 31
0.0
  0
LINE
  5
87A
330
1E
100
AcDbEntity
  8
STEMPEL
100
AcDbLine
 10
113.8352665698366
 20
511.0335766453239
 30
0.0
 11
120.8352665698369
 21
511.0335766453239
 31
0.0
  0
LINE
  5
87B
330
1E
100
AcDbEntity
  8
STEMPEL
100
AcDbLine
 10
104.3352665698366
 20
511.033576645324
 30
0.0
 11
104.3352665698365
 21
505.0335766453235
 31
0.0
  0
LINE
  5
87C
330
1E
100
AcDbEntity
  8
STEMPEL
100
AcDbLine
 10
104.3352665698366
 20
511.033576645324
 30
0.0
 11
107.3352665698365
 21
511.0335766453239
 31
0.0
  0
LINE
  5
87D
330
1E
100
AcDbEntity
  8
STEMPEL
100
AcDbLine
 10
104.3352665698366
 20
505.0335766453236
 30
0.0
 11
107.3352665698364
 21
505.0335766453236
 31
0.0
  0
CIRCLE
  5
887
330
1E
100
AcDbEntity
  8
STEMPEL
100
AcDbCircle
 10
348.1035248725612
 20
508.0335766453238
 30
0.0
 40
44.5
  0
LINE
  5
888
330
1E
100
AcDbEntity
  8
MITTEL
100
AcDbLine
 10
398.6035248725611
 20
508.0335766453239
 30
0.0
 11
297.6035248725614
 21
508.0335766453238
 31
0.0
  0
CIRCLE
  5
889
330
1E
100
AcDbEntity
  8
STEMPEL
100
AcDbCircle
 10
348.1035248725612
 20
508.0335766453238
 30
0.0
 40
6.825645282508787
  0
CIRCLE
  5
88A
330
1E
100
AcDbEntity
  8
STEMPEL
100
AcDbCircle
 10
348.1035248725612
 20
508.0335766453238
 30
0.0
 40
8.25
  0
TEXT
  5
8DD
330
1E
100
AcDbEntity
  8
TEXT
 62
     1
100
AcDbText
 10
129.8877470705983
 20
510.4770196915082
 30
0.0
 40
7.0
  1
DN50
 41
0.8
  7
GREEKS
100
AcDbText
  0
LINE
  5
8DE
102
{ACAD_REACTORS
330
9C3
102
}
330
1E
100
AcDbEntity
  8
STEMPEL
100
AcDbLine
 10
133.830329815486
 20
509.3049472672908
 30
0.0
 11
133.830329815486
 21
481.5251074286733
 31
0.0
  0
HATCH
  5
974
330
1E
100
AcDbEntity
  8
SCHRAFF
100
AcDbHatch
 10
0.0
 20
0.0
 30
0.0
210
0.0
220
0.0
230
1.0
  2
_USER
 70
     0
 71
     1
 91
        1
 92
        7
 72
     1
 73
     1
 93
        8
 10
119.3303298154861
 20
555.5335766453236
 42
-0.4142135623730729
 10
116.3303298154861
 20
552.5335766453237
 42
0.0
 10
115.8352665698367
 20
552.5335766453237
 42
0.0
 10
115.8352665698367
 20
550.9335766453237
 42
0.0
 10
116.330329815486
 20
550.9335766453237
 42
0.414213562373077
 10
120.930329815486
 20
555.5335766453236
 42
0.0
 10
120.9303298154859
 20
686.0335766453238
 42
0.0
 10
119.330329815486
 20
686.0335766453239
 42
0.0
 97
        8
330
519
330
4C9
330
86E
330
86A
330
861
330
86C
330
871
330
513
 75
     0
 76
     0
 52
135.0
 41
2.0
 77
     0
 78
     1
 53
135.0
 43
0.0
 44
0.0
 45
-1.414213562373095
 46
-1.414213562373094
 79
     0
 47
0.9146554400482289
 98
        1
 10
120.1199564155263
 20
596.1050472533254
  0
HATCH
  5
9B3
330
1E
100
AcDbEntity
  8
SCHRAFF
100
AcDbHatch
 10
0.0
 20
0.0
 30
0.0
210
0.0
220
0.0
230
1.0
  2
_USER
 70
     0
 71
     0
 91
        1
 92
        7
 72
     1
 73
     1
 93
       24
 10
138.830329815486
 20
642.9062498056668
 42
0.1433758286905697
 10
137.330329815486
 20
648.0297251886467
 42
0.0
 10
137.330329815486
 20
648.0335766453237
 42
-0.1361061113099512
 10
135.830329815486
 20
653.4419035585196
 42
0.0
 10
135.830329815486
 20
661.5335766453238
 42
0.0851285408962498
 10
135.1731770271848
 20
665.3653731357126
 42
-0.0855444844068168
 10
133.830329815486
 20
673.2343926993888
 42
0.0
 10
133.830329815486
 20
677.651075302663
 42
-0.1095178116832484
 10
135.5167896488267
 20
685.2582040139959
 42
0.0
 10
135.8783518447385
 20
686.0335766453236
 42
0.0
 10
134.2239766655491
 20
686.0335766453236
 42
0.1115469390821226
 10
132.330329815486
 20
677.651075302663
 42
0.0
 10
132.330329815486
 20
673.1555409432746
 42
0.0847252966075545
 10
133.7588926082675
 20
664.8655735934879
 42
-0.0851285408962526
 10
134.330329815486
 20
661.5335766453236
 42
0.0
 10
134.330329815486
 20
653.4419035585196
 42
0.1395991324168601
 10
136.130329815486
 20
647.1205113068081
 42
-0.1395991324168582
 10
137.330329815486
 20
642.9062498056671
 42
0.0
 10
137.3303298154882
 20
537.5335766453235
 42
-0.4142135623730063
 10
134.3303298154889
 20
534.5335766453238
 42
0.0
 10
133.8303298154859
 20
534.5335766453237
 42
0.0
 10
133.8303298154859
 20
533.0335766453237
 42
0.0
 10
134.3303298154886
 20
533.0335766453238
 42
0.4142135623729118
 10
138.830329815486
 20
537.5335766453235
 42
0.0
 97
        0
 75
     0
 76
     0
 52
45.0
 41
2.0
 77
     0
 78
     1
 53
45.0
 43
0.0
 44
0.0
 45
-1.414213562373094
 46
1.414213562373095
 79
     0
 47
0.3196039479554649
 98
        1
 10
137.8465361900726
 20
620.0720780309632
  0
HATCH
  5
9C3
330
1E
100
AcDbEntity
  8
SCHRAFF
100
AcDbHatch
 10
0.0
 20
0.0
 30
0.0
210
0.0
220
0.0
230
1.0
  2
_USER
 70
     0
 71
     1
 91
        1
 92
        7
 72
     1
 73
     1
 93
       10
 10
138.8303298154859
 20
478.5335766453235
 42
0.4142135623731081
 10
134.330329815486
 20
483.0335766453238
 42
0.0
 10
133.830329815486
 20
483.0335766453238
 42
0.0
 10
133.830329815486
 20
481.5335766453237
 42
0.0
 10
134.3303298154893
 20
481.5335766453237
 42
-0.4142135623730758
 10
137.3303298154892
 20
478.5335766453238
 42
0.0
 10
137.3303298154941
 20
152.9680852308677
 42
0.0
 10
137.7620433768006
 20
148.0335766453238
 42
0.0
 10
139.2677731331155
 20
148.0335766453238
 42
0.0
 10
138.8303298154859
 20
153.0335766453237
 42
0.0
 97
       10
330
812
330
814
330
8DE
330
80E
330
810
330
46D
330
515
330
51A
330
514
330
46E
 75
     0
 76
     0
 52
45.0
 41
2.0
 77
     0
 78
     1
 53
45.0
 43
0.0
 44
0.0
 45
-1.414213562373094
 46
1.414213562373095
 79
     0
 47
0.619232652938186
 98
        1
 10
138.1225996799662
 20
317.0800445016696
  0
HATCH
  5
A13
330
1E
100
AcDbEntity
  8
SCHRAFF
100
AcDbHatch
 10
0.0
 20
0.0
 30
0.0
210
0.0
220
0.0
230
1.0
  2
_USER
 70
     0
 71
     0
 91
        1
 92
        7
 72
     1
 73
     1
 93
       22
 10
190.330329815486
 20
642.906249805667
 42
-0.1395991324168488
 10
191.5303298154858
 20
647.1205113068077
 42
0.1395991324168664
 10
193.330329815486
 20
653.4419035585195
 42
0.0
 10
193.330329815486
 20
661.5335766453236
 42
-0.085128540896237
 10
193.9017670227042
 20
664.8655735934873
 42
0.0847252966076191
 10
195.330329815486
 20
673.1555409432805
 42
0.0
 10
195.330329815486
 20
677.6510753026628
 42
0.1115469390821234
 10
193.4366829654229
 20
686.0335766453236
 42
0.0
 10
191.7823077862336
 20
686.0335766453236
 42
0.0
 10
192.1438699821453
 20
685.258204013996
 42
-0.1095178116832546
 10
193.830329815486
 20
677.6510753026626
 42
0.0
 10
193.830329815486
 20
673.2343926993886
 42
-0.0855444844067974
 10
192.4874826037878
 20
665.3653731357142
 42
0.0851285408962894
 10
191.830329815486
 20
661.5335766453236
 42
0.0
 10
191.830329815486
 20
653.4419035585195
 42
-0.1361061113099514
 10
190.330329815486
 20
648.0335766453236
 42
0.0
 10
190.330329815486
 20
648.0297251886465
 42
0.1433758286905696
 10
188.830329815486
 20
642.9062498056667
 42
0.0
 10
188.830329815486
 20
153.0335766453175
 42
0.0
 10
188.392886497857
 20
148.0335766453237
 42
0.0
 10
189.8986162541719
 20
148.0335766453237
 42
0.0
 10
190.330329815486
 20
152.9680852309553
 42
0.0
 97
        0
 75
     0
 76
     0
 52
45.0
 41
2.0
 77
     0
 78
     1
 53
45.0
 43
140.7968582757021
 44
-0.0000000000001137
 45
-1.414213562373094
 46
1.414213562373095
 79
     0
 47
0.9562972022427974
 98
        1
 10
189.7569837998753
 20
492.7680153199891
  0
LINE
  5
A14
330
1E
100
AcDbEntity
  8
BEM
100
AcDbLine
 10
0.0000000000001137
 20
455.9999999999999
 30
0.0
 11
10.00000000000011
 21
455.9999999999999
 31
0.0
  0
HATCH
  5
A61
330
1E
100
AcDbEntity
  8
SCHRAFF
100
AcDbHatch
 10
0.0
 20
0.0
 30
0.0
210
0.0
220
0.0
230
1.0
  2
HONEY
 70
     0
 71
     1
 91
        3
 92
        7
 72
     1
 73
     1
 93
        9
 10
206.7303298154859
 20
672.0335766453237
 42
0.0
 10
195.3033424262512
 20
672.0335766453236
 42
-0.0734311771838331
 10
193.9017670227051
 20
664.8655735934897
 42
0.0851285408962982
 10
193.330329815486
 20
661.5335766453238
 42
0.0
 10
193.330329815486
 20
653.4419035585196
 42
-0.1395991324168488
 10
191.5303298154863
 20
647.1205113068085
 42
0.1395991324168788
 10
190.330329815486
 20
642.906249805667
 42
0.0
 10
190.330329815486
 20
194.0335766453238
 42
0.0
 10
206.7303298154861
 20
194.0335766453238
 42
0.0
 97
        9
330
4E9
330
4E1
330
4E5
330
4E3
330
4EE
330
4EA
330
4F9
330
4F3
330
4F5
 92
        7
 72
     1
 73
     1
 93
       17
 10
137.330329815486
 20
642.9062498056671
 42
0.1395991324168579
 10
136.130329815486
 20
647.1205113068081
 42
-0.1395991324168603
 10
134.330329815486
 20
653.4419035585196
 42
0.0
 10
134.330329815486
 20
661.5335766453238
 42
0.0851285408962498
 10
133.7588926082675
 20
664.8655735934879
 42
-0.0734311771838547
 10
132.3573172047208
 20
672.0335766453238
 42
0.0
 10
120.9303298154859
 20
672.0335766453238
 42
0.0
 10
120.930329815486
 20
555.5335766453236
 42
-0.4142135623730815
 10
116.330329815486
 20
550.9335766453237
 42
0.0
 10
115.8352665698367
 20
550.9335766453237
 42
0.0
 10
115.8352665698367
 20
539.3755432906974
 42
-0.031860508697699
 10
118.312831158147
 20
539.5335766453237
 42
0.0
 10
120.0562101408372
 20
539.5335766453237
 42
-0.171572875253794
 10
129.1700308761297
 20
536.3113544231019
 42
0.0613578564019101
 10
130.830329815486
 20
535.2770989483464
 42
-0.225647641547327
 10
136.8303298154859
 20
535.8752642501425
 42
0.1474768247826991
 10
137.3303298154882
 20
537.5335766453235
 42
0.0
 97
       17
330
50B
330
50C
330
500
330
503
330
508
330
505
330
513
330
871
330
86C
330
861
330
808
330
80B
330
816
330
817
330
873
330
80F
330
4CD
 92
        7
 72
     1
 73
     1
 93
       12
 10
120.9303298154864
 20
194.0335766453238
 42
0.0
 10
137.3303298154935
 20
194.0335766453238
 42
0.0
 10
137.3303298154892
 20
478.5335766453235
 42
0.147476824782867
 10
136.830329815486
 20
480.1918890405063
 42
-0.2472105098084655
 10
130.8303298154861
 20
480.7900543423013
 42
0.0613578564018898
 10
129.1700308761303
 20
479.755798867546
 42
-0.1715728752538071
 10
120.0562101408372
 20
476.5335766453238
 42
0.0
 10
118.3128311581467
 20
476.5335766453238
 42
-0.0318605086976973
 10
115.8352665698365
 20
476.6916099999502
 42
0.0
 10
115.8352665698365
 20
465.1335766453239
 42
0.0
 10
116.3303298154862
 20
465.1335766453239
 42
-0.4142135623730879
 10
120.9303298154861
 20
460.5335766453239
 42
0.0
 97
       12
330
810
330
874
330
81A
330
81B
330
81D
330
820
330
803
330
86D
330
870
330
458
330
512
330
46D
 75
     0
 76
     1
 52
0.0
 41
30.0
 77
     0
 78
     3
 53
0.0
 43
0.0
 44
0.0
 45
5.625
 46
3.247595249999999
 79
     2
 49
3.75
 49
-7.5
 53
120.0
 43
0.0
 44
0.0
 45
-5.624999987709673
 46
3.247595271287468
 79
     2
 49
3.75
 49
-7.5
 53
60.0
 43
0.0
 44
0.0
 45
0.0000000122903263
 46
6.495190521287468
 79
     2
 49
-7.5
 49
3.75
 47
1.44082332761578
 98
        3
 10
201.1299365488244
 20
594.3396233536007
 10
130.4888354963832
 20
611.6295034849692
 10
126.1638667940547
 20
404.1509438645591
  0
ENDSEC
  0
SECTION
  2
OBJECTS
  0
DICTIONARY
  5
C
330
0
100
AcDbDictionary
281
     1
  3
ACAD_COLOR
350
11A
  3
ACAD_GROUP
350
D
  3
ACAD_LAYOUT
350
19
  3
ACAD_MATERIAL
350
119
  3
ACAD_MLINESTYLE
350
16
  3
ACAD_PLOTSETTINGS
350
18
  3
ACAD_PLOTSTYLENAME
350
E
  3
AcDbVariableDictionary
350
125
  0
DICTIONARY
  5
DB
330
1E
100
AcDbDictionary
280
     1
281
     1
  3
ACAD_LAYOUTSELFREF
360
10F
  0
DICTIONARY
  5
DD
330
1A
100
AcDbDictionary
280
     1
281
     1
  3
ACAD_LAYOUTSELFREF
360
10E
  0
DICTIONARY
  5
11A
102
{ACAD_REACTORS
330
C
102
}
330
C
100
AcDbDictionary
281
     1
  0
DICTIONARY
  5
D
102
{ACAD_REACTORS
330
C
102
}
330
C
100
AcDbDictionary
281
     1
  0
DICTIONARY
  5
19
102
{ACAD_REACTORS
330
C
102
}
330
C
100
AcDbDictionary
281
     1
  3
Layout1
350
1D
  3
Model
350
21
  0
DICTIONARY
  5
119
102
{ACAD_REACTORS
330
C
102
}
330
C
100
AcDbDictionary
281
     1
  0
DICTIONARY
  5
16
102
{ACAD_REACTORS
330
C
102
}
330
C
100
AcDbDictionary
281
     1
  3
Standard
350
17
  0
DICTIONARY
  5
18
102
{ACAD_REACTORS
330
C
102
}
330
C
100
AcDbDictionary
281
     1
  0
ACDBDICTIONARYWDFLT
  5
E
102
{ACAD_REACTORS
330
C
102
}
330
C
100
AcDbDictionary
281
     1
  3
Normal
350
F
100
AcDbDictionaryWithDefault
340
F
  0
DICTIONARY
  5
125
102
{ACAD_REACTORS
330
C
102
}
330
C
100
AcDbDictionary
281
     1
  3
DIMASSOC
350
126
  3
PROJECTNAME
350
127
  0
XRECORD
  5
10F
102
{ACAD_REACTORS
330
DB
102
}
330
DB
100
AcDbXrecord
280
     1
340
1E
  0
XRECORD
  5
10E
102
{ACAD_REACTORS
330
DD
102
}
330
DD
100
AcDbXrecord
280
     1
340
1A
  0
LAYOUT
  5
1D
102
{ACAD_REACTORS
330
19
102
}
330
19
100
AcDbPlotSettings
  1

  2
\\NT_WORK01\HP LaserJet 5000 PCL 6
  4

  6

 40
0.0
 41
0.0
 42
0.0
 43
0.0
 44
0.0
 45
0.0
 46
0.0
 47
0.0
 48
0.0
 49
0.0
140
0.0
141
0.0
142
1.0
143
1.0
 70
   688
 72
     0
 73
     0
 74
     5
  7

 75
    16
147
1.0
 76
     0
 77
     2
 78
   300
148
0.0
149
0.0
100
AcDbLayout
  1
Layout1
 70
     0
 71
     1
 10
0.0
 20
0.0
 11
12.0
 21
9.0
 12
0.0
 22
0.0
 32
0.0
 14
1.000000000000000E+20
 24
1.000000000000000E+20
 34
1.000000000000000E+20
 15
-1.000000000000000E+20
 25
-1.000000000000000E+20
 35
-1.000000000000000E+20
146
0.0
 13
0.0
 23
0.0
 33
0.0
 16
1.0
 26
0.0
 36
0.0
 17
0.0
 27
1.0
 37
0.0
 76
     0
330
1A
  0
LAYOUT
  5
21
102
{ACAD_REACTORS
330
19
102
}
330
19
100
AcDbPlotSettings
  1

  2
none_device
  4
Letter_(8.50_x_11.00_Inches)
  6

 40
6.349999904632568
 41
6.349999904632568
 42
6.350006103515625
 43
6.350006103515625
 44
215.8999938964844
 45
279.3999938964844
 46
0.0
 47
0.0
 48
0.0
 49
0.0
140
0.0
141
0.0
142
1.0
143
1.0
 70
 11952
 72
     0
 73
     1
 74
     0
  7

 75
     0
147
1.0
 76
     0
 77
     2
 78
   300
148
3250.529220921314
149
126.3291772740719
100
AcDbLayout
  1
Model
 70
     1
 71
     0
 10
0.0
 20
0.0
 11
12.0
 21
9.0
 12
0.0
 22
0.0
 32
0.0
 14
0.0
 24
0.0
 34
0.0
 15
0.0
 25
0.0
 35
0.0
146
0.0
 13
0.0
 23
0.0
 33
0.0
 16
1.0
 26
0.0
 36
0.0
 17
0.0
 27
1.0
 37
0.0
 76
     0
330
1E
  0
MLINESTYLE
  5
17
102
{ACAD_REACTORS
330
16
102
}
330
16
100
AcDbMlineStyle
  2
STANDARD
 70
     0
  3

 62
   256
 51
90.0
 52
90.0
 71
     2
 49
0.5
 62
   256
  6
BYLAYER
 49
-0.5
 62
   256
  6
BYLAYER
  0
ACDBPLACEHOLDER
  5
F
102
{ACAD_REACTORS
330
E
102
}
330
E
  0
DICTIONARYVAR
  5
126
102
{ACAD_REACTORS
330
125
102
}
330
125
100
DictionaryVariables
280
     0
  1
1
  0
DICTIONARYVAR
  5
127
102
{ACAD_REACTORS
330
125
102
}
330
125
100
DictionaryVariables
280
     0
  1

  0
ENDSEC
  0
EOF
