  0
SECTION
  2
HEADER
  9
$ACADVER
  1
AC1018
  9
$ACADMAINTVER
 70
   104
  9
$DWGCODEPAGE
  3
ANSI_1252
  9
$LASTSAVEDBY
  1
w.koehlhoff
  9
$INSBASE
 10
214.18963059078
 20
83.98788932831553
 30
0.0
  9
$EXTMIN
 10
-0.0192146320375741
 20
-0.0271749795954293
 30
-0.000000000000013
  9
$EXTMAX
 10
420.0192317462093
 20
594.0271991839242
 30
0.0000000000000023
  9
$LIMMIN
 10
0.0
 20
0.0
  9
$LIMMAX
 10
420.0
 20
594.0
  9
$ORTHOMODE
 70
     1
  9
$REGENMODE
 70
     1
  9
$FILLMODE
 70
     1
  9
$QTEXTMODE
 70
     0
  9
$MIRRTEXT
 70
     1
  9
$LTSCALE
 40
20.0
  9
$ATTMODE
 70
     1
  9
$TEXTSIZE
 40
3.5
  9
$TRACEWID
 40
1.0
  9
$TEXTSTYLE
  7
STANDARD
  9
$CLAYER
  8
SCHRAFF
  9
$CELTYPE
  6
ByLayer
  9
$CECOLOR
 62
   256
  9
$CELTSCALE
 40
1.0
  9
$DISPSILH
 70
     0
  9
$DIMSCALE
 40
2.0
  9
$DIMASZ
 40
3.5
  9
$DIMEXO
 40
1.0
  9
$DIMDLI
 40
7.0
  9
$DIMRND
 40
0.0
  9
$DIMDLE
 40
0.0
  9
$DIMEXE
 40
1.0
  9
$DIMTP
 40
0.4
  9
$DIMTM
 40
0.0
  9
$DIMTXT
 40
3.5
  9
$DIMCEN
 40
1.5
  9
$DIMTSZ
 40
0.0
  9
$DIMTOL
 70
     0
  9
$DIMLIM
 70
     0
  9
$DIMTIH
 70
     0
  9
$DIMTOH
 70
     0
  9
$DIMSE1
 70
     0
  9
$DIMSE2
 70
     0
  9
$DIMTAD
 70
     1
  9
$DIMZIN
 70
     8
  9
$DIMBLK
  1

  9
$DIMASO
 70
     1
  9
$DIMSHO
 70
     0
  9
$DIMPOST
  1

  9
$DIMAPOST
  1

  9
$DIMALT
 70
     0
  9
$DIMALTD
 70
     2
  9
$DIMALTF
 40
25.4
  9
$DIMLFAC
 40
1.0
  9
$DIMTOFL
 70
     1
  9
$DIMTVP
 40
0.5714285714285714
  9
$DIMTIX
 70
     0
  9
$DIMSOXD
 70
     0
  9
$DIMSAH
 70
     0
  9
$DIMBLK1
  1

  9
$DIMBLK2
  1

  9
$DIMSTYLE
  2
Standard
  9
$DIMCLRD
 70
     0
  9
$DIMCLRE
 70
     0
  9
$DIMCLRT
 70
     1
  9
$DIMTFAC
 40
0.5
  9
$DIMGAP
 40
1.5
  9
$DIMJUST
 70
     0
  9
$DIMSD1
 70
     0
  9
$DIMSD2
 70
     0
  9
$DIMTOLJ
 70
     1
  9
$DIMTZIN
 70
     8
  9
$DIMALTZ
 70
     8
  9
$DIMALTTZ
 70
     8
  9
$DIMUPT
 70
     0
  9
$DIMDEC
 70
     2
  9
$DIMTDEC
 70
     2
  9
$DIMALTU
 70
     2
  9
$DIMALTTD
 70
     2
  9
$DIMTXSTY
  7
STANDARD
  9
$DIMAUNIT
 70
     0
  9
$DIMADEC
 70
     2
  9
$DIMALTRND
 40
0.0
  9
$DIMAZIN
 70
     2
  9
$DIMDSEP
 70
    46
  9
$DIMATFIT
 70
     3
  9
$DIMFRAC
 70
     0
  9
$DIMLDRBLK
  1

  9
$DIMLUNIT
 70
     2
  9
$DIMLWD
 70
    -2
  9
$DIMLWE
 70
    -2
  9
$DIMTMOVE
 70
     0
  9
$LUNITS
 70
     2
  9
$LUPREC
 70
     2
  9
$SKETCHINC
 40
1.0
  9
$FILLETRAD
 40
8.0
  9
$AUNITS
 70
     0
  9
$AUPREC
 70
     0
  9
$MENU
  1
ACAD
  9
$ELEVATION
 40
0.0
  9
$PELEVATION
 40
0.0
  9
$THICKNESS
 40
0.0
  9
$LIMCHECK
 70
     0
  9
$CHAMFERA
 40
0.0
  9
$CHAMFERB
 40
0.0
  9
$CHAMFERC
 40
0.0
  9
$CHAMFERD
 40
0.0
  9
$SKPOLY
 70
     0
  9
$TDCREATE
 40
2451302.343576042
  9
$TDUCREATE
 40
2451302.260242709
  9
$TDUPDATE
 40
2456440.618021354
  9
$TDUUPDATE
 40
2456440.534688021
  9
$TDINDWG
 40
0.1215631366
  9
$TDUSRTIMER
 40
0.1215631366
  9
$USRTIMER
 70
     1
  9
$ANGBASE
 50
0.0
  9
$ANGDIR
 70
     0
  9
$PDMODE
 70
     0
  9
$PDSIZE
 40
0.0
  9
$PLINEWID
 40
0.0
  9
$SPLFRAME
 70
     0
  9
$SPLINETYPE
 70
     6
  9
$SPLINESEGS
 70
     8
  9
$HANDSEED
  5
143A
  9
$SURFTAB1
 70
     6
  9
$SURFTAB2
 70
     6
  9
$SURFTYPE
 70
     6
  9
$SURFU
 70
     6
  9
$SURFV
 70
     6
  9
$UCSBASE
  2

  9
$UCSNAME
  2

  9
$UCSORG
 10
0.0
 20
0.0
 30
0.0
  9
$UCSXDIR
 10
1.0
 20
0.0
 30
0.0
  9
$UCSYDIR
 10
0.0
 20
1.0
 30
0.0
  9
$UCSORTHOREF
  2

  9
$UCSORTHOVIEW
 70
     0
  9
$UCSORGTOP
 10
0.0
 20
0.0
 30
0.0
  9
$UCSORGBOTTOM
 10
0.0
 20
0.0
 30
0.0
  9
$UCSORGLEFT
 10
0.0
 20
0.0
 30
0.0
  9
$UCSORGRIGHT
 10
0.0
 20
0.0
 30
0.0
  9
$UCSORGFRONT
 10
0.0
 20
0.0
 30
0.0
  9
$UCSORGBACK
 10
0.0
 20
0.0
 30
0.0
  9
$PUCSBASE
  2

  9
$PUCSNAME
  2

  9
$PUCSORG
 10
0.0
 20
0.0
 30
0.0
  9
$PUCSXDIR
 10
1.0
 20
0.0
 30
0.0
  9
$PUCSYDIR
 10
0.0
 20
1.0
 30
0.0
  9
$PUCSORTHOREF
  2

  9
$PUCSORTHOVIEW
 70
     0
  9
$PUCSORGTOP
 10
0.0
 20
0.0
 30
0.0
  9
$PUCSORGBOTTOM
 10
0.0
 20
0.0
 30
0.0
  9
$PUCSORGLEFT
 10
0.0
 20
0.0
 30
0.0
  9
$PUCSORGRIGHT
 10
0.0
 20
0.0
 30
0.0
  9
$PUCSORGFRONT
 10
0.0
 20
0.0
 30
0.0
  9
$PUCSORGBACK
 10
0.0
 20
0.0
 30
0.0
  9
$USERI1
 70
     0
  9
$USERI2
 70
     0
  9
$USERI3
 70
     0
  9
$USERI4
 70
     0
  9
$USERI5
 70
     0
  9
$USERR1
 40
0.0
  9
$USERR2
 40
0.0
  9
$USERR3
 40
0.0
  9
$USERR4
 40
0.0
  9
$USERR5
 40
0.0
  9
$WORLDVIEW
 70
     1
  9
$SHADEDGE
 70
     3
  9
$SHADEDIF
 70
    70
  9
$TILEMODE
 70
     1
  9
$MAXACTVP
 70
    16
  9
$PINSBASE
 10
0.0
 20
0.0
 30
0.0
  9
$PLIMCHECK
 70
     0
  9
$PEXTMIN
 10
1.000000000000000E+20
 20
1.000000000000000E+20
 30
1.000000000000000E+20
  9
$PEXTMAX
 10
-1.000000000000000E+20
 20
-1.000000000000000E+20
 30
-1.000000000000000E+20
  9
$PLIMMIN
 10
0.0
 20
0.0
  9
$PLIMMAX
 10
12.0
 20
9.0
  9
$UNITMODE
 70
     0
  9
$VISRETAIN
 70
     0
  9
$PLINEGEN
 70
     0
  9
$PSLTSCALE
 70
     0
  9
$TREEDEPTH
 70
  3020
  9
$CMLSTYLE
  2
Standard
  9
$CMLJUST
 70
     0
  9
$CMLSCALE
 40
1.0
  9
$PROXYGRAPHICS
 70
     1
  9
$MEASUREMENT
 70
     0
  9
$CELWEIGHT
370
    -1
  9
$ENDCAPS
280
     0
  9
$JOINSTYLE
280
     0
  9
$LWDISPLAY
290
     0
  9
$INSUNITS
 70
     0
  9
$HYPERLINKBASE
  1

  9
$STYLESHEET
  1
monochrome1.ctb
  9
$XEDIT
290
     1
  9
$CEPSNTYPE
380
     0
  9
$PSTYLEMODE
290
     1
  9
$FINGERPRINTGUID
  2
{20CE268D-DD25-468F-A7A1-9FAEDB806B08}
  9
$VERSIONGUID
  2
{65652688-9738-4327-BB33-FBA971634258}
  9
$EXTNAMES
290
     1
  9
$PSVPSCALE
 40
0.0
  9
$OLESTARTUP
290
     0
  9
$SORTENTS
280
   127
  9
$INDEXCTL
280
     0
  9
$HIDETEXT
280
     1
  9
$XCLIPFRAME
290
     0
  9
$HALOGAP
280
     0
  9
$OBSCOLOR
 70
   257
  9
$OBSLTYPE
280
     0
  9
$INTERSECTIONDISPLAY
280
     0
  9
$INTERSECTIONCOLOR
 70
   257
  9
$DIMASSOC
280
     2
  9
$PROJECTNAME
  1

  0
ENDSEC
  0
SECTION
  2
CLASSES
  0
CLASS
  1
ACDBDICTIONARYWDFLT
  2
AcDbDictionaryWithDefault
  3
ObjectDBX Classes
 90
        0
 91
        1
280
     0
281
     0
  0
CLASS
  1
DIMASSOC
  2
AcDbDimAssoc
  3
"AcDbDimAssoc|Product Desc:     AcDim ARX App For Dimension|Company:          Autodesk, Inc.|WEB Address:      www.autodesk.com"
 90
        0
 91
        7
280
     0
281
     0
  0
CLASS
  1
DICTIONARYVAR
  2
AcDbDictionaryVar
  3
ObjectDBX Classes
 90
        0
 91
       11
280
     0
281
     0
  0
CLASS
  1
MATERIAL
  2
AcDbMaterial
  3
ObjectDBX Classes
 90
     1153
 91
        3
280
     0
281
     0
  0
CLASS
  1
VISUALSTYLE
  2
AcDbVisualStyle
  3
ObjectDBX Classes
 90
     4095
 91
       24
280
     0
281
     0
  0
CLASS
  1
TABLESTYLE
  2
AcDbTableStyle
  3
ObjectDBX Classes
 90
     4095
 91
        1
280
     0
281
     0
  0
CLASS
  1
SCALE
  2
AcDbScale
  3
ObjectDBX Classes
 90
     1153
 91
       17
280
     0
281
     0
  0
CLASS
  1
MLEADERSTYLE
  2
AcDbMLeaderStyle
  3
ACDB_MLEADERSTYLE_CLASS
 90
     4095
 91
        1
280
     0
281
     0
  0
CLASS
  1
ACDBSECTIONVIEWSTYLE
  2
AcDbSectionViewStyle
  3
ObjectDBX Classes
 90
     1025
 91
        1
280
     0
281
     0
  0
CLASS
  1
ACDBDETAILVIEWSTYLE
  2
AcDbDetailViewStyle
  3
ObjectDBX Classes
 90
     1025
 91
        1
280
     0
281
     0
  0
CLASS
  1
SORTENTSTABLE
  2
AcDbSortentsTable
  3
ObjectDBX Classes
 90
        0
 91
        1
280
     0
281
     0
  0
CLASS
  1
CELLSTYLEMAP
  2
AcDbCellStyleMap
  3
ObjectDBX Classes
 90
     1152
 91
        3
280
     0
281
     0
  0
ENDSEC
  0
SECTION
  2
TABLES
  0
TABLE
  2
VPORT
  5
8
102
{ACAD_XDICTIONARY
360
134D
102
}
330
0
100
AcDbSymbolTable
 70
     1
  0
VPORT
  5
1268
330
8
100
AcDbSymbolTableRecord
100
AcDbViewportTableRecord
  2
*Active
 70
     0
 10
0.0
 20
0.0
 11
1.0
 21
1.0
 12
210.0000085570859
 22
297.0000121021644
 13
0.0
 23
0.0
 14
2.5
 24
2.5
 15
10.0
 25
10.0
 16
0.0
 26
0.0
 36
1.0
 17
0.0
 27
0.0
 37
0.0
 40
598.0637400183915
 41
1.699324324324324
 42
50.0
 43
0.0
 44
0.0
 50
0.0
 51
0.0
 71
     0
 72
   500
 73
     1
 74
     0
 75
     0
 76
     0
 77
     0
 78
     0
281
     0
 65
     1
110
0.0
120
0.0
130
0.0
111
1.0
121
0.0
131
0.0
112
0.0
122
1.0
132
0.0
 79
     0
146
0.0
1001
ACAD_NAV_VCDISPLAY
1070
     3
  0
ENDTAB
  0
TABLE
  2
LTYPE
  5
5
330
0
100
AcDbSymbolTable
 70
     4
  0
LTYPE
  5
13
330
5
100
AcDbSymbolTableRecord
100
AcDbLinetypeTableRecord
  2
ByBlock
 70
     0
  3

 72
    65
 73
     0
 40
0.0
  0
LTYPE
  5
14
330
5
100
AcDbSymbolTableRecord
100
AcDbLinetypeTableRecord
  2
ByLayer
 70
     0
  3

 72
    65
 73
     0
 40
0.0
  0
LTYPE
  5
15
330
5
100
AcDbSymbolTableRecord
100
AcDbLinetypeTableRecord
  2
Continuous
 70
     0
  3
Solid line
 72
    65
 73
     0
 40
0.0
  0
LTYPE
  5
51
330
5
100
AcDbSymbolTableRecord
100
AcDbLinetypeTableRecord
  2
STRICHPUNKT
 70
     0
  3
__ . __ . __ . __ . __ . __ . __ . __ . __ . __
 72
    65
 73
     4
 40
1.0
 49
0.5
 74
     0
 49
-0.25
 74
     0
 49
0.0
 74
     0
 49
-0.25
 74
     0
  0
LTYPE
  5
12B9
330
5
100
AcDbSymbolTableRecord
100
AcDbLinetypeTableRecord
  2
PHANTOM2
 70
     0
  3
Phantom (.5x) ___ _ _ ___ _ _ ___ _ _ ___ _ _
 72
    65
 73
     6
 40
1.25
 49
0.625
 74
     0
 49
-0.125
 74
     0
 49
0.125
 74
     0
 49
-0.125
 74
     0
 49
0.125
 74
     0
 49
-0.125
 74
     0
  0
ENDTAB
  0
TABLE
  2
LAYER
  5
2
330
0
100
AcDbSymbolTable
 70
     9
  0
LAYER
  5
10
102
{ACAD_XDICTIONARY
360
133A
102
}
330
2
100
AcDbSymbolTableRecord
100
AcDbLayerTableRecord
  2
0
 70
     0
 62
     7
  6
Continuous
370
    -3
390
F
  0
LAYER
  5
54
102
{ACAD_XDICTIONARY
360
133C
102
}
330
2
100
AcDbSymbolTableRecord
100
AcDbLayerTableRecord
  2
VOLL
 70
     0
 62
     1
  6
Continuous
370
    -3
390
F
  0
LAYER
  5
55
102
{ACAD_XDICTIONARY
360
133E
102
}
330
2
100
AcDbSymbolTableRecord
100
AcDbLayerTableRecord
  2
MITTEL
 70
     0
 62
     2
  6
STRICHPUNKT
370
    -3
390
F
  0
LAYER
  5
56
102
{ACAD_XDICTIONARY
360
1340
102
}
330
2
100
AcDbSymbolTableRecord
100
AcDbLayerTableRecord
  2
BEM
 70
     0
 62
     7
  6
Continuous
370
    -3
390
F
  0
LAYER
  5
57
102
{ACAD_XDICTIONARY
360
1342
102
}
330
2
100
AcDbSymbolTableRecord
100
AcDbLayerTableRecord
  2
HILF
 70
     0
 62
     2
  6
Continuous
370
    -3
390
F
  0
LAYER
  5
58
102
{ACAD_XDICTIONARY
360
1344
102
}
330
2
100
AcDbSymbolTableRecord
100
AcDbLayerTableRecord
  2
SCHRAFF
 70
     0
 62
     7
  6
Continuous
370
    -3
390
F
  0
LAYER
  5
59
102
{ACAD_XDICTIONARY
360
1346
102
}
330
2
100
AcDbSymbolTableRecord
100
AcDbLayerTableRecord
  2
STEMPEL
 70
     0
 62
     3
  6
Continuous
370
    -3
390
F
  0
LAYER
  5
5A
102
{ACAD_XDICTIONARY
360
1348
102
}
330
2
100
AcDbSymbolTableRecord
100
AcDbLayerTableRecord
  2
TEXT
 70
     0
 62
     7
  6
Continuous
370
    -3
390
F
  0
LAYER
  5
5B
330
2
100
AcDbSymbolTableRecord
100
AcDbLayerTableRecord
  2
DEFPOINTS
 70
     0
 62
     7
  6
Continuous
290
     0
370
    -3
390
F
  0
ENDTAB
  0
TABLE
  2
STYLE
  5
3
330
0
100
AcDbSymbolTable
 70
     3
  0
STYLE
  5
11
330
3
100
AcDbSymbolTableRecord
100
AcDbTextStyleTableRecord
  2
STANDARD
 70
     0
 40
0.0
 41
0.8
 50
0.0
 71
     0
 42
3.5
  3
simplex.shx
  4

  0
STYLE
  5
50
330
3
100
AcDbSymbolTableRecord
100
AcDbTextStyleTableRecord
  2
GREEKS
 70
     0
 40
0.0
 41
0.8
 50
0.0
 71
     0
 42
1.8
  3
SIMPLEX.shx
  4

  0
ENDTAB
  0
TABLE
  2
VIEW
  5
6
330
0
100
AcDbSymbolTable
 70
     0
  0
ENDTAB
  0
TABLE
  2
UCS
  5
7
330
0
100
AcDbSymbolTable
 70
     0
  0
ENDTAB
  0
TABLE
  2
APPID
  5
9
330
0
100
AcDbSymbolTable
 70
     6
  0
APPID
  5
12
330
9
100
AcDbSymbolTableRecord
100
AcDbRegAppTableRecord
  2
ACAD
 70
     0
  0
APPID
  5
12CA
330
9
100
AcDbSymbolTableRecord
100
AcDbRegAppTableRecord
  2
ACAD_EXEMPT_FROM_CAD_STANDARDS
 70
     0
  0
APPID
  5
12CB
330
9
100
AcDbSymbolTableRecord
100
AcDbRegAppTableRecord
  2
ACAD_NAV_VCDISPLAY
 70
     0
  0
APPID
  5
12CC
330
9
100
AcDbSymbolTableRecord
100
AcDbRegAppTableRecord
  2
ACAD_MLEADERVER
 70
     0
  0
APPID
  5
12F5
330
9
100
AcDbSymbolTableRecord
100
AcDbRegAppTableRecord
  2
GradientColor1ACI
 70
     0
  0
APPID
  5
12F6
330
9
100
AcDbSymbolTableRecord
100
AcDbRegAppTableRecord
  2
GradientColor2ACI
 70
     0
  0
ENDTAB
  0
TABLE
  2
DIMSTYLE
  5
A
330
0
100
AcDbSymbolTable
 70
     2
100
AcDbDimStyleTable
 71
     1
340
5AE
  0
DIMSTYLE
105
5AE
102
{ACAD_REACTORS
330
D3E
330
ECB
330
EFF
330
F2B
330
F5F
102
}
330
A
100
AcDbSymbolTableRecord
100
AcDbDimStyleTableRecord
  2
Standard
 70
     0
340
11
  0
ENDTAB
  0
TABLE
  2
BLOCK_RECORD
  5
1
330
0
100
AcDbSymbolTable
 70
    12
  0
BLOCK_RECORD
  5
20
102
{ACAD_XDICTIONARY
360
12DE
102
}
330
1
100
AcDbSymbolTableRecord
100
AcDbBlockTableRecord
  2
*Model_Space
340
23
  0
BLOCK_RECORD
  5
1C
330
1
100
AcDbSymbolTableRecord
100
AcDbBlockTableRecord
  2
*Paper_Space
340
1F
  0
BLOCK_RECORD
  5
24
330
1
100
AcDbSymbolTableRecord
100
AcDbBlockTableRecord
  2
LOGO
340
0
102
{BLKREFS
331
4A3
102
}
  0
BLOCK_RECORD
  5
D93
330
1
100
AcDbSymbolTableRecord
100
AcDbBlockTableRecord
  2
*D1
340
0
  0
BLOCK_RECORD
  5
ECC
330
1
100
AcDbSymbolTableRecord
100
AcDbBlockTableRecord
  2
*D4
340
0
  0
BLOCK_RECORD
  5
F00
330
1
100
AcDbSymbolTableRecord
100
AcDbBlockTableRecord
  2
*D5
340
0
  0
BLOCK_RECORD
  5
F2C
330
1
100
AcDbSymbolTableRecord
100
AcDbBlockTableRecord
  2
*D6
340
0
  0
BLOCK_RECORD
  5
F60
330
1
100
AcDbSymbolTableRecord
100
AcDbBlockTableRecord
  2
*D8
340
0
  0
ENDTAB
  0
ENDSEC
  0
SECTION
  2
BLOCKS
  0
BLOCK
  5
5F
330
20
100
AcDbEntity
  8
0
100
AcDbBlockBegin
  2
*Model_Space
 70
     0
 10
0.0
 20
0.0
 30
0.0
  3
*Model_Space
  1

  0
ENDBLK
  5
60
330
20
100
AcDbEntity
  8
0
100
AcDbBlockEnd
  0
BLOCK
  5
5D
330
1C
100
AcDbEntity
 67
     1
  8
0
100
AcDbBlockBegin
  2
*Paper_Space
 70
     0
 10
0.0
 20
0.0
 30
0.0
  3
*Paper_Space
  1

  0
ENDBLK
  5
5E
330
1C
100
AcDbEntity
 67
     1
  8
0
100
AcDbBlockEnd
  0
BLOCK
  5
61
330
24
100
AcDbEntity
  8
0
100
AcDbBlockBegin
  2
LOGO
 70
     0
 10
0.0
 20
0.0
 30
0.0
  3
LOGO
  1

  0
ARC
  5
62
330
24
100
AcDbEntity
  8
0
100
AcDbCircle
 10
11.59973089678112
 20
-9.271599258481501
 30
0.0
 40
4.5
100
AcDbArc
 50
270.0
 51
231.0575587310159
  0
LINE
  5
63
330
24
100
AcDbEntity
  8
0
100
AcDbLine
 10
3.599730896781125
 20
-4.771599258481529
 30
0.0
 11
3.599730896781153
 21
-11.77159925848133
 31
0.0
  0
LINE
  5
64
330
24
100
AcDbEntity
  8
0
100
AcDbLine
 10
2.599730896781125
 20
-4.771599258481529
 30
0.0
 11
2.599730896781153
 21
-11.77159925848133
 31
0.0
  0
CIRCLE
  5
65
330
24
100
AcDbEntity
  8
0
100
AcDbCircle
 10
11.59973089678112
 20
-9.271599258481501
 30
0.0
 40
3.5
  0
ARC
  5
66
330
24
100
AcDbEntity
  8
0
100
AcDbCircle
 10
31.59973089678115
 20
-9.271599258481472
 30
0.0
 40
4.5
100
AcDbArc
 50
270.0
 51
231.0575587310182
  0
LINE
  5
67
330
24
100
AcDbEntity
  8
0
100
AcDbLine
 10
17.59973089678112
 20
-4.771599258481472
 30
0.0
 11
17.59973089678115
 21
-13.77159925848147
 31
0.0
  0
ARC
  5
68
330
24
100
AcDbEntity
  8
0
100
AcDbCircle
 10
22.59973089678116
 20
-7.271599258481472
 30
0.0
 40
2.5
100
AcDbArc
 50
293.1161887722295
 51
90.0
  0
CIRCLE
  5
69
330
24
100
AcDbEntity
  8
0
100
AcDbCircle
 10
31.59973089678115
 20
-9.271599258481472
 30
0.0
 40
3.5
  0
ARC
  5
6A
330
24
100
AcDbEntity
  8
0
100
AcDbCircle
 10
4.599730896781153
 20
-11.77159925848133
 30
0.0
 40
1.0
100
AcDbArc
 50
180.0
 51
270.0
  0
ARC
  5
6B
330
24
100
AcDbEntity
  8
0
100
AcDbCircle
 10
4.599730896781153
 20
-11.77159925848133
 30
0.0
 40
2.0
100
AcDbArc
 50
179.9999999999992
 51
270.0
  0
LINE
  5
6C
330
24
100
AcDbEntity
  8
0
100
AcDbLine
 10
11.59973089678115
 20
-13.77159925848144
 30
0.0
 11
4.599730896781153
 21
-13.77159925848147
 31
0.0
  0
LINE
  5
6D
330
24
100
AcDbEntity
  8
0
100
AcDbLine
 10
8.771303772034769
 20
-12.77159925848136
 30
0.0
 11
4.599730896781153
 21
-12.77159925848133
 31
0.0
  0
LINE
  5
6E
330
24
100
AcDbEntity
  8
0
100
AcDbLine
 10
31.59973089678115
 20
-13.77159925848147
 30
0.0
 11
23.6715276665056
 21
-13.77159925848144
 31
0.0
  0
LINE
  5
6F
330
24
100
AcDbEntity
  8
0
100
AcDbLine
 10
23.56565672307022
 20
-9.51278021337896
 30
0.0
 11
24.4388546544846
 21
-12.77159925848144
 31
0.0
  0
LINE
  5
70
330
24
100
AcDbEntity
  8
0
100
AcDbLine
 10
22.59973089678116
 20
-9.771599258481472
 30
0.0
 11
18.59973089678112
 21
-9.771599258481472
 31
0.0
  0
LINE
  5
71
330
24
100
AcDbEntity
  8
0
100
AcDbLine
 10
18.59973089678115
 20
-13.77159925848144
 30
0.0
 11
17.59973089678115
 21
-13.77159925848144
 31
0.0
  0
LINE
  5
72
330
24
100
AcDbEntity
  8
0
100
AcDbLine
 10
18.59973089678115
 20
-9.771599258481472
 30
0.0
 11
18.59973089678115
 21
-13.77159925848144
 31
0.0
  0
LINE
  5
73
330
24
100
AcDbEntity
  8
0
100
AcDbLine
 10
22.59973089678116
 20
-9.771599258481472
 30
0.0
 11
23.67152766650562
 21
-13.77159925848147
 31
0.0
  0
ARC
  5
74
330
24
100
AcDbEntity
  8
0
100
AcDbCircle
 10
22.59973089678116
 20
-7.271599258481472
 30
0.0
 40
2.5
100
AcDbArc
 50
270.0
 51
270.0000000000007
  0
LINE
  5
75
330
24
100
AcDbEntity
  8
0
100
AcDbLine
 10
28.77130377203494
 20
-12.77159925848147
 30
0.0
 11
24.43885465448463
 21
-12.77159925848144
 31
0.0
  0
LINE
  5
76
330
24
100
AcDbEntity
  8
0
100
AcDbLine
 10
3.599730896781125
 20
-4.771599258481472
 30
0.0
 11
2.599730896781125
 21
-4.771599258481472
 31
0.0
  0
LINE
  5
77
330
24
100
AcDbEntity
  8
0
100
AcDbLine
 10
22.59973089678116
 20
-8.771599258481472
 30
0.0
 11
18.59973089678115
 21
-8.771599258481472
 31
0.0
  0
LINE
  5
78
330
24
100
AcDbEntity
  8
0
100
AcDbLine
 10
22.59973089678116
 20
-5.771599258481472
 30
0.0
 11
18.59973089678115
 21
-5.771599258481472
 31
0.0
  0
LINE
  5
79
330
24
100
AcDbEntity
  8
0
100
AcDbLine
 10
22.59973089678116
 20
-4.771599258481472
 30
0.0
 11
17.59973089678115
 21
-4.771599258481472
 31
0.0
  0
LINE
  5
7A
330
24
100
AcDbEntity
  8
0
100
AcDbLine
 10
18.59973089678115
 20
-5.771599258481472
 30
0.0
 11
18.59973089678115
 21
-8.771599258481472
 31
0.0
  0
ARC
  5
7B
330
24
100
AcDbEntity
  8
0
100
AcDbCircle
 10
22.59973089678116
 20
-7.271599258481472
 30
0.0
 40
1.5
100
AcDbArc
 50
270.0
 51
90.0
  0
ENDBLK
  5
7C
330
24
100
AcDbEntity
  8
0
100
AcDbBlockEnd
  0
BLOCK
  5
D9D
330
D93
100
AcDbEntity
  8
0
100
AcDbBlockBegin
  2
*D1
 70
     1
 10
0.0
 20
0.0
 30
0.0
  3
*D1
  1

  0
LINE
  5
1138
330
D93
100
AcDbEntity
  8
BEM
 62
     0
440
 16777216
370
    -2
100
AcDbLine
 10
203.4183611398655
 20
232.3571713784968
 30
0.0
 11
203.4183611398655
 21
203.8080375872565
 31
0.0
  0
LINE
  5
1139
330
D93
100
AcDbEntity
  8
BEM
 62
     0
440
 16777216
370
    -2
100
AcDbLine
 10
256.4183611398655
 20
232.3571713784969
 30
0.0
 11
256.4183611398655
 21
203.8080375872565
 31
0.0
  0
LINE
  5
113A
330
D93
100
AcDbEntity
  8
BEM
 62
     0
440
 16777216
370
    -2
100
AcDbLine
 10
210.4183611398655
 20
205.8080375872565
 30
0.0
 11
249.4183611398655
 21
205.8080375872565
 31
0.0
  0
SOLID
  5
113B
330
D93
100
AcDbEntity
  8
BEM
 62
     0
440
 16777216
100
AcDbTrace
 10
210.4183611398655
 20
206.9747042539232
 30
0.0
 11
210.4183611398655
 21
204.6413709205899
 31
0.0
 12
203.4183611398655
 22
205.8080375872565
 32
0.0
 13
203.4183611398655
 23
205.8080375872565
 33
0.0
  0
SOLID
  5
113C
330
D93
100
AcDbEntity
  8
BEM
 62
     0
440
 16777216
100
AcDbTrace
 10
249.4183611398655
 20
206.9747042539232
 30
0.0
 11
249.4183611398655
 21
204.6413709205899
 31
0.0
 12
256.4183611398655
 22
205.8080375872565
 32
0.0
 13
256.4183611398655
 23
205.8080375872565
 33
0.0
  0
MTEXT
  5
113D
330
D93
100
AcDbEntity
  8
BEM
 62
     1
440
 16777216
100
AcDbMText
 10
229.9183611398655
 20
212.3080375872565
 30
0.0
 40
7.0
 41
0.0
 71
     5
 72
     1
  1
\A1;%%c53
 73
     1
 44
1.0
  0
POINT
  5
113E
330
D93
100
AcDbEntity
  8
DEFPOINTS
 62
     0
440
 16777216
100
AcDbPoint
 10
203.4183611398655
 20
234.3571713784968
 30
0.0
  0
POINT
  5
113F
330
D93
100
AcDbEntity
  8
DEFPOINTS
 62
     0
440
 16777216
100
AcDbPoint
 10
256.4183611398655
 20
234.3571713784969
 30
0.0
  0
POINT
  5
1140
330
D93
100
AcDbEntity
  8
DEFPOINTS
 62
     0
440
 16777216
100
AcDbPoint
 10
256.4183611398655
 20
205.8080375872565
 30
0.0
  0
ENDBLK
  5
D9E
330
D93
100
AcDbEntity
  8
0
100
AcDbBlockEnd
  0
BLOCK
  5
ED6
330
ECC
100
AcDbEntity
  8
0
100
AcDbBlockBegin
  2
*D4
 70
     1
 10
0.0
 20
0.0
 30
0.0
  3
*D4
  1

  0
LINE
  5
13AA
330
ECC
100
AcDbEntity
  8
BEM
 62
     0
440
 16777216
370
    -2
100
AcDbLine
 10
183.4183611398656
 20
257.4226627928595
 30
0.0
 11
159.3593638994699
 21
257.4226627928595
 31
0.0
  0
LINE
  5
13AB
330
ECC
100
AcDbEntity
  8
BEM
 62
     0
440
 16777216
370
    -2
100
AcDbLine
 10
202.025052028232
 20
227.4226627928594
 30
0.0
 11
159.3593638994699
 21
227.4226627928594
 31
0.0
  0
LINE
  5
13AC
330
ECC
100
AcDbEntity
  8
BEM
 62
     0
440
 16777216
370
    -2
100
AcDbLine
 10
161.3593638994699
 20
250.4226627928595
 30
0.0
 11
161.3593638994699
 21
234.4226627928595
 31
0.0
  0
SOLID
  5
13AD
330
ECC
100
AcDbEntity
  8
BEM
 62
     0
440
 16777216
100
AcDbTrace
 10
160.1926972328033
 20
250.4226627928595
 30
0.0
 11
162.5260305661366
 21
250.4226627928595
 31
0.0
 12
161.3593638994699
 22
257.4226627928595
 32
0.0
 13
161.3593638994699
 23
257.4226627928595
 33
0.0
  0
SOLID
  5
13AE
330
ECC
100
AcDbEntity
  8
BEM
 62
     0
440
 16777216
100
AcDbTrace
 10
160.1926972328033
 20
234.4226627928595
 30
0.0
 11
162.5260305661366
 21
234.4226627928595
 31
0.0
 12
161.3593638994699
 22
227.4226627928594
 32
0.0
 13
161.3593638994699
 23
227.4226627928594
 33
0.0
  0
MTEXT
  5
13AF
330
ECC
100
AcDbEntity
  8
BEM
 62
     1
440
 16777216
100
AcDbMText
 10
154.8593638994699
 20
242.4226627928595
 30
0.0
 40
7.0
 41
0.0
 71
     5
 72
     1
  1
\A1;30
 11
0.0000000000000001
 21
1.0
 31
0.0
 73
     1
 44
1.0
  0
POINT
  5
13B0
330
ECC
100
AcDbEntity
  8
DEFPOINTS
 62
     0
440
 16777216
100
AcDbPoint
 10
185.4183611398656
 20
257.4226627928595
 30
0.0
  0
POINT
  5
13B1
330
ECC
100
AcDbEntity
  8
DEFPOINTS
 62
     0
440
 16777216
100
AcDbPoint
 10
204.025052028232
 20
227.4226627928594
 30
0.0
  0
POINT
  5
13B2
330
ECC
100
AcDbEntity
  8
DEFPOINTS
 62
     0
440
 16777216
100
AcDbPoint
 10
161.3593638994699
 20
227.4226627928594
 30
0.0
  0
ENDBLK
  5
ED7
330
ECC
100
AcDbEntity
  8
0
100
AcDbBlockEnd
  0
BLOCK
  5
F0A
330
F00
100
AcDbEntity
  8
0
100
AcDbBlockBegin
  2
*D5
 70
     1
 10
0.0
 20
0.0
 30
0.0
  3
*D5
  1

  0
LINE
  5
138F
330
F00
100
AcDbEntity
  8
BEM
 62
     0
440
 16777216
370
    -2
100
AcDbLine
 10
178.9183611398654
 20
534.4226627928594
 30
0.0
 11
178.9183611398654
 21
548.9956934346984
 31
0.0
  0
LINE
  5
1390
330
F00
100
AcDbEntity
  8
BEM
 62
     0
440
 16777216
370
    -2
100
AcDbLine
 10
280.9183611398652
 20
534.4226627928594
 30
0.0
 11
280.9183611398652
 21
548.9956934346984
 31
0.0
  0
LINE
  5
1391
330
F00
100
AcDbEntity
  8
BEM
 62
     0
440
 16777216
370
    -2
100
AcDbLine
 10
185.9183611398654
 20
546.9956934346985
 30
0.0
 11
273.9183611398652
 21
546.9956934346985
 31
0.0
  0
SOLID
  5
1392
330
F00
100
AcDbEntity
  8
BEM
 62
     0
440
 16777216
100
AcDbTrace
 10
185.9183611398654
 20
548.1623601013651
 30
0.0
 11
185.9183611398654
 21
545.8290267680318
 31
0.0
 12
178.9183611398654
 22
546.9956934346985
 32
0.0
 13
178.9183611398654
 23
546.9956934346985
 33
0.0
  0
SOLID
  5
1393
330
F00
100
AcDbEntity
  8
BEM
 62
     0
440
 16777216
100
AcDbTrace
 10
273.9183611398652
 20
548.1623601013651
 30
0.0
 11
273.9183611398652
 21
545.8290267680318
 31
0.0
 12
280.9183611398652
 22
546.9956934346985
 32
0.0
 13
280.9183611398652
 23
546.9956934346985
 33
0.0
  0
MTEXT
  5
1394
330
F00
100
AcDbEntity
  8
BEM
 62
     1
440
 16777216
100
AcDbMText
 10
229.9183611398653
 20
553.4956934346985
 30
0.0
 40
7.0
 41
0.0
 71
     5
 72
     1
  1
\A1;%%c102
 73
     1
 44
1.0
  0
POINT
  5
1395
330
F00
100
AcDbEntity
  8
DEFPOINTS
 62
     0
440
 16777216
100
AcDbPoint
 10
178.9183611398654
 20
532.4226627928594
 30
0.0
  0
POINT
  5
1396
330
F00
100
AcDbEntity
  8
DEFPOINTS
 62
     0
440
 16777216
100
AcDbPoint
 10
280.9183611398652
 20
532.4226627928594
 30
0.0
  0
POINT
  5
1397
330
F00
100
AcDbEntity
  8
DEFPOINTS
 62
     0
440
 16777216
100
AcDbPoint
 10
280.9183611398652
 20
546.9956934346985
 30
0.0
  0
ENDBLK
  5
F0B
330
F00
100
AcDbEntity
  8
0
100
AcDbBlockEnd
  0
BLOCK
  5
F36
330
F2C
100
AcDbEntity
  8
0
100
AcDbBlockBegin
  2
*D6
 70
     1
 10
0.0
 20
0.0
 30
0.0
  3
*D6
  1

  0
LINE
  5
13B3
330
F2C
100
AcDbEntity
  8
BEM
 62
     0
440
 16777216
370
    -2
100
AcDbLine
 10
176.9183611398656
 20
532.4226627928594
 30
0.0
 11
144.1709764226348
 21
532.4226627928594
 31
0.0
  0
LINE
  5
13B4
330
F2C
100
AcDbEntity
  8
BEM
 62
     0
440
 16777216
370
    -2
100
AcDbLine
 10
202.025052028232
 20
227.4226627928594
 30
0.0
 11
144.1709764226348
 21
227.4226627928594
 31
0.0
  0
LINE
  5
13B5
330
F2C
100
AcDbEntity
  8
BEM
 62
     0
440
 16777216
370
    -2
100
AcDbLine
 10
146.1709764226348
 20
525.4226627928594
 30
0.0
 11
146.1709764226348
 21
234.4226627928595
 31
0.0
  0
SOLID
  5
13B6
330
F2C
100
AcDbEntity
  8
BEM
 62
     0
440
 16777216
100
AcDbTrace
 10
145.0043097559682
 20
525.4226627928594
 30
0.0
 11
147.3376430893015
 21
525.4226627928594
 31
0.0
 12
146.1709764226348
 22
532.4226627928594
 32
0.0
 13
146.1709764226348
 23
532.4226627928594
 33
0.0
  0
SOLID
  5
13B7
330
F2C
100
AcDbEntity
  8
BEM
 62
     0
440
 16777216
100
AcDbTrace
 10
145.0043097559681
 20
234.4226627928595
 30
0.0
 11
147.3376430893014
 21
234.4226627928595
 31
0.0
 12
146.1709764226348
 22
227.4226627928594
 32
0.0
 13
146.1709764226348
 23
227.4226627928594
 33
0.0
  0
MTEXT
  5
13B8
330
F2C
100
AcDbEntity
  8
BEM
 62
     1
440
 16777216
100
AcDbMText
 10
139.6709764226347
 20
379.9226627928594
 30
0.0
 40
7.0
 41
0.0
 71
     5
 72
     1
  1
\A1;305
 11
0.0000000000000001
 21
1.0
 31
0.0
 73
     1
 44
1.0
  0
POINT
  5
13B9
330
F2C
100
AcDbEntity
  8
DEFPOINTS
 62
     0
440
 16777216
100
AcDbPoint
 10
178.9183611398656
 20
532.4226627928594
 30
0.0
  0
POINT
  5
13BA
330
F2C
100
AcDbEntity
  8
DEFPOINTS
 62
     0
440
 16777216
100
AcDbPoint
 10
204.025052028232
 20
227.4226627928594
 30
0.0
  0
POINT
  5
13BB
330
F2C
100
AcDbEntity
  8
DEFPOINTS
 62
     0
440
 16777216
100
AcDbPoint
 10
146.1709764226348
 20
227.4226627928594
 30
0.0
  0
ENDBLK
  5
F37
330
F2C
100
AcDbEntity
  8
0
100
AcDbBlockEnd
  0
BLOCK
  5
F6A
330
F60
100
AcDbEntity
  8
0
100
AcDbBlockBegin
  2
*D8
 70
     1
 10
0.0
 20
0.0
 30
0.0
  3
*D8
  1

  0
LINE
  5
11A1
330
F60
100
AcDbEntity
  8
BEM
 62
     0
440
 16777216
370
    -2
100
AcDbLine
 10
185.4183611398654
 20
253.4226627928596
 30
0.0
 11
185.4183611398654
 21
185.4895772661743
 31
0.0
  0
LINE
  5
11A2
330
F60
100
AcDbEntity
  8
BEM
 62
     0
440
 16777216
370
    -2
100
AcDbLine
 10
274.4183611398654
 20
253.4226627928596
 30
0.0
 11
274.4183611398654
 21
185.4895772661743
 31
0.0
  0
LINE
  5
11A3
330
F60
100
AcDbEntity
  8
BEM
 62
     0
440
 16777216
370
    -2
100
AcDbLine
 10
192.4183611398654
 20
187.4895772661743
 30
0.0
 11
267.4183611398654
 21
187.4895772661743
 31
0.0
  0
SOLID
  5
11A4
330
F60
100
AcDbEntity
  8
BEM
 62
     0
440
 16777216
100
AcDbTrace
 10
192.4183611398654
 20
188.656243932841
 30
0.0
 11
192.4183611398654
 21
186.3229105995077
 31
0.0
 12
185.4183611398654
 22
187.4895772661743
 32
0.0
 13
185.4183611398654
 23
187.4895772661743
 33
0.0
  0
SOLID
  5
11A5
330
F60
100
AcDbEntity
  8
BEM
 62
     0
440
 16777216
100
AcDbTrace
 10
267.4183611398654
 20
188.656243932841
 30
0.0
 11
267.4183611398654
 21
186.3229105995077
 31
0.0
 12
274.4183611398654
 22
187.4895772661743
 32
0.0
 13
274.4183611398654
 23
187.4895772661743
 33
0.0
  0
MTEXT
  5
11A6
330
F60
100
AcDbEntity
  8
BEM
 62
     1
440
 16777216
100
AcDbMText
 10
229.9183611398654
 20
193.9895772661743
 30
0.0
 40
7.0
 41
0.0
 71
     5
 72
     1
  1
\A1;%%c89
 73
     1
 44
1.0
  0
POINT
  5
11A7
330
F60
100
AcDbEntity
  8
DEFPOINTS
 62
     0
440
 16777216
100
AcDbPoint
 10
185.4183611398654
 20
255.4226627928596
 30
0.0
  0
POINT
  5
11A8
330
F60
100
AcDbEntity
  8
DEFPOINTS
 62
     0
440
 16777216
100
AcDbPoint
 10
274.4183611398654
 20
255.4226627928596
 30
0.0
  0
POINT
  5
11A9
330
F60
100
AcDbEntity
  8
DEFPOINTS
 62
     0
440
 16777216
100
AcDbPoint
 10
274.4183611398654
 20
187.4895772661743
 30
0.0
  0
ENDBLK
  5
F6B
330
F60
100
AcDbEntity
  8
0
100
AcDbBlockEnd
  0
ENDSEC
  0
SECTION
  2
ENTITIES
  0
TEXT
  5
467
330
20
100
AcDbEntity
  8
TEXT
 62
     1
100
AcDbText
 10
234.9791173409949
 20
86.99412083985322
 30
0.0
 40
7.0
  1
Verbundrohr
 41
0.8
  7
GREEKS
100
AcDbText
  0
LINE
  5
468
330
20
100
AcDbEntity
  8
STEMPEL
100
AcDbLine
 10
410.0
 20
110.0
 30
0.0
 11
49.99999999999989
 21
110.0
 31
0.0
  0
LINE
  5
469
330
20
100
AcDbEntity
  8
STEMPEL
100
AcDbLine
 10
50.00000000000063
 20
584.0
 30
0.0
 11
49.99999999999971
 21
10.0
 31
0.0
  0
LINE
  5
46A
330
20
100
AcDbEntity
  8
STEMPEL
100
AcDbLine
 10
146.0
 20
109.9999999999999
 30
0.0
 11
145.9999999999998
 21
9.999999999999886
 31
0.0
  0
LINE
  5
46B
330
20
100
AcDbEntity
  8
STEMPEL
100
AcDbLine
 10
229.9999999999998
 20
110.0
 30
0.0
 11
229.9999999999998
 21
10.0
 31
0.0
  0
LINE
  5
46C
330
20
100
AcDbEntity
  8
STEMPEL
100
AcDbLine
 10
332.0
 20
109.9999999999996
 30
0.0
 11
332.0
 21
40.0
 31
0.0
  0
LINE
  5
46D
330
20
100
AcDbEntity
  8
STEMPEL
100
AcDbLine
 10
145.9999999999998
 20
30.0
 30
0.0
 11
49.99999999999977
 21
30.0
 31
0.0
  0
LINE
  5
46E
330
20
100
AcDbEntity
  8
STEMPEL
100
AcDbLine
 10
410.0
 20
40.0
 30
0.0
 11
145.9999999999998
 21
40.0
 31
0.0
  0
LINE
  5
46F
330
20
100
AcDbEntity
  8
STEMPEL
100
AcDbLine
 10
410.0
 20
80.0
 30
0.0
 11
146.0
 21
80.0
 31
0.0
  0
LINE
  5
470
330
20
100
AcDbEntity
  8
VOLL
100
AcDbLine
 10
63.99999999999988
 20
110.0
 30
0.0
 11
63.99999999999977
 21
10.0
 31
0.0
  0
LINE
  5
471
330
20
100
AcDbEntity
  8
VOLL
100
AcDbLine
 10
104.0
 20
109.9999999999999
 30
0.0
 11
103.9999999999998
 21
9.999999999999943
 31
0.0
  0
LINE
  5
472
330
20
100
AcDbEntity
  8
VOLL
100
AcDbLine
 10
124.0
 20
109.9999999999999
 30
0.0
 11
123.9999999999997
 21
9.999999999999886
 31
0.0
  0
LINE
  5
473
330
20
100
AcDbEntity
  8
VOLL
100
AcDbLine
 10
164.0
 20
80.0
 30
0.0
 11
164.0
 21
40.0
 31
0.0
  0
LINE
  5
474
330
20
100
AcDbEntity
  8
VOLL
100
AcDbLine
 10
190.0
 20
109.9999999999998
 30
0.0
 11
189.9999999999997
 21
40.0
 31
0.0
  0
LINE
  5
475
330
20
100
AcDbEntity
  8
HILF
100
AcDbLine
 10
49.99999999999989
 20
100.0
 30
0.0
 11
146.0
 21
100.0
 31
0.0
  0
LINE
  5
476
330
20
100
AcDbEntity
  8
HILF
100
AcDbLine
 10
49.99999999999989
 20
90.0
 30
0.0
 11
146.0
 21
90.0
 31
0.0
  0
LINE
  5
477
330
20
100
AcDbEntity
  8
HILF
100
AcDbLine
 10
49.99999999999989
 20
80.0
 30
0.0
 11
146.0
 21
80.0
 31
0.0
  0
LINE
  5
478
330
20
100
AcDbEntity
  8
HILF
100
AcDbLine
 10
49.99999999999989
 20
70.0
 30
0.0
 11
146.0
 21
70.0
 31
0.0
  0
LINE
  5
479
330
20
100
AcDbEntity
  8
HILF
100
AcDbLine
 10
49.99999999999989
 20
60.0
 30
0.0
 11
146.0
 21
60.0
 31
0.0
  0
LINE
  5
47A
330
20
100
AcDbEntity
  8
HILF
100
AcDbLine
 10
49.99999999999989
 20
50.0
 30
0.0
 11
146.0
 21
50.0
 31
0.0
  0
LINE
  5
47B
330
20
100
AcDbEntity
  8
HILF
100
AcDbLine
 10
49.99999999999989
 20
40.0
 30
0.0
 11
146.0
 21
40.0
 31
0.0
  0
LINE
  5
47C
330
20
100
AcDbEntity
  8
HILF
100
AcDbLine
 10
146.0
 20
70.0
 30
0.0
 11
229.9999999999998
 21
70.0
 31
0.0
  0
LINE
  5
47D
330
20
100
AcDbEntity
  8
HILF
100
AcDbLine
 10
146.0
 20
60.0
 30
0.0
 11
229.9999999999998
 21
60.0
 31
0.0
  0
LINE
  5
47E
330
20
100
AcDbEntity
  8
HILF
100
AcDbLine
 10
146.0
 20
50.0
 30
0.0
 11
229.9999999999998
 21
50.0
 31
0.0
  0
LINE
  5
47F
330
20
100
AcDbEntity
  8
HILF
100
AcDbLine
 10
234.7736801096946
 20
84.03758247564132
 30
0.0
 11
326.629784251481
 21
84.03758247564132
 31
0.0
  0
LINE
  5
480
330
20
100
AcDbEntity
  8
HILF
100
AcDbLine
 10
234.7736801096946
 20
70.0
 30
0.0
 11
326.629784251481
 21
70.0
 31
0.0
  0
LINE
  5
481
330
20
100
AcDbEntity
  8
HILF
100
AcDbLine
 10
234.7736801096946
 20
60.0
 30
0.0
 11
326.629784251481
 21
60.0
 31
0.0
  0
LINE
  5
482
330
20
100
AcDbEntity
  8
HILF
100
AcDbLine
 10
234.7736801096946
 20
50.0
 30
0.0
 11
326.629784251481
 21
50.0
 31
0.0
  0
LINE
  5
483
330
20
100
AcDbEntity
  8
VOLL
100
AcDbLine
 10
332.0
 20
60.0
 30
0.0
 11
410.0
 21
60.0
 31
0.0
  0
LINE
  5
484
330
20
100
AcDbEntity
  8
HILF
100
AcDbLine
 10
336.7238616296993
 20
83.77983636955821
 30
0.0
 11
404.8588839326728
 21
83.77983636955821
 31
0.0
  0
LINE
  5
485
330
20
100
AcDbEntity
  8
HILF
100
AcDbLine
 10
234.7736801096946
 20
14.89398258028302
 30
0.0
 11
404.8588839326728
 21
14.89398258028302
 31
0.0
  0
TEXT
  5
486
330
20
100
AcDbEntity
  8
TEXT
100
AcDbText
 10
72.20704928957393
 20
18.67381894984129
 30
0.0
 40
4.0
  1
Änderung
 41
0.8
  7
GREEKS
 72
     1
 11
82.94990643243108
 21
18.67381894984129
 31
0.0
100
AcDbText
  0
TEXT
  5
487
330
20
100
AcDbEntity
  8
TEXT
100
AcDbText
 10
153.5163572150375
 20
102.4620895087088
 30
0.0
 40
5.0
  1
Maßstab
 41
0.8
  7
GREEKS
100
AcDbText
  0
TEXT
  5
488
330
20
100
AcDbEntity
  8
TEXT
100
AcDbText
 10
197.9646614905596
 20
102.4184168434818
 30
0.0
 40
5.0
  1
zul.Abw.
 41
0.8
  7
GREEKS
100
AcDbText
  0
TEXT
  5
489
330
20
100
AcDbEntity
  8
TEXT
100
AcDbText
 10
234.8779403809008
 20
102.5489328011779
 30
0.0
 40
5.0
  1
Benennung
 41
0.8
  7
GREEKS
100
AcDbText
  0
TEXT
  5
48A
330
20
100
AcDbEntity
  8
TEXT
100
AcDbText
 10
336.178754957634
 20
102.3132034537135
 30
0.0
 40
5.0
  1
Zeichnungs Nr.
 41
0.8
  7
GREEKS
100
AcDbText
  0
TEXT
  5
48B
330
20
100
AcDbEntity
  8
TEXT
100
AcDbText
 10
234.7422383911357
 20
30.84560570193054
 30
0.0
 40
5.0
  1
Bauvorhaben
 41
0.8
  7
GREEKS
100
AcDbText
  0
TEXT
  5
48C
330
20
100
AcDbEntity
  8
TEXT
100
AcDbText
 10
336.7238616296993
 20
73.18118237099963
 30
0.0
 40
5.0
  1
Ersatz für:
 41
0.8
  7
GREEKS
100
AcDbText
  0
TEXT
  5
48D
330
20
100
AcDbEntity
  8
TEXT
100
AcDbText
 10
58.26641107045737
 20
13.65465846027189
 30
0.0
 40
4.0
  1
Index
 50
90.0
 41
0.8
  7
GREEKS
100
AcDbText
  0
TEXT
  5
48E
330
20
100
AcDbEntity
  8
TEXT
100
AcDbText
 10
110.3048905663554
 20
18.67156269339807
 30
0.0
 40
4.0
  1
Tag
 41
0.8
  7
GREEKS
 72
     1
 11
114.0382238996888
 21
18.67156269339807
 31
0.0
100
AcDbText
  0
TEXT
  5
48F
330
20
100
AcDbEntity
  8
TEXT
100
AcDbText
 10
128.8103701168421
 20
18.59324216966405
 30
0.0
 40
4.0
  1
Name
 41
0.8
  7
GREEKS
 72
     1
 11
135.1341796406516
 21
18.59324216966405
 31
0.0
100
AcDbText
  0
TEXT
  5
490
330
20
100
AcDbEntity
  8
TEXT
100
AcDbText
 10
172.3311673153648
 20
73.31880501229921
 30
0.0
 40
4.0
  1
Tag
 41
0.8
  7
GREEKS
100
AcDbText
  0
TEXT
  5
491
330
20
100
AcDbEntity
  8
TEXT
100
AcDbText
 10
202.4626584226294
 20
73.30961091915219
 30
0.0
 40
4.0
  1
Name
 41
0.8
  7
GREEKS
100
AcDbText
  0
TEXT
  5
492
330
20
100
AcDbEntity
  8
TEXT
100
AcDbText
 10
147.5836127167613
 20
63.62990369617961
 30
0.0
 40
4.0
  1
Gez.
 41
0.8
  7
GREEKS
100
AcDbText
  0
TEXT
  5
493
330
20
100
AcDbEntity
  8
TEXT
100
AcDbText
 10
147.551508657167
 20
53.68926291428374
 30
0.0
 40
4.0
  1
Gepr.
 41
0.8
  7
GREEKS
100
AcDbText
  0
TEXT
  5
494
330
20
100
AcDbEntity
  8
TEXT
100
AcDbText
 10
147.6006777387301
 20
43.52946389649804
 30
0.0
 40
4.0
  1
Norm.
 41
0.8
  7
GREEKS
100
AcDbText
  0
TEXT
  5
495
330
20
100
AcDbEntity
  8
TEXT
100
AcDbText
 10
337.2400861497006
 20
52.07416177878599
 30
0.0
 40
5.0
  1
ersetzt durch:
 41
0.8
  7
GREEKS
100
AcDbText
  0
LINE
  5
496
330
20
100
AcDbEntity
  8
HILF
100
AcDbLine
 10
0.0
 20
0.0
 30
0.0
 11
420.0
 21
0.0
 31
0.0
  0
LINE
  5
497
330
20
100
AcDbEntity
  8
HILF
100
AcDbLine
 10
420.0
 20
0.0
 30
0.0
 11
420.0
 21
594.0
 31
0.0
  0
LINE
  5
498
330
20
100
AcDbEntity
  8
HILF
100
AcDbLine
 10
420.0
 20
594.0
 30
0.0
 11
0.0
 21
594.0
 31
0.0
  0
LINE
  5
499
330
20
100
AcDbEntity
  8
STEMPEL
100
AcDbLine
 10
410.0
 20
584.0
 30
0.0
 11
50.00000000000063
 21
584.0
 31
0.0
  0
LINE
  5
49A
330
20
100
AcDbEntity
  8
STEMPEL
100
AcDbLine
 10
49.99999999999971
 20
10.0
 30
0.0
 11
410.0
 21
10.0
 31
0.0
  0
LINE
  5
49B
330
20
100
AcDbEntity
  8
STEMPEL
100
AcDbLine
 10
410.0
 20
10.0
 30
0.0
 11
410.0
 21
584.0
 31
0.0
  0
TEXT
  5
49C
330
20
100
AcDbEntity
  8
TEXT
100
AcDbText
 10
149.2409795855167
 20
72.64985220629109
 30
0.0
 40
4.0
  1
2013
 41
0.8
  7
GREEKS
100
AcDbText
  0
TEXT
  5
49D
330
20
100
AcDbEntity
  8
TEXT
 62
     1
100
AcDbText
 10
158.8064310364448
 20
86.22410504373215
 30
0.0
 40
7.0
  1
1:2
 41
0.8
  7
GREEKS
100
AcDbText
  0
TEXT
  5
49E
330
20
100
AcDbEntity
  8
TEXT
100
AcDbText
 10
234.862987254257
 20
72.29651127304094
 30
0.0
 40
5.0
  1
Anschlußstück DN 70/50
 41
0.8
  7
GREEKS
100
AcDbText
  0
TEXT
  5
49F
330
20
100
AcDbEntity
  8
TEXT
100
AcDbText
 10
235.162303158329
 20
52.75131145345461
 30
0.0
 40
5.0
  1
EDV-Art.Nr. 58043.CB0X
 41
0.8
  7
GREEKS
100
AcDbText
  0
TEXT
  5
4A1
330
20
100
AcDbEntity
  8
TEXT
 62
     1
100
AcDbText
 10
346.1044394842363
 20
87.01863741763572
 30
0.0
 40
7.0
  1
58043CB0W
 41
0.8
  7
GREEKS
 72
     1
 11
370.371106150903
 21
87.01863741763572
 31
0.0
100
AcDbText
  0
TEXT
  5
4A2
330
20
100
AcDbEntity
  8
TEXT
100
AcDbText
 10
234.9713400534563
 20
42.1950457301354
 30
0.0
 40
4.0
  1
58043CB0W.DWG
 41
0.8
  7
GREEKS
100
AcDbText
  0
INSERT
  5
4A3
330
20
100
AcDbEntity
  8
STEMPEL
100
AcDbBlockReference
  2
LOGO
 10
148.9705276546528
 20
44.32391971867144
 30
0.0
 41
2.0
 42
2.0
 43
2.0
  0
TEXT
  5
4A4
330
20
100
AcDbEntity
  8
TEXT
100
AcDbText
 10
169.0638327560039
 20
63.66472427925334
 30
0.0
 40
4.0
  1
27.05.
 41
0.8
  7
GREEKS
 72
     1
 11
176.0733565655278
 21
63.66472427925334
 31
0.0
100
AcDbText
  0
TEXT
  5
4A5
330
20
100
AcDbEntity
  8
TEXT
100
AcDbText
 10
204.2889439602947
 20
63.65553018610632
 30
0.0
 40
4.0
  1
Koeh
 41
0.8
  7
GREEKS
 72
     1
 11
209.5460868174375
 21
63.65553018610632
 31
0.0
100
AcDbText
  0
TEXT
  5
4A6
330
20
100
AcDbEntity
  8
VOLL
100
AcDbText
 10
624.2181993280528
 20
153.5301393177705
 30
0.0
 40
1.8
  1

  7
GREEKS
100
AcDbText
  0
TEXT
  5
4A7
330
20
100
AcDbEntity
  8
VOLL
100
AcDbText
 10
713.8843732537259
 20
158.8222560334898
 30
0.0
 40
1.8
  1

  7
GREEKS
100
AcDbText
  0
TEXT
  5
4A8
330
20
100
AcDbEntity
  8
TEXT
100
AcDbText
 10
1045.716641457319
 20
164.3804915667154
 30
0.0
 40
2.5
  1
  
  7
GREEKS
 72
     1
 11
1047.978546219224
 21
164.3804915667154
 31
0.0
100
AcDbText
  0
TEXT
  5
4A9
330
20
100
AcDbEntity
  8
BEM
100
AcDbText
 10
1289.836358769801
 20
299.9393735971176
 30
0.0
 40
2.5
  1
 
 72
     4
 11
1290.967311150753
 21
299.9393735971176
 31
0.0
100
AcDbText
  0
TEXT
  5
4AB
330
20
100
AcDbEntity
  8
BEM
100
AcDbText
 10
855.5257028996505
 20
182.4589702246512
 30
0.0
 40
2.5
  1

  7
GREEKS
100
AcDbText
  0
TEXT
  5
4AC
330
20
100
AcDbEntity
  8
VOLL
100
AcDbText
 10
841.459509879929
 20
162.2757095676161
 30
0.0
 40
1.8
  1

  7
GREEKS
100
AcDbText
  0
TEXT
  5
4AD
330
20
100
AcDbEntity
  8
BEM
100
AcDbText
 10
875.9475747192137
 20
167.0014338908367
 30
0.0
 40
2.5
  1

 41
0.8
  7
GREEKS
100
AcDbText
  0
TEXT
  5
4AE
330
20
100
AcDbEntity
  8
BEM
100
AcDbText
 10
875.9475747192137
 20
162.3076653367846
 30
0.0
 40
2.5
  1

 41
0.8
  7
GREEKS
100
AcDbText
  0
TEXT
  5
4AF
330
20
100
AcDbEntity
  8
BEM
100
AcDbText
 10
875.9475747192137
 20
157.0698215181211
 30
0.0
 40
2.5
  1

 41
0.8
  7
GREEKS
100
AcDbText
  0
TEXT
  5
4B0
330
20
100
AcDbEntity
  8
BEM
100
AcDbText
 10
875.8746302418392
 20
152.5646325680234
 30
0.0
 40
1.8
  1

 41
0.8
  7
GREEKS
100
AcDbText
  0
TEXT
  5
4B1
330
20
100
AcDbEntity
  8
BEM
100
AcDbText
 10
863.1910593622281
 20
178.1562216642487
 30
0.0
 40
2.0
  1

 41
0.8
  7
GREEKS
 72
     1
 11
863.1910593622281
 21
178.1562216642487
 31
0.0
100
AcDbText
  0
TEXT
  5
4B2
330
20
100
AcDbEntity
  8
TEXT
100
AcDbText
 10
1173.291778083522
 20
167.8339451008417
 30
0.0
 40
2.5
  1
  
  7
GREEKS
 72
     1
 11
1175.553682845426
 21
167.8339451008417
 31
0.0
100
AcDbText
  0
TEXT
  5
4B3
330
20
100
AcDbEntity
  8
BEM
100
AcDbText
 10
1417.411495396004
 20
303.3928271312439
 30
0.0
 40
2.5
  1
 
 72
     4
 11
1418.542447776956
 21
303.3928271312439
 31
0.0
100
AcDbText
  0
TEXT
  5
4B4
330
20
100
AcDbEntity
  8
VOLL
100
AcDbText
 10
766.1762742752141
 20
169.7272236296053
 30
0.0
 40
1.8
  1

  7
GREEKS
100
AcDbText
  0
TEXT
  5
4B5
330
20
100
AcDbEntity
  8
TEXT
100
AcDbText
 10
1098.008542478807
 20
175.2854591628308
 30
0.0
 40
2.5
  1
  
  7
GREEKS
 72
     1
 11
1100.270447240712
 21
175.2854591628308
 31
0.0
100
AcDbText
  0
TEXT
  5
4B6
330
20
100
AcDbEntity
  8
BEM
100
AcDbText
 10
1342.128259791289
 20
310.8443411932331
 30
0.0
 40
2.5
  1
 
 72
     4
 11
1343.259212172241
 21
310.8443411932331
 31
0.0
100
AcDbText
  0
TEXT
  5
4B7
330
20
100
AcDbEntity
  8
BEM
100
AcDbText
 10
921.31587643201
 20
190.0606345192818
 30
0.0
 40
2.5
  1

  7
GREEKS
100
AcDbText
  0
TEXT
  5
4B8
330
20
100
AcDbEntity
  8
VOLL
100
AcDbText
 10
907.2496834122887
 20
169.8773738622467
 30
0.0
 40
1.8
  1

  7
GREEKS
100
AcDbText
  0
TEXT
  5
4B9
330
20
100
AcDbEntity
  8
BEM
100
AcDbText
 10
941.7377482515732
 20
174.6030981854673
 30
0.0
 40
2.5
  1

 41
0.8
  7
GREEKS
100
AcDbText
  0
TEXT
  5
4BA
330
20
100
AcDbEntity
  8
BEM
100
AcDbText
 10
941.7377482515732
 20
169.9093296314152
 30
0.0
 40
2.5
  1

 41
0.8
  7
GREEKS
100
AcDbText
  0
TEXT
  5
4BB
330
20
100
AcDbEntity
  8
BEM
100
AcDbText
 10
941.7377482515732
 20
164.6714858127516
 30
0.0
 40
2.5
  1

 41
0.8
  7
GREEKS
100
AcDbText
  0
TEXT
  5
4BC
330
20
100
AcDbEntity
  8
BEM
100
AcDbText
 10
941.6648037741989
 20
160.166296862654
 30
0.0
 40
1.8
  1

 41
0.8
  7
GREEKS
100
AcDbText
  0
TEXT
  5
4BD
330
20
100
AcDbEntity
  8
BEM
100
AcDbText
 10
928.9812328945878
 20
185.7578859588793
 30
0.0
 40
2.0
  1

 41
0.8
  7
GREEKS
 72
     1
 11
928.9812328945878
 21
185.7578859588793
 31
0.0
100
AcDbText
  0
TEXT
  5
4BE
330
20
100
AcDbEntity
  8
TEXT
100
AcDbText
 10
1239.081951615881
 20
175.4356093954723
 30
0.0
 40
2.5
  1
  
  7
GREEKS
 72
     1
 11
1241.343856377786
 21
175.4356093954723
 31
0.0
100
AcDbText
  0
TEXT
  5
4BF
330
20
100
AcDbEntity
  8
BEM
100
AcDbText
 10
1483.201668928364
 20
310.9944914258745
 30
0.0
 40
2.5
  1
 
 72
     4
 11
1484.332621309316
 21
310.9944914258745
 31
0.0
100
AcDbText
  0
TEXT
  5
4C0
330
20
100
AcDbEntity
  8
VOLL
100
AcDbText
 10
702.1540628484578
 20
157.9115141038568
 30
0.0
 40
1.8
  1

  7
GREEKS
100
AcDbText
  0
TEXT
  5
4C1
330
20
100
AcDbEntity
  8
TEXT
100
AcDbText
 10
1033.98633105205
 20
163.4697496370823
 30
0.0
 40
2.5
  1
  
  7
GREEKS
 72
     1
 11
1036.248235813955
 21
163.4697496370823
 31
0.0
100
AcDbText
  0
TEXT
  5
4C2
330
20
100
AcDbEntity
  8
BEM
100
AcDbText
 10
1278.106048364533
 20
299.0286316674846
 30
0.0
 40
2.5
  1
 
 72
     4
 11
1279.237000745485
 21
299.0286316674846
 31
0.0
100
AcDbText
  0
TEXT
  5
4C3
330
20
100
AcDbEntity
  8
BEM
100
AcDbText
 10
867.4996759281077
 20
198.0647448024424
 30
0.0
 40
2.5
  1

  7
GREEKS
100
AcDbText
  0
TEXT
  5
4C4
330
20
100
AcDbEntity
  8
VOLL
100
AcDbText
 10
853.4334829083862
 20
177.8814841454073
 30
0.0
 40
1.8
  1

  7
GREEKS
100
AcDbText
  0
TEXT
  5
4C5
330
20
100
AcDbEntity
  8
BEM
100
AcDbText
 10
887.9215477476709
 20
182.6072084686279
 30
0.0
 40
2.5
  1

 41
0.8
  7
GREEKS
100
AcDbText
  0
TEXT
  5
4C6
330
20
100
AcDbEntity
  8
BEM
100
AcDbText
 10
887.9215477476709
 20
177.9134399145758
 30
0.0
 40
2.5
  1

 41
0.8
  7
GREEKS
100
AcDbText
  0
TEXT
  5
4C7
330
20
100
AcDbEntity
  8
BEM
100
AcDbText
 10
887.9215477476709
 20
172.6755960959122
 30
0.0
 40
2.5
  1

 41
0.8
  7
GREEKS
100
AcDbText
  0
TEXT
  5
4C8
330
20
100
AcDbEntity
  8
BEM
100
AcDbText
 10
887.8486032702964
 20
168.1704071458146
 30
0.0
 40
1.8
  1

 41
0.8
  7
GREEKS
100
AcDbText
  0
TEXT
  5
4C9
330
20
100
AcDbEntity
  8
BEM
100
AcDbText
 10
875.1650323906853
 20
193.7619962420399
 30
0.0
 40
2.0
  1

 41
0.8
  7
GREEKS
 72
     1
 11
875.1650323906853
 21
193.7619962420399
 31
0.0
100
AcDbText
  0
TEXT
  5
4CA
330
20
100
AcDbEntity
  8
TEXT
100
AcDbText
 10
1185.265751111979
 20
183.4397196786328
 30
0.0
 40
2.5
  1
  
  7
GREEKS
 72
     1
 11
1187.527655873884
 21
183.4397196786328
 31
0.0
100
AcDbText
  0
TEXT
  5
4CB
330
20
100
AcDbEntity
  8
BEM
100
AcDbText
 10
1429.385468424461
 20
318.9986017090352
 30
0.0
 40
2.5
  1
 
 72
     4
 11
1430.516420805413
 21
318.9986017090352
 31
0.0
100
AcDbText
  0
TEXT
  5
4CC
330
20
100
AcDbEntity
  8
VOLL
100
AcDbText
 10
1029.735639101569
 20
163.0299574813593
 30
0.0
 40
1.8
  1

  7
GREEKS
100
AcDbText
  0
TEXT
  5
4CD
330
20
100
AcDbEntity
  8
VOLL
100
AcDbText
 10
1119.401813027242
 20
168.3220741970786
 30
0.0
 40
1.8
  1

  7
GREEKS
100
AcDbText
  0
TEXT
  5
4CE
330
20
100
AcDbEntity
  8
TEXT
100
AcDbText
 10
1451.234081230835
 20
173.8803097303042
 30
0.0
 40
2.5
  1
  
  7
GREEKS
 72
     1
 11
1453.49598599274
 21
173.8803097303042
 31
0.0
100
AcDbText
  0
TEXT
  5
4CF
330
20
100
AcDbEntity
  8
BEM
100
AcDbText
 10
1695.353798543317
 20
309.4391917607064
 30
0.0
 40
2.5
  1
 
 72
     4
 11
1696.484750924269
 21
309.4391917607064
 31
0.0
100
AcDbText
  0
TEXT
  5
4D0
330
20
100
AcDbEntity
  8
BEM
100
AcDbText
 10
1261.043142673166
 20
191.95878838824
 30
0.0
 40
2.5
  1

  7
GREEKS
100
AcDbText
  0
TEXT
  5
4D1
330
20
100
AcDbEntity
  8
VOLL
100
AcDbText
 10
1246.976949653445
 20
171.7755277312049
 30
0.0
 40
1.8
  1

  7
GREEKS
100
AcDbText
  0
TEXT
  5
4D2
330
20
100
AcDbEntity
  8
BEM
100
AcDbText
 10
1281.46501449273
 20
176.5012520544255
 30
0.0
 40
2.5
  1

 41
0.8
  7
GREEKS
100
AcDbText
  0
TEXT
  5
4D3
330
20
100
AcDbEntity
  8
BEM
100
AcDbText
 10
1281.46501449273
 20
171.8074835003733
 30
0.0
 40
2.5
  1

 41
0.8
  7
GREEKS
100
AcDbText
  0
TEXT
  5
4D4
330
20
100
AcDbEntity
  8
BEM
100
AcDbText
 10
1281.46501449273
 20
166.5696396817098
 30
0.0
 40
2.5
  1

 41
0.8
  7
GREEKS
100
AcDbText
  0
TEXT
  5
4D5
330
20
100
AcDbEntity
  8
BEM
100
AcDbText
 10
1281.392070015355
 20
162.0644507316122
 30
0.0
 40
1.8
  1

 41
0.8
  7
GREEKS
100
AcDbText
  0
TEXT
  5
4D6
330
20
100
AcDbEntity
  8
BEM
100
AcDbText
 10
1268.708499135744
 20
187.6560398278375
 30
0.0
 40
2.0
  1

 41
0.8
  7
GREEKS
 72
     1
 11
1268.708499135744
 21
187.6560398278375
 31
0.0
100
AcDbText
  0
TEXT
  5
4D7
330
20
100
AcDbEntity
  8
TEXT
100
AcDbText
 10
1578.809217857038
 20
177.3337632644304
 30
0.0
 40
2.5
  1
  
  7
GREEKS
 72
     1
 11
1581.071122618943
 21
177.3337632644304
 31
0.0
100
AcDbText
  0
TEXT
  5
4D8
330
20
100
AcDbEntity
  8
BEM
100
AcDbText
 10
1822.928935169521
 20
312.8926452948327
 30
0.0
 40
2.5
  1
 
 72
     4
 11
1824.059887550473
 21
312.8926452948327
 31
0.0
100
AcDbText
  0
TEXT
  5
4D9
330
20
100
AcDbEntity
  8
VOLL
100
AcDbText
 10
1037.648953793352
 20
140.0808845888587
 30
0.0
 40
1.8
  1

  7
GREEKS
100
AcDbText
  0
TEXT
  5
4DA
330
20
100
AcDbEntity
  8
VOLL
100
AcDbText
 10
1127.315127719025
 20
145.3730013045781
 30
0.0
 40
1.8
  1

  7
GREEKS
100
AcDbText
  0
TEXT
  5
4DB
330
20
100
AcDbEntity
  8
TEXT
100
AcDbText
 10
1459.147395922618
 20
150.9312368378036
 30
0.0
 40
2.5
  1
  
  7
GREEKS
 72
     1
 11
1461.409300684523
 21
150.9312368378036
 31
0.0
100
AcDbText
  0
TEXT
  5
4DC
330
20
100
AcDbEntity
  8
BEM
100
AcDbText
 10
1703.2671132351
 20
286.4901188682059
 30
0.0
 40
2.5
  1
 
 72
     4
 11
1704.398065616053
 21
286.4901188682059
 31
0.0
100
AcDbText
  0
TEXT
  5
4DD
330
20
100
AcDbEntity
  8
BEM
100
AcDbText
 10
1268.95645736495
 20
169.0097154957395
 30
0.0
 40
2.5
  1

  7
GREEKS
100
AcDbText
  0
TEXT
  5
4DE
330
20
100
AcDbEntity
  8
VOLL
100
AcDbText
 10
1254.890264345229
 20
148.8264548387044
 30
0.0
 40
1.8
  1

  7
GREEKS
100
AcDbText
  0
TEXT
  5
4DF
330
20
100
AcDbEntity
  8
BEM
100
AcDbText
 10
1289.378329184513
 20
153.552179161925
 30
0.0
 40
2.5
  1

 41
0.8
  7
GREEKS
100
AcDbText
  0
TEXT
  5
4E0
330
20
100
AcDbEntity
  8
BEM
100
AcDbText
 10
1289.378329184513
 20
148.8584106078728
 30
0.0
 40
2.5
  1

 41
0.8
  7
GREEKS
100
AcDbText
  0
TEXT
  5
4E1
330
20
100
AcDbEntity
  8
BEM
100
AcDbText
 10
1289.378329184513
 20
143.6205667892093
 30
0.0
 40
2.5
  1

 41
0.8
  7
GREEKS
100
AcDbText
  0
TEXT
  5
4E2
330
20
100
AcDbEntity
  8
BEM
100
AcDbText
 10
1289.305384707138
 20
139.1153778391117
 30
0.0
 40
1.8
  1

 41
0.8
  7
GREEKS
100
AcDbText
  0
TEXT
  5
4E3
330
20
100
AcDbEntity
  8
BEM
100
AcDbText
 10
1276.621813827527
 20
164.706966935337
 30
0.0
 40
2.0
  1

 41
0.8
  7
GREEKS
 72
     1
 11
1276.621813827527
 21
164.706966935337
 31
0.0
100
AcDbText
  0
TEXT
  5
4E4
330
20
100
AcDbEntity
  8
TEXT
100
AcDbText
 10
1586.722532548821
 20
154.3846903719299
 30
0.0
 40
2.5
  1
  
  7
GREEKS
 72
     1
 11
1588.984437310726
 21
154.3846903719299
 31
0.0
100
AcDbText
  0
TEXT
  5
4E5
330
20
100
AcDbEntity
  8
BEM
100
AcDbText
 10
1830.842249861303
 20
289.9435724023322
 30
0.0
 40
2.5
  1
 
 72
     4
 11
1831.973202242256
 21
289.9435724023322
 31
0.0
100
AcDbText
  0
TEXT
  5
4E6
330
20
100
AcDbEntity
  8
VOLL
100
AcDbText
 10
1179.607028740513
 20
156.2779689006935
 30
0.0
 40
1.8
  1

  7
GREEKS
100
AcDbText
  0
TEXT
  5
4E7
330
20
100
AcDbEntity
  8
TEXT
100
AcDbText
 10
1511.439296944107
 20
161.8362044339191
 30
0.0
 40
2.5
  1
  
  7
GREEKS
 72
     1
 11
1513.701201706011
 21
161.8362044339191
 31
0.0
100
AcDbText
  0
TEXT
  5
4E8
330
20
100
AcDbEntity
  8
BEM
100
AcDbText
 10
1755.559014256589
 20
297.3950864643213
 30
0.0
 40
2.5
  1
 
 72
     4
 11
1756.689966637541
 21
297.3950864643213
 31
0.0
100
AcDbText
  0
TEXT
  5
4E9
330
20
100
AcDbEntity
  8
BEM
100
AcDbText
 10
1334.74663089731
 20
176.6113797903701
 30
0.0
 40
2.5
  1

  7
GREEKS
100
AcDbText
  0
TEXT
  5
4EA
330
20
100
AcDbEntity
  8
VOLL
100
AcDbText
 10
1320.680437877588
 20
156.428119133335
 30
0.0
 40
1.8
  1

  7
GREEKS
100
AcDbText
  0
TEXT
  5
4EB
330
20
100
AcDbEntity
  8
BEM
100
AcDbText
 10
1355.168502716873
 20
161.1538434565556
 30
0.0
 40
2.5
  1

 41
0.8
  7
GREEKS
100
AcDbText
  0
TEXT
  5
4EC
330
20
100
AcDbEntity
  8
BEM
100
AcDbText
 10
1355.168502716873
 20
156.4600749025034
 30
0.0
 40
2.5
  1

 41
0.8
  7
GREEKS
100
AcDbText
  0
TEXT
  5
4ED
330
20
100
AcDbEntity
  8
BEM
100
AcDbText
 10
1355.168502716873
 20
151.2222310838399
 30
0.0
 40
2.5
  1

 41
0.8
  7
GREEKS
100
AcDbText
  0
TEXT
  5
4EE
330
20
100
AcDbEntity
  8
BEM
100
AcDbText
 10
1355.095558239498
 20
146.7170421337423
 30
0.0
 40
1.8
  1

 41
0.8
  7
GREEKS
100
AcDbText
  0
TEXT
  5
4EF
330
20
100
AcDbEntity
  8
BEM
100
AcDbText
 10
1342.411987359887
 20
172.3086312299676
 30
0.0
 40
2.0
  1

 41
0.8
  7
GREEKS
 72
     1
 11
1342.411987359887
 21
172.3086312299676
 31
0.0
100
AcDbText
  0
TEXT
  5
4F0
330
20
100
AcDbEntity
  8
TEXT
100
AcDbText
 10
1652.512706081181
 20
161.9863546665605
 30
0.0
 40
2.5
  1
  
  7
GREEKS
 72
     1
 11
1654.774610843086
 21
161.9863546665605
 31
0.0
100
AcDbText
  0
TEXT
  5
4F1
330
20
100
AcDbEntity
  8
BEM
100
AcDbText
 10
1896.632423393663
 20
297.5452366969627
 30
0.0
 40
2.5
  1
 
 72
     4
 11
1897.763375774616
 21
297.5452366969627
 31
0.0
100
AcDbText
  0
TEXT
  5
4F2
330
20
100
AcDbEntity
  8
VOLL
100
AcDbText
 10
810.2241690536295
 20
350.9401983804995
 30
0.0
 40
1.8
  1

  7
GREEKS
100
AcDbText
  0
TEXT
  5
4F3
330
20
100
AcDbEntity
  8
VOLL
100
AcDbText
 10
899.8903429793026
 20
356.2323150962188
 30
0.0
 40
1.8
  1

  7
GREEKS
100
AcDbText
  0
TEXT
  5
4F4
330
20
100
AcDbEntity
  8
TEXT
100
AcDbText
 10
1231.722611182896
 20
361.7905506294444
 30
0.0
 40
2.5
  1
  
  7
GREEKS
 72
     1
 11
1233.9845159448
 21
361.7905506294444
 31
0.0
100
AcDbText
  0
TEXT
  5
4F5
330
20
100
AcDbEntity
  8
BEM
100
AcDbText
 10
1475.842328495378
 20
497.3494326598465
 30
0.0
 40
2.5
  1
 
 72
     4
 11
1476.97328087633
 21
497.3494326598465
 31
0.0
100
AcDbText
  0
TEXT
  5
4F6
330
20
100
AcDbEntity
  8
BEM
100
AcDbText
 10
1041.531672625227
 20
379.8690292873802
 30
0.0
 40
2.5
  1

  7
GREEKS
100
AcDbText
  0
TEXT
  5
4F7
330
20
100
AcDbEntity
  8
VOLL
100
AcDbText
 10
1027.465479605506
 20
359.6857686303451
 30
0.0
 40
1.8
  1

  7
GREEKS
100
AcDbText
  0
TEXT
  5
4F8
330
20
100
AcDbEntity
  8
BEM
100
AcDbText
 10
1061.95354444479
 20
364.4114929535656
 30
0.0
 40
2.5
  1

 41
0.8
  7
GREEKS
100
AcDbText
  0
TEXT
  5
4F9
330
20
100
AcDbEntity
  8
BEM
100
AcDbText
 10
1061.95354444479
 20
359.7177243995135
 30
0.0
 40
2.5
  1

 41
0.8
  7
GREEKS
100
AcDbText
  0
TEXT
  5
4FA
330
20
100
AcDbEntity
  8
BEM
100
AcDbText
 10
1061.95354444479
 20
354.47988058085
 30
0.0
 40
2.5
  1

 41
0.8
  7
GREEKS
100
AcDbText
  0
TEXT
  5
4FB
330
20
100
AcDbEntity
  8
BEM
100
AcDbText
 10
1061.880599967416
 20
349.9746916307524
 30
0.0
 40
1.8
  1

 41
0.8
  7
GREEKS
100
AcDbText
  0
TEXT
  5
4FC
330
20
100
AcDbEntity
  8
BEM
100
AcDbText
 10
1049.197029087805
 20
375.5662807269776
 30
0.0
 40
2.0
  1

 41
0.8
  7
GREEKS
 72
     1
 11
1049.197029087805
 21
375.5662807269776
 31
0.0
100
AcDbText
  0
TEXT
  5
4FD
330
20
100
AcDbEntity
  8
TEXT
100
AcDbText
 10
1359.297747809099
 20
365.2440041635706
 30
0.0
 40
2.5
  1
  
  7
GREEKS
 72
     1
 11
1361.559652571003
 21
365.2440041635706
 31
0.0
100
AcDbText
  0
TEXT
  5
4FE
330
20
100
AcDbEntity
  8
BEM
100
AcDbText
 10
1603.41746512158
 20
500.8028861939727
 30
0.0
 40
2.5
  1
 
 72
     4
 11
1604.548417502533
 21
500.8028861939727
 31
0.0
100
AcDbText
  0
TEXT
  5
4FF
330
20
100
AcDbEntity
  8
VOLL
100
AcDbText
 10
952.1822440007909
 20
367.1372826923342
 30
0.0
 40
1.8
  1

  7
GREEKS
100
AcDbText
  0
TEXT
  5
500
330
20
100
AcDbEntity
  8
TEXT
100
AcDbText
 10
1284.014512204384
 20
372.6955182255597
 30
0.0
 40
2.5
  1
  
  7
GREEKS
 72
     1
 11
1286.276416966289
 21
372.6955182255597
 31
0.0
100
AcDbText
  0
TEXT
  5
501
330
20
100
AcDbEntity
  8
BEM
100
AcDbText
 10
1528.134229516866
 20
508.2544002559619
 30
0.0
 40
2.5
  1
 
 72
     4
 11
1529.265181897818
 21
508.2544002559619
 31
0.0
100
AcDbText
  0
TEXT
  5
502
330
20
100
AcDbEntity
  8
BEM
100
AcDbText
 10
1107.321846157587
 20
387.4706935820108
 30
0.0
 40
2.5
  1

  7
GREEKS
100
AcDbText
  0
TEXT
  5
503
330
20
100
AcDbEntity
  8
VOLL
100
AcDbText
 10
1093.255653137865
 20
367.2874329249756
 30
0.0
 40
1.8
  1

  7
GREEKS
100
AcDbText
  0
TEXT
  5
504
330
20
100
AcDbEntity
  8
BEM
100
AcDbText
 10
1127.74371797715
 20
372.0131572481963
 30
0.0
 40
2.5
  1

 41
0.8
  7
GREEKS
100
AcDbText
  0
TEXT
  5
505
330
20
100
AcDbEntity
  8
BEM
100
AcDbText
 10
1127.74371797715
 20
367.3193886941441
 30
0.0
 40
2.5
  1

 41
0.8
  7
GREEKS
100
AcDbText
  0
TEXT
  5
506
330
20
100
AcDbEntity
  8
BEM
100
AcDbText
 10
1127.74371797715
 20
362.0815448754806
 30
0.0
 40
2.5
  1

 41
0.8
  7
GREEKS
100
AcDbText
  0
TEXT
  5
507
330
20
100
AcDbEntity
  8
BEM
100
AcDbText
 10
1127.670773499775
 20
357.576355925383
 30
0.0
 40
1.8
  1

 41
0.8
  7
GREEKS
100
AcDbText
  0
TEXT
  5
508
330
20
100
AcDbEntity
  8
BEM
100
AcDbText
 10
1114.987202620164
 20
383.1679450216082
 30
0.0
 40
2.0
  1

 41
0.8
  7
GREEKS
 72
     1
 11
1114.987202620164
 21
383.1679450216082
 31
0.0
100
AcDbText
  0
TEXT
  5
509
330
20
100
AcDbEntity
  8
TEXT
100
AcDbText
 10
1425.087921341458
 20
372.8456684582012
 30
0.0
 40
2.5
  1
  
  7
GREEKS
 72
     1
 11
1427.349826103363
 21
372.8456684582012
 31
0.0
100
AcDbText
  0
TEXT
  5
50A
330
20
100
AcDbEntity
  8
BEM
100
AcDbText
 10
1669.20763865394
 20
508.4045504886034
 30
0.0
 40
2.5
  1
 
 72
     4
 11
1670.338591034893
 21
508.4045504886034
 31
0.0
100
AcDbText
  0
TEXT
  5
50B
330
20
100
AcDbEntity
  8
VOLL
100
AcDbText
 10
888.1600325740345
 20
355.3215731665857
 30
0.0
 40
1.8
  1

  7
GREEKS
100
AcDbText
  0
TEXT
  5
50C
330
20
100
AcDbEntity
  8
TEXT
100
AcDbText
 10
1219.992300777627
 20
360.8798086998112
 30
0.0
 40
2.5
  1
  
  7
GREEKS
 72
     1
 11
1222.254205539532
 21
360.8798086998112
 31
0.0
100
AcDbText
  0
TEXT
  5
50D
330
20
100
AcDbEntity
  8
BEM
100
AcDbText
 10
1464.112018090109
 20
496.4386907302134
 30
0.0
 40
2.5
  1
 
 72
     4
 11
1465.242970471062
 21
496.4386907302134
 31
0.0
100
AcDbText
  0
TEXT
  5
50E
330
20
100
AcDbEntity
  8
BEM
100
AcDbText
 10
1053.505645653684
 20
395.4748038651714
 30
0.0
 40
2.5
  1

  7
GREEKS
100
AcDbText
  0
TEXT
  5
50F
330
20
100
AcDbEntity
  8
VOLL
100
AcDbText
 10
1039.439452633963
 20
375.2915432081362
 30
0.0
 40
1.8
  1

  7
GREEKS
100
AcDbText
  0
TEXT
  5
510
330
20
100
AcDbEntity
  8
BEM
100
AcDbText
 10
1073.927517473247
 20
380.0172675313568
 30
0.0
 40
2.5
  1

 41
0.8
  7
GREEKS
100
AcDbText
  0
TEXT
  5
511
330
20
100
AcDbEntity
  8
BEM
100
AcDbText
 10
1073.927517473247
 20
375.3234989773047
 30
0.0
 40
2.5
  1

 41
0.8
  7
GREEKS
100
AcDbText
  0
TEXT
  5
512
330
20
100
AcDbEntity
  8
BEM
100
AcDbText
 10
1073.927517473247
 20
370.0856551586412
 30
0.0
 40
2.5
  1

 41
0.8
  7
GREEKS
100
AcDbText
  0
TEXT
  5
513
330
20
100
AcDbEntity
  8
BEM
100
AcDbText
 10
1073.854572995873
 20
365.5804662085436
 30
0.0
 40
1.8
  1

 41
0.8
  7
GREEKS
100
AcDbText
  0
TEXT
  5
514
330
20
100
AcDbEntity
  8
BEM
100
AcDbText
 10
1061.171002116262
 20
391.1720553047689
 30
0.0
 40
2.0
  1

 41
0.8
  7
GREEKS
 72
     1
 11
1061.171002116262
 21
391.1720553047689
 31
0.0
100
AcDbText
  0
TEXT
  5
515
330
20
100
AcDbEntity
  8
TEXT
100
AcDbText
 10
1371.271720837556
 20
380.8497787413618
 30
0.0
 40
2.5
  1
  
  7
GREEKS
 72
     1
 11
1373.533625599461
 21
380.8497787413618
 31
0.0
100
AcDbText
  0
TEXT
  5
516
330
20
100
AcDbEntity
  8
BEM
100
AcDbText
 10
1615.391438150038
 20
516.408660771764
 30
0.0
 40
2.5
  1
 
 72
     4
 11
1616.52239053099
 21
516.408660771764
 31
0.0
100
AcDbText
  0
TEXT
  5
517
330
20
100
AcDbEntity
  8
VOLL
100
AcDbText
 10
816.6255219861703
 20
329.2841013719355
 30
0.0
 40
1.8
  1

  7
GREEKS
100
AcDbText
  0
TEXT
  5
518
330
20
100
AcDbEntity
  8
VOLL
100
AcDbText
 10
906.2916959118433
 20
334.5762180876548
 30
0.0
 40
1.8
  1

  7
GREEKS
100
AcDbText
  0
TEXT
  5
519
330
20
100
AcDbEntity
  8
TEXT
100
AcDbText
 10
1238.123964115436
 20
340.1344536208804
 30
0.0
 40
2.5
  1
  
  7
GREEKS
 72
     1
 11
1240.385868877341
 21
340.1344536208804
 31
0.0
100
AcDbText
  0
TEXT
  5
51A
330
20
100
AcDbEntity
  8
BEM
100
AcDbText
 10
1482.243681427918
 20
475.6933356512825
 30
0.0
 40
2.5
  1
 
 72
     4
 11
1483.37463380887
 21
475.6933356512825
 31
0.0
100
AcDbText
  0
TEXT
  5
51B
330
20
100
AcDbEntity
  8
BEM
100
AcDbText
 10
1047.933025557768
 20
358.2129322788162
 30
0.0
 40
2.5
  1

  7
GREEKS
100
AcDbText
  0
TEXT
  5
51C
330
20
100
AcDbEntity
  8
VOLL
100
AcDbText
 10
1033.866832538046
 20
338.0296716217811
 30
0.0
 40
1.8
  1

  7
GREEKS
100
AcDbText
  0
TEXT
  5
51D
330
20
100
AcDbEntity
  8
BEM
100
AcDbText
 10
1068.354897377331
 20
342.7553959450017
 30
0.0
 40
2.5
  1

 41
0.8
  7
GREEKS
100
AcDbText
  0
TEXT
  5
51E
330
20
100
AcDbEntity
  8
BEM
100
AcDbText
 10
1068.354897377331
 20
338.0616273909496
 30
0.0
 40
2.5
  1

 41
0.8
  7
GREEKS
100
AcDbText
  0
TEXT
  5
51F
330
20
100
AcDbEntity
  8
BEM
100
AcDbText
 10
1068.354897377331
 20
332.8237835722861
 30
0.0
 40
2.5
  1

 41
0.8
  7
GREEKS
100
AcDbText
  0
TEXT
  5
520
330
20
100
AcDbEntity
  8
BEM
100
AcDbText
 10
1068.281952899956
 20
328.3185946221884
 30
0.0
 40
1.8
  1

 41
0.8
  7
GREEKS
100
AcDbText
  0
TEXT
  5
521
330
20
100
AcDbEntity
  8
BEM
100
AcDbText
 10
1055.598382020345
 20
353.9101837184137
 30
0.0
 40
2.0
  1

 41
0.8
  7
GREEKS
 72
     1
 11
1055.598382020345
 21
353.9101837184137
 31
0.0
100
AcDbText
  0
TEXT
  5
522
330
20
100
AcDbEntity
  8
TEXT
100
AcDbText
 10
1365.699100741639
 20
343.5879071550066
 30
0.0
 40
2.5
  1
  
  7
GREEKS
 72
     1
 11
1367.961005503544
 21
343.5879071550066
 31
0.0
100
AcDbText
  0
TEXT
  5
523
330
20
100
AcDbEntity
  8
BEM
100
AcDbText
 10
1609.818818054121
 20
479.1467891854089
 30
0.0
 40
2.5
  1
 
 72
     4
 11
1610.949770435073
 21
479.1467891854089
 31
0.0
100
AcDbText
  0
TEXT
  5
524
330
20
100
AcDbEntity
  8
VOLL
100
AcDbText
 10
958.5835969333315
 20
345.4811856837702
 30
0.0
 40
1.8
  1

  7
GREEKS
100
AcDbText
  0
TEXT
  5
525
330
20
100
AcDbEntity
  8
TEXT
100
AcDbText
 10
1290.415865136924
 20
351.0394212169958
 30
0.0
 40
2.5
  1
  
  7
GREEKS
 72
     1
 11
1292.677769898829
 21
351.0394212169958
 31
0.0
100
AcDbText
  0
TEXT
  5
526
330
20
100
AcDbEntity
  8
BEM
100
AcDbText
 10
1534.535582449406
 20
486.5983032473979
 30
0.0
 40
2.5
  1
 
 72
     4
 11
1535.666534830359
 21
486.5983032473979
 31
0.0
100
AcDbText
  0
TEXT
  5
527
330
20
100
AcDbEntity
  8
BEM
100
AcDbText
 10
1113.723199090127
 20
365.8145965734468
 30
0.0
 40
2.5
  1

  7
GREEKS
100
AcDbText
  0
TEXT
  5
528
330
20
100
AcDbEntity
  8
VOLL
100
AcDbText
 10
1099.657006070406
 20
345.6313359164117
 30
0.0
 40
1.8
  1

  7
GREEKS
100
AcDbText
  0
TEXT
  5
529
330
20
100
AcDbEntity
  8
BEM
100
AcDbText
 10
1134.14507090969
 20
350.3570602396323
 30
0.0
 40
2.5
  1

 41
0.8
  7
GREEKS
100
AcDbText
  0
TEXT
  5
52A
330
20
100
AcDbEntity
  8
BEM
100
AcDbText
 10
1134.14507090969
 20
345.6632916855801
 30
0.0
 40
2.5
  1

 41
0.8
  7
GREEKS
100
AcDbText
  0
TEXT
  5
52B
330
20
100
AcDbEntity
  8
BEM
100
AcDbText
 10
1134.14507090969
 20
340.4254478669166
 30
0.0
 40
2.5
  1

 41
0.8
  7
GREEKS
100
AcDbText
  0
TEXT
  5
52C
330
20
100
AcDbEntity
  8
BEM
100
AcDbText
 10
1134.072126432316
 20
335.920258916819
 30
0.0
 40
1.8
  1

 41
0.8
  7
GREEKS
100
AcDbText
  0
TEXT
  5
52D
330
20
100
AcDbEntity
  8
BEM
100
AcDbText
 10
1121.388555552705
 20
361.5118480130443
 30
0.0
 40
2.0
  1

 41
0.8
  7
GREEKS
 72
     1
 11
1121.388555552705
 21
361.5118480130443
 31
0.0
100
AcDbText
  0
TEXT
  5
52E
330
20
100
AcDbEntity
  8
TEXT
100
AcDbText
 10
1431.489274273999
 20
351.1895714496372
 30
0.0
 40
2.5
  1
  
  7
GREEKS
 72
     1
 11
1433.751179035904
 21
351.1895714496372
 31
0.0
100
AcDbText
  0
TEXT
  5
52F
330
20
100
AcDbEntity
  8
BEM
100
AcDbText
 10
1675.608991586481
 20
486.7484534800395
 30
0.0
 40
2.5
  1
 
 72
     4
 11
1676.739943967433
 21
486.7484534800395
 31
0.0
100
AcDbText
  0
TEXT
  5
530
330
20
100
AcDbEntity
  8
VOLL
100
AcDbText
 10
894.5613855065753
 20
333.6654761580217
 30
0.0
 40
1.8
  1

  7
GREEKS
100
AcDbText
  0
TEXT
  5
531
330
20
100
AcDbEntity
  8
TEXT
100
AcDbText
 10
1226.393653710168
 20
339.2237116912473
 30
0.0
 40
2.5
  1
  
  7
GREEKS
 72
     1
 11
1228.655558472073
 21
339.2237116912473
 31
0.0
100
AcDbText
  0
TEXT
  5
532
330
20
100
AcDbEntity
  8
BEM
100
AcDbText
 10
1470.51337102265
 20
474.7825937216495
 30
0.0
 40
2.5
  1
 
 72
     4
 11
1471.644323403602
 21
474.7825937216495
 31
0.0
100
AcDbText
  0
TEXT
  5
533
330
20
100
AcDbEntity
  8
BEM
100
AcDbText
 10
1059.906998586225
 20
373.8187068566074
 30
0.0
 40
2.5
  1

  7
GREEKS
100
AcDbText
  0
TEXT
  5
534
330
20
100
AcDbEntity
  8
VOLL
100
AcDbText
 10
1045.840805566503
 20
353.6354461995723
 30
0.0
 40
1.8
  1

  7
GREEKS
100
AcDbText
  0
TEXT
  5
535
330
20
100
AcDbEntity
  8
BEM
100
AcDbText
 10
1080.328870405788
 20
358.3611705227929
 30
0.0
 40
2.5
  1

 41
0.8
  7
GREEKS
100
AcDbText
  0
TEXT
  5
536
330
20
100
AcDbEntity
  8
BEM
100
AcDbText
 10
1080.328870405788
 20
353.6674019687408
 30
0.0
 40
2.5
  1

 41
0.8
  7
GREEKS
100
AcDbText
  0
TEXT
  5
537
330
20
100
AcDbEntity
  8
BEM
100
AcDbText
 10
1080.328870405788
 20
348.4295581500772
 30
0.0
 40
2.5
  1

 41
0.8
  7
GREEKS
100
AcDbText
  0
TEXT
  5
538
330
20
100
AcDbEntity
  8
BEM
100
AcDbText
 10
1080.255925928414
 20
343.9243691999796
 30
0.0
 40
1.8
  1

 41
0.8
  7
GREEKS
100
AcDbText
  0
TEXT
  5
539
330
20
100
AcDbEntity
  8
BEM
100
AcDbText
 10
1067.572355048802
 20
369.5159582962049
 30
0.0
 40
2.0
  1

 41
0.8
  7
GREEKS
 72
     1
 11
1067.572355048802
 21
369.5159582962049
 31
0.0
100
AcDbText
  0
TEXT
  5
53A
330
20
100
AcDbEntity
  8
TEXT
100
AcDbText
 10
1377.673073770096
 20
359.1936817327979
 30
0.0
 40
2.5
  1
  
  7
GREEKS
 72
     1
 11
1379.934978532001
 21
359.1936817327979
 31
0.0
100
AcDbText
  0
TEXT
  5
53B
330
20
100
AcDbEntity
  8
BEM
100
AcDbText
 10
1621.792791082579
 20
494.7525637632001
 30
0.0
 40
2.5
  1
 
 72
     4
 11
1622.923743463531
 21
494.7525637632001
 31
0.0
100
AcDbText
  0
TEXT
  5
53C
330
20
100
AcDbEntity
  8
VOLL
100
AcDbText
 10
1172.962524362321
 20
314.0748864249834
 30
0.0
 40
1.8
  1

  7
GREEKS
100
AcDbText
  0
TEXT
  5
53D
330
20
100
AcDbEntity
  8
TEXT
100
AcDbText
 10
1504.794792565914
 20
319.633121958209
 30
0.0
 40
2.5
  1
  
  7
GREEKS
 72
     1
 11
1507.056697327819
 21
319.633121958209
 31
0.0
100
AcDbText
  0
TEXT
  5
53E
330
20
100
AcDbEntity
  8
BEM
100
AcDbText
 10
1748.914509878397
 20
455.1920039886112
 30
0.0
 40
2.5
  1
 
 72
     4
 11
1750.045462259349
 21
455.1920039886112
 31
0.0
100
AcDbText
  0
TEXT
  5
53F
330
20
100
AcDbEntity
  8
VOLL
100
AcDbText
 10
1330.497241439483
 20
319.6304420600546
 30
0.0
 40
1.8
  1

  7
GREEKS
100
AcDbText
  0
TEXT
  5
540
330
20
100
AcDbEntity
  8
BEM
100
AcDbText
 10
1364.985306278768
 20
324.3561663832752
 30
0.0
 40
2.5
  1

 41
0.8
  7
GREEKS
100
AcDbText
  0
TEXT
  5
541
330
20
100
AcDbEntity
  8
BEM
100
AcDbText
 10
1364.985306278768
 20
319.6623978292231
 30
0.0
 40
2.5
  1

 41
0.8
  7
GREEKS
100
AcDbText
  0
TEXT
  5
542
330
20
100
AcDbEntity
  8
BEM
100
AcDbText
 10
1364.985306278768
 20
314.4245540105596
 30
0.0
 40
2.5
  1

 41
0.8
  7
GREEKS
100
AcDbText
  0
TEXT
  5
543
330
20
100
AcDbEntity
  8
BEM
100
AcDbText
 10
1364.912361801393
 20
309.919365060462
 30
0.0
 40
1.8
  1

 41
0.8
  7
GREEKS
100
AcDbText
  0
TEXT
  5
544
330
20
100
AcDbEntity
  8
TEXT
100
AcDbText
 10
1662.329509643076
 20
325.1886775932801
 30
0.0
 40
2.5
  1
  
  7
GREEKS
 72
     1
 11
1664.591414404981
 21
325.1886775932801
 31
0.0
100
AcDbText
  0
TEXT
  5
545
330
20
100
AcDbEntity
  8
BEM
100
AcDbText
 10
1906.449226955558
 20
460.7475596236824
 30
0.0
 40
2.5
  1
 
 72
     4
 11
1907.580179336511
 21
460.7475596236824
 31
0.0
100
AcDbText
  0
TEXT
  5
570
330
20
100
AcDbEntity
  8
TEXT
100
AcDbText
 10
50.61890059558578
 20
113.2854817854125
 30
0.0
 40
5.0
  1
Erstellt mit AUTOCAD 2004
 41
0.8
  7
GREEKS
100
AcDbText
  0
LINE
  5
576
330
20
100
AcDbEntity
  8
HILF
100
AcDbLine
 10
0.0
 20
0.0
 30
0.0
 11
0.0
 21
594.0
 31
0.0
  0
TEXT
  5
7DD
330
20
100
AcDbEntity
  8
TEXT
100
AcDbText
 10
417.3022923857165
 20
10.16790107998861
 30
0.0
 40
4.0
  1
Diese Zeichnung ist urheberrechtlich geschützt und bleibt unser Eigentum. Sie darf weder ganz noch teilweise verfielfältigt und nicht an Dritte weitergegeben werden.
 50
90.0
 41
0.8
  7
GREEKS
100
AcDbText
  0
TEXT
  5
7E5
330
20
100
AcDbEntity
  8
TEXT
 62
     1
100
AcDbText
 10
244.6057658946466
 20
136.6308610916437
 30
0.0
 40
7.0
  1
und innen beschichtet
 41
0.8
  7
GREEKS
100
AcDbText
  0
TEXT
  5
7E6
330
20
100
AcDbEntity
  8
TEXT
 62
     1
100
AcDbText
 10
196.6560484572488
 20
147.3529729066472
 30
0.0
 40
7.0
  1
Innenrohr: E195 EN10305 feuerverzinkt
 41
0.8
  7
GREEKS
100
AcDbText
  0
TEXT
  5
7E7
330
20
100
AcDbEntity
  8
TEXT
100
AcDbText
 10
192.5556106269613
 20
89.7253168893854
 30
0.0
 40
4.0
  1
DIN EN1123-2
 41
0.8
  7
GREEKS
 72
     1
 11
209.5460868174375
 21
89.7253168893854
 31
0.0
100
AcDbText
  0
TEXT
  5
8CA
330
20
100
AcDbEntity
  8
TEXT
 62
     1
100
AcDbText
 10
193.9286004307248
 20
125.5580284186029
 30
0.0
 40
7.0
  1
Dämmung: 2 K-PU-Schaum
 41
0.8
  7
GREEKS
100
AcDbText
  0
TEXT
  5
AA6
330
20
100
AcDbEntity
  8
TEXT
 62
     1
100
AcDbText
 10
192.8040242129824
 20
160.0099636630261
 30
0.0
 40
7.0
  1
Außenrohr: E195 EN10305 feuerverzinkt
 41
0.8
  7
GREEKS
100
AcDbText
  0
TEXT
  5
C69
330
20
100
AcDbEntity
  8
VOLL
100
AcDbText
 10
1068.201442450681
 20
158.7853560093916
 30
0.0
 40
1.8
  1

  7
GREEKS
100
AcDbText
  0
TEXT
  5
C6A
330
20
100
AcDbEntity
  8
VOLL
100
AcDbText
 10
1157.867616376354
 20
164.077472725111
 30
0.0
 40
1.8
  1

  7
GREEKS
100
AcDbText
  0
TEXT
  5
C6B
330
20
100
AcDbEntity
  8
TEXT
100
AcDbText
 10
1489.699884579947
 20
169.6357082583365
 30
0.0
 40
2.5
  1
  
  7
GREEKS
 72
     1
 11
1491.961789341852
 21
169.6357082583365
 31
0.0
100
AcDbText
  0
TEXT
  5
C6C
330
20
100
AcDbEntity
  8
BEM
100
AcDbText
 10
1733.819601892429
 20
305.1945902887388
 30
0.0
 40
2.5
  1
 
 72
     4
 11
1734.950554273381
 21
305.1945902887388
 31
0.0
100
AcDbText
  0
TEXT
  5
C6D
330
20
100
AcDbEntity
  8
BEM
100
AcDbText
 10
1299.508946022278
 20
187.7141869162724
 30
0.0
 40
2.5
  1

  7
GREEKS
100
AcDbText
  0
TEXT
  5
C6E
330
20
100
AcDbEntity
  8
VOLL
100
AcDbText
 10
1285.442753002557
 20
167.5309262592373
 30
0.0
 40
1.8
  1

  7
GREEKS
100
AcDbText
  0
TEXT
  5
C6F
330
20
100
AcDbEntity
  8
BEM
100
AcDbText
 10
1319.930817841842
 20
172.2566505824579
 30
0.0
 40
2.5
  1

 41
0.8
  7
GREEKS
100
AcDbText
  0
TEXT
  5
C70
330
20
100
AcDbEntity
  8
BEM
100
AcDbText
 10
1319.930817841842
 20
167.5628820284057
 30
0.0
 40
2.5
  1

 41
0.8
  7
GREEKS
100
AcDbText
  0
TEXT
  5
C71
330
20
100
AcDbEntity
  8
BEM
100
AcDbText
 10
1319.930817841842
 20
162.3250382097422
 30
0.0
 40
2.5
  1

 41
0.8
  7
GREEKS
100
AcDbText
  0
TEXT
  5
C72
330
20
100
AcDbEntity
  8
BEM
100
AcDbText
 10
1319.857873364467
 20
157.8198492596446
 30
0.0
 40
1.8
  1

 41
0.8
  7
GREEKS
100
AcDbText
  0
TEXT
  5
C73
330
20
100
AcDbEntity
  8
BEM
100
AcDbText
 10
1307.174302484856
 20
183.4114383558699
 30
0.0
 40
2.0
  1

 41
0.8
  7
GREEKS
 72
     1
 11
1307.174302484856
 21
183.4114383558699
 31
0.0
100
AcDbText
  0
TEXT
  5
C74
330
20
100
AcDbEntity
  8
TEXT
100
AcDbText
 10
1617.27502120615
 20
173.0891617924628
 30
0.0
 40
2.5
  1
  
  7
GREEKS
 72
     1
 11
1619.536925968055
 21
173.0891617924628
 31
0.0
100
AcDbText
  0
TEXT
  5
C75
330
20
100
AcDbEntity
  8
BEM
100
AcDbText
 10
1861.394738518632
 20
308.6480438228651
 30
0.0
 40
2.5
  1
 
 72
     4
 11
1862.525690899584
 21
308.6480438228651
 31
0.0
100
AcDbText
  0
TEXT
  5
C76
330
20
100
AcDbEntity
  8
VOLL
100
AcDbText
 10
1210.159517397842
 20
174.9824403212264
 30
0.0
 40
1.8
  1

  7
GREEKS
100
AcDbText
  0
TEXT
  5
C77
330
20
100
AcDbEntity
  8
TEXT
100
AcDbText
 10
1541.991785601435
 20
180.540675854452
 30
0.0
 40
2.5
  1
  
  7
GREEKS
 72
     1
 11
1544.25369036334
 21
180.540675854452
 31
0.0
100
AcDbText
  0
TEXT
  5
C78
330
20
100
AcDbEntity
  8
BEM
100
AcDbText
 10
1786.111502913917
 20
316.0995578848542
 30
0.0
 40
2.5
  1
 
 72
     4
 11
1787.24245529487
 21
316.0995578848542
 31
0.0
100
AcDbText
  0
TEXT
  5
C79
330
20
100
AcDbEntity
  8
BEM
100
AcDbText
 10
1365.299119554638
 20
195.315851210903
 30
0.0
 40
2.5
  1

  7
GREEKS
100
AcDbText
  0
TEXT
  5
C7A
330
20
100
AcDbEntity
  8
VOLL
100
AcDbText
 10
1351.232926534917
 20
175.1325905538679
 30
0.0
 40
1.8
  1

  7
GREEKS
100
AcDbText
  0
TEXT
  5
C7B
330
20
100
AcDbEntity
  8
BEM
100
AcDbText
 10
1385.720991374201
 20
179.8583148770885
 30
0.0
 40
2.5
  1

 41
0.8
  7
GREEKS
100
AcDbText
  0
TEXT
  5
C7C
330
20
100
AcDbEntity
  8
BEM
100
AcDbText
 10
1385.720991374201
 20
175.1645463230363
 30
0.0
 40
2.5
  1

 41
0.8
  7
GREEKS
100
AcDbText
  0
TEXT
  5
C7D
330
20
100
AcDbEntity
  8
BEM
100
AcDbText
 10
1385.720991374201
 20
169.9267025043728
 30
0.0
 40
2.5
  1

 41
0.8
  7
GREEKS
100
AcDbText
  0
TEXT
  5
C7E
330
20
100
AcDbEntity
  8
BEM
100
AcDbText
 10
1385.648046896827
 20
165.4215135542752
 30
0.0
 40
1.8
  1

 41
0.8
  7
GREEKS
100
AcDbText
  0
TEXT
  5
C7F
330
20
100
AcDbEntity
  8
BEM
100
AcDbText
 10
1372.964476017216
 20
191.0131026505005
 30
0.0
 40
2.0
  1

 41
0.8
  7
GREEKS
 72
     1
 11
1372.964476017216
 21
191.0131026505005
 31
0.0
100
AcDbText
  0
TEXT
  5
C80
330
20
100
AcDbEntity
  8
TEXT
100
AcDbText
 10
1683.065194738509
 20
180.6908260870934
 30
0.0
 40
2.5
  1
  
  7
GREEKS
 72
     1
 11
1685.327099500414
 21
180.6908260870934
 31
0.0
100
AcDbText
  0
TEXT
  5
C81
330
20
100
AcDbEntity
  8
BEM
100
AcDbText
 10
1927.184912050992
 20
316.2497081174957
 30
0.0
 40
2.5
  1
 
 72
     4
 11
1928.315864431944
 21
316.2497081174957
 31
0.0
100
AcDbText
  0
TEXT
  5
C82
330
20
100
AcDbEntity
  8
VOLL
100
AcDbText
 10
1146.137305971086
 20
163.1667307954779
 30
0.0
 40
1.8
  1

  7
GREEKS
100
AcDbText
  0
TEXT
  5
C83
330
20
100
AcDbEntity
  8
TEXT
100
AcDbText
 10
1477.969574174679
 20
168.7249663287035
 30
0.0
 40
2.5
  1
  
  7
GREEKS
 72
     1
 11
1480.231478936584
 21
168.7249663287035
 31
0.0
100
AcDbText
  0
TEXT
  5
C84
330
20
100
AcDbEntity
  8
BEM
100
AcDbText
 10
1722.089291487161
 20
304.2838483591057
 30
0.0
 40
2.5
  1
 
 72
     4
 11
1723.220243868113
 21
304.2838483591057
 31
0.0
100
AcDbText
  0
TEXT
  5
C85
330
20
100
AcDbEntity
  8
BEM
100
AcDbText
 10
1311.482919050735
 20
203.3199614940636
 30
0.0
 40
2.5
  1

  7
GREEKS
100
AcDbText
  0
TEXT
  5
C86
330
20
100
AcDbEntity
  8
VOLL
100
AcDbText
 10
1297.416726031014
 20
183.1367008370285
 30
0.0
 40
1.8
  1

  7
GREEKS
100
AcDbText
  0
TEXT
  5
C87
330
20
100
AcDbEntity
  8
BEM
100
AcDbText
 10
1331.904790870299
 20
187.8624251602491
 30
0.0
 40
2.5
  1

 41
0.8
  7
GREEKS
100
AcDbText
  0
TEXT
  5
C88
330
20
100
AcDbEntity
  8
BEM
100
AcDbText
 10
1331.904790870299
 20
183.1686566061969
 30
0.0
 40
2.5
  1

 41
0.8
  7
GREEKS
100
AcDbText
  0
TEXT
  5
C89
330
20
100
AcDbEntity
  8
BEM
100
AcDbText
 10
1331.904790870299
 20
177.9308127875334
 30
0.0
 40
2.5
  1

 41
0.8
  7
GREEKS
100
AcDbText
  0
TEXT
  5
C8A
330
20
100
AcDbEntity
  8
BEM
100
AcDbText
 10
1331.831846392924
 20
173.4256238374358
 30
0.0
 40
1.8
  1

 41
0.8
  7
GREEKS
100
AcDbText
  0
TEXT
  5
C8B
330
20
100
AcDbEntity
  8
BEM
100
AcDbText
 10
1319.148275513313
 20
199.0172129336611
 30
0.0
 40
2.0
  1

 41
0.8
  7
GREEKS
 72
     1
 11
1319.148275513313
 21
199.0172129336611
 31
0.0
100
AcDbText
  0
TEXT
  5
C8C
330
20
100
AcDbEntity
  8
TEXT
100
AcDbText
 10
1629.248994234607
 20
188.694936370254
 30
0.0
 40
2.5
  1
  
  7
GREEKS
 72
     1
 11
1631.510898996512
 21
188.694936370254
 31
0.0
100
AcDbText
  0
TEXT
  5
C8D
330
20
100
AcDbEntity
  8
BEM
100
AcDbText
 10
1873.368711547089
 20
324.2538184006563
 30
0.0
 40
2.5
  1
 
 72
     4
 11
1874.499663928041
 21
324.2538184006563
 31
0.0
100
AcDbText
  0
TEXT
  5
C8E
330
20
100
AcDbEntity
  8
VOLL
100
AcDbText
 10
1473.718882224197
 20
168.2851741729805
 30
0.0
 40
1.8
  1

  7
GREEKS
100
AcDbText
  0
TEXT
  5
C8F
330
20
100
AcDbEntity
  8
VOLL
100
AcDbText
 10
1563.38505614987
 20
173.5772908886998
 30
0.0
 40
1.8
  1

  7
GREEKS
100
AcDbText
  0
TEXT
  5
C90
330
20
100
AcDbEntity
  8
TEXT
100
AcDbText
 10
1895.217324353463
 20
179.1355264219253
 30
0.0
 40
2.5
  1
  
  7
GREEKS
 72
     1
 11
1897.479229115368
 21
179.1355264219253
 31
0.0
100
AcDbText
  0
TEXT
  5
C91
330
20
100
AcDbEntity
  8
BEM
100
AcDbText
 10
2139.337041665946
 20
314.6944084523275
 30
0.0
 40
2.5
  1
 
 72
     4
 11
2140.467994046898
 21
314.6944084523275
 31
0.0
100
AcDbText
  0
TEXT
  5
C92
330
20
100
AcDbEntity
  8
BEM
100
AcDbText
 10
1705.026385795795
 20
197.2140050798612
 30
0.0
 40
2.5
  1

  7
GREEKS
100
AcDbText
  0
TEXT
  5
C93
330
20
100
AcDbEntity
  8
VOLL
100
AcDbText
 10
1690.960192776073
 20
177.0307444228261
 30
0.0
 40
1.8
  1

  7
GREEKS
100
AcDbText
  0
TEXT
  5
C94
330
20
100
AcDbEntity
  8
BEM
100
AcDbText
 10
1725.448257615358
 20
181.7564687460467
 30
0.0
 40
2.5
  1

 41
0.8
  7
GREEKS
100
AcDbText
  0
TEXT
  5
C95
330
20
100
AcDbEntity
  8
BEM
100
AcDbText
 10
1725.448257615358
 20
177.0627001919945
 30
0.0
 40
2.5
  1

 41
0.8
  7
GREEKS
100
AcDbText
  0
TEXT
  5
C96
330
20
100
AcDbEntity
  8
BEM
100
AcDbText
 10
1725.448257615358
 20
171.824856373331
 30
0.0
 40
2.5
  1

 41
0.8
  7
GREEKS
100
AcDbText
  0
TEXT
  5
C97
330
20
100
AcDbEntity
  8
BEM
100
AcDbText
 10
1725.375313137983
 20
167.3196674232334
 30
0.0
 40
1.8
  1

 41
0.8
  7
GREEKS
100
AcDbText
  0
TEXT
  5
C98
330
20
100
AcDbEntity
  8
BEM
100
AcDbText
 10
1712.691742258372
 20
192.9112565194587
 30
0.0
 40
2.0
  1

 41
0.8
  7
GREEKS
 72
     1
 11
1712.691742258372
 21
192.9112565194587
 31
0.0
100
AcDbText
  0
TEXT
  5
C99
330
20
100
AcDbEntity
  8
TEXT
100
AcDbText
 10
2022.792460979666
 20
182.5889799560516
 30
0.0
 40
2.5
  1
  
  7
GREEKS
 72
     1
 11
2025.054365741571
 21
182.5889799560516
 31
0.0
100
AcDbText
  0
TEXT
  5
C9A
330
20
100
AcDbEntity
  8
BEM
100
AcDbText
 10
2266.912178292149
 20
318.1478619864539
 30
0.0
 40
2.5
  1
 
 72
     4
 11
2268.043130673101
 21
318.1478619864539
 31
0.0
100
AcDbText
  0
TEXT
  5
C9B
330
20
100
AcDbEntity
  8
VOLL
100
AcDbText
 10
1481.632196915981
 20
145.3361012804799
 30
0.0
 40
1.8
  1

  7
GREEKS
100
AcDbText
  0
TEXT
  5
C9C
330
20
100
AcDbEntity
  8
VOLL
100
AcDbText
 10
1571.298370841654
 20
150.6282179961992
 30
0.0
 40
1.8
  1

  7
GREEKS
100
AcDbText
  0
TEXT
  5
C9D
330
20
100
AcDbEntity
  8
TEXT
100
AcDbText
 10
1903.130639045247
 20
156.1864535294248
 30
0.0
 40
2.5
  1
  
  7
GREEKS
 72
     1
 11
1905.392543807151
 21
156.1864535294248
 31
0.0
100
AcDbText
  0
TEXT
  5
C9E
330
20
100
AcDbEntity
  8
BEM
100
AcDbText
 10
2147.250356357729
 20
291.745335559827
 30
0.0
 40
2.5
  1
 
 72
     4
 11
2148.381308738681
 21
291.745335559827
 31
0.0
100
AcDbText
  0
TEXT
  5
C9F
330
20
100
AcDbEntity
  8
BEM
100
AcDbText
 10
1712.939700487578
 20
174.2649321873606
 30
0.0
 40
2.5
  1

  7
GREEKS
100
AcDbText
  0
TEXT
  5
CA0
330
20
100
AcDbEntity
  8
VOLL
100
AcDbText
 10
1698.873507467856
 20
154.0816715303255
 30
0.0
 40
1.8
  1

  7
GREEKS
100
AcDbText
  0
TEXT
  5
CA1
330
20
100
AcDbEntity
  8
BEM
100
AcDbText
 10
1733.361572307141
 20
158.8073958535461
 30
0.0
 40
2.5
  1

 41
0.8
  7
GREEKS
100
AcDbText
  0
TEXT
  5
CA2
330
20
100
AcDbEntity
  8
BEM
100
AcDbText
 10
1733.361572307141
 20
154.113627299494
 30
0.0
 40
2.5
  1

 41
0.8
  7
GREEKS
100
AcDbText
  0
TEXT
  5
CA3
330
20
100
AcDbEntity
  8
BEM
100
AcDbText
 10
1733.361572307141
 20
148.8757834808305
 30
0.0
 40
2.5
  1

 41
0.8
  7
GREEKS
100
AcDbText
  0
TEXT
  5
CA4
330
20
100
AcDbEntity
  8
BEM
100
AcDbText
 10
1733.288627829767
 20
144.3705945307329
 30
0.0
 40
1.8
  1

 41
0.8
  7
GREEKS
100
AcDbText
  0
TEXT
  5
CA5
330
20
100
AcDbEntity
  8
BEM
100
AcDbText
 10
1720.605056950156
 20
169.9621836269581
 30
0.0
 40
2.0
  1

 41
0.8
  7
GREEKS
 72
     1
 11
1720.605056950156
 21
169.9621836269581
 31
0.0
100
AcDbText
  0
TEXT
  5
CA6
330
20
100
AcDbEntity
  8
TEXT
100
AcDbText
 10
2030.705775671449
 20
159.6399070635511
 30
0.0
 40
2.5
  1
  
  7
GREEKS
 72
     1
 11
2032.967680433355
 21
159.6399070635511
 31
0.0
100
AcDbText
  0
TEXT
  5
CA7
330
20
100
AcDbEntity
  8
BEM
100
AcDbText
 10
2274.825492983932
 20
295.1987890939534
 30
0.0
 40
2.5
  1
 
 72
     4
 11
2275.956445364884
 21
295.1987890939534
 31
0.0
100
AcDbText
  0
TEXT
  5
CA8
330
20
100
AcDbEntity
  8
VOLL
100
AcDbText
 10
1623.590271863142
 20
161.5331855923147
 30
0.0
 40
1.8
  1

  7
GREEKS
100
AcDbText
  0
TEXT
  5
CA9
330
20
100
AcDbEntity
  8
TEXT
100
AcDbText
 10
1955.422540066735
 20
167.0914211255402
 30
0.0
 40
2.5
  1
  
  7
GREEKS
 72
     1
 11
1957.68444482864
 21
167.0914211255402
 31
0.0
100
AcDbText
  0
TEXT
  5
CAA
330
20
100
AcDbEntity
  8
BEM
100
AcDbText
 10
2199.542257379217
 20
302.6503031559425
 30
0.0
 40
2.5
  1
 
 72
     4
 11
2200.67320976017
 21
302.6503031559425
 31
0.0
100
AcDbText
  0
TEXT
  5
CAB
330
20
100
AcDbEntity
  8
BEM
100
AcDbText
 10
1778.729874019938
 20
181.8665964819912
 30
0.0
 40
2.5
  1

  7
GREEKS
100
AcDbText
  0
TEXT
  5
CAC
330
20
100
AcDbEntity
  8
VOLL
100
AcDbText
 10
1764.663681000216
 20
161.6833358249561
 30
0.0
 40
1.8
  1

  7
GREEKS
100
AcDbText
  0
TEXT
  5
CAD
330
20
100
AcDbEntity
  8
BEM
100
AcDbText
 10
1799.151745839501
 20
166.4090601481767
 30
0.0
 40
2.5
  1

 41
0.8
  7
GREEKS
100
AcDbText
  0
TEXT
  5
CAE
330
20
100
AcDbEntity
  8
BEM
100
AcDbText
 10
1799.151745839501
 20
161.7152915941246
 30
0.0
 40
2.5
  1

 41
0.8
  7
GREEKS
100
AcDbText
  0
TEXT
  5
CAF
330
20
100
AcDbEntity
  8
BEM
100
AcDbText
 10
1799.151745839501
 20
156.4774477754611
 30
0.0
 40
2.5
  1

 41
0.8
  7
GREEKS
100
AcDbText
  0
TEXT
  5
CB0
330
20
100
AcDbEntity
  8
BEM
100
AcDbText
 10
1799.078801362127
 20
151.9722588253634
 30
0.0
 40
1.8
  1

 41
0.8
  7
GREEKS
100
AcDbText
  0
TEXT
  5
CB1
330
20
100
AcDbEntity
  8
BEM
100
AcDbText
 10
1786.395230482515
 20
177.5638479215887
 30
0.0
 40
2.0
  1

 41
0.8
  7
GREEKS
 72
     1
 11
1786.395230482515
 21
177.5638479215887
 31
0.0
100
AcDbText
  0
TEXT
  5
CB2
330
20
100
AcDbEntity
  8
TEXT
100
AcDbText
 10
2096.49594920381
 20
167.2415713581817
 30
0.0
 40
2.5
  1
  
  7
GREEKS
 72
     1
 11
2098.757853965715
 21
167.2415713581817
 31
0.0
100
AcDbText
  0
TEXT
  5
CB3
330
20
100
AcDbEntity
  8
BEM
100
AcDbText
 10
2340.615666516292
 20
302.8004533885839
 30
0.0
 40
2.5
  1
 
 72
     4
 11
2341.746618897244
 21
302.8004533885839
 31
0.0
100
AcDbText
  0
TEXT
  5
CB4
330
20
100
AcDbEntity
  8
VOLL
100
AcDbText
 10
1254.207412176257
 20
356.1954150721206
 30
0.0
 40
1.8
  1

  7
GREEKS
100
AcDbText
  0
TEXT
  5
CB5
330
20
100
AcDbEntity
  8
VOLL
100
AcDbText
 10
1343.873586101931
 20
361.48753178784
 30
0.0
 40
1.8
  1

  7
GREEKS
100
AcDbText
  0
TEXT
  5
CB6
330
20
100
AcDbEntity
  8
TEXT
100
AcDbText
 10
1675.705854305524
 20
367.0457673210655
 30
0.0
 40
2.5
  1
  
  7
GREEKS
 72
     1
 11
1677.967759067428
 21
367.0457673210655
 31
0.0
100
AcDbText
  0
TEXT
  5
CB7
330
20
100
AcDbEntity
  8
BEM
100
AcDbText
 10
1919.825571618006
 20
502.6046493514677
 30
0.0
 40
2.5
  1
 
 72
     4
 11
1920.956523998958
 21
502.6046493514677
 31
0.0
100
AcDbText
  0
TEXT
  5
CB8
330
20
100
AcDbEntity
  8
BEM
100
AcDbText
 10
1485.514915747855
 20
385.1242459790013
 30
0.0
 40
2.5
  1

  7
GREEKS
100
AcDbText
  0
TEXT
  5
CB9
330
20
100
AcDbEntity
  8
VOLL
100
AcDbText
 10
1471.448722728134
 20
364.9409853219662
 30
0.0
 40
1.8
  1

  7
GREEKS
100
AcDbText
  0
TEXT
  5
CBA
330
20
100
AcDbEntity
  8
BEM
100
AcDbText
 10
1505.936787567418
 20
369.6667096451868
 30
0.0
 40
2.5
  1

 41
0.8
  7
GREEKS
100
AcDbText
  0
TEXT
  5
CBB
330
20
100
AcDbEntity
  8
BEM
100
AcDbText
 10
1505.936787567418
 20
364.9729410911347
 30
0.0
 40
2.5
  1

 41
0.8
  7
GREEKS
100
AcDbText
  0
TEXT
  5
CBC
330
20
100
AcDbEntity
  8
BEM
100
AcDbText
 10
1505.936787567418
 20
359.7350972724712
 30
0.0
 40
2.5
  1

 41
0.8
  7
GREEKS
100
AcDbText
  0
TEXT
  5
CBD
330
20
100
AcDbEntity
  8
BEM
100
AcDbText
 10
1505.863843090044
 20
355.2299083223735
 30
0.0
 40
1.8
  1

 41
0.8
  7
GREEKS
100
AcDbText
  0
TEXT
  5
CBE
330
20
100
AcDbEntity
  8
BEM
100
AcDbText
 10
1493.180272210433
 20
380.8214974185988
 30
0.0
 40
2.0
  1

 41
0.8
  7
GREEKS
 72
     1
 11
1493.180272210433
 21
380.8214974185988
 31
0.0
100
AcDbText
  0
TEXT
  5
CBF
330
20
100
AcDbEntity
  8
TEXT
100
AcDbText
 10
1803.280990931727
 20
370.4992208551918
 30
0.0
 40
2.5
  1
  
  7
GREEKS
 72
     1
 11
1805.542895693632
 21
370.4992208551918
 31
0.0
100
AcDbText
  0
TEXT
  5
CC0
330
20
100
AcDbEntity
  8
BEM
100
AcDbText
 10
2047.400708244209
 20
506.0581028855939
 30
0.0
 40
2.5
  1
 
 72
     4
 11
2048.531660625161
 21
506.0581028855939
 31
0.0
100
AcDbText
  0
TEXT
  5
CC1
330
20
100
AcDbEntity
  8
VOLL
100
AcDbText
 10
1396.165487123419
 20
372.3924993839553
 30
0.0
 40
1.8
  1

  7
GREEKS
100
AcDbText
  0
TEXT
  5
CC2
330
20
100
AcDbEntity
  8
TEXT
100
AcDbText
 10
1727.997755327012
 20
377.9507349171809
 30
0.0
 40
2.5
  1
  
  7
GREEKS
 72
     1
 11
1730.259660088917
 21
377.9507349171809
 31
0.0
100
AcDbText
  0
TEXT
  5
CC3
330
20
100
AcDbEntity
  8
BEM
100
AcDbText
 10
1972.117472639494
 20
513.5096169475831
 30
0.0
 40
2.5
  1
 
 72
     4
 11
1973.248425020446
 21
513.5096169475831
 31
0.0
100
AcDbText
  0
TEXT
  5
CC4
330
20
100
AcDbEntity
  8
BEM
100
AcDbText
 10
1551.305089280215
 20
392.7259102736319
 30
0.0
 40
2.5
  1

  7
GREEKS
100
AcDbText
  0
TEXT
  5
CC5
330
20
100
AcDbEntity
  8
VOLL
100
AcDbText
 10
1537.238896260493
 20
372.5426496165968
 30
0.0
 40
1.8
  1

  7
GREEKS
100
AcDbText
  0
TEXT
  5
CC6
330
20
100
AcDbEntity
  8
BEM
100
AcDbText
 10
1571.726961099778
 20
377.2683739398174
 30
0.0
 40
2.5
  1

 41
0.8
  7
GREEKS
100
AcDbText
  0
TEXT
  5
CC7
330
20
100
AcDbEntity
  8
BEM
100
AcDbText
 10
1571.726961099778
 20
372.5746053857653
 30
0.0
 40
2.5
  1

 41
0.8
  7
GREEKS
100
AcDbText
  0
TEXT
  5
CC8
330
20
100
AcDbEntity
  8
BEM
100
AcDbText
 10
1571.726961099778
 20
367.3367615671017
 30
0.0
 40
2.5
  1

 41
0.8
  7
GREEKS
100
AcDbText
  0
TEXT
  5
CC9
330
20
100
AcDbEntity
  8
BEM
100
AcDbText
 10
1571.654016622403
 20
362.8315726170042
 30
0.0
 40
1.8
  1

 41
0.8
  7
GREEKS
100
AcDbText
  0
TEXT
  5
CCA
330
20
100
AcDbEntity
  8
BEM
100
AcDbText
 10
1558.970445742792
 20
388.4231617132294
 30
0.0
 40
2.0
  1

 41
0.8
  7
GREEKS
 72
     1
 11
1558.970445742792
 21
388.4231617132294
 31
0.0
100
AcDbText
  0
TEXT
  5
CCB
330
20
100
AcDbEntity
  8
TEXT
100
AcDbText
 10
1869.071164464086
 20
378.1008851498224
 30
0.0
 40
2.5
  1
  
  7
GREEKS
 72
     1
 11
1871.333069225991
 21
378.1008851498224
 31
0.0
100
AcDbText
  0
TEXT
  5
CCC
330
20
100
AcDbEntity
  8
BEM
100
AcDbText
 10
2113.190881776568
 20
513.6597671802246
 30
0.0
 40
2.5
  1
 
 72
     4
 11
2114.321834157521
 21
513.6597671802246
 31
0.0
100
AcDbText
  0
TEXT
  5
CCD
330
20
100
AcDbEntity
  8
VOLL
100
AcDbText
 10
1332.143275696662
 20
360.5767898582068
 30
0.0
 40
1.8
  1

  7
GREEKS
100
AcDbText
  0
TEXT
  5
CCE
330
20
100
AcDbEntity
  8
TEXT
100
AcDbText
 10
1663.975543900255
 20
366.1350253914324
 30
0.0
 40
2.5
  1
  
  7
GREEKS
 72
     1
 11
1666.23744866216
 21
366.1350253914324
 31
0.0
100
AcDbText
  0
TEXT
  5
CCF
330
20
100
AcDbEntity
  8
BEM
100
AcDbText
 10
1908.095261212737
 20
501.6939074218346
 30
0.0
 40
2.5
  1
 
 72
     4
 11
1909.22621359369
 21
501.6939074218346
 31
0.0
100
AcDbText
  0
TEXT
  5
CD0
330
20
100
AcDbEntity
  8
BEM
100
AcDbText
 10
1497.488888776312
 20
400.7300205567926
 30
0.0
 40
2.5
  1

  7
GREEKS
100
AcDbText
  0
TEXT
  5
CD1
330
20
100
AcDbEntity
  8
VOLL
100
AcDbText
 10
1483.422695756591
 20
380.5467598997574
 30
0.0
 40
1.8
  1

  7
GREEKS
100
AcDbText
  0
TEXT
  5
CD2
330
20
100
AcDbEntity
  8
BEM
100
AcDbText
 10
1517.910760595875
 20
385.272484222978
 30
0.0
 40
2.5
  1

 41
0.8
  7
GREEKS
100
AcDbText
  0
TEXT
  5
CD3
330
20
100
AcDbEntity
  8
BEM
100
AcDbText
 10
1517.910760595875
 20
380.5787156689259
 30
0.0
 40
2.5
  1

 41
0.8
  7
GREEKS
100
AcDbText
  0
TEXT
  5
CD4
330
20
100
AcDbEntity
  8
BEM
100
AcDbText
 10
1517.910760595875
 20
375.3408718502624
 30
0.0
 40
2.5
  1

 41
0.8
  7
GREEKS
100
AcDbText
  0
TEXT
  5
CD5
330
20
100
AcDbEntity
  8
BEM
100
AcDbText
 10
1517.837816118501
 20
370.8356829001647
 30
0.0
 40
1.8
  1

 41
0.8
  7
GREEKS
100
AcDbText
  0
TEXT
  5
CD6
330
20
100
AcDbEntity
  8
BEM
100
AcDbText
 10
1505.15424523889
 20
396.4272719963901
 30
0.0
 40
2.0
  1

 41
0.8
  7
GREEKS
 72
     1
 11
1505.15424523889
 21
396.4272719963901
 31
0.0
100
AcDbText
  0
TEXT
  5
CD7
330
20
100
AcDbEntity
  8
TEXT
100
AcDbText
 10
1815.254963960184
 20
386.104995432983
 30
0.0
 40
2.5
  1
  
  7
GREEKS
 72
     1
 11
1817.516868722089
 21
386.104995432983
 31
0.0
100
AcDbText
  0
TEXT
  5
CD8
330
20
100
AcDbEntity
  8
BEM
100
AcDbText
 10
2059.374681272666
 20
521.6638774633852
 30
0.0
 40
2.5
  1
 
 72
     4
 11
2060.505633653619
 21
521.6638774633852
 31
0.0
100
AcDbText
  0
TEXT
  5
CD9
330
20
100
AcDbEntity
  8
VOLL
100
AcDbText
 10
1260.608765108798
 20
334.5393180635567
 30
0.0
 40
1.8
  1

  7
GREEKS
100
AcDbText
  0
TEXT
  5
CDA
330
20
100
AcDbEntity
  8
VOLL
100
AcDbText
 10
1350.274939034471
 20
339.831434779276
 30
0.0
 40
1.8
  1

  7
GREEKS
100
AcDbText
  0
TEXT
  5
CDB
330
20
100
AcDbEntity
  8
TEXT
100
AcDbText
 10
1682.107207238064
 20
345.3896703125015
 30
0.0
 40
2.5
  1
  
  7
GREEKS
 72
     1
 11
1684.369111999969
 21
345.3896703125015
 31
0.0
100
AcDbText
  0
TEXT
  5
CDC
330
20
100
AcDbEntity
  8
BEM
100
AcDbText
 10
1926.226924550546
 20
480.9485523429037
 30
0.0
 40
2.5
  1
 
 72
     4
 11
1927.357876931498
 21
480.9485523429037
 31
0.0
100
AcDbText
  0
TEXT
  5
CDD
330
20
100
AcDbEntity
  8
BEM
100
AcDbText
 10
1491.916268680396
 20
363.4681489704373
 30
0.0
 40
2.5
  1

  7
GREEKS
100
AcDbText
  0
TEXT
  5
CDE
330
20
100
AcDbEntity
  8
VOLL
100
AcDbText
 10
1477.850075660674
 20
343.2848883134023
 30
0.0
 40
1.8
  1

  7
GREEKS
100
AcDbText
  0
TEXT
  5
CDF
330
20
100
AcDbEntity
  8
BEM
100
AcDbText
 10
1512.338140499959
 20
348.0106126366229
 30
0.0
 40
2.5
  1

 41
0.8
  7
GREEKS
100
AcDbText
  0
TEXT
  5
CE0
330
20
100
AcDbEntity
  8
BEM
100
AcDbText
 10
1512.338140499959
 20
343.3168440825708
 30
0.0
 40
2.5
  1

 41
0.8
  7
GREEKS
100
AcDbText
  0
TEXT
  5
CE1
330
20
100
AcDbEntity
  8
BEM
100
AcDbText
 10
1512.338140499959
 20
338.0790002639072
 30
0.0
 40
2.5
  1

 41
0.8
  7
GREEKS
100
AcDbText
  0
TEXT
  5
CE2
330
20
100
AcDbEntity
  8
BEM
100
AcDbText
 10
1512.265196022585
 20
333.5738113138096
 30
0.0
 40
1.8
  1

 41
0.8
  7
GREEKS
100
AcDbText
  0
TEXT
  5
CE3
330
20
100
AcDbEntity
  8
BEM
100
AcDbText
 10
1499.581625142974
 20
359.1654004100349
 30
0.0
 40
2.0
  1

 41
0.8
  7
GREEKS
 72
     1
 11
1499.581625142974
 21
359.1654004100349
 31
0.0
100
AcDbText
  0
TEXT
  5
CE4
330
20
100
AcDbEntity
  8
TEXT
100
AcDbText
 10
1809.682343864268
 20
348.8431238466278
 30
0.0
 40
2.5
  1
  
  7
GREEKS
 72
     1
 11
1811.944248626172
 21
348.8431238466278
 31
0.0
100
AcDbText
  0
TEXT
  5
CE5
330
20
100
AcDbEntity
  8
BEM
100
AcDbText
 10
2053.80206117675
 20
484.40200587703
 30
0.0
 40
2.5
  1
 
 72
     4
 11
2054.933013557702
 21
484.40200587703
 31
0.0
100
AcDbText
  0
TEXT
  5
CE6
330
20
100
AcDbEntity
  8
VOLL
100
AcDbText
 10
1402.56684005596
 20
350.7364023753914
 30
0.0
 40
1.8
  1

  7
GREEKS
100
AcDbText
  0
TEXT
  5
CE7
330
20
100
AcDbEntity
  8
TEXT
100
AcDbText
 10
1734.399108259553
 20
356.294637908617
 30
0.0
 40
2.5
  1
  
  7
GREEKS
 72
     1
 11
1736.661013021458
 21
356.294637908617
 31
0.0
100
AcDbText
  0
TEXT
  5
CE8
330
20
100
AcDbEntity
  8
BEM
100
AcDbText
 10
1978.518825572034
 20
491.8535199390191
 30
0.0
 40
2.5
  1
 
 72
     4
 11
1979.649777952987
 21
491.8535199390191
 31
0.0
100
AcDbText
  0
TEXT
  5
CE9
330
20
100
AcDbEntity
  8
BEM
100
AcDbText
 10
1557.706442212755
 20
371.069813265068
 30
0.0
 40
2.5
  1

  7
GREEKS
100
AcDbText
  0
TEXT
  5
CEA
330
20
100
AcDbEntity
  8
VOLL
100
AcDbText
 10
1543.640249193034
 20
350.8865526080328
 30
0.0
 40
1.8
  1

  7
GREEKS
100
AcDbText
  0
TEXT
  5
CEB
330
20
100
AcDbEntity
  8
BEM
100
AcDbText
 10
1578.128314032319
 20
355.6122769312535
 30
0.0
 40
2.5
  1

 41
0.8
  7
GREEKS
100
AcDbText
  0
TEXT
  5
CEC
330
20
100
AcDbEntity
  8
BEM
100
AcDbText
 10
1578.128314032319
 20
350.9185083772013
 30
0.0
 40
2.5
  1

 41
0.8
  7
GREEKS
100
AcDbText
  0
TEXT
  5
CED
330
20
100
AcDbEntity
  8
BEM
100
AcDbText
 10
1578.128314032319
 20
345.6806645585378
 30
0.0
 40
2.5
  1

 41
0.8
  7
GREEKS
100
AcDbText
  0
TEXT
  5
CEE
330
20
100
AcDbEntity
  8
BEM
100
AcDbText
 10
1578.055369554944
 20
341.1754756084402
 30
0.0
 40
1.8
  1

 41
0.8
  7
GREEKS
100
AcDbText
  0
TEXT
  5
CEF
330
20
100
AcDbEntity
  8
BEM
100
AcDbText
 10
1565.371798675333
 20
366.7670647046655
 30
0.0
 40
2.0
  1

 41
0.8
  7
GREEKS
 72
     1
 11
1565.371798675333
 21
366.7670647046655
 31
0.0
100
AcDbText
  0
TEXT
  5
CF0
330
20
100
AcDbEntity
  8
TEXT
100
AcDbText
 10
1875.472517396627
 20
356.4447881412584
 30
0.0
 40
2.5
  1
  
  7
GREEKS
 72
     1
 11
1877.734422158532
 21
356.4447881412584
 31
0.0
100
AcDbText
  0
TEXT
  5
CF1
330
20
100
AcDbEntity
  8
BEM
100
AcDbText
 10
2119.592234709109
 20
492.0036701716606
 30
0.0
 40
2.5
  1
 
 72
     4
 11
2120.723187090062
 21
492.0036701716606
 31
0.0
100
AcDbText
  0
TEXT
  5
CF2
330
20
100
AcDbEntity
  8
VOLL
100
AcDbText
 10
1338.544628629203
 20
338.9206928496429
 30
0.0
 40
1.8
  1

  7
GREEKS
100
AcDbText
  0
TEXT
  5
CF3
330
20
100
AcDbEntity
  8
TEXT
100
AcDbText
 10
1670.376896832796
 20
344.4789283828685
 30
0.0
 40
2.5
  1
  
  7
GREEKS
 72
     1
 11
1672.638801594701
 21
344.4789283828685
 31
0.0
100
AcDbText
  0
TEXT
  5
CF4
330
20
100
AcDbEntity
  8
BEM
100
AcDbText
 10
1914.496614145278
 20
480.0378104132707
 30
0.0
 40
2.5
  1
 
 72
     4
 11
1915.627566526231
 21
480.0378104132707
 31
0.0
100
AcDbText
  0
TEXT
  5
CF5
330
20
100
AcDbEntity
  8
BEM
100
AcDbText
 10
1503.890241708853
 20
379.0739235482286
 30
0.0
 40
2.5
  1

  7
GREEKS
100
AcDbText
  0
TEXT
  5
CF6
330
20
100
AcDbEntity
  8
VOLL
100
AcDbText
 10
1489.824048689132
 20
358.8906628911935
 30
0.0
 40
1.8
  1

  7
GREEKS
100
AcDbText
  0
TEXT
  5
CF7
330
20
100
AcDbEntity
  8
BEM
100
AcDbText
 10
1524.312113528416
 20
363.616387214414
 30
0.0
 40
2.5
  1

 41
0.8
  7
GREEKS
100
AcDbText
  0
TEXT
  5
CF8
330
20
100
AcDbEntity
  8
BEM
100
AcDbText
 10
1524.312113528416
 20
358.9226186603619
 30
0.0
 40
2.5
  1

 41
0.8
  7
GREEKS
100
AcDbText
  0
TEXT
  5
CF9
330
20
100
AcDbEntity
  8
BEM
100
AcDbText
 10
1524.312113528416
 20
353.6847748416984
 30
0.0
 40
2.5
  1

 41
0.8
  7
GREEKS
100
AcDbText
  0
TEXT
  5
CFA
330
20
100
AcDbEntity
  8
BEM
100
AcDbText
 10
1524.239169051042
 20
349.1795858916008
 30
0.0
 40
1.8
  1

 41
0.8
  7
GREEKS
100
AcDbText
  0
TEXT
  5
CFB
330
20
100
AcDbEntity
  8
BEM
100
AcDbText
 10
1511.555598171431
 20
374.7711749878261
 30
0.0
 40
2.0
  1

 41
0.8
  7
GREEKS
 72
     1
 11
1511.555598171431
 21
374.7711749878261
 31
0.0
100
AcDbText
  0
TEXT
  5
CFC
330
20
100
AcDbEntity
  8
TEXT
100
AcDbText
 10
1821.656316892725
 20
364.448898424419
 30
0.0
 40
2.5
  1
  
  7
GREEKS
 72
     1
 11
1823.918221654629
 21
364.448898424419
 31
0.0
100
AcDbText
  0
TEXT
  5
CFD
330
20
100
AcDbEntity
  8
BEM
100
AcDbText
 10
2065.776034205207
 20
500.0077804548213
 30
0.0
 40
2.5
  1
 
 72
     4
 11
2066.906986586159
 21
500.0077804548213
 31
0.0
100
AcDbText
  0
TEXT
  5
CFE
330
20
100
AcDbEntity
  8
VOLL
100
AcDbText
 10
1616.945767484949
 20
319.3301031166046
 30
0.0
 40
1.8
  1

  7
GREEKS
100
AcDbText
  0
TEXT
  5
CFF
330
20
100
AcDbEntity
  8
TEXT
100
AcDbText
 10
1948.778035688542
 20
324.8883386498301
 30
0.0
 40
2.5
  1
  
  7
GREEKS
 72
     1
 11
1951.039940450447
 21
324.8883386498301
 31
0.0
100
AcDbText
  0
TEXT
  5
D00
330
20
100
AcDbEntity
  8
BEM
100
AcDbText
 10
2192.897753001025
 20
460.4472206802324
 30
0.0
 40
2.5
  1
 
 72
     4
 11
2194.028705381978
 21
460.4472206802324
 31
0.0
100
AcDbText
  0
TEXT
  5
D01
330
20
100
AcDbEntity
  8
VOLL
100
AcDbText
 10
1774.480484562111
 20
324.8856587516758
 30
0.0
 40
1.8
  1

  7
GREEKS
100
AcDbText
  0
TEXT
  5
D02
330
20
100
AcDbEntity
  8
BEM
100
AcDbText
 10
1808.968549401396
 20
329.6113830748964
 30
0.0
 40
2.5
  1

 41
0.8
  7
GREEKS
100
AcDbText
  0
TEXT
  5
D03
330
20
100
AcDbEntity
  8
BEM
100
AcDbText
 10
1808.968549401396
 20
324.9176145208443
 30
0.0
 40
2.5
  1

 41
0.8
  7
GREEKS
100
AcDbText
  0
TEXT
  5
D04
330
20
100
AcDbEntity
  8
BEM
100
AcDbText
 10
1808.968549401396
 20
319.6797707021807
 30
0.0
 40
2.5
  1

 41
0.8
  7
GREEKS
100
AcDbText
  0
TEXT
  5
D05
330
20
100
AcDbEntity
  8
BEM
100
AcDbText
 10
1808.895604924021
 20
315.1745817520831
 30
0.0
 40
1.8
  1

 41
0.8
  7
GREEKS
100
AcDbText
  0
TEXT
  5
D06
330
20
100
AcDbEntity
  8
TEXT
100
AcDbText
 10
2106.312752765704
 20
330.4438942849013
 30
0.0
 40
2.5
  1
  
  7
GREEKS
 72
     1
 11
2108.574657527609
 21
330.4438942849013
 31
0.0
100
AcDbText
  0
TEXT
  5
D07
330
20
100
AcDbEntity
  8
BEM
100
AcDbText
 10
2350.432470078187
 20
466.0027763153036
 30
0.0
 40
2.5
  1
 
 72
     4
 11
2351.563422459139
 21
466.0027763153036
 31
0.0
100
AcDbText
  0
LINE
  5
D08
330
20
100
AcDbEntity
  8
MITTEL
100
AcDbLine
 10
229.9183611398655
 20
222.4226627928595
 30
0.0
 11
229.9183611398654
 21
537.4226627928594
 31
0.0
  0
LINE
  5
D09
102
{ACAD_REACTORS
330
D50
330
1308
330
1334
102
}
330
20
100
AcDbEntity
  8
STEMPEL
  6
Continuous
100
AcDbLine
 10
187.8183611398654
 20
521.8737403857407
 30
0.0
 11
187.8183611398654
 21
512.8609428410531
 31
0.0
  0
LINE
  5
D0A
102
{ACAD_REACTORS
330
D50
330
F16
330
12F7
330
1308
102
}
330
20
100
AcDbEntity
  8
STEMPEL
  6
Continuous
100
AcDbLine
 10
280.9183611398652
 20
532.4226627928594
 30
0.0
 11
178.9183611398654
 21
532.4226627928594
 31
0.0
  0
ARC
  5
D0B
102
{ACAD_REACTORS
330
D50
330
1308
102
}
330
20
100
AcDbEntity
  8
STEMPEL
  6
Continuous
100
AcDbCircle
 10
212.8183611398654
 20
521.8737403857407
 30
0.0
 40
25.0
100
AcDbArc
 50
155.041803687686
 51
180.0
  0
LINE
  5
D0F
102
{ACAD_REACTORS
330
D50
330
1334
102
}
330
20
100
AcDbEntity
  8
STEMPEL
  6
Continuous
100
AcDbLine
 10
190.3183611398653
 20
499.4226627928594
 30
0.0
 11
190.3183611398653
 21
482.8113892102765
 31
0.0
  0
ARC
  5
D10
102
{ACAD_REACTORS
330
D50
330
1334
102
}
330
20
100
AcDbEntity
  8
STEMPEL
  6
Continuous
100
AcDbCircle
 10
178.3183611398653
 20
499.4226627928594
 30
0.0
 40
12.0
100
AcDbArc
 50
0.0
 51
21.18315439303624
  0
ARC
  5
D11
102
{ACAD_REACTORS
330
D50
330
1334
102
}
330
20
100
AcDbEntity
  8
STEMPEL
  6
Continuous
100
AcDbCircle
 10
212.8183611398654
 20
512.7926627928593
 30
0.0
 40
25.00009324312574
100
AcDbArc
 50
179.843514045642
 51
201.1831543930362
  0
ARC
  5
D12
102
{ACAD_REACTORS
330
D50
330
1334
102
}
330
20
100
AcDbEntity
  8
STEMPEL
  6
Continuous
100
AcDbCircle
 10
202.3183611398654
 20
482.8113892102765
 30
0.0
 40
12.0
100
AcDbArc
 50
180.0
 51
212.3280641221616
  0
ARC
  5
D13
102
{ACAD_REACTORS
330
D50
330
1334
102
}
330
20
100
AcDbEntity
  8
STEMPEL
  6
Continuous
100
AcDbCircle
 10
185.4183611398653
 20
472.1160631282907
 30
0.0
 40
8.0
100
AcDbArc
 50
0.0
 51
32.32806412216152
  0
ARC
  5
D14
102
{ACAD_REACTORS
330
D50
102
}
330
20
100
AcDbEntity
  8
STEMPEL
  6
Continuous
100
AcDbCircle
 10
212.8183611398654
 20
521.8737403857407
 30
0.0
 40
23.4
100
AcDbArc
 50
153.2044220687686
 51
180.0
  0
LINE
  5
D15
102
{ACAD_REACTORS
330
D50
102
}
330
20
100
AcDbEntity
  8
STEMPEL
  6
Continuous
100
AcDbLine
 10
189.4183611398652
 20
521.8737403857407
 30
0.0
 11
189.4183611398652
 21
512.8587217587798
 31
0.0
  0
ARC
  5
D16
102
{ACAD_REACTORS
330
D50
102
}
330
20
100
AcDbEntity
  8
STEMPEL
  6
Continuous
100
AcDbCircle
 10
212.8183611398654
 20
512.7926627928593
 30
0.0
 40
23.40009324312573
100
AcDbArc
 50
179.8382525687313
 51
201.1831543930362
  0
ARC
  5
D17
102
{ACAD_REACTORS
330
D50
102
}
330
20
100
AcDbEntity
  8
STEMPEL
  6
Continuous
100
AcDbCircle
 10
178.3183611398653
 20
499.4226627928594
 30
0.0
 40
13.6
100
AcDbArc
 50
0.0
 51
21.18315439303624
  0
LINE
  5
D18
102
{ACAD_REACTORS
330
D50
102
}
330
20
100
AcDbEntity
  8
STEMPEL
  6
Continuous
100
AcDbLine
 10
191.9183611398654
 20
499.4226627928594
 30
0.0
 11
191.9183611398654
 21
482.8113892102765
 31
0.0
  0
ARC
  5
D19
102
{ACAD_REACTORS
330
D50
102
}
330
20
100
AcDbEntity
  8
STEMPEL
  6
Continuous
100
AcDbCircle
 10
202.3183611398654
 20
482.8113892102765
 30
0.0
 40
10.4
100
AcDbArc
 50
180.0
 51
212.3280641221616
  0
ARC
  5
D1A
102
{ACAD_REACTORS
330
D50
102
}
330
20
100
AcDbEntity
  8
STEMPEL
  6
Continuous
100
AcDbCircle
 10
185.4183611398653
 20
472.1160631282907
 30
0.0
 40
9.599999999999999
100
AcDbArc
 50
0.0
 51
32.32806412216152
  0
ARC
  5
D1B
102
{ACAD_REACTORS
330
D50
330
1334
102
}
330
20
100
AcDbEntity
  8
STEMPEL
  6
Continuous
100
AcDbCircle
 10
247.0183611398655
 20
512.7926627928593
 30
0.0
 40
25.00009324312574
100
AcDbArc
 50
338.8168456069637
 51
0.1564859543701707
  0
ARC
  5
D1C
102
{ACAD_REACTORS
330
D50
330
1308
102
}
330
20
100
AcDbEntity
  8
STEMPEL
  6
Continuous
100
AcDbCircle
 10
247.0183611398655
 20
521.8737403857407
 30
0.0
 40
25.0
100
AcDbArc
 50
0.0
 51
24.95819631231393
  0
LINE
  5
D1D
102
{ACAD_REACTORS
330
D50
330
1308
330
1334
102
}
330
20
100
AcDbEntity
  8
STEMPEL
  6
Continuous
100
AcDbLine
 10
272.0183611398655
 20
521.8737403857407
 30
0.0
 11
272.0183611398655
 21
512.8609428410582
 31
0.0
  0
LINE
  5
D1E
102
{ACAD_REACTORS
330
D50
102
}
330
20
100
AcDbEntity
  8
STEMPEL
  6
Continuous
100
AcDbLine
 10
267.9183611398654
 20
499.4226627928594
 30
0.0
 11
267.9183611398654
 21
482.8113892102765
 31
0.0
  0
LINE
  5
D1F
102
{ACAD_REACTORS
330
D50
330
1334
102
}
330
20
100
AcDbEntity
  8
STEMPEL
  6
Continuous
100
AcDbLine
 10
269.5183611398654
 20
499.4226627928594
 30
0.0
 11
269.5183611398654
 21
482.8113892102765
 31
0.0
  0
ARC
  5
D20
102
{ACAD_REACTORS
330
D50
102
}
330
20
100
AcDbEntity
  8
STEMPEL
  6
Continuous
100
AcDbCircle
 10
247.0183611398655
 20
521.8737403857407
 30
0.0
 40
23.4
100
AcDbArc
 50
0.0
 51
26.79557793123132
  0
ARC
  5
D21
102
{ACAD_REACTORS
330
D50
102
}
330
20
100
AcDbEntity
  8
STEMPEL
  6
Continuous
100
AcDbCircle
 10
247.0183611398655
 20
512.7926627928593
 30
0.0
 40
23.40009324312573
100
AcDbArc
 50
338.8168456069637
 51
0.1617474313044519
  0
LINE
  5
D22
102
{ACAD_REACTORS
330
D50
102
}
330
20
100
AcDbEntity
  8
STEMPEL
  6
Continuous
100
AcDbLine
 10
270.4183611398655
 20
521.8737403857407
 30
0.0
 11
270.4183611398655
 21
512.8587217587943
 31
0.0
  0
ARC
  5
D23
102
{ACAD_REACTORS
330
D50
102
}
330
20
100
AcDbEntity
  8
STEMPEL
  6
Continuous
100
AcDbCircle
 10
281.5183611398654
 20
499.4226627928594
 30
0.0
 40
13.6
100
AcDbArc
 50
158.8168456069637
 51
180.0
  0
ARC
  5
D24
102
{ACAD_REACTORS
330
D50
330
1334
102
}
330
20
100
AcDbEntity
  8
STEMPEL
  6
Continuous
100
AcDbCircle
 10
281.5183611398654
 20
499.4226627928594
 30
0.0
 40
12.0
100
AcDbArc
 50
158.8168456069637
 51
180.0
  0
ARC
  5
D25
102
{ACAD_REACTORS
330
D50
102
}
330
20
100
AcDbEntity
  8
STEMPEL
  6
Continuous
100
AcDbCircle
 10
274.4183611398655
 20
472.1160631282907
 30
0.0
 40
9.599999999999999
100
AcDbArc
 50
147.6719358778378
 51
180.0
  0
ARC
  5
D26
102
{ACAD_REACTORS
330
D50
330
1334
102
}
330
20
100
AcDbEntity
  8
STEMPEL
  6
Continuous
100
AcDbCircle
 10
274.4183611398655
 20
472.1160631282907
 30
0.0
 40
8.0
100
AcDbArc
 50
147.6719358778378
 51
180.0
  0
ARC
  5
D27
102
{ACAD_REACTORS
330
D50
102
}
330
20
100
AcDbEntity
  8
STEMPEL
  6
Continuous
100
AcDbCircle
 10
257.5183611398654
 20
482.8113892102765
 30
0.0
 40
10.4
100
AcDbArc
 50
327.6719358778385
 51
0.0
  0
ARC
  5
D28
102
{ACAD_REACTORS
330
D50
330
1334
102
}
330
20
100
AcDbEntity
  8
STEMPEL
  6
Continuous
100
AcDbCircle
 10
257.5183611398654
 20
482.8113892102765
 30
0.0
 40
12.0
100
AcDbArc
 50
327.6719358778378
 51
0.0
  0
LINE
  5
D29
102
{ACAD_REACTORS
330
D50
102
}
330
20
100
AcDbEntity
  8
STEMPEL
  6
Continuous
100
AcDbLine
 10
264.8183611398654
 20
446.9120211485154
 30
0.0
 11
264.8183611398655
 21
472.1160631282907
 31
0.0
  0
LINE
  5
D2A
102
{ACAD_REACTORS
330
D50
330
1334
102
}
330
20
100
AcDbEntity
  8
STEMPEL
  6
Continuous
100
AcDbLine
 10
266.4183611398655
 20
446.9120211485154
 30
0.0
 11
266.4183611398655
 21
472.1160631282907
 31
0.0
  0
LINE
  5
D2B
102
{ACAD_REACTORS
330
D51
102
}
330
20
100
AcDbEntity
  8
STEMPEL
100
AcDbLine
 10
204.025052028232
 20
227.4226627928594
 30
0.0
 11
255.811670251499
 21
227.4226627928594
 31
0.0
  0
LINE
  5
D2D
102
{ACAD_REACTORS
330
D51
330
D54
330
1257
330
1334
102
}
330
20
100
AcDbEntity
  8
STEMPEL
100
AcDbLine
 10
256.4183611398655
 20
234.3571713784969
 30
0.0
 11
256.4183611398656
 21
429.4226627928595
 31
0.0
  0
LINE
  5
D2E
102
{ACAD_REACTORS
330
D51
330
D54
330
1257
330
1334
102
}
330
20
100
AcDbEntity
  8
STEMPEL
100
AcDbLine
 10
203.4183611398655
 20
234.3571713784968
 30
0.0
 11
203.4183611398655
 21
429.4226627928594
 31
0.0
  0
LINE
  5
D2F
330
20
100
AcDbEntity
  8
HILF
100
AcDbLine
 10
206.4183611398655
 20
234.4226627928596
 30
0.0
 11
253.4183611398655
 21
234.4226627928596
 31
0.0
  0
LINE
  5
D30
102
{ACAD_REACTORS
330
D51
102
}
330
20
100
AcDbEntity
  8
STEMPEL
100
AcDbLine
 10
204.9183611398655
 20
234.4226627928596
 30
0.0
 11
204.9183611398655
 21
429.4226627928595
 31
0.0
  0
LINE
  5
D31
102
{ACAD_REACTORS
330
D51
102
}
330
20
100
AcDbEntity
  8
STEMPEL
100
AcDbLine
 10
254.9183611398655
 20
234.4226627928596
 30
0.0
 11
254.9183611398656
 21
429.4226627928595
 31
0.0
  0
LINE
  5
D32
102
{ACAD_REACTORS
330
D51
102
}
330
20
100
AcDbEntity
  8
STEMPEL
100
AcDbLine
 10
254.9183611398655
 20
234.4226627928596
 30
0.0
 11
254.3059404951841
 21
227.4226627928594
 31
0.0
  0
LINE
  5
D33
102
{ACAD_REACTORS
330
D51
102
}
330
20
100
AcDbEntity
  8
STEMPEL
100
AcDbLine
 10
204.9183611398655
 20
234.4226627928596
 30
0.0
 11
205.5307817845471
 21
227.4226627928594
 31
0.0
  0
LINE
  5
D34
102
{ACAD_REACTORS
330
D51
102
}
330
20
100
AcDbEntity
  8
STEMPEL
100
AcDbLine
 10
256.4183611398655
 20
234.3571713784969
 30
0.0
 11
255.811670251499
 21
227.4226627928594
 31
0.0
  0
LINE
  5
D35
102
{ACAD_REACTORS
330
D51
102
}
330
20
100
AcDbEntity
  8
STEMPEL
100
AcDbLine
 10
203.4183611398655
 20
234.3571713784968
 30
0.0
 11
204.025052028232
 21
227.4226627928594
 31
0.0
  0
LINE
  5
D36
102
{ACAD_REACTORS
330
D50
330
D51
102
}
330
20
100
AcDbEntity
  8
STEMPEL
100
AcDbLine
 10
203.4183611398655
 20
429.4226627928595
 30
0.0
 11
256.4183611398655
 21
429.4226627928595
 31
0.0
  0
DIMENSION
  5
D3E
330
20
100
AcDbEntity
  8
BEM
100
AcDbDimension
  2
*D1
 10
256.4183611398655
 20
205.8080375872565
 30
0.0
 11
229.9183611398655
 21
212.3080375872565
 31
0.0
 70
    32
  1
%%c<>
 71
     5
 42
53.0
  3
Standard
100
AcDbAlignedDimension
 13
203.4183611398655
 23
234.3571713784968
 33
0.0
 14
256.4183611398655
 24
234.3571713784969
 34
0.0
100
AcDbRotatedDimension
1001
ACAD
1000
DSTYLE
1002
{
1070
    40
1040
2.0
1070
    41
1040
3.5
1070
    42
1040
1.0
1070
    43
1040
7.0
1070
    44
1040
1.0
1070
    47
1040
0.15
1070
    48
1040
0.15
1070
    73
1070
     0
1070
    74
1070
     0
1070
    77
1070
     1
1070
    78
1070
     8
1070
    79
1070
     2
1070
   140
1040
3.5
1070
   141
1040
1.5
1070
   145
1040
0.5714285714285714
1070
   146
1040
0.5
1070
   147
1040
1.5
1070
   172
1070
     1
1070
   178
1070
     1
1070
   179
1070
     2
1070
   271
1070
     2
1070
   272
1070
     2
1070
   284
1070
     8
1070
   285
1070
     8
1070
   286
1070
     8
1002
}
  0
LINE
  5
D40
102
{ACAD_REACTORS
330
D50
330
D54
330
1334
102
}
330
20
100
AcDbEntity
  8
STEMPEL
100
AcDbLine
 10
264.7212038846524
 20
441.4617847728004
 30
0.0
 11
256.4183611398656
 21
429.4226627928595
 31
0.0
  0
LINE
  5
D41
102
{ACAD_REACTORS
330
D50
102
}
330
20
100
AcDbEntity
  8
STEMPEL
100
AcDbLine
 10
263.4040634271878
 20
442.3701575020863
 30
0.0
 11
254.4747567311695
 21
429.4226627928595
 31
0.0
  0
ARC
  5
D42
102
{ACAD_REACTORS
330
D50
102
}
330
20
100
AcDbEntity
  8
STEMPEL
100
AcDbCircle
 10
256.8183611398654
 20
446.9120211485155
 30
0.0
 40
8.0
100
AcDbArc
 50
325.4077113124904
 51
0.0
  0
ARC
  5
D43
102
{ACAD_REACTORS
330
D50
330
1334
102
}
330
20
100
AcDbEntity
  8
STEMPEL
100
AcDbCircle
 10
256.8183611398655
 20
446.9120211485154
 30
0.0
 40
9.599999999999999
100
AcDbArc
 50
325.4077113124904
 51
0.0
  0
ARC
  5
D44
102
{ACAD_REACTORS
330
D50
330
1334
102
}
330
20
100
AcDbEntity
  8
STEMPEL
100
AcDbCircle
 10
203.0183611398653
 20
446.9120211485154
 30
0.0
 40
9.599999999999999
100
AcDbArc
 50
180.0
 51
214.5922886875103
  0
ARC
  5
D45
102
{ACAD_REACTORS
330
D50
102
}
330
20
100
AcDbEntity
  8
STEMPEL
100
AcDbCircle
 10
203.0183611398654
 20
446.9120211485154
 30
0.0
 40
8.0
100
AcDbArc
 50
180.0000000000008
 51
214.5922886875103
  0
LINE
  5
D46
102
{ACAD_REACTORS
330
D50
330
1334
102
}
330
20
100
AcDbEntity
  8
STEMPEL
  6
Continuous
100
AcDbLine
 10
193.4183611398653
 20
446.9120211485154
 30
0.0
 11
193.4183611398651
 21
472.1160631282906
 31
0.0
  0
LINE
  5
D47
102
{ACAD_REACTORS
330
D50
102
}
330
20
100
AcDbEntity
  8
STEMPEL
  6
Continuous
100
AcDbLine
 10
195.0183611398654
 20
446.9120211485154
 30
0.0
 11
195.0183611398652
 21
472.1160631282906
 31
0.0
  0
LINE
  5
D48
102
{ACAD_REACTORS
330
D50
102
}
330
20
100
AcDbEntity
  8
STEMPEL
100
AcDbLine
 10
196.432658852543
 20
442.3701575020862
 30
0.0
 11
205.3619655485613
 21
429.4226627928594
 31
0.0
  0
LINE
  5
D49
102
{ACAD_REACTORS
330
D50
330
D54
330
1334
102
}
330
20
100
AcDbEntity
  8
STEMPEL
100
AcDbLine
 10
195.1155183950784
 20
441.4617847728003
 30
0.0
 11
203.4183611398653
 21
429.4226627928593
 31
0.0
  0
TEXT
  5
D4A
330
20
100
AcDbEntity
  8
TEXT
 62
     1
100
AcDbText
 10
222.7706740445883
 20
506.276175109874
 30
0.0
 40
7.0
  1
DN70
 50
90.0
 41
0.8
  7
GREEKS
100
AcDbText
  0
HATCH
  5
D50
330
20
100
AcDbEntity
  8
SCHRAFF
100
AcDbHatch
 10
0.0
 20
0.0
 30
0.0
210
0.0
220
0.0
230
1.0
  2
_USER
 70
     0
 71
     1
 91
        2
 92
        7
 72
     1
 73
     1
 93
       22
 10
267.9183611398654
 20
482.8113892102765
 42
-0.1420008527982263
 10
266.3063611398655
 20
477.2498196476441
 42
0.1420008527982383
 10
264.8183611398655
 20
472.1160631282907
 42
0.0
 10
264.8183611398654
 20
446.9120211485154
 42
-0.1520940979589567
 10
263.4040634271878
 20
442.3701575020863
 42
0.0
 10
254.4747567311695
 20
429.4226627928595
 42
0.0
 10
256.4183611398656
 20
429.4226627928595
 42
0.0
 10
264.7212038846524
 20
441.4617847728004
 42
0.1520940979589635
 10
266.4183611398655
 20
446.9120211485156
 42
0.0
 10
266.4183611398655
 20
472.1160631282907
 42
-0.1420008527982293
 10
267.6583611398655
 20
476.394193561085
 42
0.1420008527982334
 10
269.5183611398654
 20
482.8113892102765
 42
0.0
 10
269.5183611398654
 20
499.4226627928594
 42
-0.0926930603363605
 10
270.3292001483072
 20
503.7588680814721
 42
0.0920044384190356
 10
272.0183611398655
 20
512.724382744665
 42
0.0
 10
272.0183611398655
 20
521.8737403857407
 42
0.109333224602075
 10
269.6837584681408
 20
532.4226627928594
 42
0.0
 10
267.9056835160963
 20
532.4226627928594
 42
-0.1174534402570152
 10
270.4183611398655
 20
521.8737403857407
 42
0.0
 10
270.4183611398655
 20
512.8587217587943
 42
-0.0934049271928146
 10
268.8373120160994
 20
504.33702878662
 42
0.0926930603363582
 10
267.9183611398654
 20
499.422662792859
 42
0.0
 97
       22
330
D24
330
D1B
330
D1D
330
D1C
330
D0A
330
D20
330
D22
330
D21
330
D23
330
D1E
330
D27
330
D25
330
D29
330
D42
330
D41
330
D36
330
D40
330
D43
330
D2A
330
D26
330
D28
330
D1F
 92
        7
 72
     1
 73
     1
 93
       22
 10
191.9183611398654
 20
499.4226627928594
 42
0.0926930603363571
 10
190.9994102636314
 20
504.3370287866203
 42
-0.0934049271926557
 10
189.4183611398652
 20
512.8587217587798
 42
0.0
 10
189.4183611398652
 20
521.8737403857407
 42
-0.1174534402570154
 10
191.9310387636346
 20
532.4226627928594
 42
0.0
 10
190.15296381159
 20
532.4226627928594
 42
0.109333224602075
 10
187.8183611398654
 20
521.8737403857407
 42
0.0
 10
187.8183611398654
 20
512.7243827446696
 42
0.092004438419083
 10
189.5075221314236
 20
503.7588680814719
 42
-0.0926930603363578
 10
190.3183611398653
 20
499.4226627928593
 42
0.0
 10
190.3183611398653
 20
482.8113892102765
 42
0.1420008527982313
 10
192.1783611398653
 20
476.394193561085
 42
-0.142000852798236
 10
193.4183611398651
 20
472.1160631282906
 42
0.0
 10
193.4183611398653
 20
446.9120211485154
 42
0.1520940979589582
 10
195.1155183950784
 20
441.4617847728003
 42
0.0
 10
203.4183611398652
 20
429.4226627928595
 42
0.0
 10
205.3619655485614
 20
429.4226627928594
 42
0.0
 10
196.432658852543
 20
442.3701575020862
 42
-0.1520940979589592
 10
195.0183611398654
 20
446.9120211485154
 42
0.0
 10
195.0183611398652
 20
472.1160631282906
 42
0.1420008527982368
 10
193.5303611398652
 20
477.249819647644
 42
-0.1420008527982286
 10
191.9183611398654
 20
482.8113892102765
 42
0.0
 97
       22
330
D17
330
D16
330
D15
330
D14
330
D0A
330
D0B
330
D09
330
D11
330
D10
330
D0F
330
D12
330
D13
330
D46
330
D44
330
D49
330
D36
330
D48
330
D45
330
D47
330
D1A
330
D19
330
D18
 75
     0
 76
     0
 52
45.0
 41
2.0
 77
     0
 78
     1
 53
45.0
 43
-14.43135149946749
 44
17.2296770586579
 45
-1.414213562373094
 46
1.414213562373095
 79
     0
 47
0.3196467609019764
 98
        2
 10
268.6542720190079
 20
490.5601916403748
 10
191.2430966730632
 20
489.9208975565491
  0
HATCH
  5
D51
330
20
100
AcDbEntity
  8
SCHRAFF
100
AcDbHatch
 10
0.0
 20
0.0
 30
0.0
210
0.0
220
0.0
230
1.0
  2
_USER
 70
     0
 71
     1
 91
        2
 92
        7
 72
     0
 73
     1
 93
        6
 10
256.4183611398656
 20
429.4226627928595
 10
254.9183611398656
 20
429.4226627928595
 10
254.9183611398655
 20
234.42266279286
 10
254.3059404951842
 20
227.4226627928594
 10
255.811670251499
 20
227.4226627928594
 10
256.4183611398655
 20
234.3571713784968
 97
        6
330
D36
330
D31
330
D32
330
D2B
330
D34
330
D2D
 92
        7
 72
     0
 73
     1
 93
        6
 10
204.9183611398655
 20
429.4226627928595
 10
203.4183611398654
 20
429.4226627928594
 10
203.4183611398655
 20
234.357171378497
 10
204.025052028232
 20
227.4226627928594
 10
205.5307817845471
 20
227.4226627928594
 10
204.9183611398655
 20
234.4226627928592
 97
        6
330
D36
330
D2E
330
D35
330
D2B
330
D33
330
D30
 75
     0
 76
     0
 52
135.0
 41
2.0
 77
     0
 78
     1
 53
135.0
 43
-14.43135149946749
 44
17.2296770586579
 45
-1.414213562373095
 46
-1.414213562373094
 79
     0
 47
0.4794701454854767
 98
        2
 10
255.1786931738226
 20
340.1055603551402
 10
204.3176298070453
 20
337.7082106525756
  0
ARC
  5
D52
102
{ACAD_REACTORS
330
D54
330
1334
102
}
330
20
100
AcDbEntity
  8
SCHRAFF
100
AcDbCircle
 10
253.4840921663076
 20
430.7911978729211
 30
0.0
 40
5.262512057460241
100
AcDbArc
 50
303.888570500885
 51
18.06021742397994
  0
ARC
  5
D53
102
{ACAD_REACTORS
330
D54
330
1334
102
}
330
20
100
AcDbEntity
  8
SCHRAFF
100
AcDbCircle
 10
206.3526301134232
 20
430.7911978729211
 30
0.0
 40
5.262512057460241
100
AcDbArc
 50
161.93978257602
 51
236.111429499115
  0
HATCH
  5
D54
330
20
100
AcDbEntity
  8
SCHRAFF
100
AcDbHatch
 10
0.0
 20
0.0
 30
0.0
210
0.0
220
0.0
230
1.0
  2
_USER
 70
     0
 71
     1
 91
        2
 92
        7
 72
     1
 73
     1
 93
        3
 10
258.487326657107
 20
432.4226627928594
 42
0.0
 10
256.4183611398656
 20
429.4226627928595
 42
0.0
 10
256.4183611398656
 20
426.4226627928594
 42
0.335428327475563
 97
        3
330
D40
330
D2D
330
D52
 92
        7
 72
     1
 73
     1
 93
        3
 10
203.4183611398655
 20
426.4226627928592
 42
0.0
 10
203.4183611398655
 20
429.422662792859
 42
0.0
 10
201.3493956226238
 20
432.4226627928594
 42
0.3354283274755804
 97
        3
330
D49
330
D53
330
D2E
 75
     0
 76
     0
 52
0.0
 41
0.1
 77
     0
 78
     1
 53
0.0
 43
-14.43135149946749
 44
17.2296770586579
 45
0.0
 46
0.1
 79
     0
 47
0.1058099316435239
 98
        2
 10
257.5254601405014
 20
428.8123758574738
 10
202.3581063034868
 20
429.1298052363981
  0
TEXT
  5
D55
330
20
100
AcDbEntity
  8
TEXT
 62
     1
100
AcDbText
 10
222.7706740445883
 20
300.3091587957475
 30
0.0
 40
7.0
  1
DN50
 50
90.0
 41
0.8
  7
GREEKS
100
AcDbText
  0
ARC
  5
E14
102
{ACAD_REACTORS
330
E49
102
}
330
20
100
AcDbEntity
  8
STEMPEL
100
AcDbCircle
 10
286.4183611398653
 20
413.6020276547593
 30
0.0
 40
12.0
100
AcDbArc
 50
148.6168089436416
 51
180.0
  0
LINE
  5
E15
102
{ACAD_REACTORS
330
E49
102
}
330
20
100
AcDbEntity
  8
STEMPEL
100
AcDbLine
 10
278.9183611398654
 20
427.4226627928594
 30
0.0
 11
280.2842869156613
 21
426.5894480696239
 31
0.0
  0
LINE
  5
E16
102
{ACAD_REACTORS
330
E49
102
}
330
20
100
AcDbEntity
  8
STEMPEL
100
AcDbLine
 10
280.2842869156613
 20
426.5894480696239
 30
0.0
 11
276.1739178213962
 21
419.8511380790256
 31
0.0
  0
LINE
  5
E17
102
{ACAD_REACTORS
330
E49
330
1334
102
}
330
20
100
AcDbEntity
  8
STEMPEL
100
AcDbLine
 10
278.9183611398654
 20
427.4226627928594
 30
0.0
 11
274.8079920456003
 21
420.6843528022612
 31
0.0
  0
LINE
  5
E18
102
{ACAD_REACTORS
330
12F7
330
1334
102
}
330
20
100
AcDbEntity
  8
STEMPEL
  6
Continuous
100
AcDbLine
 10
280.9183611398654
 20
427.4226627928594
 30
0.0
 11
278.9183611398654
 21
427.4226627928594
 31
0.0
  0
LINE
  5
E19
102
{ACAD_REACTORS
330
12F7
102
}
330
20
100
AcDbEntity
  8
STEMPEL
100
AcDbLine
 10
280.9183611398654
 20
427.4226627928594
 30
0.0
 11
280.9183611398653
 21
532.4226627928595
 31
0.0
  0
LINE
  5
E1A
102
{ACAD_REACTORS
330
1308
330
1334
102
}
330
20
100
AcDbEntity
  8
STEMPEL
  6
Continuous
100
AcDbLine
 10
279.4183611398653
 20
517.4226627928594
 30
0.0
 11
272.0183611398654
 21
517.4226627928594
 31
0.0
  0
LINE
  5
E1E
102
{ACAD_REACTORS
330
E49
330
1257
330
1334
102
}
330
20
100
AcDbEntity
  8
STEMPEL
100
AcDbLine
 10
272.8183611398654
 20
257.4226627928596
 30
0.0
 11
272.8183611398653
 21
413.6020276547593
 31
0.0
  0
LINE
  5
E1F
102
{ACAD_REACTORS
330
E49
330
1257
102
}
330
20
100
AcDbEntity
  8
STEMPEL
100
AcDbLine
 10
274.4183611398654
 20
255.4226627928591
 30
0.0
 11
274.4183611398653
 21
413.6020276547593
 31
0.0
  0
LINE
  5
E21
102
{ACAD_REACTORS
330
E49
330
1257
102
}
330
20
100
AcDbEntity
  8
STEMPEL
100
AcDbLine
 10
272.8183611398654
 20
257.4226627928595
 30
0.0
 11
274.4183611398654
 21
257.4226627928595
 31
0.0
  0
LINE
  5
E26
102
{ACAD_REACTORS
330
E49
330
1257
102
}
330
20
100
AcDbEntity
  8
STEMPEL
100
AcDbLine
 10
185.4183611398654
 20
257.4226627928596
 30
0.0
 11
187.0183611398654
 21
257.4226627928596
 31
0.0
  0
LINE
  5
E27
102
{ACAD_REACTORS
330
E49
330
1257
102
}
330
20
100
AcDbEntity
  8
STEMPEL
100
AcDbLine
 10
185.4183611398654
 20
255.4226627928596
 30
0.0
 11
185.4183611398655
 21
413.6020276547593
 31
0.0
  0
LINE
  5
E28
102
{ACAD_REACTORS
330
E49
330
1257
330
1334
102
}
330
20
100
AcDbEntity
  8
STEMPEL
100
AcDbLine
 10
187.0183611398654
 20
257.4226627928596
 30
0.0
 11
187.0183611398655
 21
413.6020276547593
 31
0.0
  0
LINE
  5
E29
102
{ACAD_REACTORS
330
E49
330
1334
102
}
330
20
100
AcDbEntity
  8
STEMPEL
100
AcDbLine
 10
180.9183611398654
 20
427.4226627928594
 30
0.0
 11
185.0287302341304
 21
420.6843528022612
 31
0.0
  0
LINE
  5
E2A
102
{ACAD_REACTORS
330
12F7
330
1334
102
}
330
20
100
AcDbEntity
  8
STEMPEL
  6
Continuous
100
AcDbLine
 10
180.9183611398653
 20
427.4226627928596
 30
0.0
 11
178.9183611398654
 21
427.4226627928595
 31
0.0
  0
ARC
  5
E2B
102
{ACAD_REACTORS
330
E49
330
1334
102
}
330
20
100
AcDbEntity
  8
STEMPEL
100
AcDbCircle
 10
173.4183611398655
 20
413.6020276547593
 30
0.0
 40
13.6
100
AcDbArc
 50
0.0
 51
31.38319105635832
  0
ARC
  5
E2C
102
{ACAD_REACTORS
330
E49
102
}
330
20
100
AcDbEntity
  8
STEMPEL
100
AcDbCircle
 10
173.4183611398655
 20
413.6020276547593
 30
0.0
 40
12.0
100
AcDbArc
 50
0.0
 51
31.38319105635832
  0
LINE
  5
E2D
102
{ACAD_REACTORS
330
E49
102
}
330
20
100
AcDbEntity
  8
STEMPEL
100
AcDbLine
 10
180.9183611398654
 20
427.4226627928594
 30
0.0
 11
179.5524353640695
 21
426.5894480696239
 31
0.0
  0
LINE
  5
E2E
102
{ACAD_REACTORS
330
E49
102
}
330
20
100
AcDbEntity
  8
STEMPEL
100
AcDbLine
 10
179.5524353640695
 20
426.5894480696239
 30
0.0
 11
183.6628044583345
 21
419.8511380790256
 31
0.0
  0
LINE
  5
E30
102
{ACAD_REACTORS
330
12F7
102
}
330
20
100
AcDbEntity
  8
STEMPEL
100
AcDbLine
 10
178.9183611398654
 20
427.4226627928595
 30
0.0
 11
178.9183611398654
 21
532.4226627928595
 31
0.0
  0
LINE
  5
E31
102
{ACAD_REACTORS
330
1308
330
1334
102
}
330
20
100
AcDbEntity
  8
STEMPEL
  6
Continuous
100
AcDbLine
 10
187.8183611398654
 20
517.4226627928596
 30
0.0
 11
180.4183611398654
 21
517.4226627928597
 31
0.0
  0
ARC
  5
E36
102
{ACAD_REACTORS
330
E49
330
1334
102
}
330
20
100
AcDbEntity
  8
STEMPEL
100
AcDbCircle
 10
286.4183611398655
 20
413.6020276547596
 30
0.0
 40
13.6
100
AcDbArc
 50
148.6168089436419
 51
180.0000000000002
  0
HATCH
  5
E49
330
20
100
AcDbEntity
  8
SCHRAFF
100
AcDbHatch
 10
0.0
 20
0.0
 30
0.0
210
0.0
220
0.0
230
1.0
  2
_USER
 70
     0
 71
     1
 91
        2
 92
        7
 72
     1
 73
     1
 93
        8
 10
274.4183611398653
 20
413.6020276547593
 42
-0.1377973704969873
 10
276.1739178213962
 20
419.8511380790256
 42
0.0
 10
280.2842869156613
 20
426.5894480696239
 42
0.0
 10
278.9183611398654
 20
427.4226627928594
 42
0.0
 10
274.8079920456003
 20
420.6843528022612
 42
0.1377973704969875
 10
272.8183611398653
 20
413.6020276547593
 42
0.0
 10
272.8183611398653
 20
257.4226627928595
 42
0.0
 10
274.4183611398654
 20
257.4226627928595
 42
0.0
 97
        8
330
E14
330
E16
330
E15
330
E17
330
E36
330
E1E
330
E21
330
E1F
 92
        7
 72
     1
 73
     1
 93
        8
 10
185.4183611398654
 20
257.4226627928596
 42
0.0
 10
187.0183611398654
 20
257.4226627928596
 42
0.0
 10
187.0183611398655
 20
413.6020276547593
 42
0.1377973704969881
 10
185.0287302341304
 20
420.6843528022612
 42
0.0
 10
180.9183611398654
 20
427.4226627928594
 42
0.0
 10
179.5524353640695
 20
426.5894480696239
 42
0.0
 10
183.6628044583345
 20
419.8511380790256
 42
-0.1377973704969874
 10
185.4183611398655
 20
413.6020276547593
 42
0.0
 97
        8
330
E2B
330
E29
330
E2D
330
E2E
330
E2C
330
E27
330
E26
330
E28
 75
     0
 76
     0
 52
45.0
 41
2.0
 77
     0
 78
     1
 53
45.0
 43
-458.4145946220956
 44
11.97446036703673
 45
-1.414213562373094
 46
1.414213562373095
 79
     0
 47
0.6392740120981582
 98
        2
 10
273.1812829173182
 20
382.2166606276901
 10
186.1763354634604
 20
380.9381120291089
  0
DIMENSION
  5
ECB
330
20
100
AcDbEntity
  8
BEM
100
AcDbDimension
  2
*D4
 10
161.3593638994699
 20
227.4226627928594
 30
0.0
 11
154.8593638994699
 21
242.4226627928595
 31
0.0
 70
    32
 71
     5
 42
30.00000000000009
  3
Standard
100
AcDbAlignedDimension
 13
185.4183611398656
 23
257.4226627928595
 33
0.0
 14
204.025052028232
 24
227.4226627928594
 34
0.0
 50
90.0
100
AcDbRotatedDimension
1001
ACAD
1000
DSTYLE
1002
{
1070
   279
1070
     1
1070
    40
1040
2.0
1070
    41
1040
3.5
1070
    42
1040
1.0
1070
    43
1040
7.0
1070
    44
1040
1.0
1070
    47
1040
0.4
1070
    73
1070
     0
1070
    74
1070
     0
1070
    77
1070
     1
1070
    78
1070
     8
1070
    79
1070
     2
1070
   140
1040
3.5
1070
   141
1040
1.5
1070
   145
1040
0.5714285714285714
1070
   146
1040
0.5
1070
   147
1040
1.5
1070
   172
1070
     1
1070
   178
1070
     1
1070
   179
1070
     2
1070
   271
1070
     2
1070
   272
1070
     2
1070
   284
1070
     8
1070
   285
1070
     8
1070
   286
1070
     8
1002
}
  0
DIMENSION
  5
EFF
102
{ACAD_XDICTIONARY
360
F0C
102
}
102
{ACAD_REACTORS
330
F16
102
}
330
20
100
AcDbEntity
  8
BEM
100
AcDbDimension
  2
*D5
 10
280.9183611398652
 20
546.9956934346985
 30
0.0
 11
229.9183611398653
 21
553.4956934346985
 31
0.0
 70
    32
  1
%%c<>
 71
     5
 42
101.9999999999998
  3
Standard
100
AcDbAlignedDimension
 13
178.9183611398654
 23
532.4226627928594
 33
0.0
 14
280.9183611398652
 24
532.4226627928594
 34
0.0
100
AcDbRotatedDimension
1001
ACAD
1000
DSTYLE
1002
{
1070
    40
1040
2.0
1070
    41
1040
3.5
1070
    42
1040
1.0
1070
    43
1040
7.0
1070
    44
1040
1.0
1070
    47
1040
0.4
1070
    73
1070
     0
1070
    74
1070
     0
1070
    77
1070
     1
1070
    78
1070
     8
1070
    79
1070
     2
1070
   140
1040
3.5
1070
   141
1040
1.5
1070
   145
1040
0.5714285714285714
1070
   146
1040
0.5
1070
   147
1040
1.5
1070
   172
1070
     1
1070
   178
1070
     1
1070
   179
1070
     2
1070
   271
1070
     2
1070
   272
1070
     2
1070
   284
1070
     8
1070
   285
1070
     8
1070
   286
1070
     8
1002
}
  0
DIMENSION
  5
F2B
330
20
100
AcDbEntity
  8
BEM
100
AcDbDimension
  2
*D6
 10
146.1709764226348
 20
227.4226627928594
 30
0.0
 11
139.6709764226347
 21
379.9226627928594
 31
0.0
 70
    32
 71
     5
 42
305.0
  3
Standard
100
AcDbAlignedDimension
 13
178.9183611398656
 23
532.4226627928594
 33
0.0
 14
204.025052028232
 24
227.4226627928594
 34
0.0
 50
90.0
100
AcDbRotatedDimension
1001
ACAD
1000
DSTYLE
1002
{
1070
    40
1040
2.0
1070
    41
1040
3.5
1070
    42
1040
1.0
1070
    43
1040
7.0
1070
    44
1040
1.0
1070
    47
1040
0.4
1070
    73
1070
     0
1070
    74
1070
     0
1070
    77
1070
     1
1070
    78
1070
     8
1070
    79
1070
     2
1070
   140
1040
3.5
1070
   141
1040
1.5
1070
   145
1040
0.5714285714285714
1070
   146
1040
0.5
1070
   147
1040
1.5
1070
   172
1070
     1
1070
   178
1070
     1
1070
   179
1070
     2
1070
   271
1070
     2
1070
   272
1070
     2
1070
   284
1070
     8
1070
   285
1070
     8
1070
   286
1070
     8
1002
}
  0
DIMENSION
  5
F5F
330
20
100
AcDbEntity
  8
BEM
100
AcDbDimension
  2
*D8
 10
274.4183611398654
 20
187.4895772661743
 30
0.0
 11
229.9183611398654
 21
193.9895772661743
 31
0.0
 70
    32
  1
%%c<>
 71
     5
 42
89.0
  3
Standard
100
AcDbAlignedDimension
 13
185.4183611398654
 23
255.4226627928596
 33
0.0
 14
274.4183611398654
 24
255.4226627928596
 34
0.0
100
AcDbRotatedDimension
1001
ACAD
1000
DSTYLE
1002
{
1070
    40
1040
2.0
1070
    41
1040
3.5
1070
    42
1040
1.0
1070
    43
1040
7.0
1070
    44
1040
1.0
1070
    47
1040
0.4
1070
    73
1070
     0
1070
    74
1070
     0
1070
    77
1070
     1
1070
    78
1070
     8
1070
    79
1070
     2
1070
   140
1040
3.5
1070
   141
1040
1.5
1070
   145
1040
0.5714285714285714
1070
   146
1040
0.5
1070
   147
1040
1.5
1070
   172
1070
     1
1070
   178
1070
     1
1070
   179
1070
     2
1070
   271
1070
     2
1070
   272
1070
     2
1070
   284
1070
     8
1070
   285
1070
     8
1070
   286
1070
     8
1002
}
  0
LINE
  5
F80
102
{ACAD_REACTORS
330
12F7
330
1308
330
1334
102
}
330
20
100
AcDbEntity
  8
STEMPEL
100
AcDbLine
 10
180.4183611398654
 20
427.4226627928595
 30
0.0
 11
180.4183611398654
 21
532.4226627928595
 31
0.0
  0
LINE
  5
F81
102
{ACAD_REACTORS
330
EB2
330
ECA
330
12F7
330
1308
330
1334
102
}
330
20
100
AcDbEntity
  8
STEMPEL
100
AcDbLine
 10
279.4183611398654
 20
427.4226627928594
 30
0.0
 11
279.4183611398653
 21
532.4226627928595
 31
0.0
  0
ARC
  5
1058
330
20
100
AcDbEntity
  8
SCHRAFF
100
AcDbCircle
 10
181.3814795438355
 20
427.906795604998
 30
0.0
 40
3.520872048077739
100
AcDbArc
 50
134.393014988535
 51
261.7156977081502
  0
HATCH
  5
105E
330
20
100
AcDbEntity
  8
SCHRAFF
100
AcDbHatch
 10
0.0
 20
0.0
 30
0.0
210
0.0
220
0.0
230
1.0
  2
_USER
 70
     0
 71
     0
 91
        1
 92
        7
 72
     1
 73
     1
 93
        5
 10
180.9183611398657
 20
427.4226627928597
 42
0.0
 10
178.9183611398653
 20
427.4226627928594
 42
0.0
 10
178.9183611398653
 20
430.4226627928596
 42
0.6207676079160465
 10
180.8741743828958
 20
424.4226627928596
 42
0.0
 10
179.5524353640696
 20
426.5894480696239
 42
0.0
 97
        0
 75
     0
 76
     0
 52
0.0
 41
0.1
 77
     0
 78
     1
 53
0.0
 43
-44.99310061949745
 44
0.0
 45
0.0
 46
0.1
 79
     0
 47
0.0191588349804795
 98
        1
 10
178.8285149711514
 20
427.190834957809
  0
HATCH
  5
105F
330
20
100
AcDbEntity
  8
SCHRAFF
100
AcDbHatch
 10
0.0
 20
0.0
 30
0.0
210
0.0
220
0.0
230
1.0
  2
_USER
 70
     0
 71
     0
 91
        1
 92
        7
 72
     1
 73
     1
 93
        5
 10
278.9183611398652
 20
427.4226627928597
 42
0.0
 10
280.9183611398655
 20
427.4226627928594
 42
0.0
 10
280.9183611398655
 20
430.4226627928596
 42
-0.6207676079160465
 10
278.962547896835
 20
424.4226627928596
 42
0.0
 10
280.2842869156613
 20
426.5894480696239
 42
0.0
 97
        0
 75
     0
 76
     0
 52
0.0
 41
0.1
 77
     0
 78
     1
 53
180.0
 43
504.8298228992282
 44
0.0
 45
0.0
 46
0.1
 79
     0
 47
0.0191588349804795
 98
        1
 10
281.0082073085794
 20
427.190834957809
  0
ARC
  5
1060
330
20
100
AcDbEntity
  8
SCHRAFF
100
AcDbCircle
 10
278.4552427358953
 20
427.906795604998
 30
0.0
 40
3.520872048077739
100
AcDbArc
 50
278.2843022918497
 51
45.60698501146496
  0
LINE
  5
114B
330
20
100
AcDbEntity
  8
HILF
100
AcDbLine
 10
262.546680716755
 20
444.0578391597448
 30
0.0
 11
197.2900415629757
 21
444.0578391597449
 31
0.0
  0
LINE
  5
114C
330
20
100
AcDbEntity
  8
HILF
100
AcDbLine
 10
263.4420229526557
 20
474.3431688734228
 30
0.0
 11
196.394699327075
 21
474.3431688734228
 31
0.0
  0
LINE
  5
114D
330
20
100
AcDbEntity
  8
HILF
100
AcDbLine
 10
265.6596141146845
 20
479.4707305925785
 30
0.0
 11
194.1771081650463
 21
479.4707305925785
 31
0.0
  0
LINE
  5
1154
330
20
100
AcDbEntity
  8
HILF
100
AcDbLine
 10
266.4792466064446
 20
501.628345011732
 30
0.0
 11
193.3574756732862
 21
501.628345011732
 31
0.0
  0
LINE
  5
11C5
102
{ACAD_REACTORS
330
1257
102
}
330
20
100
AcDbEntity
  8
STEMPEL
100
AcDbLine
 10
268.4183611398644
 20
257.4226627928593
 30
0.0
 11
256.4183611398651
 21
257.4226627928593
 31
0.0
  0
POINT
  5
11C6
330
20
100
AcDbEntity
  8
STEMPEL
100
AcDbPoint
 10
268.4183611398644
 20
255.4226627928593
 30
0.0
  0
LINE
  5
11C7
102
{ACAD_REACTORS
330
1257
102
}
330
20
100
AcDbEntity
  8
STEMPEL
100
AcDbLine
 10
268.4183611398644
 20
257.4226627928593
 30
0.0
 11
268.4183611398644
 21
255.4226627928593
 31
0.0
  0
LINE
  5
11C8
102
{ACAD_REACTORS
330
1257
102
}
330
20
100
AcDbEntity
  8
STEMPEL
100
AcDbLine
 10
274.4183611398652
 20
255.4226627928591
 30
0.0
 11
256.4183611398651
 21
255.4226627928592
 31
0.0
  0
LINE
  5
11C9
330
20
100
AcDbEntity
  8
STEMPEL
100
AcDbLine
 10
260.4183611398654
 20
263.4226627928594
 30
0.0
 11
263.8824627550032
 21
257.4226627928595
 31
0.0
  0
LINE
  5
11CA
330
20
100
AcDbEntity
  8
STEMPEL
100
AcDbLine
 10
260.4183611398654
 20
263.4226627928594
 30
0.0
 11
256.4183611398655
 21
263.4226627928594
 31
0.0
  0
LINE
  5
11CB
102
{ACAD_REACTORS
330
1257
102
}
330
20
100
AcDbEntity
  8
STEMPEL
100
AcDbLine
 10
260.4183611398654
 20
263.4226627928594
 30
0.0
 11
263.8824627550032
 21
257.4226627928595
 31
0.0
  0
LINE
  5
11CC
102
{ACAD_REACTORS
330
1257
102
}
330
20
100
AcDbEntity
  8
STEMPEL
100
AcDbLine
 10
260.4183611398654
 20
263.4226627928594
 30
0.0
 11
256.4183611398655
 21
263.4226627928594
 31
0.0
  0
LINE
  5
11CD
102
{ACAD_REACTORS
330
1257
330
1334
102
}
330
20
100
AcDbEntity
  8
STEMPEL
100
AcDbLine
 10
272.8183611398654
 20
273.4226627928595
 30
0.0
 11
256.4183611398655
 21
273.4226627928594
 31
0.0
  0
LINE
  5
11CE
102
{ACAD_REACTORS
330
1257
330
1334
102
}
330
20
100
AcDbEntity
  8
STEMPEL
100
AcDbLine
 10
187.0183611398654
 20
273.4226627928595
 30
0.0
 11
203.4183611398654
 21
273.4226627928594
 31
0.0
  0
LINE
  5
11CF
102
{ACAD_REACTORS
330
1257
102
}
330
20
100
AcDbEntity
  8
STEMPEL
100
AcDbLine
 10
203.4183611398718
 20
255.4226627928595
 30
0.0
 11
185.4183611398654
 21
255.4226627928596
 31
0.0
  0
POINT
  5
11D0
330
20
100
AcDbEntity
  8
STEMPEL
100
AcDbPoint
 10
191.4183611398643
 20
255.4226627928593
 30
0.0
  0
LINE
  5
11D1
102
{ACAD_REACTORS
330
1257
102
}
330
20
100
AcDbEntity
  8
STEMPEL
100
AcDbLine
 10
191.4183611398643
 20
257.4226627928593
 30
0.0
 11
191.4183611398643
 21
255.4226627928593
 31
0.0
  0
LINE
  5
11D2
330
20
100
AcDbEntity
  8
STEMPEL
100
AcDbLine
 10
199.4183611398654
 20
263.4226627928594
 30
0.0
 11
203.4183611398654
 21
263.4226627928594
 31
0.0
  0
LINE
  5
11D3
330
20
100
AcDbEntity
  8
STEMPEL
100
AcDbLine
 10
203.4183611398716
 20
257.4226627928595
 30
0.0
 11
191.4183611398643
 21
257.4226627928596
 31
0.0
  0
LINE
  5
11D4
330
20
100
AcDbEntity
  8
STEMPEL
100
AcDbLine
 10
199.4183611398654
 20
263.4226627928594
 30
0.0
 11
195.9542595247276
 21
257.4226627928595
 31
0.0
  0
LINE
  5
11D5
102
{ACAD_REACTORS
330
1257
102
}
330
20
100
AcDbEntity
  8
STEMPEL
100
AcDbLine
 10
199.4183611398654
 20
263.4226627928594
 30
0.0
 11
203.4183611398654
 21
263.4226627928594
 31
0.0
  0
LINE
  5
11D6
102
{ACAD_REACTORS
330
1257
102
}
330
20
100
AcDbEntity
  8
STEMPEL
100
AcDbLine
 10
203.4183611398716
 20
257.4226627928595
 30
0.0
 11
191.4183611398643
 21
257.4226627928596
 31
0.0
  0
LINE
  5
11D7
102
{ACAD_REACTORS
330
1257
102
}
330
20
100
AcDbEntity
  8
STEMPEL
100
AcDbLine
 10
199.4183611398654
 20
263.4226627928594
 30
0.0
 11
195.9542595247276
 21
257.4226627928595
 31
0.0
  0
HATCH
  5
1257
330
20
100
AcDbEntity
  8
SCHRAFF
100
AcDbHatch
 10
0.0
 20
0.0
 30
0.0
210
0.0
220
0.0
230
1.0
  2
NET
 70
     0
 71
     1
 91
        2
 92
        7
 72
     0
 73
     1
 93
       10
 10
263.8824627550032
 20
257.4226627928593
 10
268.4183611398644
 20
257.4226627928593
 10
268.4183611398644
 20
255.4226627928591
 10
274.4183611398654
 20
255.4226627928591
 10
274.4183611398653
 20
257.4226627928595
 10
272.8183611398654
 20
257.4226627928595
 10
272.8183611398654
 20
273.4226627928595
 10
256.4183611398656
 20
273.4226627928594
 10
256.4183611398655
 20
263.4226627928594
 10
260.4183611398654
 20
263.4226627928594
 97
       10
330
11CD
330
D2D
330
11CC
330
11CB
330
11C5
330
11C7
330
11C8
330
E1F
330
E21
330
E1E
 92
        7
 72
     0
 73
     1
 93
       10
 10
199.4183611398654
 20
263.4226627928594
 10
203.4183611398655
 20
263.4226627928594
 10
203.4183611398655
 20
273.4226627928595
 10
187.0183611398654
 20
273.4226627928595
 10
187.0183611398654
 20
257.4226627928596
 10
185.4183611398653
 20
257.4226627928596
 10
185.4183611398654
 20
255.4226627928596
 10
191.4183611398643
 20
255.4226627928596
 10
191.4183611398643
 20
257.4226627928596
 10
195.9542595247276
 20
257.4226627928595
 97
       10
330
11CE
330
E28
330
E26
330
E27
330
11CF
330
11D1
330
11D6
330
11D7
330
11D5
330
D2E
 75
     0
 76
     1
 52
45.0
 41
15.0
 77
     0
 78
     2
 53
45.0
 43
0.0
 44
0.0
 45
-1.325825214724776
 46
1.325825214724776
 79
     0
 53
135.0
 43
0.0
 44
0.0
 45
-1.325825214724776
 46
-1.325825214724776
 79
     0
 47
1.013671473441273
 98
        2
 10
264.2641469544251
 20
265.0693584385836
 10
196.3071886459051
 20
264.0556866478078
  0
TEXT
  5
12D9
330
20
100
AcDbEntity
  8
VOLL
100
AcDbText
 10
1937.325291668494
 20
401.2740701028803
 30
0.0
 40
3.6
  1

  7
GREEKS
100
AcDbText
  0
TEXT
  5
12DA
330
20
100
AcDbEntity
  8
VOLL
100
AcDbText
 10
2180.130829006856
 20
815.9148861934054
 30
0.0
 40
3.6
  1

  7
GREEKS
100
AcDbText
  0
TEXT
  5
12DB
330
20
100
AcDbEntity
  8
VOLL
100
AcDbText
 10
2839.797250935695
 20
448.736038125219
 30
0.0
 40
3.6
  1

  7
GREEKS
100
AcDbText
  0
TEXT
  5
12DC
330
20
100
AcDbEntity
  8
VOLL
100
AcDbText
 10
2832.13269790702
 20
426.3283906682972
 30
0.0
 40
3.6
  1

  7
GREEKS
100
AcDbText
  0
HATCH
  5
12F7
330
20
100
AcDbEntity
  8
SCHRAFF
100
AcDbHatch
 10
0.0
 20
0.0
 30
0.0
210
0.0
220
0.0
230
1.0
  2
_USER
 70
     0
 71
     1
 91
        2
 92
        7
 72
     0
 73
     1
 93
        4
 10
180.4183611398654
 20
532.4226627928594
 10
178.9183611398654
 20
532.4226627928594
 10
178.9183611398654
 20
427.4226627928595
 10
180.4183611398654
 20
427.4226627928596
 97
        4
330
D0A
330
E30
330
E2A
330
F80
 92
        7
 72
     0
 73
     1
 93
        4
 10
280.9183611398653
 20
532.4226627928594
 10
279.4183611398653
 20
532.4226627928594
 10
279.4183611398654
 20
427.4226627928594
 10
280.9183611398654
 20
427.4226627928594
 97
        4
330
D0A
330
F81
330
E18
330
E19
 75
     1
 76
     0
 52
135.0
 41
2.0
 77
     0
 78
     1
 53
135.0
 43
0.0
 44
0.0
 45
-1.414213562373095
 46
-1.414213562373094
 79
     0
 47
0.3725583137711766
 98
        2
 10
179.6360315947217
 20
512.8484565047926
 10
279.9006319317777
 20
510.2405476042929
1001
GradientColor1ACI
1070
     5
1001
GradientColor2ACI
1070
     2
1001
ACAD
1010
0.0
1020
0.0
1030
0.0
  0
HATCH
  5
1308
330
20
100
AcDbEntity
  8
SCHRAFF
100
AcDbHatch
 10
0.0
 20
0.0
 30
0.0
210
0.0
220
0.0
230
1.0
  2
NET
 70
     0
 71
     1
 91
        2
 92
        7
 72
     1
 73
     1
 93
        5
 10
190.15296381159
 20
532.4226627928594
 42
0.0
 10
180.4183611398654
 20
532.4226627928594
 42
0.0
 10
180.4183611398654
 20
517.4226627928597
 42
0.0
 10
187.8183611398654
 20
517.4226627928596
 42
0.0
 10
187.8183611398654
 20
521.8737403857407
 42
-0.109333224602075
 97
        5
330
D0A
330
F80
330
E31
330
D09
330
D0B
 92
        7
 72
     1
 73
     1
 93
        5
 10
279.4183611398653
 20
532.4226627928594
 42
0.0
 10
269.6837584681408
 20
532.4226627928594
 42
-0.1093332246020744
 10
272.0183611398655
 20
521.8737403857407
 42
0.0
 10
272.0183611398655
 20
517.4226627928594
 42
0.0
 10
279.4183611398653
 20
517.4226627928594
 42
0.0
 97
        5
330
D0A
330
D1C
330
D1D
330
E1A
330
F81
 75
     1
 76
     1
 52
45.0
 41
15.0
 77
     0
 78
     2
 53
45.0
 43
0.0
 44
0.0
 45
-1.325825214724776
 46
1.325825214724776
 79
     0
 53
135.0
 43
0.0
 44
0.0
 45
-1.325825214724776
 46
-1.325825214724776
 79
     0
 47
0.421271204320308
 98
        2
 10
182.4898538894267
 20
526.7242387328003
 10
276.4768386574738
 20
523.7753399902333
1001
GradientColor1ACI
1070
     5
1001
GradientColor2ACI
1070
     2
1001
ACAD
1010
0.0
1020
0.0
1030
0.0
  0
HATCH
  5
1334
330
20
100
AcDbEntity
  8
SCHRAFF
100
AcDbHatch
 10
0.0
 20
0.0
 30
0.0
210
0.0
220
0.0
230
1.0
  2
HONEY
 70
     0
 71
     1
 91
        2
 92
        7
 72
     1
 73
     1
 93
       18
 10
193.4183611398653
 20
472.1160631282907
 42
0.1420008527982328
 10
192.1783611398654
 20
476.394193561085
 42
-0.142000852798232
 10
190.3183611398653
 20
482.8113892102765
 42
0.0
 10
190.3183611398653
 20
499.4226627928593
 42
0.0926930603363572
 10
189.5075221314236
 20
503.7588680814719
 42
-0.0920044384190449
 10
187.8183611398654
 20
512.7243827446658
 42
0.0
 10
187.8183611398654
 20
517.4226627928596
 42
0.0
 10
180.4183611398654
 20
517.4226627928597
 42
0.0
 10
180.4183611398654
 20
427.4226627928596
 42
0.0
 10
180.9183611398653
 20
427.4226627928596
 42
0.0
 10
185.0287302341305
 20
420.6843528022611
 42
-0.1377973704969868
 10
187.0183611398655
 20
413.6020276547593
 42
0.0
 10
187.0183611398654
 20
273.4226627928595
 42
0.0
 10
203.4183611398655
 20
273.4226627928594
 42
0.0
 10
203.4183611398655
 20
426.4226627928591
 42
-0.3354283274755854
 10
201.3493956226238
 20
432.4226627928595
 42
0.0
 10
195.1155183950784
 20
441.4617847728002
 42
-0.152094097958959
 10
193.4183611398653
 20
446.9120211485154
 42
0.0
 97
       18
330
D13
330
D12
330
D0F
330
D10
330
D11
330
D09
330
E31
330
F80
330
E2A
330
E29
330
E2B
330
E28
330
11CE
330
D2E
330
D53
330
D49
330
D44
330
D46
 92
        7
 72
     1
 73
     1
 93
       18
 10
279.4183611398653
 20
517.4226627928594
 42
0.0
 10
272.0183611398655
 20
517.4226627928594
 42
0.0
 10
272.0183611398655
 20
512.860942841058
 42
-0.0933817694259911
 10
270.3292001483072
 20
503.758868081472
 42
0.0926930603363571
 10
269.5183611398654
 20
499.4226627928595
 42
0.0
 10
269.5183611398654
 20
482.8113892102765
 42
-0.142000852798233
 10
267.6583611398655
 20
476.394193561085
 42
0.1420008527982313
 10
266.4183611398655
 20
472.1160631282907
 42
0.0
 10
266.4183611398655
 20
446.9120211485154
 42
-0.1520940979589584
 10
264.7212038846525
 20
441.4617847728004
 42
0.0
 10
258.487326657107
 20
432.4226627928594
 42
-0.3354283274755633
 10
256.4183611398656
 20
426.4226627928594
 42
0.0
 10
256.4183611398655
 20
273.4226627928594
 42
0.0
 10
272.8183611398654
 20
273.4226627928594
 42
0.0
 10
272.8183611398655
 20
413.6020276547596
 42
-0.1377973704969897
 10
274.8079920456006
 20
420.6843528022615
 42
0.0
 10
278.9183611398654
 20
427.4226627928594
 42
0.0
 10
279.4183611398654
 20
427.4226627928594
 42
0.0
 97
       18
330
E1A
330
D1D
330
D1B
330
D24
330
D1F
330
D28
330
D26
330
D2A
330
D43
330
D40
330
D52
330
D2D
330
11CD
330
E1E
330
E36
330
E17
330
E18
330
F81
 75
     1
 76
     1
 52
0.0
 41
30.0
 77
     0
 78
     3
 53
0.0
 43
0.0
 44
0.0
 45
5.625
 46
3.247595264191644
 79
     2
 49
3.75
 49
-7.5
 53
120.0
 43
0.0
 44
0.0
 45
-5.624999999999998
 46
3.247595264191645
 79
     2
 49
3.749999999999999
 49
-7.499999999999999
 53
60.0
 43
0.0
 44
0.0
 45
0.0000000000000012
 46
6.49519052838329
 79
     2
 49
-7.5
 49
3.75
 47
0.421271204320308
 98
        2
 10
187.5474486629291
 20
459.3208448907039
 10
274.3695077104385
 20
451.31669195928
1001
GradientColor1ACI
1070
     5
1001
GradientColor2ACI
1070
     2
1001
ACAD
1010
0.0
1020
0.0
1030
0.0
  0
ENDSEC
  0
SECTION
  2
OBJECTS
  0
DICTIONARY
  5
C
330
0
100
AcDbDictionary
281
     1
  3
ACAD_CIP_PREVIOUS_PRODUCT_INFO
350
12BE
  3
ACAD_COLOR
350
1B
  3
ACAD_DETAILVIEWSTYLE
350
12BB
  3
ACAD_GROUP
350
D
  3
ACAD_LAYOUT
350
19
  3
ACAD_MATERIAL
350
1A
  3
ACAD_MLEADERSTYLE
350
12B6
  3
ACAD_MLINESTYLE
350
16
  3
ACAD_PLOTSETTINGS
350
18
  3
ACAD_PLOTSTYLENAME
350
E
  3
ACAD_SCALELIST
350
12A4
  3
ACAD_SECTIONVIEWSTYLE
350
12B8
  3
ACAD_TABLESTYLE
350
12A2
  3
ACAD_VISUALSTYLE
350
1289
  3
ACDB_RECOMPOSE_DATA
350
1403
  3
AcDbVariableDictionary
350
810
  0
DICTIONARY
  5
134D
330
8
100
AcDbDictionary
280
     1
281
     1
  0
DICTIONARY
  5
133A
330
10
100
AcDbDictionary
280
     1
281
     1
  3
ADSK_XREC_LAYER_RECONCILED
360
133B
  0
DICTIONARY
  5
133C
330
54
100
AcDbDictionary
280
     1
281
     1
  3
ADSK_XREC_LAYER_RECONCILED
360
133D
  0
DICTIONARY
  5
133E
330
55
100
AcDbDictionary
280
     1
281
     1
  3
ADSK_XREC_LAYER_RECONCILED
360
133F
  0
DICTIONARY
  5
1340
330
56
100
AcDbDictionary
280
     1
281
     1
  3
ADSK_XREC_LAYER_RECONCILED
360
1341
  0
DICTIONARY
  5
1342
330
57
100
AcDbDictionary
280
     1
281
     1
  3
ADSK_XREC_LAYER_RECONCILED
360
1343
  0
DICTIONARY
  5
1344
330
58
100
AcDbDictionary
280
     1
281
     1
  3
ADSK_XREC_LAYER_RECONCILED
360
1345
  0
DICTIONARY
  5
1346
330
59
100
AcDbDictionary
280
     1
281
     1
  3
ADSK_XREC_LAYER_RECONCILED
360
1347
  0
DICTIONARY
  5
1348
330
5A
100
AcDbDictionary
280
     1
281
     1
  3
ADSK_XREC_LAYER_RECONCILED
360
1349
  0
DICTIONARY
  5
12DE
330
20
100
AcDbDictionary
280
     1
281
     1
  3
ACAD_SORTENTS
360
12DF
  0
DICTIONARY
  5
F0C
330
EFF
100
AcDbDictionary
280
     1
281
     1
  3
ACAD_DIMASSOC
360
F16
  0
XRECORD
  5
12BE
102
{ACAD_REACTORS
330
C
102
}
330
C
100
AcDbXrecord
280
     1
300
ACD
300
2013
300
ACD_F_S
  0
DICTIONARY
  5
1B
102
{ACAD_REACTORS
330
C
102
}
330
C
100
AcDbDictionary
281
     1
  0
DICTIONARY
  5
12BB
102
{ACAD_REACTORS
330
C
102
}
330
C
100
AcDbDictionary
281
     1
  3
Imperial24
350
12BC
  0
DICTIONARY
  5
D
102
{ACAD_REACTORS
330
C
102
}
330
C
100
AcDbDictionary
281
     1
  0
DICTIONARY
  5
19
102
{ACAD_REACTORS
330
C
102
}
330
C
100
AcDbDictionary
281
     1
  3
Layout1
350
1F
  3
Model
350
23
  0
DICTIONARY
  5
1A
102
{ACAD_REACTORS
330
C
102
}
330
C
100
AcDbDictionary
281
     1
  3
ByBlock
350
1279
  3
ByLayer
350
1271
  3
Global
350
1281
  0
DICTIONARY
  5
12B6
102
{ACAD_REACTORS
330
C
102
}
330
C
100
AcDbDictionary
281
     1
  3
Standard
350
12B7
  0
DICTIONARY
  5
16
102
{ACAD_REACTORS
330
C
102
}
330
C
100
AcDbDictionary
281
     1
  3
Standard
350
17
  0
DICTIONARY
  5
18
102
{ACAD_REACTORS
330
C
102
}
330
C
100
AcDbDictionary
281
     1
  0
ACDBDICTIONARYWDFLT
  5
E
102
{ACAD_REACTORS
330
C
102
}
330
C
100
AcDbDictionary
281
     1
  3
Normal
350
F
100
AcDbDictionaryWithDefault
340
F
  0
DICTIONARY
  5
12A4
102
{ACAD_REACTORS
330
C
102
}
330
C
100
AcDbDictionary
281
     1
  3
A0
350
12A5
  3
A1
350
12A6
  3
A2
350
12A7
  3
A3
350
12A8
  3
A4
350
12A9
  3
A5
350
12AA
  3
A6
350
12AB
  3
A7
350
12AC
  3
A8
350
12AD
  3
A9
350
12AE
  3
B0
350
12AF
  3
B1
350
12B0
  3
B2
350
12B1
  3
B3
350
12B2
  3
B4
350
12B3
  3
B5
350
12B4
  3
B6
350
12B5
  0
DICTIONARY
  5
12B8
102
{ACAD_REACTORS
330
C
102
}
330
C
100
AcDbDictionary
281
     1
  3
Imperial24
350
12BA
  0
DICTIONARY
  5
12A2
102
{ACAD_REACTORS
330
C
102
}
330
C
100
AcDbDictionary
281
     1
  3
Standard
350
12A3
  0
DICTIONARY
  5
1289
102
{ACAD_REACTORS
330
C
102
}
330
C
100
AcDbDictionary
281
     1
  3
2dWireframe
350
128F
  3
Basic
350
128E
  3
Brighten
350
1295
  3
ColorChange
350
1299
  3
Conceptual
350
1292
  3
Dim
350
1294
  3
EdgeColorOff
350
12A1
  3
Facepattern
350
1298
  3
Flat
350
128A
  3
FlatWithEdges
350
128B
  3
Gouraud
350
128C
  3
GouraudWithEdges
350
128D
  3
Hidden
350
1291
  3
JitterOff
350
129F
  3
Linepattern
350
1297
  3
OverhangOff
350
12A0
  3
Realistic
350
1293
  3
Shaded
350
129E
  3
Shaded with edges
350
129D
  3
Shades of Gray
350
129A
  3
Sketchy
350
129B
  3
Thicken
350
1296
  3
Wireframe
350
1290
  3
X-Ray
350
129C
  0
XRECORD
  5
1403
102
{ACAD_REACTORS
330
C
102
}
330
C
100
AcDbXrecord
280
     1
 90
        1
330
12A3
  0
DICTIONARY
  5
810
102
{ACAD_REACTORS
330
C
102
}
330
C
100
AcDbDictionary
281
     1
  3
CANNOSCALE
350
138A
  3
CMLEADERSTYLE
350
1387
  3
CTABLESTYLE
350
1386
  3
CVIEWDETAILSTYLE
350
1388
  3
CVIEWSECTIONSTYLE
350
1389
  3
DIMASSOC
350
812
  3
HIDETEXT
350
811
  3
PROJECTNAME
350
813
  3
XCLIPFRAME
350
1401
  0
XRECORD
  5
133B
102
{ACAD_REACTORS
330
133A
102
}
330
133A
100
AcDbXrecord
280
     1
290
     1
  0
XRECORD
  5
133D
102
{ACAD_REACTORS
330
133C
102
}
330
133C
100
AcDbXrecord
280
     1
290
     1
  0
XRECORD
  5
133F
102
{ACAD_REACTORS
330
133E
102
}
330
133E
100
AcDbXrecord
280
     1
290
     1
  0
XRECORD
  5
1341
102
{ACAD_REACTORS
330
1340
102
}
330
1340
100
AcDbXrecord
280
     1
290
     1
  0
XRECORD
  5
1343
102
{ACAD_REACTORS
330
1342
102
}
330
1342
100
AcDbXrecord
280
     1
290
     1
  0
XRECORD
  5
1345
102
{ACAD_REACTORS
330
1344
102
}
330
1344
100
AcDbXrecord
280
     1
290
     1
  0
XRECORD
  5
1347
102
{ACAD_REACTORS
330
1346
102
}
330
1346
100
AcDbXrecord
280
     1
290
     1
  0
XRECORD
  5
1349
102
{ACAD_REACTORS
330
1348
102
}
330
1348
100
AcDbXrecord
280
     1
290
     1
  0
SORTENTSTABLE
  5
12DF
102
{ACAD_REACTORS
330
12DE
102
}
330
12DE
100
AcDbSortentsTable
330
20
331
4BE
  5
4BE
331
4BA
  5
4BA
331
534
  5
534
331
4B6
  5
4B6
331
4F5
  5
4F5
331
530
  5
530
331
52C
  5
52C
331
4B2
  5
4B2
331
E2C
  5
EB3
331
4F1
  5
4F1
331
528
  5
528
331
E28
  5
E35
331
47D
  5
47D
331
479
  5
479
331
12DA
  5
130A
331
C97
  5
C97
331
C93
  5
C93
331
CCE
  5
CCE
331
D09
  5
D16
331
1154
  5
11D0
331
C8F
  5
C8F
331
CCA
  5
CCA
331
D05
  5
D05
331
D44
  5
D55
331
C8B
  5
C8B
331
11D7
  5
12F9
331
105E
  5
11C9
331
D01
  5
D01
331
114C
  5
11CE
331
11D3
  5
12E2
331
D40
  5
D51
331
4ED
  5
4ED
331
7E7
  5
7E7
331
4AE
  5
4AE
331
4E9
  5
4E9
331
524
  5
524
331
4A6
  5
4A6
331
4E5
  5
4E5
331
520
  5
520
331
51C
  5
51C
331
4A2
  5
4A2
331
4E1
  5
4E1
331
518
  5
518
331
475
  5
475
331
E18
  5
E2C
331
E14
  5
E28
331
471
  5
471
331
46D
  5
46D
331
469
  5
469
331
C87
  5
C87
331
CC6
  5
CC6
331
C83
  5
C83
331
CC2
  5
CC2
331
11CF
  5
12DA
331
CFD
  5
CFD
331
C7F
  5
C7F
331
CBE
  5
CBE
331
11CB
  5
11D7
331
CF9
  5
CF9
331
CBA
  5
CBA
331
CF5
  5
CF5
331
11C7
  5
11D3
331
D34
  5
D48
331
C7B
  5
C7B
331
CF1
  5
CF1
331
D30
  5
D44
331
4DD
  5
4DD
331
49E
  5
49E
331
49A
  5
49A
331
4D9
  5
4D9
331
514
  5
514
331
496
  5
496
331
4D5
  5
4D5
331
510
  5
510
331
492
  5
492
331
4D1
  5
4D1
331
50C
  5
50C
331
508
  5
508
331
C77
  5
C77
331
CB6
  5
CB6
331
C73
  5
C73
331
CB2
  5
CB2
331
CED
  5
CED
331
D28
  5
D35
331
C6F
  5
C6F
331
CAE
  5
CAE
331
CE9
  5
CE9
331
CAA
  5
CAA
331
CE5
  5
CE5
331
D24
  5
D31
331
C6B
  5
C6B
331
CE1
  5
CE1
331
D20
  5
D2D
331
4CD
  5
4CD
331
48E
  5
48E
331
48A
  5
48A
331
4C9
  5
4C9
331
504
  5
504
331
543
  5
543
331
486
  5
486
331
4C5
  5
4C5
331
500
  5
500
331
53F
  5
53F
331
53B
  5
53B
331
482
  5
482
331
4C1
  5
4C1
331
D54
  5
E26
331
4FC
  5
4FC
331
4F8
  5
4F8
331
D50
  5
E1A
331
D48
  5
E17
331
1257
  5
12FA
331
CA6
  5
CA6
331
CA2
  5
CA2
331
CDD
  5
CDD
331
D1C
  5
D28
331
D18
  5
D23
331
C9E
  5
C9E
331
CD9
  5
CD9
331
CD5
  5
CD5
331
D14
  5
D1F
331
C9A
  5
C9A
331
CD1
  5
CD1
331
D10
  5
D1B
331
4BD
  5
4BD
331
537
  5
537
331
4B9
  5
4B9
331
533
  5
533
331
4B5
  5
4B5
331
4F4
  5
4F4
331
52F
  5
52F
331
4F0
  5
4F0
331
52B
  5
52B
331
4B1
  5
4B1
331
E2B
  5
E9B
331
E27
  5
E34
331
47C
  5
47C
331
478
  5
478
331
12D9
  5
12FC
331
C96
  5
C96
331
C92
  5
C92
331
CCD
  5
CCD
331
D08
  5
D08
331
D47
  5
E16
331
C8E
  5
C8E
331
CC9
  5
CC9
331
D04
  5
D04
331
11D6
  5
12E7
331
D43
  5
D54
331
C8A
  5
C8A
331
D00
  5
D00
331
114B
  5
11CD
331
11D2
  5
12DD
331
4EC
  5
4EC
331
527
  5
527
331
7E6
  5
7E6
331
4AD
  5
4AD
331
4A9
  5
4A9
331
4E8
  5
4E8
331
523
  5
523
331
4A5
  5
4A5
331
4E4
  5
4E4
331
E1F
  5
E31
331
51F
  5
51F
331
51B
  5
51B
331
4A1
  5
4A1
331
4E0
  5
4E0
331
474
  5
474
331
E17
  5
E2B
331
470
  5
470
331
46C
  5
46C
331
468
  5
468
331
C86
  5
C86
331
CC5
  5
CC5
331
C82
  5
C82
331
CC1
  5
CC1
331
11CE
  5
12D9
331
CFC
  5
CFC
331
11CA
  5
11D6
331
CF8
  5
CF8
331
C7E
  5
C7E
331
CBD
  5
CBD
331
CB9
  5
CB9
331
CF4
  5
CF4
331
11C6
  5
11D2
331
D33
  5
D47
331
C7A
  5
C7A
331
CF0
  5
CF0
331
4DC
  5
4DC
331
517
  5
517
331
49D
  5
49D
331
499
  5
499
331
4D8
  5
4D8
331
513
  5
513
331
576
  5
576
331
495
  5
495
331
4D4
  5
4D4
331
50F
  5
50F
331
50B
  5
50B
331
491
  5
491
331
4D0
  5
4D0
331
1334
  5
D15
331
C76
  5
C76
331
CB5
  5
CB5
331
D2F
  5
D43
331
D2B
  5
D40
331
C72
  5
C72
331
CB1
  5
CB1
331
CEC
  5
CEC
331
D27
  5
D34
331
C6E
  5
C6E
331
CAD
  5
CAD
331
CE8
  5
CE8
331
CA9
  5
CA9
331
CE4
  5
CE4
331
D23
  5
D30
331
C6A
  5
C6A
331
CE0
  5
CE0
331
F81
  5
11C6
331
4CC
  5
4CC
331
507
  5
507
331
48D
  5
48D
331
489
  5
489
331
4C8
  5
4C8
331
503
  5
503
331
542
  5
542
331
53E
  5
53E
331
485
  5
485
331
4C4
  5
4C4
331
4FF
  5
4FF
331
53A
  5
53A
331
481
  5
481
331
4C0
  5
4C0
331
D53
  5
E21
331
4FB
  5
4FB
331
E36
  5
1058
331
1308
  5
D14
331
AA6
  5
AA6
331
CA5
  5
CA5
331
D1F
  5
D2B
331
CA1
  5
CA1
331
CDC
  5
CDC
331
D1B
  5
D27
331
D17
  5
D22
331
C9D
  5
C9D
331
CD8
  5
CD8
331
C99
  5
C99
331
CD4
  5
CD4
331
D13
  5
D1E
331
8CA
  5
8CA
331
CD0
  5
CD0
331
4BC
  5
4BC
331
536
  5
536
331
4B8
  5
4B8
331
4F7
  5
4F7
331
532
  5
532
331
4B4
  5
4B4
331
4F3
  5
4F3
331
E2E
  5
EFF
331
52E
  5
52E
331
52A
  5
52A
331
4B0
  5
4B0
331
E2A
  5
E49
331
E26
  5
E33
331
F5F
  5
1154
331
47F
  5
47F
331
47B
  5
47B
331
12DC
  5
130C
331
C95
  5
C95
331
D0F
  5
D1A
331
C91
  5
C91
331
D0B
  5
D19
331
CCC
  5
CCC
331
D07
  5
D07
331
D46
  5
E15
331
C8D
  5
C8D
331
1060
  5
11CB
331
CC8
  5
CC8
331
D03
  5
D03
331
11D5
  5
12E5
331
D42
  5
D53
331
C89
  5
C89
331
1058
  5
11C8
331
11D1
  5
12DC
331
4EF
  5
4EF
331
4AC
  5
4AC
331
4EB
  5
4EB
331
526
  5
526
331
7E5
  5
7E5
331
4A8
  5
4A8
331
4E7
  5
4E7
331
522
  5
522
331
7DD
  5
7DD
331
4A4
  5
4A4
331
4E3
  5
4E3
331
E1E
  5
E30
331
51E
  5
51E
331
51A
  5
51A
331
477
  5
477
331
E1A
  5
E2E
331
473
  5
473
331
E16
  5
E2A
331
46F
  5
46F
331
46B
  5
46B
331
C85
  5
C85
331
CC4
  5
CC4
331
CFF
  5
CFF
331
D3E
  5
D50
331
C81
  5
C81
331
CC0
  5
CC0
331
11CD
  5
12D8
331
CFB
  5
CFB
331
CF7
  5
CF7
331
11C9
  5
11D5
331
D36
  5
D4A
331
C7D
  5
C7D
331
CBC
  5
CBC
331
CB8
  5
CB8
331
CF3
  5
CF3
331
11C5
  5
11D1
331
D32
  5
D46
331
C79
  5
C79
331
4DF
  5
4DF
331
4DB
  5
4DB
331
516
  5
516
331
49C
  5
49C
331
498
  5
498
331
4D7
  5
4D7
331
512
  5
512
331
494
  5
494
331
4D3
  5
4D3
331
50E
  5
50E
331
50A
  5
50A
331
467
  5
467
331
490
  5
490
331
C75
  5
C75
331
CB4
  5
CB4
331
CEF
  5
CEF
331
D2E
  5
D42
331
D2A
  5
D3E
331
C71
  5
C71
331
CB0
  5
CB0
331
CEB
  5
CEB
331
CE7
  5
CE7
331
D26
  5
D33
331
C6D
  5
C6D
331
CAC
  5
CAC
331
CA8
  5
CA8
331
CE3
  5
CE3
331
D22
  5
D2F
331
C69
  5
C69
331
F80
  5
11C5
331
4CF
  5
4CF
331
4CB
  5
4CB
331
506
  5
506
331
545
  5
545
331
48C
  5
48C
331
488
  5
488
331
4C7
  5
4C7
331
502
  5
502
331
541
  5
541
331
53D
  5
53D
331
484
  5
484
331
4C3
  5
4C3
331
4FE
  5
4FE
331
4FA
  5
4FA
331
539
  5
539
331
480
  5
480
331
F2B
  5
114C
331
D52
  5
E1F
331
E49
  5
105E
331
D4A
  5
E19
331
E31
  5
F43
331
12F7
  5
D17
331
CA4
  5
CA4
331
CDF
  5
CDF
331
D1E
  5
D2A
331
D1A
  5
D26
331
CA0
  5
CA0
331
CDB
  5
CDB
331
D16
  5
D21
331
C9C
  5
C9C
331
CD7
  5
CD7
331
C98
  5
C98
331
CD3
  5
CD3
331
D12
  5
D1D
331
4BF
  5
4BF
331
4BB
  5
4BB
331
535
  5
535
331
4B7
  5
4B7
331
4F6
  5
4F6
331
531
  5
531
331
52D
  5
52D
331
4B3
  5
4B3
331
E2D
  5
ECB
331
4F2
  5
4F2
331
529
  5
529
331
E29
  5
E36
331
E21
  5
E32
331
47E
  5
47E
331
47A
  5
47A
331
12DB
  5
130B
331
C94
  5
C94
331
CCF
  5
CCF
331
C90
  5
C90
331
D0A
  5
D18
331
CCB
  5
CCB
331
D06
  5
D06
331
D45
  5
E14
331
C8C
  5
C8C
331
105F
  5
11CA
331
C88
  5
C88
331
D02
  5
D02
331
11D4
  5
12E4
331
D41
  5
D52
331
114D
  5
11CF
331
11D0
  5
12DB
331
4EE
  5
4EE
331
4AF
  5
4AF
331
4AB
  5
4AB
331
4EA
  5
4EA
331
525
  5
525
331
4A7
  5
4A7
331
4E6
  5
4E6
331
521
  5
521
331
4A3
  5
4A3
331
4E2
  5
4E2
331
EFF
  5
114B
331
51D
  5
51D
331
519
  5
519
331
476
  5
476
331
E19
  5
E2D
331
E15
  5
E29
331
472
  5
472
331
46E
  5
46E
331
46A
  5
46A
331
CC7
  5
CC7
331
C84
  5
C84
331
CC3
  5
CC3
331
CFE
  5
CFE
331
C80
  5
C80
331
CBF
  5
CBF
331
11CC
  5
1257
331
CFA
  5
CFA
331
CBB
  5
CBB
331
CF6
  5
CF6
331
11C8
  5
11D4
331
D35
  5
D49
331
C7C
  5
C7C
331
CF2
  5
CF2
331
D31
  5
D45
331
C78
  5
C78
331
4DE
  5
4DE
331
49F
  5
49F
331
49B
  5
49B
331
4DA
  5
4DA
331
515
  5
515
331
497
  5
497
331
4D6
  5
4D6
331
511
  5
511
331
493
  5
493
331
4D2
  5
4D2
331
50D
  5
50D
331
509
  5
509
331
570
  5
570
331
CB7
  5
CB7
331
C74
  5
C74
331
CB3
  5
CB3
331
CEE
  5
CEE
331
D2D
  5
D41
331
D29
  5
D36
331
C70
  5
C70
331
CAF
  5
CAF
331
CEA
  5
CEA
331
CE6
  5
CE6
331
D25
  5
D32
331
C6C
  5
C6C
331
CAB
  5
CAB
331
CE2
  5
CE2
331
D21
  5
D2E
331
4CE
  5
4CE
331
48F
  5
48F
331
4CA
  5
4CA
331
505
  5
505
331
544
  5
544
331
48B
  5
48B
331
487
  5
487
331
4C6
  5
4C6
331
501
  5
501
331
540
  5
540
331
53C
  5
53C
331
483
  5
483
331
4C2
  5
4C2
331
D55
  5
E27
331
4FD
  5
4FD
331
4F9
  5
4F9
331
538
  5
538
331
ECB
  5
1091
331
D51
  5
E1E
331
D49
  5
E18
331
E30
  5
F2B
331
CA7
  5
CA7
331
CA3
  5
CA3
331
CDE
  5
CDE
331
D1D
  5
D29
331
D19
  5
D24
331
C9F
  5
C9F
331
CDA
  5
CDA
331
CD6
  5
CD6
331
D15
  5
D20
331
C9B
  5
C9B
331
CD2
  5
CD2
331
D11
  5
D1C
  0
DIMASSOC
  5
F16
102
{ACAD_REACTORS
330
F0C
102
}
330
F0C
100
AcDbDimAssoc
330
EFF
 90
        3
 70
     0
 71
     0
  1
AcDbOsnapPointRef
 72
     1
331
D0A
 73
     2
 91
        0
 40
1.0
 10
0.0
 20
0.0
 30
2.000000000000000E+50
 75
     0
  1
AcDbOsnapPointRef
 72
    13
331
D0A
 73
     2
 91
        0
 40
0.0
 10
0.0
 20
0.0
 30
2.000000000000000E+50
 75
     0
  0
ACDBDETAILVIEWSTYLE
  5
12BC
102
{ACAD_REACTORS
330
12BB
102
}
330
12BB
100
AcDbModelDocViewStyle
 70
     0
  3
Imperial24
290
     0
100
AcDbDetailViewStyle
 70
     0
 71
     0
 90
        3
 71
     1
340
11
 62
   256
 40
0.24
340
0
 62
   256
 40
0.24
300

 40
0.36
280
     3
 71
     2
340
15
 90
       25
 62
   256
 71
     3
340
11
 62
   256
 40
0.24
 90
        1
 40
0.75
 90
        1
300
%<\AcVar ViewType \f "%tc1">% %<\AcVar ViewDetailId>%\PVARIA %<\AcVar ViewScale \f "%sn">%
 71
     4
340
15
 90
       25
 62
   256
340
15
 90
       25
 62
   256
280
     0
  0
LAYOUT
  5
1F
102
{ACAD_REACTORS
330
19
102
}
330
19
100
AcDbPlotSettings
  1

  2
RICOH Aficio 2027 PCL 6
  4

  6

 40
0.0
 41
0.0
 42
0.0
 43
0.0
 44
0.0
 45
0.0
 46
0.0
 47
0.0
 48
0.0
 49
0.0
140
0.0
141
0.0
142
1.0
143
1.0
 70
   688
 72
     0
 73
     0
 74
     5
  7
monochrome1.ctb
 75
    16
147
1.0
 76
     0
 77
     2
 78
   300
148
0.0
149
0.0
100
AcDbLayout
  1
Layout1
 70
     0
 71
     1
 10
0.0
 20
0.0
 11
12.0
 21
9.0
 12
0.0
 22
0.0
 32
0.0
 14
1.000000000000000E+20
 24
1.000000000000000E+20
 34
1.000000000000000E+20
 15
-1.000000000000000E+20
 25
-1.000000000000000E+20
 35
-1.000000000000000E+20
146
0.0
 13
0.0
 23
0.0
 33
0.0
 16
1.0
 26
0.0
 36
0.0
 17
0.0
 27
1.0
 37
0.0
 76
     0
330
1C
  0
LAYOUT
  5
23
102
{ACAD_REACTORS
330
19
102
}
330
19
100
AcDbPlotSettings
  1

  2
RICOH Aficio 2027 PCL 6
  4
A4
  6

 40
5.027083396911621
 41
5.027085304260253
 42
5.027084350585937
 43
5.027069091796875
 44
209.9733276367187
 45
296.9259948730469
 46
0.0
 47
0.0
 48
0.0
 49
0.0
140
0.0
141
0.0
142
1.0
143
1.0
 70
 11952
 72
     0
 73
     1
 74
     0
  7
monochrome1.ctb
 75
     0
147
1.0
 76
     0
 77
     2
 78
   300
148
2303.507892622773
149
93.70788233259395
100
AcDbLayout
  1
Model
 70
     1
 71
     0
 10
0.0
 20
0.0
 11
12.0
 21
9.0
 12
0.0
 22
0.0
 32
0.0
 14
0.0
 24
0.0
 34
0.0
 15
0.0
 25
0.0
 35
0.0
146
0.0
 13
0.0
 23
0.0
 33
0.0
 16
1.0
 26
0.0
 36
0.0
 17
0.0
 27
1.0
 37
0.0
 76
     0
330
20
331
1268
  0
MATERIAL
  5
1279
102
{ACAD_XDICTIONARY
360
127A
102
}
102
{ACAD_REACTORS
330
1A
102
}
330
1A
100
AcDbMaterial
  1
ByBlock
 72
     0
 43
0.0208333333333333
 43
0.0
 43
0.0
 43
0.0
 43
0.0
 43
0.0208333333333333
 43
0.0
 43
0.0
 43
0.0
 43
0.0
 43
1.0
 43
0.0
 43
0.0
 43
0.0
 43
0.0
 43
1.0
 77
     0
 47
0.0208333333333333
 47
0.0
 47
0.0
 47
0.0
 47
0.0
 47
0.0208333333333333
 47
0.0
 47
0.0
 47
0.0
 47
0.0
 47
1.0
 47
0.0
 47
0.0
 47
0.0
 47
0.0
 47
1.0
171
     0
 49
0.0208333333333333
 49
0.0
 49
0.0
 49
0.0
 49
0.0
 49
0.0208333333333333
 49
0.0
 49
0.0
 49
0.0
 49
0.0
 49
1.0
 49
0.0
 49
0.0
 49
0.0
 49
0.0
 49
1.0
175
     0
142
0.0208333333333333
142
0.0
142
0.0
142
0.0
142
0.0
142
0.0208333333333333
142
0.0
142
0.0
142
0.0
142
0.0
142
1.0
142
0.0
142
0.0
142
0.0
142
0.0
142
1.0
179
     0
144
0.0208333333333333
144
0.0
144
0.0
144
0.0
144
0.0
144
0.0208333333333333
144
0.0
144
0.0
144
0.0
144
0.0
144
1.0
144
0.0
144
0.0
144
0.0
144
0.0
144
1.0
147
0.0208333333333333
147
0.0
147
0.0
147
0.0
147
0.0
147
0.0208333333333333
147
0.0
147
0.0
147
0.0
147
0.0
147
1.0
147
0.0
147
0.0
147
0.0
147
0.0
147
1.0
  0
MATERIAL
  5
1271
102
{ACAD_XDICTIONARY
360
1272
102
}
102
{ACAD_REACTORS
330
1A
102
}
330
1A
100
AcDbMaterial
  1
ByLayer
 72
     0
 43
0.0208333333333333
 43
0.0
 43
0.0
 43
0.0
 43
0.0
 43
0.0208333333333333
 43
0.0
 43
0.0
 43
0.0
 43
0.0
 43
1.0
 43
0.0
 43
0.0
 43
0.0
 43
0.0
 43
1.0
 77
     0
 47
0.0208333333333333
 47
0.0
 47
0.0
 47
0.0
 47
0.0
 47
0.0208333333333333
 47
0.0
 47
0.0
 47
0.0
 47
0.0
 47
1.0
 47
0.0
 47
0.0
 47
0.0
 47
0.0
 47
1.0
171
     0
 49
0.0208333333333333
 49
0.0
 49
0.0
 49
0.0
 49
0.0
 49
0.0208333333333333
 49
0.0
 49
0.0
 49
0.0
 49
0.0
 49
1.0
 49
0.0
 49
0.0
 49
0.0
 49
0.0
 49
1.0
175
     0
142
0.0208333333333333
142
0.0
142
0.0
142
0.0
142
0.0
142
0.0208333333333333
142
0.0
142
0.0
142
0.0
142
0.0
142
1.0
142
0.0
142
0.0
142
0.0
142
0.0
142
1.0
179
     0
144
0.0208333333333333
144
0.0
144
0.0
144
0.0
144
0.0
144
0.0208333333333333
144
0.0
144
0.0
144
0.0
144
0.0
144
1.0
144
0.0
144
0.0
144
0.0
144
0.0
144
1.0
147
0.0208333333333333
147
0.0
147
0.0
147
0.0
147
0.0
147
0.0208333333333333
147
0.0
147
0.0
147
0.0
147
0.0
147
1.0
147
0.0
147
0.0
147
0.0
147
0.0
147
1.0
  0
MATERIAL
  5
1281
102
{ACAD_XDICTIONARY
360
1282
102
}
102
{ACAD_REACTORS
330
1A
102
}
330
1A
100
AcDbMaterial
  1
Global
 72
     0
 43
0.0208333333333333
 43
0.0
 43
0.0
 43
0.0
 43
0.0
 43
0.0208333333333333
 43
0.0
 43
0.0
 43
0.0
 43
0.0
 43
1.0
 43
0.0
 43
0.0
 43
0.0
 43
0.0
 43
1.0
 77
     0
 47
0.0208333333333333
 47
0.0
 47
0.0
 47
0.0
 47
0.0
 47
0.0208333333333333
 47
0.0
 47
0.0
 47
0.0
 47
0.0
 47
1.0
 47
0.0
 47
0.0
 47
0.0
 47
0.0
 47
1.0
171
     0
 49
0.0208333333333333
 49
0.0
 49
0.0
 49
0.0
 49
0.0
 49
0.0208333333333333
 49
0.0
 49
0.0
 49
0.0
 49
0.0
 49
1.0
 49
0.0
 49
0.0
 49
0.0
 49
0.0
 49
1.0
175
     0
142
0.0208333333333333
142
0.0
142
0.0
142
0.0
142
0.0
142
0.0208333333333333
142
0.0
142
0.0
142
0.0
142
0.0
142
1.0
142
0.0
142
0.0
142
0.0
142
0.0
142
1.0
179
     0
144
0.0208333333333333
144
0.0
144
0.0
144
0.0
144
0.0
144
0.0208333333333333
144
0.0
144
0.0
144
0.0
144
0.0
144
1.0
144
0.0
144
0.0
144
0.0
144
0.0
144
1.0
147
0.0208333333333333
147
0.0
147
0.0
147
0.0
147
0.0
147
0.0208333333333333
147
0.0
147
0.0
147
0.0
147
0.0
147
1.0
147
0.0
147
0.0
147
0.0
147
0.0
147
1.0
  0
MLEADERSTYLE
  5
12B7
102
{ACAD_XDICTIONARY
360
1438
102
}
102
{ACAD_REACTORS
330
12B6
102
}
330
12B6
100
AcDbMLeaderStyle
170
     2
171
     1
172
     0
 90
        2
 40
0.0
 41
0.0
173
     1
 91
-1056964608
340
13
 92
       -2
290
     1
 42
0.09
291
     1
 43
0.36
  3
Standard
 44
0.18
300

342
11
174
     1
178
     6
175
     1
176
     0
 93
-1056964608
 45
0.18
292
     0
297
     0
 46
0.18
 94
-1056964608
 47
1.0
 49
1.0
140
1.0
293
     1
141
0.0
294
     1
177
     0
142
1.0
295
     0
296
     0
143
0.125
1001
ACAD_MLEADERVER
1070
     2
  0
MLINESTYLE
  5
17
102
{ACAD_REACTORS
330
16
102
}
330
16
100
AcDbMlineStyle
  2
STANDARD
 70
     0
  3

 62
   256
 51
90.0
 52
90.0
 71
     2
 49
0.5
 62
   256
  6
BYLAYER
 49
-0.5
 62
   256
  6
BYLAYER
  0
ACDBPLACEHOLDER
  5
F
102
{ACAD_REACTORS
330
E
102
}
330
E
  0
SCALE
  5
12A5
102
{ACAD_REACTORS
330
12A4
102
}
330
12A4
100
AcDbScale
 70
     0
300
1:1
140
1.0
141
1.0
290
     1
  0
SCALE
  5
12A6
102
{ACAD_REACTORS
330
12A4
102
}
330
12A4
100
AcDbScale
 70
     0
300
1/128" = 1'-0"
140
0.0078125
141
12.0
290
     0
  0
SCALE
  5
12A7
102
{ACAD_REACTORS
330
12A4
102
}
330
12A4
100
AcDbScale
 70
     0
300
1/64" = 1'-0"
140
0.015625
141
12.0
290
     0
  0
SCALE
  5
12A8
102
{ACAD_REACTORS
330
12A4
102
}
330
12A4
100
AcDbScale
 70
     0
300
1/32" = 1'-0"
140
0.03125
141
12.0
290
     0
  0
SCALE
  5
12A9
102
{ACAD_REACTORS
330
12A4
102
}
330
12A4
100
AcDbScale
 70
     0
300
1/16" = 1'-0"
140
0.0625
141
12.0
290
     0
  0
SCALE
  5
12AA
102
{ACAD_REACTORS
330
12A4
102
}
330
12A4
100
AcDbScale
 70
     0
300
3/32" = 1'-0"
140
0.09375
141
12.0
290
     0
  0
SCALE
  5
12AB
102
{ACAD_REACTORS
330
12A4
102
}
330
12A4
100
AcDbScale
 70
     0
300
1/8" = 1'-0"
140
0.125
141
12.0
290
     0
  0
SCALE
  5
12AC
102
{ACAD_REACTORS
330
12A4
102
}
330
12A4
100
AcDbScale
 70
     0
300
3/16" = 1'-0"
140
0.1875
141
12.0
290
     0
  0
SCALE
  5
12AD
102
{ACAD_REACTORS
330
12A4
102
}
330
12A4
100
AcDbScale
 70
     0
300
1/4" = 1'-0"
140
0.25
141
12.0
290
     0
  0
SCALE
  5
12AE
102
{ACAD_REACTORS
330
12A4
102
}
330
12A4
100
AcDbScale
 70
     0
300
3/8" = 1'-0"
140
0.375
141
12.0
290
     0
  0
SCALE
  5
12AF
102
{ACAD_REACTORS
330
12A4
102
}
330
12A4
100
AcDbScale
 70
     0
300
1/2" = 1'-0"
140
0.5
141
12.0
290
     0
  0
SCALE
  5
12B0
102
{ACAD_REACTORS
330
12A4
102
}
330
12A4
100
AcDbScale
 70
     0
300
3/4" = 1'-0"
140
0.75
141
12.0
290
     0
  0
SCALE
  5
12B1
102
{ACAD_REACTORS
330
12A4
102
}
330
12A4
100
AcDbScale
 70
     0
300
1" = 1'-0"
140
1.0
141
12.0
290
     0
  0
SCALE
  5
12B2
102
{ACAD_REACTORS
330
12A4
102
}
330
12A4
100
AcDbScale
 70
     0
300
1-1/2" = 1'-0"
140
1.5
141
12.0
290
     0
  0
SCALE
  5
12B3
102
{ACAD_REACTORS
330
12A4
102
}
330
12A4
100
AcDbScale
 70
     0
300
3" = 1'-0"
140
3.0
141
12.0
290
     0
  0
SCALE
  5
12B4
102
{ACAD_REACTORS
330
12A4
102
}
330
12A4
100
AcDbScale
 70
     0
300
6" = 1'-0"
140
6.0
141
12.0
290
     0
  0
SCALE
  5
12B5
102
{ACAD_REACTORS
330
12A4
102
}
330
12A4
100
AcDbScale
 70
     0
300
1'-0" = 1'-0"
140
12.0
141
12.0
290
     0
  0
ACDBSECTIONVIEWSTYLE
  5
12BA
102
{ACAD_REACTORS
330
12B8
102
}
330
12B8
100
AcDbModelDocViewStyle
 70
     0
  3
Imperial24
290
     0
100
AcDbSectionViewStyle
 70
     0
 71
     0
 90
       78
 71
     1
340
11
 62
   256
 40
0.24
340
0
340
0
 62
   256
 40
0.24
300
I, O, Q, S, X, Z
 40
0.48
 90
        3
 40
0.18
 90
        1
 71
     2
340
12B9
 90
       25
 62
   256
340
15
 90
       50
 62
   256
 40
0.24
 40
0.0
 40
0.24
 71
     3
340
11
 62
   256
 40
0.24
 90
        1
 40
0.75
 90
        1
300
%<\AcVar ViewType \f "%tc1">% %<\AcVar ViewSectionStartId>%-%<\AcVar ViewSectionEndId>%\PVARIA %<\AcVar ViewScale \f "%sn">%
 71
     4
 62
   256
 62
   257
300
ANSI31
 40
1.0
 90
        0
290
     0
290
     0
 90
        6
 40
0.0
 40
1.570796326794896
 40
0.2617993877991494
 40
1.308996938995747
 40
-0.2617993877991494
 40
1.832595714594046
  0
TABLESTYLE
  5
12A3
102
{ACAD_XDICTIONARY
360
134A
102
}
102
{ACAD_REACTORS
330
12A2
102
}
330
12A2
100
AcDbTableStyle
  3
Standard
 70
     0
 71
     0
 40
0.06
 41
0.06
280
     0
281
     0
  7
STANDARD
140
0.18
170
     2
 62
     0
 63
     7
283
     0
274
    -2
284
     1
 64
     0
275
    -2
285
     1
 65
     0
276
    -2
286
     1
 66
     0
277
    -2
287
     1
 67
     0
278
    -2
288
     1
 68
     0
279
    -2
289
     1
 69
     0
  7
STANDARD
140
0.25
170
     5
 62
     0
 63
     7
283
     0
274
    -2
284
     1
 64
     0
275
    -2
285
     1
 65
     0
276
    -2
286
     1
 66
     0
277
    -2
287
     1
 67
     0
278
    -2
288
     1
 68
     0
279
    -2
289
     1
 69
     0
  7
STANDARD
140
0.18
170
     5
 62
     0
 63
     7
283
     0
274
    -2
284
     1
 64
     0
275
    -2
285
     1
 65
     0
276
    -2
286
     1
 66
     0
277
    -2
287
     1
 67
     0
278
    -2
288
     1
 68
     0
279
    -2
289
     1
 69
     0
  0
VISUALSTYLE
  5
128F
102
{ACAD_XDICTIONARY
360
1411
102
}
102
{ACAD_REACTORS
330
1289
102
}
330
1289
100
AcDbVisualStyle
  2
2dWireframe
 70
     4
 71
     0
 72
     2
 73
     0
 90
        0
 40
-0.6
 41
-30.0
 62
     5
 63
     7
421
 16777215
 74
     1
 91
        4
 64
     7
 65
   257
 75
     1
175
     1
 42
1.0
 92
        0
 66
   257
 43
1.0
 76
     1
 77
     6
 78
     2
 67
     7
 79
     5
170
     0
171
     0
290
     0
174
     0
 93
        1
 44
0.0
173
     0
291
     0
 45
0.0
1001
ACAD
1000
AcDbSavedByObjectVersion
1070
     0
  0
VISUALSTYLE
  5
128E
102
{ACAD_XDICTIONARY
360
140F
102
}
102
{ACAD_REACTORS
330
1289
102
}
330
1289
100
AcDbVisualStyle
  2
Basic
 70
     7
 71
     1
 72
     0
 73
     1
 90
        0
 40
-0.6
 41
-30.0
 62
     5
 63
     7
421
 16777215
 74
     0
 91
        4
 64
     7
 65
   257
 75
     1
175
     1
 42
1.0
 92
        8
 66
     7
 43
1.0
 76
     1
 77
     6
 78
     2
 67
     7
 79
     5
170
     0
171
     0
290
     0
174
     0
 93
        1
 44
0.0
173
     0
291
     1
 45
0.0
1001
ACAD
1000
AcDbSavedByObjectVersion
1070
     0
  0
VISUALSTYLE
  5
1295
102
{ACAD_XDICTIONARY
360
141D
102
}
102
{ACAD_REACTORS
330
1289
102
}
330
1289
100
AcDbVisualStyle
  2
Brighten
 70
    12
 71
     2
 72
     2
 73
     0
 90
        0
 40
-0.6
 41
-30.0
 62
     5
 63
     7
421
 16777215
 74
     1
 91
        4
 64
     7
 65
   257
 75
     1
175
     1
 42
1.0
 92
        8
 66
     7
 43
1.0
 76
     1
 77
     6
 78
     2
 67
     7
 79
     5
170
     0
171
     0
290
     0
174
     0
 93
        1
 44
50.0
173
     0
291
     1
 45
0.0
1001
ACAD
1000
AcDbSavedByObjectVersion
1070
     0
  0
VISUALSTYLE
  5
1299
102
{ACAD_XDICTIONARY
360
1425
102
}
102
{ACAD_REACTORS
330
1289
102
}
330
1289
100
AcDbVisualStyle
  2
ColorChange
 70
    16
 71
     2
 72
     2
 73
     3
 90
        0
 40
-0.6
 41
-30.0
 62
     5
 63
     8
421
  8421504
 74
     1
 91
        4
 64
     7
 65
   257
 75
     1
175
     1
 42
1.0
 92
        8
 66
     8
424
  8421504
 43
1.0
 76
     1
 77
     6
 78
     2
 67
     7
 79
     5
170
     0
171
     0
290
     0
174
     0
 93
        1
 44
0.0
173
     0
291
     1
 45
0.0
1001
ACAD
1000
AcDbSavedByObjectVersion
1070
     0
  0
VISUALSTYLE
  5
1292
102
{ACAD_XDICTIONARY
360
1417
102
}
102
{ACAD_REACTORS
330
1289
102
}
330
1289
100
AcDbVisualStyle
  2
Conceptual
 70
     9
 71
     3
 72
     2
 73
     0
 90
        0
 40
-0.6
 41
-30.0
 62
     5
 63
     7
421
 16777215
 74
     2
 91
        2
 64
     7
 65
   257
 75
     1
175
     1
 42
179.0
 92
        8
 66
     7
 43
1.0
 76
     1
 77
     6
 78
     2
 67
     7
 79
     3
170
     0
171
     0
290
     0
174
     0
 93
        1
 44
0.0
173
     0
291
     0
 45
0.0
1001
ACAD
1000
AcDbSavedByObjectVersion
1070
     0
  0
VISUALSTYLE
  5
1294
102
{ACAD_XDICTIONARY
360
141B
102
}
102
{ACAD_REACTORS
330
1289
102
}
330
1289
100
AcDbVisualStyle
  2
Dim
 70
    11
 71
     2
 72
     2
 73
     0
 90
        0
 40
-0.6
 41
-30.0
 62
     5
 63
     7
421
 16777215
 74
     1
 91
        4
 64
     7
 65
   257
 75
     1
175
     1
 42
1.0
 92
        8
 66
     7
 43
1.0
 76
     1
 77
     6
 78
     2
 67
     7
 79
     5
170
     0
171
     0
290
     0
174
     0
 93
        1
 44
-50.0
173
     0
291
     1
 45
0.0
1001
ACAD
1000
AcDbSavedByObjectVersion
1070
     0
  0
VISUALSTYLE
  5
12A1
102
{ACAD_XDICTIONARY
360
1435
102
}
102
{ACAD_REACTORS
330
1289
102
}
330
1289
100
AcDbVisualStyle
  2
EdgeColorOff
 70
    22
 71
     2
 72
     2
 73
     0
 90
        0
 40
-0.6
 41
-30.0
 62
     5
 63
     7
421
 16777215
 74
     1
 91
        4
 64
     7
 65
   257
 75
     1
175
     1
 42
1.0
 92
        8
 66
     7
 43
1.0
 76
     1
 77
     6
 78
     2
 67
     7
 79
     5
170
     0
171
     0
290
     0
174
     0
 93
        1
 44
0.0
173
     0
291
     1
 45
0.0
1001
ACAD
1000
AcDbSavedByObjectVersion
1070
     0
  0
VISUALSTYLE
  5
1298
102
{ACAD_XDICTIONARY
360
1423
102
}
102
{ACAD_REACTORS
330
1289
102
}
330
1289
100
AcDbVisualStyle
  2
Facepattern
 70
    15
 71
     2
 72
     2
 73
     0
 90
        0
 40
-0.6
 41
-30.0
 62
     5
 63
     7
421
 16777215
 74
     1
 91
        4
 64
     7
 65
   257
 75
     1
175
     1
 42
1.0
 92
        8
 66
     7
 43
1.0
 76
     1
 77
     6
 78
     2
 67
     7
 79
     5
170
     0
171
     0
290
     0
174
     0
 93
        1
 44
0.0
173
     0
291
     1
 45
0.0
1001
ACAD
1000
AcDbSavedByObjectVersion
1070
     0
  0
VISUALSTYLE
  5
128A
102
{ACAD_XDICTIONARY
360
1407
102
}
102
{ACAD_REACTORS
330
1289
102
}
330
1289
100
AcDbVisualStyle
  2
Flat
 70
     0
 71
     2
 72
     1
 73
     1
 90
        2
 40
-0.6
 41
30.0
 62
     5
 63
     7
421
 16777215
 74
     0
 91
        0
 64
     7
 65
   257
 75
     1
175
     1
 42
1.0
 92
        8
 66
     7
 43
1.0
 76
     1
 77
     6
 78
     2
 67
     7
 79
     5
170
     0
171
     0
290
     0
174
     0
 93
       13
 44
0.0
173
     0
291
     1
 45
0.0
1001
ACAD
1000
AcDbSavedByObjectVersion
1070
     0
  0
VISUALSTYLE
  5
128B
102
{ACAD_XDICTIONARY
360
1409
102
}
102
{ACAD_REACTORS
330
1289
102
}
330
1289
100
AcDbVisualStyle
  2
FlatWithEdges
 70
     1
 71
     2
 72
     1
 73
     1
 90
        2
 40
-0.6
 41
30.0
 62
     5
 63
     7
421
 16777215
 74
     1
 91
        0
 64
     7
 65
   257
 75
     1
175
     1
 42
1.0
 92
        0
 66
   257
 43
1.0
 76
     1
 77
     6
 78
     2
 67
     7
 79
     5
170
     0
171
     0
290
     0
174
     0
 93
       13
 44
0.0
173
     0
291
     1
 45
0.0
1001
ACAD
1000
AcDbSavedByObjectVersion
1070
     0
  0
VISUALSTYLE
  5
128C
102
{ACAD_XDICTIONARY
360
140B
102
}
102
{ACAD_REACTORS
330
1289
102
}
330
1289
100
AcDbVisualStyle
  2
Gouraud
 70
     2
 71
     2
 72
     2
 73
     1
 90
        2
 40
-0.6
 41
30.0
 62
     5
 63
     7
421
 16777215
 74
     0
 91
        0
 64
     7
 65
   257
 75
     1
175
     1
 42
1.0
 92
        0
 66
     7
 43
1.0
 76
     1
 77
     6
 78
     2
 67
     7
 79
     5
170
     0
171
     0
290
     0
174
     0
 93
       13
 44
0.0
173
     0
291
     1
 45
0.0
1001
ACAD
1000
AcDbSavedByObjectVersion
1070
     0
  0
VISUALSTYLE
  5
128D
102
{ACAD_XDICTIONARY
360
140D
102
}
102
{ACAD_REACTORS
330
1289
102
}
330
1289
100
AcDbVisualStyle
  2
GouraudWithEdges
 70
     3
 71
     2
 72
     2
 73
     1
 90
        2
 40
-0.6
 41
30.0
 62
     5
 63
     7
421
 16777215
 74
     1
 91
        0
 64
     7
 65
   257
 75
     1
175
     1
 42
1.0
 92
        0
 66
   257
 43
1.0
 76
     1
 77
     6
 78
     2
 67
     7
 79
     5
170
     0
171
     0
290
     0
174
     0
 93
       13
 44
0.0
173
     0
291
     1
 45
0.0
1001
ACAD
1000
AcDbSavedByObjectVersion
1070
     0
  0
VISUALSTYLE
  5
1291
102
{ACAD_XDICTIONARY
360
1415
102
}
102
{ACAD_REACTORS
330
1289
102
}
330
1289
100
AcDbVisualStyle
  2
Hidden
 70
     6
 71
     1
 72
     2
 73
     2
 90
        0
 40
-0.6
 41
-30.0
 62
     5
 63
     7
421
 16777215
 74
     2
 91
        2
 64
     7
 65
   257
 75
     2
175
     1
 42
40.0
 92
        0
 66
   257
 43
1.0
 76
     1
 77
     6
 78
     2
 67
     7
 79
     3
170
     0
171
     0
290
     0
174
     0
 93
        1
 44
0.0
173
     0
291
     0
 45
0.0
1001
ACAD
1000
AcDbSavedByObjectVersion
1070
     0
  0
VISUALSTYLE
  5
129F
102
{ACAD_XDICTIONARY
360
1431
102
}
102
{ACAD_REACTORS
330
1289
102
}
330
1289
100
AcDbVisualStyle
  2
JitterOff
 70
    20
 71
     2
 72
     2
 73
     0
 90
        0
 40
-0.6
 41
-30.0
 62
     5
 63
     7
421
 16777215
 74
     1
 91
        4
 64
     7
 65
   257
 75
     1
175
     1
 42
1.0
 92
       10
 66
     7
 43
1.0
 76
     1
 77
     6
 78
     2
 67
     7
 79
     5
170
     0
171
     0
290
     0
174
     0
 93
        1
 44
0.0
173
     0
291
     1
 45
0.0
1001
ACAD
1000
AcDbSavedByObjectVersion
1070
     0
  0
VISUALSTYLE
  5
1297
102
{ACAD_XDICTIONARY
360
1421
102
}
102
{ACAD_REACTORS
330
1289
102
}
330
1289
100
AcDbVisualStyle
  2
Linepattern
 70
    14
 71
     2
 72
     2
 73
     0
 90
        0
 40
-0.6
 41
-30.0
 62
     5
 63
     7
421
 16777215
 74
     1
 91
        4
 64
     7
 65
   257
 75
     7
175
     7
 42
1.0
 92
        8
 66
     7
 43
1.0
 76
     1
 77
     6
 78
     2
 67
     7
 79
     5
170
     0
171
     0
290
     0
174
     0
 93
        1
 44
0.0
173
     0
291
     1
 45
0.0
1001
ACAD
1000
AcDbSavedByObjectVersion
1070
     0
  0
VISUALSTYLE
  5
12A0
102
{ACAD_XDICTIONARY
360
1433
102
}
102
{ACAD_REACTORS
330
1289
102
}
330
1289
100
AcDbVisualStyle
  2
OverhangOff
 70
    21
 71
     2
 72
     2
 73
     0
 90
        0
 40
-0.6
 41
-30.0
 62
     5
 63
     7
421
 16777215
 74
     1
 91
        4
 64
     7
 65
   257
 75
     1
175
     1
 42
1.0
 92
        9
 66
     7
 43
1.0
 76
     1
 77
     6
 78
     2
 67
     7
 79
     5
170
     0
171
     0
290
     0
174
     0
 93
        1
 44
0.0
173
     0
291
     1
 45
0.0
1001
ACAD
1000
AcDbSavedByObjectVersion
1070
     0
  0
VISUALSTYLE
  5
1293
102
{ACAD_XDICTIONARY
360
1419
102
}
102
{ACAD_REACTORS
330
1289
102
}
330
1289
100
AcDbVisualStyle
  2
Realistic
 70
     8
 71
     2
 72
     2
 73
     0
 90
        2
 40
-0.6
 41
30.0
 62
     5
 63
     7
421
 16777215
 74
     0
 91
        0
 64
     7
 65
   257
 75
     1
175
     1
 42
1.0
 92
        8
 66
   257
 43
1.0
 76
     1
 77
     6
 78
     2
 67
     7
 79
     3
170
     0
171
     0
290
     0
174
     0
 93
       13
 44
0.0
173
     0
291
     0
 45
0.0
1001
ACAD
1000
AcDbSavedByObjectVersion
1070
     0
  0
VISUALSTYLE
  5
129E
102
{ACAD_XDICTIONARY
360
142F
102
}
102
{ACAD_REACTORS
330
1289
102
}
330
1289
100
AcDbVisualStyle
  2
Shaded
 70
    27
 71
     2
 72
     2
 73
     1
 90
        2
 40
-0.6
 41
30.0
 62
     5
 63
     7
421
 16777215
 74
     0
 91
        4
 64
     7
 65
   257
 75
     1
175
     1
 42
1.0
 92
        8
 66
   257
 43
1.0
 76
     1
 77
     6
 78
     2
 67
     8
425
  7895160
 79
     3
170
     0
171
     0
290
     0
174
     0
 93
        5
 44
0.0
173
     0
291
     0
 45
0.0
1001
ACAD
1000
AcDbSavedByObjectVersion
1070
     0
  0
VISUALSTYLE
  5
129D
102
{ACAD_XDICTIONARY
360
142D
102
}
102
{ACAD_REACTORS
330
1289
102
}
330
1289
100
AcDbVisualStyle
  2
Shaded with edges
 70
    26
 71
     2
 72
     2
 73
     1
 90
        2
 40
-0.6
 41
30.0
 62
     5
 63
     7
421
 16777215
 74
     1
 91
       10
 64
     7
 65
   257
 75
     2
175
     1
 42
1.0
 92
        8
 66
   257
 43
1.0
 76
     1
 77
     6
 78
     2
 67
     7
 79
     3
170
     0
171
     0
290
     0
174
     0
 93
        5
 44
0.0
173
     0
291
     0
 45
0.0
1001
ACAD
1000
AcDbSavedByObjectVersion
1070
     0
  0
VISUALSTYLE
  5
129A
102
{ACAD_XDICTIONARY
360
1427
102
}
102
{ACAD_REACTORS
330
1289
102
}
330
1289
100
AcDbVisualStyle
  2
Shades of Gray
 70
    23
 71
     2
 72
     2
 73
     3
 90
        0
 40
-0.6
 41
-30.0
 62
     5
 63
     7
421
 16777215
 74
     2
 91
        2
 64
     7
 65
     7
 75
     1
175
     1
 42
40.0
 92
        8
 66
     7
 43
1.0
 76
     1
 77
     6
 78
     2
 67
     7
 79
     3
170
     0
171
     0
290
     0
174
     0
 93
        1
 44
0.0
173
     0
291
     0
 45
0.0
1001
ACAD
1000
AcDbSavedByObjectVersion
1070
     0
  0
VISUALSTYLE
  5
129B
102
{ACAD_XDICTIONARY
360
1429
102
}
102
{ACAD_REACTORS
330
1289
102
}
330
1289
100
AcDbVisualStyle
  2
Sketchy
 70
    24
 71
     1
 72
     2
 73
     2
 90
        0
 40
-0.6
 41
-30.0
 62
     5
 63
     7
421
 16777215
 74
     2
 91
        2
 64
     7
 65
     7
 75
     1
175
     1
 42
40.0
 92
       11
 66
     7
 43
1.0
 76
     1
 77
     6
 78
     2
 67
     7
 79
     6
170
     0
171
     0
290
     0
174
     0
 93
        1
 44
0.0
173
     0
291
     0
 45
0.0
1001
ACAD
1000
AcDbSavedByObjectVersion
1070
     0
  0
VISUALSTYLE
  5
1296
102
{ACAD_XDICTIONARY
360
141F
102
}
102
{ACAD_REACTORS
330
1289
102
}
330
1289
100
AcDbVisualStyle
  2
Thicken
 70
    13
 71
     2
 72
     2
 73
     0
 90
        0
 40
-0.6
 41
-30.0
 62
     5
 63
     7
421
 16777215
 74
     1
 91
        4
 64
     7
 65
   257
 75
     1
175
     1
 42
1.0
 92
       12
 66
     7
 43
1.0
 76
     1
 77
     6
 78
     2
 67
     7
 79
     5
170
     0
171
     0
290
     0
174
     0
 93
        1
 44
0.0
173
     0
291
     1
 45
0.0
1001
ACAD
1000
AcDbSavedByObjectVersion
1070
     0
  0
VISUALSTYLE
  5
1290
102
{ACAD_XDICTIONARY
360
1413
102
}
102
{ACAD_REACTORS
330
1289
102
}
330
1289
100
AcDbVisualStyle
  2
Wireframe
 70
     5
 71
     0
 72
     2
 73
     0
 90
        0
 40
-0.6
 41
-30.0
 62
     5
 63
     7
421
 16777215
 74
     1
 91
        4
 64
     7
 65
   257
 75
     1
175
     1
 42
1.0
 92
        0
 66
   257
 43
1.0
 76
     1
 77
     6
 78
     2
 67
     7
 79
     3
170
     0
171
     0
290
     0
174
     0
 93
        1
 44
0.0
173
     0
291
     0
 45
0.0
1001
ACAD
1000
AcDbSavedByObjectVersion
1070
     0
  0
VISUALSTYLE
  5
129C
102
{ACAD_XDICTIONARY
360
142B
102
}
102
{ACAD_REACTORS
330
1289
102
}
330
1289
100
AcDbVisualStyle
  2
X-Ray
 70
    25
 71
     2
 72
     2
 73
     1
 90
        1
 40
0.5
 41
-30.0
 62
     5
 63
     7
421
 16777215
 74
     1
 91
        0
 64
     7
 65
   257
 75
     1
175
     1
 42
1.0
 92
        8
 66
     7
 43
1.0
 76
     1
 77
     6
 78
     2
 67
     7
 79
     3
170
     0
171
     0
290
     0
174
     0
 93
       13
 44
0.0
173
     0
291
     0
 45
0.0
1001
ACAD
1000
AcDbSavedByObjectVersion
1070
     0
  0
DICTIONARYVAR
  5
138A
102
{ACAD_REACTORS
330
810
102
}
330
810
100
DictionaryVariables
280
     0
  1
1:1
  0
DICTIONARYVAR
  5
1387
102
{ACAD_REACTORS
330
810
102
}
330
810
100
DictionaryVariables
280
     0
  1
STANDARD
  0
DICTIONARYVAR
  5
1386
102
{ACAD_REACTORS
330
810
102
}
330
810
100
DictionaryVariables
280
     0
  1
STANDARD
  0
DICTIONARYVAR
  5
1388
102
{ACAD_REACTORS
330
810
102
}
330
810
100
DictionaryVariables
280
     0
  1
Imperial24
  0
DICTIONARYVAR
  5
1389
102
{ACAD_REACTORS
330
810
102
}
330
810
100
DictionaryVariables
280
     0
  1
Imperial24
  0
DICTIONARYVAR
  5
812
102
{ACAD_REACTORS
330
810
102
}
330
810
100
DictionaryVariables
280
     0
  1
2
  0
DICTIONARYVAR
  5
811
102
{ACAD_REACTORS
330
810
102
}
330
810
100
DictionaryVariables
280
     0
  1
1
  0
DICTIONARYVAR
  5
813
102
{ACAD_REACTORS
330
810
102
}
330
810
100
DictionaryVariables
280
     0
  1

  0
DICTIONARYVAR
  5
1401
102
{ACAD_REACTORS
330
810
102
}
330
810
100
DictionaryVariables
280
     0
  1
2
  0
DICTIONARY
  5
127A
330
1279
100
AcDbDictionary
280
     1
281
     1
  3
ACAD_XREC_ROUNDTRIP
360
1405
  3
BUMPTILE
360
127C
  3
DIFFUSETILE
360
127B
  3
OPACITYTILE
360
127F
  3
REFLECTIONTILE
360
127E
  3
REFRACTIONTILE
360
1280
  3
SPECULARTILE
360
127D
  0
DICTIONARY
  5
1272
330
1271
100
AcDbDictionary
280
     1
281
     1
  3
ACAD_XREC_ROUNDTRIP
360
1404
  3
BUMPTILE
360
1274
  3
DIFFUSETILE
360
1273
  3
OPACITYTILE
360
1277
  3
REFLECTIONTILE
360
1276
  3
REFRACTIONTILE
360
1278
  3
SPECULARTILE
360
1275
  0
DICTIONARY
  5
1282
330
1281
100
AcDbDictionary
280
     1
281
     1
  3
ACAD_XREC_ROUNDTRIP
360
1406
  3
BUMPTILE
360
1284
  3
DIFFUSETILE
360
1283
  3
OPACITYTILE
360
1287
  3
REFLECTIONTILE
360
1286
  3
REFRACTIONTILE
360
1288
  3
SPECULARTILE
360
1285
  0
DICTIONARY
  5
1438
330
12B7
100
AcDbDictionary
280
     1
281
     1
  3
ACAD_XREC_ROUNDTRIP
360
1439
  0
DICTIONARY
  5
134A
330
12A3
100
AcDbDictionary
280
     1
281
     1
  3
ACAD_ROUNDTRIP_2008_TABLESTYLE_CELLSTYLEMAP
360
1402
  3
ACAD_XREC_ROUNDTRIP
360
1437
  0
DICTIONARY
  5
1411
330
128F
100
AcDbDictionary
280
     1
281
     1
  3
ACAD_XREC_ROUNDTRIP
360
1412
  0
DICTIONARY
  5
140F
330
128E
100
AcDbDictionary
280
     1
281
     1
  3
ACAD_XREC_ROUNDTRIP
360
1410
  0
DICTIONARY
  5
141D
330
1295
100
AcDbDictionary
280
     1
281
     1
  3
ACAD_XREC_ROUNDTRIP
360
141E
  0
DICTIONARY
  5
1425
330
1299
100
AcDbDictionary
280
     1
281
     1
  3
ACAD_XREC_ROUNDTRIP
360
1426
  0
DICTIONARY
  5
1417
330
1292
100
AcDbDictionary
280
     1
281
     1
  3
ACAD_XREC_ROUNDTRIP
360
1418
  0
DICTIONARY
  5
141B
330
1294
100
AcDbDictionary
280
     1
281
     1
  3
ACAD_XREC_ROUNDTRIP
360
141C
  0
DICTIONARY
  5
1435
330
12A1
100
AcDbDictionary
280
     1
281
     1
  3
ACAD_XREC_ROUNDTRIP
360
1436
  0
DICTIONARY
  5
1423
330
1298
100
AcDbDictionary
280
     1
281
     1
  3
ACAD_XREC_ROUNDTRIP
360
1424
  0
DICTIONARY
  5
1407
330
128A
100
AcDbDictionary
280
     1
281
     1
  3
ACAD_XREC_ROUNDTRIP
360
1408
  0
DICTIONARY
  5
1409
330
128B
100
AcDbDictionary
280
     1
281
     1
  3
ACAD_XREC_ROUNDTRIP
360
140A
  0
DICTIONARY
  5
140B
330
128C
100
AcDbDictionary
280
     1
281
     1
  3
ACAD_XREC_ROUNDTRIP
360
140C
  0
DICTIONARY
  5
140D
330
128D
100
AcDbDictionary
280
     1
281
     1
  3
ACAD_XREC_ROUNDTRIP
360
140E
  0
DICTIONARY
  5
1415
330
1291
100
AcDbDictionary
280
     1
281
     1
  3
ACAD_XREC_ROUNDTRIP
360
1416
  0
DICTIONARY
  5
1431
330
129F
100
AcDbDictionary
280
     1
281
     1
  3
ACAD_XREC_ROUNDTRIP
360
1432
  0
DICTIONARY
  5
1421
330
1297
100
AcDbDictionary
280
     1
281
     1
  3
ACAD_XREC_ROUNDTRIP
360
1422
  0
DICTIONARY
  5
1433
330
12A0
100
AcDbDictionary
280
     1
281
     1
  3
ACAD_XREC_ROUNDTRIP
360
1434
  0
DICTIONARY
  5
1419
330
1293
100
AcDbDictionary
280
     1
281
     1
  3
ACAD_XREC_ROUNDTRIP
360
141A
  0
DICTIONARY
  5
142F
330
129E
100
AcDbDictionary
280
     1
281
     1
  3
ACAD_XREC_ROUNDTRIP
360
1430
  0
DICTIONARY
  5
142D
330
129D
100
AcDbDictionary
280
     1
281
     1
  3
ACAD_XREC_ROUNDTRIP
360
142E
  0
DICTIONARY
  5
1427
330
129A
100
AcDbDictionary
280
     1
281
     1
  3
ACAD_XREC_ROUNDTRIP
360
1428
  0
DICTIONARY
  5
1429
330
129B
100
AcDbDictionary
280
     1
281
     1
  3
ACAD_XREC_ROUNDTRIP
360
142A
  0
DICTIONARY
  5
141F
330
1296
100
AcDbDictionary
280
     1
281
     1
  3
ACAD_XREC_ROUNDTRIP
360
1420
  0
DICTIONARY
  5
1413
330
1290
100
AcDbDictionary
280
     1
281
     1
  3
ACAD_XREC_ROUNDTRIP
360
1414
  0
DICTIONARY
  5
142B
330
129C
100
AcDbDictionary
280
     1
281
     1
  3
ACAD_XREC_ROUNDTRIP
360
142C
  0
XRECORD
  5
1405
102
{ACAD_REACTORS
330
127A
102
}
330
127A
100
AcDbXrecord
280
     1
102
MATERIAL
148
0.0
149
0.0
149
0.0
 93
        0
 94
      127
282
     0
 72
     0
 77
     0
171
     0
175
     0
179
     0
273
     0
  0
XRECORD
  5
127C
102
{ACAD_REACTORS
330
127A
102
}
330
127A
100
AcDbXrecord
280
     1
270
     1
271
     1
  0
XRECORD
  5
127B
102
{ACAD_REACTORS
330
127A
102
}
330
127A
100
AcDbXrecord
280
     1
270
     1
271
     1
  0
XRECORD
  5
127F
102
{ACAD_REACTORS
330
127A
102
}
330
127A
100
AcDbXrecord
280
     1
270
     1
271
     1
  0
XRECORD
  5
127E
102
{ACAD_REACTORS
330
127A
102
}
330
127A
100
AcDbXrecord
280
     1
270
     1
271
     1
  0
XRECORD
  5
1280
102
{ACAD_REACTORS
330
127A
102
}
330
127A
100
AcDbXrecord
280
     1
270
     1
271
     1
  0
XRECORD
  5
127D
102
{ACAD_REACTORS
330
127A
102
}
330
127A
100
AcDbXrecord
280
     1
270
     1
271
     1
  0
XRECORD
  5
1404
102
{ACAD_REACTORS
330
1272
102
}
330
1272
100
AcDbXrecord
280
     1
102
MATERIAL
148
0.0
149
0.0
149
0.0
 93
        0
 94
      127
282
     0
 72
     0
 77
     0
171
     0
175
     0
179
     0
273
     0
  0
XRECORD
  5
1274
102
{ACAD_REACTORS
330
1272
102
}
330
1272
100
AcDbXrecord
280
     1
270
     1
271
     1
  0
XRECORD
  5
1273
102
{ACAD_REACTORS
330
1272
102
}
330
1272
100
AcDbXrecord
280
     1
270
     1
271
     1
  0
XRECORD
  5
1277
102
{ACAD_REACTORS
330
1272
102
}
330
1272
100
AcDbXrecord
280
     1
270
     1
271
     1
  0
XRECORD
  5
1276
102
{ACAD_REACTORS
330
1272
102
}
330
1272
100
AcDbXrecord
280
     1
270
     1
271
     1
  0
XRECORD
  5
1278
102
{ACAD_REACTORS
330
1272
102
}
330
1272
100
AcDbXrecord
280
     1
270
     1
271
     1
  0
XRECORD
  5
1275
102
{ACAD_REACTORS
330
1272
102
}
330
1272
100
AcDbXrecord
280
     1
270
     1
271
     1
  0
XRECORD
  5
1406
102
{ACAD_REACTORS
330
1282
102
}
330
1282
100
AcDbXrecord
280
     1
102
MATERIAL
148
0.0
149
0.0
149
0.0
 93
        0
 94
      127
282
     0
 72
     0
 77
     0
171
     0
175
     0
179
     0
273
     0
  0
XRECORD
  5
1284
102
{ACAD_REACTORS
330
1282
102
}
330
1282
100
AcDbXrecord
280
     1
270
     1
271
     1
  0
XRECORD
  5
1283
102
{ACAD_REACTORS
330
1282
102
}
330
1282
100
AcDbXrecord
280
     1
270
     1
271
     1
  0
XRECORD
  5
1287
102
{ACAD_REACTORS
330
1282
102
}
330
1282
100
AcDbXrecord
280
     1
270
     1
271
     1
  0
XRECORD
  5
1286
102
{ACAD_REACTORS
330
1282
102
}
330
1282
100
AcDbXrecord
280
     1
270
     1
271
     1
  0
XRECORD
  5
1288
102
{ACAD_REACTORS
330
1282
102
}
330
1282
100
AcDbXrecord
280
     1
270
     1
271
     1
  0
XRECORD
  5
1285
102
{ACAD_REACTORS
330
1282
102
}
330
1282
100
AcDbXrecord
280
     1
270
     1
271
     1
  0
XRECORD
  5
1439
102
{ACAD_REACTORS
330
1438
102
}
330
1438
100
AcDbXrecord
280
     1
102
ACAD_ROUNDTRIP_2012_MLEADER_STYLE
298
     1
  0
CELLSTYLEMAP
  5
1402
102
{ACAD_REACTORS
330
134A
102
}
330
134A
100
AcDbCellStyleMap
 90
        3
300
CELLSTYLE
  1
TABLEFORMAT_BEGIN
 90
        5
170
     1
 91
        0
 92
    32768
 62
   257
 93
        1
300
CONTENTFORMAT
  1
CONTENTFORMAT_BEGIN
 90
        0
 91
        0
 92
      512
 93
        0
300

 40
0.0
140
1.0
 94
        5
 62
     0
340
11
144
0.25
309
CONTENTFORMAT_END
171
     0
 94
        0
309
TABLEFORMAT_END
  1
CELLSTYLE_BEGIN
 90
        1
 91
        1
300
_TITLE
309
CELLSTYLE_END
300
CELLSTYLE
  1
TABLEFORMAT_BEGIN
 90
        5
170
     1
 91
        0
 92
        0
 62
   257
 93
        1
300
CONTENTFORMAT
  1
CONTENTFORMAT_BEGIN
 90
        0
 91
        0
 92
      512
 93
        0
300

 40
0.0
140
1.0
 94
        5
 62
     0
340
11
144
0.18
309
CONTENTFORMAT_END
171
     0
 94
        0
309
TABLEFORMAT_END
  1
CELLSTYLE_BEGIN
 90
        2
 91
        1
300
_HEADER
309
CELLSTYLE_END
300
CELLSTYLE
  1
TABLEFORMAT_BEGIN
 90
        5
170
     1
 91
        0
 92
        0
 62
   257
 93
        1
300
CONTENTFORMAT
  1
CONTENTFORMAT_BEGIN
 90
        0
 91
        0
 92
      512
 93
        0
300

 40
0.0
140
1.0
 94
        2
 62
     0
340
11
144
0.18
309
CONTENTFORMAT_END
171
     0
 94
        0
309
TABLEFORMAT_END
  1
CELLSTYLE_BEGIN
 90
        3
 91
        2
300
_DATA
309
CELLSTYLE_END
  0
XRECORD
  5
1437
102
{ACAD_REACTORS
330
134A
102
}
330
134A
100
AcDbXrecord
280
     1
102
ACAD_ROUNDTRIP_PRE2007_TABLESTYLE
 90
      512
 91
        0
  1

 92
      512
 93
        0
  2

 94
      512
 95
        0
  3

  0
XRECORD
  5
1412
102
{ACAD_REACTORS
330
1411
102
}
330
1411
100
AcDbXrecord
280
     1
102
RTVSPost2010Prop28
280
     1
102
RTVSPost2010PropOp28
 70
     1
102
RTVSPost2010Prop29
280
     1
102
RTVSPost2010PropOp29
 70
     1
102
RTVSPost2010Prop30
280
     0
102
RTVSPost2010PropOp30
 70
     1
102
RTVSPost2010Prop31
280
     0
102
RTVSPost2010PropOp31
 70
     1
102
RTVSPost2010Prop32
280
     0
102
RTVSPost2010PropOp32
 70
     1
102
RTVSPost2010Prop33
280
     0
102
RTVSPost2010PropOp33
 70
     1
102
RTVSPost2010Prop34
280
     0
102
RTVSPost2010PropOp34
 70
     1
102
RTVSPost2010Prop35
280
     0
102
RTVSPost2010PropOp35
 70
     1
102
RTVSPost2010Prop36
280
     0
102
RTVSPost2010PropOp36
 70
     1
102
RTVSPost2010Prop37
 90
       50
102
RTVSPost2010PropOp37
 70
     1
102
RTVSPost2010Prop38
140
0.0
102
RTVSPost2010PropOp38
 70
     1
102
RTVSPost2010Prop39
140
1.0
102
RTVSPost2010PropOp39
 70
     1
102
RTVSPost2010Prop40
 90
        0
102
RTVSPost2010PropOp40
 70
     1
102
RTVSPost2010Prop41ColorIndex
 90
       18
102
RTVSPost2010Prop41ColorRGB
 90
        0
102
RTVSPost2010PropOp41
 70
     1
102
RTVSPost2010Prop42
 90
       50
102
RTVSPost2010PropOp42
 70
     1
102
RTVSPost2010Prop43
 90
        3
102
RTVSPost2010PropOp43
 70
     1
102
RTVSPost2010Prop44ColorIndex
 90
        5
102
RTVSPost2010Prop44ColorRGB
 90
      255
102
RTVSPost2010PropOp44
 70
     1
102
RTVSPost2010Prop45
280
     0
102
RTVSPost2010PropOp45
 70
     1
102
RTVSPost2010Prop46
 90
       50
102
RTVSPost2010PropOp46
 70
     1
102
RTVSPost2010Prop47
 90
       50
102
RTVSPost2010PropOp47
 70
     1
102
RTVSPost2010Prop48
 90
       50
102
RTVSPost2010PropOp48
 70
     1
102
RTVSPost2010Prop49
280
     0
102
RTVSPost2010PropOp49
 70
     1
102
RTVSPost2010Prop50
 90
       50
102
RTVSPost2010PropOp50
 70
     1
102
RTVSPost2010Prop51ColorIndex
 90
      256
102
RTVSPost2010Prop51ColorRGB
 90
-16777216
102
RTVSPost2010PropOp51
 70
     0
102
RTVSPost2010Prop52
140
1.0
102
RTVSPost2010PropOp52
 70
     0
102
RTVSPost2010Prop53
 90
        2
102
RTVSPost2010PropOp53
 70
     1
102
RTVSPost2010Prop54
  1
strokes_ogs.tif
102
RTVSPost2010PropOp54
 70
     1
102
RTVSPost2010Prop55
280
     0
102
RTVSPost2010PropOp55
 70
     1
102
RTVSPost2010Prop56
140
1.0
102
RTVSPost2010PropOp56
 70
     1
102
RTVSPost2010Prop57
140
1.0
102
RTVSPost2010PropOp57
 70
     1
102
RTVSPropertyOp0
 70
     1
102
RTVSPropertyOp1
 70
     1
102
RTVSPropertyOp2
 70
     1
102
RTVSPropertyOp3
 70
     1
102
RTVSPropertyOp4
 70
     1
102
RTVSPropertyOp5
 70
     1
102
RTVSPropertyOp6
 70
     1
102
RTVSPropertyOp7
 70
     1
102
RTVSPropertyOp8
 70
     1
102
RTVSPropertyOp9
 70
     1
102
RTVSPropertyOp10
 70
     1
102
RTVSPropertyOp11
 70
     1
102
RTVSPropertyOp12
 70
     1
102
RTVSPropertyOp13
 70
     1
102
RTVSPropertyOp14
 70
     1
102
RTVSPropertyOp15
 70
     1
102
RTVSPropertyOp16
 70
     1
102
RTVSPropertyOp17
 70
     1
102
RTVSPropertyOp18
 70
     1
102
RTVSPropertyOp19
 70
     1
102
RTVSPropertyOp20
 70
     1
102
RTVSPropertyOp21
 70
     1
102
RTVSPropertyOp22
 70
     1
102
RTVSPropertyOp23
 70
     1
102
RTVSPropertyOp24
 70
     1
102
RTVSPropertyOp25
 70
     1
102
RTVSPropertyOp26
 70
     1
102
RTVSPropertyOp27
 70
     1
102
RTVSPropertyOp28
 70
     1
102
RTVSPropertyOp29
 70
     1
102
RTVSPropertyOp30
 70
     1
102
RTVSPropertyOp31
 70
     1
102
RTVSPropertyOp32
 70
     1
102
RTVSPropertyOp33
 70
     1
102
RTVSPropertyOp34
 70
     1
102
RTVSPropertyOp35
 70
     1
102
RTVSPropertyOp36
 70
     1
102
RTVSPropertyOp37
 70
     1
102
RTVSPropertyOp38
 70
     1
102
RTVSPropertyOp39
 70
     1
102
RTVSPropertyOp40
 70
     1
102
RTVSPropertyOp41
 70
     1
102
RTVSPropertyOp42
 70
     1
102
RTVSPropertyOp43
 70
     1
102
RTVSPropertyOp44
 70
     1
102
RTVSPropertyOp45
 70
     1
102
RTVSPropertyOp46
 70
     1
102
RTVSPropertyOp47
 70
     1
102
RTVSPropertyOp48
 70
     1
102
RTVSPropertyOp49
 70
     1
102
RTVSPropertyOp50
 70
     1
102
RTVSPropertyOp51
 70
     0
102
RTVSPropertyOp52
 70
     0
102
RTVSPropertyOp53
 70
     1
102
RTVSPropertyOp54
 70
     1
102
RTVSPropertyOp55
 70
     1
102
RTVSPropertyOp56
 70
     1
102
RTVSPropertyOp57
 70
     1
102
RTVSPropertyOp58
 70
     1
102
RTVSPropertyOp59
 70
     1
102
RTVSPropertyOp60
 70
     1
102
RTVSPropertyOp61
 70
     1
102
RTVSPropertyOp62
 70
     1
  0
XRECORD
  5
1410
102
{ACAD_REACTORS
330
140F
102
}
330
140F
100
AcDbXrecord
280
     1
102
RTVSPost2010Prop28
280
     0
102
RTVSPost2010PropOp28
 70
     1
102
RTVSPost2010Prop29
280
     1
102
RTVSPost2010PropOp29
 70
     1
102
RTVSPost2010Prop30
280
     1
102
RTVSPost2010PropOp30
 70
     1
102
RTVSPost2010Prop31
280
     0
102
RTVSPost2010PropOp31
 70
     1
102
RTVSPost2010Prop32
280
     0
102
RTVSPost2010PropOp32
 70
     1
102
RTVSPost2010Prop33
280
     0
102
RTVSPost2010PropOp33
 70
     1
102
RTVSPost2010Prop34
280
     0
102
RTVSPost2010PropOp34
 70
     1
102
RTVSPost2010Prop35
280
     0
102
RTVSPost2010PropOp35
 70
     1
102
RTVSPost2010Prop36
280
     0
102
RTVSPost2010PropOp36
 70
     1
102
RTVSPost2010Prop37
 90
       50
102
RTVSPost2010PropOp37
 70
     1
102
RTVSPost2010Prop38
140
0.0
102
RTVSPost2010PropOp38
 70
     1
102
RTVSPost2010Prop39
140
1.0
102
RTVSPost2010PropOp39
 70
     1
102
RTVSPost2010Prop40
 90
        0
102
RTVSPost2010PropOp40
 70
     1
102
RTVSPost2010Prop41ColorIndex
 90
       18
102
RTVSPost2010Prop41ColorRGB
 90
        0
102
RTVSPost2010PropOp41
 70
     1
102
RTVSPost2010Prop42
 90
       50
102
RTVSPost2010PropOp42
 70
     1
102
RTVSPost2010Prop43
 90
        3
102
RTVSPost2010PropOp43
 70
     1
102
RTVSPost2010Prop44ColorIndex
 90
        5
102
RTVSPost2010Prop44ColorRGB
 90
      255
102
RTVSPost2010PropOp44
 70
     1
102
RTVSPost2010Prop45
280
     0
102
RTVSPost2010PropOp45
 70
     1
102
RTVSPost2010Prop46
 90
       50
102
RTVSPost2010PropOp46
 70
     1
102
RTVSPost2010Prop47
 90
       50
102
RTVSPost2010PropOp47
 70
     1
102
RTVSPost2010Prop48
 90
       50
102
RTVSPost2010PropOp48
 70
     1
102
RTVSPost2010Prop49
280
     0
102
RTVSPost2010PropOp49
 70
     1
102
RTVSPost2010Prop50
 90
       50
102
RTVSPost2010PropOp50
 70
     1
102
RTVSPost2010Prop51ColorIndex
 90
      256
102
RTVSPost2010Prop51ColorRGB
 90
-16777216
102
RTVSPost2010PropOp51
 70
     0
102
RTVSPost2010Prop52
140
1.0
102
RTVSPost2010PropOp52
 70
     0
102
RTVSPost2010Prop53
 90
        2
102
RTVSPost2010PropOp53
 70
     1
102
RTVSPost2010Prop54
  1
strokes_ogs.tif
102
RTVSPost2010PropOp54
 70
     1
102
RTVSPost2010Prop55
280
     0
102
RTVSPost2010PropOp55
 70
     1
102
RTVSPost2010Prop56
140
1.0
102
RTVSPost2010PropOp56
 70
     1
102
RTVSPost2010Prop57
140
1.0
102
RTVSPost2010PropOp57
 70
     1
102
RTVSPropertyOp0
 70
     1
102
RTVSPropertyOp1
 70
     1
102
RTVSPropertyOp2
 70
     1
102
RTVSPropertyOp3
 70
     1
102
RTVSPropertyOp4
 70
     1
102
RTVSPropertyOp5
 70
     1
102
RTVSPropertyOp6
 70
     1
102
RTVSPropertyOp7
 70
     1
102
RTVSPropertyOp8
 70
     1
102
RTVSPropertyOp9
 70
     1
102
RTVSPropertyOp10
 70
     1
102
RTVSPropertyOp11
 70
     1
102
RTVSPropertyOp12
 70
     1
102
RTVSPropertyOp13
 70
     1
102
RTVSPropertyOp14
 70
     1
102
RTVSPropertyOp15
 70
     1
102
RTVSPropertyOp16
 70
     1
102
RTVSPropertyOp17
 70
     1
102
RTVSPropertyOp18
 70
     1
102
RTVSPropertyOp19
 70
     1
102
RTVSPropertyOp20
 70
     1
102
RTVSPropertyOp21
 70
     1
102
RTVSPropertyOp22
 70
     1
102
RTVSPropertyOp23
 70
     1
102
RTVSPropertyOp24
 70
     1
102
RTVSPropertyOp25
 70
     1
102
RTVSPropertyOp26
 70
     1
102
RTVSPropertyOp27
 70
     1
102
RTVSPropertyOp28
 70
     1
102
RTVSPropertyOp29
 70
     1
102
RTVSPropertyOp30
 70
     1
102
RTVSPropertyOp31
 70
     1
102
RTVSPropertyOp32
 70
     1
102
RTVSPropertyOp33
 70
     1
102
RTVSPropertyOp34
 70
     1
102
RTVSPropertyOp35
 70
     1
102
RTVSPropertyOp36
 70
     1
102
RTVSPropertyOp37
 70
     1
102
RTVSPropertyOp38
 70
     1
102
RTVSPropertyOp39
 70
     1
102
RTVSPropertyOp40
 70
     1
102
RTVSPropertyOp41
 70
     1
102
RTVSPropertyOp42
 70
     1
102
RTVSPropertyOp43
 70
     1
102
RTVSPropertyOp44
 70
     1
102
RTVSPropertyOp45
 70
     1
102
RTVSPropertyOp46
 70
     1
102
RTVSPropertyOp47
 70
     1
102
RTVSPropertyOp48
 70
     1
102
RTVSPropertyOp49
 70
     1
102
RTVSPropertyOp50
 70
     1
102
RTVSPropertyOp51
 70
     0
102
RTVSPropertyOp52
 70
     0
102
RTVSPropertyOp53
 70
     1
102
RTVSPropertyOp54
 70
     1
102
RTVSPropertyOp55
 70
     1
102
RTVSPropertyOp56
 70
     1
102
RTVSPropertyOp57
 70
     1
102
RTVSPropertyOp58
 70
     1
102
RTVSPropertyOp59
 70
     1
102
RTVSPropertyOp60
 70
     1
102
RTVSPropertyOp61
 70
     1
102
RTVSPropertyOp62
 70
     1
  0
XRECORD
  5
141E
102
{ACAD_REACTORS
330
141D
102
}
330
141D
100
AcDbXrecord
280
     1
102
RTVSPost2010Prop28
280
     0
102
RTVSPost2010PropOp28
 70
     1
102
RTVSPost2010Prop29
280
     1
102
RTVSPost2010PropOp29
 70
     1
102
RTVSPost2010Prop30
280
     1
102
RTVSPost2010PropOp30
 70
     1
102
RTVSPost2010Prop31
280
     0
102
RTVSPost2010PropOp31
 70
     1
102
RTVSPost2010Prop32
280
     0
102
RTVSPost2010PropOp32
 70
     1
102
RTVSPost2010Prop33
280
     0
102
RTVSPost2010PropOp33
 70
     1
102
RTVSPost2010Prop34
280
     0
102
RTVSPost2010PropOp34
 70
     1
102
RTVSPost2010Prop35
280
     0
102
RTVSPost2010PropOp35
 70
     1
102
RTVSPost2010Prop36
280
     0
102
RTVSPost2010PropOp36
 70
     1
102
RTVSPost2010Prop37
 90
       50
102
RTVSPost2010PropOp37
 70
     1
102
RTVSPost2010Prop38
140
0.0
102
RTVSPost2010PropOp38
 70
     1
102
RTVSPost2010Prop39
140
1.0
102
RTVSPost2010PropOp39
 70
     1
102
RTVSPost2010Prop40
 90
        0
102
RTVSPost2010PropOp40
 70
     1
102
RTVSPost2010Prop41ColorIndex
 90
       18
102
RTVSPost2010Prop41ColorRGB
 90
        0
102
RTVSPost2010PropOp41
 70
     1
102
RTVSPost2010Prop42
 90
       50
102
RTVSPost2010PropOp42
 70
     1
102
RTVSPost2010Prop43
 90
        3
102
RTVSPost2010PropOp43
 70
     1
102
RTVSPost2010Prop44ColorIndex
 90
        5
102
RTVSPost2010Prop44ColorRGB
 90
      255
102
RTVSPost2010PropOp44
 70
     1
102
RTVSPost2010Prop45
280
     0
102
RTVSPost2010PropOp45
 70
     1
102
RTVSPost2010Prop46
 90
       50
102
RTVSPost2010PropOp46
 70
     1
102
RTVSPost2010Prop47
 90
       50
102
RTVSPost2010PropOp47
 70
     1
102
RTVSPost2010Prop48
 90
       50
102
RTVSPost2010PropOp48
 70
     1
102
RTVSPost2010Prop49
280
     0
102
RTVSPost2010PropOp49
 70
     1
102
RTVSPost2010Prop50
 90
       50
102
RTVSPost2010PropOp50
 70
     1
102
RTVSPost2010Prop51ColorIndex
 90
      256
102
RTVSPost2010Prop51ColorRGB
 90
-16777216
102
RTVSPost2010PropOp51
 70
     0
102
RTVSPost2010Prop52
140
1.0
102
RTVSPost2010PropOp52
 70
     0
102
RTVSPost2010Prop53
 90
        2
102
RTVSPost2010PropOp53
 70
     1
102
RTVSPost2010Prop54
  1
strokes_ogs.tif
102
RTVSPost2010PropOp54
 70
     1
102
RTVSPost2010Prop55
280
     0
102
RTVSPost2010PropOp55
 70
     1
102
RTVSPost2010Prop56
140
1.0
102
RTVSPost2010PropOp56
 70
     1
102
RTVSPost2010Prop57
140
1.0
102
RTVSPost2010PropOp57
 70
     1
102
RTVSPropertyOp0
 70
     1
102
RTVSPropertyOp1
 70
     1
102
RTVSPropertyOp2
 70
     1
102
RTVSPropertyOp3
 70
     1
102
RTVSPropertyOp4
 70
     1
102
RTVSPropertyOp5
 70
     1
102
RTVSPropertyOp6
 70
     1
102
RTVSPropertyOp7
 70
     1
102
RTVSPropertyOp8
 70
     1
102
RTVSPropertyOp9
 70
     1
102
RTVSPropertyOp10
 70
     1
102
RTVSPropertyOp11
 70
     1
102
RTVSPropertyOp12
 70
     1
102
RTVSPropertyOp13
 70
     1
102
RTVSPropertyOp14
 70
     1
102
RTVSPropertyOp15
 70
     1
102
RTVSPropertyOp16
 70
     1
102
RTVSPropertyOp17
 70
     1
102
RTVSPropertyOp18
 70
     1
102
RTVSPropertyOp19
 70
     1
102
RTVSPropertyOp20
 70
     1
102
RTVSPropertyOp21
 70
     1
102
RTVSPropertyOp22
 70
     1
102
RTVSPropertyOp23
 70
     1
102
RTVSPropertyOp24
 70
     1
102
RTVSPropertyOp25
 70
     1
102
RTVSPropertyOp26
 70
     1
102
RTVSPropertyOp27
 70
     1
102
RTVSPropertyOp28
 70
     1
102
RTVSPropertyOp29
 70
     1
102
RTVSPropertyOp30
 70
     1
102
RTVSPropertyOp31
 70
     1
102
RTVSPropertyOp32
 70
     1
102
RTVSPropertyOp33
 70
     1
102
RTVSPropertyOp34
 70
     1
102
RTVSPropertyOp35
 70
     1
102
RTVSPropertyOp36
 70
     1
102
RTVSPropertyOp37
 70
     1
102
RTVSPropertyOp38
 70
     1
102
RTVSPropertyOp39
 70
     1
102
RTVSPropertyOp40
 70
     1
102
RTVSPropertyOp41
 70
     1
102
RTVSPropertyOp42
 70
     1
102
RTVSPropertyOp43
 70
     1
102
RTVSPropertyOp44
 70
     1
102
RTVSPropertyOp45
 70
     1
102
RTVSPropertyOp46
 70
     1
102
RTVSPropertyOp47
 70
     1
102
RTVSPropertyOp48
 70
     1
102
RTVSPropertyOp49
 70
     1
102
RTVSPropertyOp50
 70
     1
102
RTVSPropertyOp51
 70
     0
102
RTVSPropertyOp52
 70
     0
102
RTVSPropertyOp53
 70
     1
102
RTVSPropertyOp54
 70
     1
102
RTVSPropertyOp55
 70
     1
102
RTVSPropertyOp56
 70
     1
102
RTVSPropertyOp57
 70
     1
102
RTVSPropertyOp58
 70
     1
102
RTVSPropertyOp59
 70
     1
102
RTVSPropertyOp60
 70
     1
102
RTVSPropertyOp61
 70
     1
102
RTVSPropertyOp62
 70
     1
  0
XRECORD
  5
1426
102
{ACAD_REACTORS
330
1425
102
}
330
1425
100
AcDbXrecord
280
     1
102
RTVSPost2010Prop28
280
     0
102
RTVSPost2010PropOp28
 70
     1
102
RTVSPost2010Prop29
280
     1
102
RTVSPost2010PropOp29
 70
     1
102
RTVSPost2010Prop30
280
     1
102
RTVSPost2010PropOp30
 70
     1
102
RTVSPost2010Prop31
280
     0
102
RTVSPost2010PropOp31
 70
     1
102
RTVSPost2010Prop32
280
     0
102
RTVSPost2010PropOp32
 70
     1
102
RTVSPost2010Prop33
280
     0
102
RTVSPost2010PropOp33
 70
     1
102
RTVSPost2010Prop34
280
     0
102
RTVSPost2010PropOp34
 70
     1
102
RTVSPost2010Prop35
280
     0
102
RTVSPost2010PropOp35
 70
     1
102
RTVSPost2010Prop36
280
     0
102
RTVSPost2010PropOp36
 70
     1
102
RTVSPost2010Prop37
 90
       50
102
RTVSPost2010PropOp37
 70
     1
102
RTVSPost2010Prop38
140
0.0
102
RTVSPost2010PropOp38
 70
     1
102
RTVSPost2010Prop39
140
1.0
102
RTVSPost2010PropOp39
 70
     1
102
RTVSPost2010Prop40
 90
        0
102
RTVSPost2010PropOp40
 70
     1
102
RTVSPost2010Prop41ColorIndex
 90
       18
102
RTVSPost2010Prop41ColorRGB
 90
        0
102
RTVSPost2010PropOp41
 70
     1
102
RTVSPost2010Prop42
 90
       50
102
RTVSPost2010PropOp42
 70
     1
102
RTVSPost2010Prop43
 90
        3
102
RTVSPost2010PropOp43
 70
     1
102
RTVSPost2010Prop44ColorIndex
 90
        5
102
RTVSPost2010Prop44ColorRGB
 90
      255
102
RTVSPost2010PropOp44
 70
     1
102
RTVSPost2010Prop45
280
     0
102
RTVSPost2010PropOp45
 70
     1
102
RTVSPost2010Prop46
 90
       50
102
RTVSPost2010PropOp46
 70
     1
102
RTVSPost2010Prop47
 90
       50
102
RTVSPost2010PropOp47
 70
     1
102
RTVSPost2010Prop48
 90
       50
102
RTVSPost2010PropOp48
 70
     1
102
RTVSPost2010Prop49
280
     0
102
RTVSPost2010PropOp49
 70
     1
102
RTVSPost2010Prop50
 90
       50
102
RTVSPost2010PropOp50
 70
     1
102
RTVSPost2010Prop51ColorIndex
 90
      256
102
RTVSPost2010Prop51ColorRGB
 90
-16777216
102
RTVSPost2010PropOp51
 70
     0
102
RTVSPost2010Prop52
140
1.0
102
RTVSPost2010PropOp52
 70
     0
102
RTVSPost2010Prop53
 90
        2
102
RTVSPost2010PropOp53
 70
     1
102
RTVSPost2010Prop54
  1
strokes_ogs.tif
102
RTVSPost2010PropOp54
 70
     1
102
RTVSPost2010Prop55
280
     0
102
RTVSPost2010PropOp55
 70
     1
102
RTVSPost2010Prop56
140
1.0
102
RTVSPost2010PropOp56
 70
     1
102
RTVSPost2010Prop57
140
1.0
102
RTVSPost2010PropOp57
 70
     1
102
RTVSPropertyOp0
 70
     1
102
RTVSPropertyOp1
 70
     1
102
RTVSPropertyOp2
 70
     1
102
RTVSPropertyOp3
 70
     1
102
RTVSPropertyOp4
 70
     1
102
RTVSPropertyOp5
 70
     1
102
RTVSPropertyOp6
 70
     1
102
RTVSPropertyOp7
 70
     1
102
RTVSPropertyOp8
 70
     1
102
RTVSPropertyOp9
 70
     1
102
RTVSPropertyOp10
 70
     1
102
RTVSPropertyOp11
 70
     1
102
RTVSPropertyOp12
 70
     1
102
RTVSPropertyOp13
 70
     1
102
RTVSPropertyOp14
 70
     1
102
RTVSPropertyOp15
 70
     1
102
RTVSPropertyOp16
 70
     1
102
RTVSPropertyOp17
 70
     1
102
RTVSPropertyOp18
 70
     1
102
RTVSPropertyOp19
 70
     1
102
RTVSPropertyOp20
 70
     1
102
RTVSPropertyOp21
 70
     1
102
RTVSPropertyOp22
 70
     1
102
RTVSPropertyOp23
 70
     1
102
RTVSPropertyOp24
 70
     1
102
RTVSPropertyOp25
 70
     1
102
RTVSPropertyOp26
 70
     1
102
RTVSPropertyOp27
 70
     1
102
RTVSPropertyOp28
 70
     1
102
RTVSPropertyOp29
 70
     1
102
RTVSPropertyOp30
 70
     1
102
RTVSPropertyOp31
 70
     1
102
RTVSPropertyOp32
 70
     1
102
RTVSPropertyOp33
 70
     1
102
RTVSPropertyOp34
 70
     1
102
RTVSPropertyOp35
 70
     1
102
RTVSPropertyOp36
 70
     1
102
RTVSPropertyOp37
 70
     1
102
RTVSPropertyOp38
 70
     1
102
RTVSPropertyOp39
 70
     1
102
RTVSPropertyOp40
 70
     1
102
RTVSPropertyOp41
 70
     1
102
RTVSPropertyOp42
 70
     1
102
RTVSPropertyOp43
 70
     1
102
RTVSPropertyOp44
 70
     1
102
RTVSPropertyOp45
 70
     1
102
RTVSPropertyOp46
 70
     1
102
RTVSPropertyOp47
 70
     1
102
RTVSPropertyOp48
 70
     1
102
RTVSPropertyOp49
 70
     1
102
RTVSPropertyOp50
 70
     1
102
RTVSPropertyOp51
 70
     0
102
RTVSPropertyOp52
 70
     0
102
RTVSPropertyOp53
 70
     1
102
RTVSPropertyOp54
 70
     1
102
RTVSPropertyOp55
 70
     1
102
RTVSPropertyOp56
 70
     1
102
RTVSPropertyOp57
 70
     1
102
RTVSPropertyOp58
 70
     1
102
RTVSPropertyOp59
 70
     1
102
RTVSPropertyOp60
 70
     1
102
RTVSPropertyOp61
 70
     1
102
RTVSPropertyOp62
 70
     1
  0
XRECORD
  5
1418
102
{ACAD_REACTORS
330
1417
102
}
330
1417
100
AcDbXrecord
280
     1
102
RTVSPost2010Prop28
280
     0
102
RTVSPost2010PropOp28
 70
     1
102
RTVSPost2010Prop29
280
     1
102
RTVSPost2010PropOp29
 70
     1
102
RTVSPost2010Prop30
280
     1
102
RTVSPost2010PropOp30
 70
     1
102
RTVSPost2010Prop31
280
     0
102
RTVSPost2010PropOp31
 70
     1
102
RTVSPost2010Prop32
280
     0
102
RTVSPost2010PropOp32
 70
     1
102
RTVSPost2010Prop33
280
     0
102
RTVSPost2010PropOp33
 70
     1
102
RTVSPost2010Prop34
280
     0
102
RTVSPost2010PropOp34
 70
     1
102
RTVSPost2010Prop35
280
     0
102
RTVSPost2010PropOp35
 70
     1
102
RTVSPost2010Prop36
280
     0
102
RTVSPost2010PropOp36
 70
     1
102
RTVSPost2010Prop37
 90
       50
102
RTVSPost2010PropOp37
 70
     1
102
RTVSPost2010Prop38
140
0.0
102
RTVSPost2010PropOp38
 70
     1
102
RTVSPost2010Prop39
140
1.0
102
RTVSPost2010PropOp39
 70
     1
102
RTVSPost2010Prop40
 90
        0
102
RTVSPost2010PropOp40
 70
     1
102
RTVSPost2010Prop41ColorIndex
 90
       18
102
RTVSPost2010Prop41ColorRGB
 90
        0
102
RTVSPost2010PropOp41
 70
     1
102
RTVSPost2010Prop42
 90
       50
102
RTVSPost2010PropOp42
 70
     1
102
RTVSPost2010Prop43
 90
        3
102
RTVSPost2010PropOp43
 70
     1
102
RTVSPost2010Prop44ColorIndex
 90
        5
102
RTVSPost2010Prop44ColorRGB
 90
      255
102
RTVSPost2010PropOp44
 70
     1
102
RTVSPost2010Prop45
280
     0
102
RTVSPost2010PropOp45
 70
     1
102
RTVSPost2010Prop46
 90
       50
102
RTVSPost2010PropOp46
 70
     1
102
RTVSPost2010Prop47
 90
       50
102
RTVSPost2010PropOp47
 70
     1
102
RTVSPost2010Prop48
 90
       50
102
RTVSPost2010PropOp48
 70
     1
102
RTVSPost2010Prop49
280
     0
102
RTVSPost2010PropOp49
 70
     1
102
RTVSPost2010Prop50
 90
       50
102
RTVSPost2010PropOp50
 70
     1
102
RTVSPost2010Prop51ColorIndex
 90
      256
102
RTVSPost2010Prop51ColorRGB
 90
-16777216
102
RTVSPost2010PropOp51
 70
     0
102
RTVSPost2010Prop52
140
1.0
102
RTVSPost2010PropOp52
 70
     0
102
RTVSPost2010Prop53
 90
        2
102
RTVSPost2010PropOp53
 70
     1
102
RTVSPost2010Prop54
  1
strokes_ogs.tif
102
RTVSPost2010PropOp54
 70
     1
102
RTVSPost2010Prop55
280
     0
102
RTVSPost2010PropOp55
 70
     1
102
RTVSPost2010Prop56
140
1.0
102
RTVSPost2010PropOp56
 70
     1
102
RTVSPost2010Prop57
140
1.0
102
RTVSPost2010PropOp57
 70
     1
102
RTVSPropertyOp0
 70
     1
102
RTVSPropertyOp1
 70
     1
102
RTVSPropertyOp2
 70
     1
102
RTVSPropertyOp3
 70
     1
102
RTVSPropertyOp4
 70
     1
102
RTVSPropertyOp5
 70
     1
102
RTVSPropertyOp6
 70
     1
102
RTVSPropertyOp7
 70
     1
102
RTVSPropertyOp8
 70
     1
102
RTVSPropertyOp9
 70
     1
102
RTVSPropertyOp10
 70
     1
102
RTVSPropertyOp11
 70
     1
102
RTVSPropertyOp12
 70
     1
102
RTVSPropertyOp13
 70
     1
102
RTVSPropertyOp14
 70
     1
102
RTVSPropertyOp15
 70
     1
102
RTVSPropertyOp16
 70
     1
102
RTVSPropertyOp17
 70
     1
102
RTVSPropertyOp18
 70
     1
102
RTVSPropertyOp19
 70
     1
102
RTVSPropertyOp20
 70
     1
102
RTVSPropertyOp21
 70
     1
102
RTVSPropertyOp22
 70
     1
102
RTVSPropertyOp23
 70
     1
102
RTVSPropertyOp24
 70
     1
102
RTVSPropertyOp25
 70
     1
102
RTVSPropertyOp26
 70
     1
102
RTVSPropertyOp27
 70
     1
102
RTVSPropertyOp28
 70
     1
102
RTVSPropertyOp29
 70
     1
102
RTVSPropertyOp30
 70
     1
102
RTVSPropertyOp31
 70
     1
102
RTVSPropertyOp32
 70
     1
102
RTVSPropertyOp33
 70
     1
102
RTVSPropertyOp34
 70
     1
102
RTVSPropertyOp35
 70
     1
102
RTVSPropertyOp36
 70
     1
102
RTVSPropertyOp37
 70
     1
102
RTVSPropertyOp38
 70
     1
102
RTVSPropertyOp39
 70
     1
102
RTVSPropertyOp40
 70
     1
102
RTVSPropertyOp41
 70
     1
102
RTVSPropertyOp42
 70
     1
102
RTVSPropertyOp43
 70
     1
102
RTVSPropertyOp44
 70
     1
102
RTVSPropertyOp45
 70
     1
102
RTVSPropertyOp46
 70
     1
102
RTVSPropertyOp47
 70
     1
102
RTVSPropertyOp48
 70
     1
102
RTVSPropertyOp49
 70
     1
102
RTVSPropertyOp50
 70
     1
102
RTVSPropertyOp51
 70
     0
102
RTVSPropertyOp52
 70
     0
102
RTVSPropertyOp53
 70
     1
102
RTVSPropertyOp54
 70
     1
102
RTVSPropertyOp55
 70
     1
102
RTVSPropertyOp56
 70
     1
102
RTVSPropertyOp57
 70
     1
102
RTVSPropertyOp58
 70
     1
102
RTVSPropertyOp59
 70
     1
102
RTVSPropertyOp60
 70
     1
102
RTVSPropertyOp61
 70
     1
102
RTVSPropertyOp62
 70
     1
  0
XRECORD
  5
141C
102
{ACAD_REACTORS
330
141B
102
}
330
141B
100
AcDbXrecord
280
     1
102
RTVSPost2010Prop28
280
     0
102
RTVSPost2010PropOp28
 70
     1
102
RTVSPost2010Prop29
280
     1
102
RTVSPost2010PropOp29
 70
     1
102
RTVSPost2010Prop30
280
     1
102
RTVSPost2010PropOp30
 70
     1
102
RTVSPost2010Prop31
280
     0
102
RTVSPost2010PropOp31
 70
     1
102
RTVSPost2010Prop32
280
     0
102
RTVSPost2010PropOp32
 70
     1
102
RTVSPost2010Prop33
280
     0
102
RTVSPost2010PropOp33
 70
     1
102
RTVSPost2010Prop34
280
     0
102
RTVSPost2010PropOp34
 70
     1
102
RTVSPost2010Prop35
280
     0
102
RTVSPost2010PropOp35
 70
     1
102
RTVSPost2010Prop36
280
     0
102
RTVSPost2010PropOp36
 70
     1
102
RTVSPost2010Prop37
 90
       50
102
RTVSPost2010PropOp37
 70
     1
102
RTVSPost2010Prop38
140
0.0
102
RTVSPost2010PropOp38
 70
     1
102
RTVSPost2010Prop39
140
1.0
102
RTVSPost2010PropOp39
 70
     1
102
RTVSPost2010Prop40
 90
        0
102
RTVSPost2010PropOp40
 70
     1
102
RTVSPost2010Prop41ColorIndex
 90
       18
102
RTVSPost2010Prop41ColorRGB
 90
        0
102
RTVSPost2010PropOp41
 70
     1
102
RTVSPost2010Prop42
 90
       50
102
RTVSPost2010PropOp42
 70
     1
102
RTVSPost2010Prop43
 90
        3
102
RTVSPost2010PropOp43
 70
     1
102
RTVSPost2010Prop44ColorIndex
 90
        5
102
RTVSPost2010Prop44ColorRGB
 90
      255
102
RTVSPost2010PropOp44
 70
     1
102
RTVSPost2010Prop45
280
     0
102
RTVSPost2010PropOp45
 70
     1
102
RTVSPost2010Prop46
 90
       50
102
RTVSPost2010PropOp46
 70
     1
102
RTVSPost2010Prop47
 90
       50
102
RTVSPost2010PropOp47
 70
     1
102
RTVSPost2010Prop48
 90
       50
102
RTVSPost2010PropOp48
 70
     1
102
RTVSPost2010Prop49
280
     0
102
RTVSPost2010PropOp49
 70
     1
102
RTVSPost2010Prop50
 90
       50
102
RTVSPost2010PropOp50
 70
     1
102
RTVSPost2010Prop51ColorIndex
 90
      256
102
RTVSPost2010Prop51ColorRGB
 90
-16777216
102
RTVSPost2010PropOp51
 70
     0
102
RTVSPost2010Prop52
140
1.0
102
RTVSPost2010PropOp52
 70
     0
102
RTVSPost2010Prop53
 90
        2
102
RTVSPost2010PropOp53
 70
     1
102
RTVSPost2010Prop54
  1
strokes_ogs.tif
102
RTVSPost2010PropOp54
 70
     1
102
RTVSPost2010Prop55
280
     0
102
RTVSPost2010PropOp55
 70
     1
102
RTVSPost2010Prop56
140
1.0
102
RTVSPost2010PropOp56
 70
     1
102
RTVSPost2010Prop57
140
1.0
102
RTVSPost2010PropOp57
 70
     1
102
RTVSPropertyOp0
 70
     1
102
RTVSPropertyOp1
 70
     1
102
RTVSPropertyOp2
 70
     1
102
RTVSPropertyOp3
 70
     1
102
RTVSPropertyOp4
 70
     1
102
RTVSPropertyOp5
 70
     1
102
RTVSPropertyOp6
 70
     1
102
RTVSPropertyOp7
 70
     1
102
RTVSPropertyOp8
 70
     1
102
RTVSPropertyOp9
 70
     1
102
RTVSPropertyOp10
 70
     1
102
RTVSPropertyOp11
 70
     1
102
RTVSPropertyOp12
 70
     1
102
RTVSPropertyOp13
 70
     1
102
RTVSPropertyOp14
 70
     1
102
RTVSPropertyOp15
 70
     1
102
RTVSPropertyOp16
 70
     1
102
RTVSPropertyOp17
 70
     1
102
RTVSPropertyOp18
 70
     1
102
RTVSPropertyOp19
 70
     1
102
RTVSPropertyOp20
 70
     1
102
RTVSPropertyOp21
 70
     1
102
RTVSPropertyOp22
 70
     1
102
RTVSPropertyOp23
 70
     1
102
RTVSPropertyOp24
 70
     1
102
RTVSPropertyOp25
 70
     1
102
RTVSPropertyOp26
 70
     1
102
RTVSPropertyOp27
 70
     1
102
RTVSPropertyOp28
 70
     1
102
RTVSPropertyOp29
 70
     1
102
RTVSPropertyOp30
 70
     1
102
RTVSPropertyOp31
 70
     1
102
RTVSPropertyOp32
 70
     1
102
RTVSPropertyOp33
 70
     1
102
RTVSPropertyOp34
 70
     1
102
RTVSPropertyOp35
 70
     1
102
RTVSPropertyOp36
 70
     1
102
RTVSPropertyOp37
 70
     1
102
RTVSPropertyOp38
 70
     1
102
RTVSPropertyOp39
 70
     1
102
RTVSPropertyOp40
 70
     1
102
RTVSPropertyOp41
 70
     1
102
RTVSPropertyOp42
 70
     1
102
RTVSPropertyOp43
 70
     1
102
RTVSPropertyOp44
 70
     1
102
RTVSPropertyOp45
 70
     1
102
RTVSPropertyOp46
 70
     1
102
RTVSPropertyOp47
 70
     1
102
RTVSPropertyOp48
 70
     1
102
RTVSPropertyOp49
 70
     1
102
RTVSPropertyOp50
 70
     1
102
RTVSPropertyOp51
 70
     0
102
RTVSPropertyOp52
 70
     0
102
RTVSPropertyOp53
 70
     1
102
RTVSPropertyOp54
 70
     1
102
RTVSPropertyOp55
 70
     1
102
RTVSPropertyOp56
 70
     1
102
RTVSPropertyOp57
 70
     1
102
RTVSPropertyOp58
 70
     1
102
RTVSPropertyOp59
 70
     1
102
RTVSPropertyOp60
 70
     1
102
RTVSPropertyOp61
 70
     1
102
RTVSPropertyOp62
 70
     1
  0
XRECORD
  5
1436
102
{ACAD_REACTORS
330
1435
102
}
330
1435
100
AcDbXrecord
280
     1
102
RTVSPost2010Prop28
280
     0
102
RTVSPost2010PropOp28
 70
     0
102
RTVSPost2010Prop29
280
     1
102
RTVSPost2010PropOp29
 70
     0
102
RTVSPost2010Prop30
280
     1
102
RTVSPost2010PropOp30
 70
     0
102
RTVSPost2010Prop31
280
     0
102
RTVSPost2010PropOp31
 70
     0
102
RTVSPost2010Prop32
280
     0
102
RTVSPost2010PropOp32
 70
     0
102
RTVSPost2010Prop33
280
     0
102
RTVSPost2010PropOp33
 70
     0
102
RTVSPost2010Prop34
280
     0
102
RTVSPost2010PropOp34
 70
     0
102
RTVSPost2010Prop35
280
     0
102
RTVSPost2010PropOp35
 70
     0
102
RTVSPost2010Prop36
280
     0
102
RTVSPost2010PropOp36
 70
     0
102
RTVSPost2010Prop37
 90
       50
102
RTVSPost2010PropOp37
 70
     0
102
RTVSPost2010Prop38
140
0.0
102
RTVSPost2010PropOp38
 70
     0
102
RTVSPost2010Prop39
140
1.0
102
RTVSPost2010PropOp39
 70
     0
102
RTVSPost2010Prop40
 90
        0
102
RTVSPost2010PropOp40
 70
     0
102
RTVSPost2010Prop41ColorIndex
 90
       18
102
RTVSPost2010Prop41ColorRGB
 90
        0
102
RTVSPost2010PropOp41
 70
     0
102
RTVSPost2010Prop42
 90
       50
102
RTVSPost2010PropOp42
 70
     0
102
RTVSPost2010Prop43
 90
        3
102
RTVSPost2010PropOp43
 70
     0
102
RTVSPost2010Prop44ColorIndex
 90
        5
102
RTVSPost2010Prop44ColorRGB
 90
      255
102
RTVSPost2010PropOp44
 70
     0
102
RTVSPost2010Prop45
280
     0
102
RTVSPost2010PropOp45
 70
     0
102
RTVSPost2010Prop46
 90
       50
102
RTVSPost2010PropOp46
 70
     0
102
RTVSPost2010Prop47
 90
       50
102
RTVSPost2010PropOp47
 70
     0
102
RTVSPost2010Prop48
 90
       50
102
RTVSPost2010PropOp48
 70
     0
102
RTVSPost2010Prop49
280
     0
102
RTVSPost2010PropOp49
 70
     0
102
RTVSPost2010Prop50
 90
       50
102
RTVSPost2010PropOp50
 70
     0
102
RTVSPost2010Prop51ColorIndex
 90
      256
102
RTVSPost2010Prop51ColorRGB
 90
-16777216
102
RTVSPost2010PropOp51
 70
     0
102
RTVSPost2010Prop52
140
1.0
102
RTVSPost2010PropOp52
 70
     0
102
RTVSPost2010Prop53
 90
        2
102
RTVSPost2010PropOp53
 70
     0
102
RTVSPost2010Prop54
  1
strokes_ogs.tif
102
RTVSPost2010PropOp54
 70
     0
102
RTVSPost2010Prop55
280
     0
102
RTVSPost2010PropOp55
 70
     0
102
RTVSPost2010Prop56
140
1.0
102
RTVSPost2010PropOp56
 70
     0
102
RTVSPost2010Prop57
140
1.0
102
RTVSPost2010PropOp57
 70
     0
102
RTVSPropertyOp0
 70
     0
102
RTVSPropertyOp1
 70
     0
102
RTVSPropertyOp2
 70
     0
102
RTVSPropertyOp3
 70
     0
102
RTVSPropertyOp4
 70
     0
102
RTVSPropertyOp5
 70
     0
102
RTVSPropertyOp6
 70
     0
102
RTVSPropertyOp7
 70
     0
102
RTVSPropertyOp8
 70
     0
102
RTVSPropertyOp9
 70
     0
102
RTVSPropertyOp10
 70
     0
102
RTVSPropertyOp11
 70
     0
102
RTVSPropertyOp12
 70
     0
102
RTVSPropertyOp13
 70
     0
102
RTVSPropertyOp14
 70
     2
102
RTVSPropertyOp15
 70
     0
102
RTVSPropertyOp16
 70
     0
102
RTVSPropertyOp17
 70
     0
102
RTVSPropertyOp18
 70
     0
102
RTVSPropertyOp19
 70
     0
102
RTVSPropertyOp20
 70
     0
102
RTVSPropertyOp21
 70
     0
102
RTVSPropertyOp22
 70
     0
102
RTVSPropertyOp23
 70
     0
102
RTVSPropertyOp24
 70
     0
102
RTVSPropertyOp25
 70
     0
102
RTVSPropertyOp26
 70
     0
102
RTVSPropertyOp27
 70
     0
102
RTVSPropertyOp28
 70
     0
102
RTVSPropertyOp29
 70
     0
102
RTVSPropertyOp30
 70
     0
102
RTVSPropertyOp31
 70
     0
102
RTVSPropertyOp32
 70
     0
102
RTVSPropertyOp33
 70
     0
102
RTVSPropertyOp34
 70
     0
102
RTVSPropertyOp35
 70
     0
102
RTVSPropertyOp36
 70
     0
102
RTVSPropertyOp37
 70
     0
102
RTVSPropertyOp38
 70
     0
102
RTVSPropertyOp39
 70
     0
102
RTVSPropertyOp40
 70
     0
102
RTVSPropertyOp41
 70
     0
102
RTVSPropertyOp42
 70
     0
102
RTVSPropertyOp43
 70
     0
102
RTVSPropertyOp44
 70
     0
102
RTVSPropertyOp45
 70
     0
102
RTVSPropertyOp46
 70
     0
102
RTVSPropertyOp47
 70
     0
102
RTVSPropertyOp48
 70
     0
102
RTVSPropertyOp49
 70
     0
102
RTVSPropertyOp50
 70
     0
102
RTVSPropertyOp51
 70
     0
102
RTVSPropertyOp52
 70
     0
102
RTVSPropertyOp53
 70
     0
102
RTVSPropertyOp54
 70
     0
102
RTVSPropertyOp55
 70
     0
102
RTVSPropertyOp56
 70
     0
102
RTVSPropertyOp57
 70
     0
102
RTVSPropertyOp58
 70
     0
102
RTVSPropertyOp59
 70
     0
102
RTVSPropertyOp60
 70
     0
102
RTVSPropertyOp61
 70
     0
102
RTVSPropertyOp62
 70
     0
  0
XRECORD
  5
1424
102
{ACAD_REACTORS
330
1423
102
}
330
1423
100
AcDbXrecord
280
     1
102
RTVSPost2010Prop28
280
     0
102
RTVSPost2010PropOp28
 70
     1
102
RTVSPost2010Prop29
280
     1
102
RTVSPost2010PropOp29
 70
     1
102
RTVSPost2010Prop30
280
     1
102
RTVSPost2010PropOp30
 70
     1
102
RTVSPost2010Prop31
280
     0
102
RTVSPost2010PropOp31
 70
     1
102
RTVSPost2010Prop32
280
     0
102
RTVSPost2010PropOp32
 70
     1
102
RTVSPost2010Prop33
280
     0
102
RTVSPost2010PropOp33
 70
     1
102
RTVSPost2010Prop34
280
     0
102
RTVSPost2010PropOp34
 70
     1
102
RTVSPost2010Prop35
280
     0
102
RTVSPost2010PropOp35
 70
     1
102
RTVSPost2010Prop36
280
     0
102
RTVSPost2010PropOp36
 70
     1
102
RTVSPost2010Prop37
 90
       50
102
RTVSPost2010PropOp37
 70
     1
102
RTVSPost2010Prop38
140
0.0
102
RTVSPost2010PropOp38
 70
     1
102
RTVSPost2010Prop39
140
1.0
102
RTVSPost2010PropOp39
 70
     1
102
RTVSPost2010Prop40
 90
        0
102
RTVSPost2010PropOp40
 70
     1
102
RTVSPost2010Prop41ColorIndex
 90
       18
102
RTVSPost2010Prop41ColorRGB
 90
        0
102
RTVSPost2010PropOp41
 70
     1
102
RTVSPost2010Prop42
 90
       50
102
RTVSPost2010PropOp42
 70
     1
102
RTVSPost2010Prop43
 90
        3
102
RTVSPost2010PropOp43
 70
     1
102
RTVSPost2010Prop44ColorIndex
 90
        5
102
RTVSPost2010Prop44ColorRGB
 90
      255
102
RTVSPost2010PropOp44
 70
     1
102
RTVSPost2010Prop45
280
     0
102
RTVSPost2010PropOp45
 70
     1
102
RTVSPost2010Prop46
 90
       50
102
RTVSPost2010PropOp46
 70
     1
102
RTVSPost2010Prop47
 90
       50
102
RTVSPost2010PropOp47
 70
     1
102
RTVSPost2010Prop48
 90
       50
102
RTVSPost2010PropOp48
 70
     1
102
RTVSPost2010Prop49
280
     0
102
RTVSPost2010PropOp49
 70
     1
102
RTVSPost2010Prop50
 90
       50
102
RTVSPost2010PropOp50
 70
     1
102
RTVSPost2010Prop51ColorIndex
 90
      256
102
RTVSPost2010Prop51ColorRGB
 90
-16777216
102
RTVSPost2010PropOp51
 70
     0
102
RTVSPost2010Prop52
140
1.0
102
RTVSPost2010PropOp52
 70
     0
102
RTVSPost2010Prop53
 90
        2
102
RTVSPost2010PropOp53
 70
     1
102
RTVSPost2010Prop54
  1
strokes_ogs.tif
102
RTVSPost2010PropOp54
 70
     1
102
RTVSPost2010Prop55
280
     0
102
RTVSPost2010PropOp55
 70
     1
102
RTVSPost2010Prop56
140
1.0
102
RTVSPost2010PropOp56
 70
     1
102
RTVSPost2010Prop57
140
1.0
102
RTVSPost2010PropOp57
 70
     1
102
RTVSPropertyOp0
 70
     1
102
RTVSPropertyOp1
 70
     1
102
RTVSPropertyOp2
 70
     1
102
RTVSPropertyOp3
 70
     1
102
RTVSPropertyOp4
 70
     1
102
RTVSPropertyOp5
 70
     1
102
RTVSPropertyOp6
 70
     1
102
RTVSPropertyOp7
 70
     1
102
RTVSPropertyOp8
 70
     1
102
RTVSPropertyOp9
 70
     1
102
RTVSPropertyOp10
 70
     1
102
RTVSPropertyOp11
 70
     1
102
RTVSPropertyOp12
 70
     1
102
RTVSPropertyOp13
 70
     1
102
RTVSPropertyOp14
 70
     1
102
RTVSPropertyOp15
 70
     1
102
RTVSPropertyOp16
 70
     1
102
RTVSPropertyOp17
 70
     1
102
RTVSPropertyOp18
 70
     1
102
RTVSPropertyOp19
 70
     1
102
RTVSPropertyOp20
 70
     1
102
RTVSPropertyOp21
 70
     1
102
RTVSPropertyOp22
 70
     1
102
RTVSPropertyOp23
 70
     1
102
RTVSPropertyOp24
 70
     1
102
RTVSPropertyOp25
 70
     1
102
RTVSPropertyOp26
 70
     1
102
RTVSPropertyOp27
 70
     1
102
RTVSPropertyOp28
 70
     1
102
RTVSPropertyOp29
 70
     1
102
RTVSPropertyOp30
 70
     1
102
RTVSPropertyOp31
 70
     1
102
RTVSPropertyOp32
 70
     1
102
RTVSPropertyOp33
 70
     1
102
RTVSPropertyOp34
 70
     1
102
RTVSPropertyOp35
 70
     1
102
RTVSPropertyOp36
 70
     1
102
RTVSPropertyOp37
 70
     1
102
RTVSPropertyOp38
 70
     1
102
RTVSPropertyOp39
 70
     1
102
RTVSPropertyOp40
 70
     1
102
RTVSPropertyOp41
 70
     1
102
RTVSPropertyOp42
 70
     1
102
RTVSPropertyOp43
 70
     1
102
RTVSPropertyOp44
 70
     1
102
RTVSPropertyOp45
 70
     1
102
RTVSPropertyOp46
 70
     1
102
RTVSPropertyOp47
 70
     1
102
RTVSPropertyOp48
 70
     1
102
RTVSPropertyOp49
 70
     1
102
RTVSPropertyOp50
 70
     1
102
RTVSPropertyOp51
 70
     0
102
RTVSPropertyOp52
 70
     0
102
RTVSPropertyOp53
 70
     1
102
RTVSPropertyOp54
 70
     1
102
RTVSPropertyOp55
 70
     1
102
RTVSPropertyOp56
 70
     1
102
RTVSPropertyOp57
 70
     1
102
RTVSPropertyOp58
 70
     1
102
RTVSPropertyOp59
 70
     1
102
RTVSPropertyOp60
 70
     1
102
RTVSPropertyOp61
 70
     1
102
RTVSPropertyOp62
 70
     1
  0
XRECORD
  5
1408
102
{ACAD_REACTORS
330
1407
102
}
330
1407
100
AcDbXrecord
280
     1
102
RTVSPost2010Prop28
280
     0
102
RTVSPost2010PropOp28
 70
     1
102
RTVSPost2010Prop29
280
     1
102
RTVSPost2010PropOp29
 70
     1
102
RTVSPost2010Prop30
280
     1
102
RTVSPost2010PropOp30
 70
     1
102
RTVSPost2010Prop31
280
     0
102
RTVSPost2010PropOp31
 70
     1
102
RTVSPost2010Prop32
280
     0
102
RTVSPost2010PropOp32
 70
     1
102
RTVSPost2010Prop33
280
     0
102
RTVSPost2010PropOp33
 70
     1
102
RTVSPost2010Prop34
280
     0
102
RTVSPost2010PropOp34
 70
     1
102
RTVSPost2010Prop35
280
     0
102
RTVSPost2010PropOp35
 70
     1
102
RTVSPost2010Prop36
280
     0
102
RTVSPost2010PropOp36
 70
     1
102
RTVSPost2010Prop37
 90
       50
102
RTVSPost2010PropOp37
 70
     1
102
RTVSPost2010Prop38
140
0.0
102
RTVSPost2010PropOp38
 70
     1
102
RTVSPost2010Prop39
140
1.0
102
RTVSPost2010PropOp39
 70
     1
102
RTVSPost2010Prop40
 90
        0
102
RTVSPost2010PropOp40
 70
     1
102
RTVSPost2010Prop41ColorIndex
 90
       18
102
RTVSPost2010Prop41ColorRGB
 90
        0
102
RTVSPost2010PropOp41
 70
     1
102
RTVSPost2010Prop42
 90
       50
102
RTVSPost2010PropOp42
 70
     1
102
RTVSPost2010Prop43
 90
        3
102
RTVSPost2010PropOp43
 70
     1
102
RTVSPost2010Prop44ColorIndex
 90
        5
102
RTVSPost2010Prop44ColorRGB
 90
      255
102
RTVSPost2010PropOp44
 70
     1
102
RTVSPost2010Prop45
280
     0
102
RTVSPost2010PropOp45
 70
     1
102
RTVSPost2010Prop46
 90
       50
102
RTVSPost2010PropOp46
 70
     1
102
RTVSPost2010Prop47
 90
       50
102
RTVSPost2010PropOp47
 70
     1
102
RTVSPost2010Prop48
 90
       50
102
RTVSPost2010PropOp48
 70
     1
102
RTVSPost2010Prop49
280
     0
102
RTVSPost2010PropOp49
 70
     1
102
RTVSPost2010Prop50
 90
       50
102
RTVSPost2010PropOp50
 70
     1
102
RTVSPost2010Prop51ColorIndex
 90
      256
102
RTVSPost2010Prop51ColorRGB
 90
-16777216
102
RTVSPost2010PropOp51
 70
     0
102
RTVSPost2010Prop52
140
1.0
102
RTVSPost2010PropOp52
 70
     0
102
RTVSPost2010Prop53
 90
        2
102
RTVSPost2010PropOp53
 70
     1
102
RTVSPost2010Prop54
  1
strokes_ogs.tif
102
RTVSPost2010PropOp54
 70
     1
102
RTVSPost2010Prop55
280
     0
102
RTVSPost2010PropOp55
 70
     1
102
RTVSPost2010Prop56
140
1.0
102
RTVSPost2010PropOp56
 70
     1
102
RTVSPost2010Prop57
140
1.0
102
RTVSPost2010PropOp57
 70
     1
102
RTVSPropertyOp0
 70
     1
102
RTVSPropertyOp1
 70
     1
102
RTVSPropertyOp2
 70
     1
102
RTVSPropertyOp3
 70
     1
102
RTVSPropertyOp4
 70
     1
102
RTVSPropertyOp5
 70
     1
102
RTVSPropertyOp6
 70
     1
102
RTVSPropertyOp7
 70
     1
102
RTVSPropertyOp8
 70
     1
102
RTVSPropertyOp9
 70
     1
102
RTVSPropertyOp10
 70
     1
102
RTVSPropertyOp11
 70
     1
102
RTVSPropertyOp12
 70
     1
102
RTVSPropertyOp13
 70
     1
102
RTVSPropertyOp14
 70
     1
102
RTVSPropertyOp15
 70
     1
102
RTVSPropertyOp16
 70
     1
102
RTVSPropertyOp17
 70
     1
102
RTVSPropertyOp18
 70
     1
102
RTVSPropertyOp19
 70
     1
102
RTVSPropertyOp20
 70
     1
102
RTVSPropertyOp21
 70
     1
102
RTVSPropertyOp22
 70
     1
102
RTVSPropertyOp23
 70
     1
102
RTVSPropertyOp24
 70
     1
102
RTVSPropertyOp25
 70
     1
102
RTVSPropertyOp26
 70
     1
102
RTVSPropertyOp27
 70
     1
102
RTVSPropertyOp28
 70
     1
102
RTVSPropertyOp29
 70
     1
102
RTVSPropertyOp30
 70
     1
102
RTVSPropertyOp31
 70
     1
102
RTVSPropertyOp32
 70
     1
102
RTVSPropertyOp33
 70
     1
102
RTVSPropertyOp34
 70
     1
102
RTVSPropertyOp35
 70
     1
102
RTVSPropertyOp36
 70
     1
102
RTVSPropertyOp37
 70
     1
102
RTVSPropertyOp38
 70
     1
102
RTVSPropertyOp39
 70
     1
102
RTVSPropertyOp40
 70
     1
102
RTVSPropertyOp41
 70
     1
102
RTVSPropertyOp42
 70
     1
102
RTVSPropertyOp43
 70
     1
102
RTVSPropertyOp44
 70
     1
102
RTVSPropertyOp45
 70
     1
102
RTVSPropertyOp46
 70
     1
102
RTVSPropertyOp47
 70
     1
102
RTVSPropertyOp48
 70
     1
102
RTVSPropertyOp49
 70
     1
102
RTVSPropertyOp50
 70
     1
102
RTVSPropertyOp51
 70
     0
102
RTVSPropertyOp52
 70
     0
102
RTVSPropertyOp53
 70
     1
102
RTVSPropertyOp54
 70
     1
102
RTVSPropertyOp55
 70
     1
102
RTVSPropertyOp56
 70
     1
102
RTVSPropertyOp57
 70
     1
102
RTVSPropertyOp58
 70
     1
102
RTVSPropertyOp59
 70
     1
102
RTVSPropertyOp60
 70
     1
102
RTVSPropertyOp61
 70
     1
102
RTVSPropertyOp62
 70
     1
  0
XRECORD
  5
140A
102
{ACAD_REACTORS
330
1409
102
}
330
1409
100
AcDbXrecord
280
     1
102
RTVSPost2010Prop28
280
     0
102
RTVSPost2010PropOp28
 70
     1
102
RTVSPost2010Prop29
280
     1
102
RTVSPost2010PropOp29
 70
     1
102
RTVSPost2010Prop30
280
     1
102
RTVSPost2010PropOp30
 70
     1
102
RTVSPost2010Prop31
280
     0
102
RTVSPost2010PropOp31
 70
     1
102
RTVSPost2010Prop32
280
     0
102
RTVSPost2010PropOp32
 70
     1
102
RTVSPost2010Prop33
280
     0
102
RTVSPost2010PropOp33
 70
     1
102
RTVSPost2010Prop34
280
     0
102
RTVSPost2010PropOp34
 70
     1
102
RTVSPost2010Prop35
280
     0
102
RTVSPost2010PropOp35
 70
     1
102
RTVSPost2010Prop36
280
     0
102
RTVSPost2010PropOp36
 70
     1
102
RTVSPost2010Prop37
 90
       50
102
RTVSPost2010PropOp37
 70
     1
102
RTVSPost2010Prop38
140
0.0
102
RTVSPost2010PropOp38
 70
     1
102
RTVSPost2010Prop39
140
1.0
102
RTVSPost2010PropOp39
 70
     1
102
RTVSPost2010Prop40
 90
        0
102
RTVSPost2010PropOp40
 70
     1
102
RTVSPost2010Prop41ColorIndex
 90
       18
102
RTVSPost2010Prop41ColorRGB
 90
        0
102
RTVSPost2010PropOp41
 70
     1
102
RTVSPost2010Prop42
 90
       50
102
RTVSPost2010PropOp42
 70
     1
102
RTVSPost2010Prop43
 90
        3
102
RTVSPost2010PropOp43
 70
     1
102
RTVSPost2010Prop44ColorIndex
 90
        5
102
RTVSPost2010Prop44ColorRGB
 90
      255
102
RTVSPost2010PropOp44
 70
     1
102
RTVSPost2010Prop45
280
     0
102
RTVSPost2010PropOp45
 70
     1
102
RTVSPost2010Prop46
 90
       50
102
RTVSPost2010PropOp46
 70
     1
102
RTVSPost2010Prop47
 90
       50
102
RTVSPost2010PropOp47
 70
     1
102
RTVSPost2010Prop48
 90
       50
102
RTVSPost2010PropOp48
 70
     1
102
RTVSPost2010Prop49
280
     0
102
RTVSPost2010PropOp49
 70
     1
102
RTVSPost2010Prop50
 90
       50
102
RTVSPost2010PropOp50
 70
     1
102
RTVSPost2010Prop51ColorIndex
 90
      256
102
RTVSPost2010Prop51ColorRGB
 90
-16777216
102
RTVSPost2010PropOp51
 70
     0
102
RTVSPost2010Prop52
140
1.0
102
RTVSPost2010PropOp52
 70
     0
102
RTVSPost2010Prop53
 90
        2
102
RTVSPost2010PropOp53
 70
     1
102
RTVSPost2010Prop54
  1
strokes_ogs.tif
102
RTVSPost2010PropOp54
 70
     1
102
RTVSPost2010Prop55
280
     0
102
RTVSPost2010PropOp55
 70
     1
102
RTVSPost2010Prop56
140
1.0
102
RTVSPost2010PropOp56
 70
     1
102
RTVSPost2010Prop57
140
1.0
102
RTVSPost2010PropOp57
 70
     1
102
RTVSPropertyOp0
 70
     1
102
RTVSPropertyOp1
 70
     1
102
RTVSPropertyOp2
 70
     1
102
RTVSPropertyOp3
 70
     1
102
RTVSPropertyOp4
 70
     1
102
RTVSPropertyOp5
 70
     1
102
RTVSPropertyOp6
 70
     1
102
RTVSPropertyOp7
 70
     1
102
RTVSPropertyOp8
 70
     1
102
RTVSPropertyOp9
 70
     1
102
RTVSPropertyOp10
 70
     1
102
RTVSPropertyOp11
 70
     1
102
RTVSPropertyOp12
 70
     1
102
RTVSPropertyOp13
 70
     1
102
RTVSPropertyOp14
 70
     1
102
RTVSPropertyOp15
 70
     1
102
RTVSPropertyOp16
 70
     1
102
RTVSPropertyOp17
 70
     1
102
RTVSPropertyOp18
 70
     1
102
RTVSPropertyOp19
 70
     1
102
RTVSPropertyOp20
 70
     1
102
RTVSPropertyOp21
 70
     1
102
RTVSPropertyOp22
 70
     1
102
RTVSPropertyOp23
 70
     1
102
RTVSPropertyOp24
 70
     1
102
RTVSPropertyOp25
 70
     1
102
RTVSPropertyOp26
 70
     1
102
RTVSPropertyOp27
 70
     1
102
RTVSPropertyOp28
 70
     1
102
RTVSPropertyOp29
 70
     1
102
RTVSPropertyOp30
 70
     1
102
RTVSPropertyOp31
 70
     1
102
RTVSPropertyOp32
 70
     1
102
RTVSPropertyOp33
 70
     1
102
RTVSPropertyOp34
 70
     1
102
RTVSPropertyOp35
 70
     1
102
RTVSPropertyOp36
 70
     1
102
RTVSPropertyOp37
 70
     1
102
RTVSPropertyOp38
 70
     1
102
RTVSPropertyOp39
 70
     1
102
RTVSPropertyOp40
 70
     1
102
RTVSPropertyOp41
 70
     1
102
RTVSPropertyOp42
 70
     1
102
RTVSPropertyOp43
 70
     1
102
RTVSPropertyOp44
 70
     1
102
RTVSPropertyOp45
 70
     1
102
RTVSPropertyOp46
 70
     1
102
RTVSPropertyOp47
 70
     1
102
RTVSPropertyOp48
 70
     1
102
RTVSPropertyOp49
 70
     1
102
RTVSPropertyOp50
 70
     1
102
RTVSPropertyOp51
 70
     0
102
RTVSPropertyOp52
 70
     0
102
RTVSPropertyOp53
 70
     1
102
RTVSPropertyOp54
 70
     1
102
RTVSPropertyOp55
 70
     1
102
RTVSPropertyOp56
 70
     1
102
RTVSPropertyOp57
 70
     1
102
RTVSPropertyOp58
 70
     1
102
RTVSPropertyOp59
 70
     1
102
RTVSPropertyOp60
 70
     1
102
RTVSPropertyOp61
 70
     1
102
RTVSPropertyOp62
 70
     1
  0
XRECORD
  5
140C
102
{ACAD_REACTORS
330
140B
102
}
330
140B
100
AcDbXrecord
280
     1
102
RTVSPost2010Prop28
280
     0
102
RTVSPost2010PropOp28
 70
     1
102
RTVSPost2010Prop29
280
     1
102
RTVSPost2010PropOp29
 70
     1
102
RTVSPost2010Prop30
280
     1
102
RTVSPost2010PropOp30
 70
     1
102
RTVSPost2010Prop31
280
     0
102
RTVSPost2010PropOp31
 70
     1
102
RTVSPost2010Prop32
280
     0
102
RTVSPost2010PropOp32
 70
     1
102
RTVSPost2010Prop33
280
     0
102
RTVSPost2010PropOp33
 70
     1
102
RTVSPost2010Prop34
280
     0
102
RTVSPost2010PropOp34
 70
     1
102
RTVSPost2010Prop35
280
     0
102
RTVSPost2010PropOp35
 70
     1
102
RTVSPost2010Prop36
280
     0
102
RTVSPost2010PropOp36
 70
     1
102
RTVSPost2010Prop37
 90
       50
102
RTVSPost2010PropOp37
 70
     1
102
RTVSPost2010Prop38
140
0.0
102
RTVSPost2010PropOp38
 70
     1
102
RTVSPost2010Prop39
140
1.0
102
RTVSPost2010PropOp39
 70
     1
102
RTVSPost2010Prop40
 90
        0
102
RTVSPost2010PropOp40
 70
     1
102
RTVSPost2010Prop41ColorIndex
 90
       18
102
RTVSPost2010Prop41ColorRGB
 90
        0
102
RTVSPost2010PropOp41
 70
     1
102
RTVSPost2010Prop42
 90
       50
102
RTVSPost2010PropOp42
 70
     1
102
RTVSPost2010Prop43
 90
        3
102
RTVSPost2010PropOp43
 70
     1
102
RTVSPost2010Prop44ColorIndex
 90
        5
102
RTVSPost2010Prop44ColorRGB
 90
      255
102
RTVSPost2010PropOp44
 70
     1
102
RTVSPost2010Prop45
280
     0
102
RTVSPost2010PropOp45
 70
     1
102
RTVSPost2010Prop46
 90
       50
102
RTVSPost2010PropOp46
 70
     1
102
RTVSPost2010Prop47
 90
       50
102
RTVSPost2010PropOp47
 70
     1
102
RTVSPost2010Prop48
 90
       50
102
RTVSPost2010PropOp48
 70
     1
102
RTVSPost2010Prop49
280
     0
102
RTVSPost2010PropOp49
 70
     1
102
RTVSPost2010Prop50
 90
       50
102
RTVSPost2010PropOp50
 70
     1
102
RTVSPost2010Prop51ColorIndex
 90
      256
102
RTVSPost2010Prop51ColorRGB
 90
-16777216
102
RTVSPost2010PropOp51
 70
     0
102
RTVSPost2010Prop52
140
1.0
102
RTVSPost2010PropOp52
 70
     0
102
RTVSPost2010Prop53
 90
        2
102
RTVSPost2010PropOp53
 70
     1
102
RTVSPost2010Prop54
  1
strokes_ogs.tif
102
RTVSPost2010PropOp54
 70
     1
102
RTVSPost2010Prop55
280
     0
102
RTVSPost2010PropOp55
 70
     1
102
RTVSPost2010Prop56
140
1.0
102
RTVSPost2010PropOp56
 70
     1
102
RTVSPost2010Prop57
140
1.0
102
RTVSPost2010PropOp57
 70
     1
102
RTVSPropertyOp0
 70
     1
102
RTVSPropertyOp1
 70
     1
102
RTVSPropertyOp2
 70
     1
102
RTVSPropertyOp3
 70
     1
102
RTVSPropertyOp4
 70
     1
102
RTVSPropertyOp5
 70
     1
102
RTVSPropertyOp6
 70
     1
102
RTVSPropertyOp7
 70
     1
102
RTVSPropertyOp8
 70
     1
102
RTVSPropertyOp9
 70
     1
102
RTVSPropertyOp10
 70
     1
102
RTVSPropertyOp11
 70
     1
102
RTVSPropertyOp12
 70
     1
102
RTVSPropertyOp13
 70
     1
102
RTVSPropertyOp14
 70
     1
102
RTVSPropertyOp15
 70
     1
102
RTVSPropertyOp16
 70
     1
102
RTVSPropertyOp17
 70
     1
102
RTVSPropertyOp18
 70
     1
102
RTVSPropertyOp19
 70
     1
102
RTVSPropertyOp20
 70
     1
102
RTVSPropertyOp21
 70
     1
102
RTVSPropertyOp22
 70
     1
102
RTVSPropertyOp23
 70
     1
102
RTVSPropertyOp24
 70
     1
102
RTVSPropertyOp25
 70
     1
102
RTVSPropertyOp26
 70
     1
102
RTVSPropertyOp27
 70
     1
102
RTVSPropertyOp28
 70
     1
102
RTVSPropertyOp29
 70
     1
102
RTVSPropertyOp30
 70
     1
102
RTVSPropertyOp31
 70
     1
102
RTVSPropertyOp32
 70
     1
102
RTVSPropertyOp33
 70
     1
102
RTVSPropertyOp34
 70
     1
102
RTVSPropertyOp35
 70
     1
102
RTVSPropertyOp36
 70
     1
102
RTVSPropertyOp37
 70
     1
102
RTVSPropertyOp38
 70
     1
102
RTVSPropertyOp39
 70
     1
102
RTVSPropertyOp40
 70
     1
102
RTVSPropertyOp41
 70
     1
102
RTVSPropertyOp42
 70
     1
102
RTVSPropertyOp43
 70
     1
102
RTVSPropertyOp44
 70
     1
102
RTVSPropertyOp45
 70
     1
102
RTVSPropertyOp46
 70
     1
102
RTVSPropertyOp47
 70
     1
102
RTVSPropertyOp48
 70
     1
102
RTVSPropertyOp49
 70
     1
102
RTVSPropertyOp50
 70
     1
102
RTVSPropertyOp51
 70
     0
102
RTVSPropertyOp52
 70
     0
102
RTVSPropertyOp53
 70
     1
102
RTVSPropertyOp54
 70
     1
102
RTVSPropertyOp55
 70
     1
102
RTVSPropertyOp56
 70
     1
102
RTVSPropertyOp57
 70
     1
102
RTVSPropertyOp58
 70
     1
102
RTVSPropertyOp59
 70
     1
102
RTVSPropertyOp60
 70
     1
102
RTVSPropertyOp61
 70
     1
102
RTVSPropertyOp62
 70
     1
  0
XRECORD
  5
140E
102
{ACAD_REACTORS
330
140D
102
}
330
140D
100
AcDbXrecord
280
     1
102
RTVSPost2010Prop28
280
     0
102
RTVSPost2010PropOp28
 70
     1
102
RTVSPost2010Prop29
280
     1
102
RTVSPost2010PropOp29
 70
     1
102
RTVSPost2010Prop30
280
     1
102
RTVSPost2010PropOp30
 70
     1
102
RTVSPost2010Prop31
280
     0
102
RTVSPost2010PropOp31
 70
     1
102
RTVSPost2010Prop32
280
     0
102
RTVSPost2010PropOp32
 70
     1
102
RTVSPost2010Prop33
280
     0
102
RTVSPost2010PropOp33
 70
     1
102
RTVSPost2010Prop34
280
     0
102
RTVSPost2010PropOp34
 70
     1
102
RTVSPost2010Prop35
280
     0
102
RTVSPost2010PropOp35
 70
     1
102
RTVSPost2010Prop36
280
     0
102
RTVSPost2010PropOp36
 70
     1
102
RTVSPost2010Prop37
 90
       50
102
RTVSPost2010PropOp37
 70
     1
102
RTVSPost2010Prop38
140
0.0
102
RTVSPost2010PropOp38
 70
     1
102
RTVSPost2010Prop39
140
1.0
102
RTVSPost2010PropOp39
 70
     1
102
RTVSPost2010Prop40
 90
        0
102
RTVSPost2010PropOp40
 70
     1
102
RTVSPost2010Prop41ColorIndex
 90
       18
102
RTVSPost2010Prop41ColorRGB
 90
        0
102
RTVSPost2010PropOp41
 70
     1
102
RTVSPost2010Prop42
 90
       50
102
RTVSPost2010PropOp42
 70
     1
102
RTVSPost2010Prop43
 90
        3
102
RTVSPost2010PropOp43
 70
     1
102
RTVSPost2010Prop44ColorIndex
 90
        5
102
RTVSPost2010Prop44ColorRGB
 90
      255
102
RTVSPost2010PropOp44
 70
     1
102
RTVSPost2010Prop45
280
     0
102
RTVSPost2010PropOp45
 70
     1
102
RTVSPost2010Prop46
 90
       50
102
RTVSPost2010PropOp46
 70
     1
102
RTVSPost2010Prop47
 90
       50
102
RTVSPost2010PropOp47
 70
     1
102
RTVSPost2010Prop48
 90
       50
102
RTVSPost2010PropOp48
 70
     1
102
RTVSPost2010Prop49
280
     0
102
RTVSPost2010PropOp49
 70
     1
102
RTVSPost2010Prop50
 90
       50
102
RTVSPost2010PropOp50
 70
     1
102
RTVSPost2010Prop51ColorIndex
 90
      256
102
RTVSPost2010Prop51ColorRGB
 90
-16777216
102
RTVSPost2010PropOp51
 70
     0
102
RTVSPost2010Prop52
140
1.0
102
RTVSPost2010PropOp52
 70
     0
102
RTVSPost2010Prop53
 90
        2
102
RTVSPost2010PropOp53
 70
     1
102
RTVSPost2010Prop54
  1
strokes_ogs.tif
102
RTVSPost2010PropOp54
 70
     1
102
RTVSPost2010Prop55
280
     0
102
RTVSPost2010PropOp55
 70
     1
102
RTVSPost2010Prop56
140
1.0
102
RTVSPost2010PropOp56
 70
     1
102
RTVSPost2010Prop57
140
1.0
102
RTVSPost2010PropOp57
 70
     1
102
RTVSPropertyOp0
 70
     1
102
RTVSPropertyOp1
 70
     1
102
RTVSPropertyOp2
 70
     1
102
RTVSPropertyOp3
 70
     1
102
RTVSPropertyOp4
 70
     1
102
RTVSPropertyOp5
 70
     1
102
RTVSPropertyOp6
 70
     1
102
RTVSPropertyOp7
 70
     1
102
RTVSPropertyOp8
 70
     1
102
RTVSPropertyOp9
 70
     1
102
RTVSPropertyOp10
 70
     1
102
RTVSPropertyOp11
 70
     1
102
RTVSPropertyOp12
 70
     1
102
RTVSPropertyOp13
 70
     1
102
RTVSPropertyOp14
 70
     1
102
RTVSPropertyOp15
 70
     1
102
RTVSPropertyOp16
 70
     1
102
RTVSPropertyOp17
 70
     1
102
RTVSPropertyOp18
 70
     1
102
RTVSPropertyOp19
 70
     1
102
RTVSPropertyOp20
 70
     1
102
RTVSPropertyOp21
 70
     1
102
RTVSPropertyOp22
 70
     1
102
RTVSPropertyOp23
 70
     1
102
RTVSPropertyOp24
 70
     1
102
RTVSPropertyOp25
 70
     1
102
RTVSPropertyOp26
 70
     1
102
RTVSPropertyOp27
 70
     1
102
RTVSPropertyOp28
 70
     1
102
RTVSPropertyOp29
 70
     1
102
RTVSPropertyOp30
 70
     1
102
RTVSPropertyOp31
 70
     1
102
RTVSPropertyOp32
 70
     1
102
RTVSPropertyOp33
 70
     1
102
RTVSPropertyOp34
 70
     1
102
RTVSPropertyOp35
 70
     1
102
RTVSPropertyOp36
 70
     1
102
RTVSPropertyOp37
 70
     1
102
RTVSPropertyOp38
 70
     1
102
RTVSPropertyOp39
 70
     1
102
RTVSPropertyOp40
 70
     1
102
RTVSPropertyOp41
 70
     1
102
RTVSPropertyOp42
 70
     1
102
RTVSPropertyOp43
 70
     1
102
RTVSPropertyOp44
 70
     1
102
RTVSPropertyOp45
 70
     1
102
RTVSPropertyOp46
 70
     1
102
RTVSPropertyOp47
 70
     1
102
RTVSPropertyOp48
 70
     1
102
RTVSPropertyOp49
 70
     1
102
RTVSPropertyOp50
 70
     1
102
RTVSPropertyOp51
 70
     0
102
RTVSPropertyOp52
 70
     0
102
RTVSPropertyOp53
 70
     1
102
RTVSPropertyOp54
 70
     1
102
RTVSPropertyOp55
 70
     1
102
RTVSPropertyOp56
 70
     1
102
RTVSPropertyOp57
 70
     1
102
RTVSPropertyOp58
 70
     1
102
RTVSPropertyOp59
 70
     1
102
RTVSPropertyOp60
 70
     1
102
RTVSPropertyOp61
 70
     1
102
RTVSPropertyOp62
 70
     1
  0
XRECORD
  5
1416
102
{ACAD_REACTORS
330
1415
102
}
330
1415
100
AcDbXrecord
280
     1
102
RTVSPost2010Prop28
280
     0
102
RTVSPost2010PropOp28
 70
     1
102
RTVSPost2010Prop29
280
     1
102
RTVSPost2010PropOp29
 70
     1
102
RTVSPost2010Prop30
280
     1
102
RTVSPost2010PropOp30
 70
     1
102
RTVSPost2010Prop31
280
     0
102
RTVSPost2010PropOp31
 70
     1
102
RTVSPost2010Prop32
280
     0
102
RTVSPost2010PropOp32
 70
     1
102
RTVSPost2010Prop33
280
     0
102
RTVSPost2010PropOp33
 70
     1
102
RTVSPost2010Prop34
280
     0
102
RTVSPost2010PropOp34
 70
     1
102
RTVSPost2010Prop35
280
     0
102
RTVSPost2010PropOp35
 70
     1
102
RTVSPost2010Prop36
280
     0
102
RTVSPost2010PropOp36
 70
     1
102
RTVSPost2010Prop37
 90
       50
102
RTVSPost2010PropOp37
 70
     1
102
RTVSPost2010Prop38
140
0.0
102
RTVSPost2010PropOp38
 70
     1
102
RTVSPost2010Prop39
140
1.0
102
RTVSPost2010PropOp39
 70
     1
102
RTVSPost2010Prop40
 90
        0
102
RTVSPost2010PropOp40
 70
     1
102
RTVSPost2010Prop41ColorIndex
 90
       18
102
RTVSPost2010Prop41ColorRGB
 90
        0
102
RTVSPost2010PropOp41
 70
     1
102
RTVSPost2010Prop42
 90
       50
102
RTVSPost2010PropOp42
 70
     1
102
RTVSPost2010Prop43
 90
        3
102
RTVSPost2010PropOp43
 70
     1
102
RTVSPost2010Prop44ColorIndex
 90
        5
102
RTVSPost2010Prop44ColorRGB
 90
      255
102
RTVSPost2010PropOp44
 70
     1
102
RTVSPost2010Prop45
280
     0
102
RTVSPost2010PropOp45
 70
     1
102
RTVSPost2010Prop46
 90
       50
102
RTVSPost2010PropOp46
 70
     1
102
RTVSPost2010Prop47
 90
       50
102
RTVSPost2010PropOp47
 70
     1
102
RTVSPost2010Prop48
 90
       50
102
RTVSPost2010PropOp48
 70
     1
102
RTVSPost2010Prop49
280
     0
102
RTVSPost2010PropOp49
 70
     1
102
RTVSPost2010Prop50
 90
       50
102
RTVSPost2010PropOp50
 70
     1
102
RTVSPost2010Prop51ColorIndex
 90
      256
102
RTVSPost2010Prop51ColorRGB
 90
-16777216
102
RTVSPost2010PropOp51
 70
     0
102
RTVSPost2010Prop52
140
1.0
102
RTVSPost2010PropOp52
 70
     0
102
RTVSPost2010Prop53
 90
        2
102
RTVSPost2010PropOp53
 70
     1
102
RTVSPost2010Prop54
  1
strokes_ogs.tif
102
RTVSPost2010PropOp54
 70
     1
102
RTVSPost2010Prop55
280
     0
102
RTVSPost2010PropOp55
 70
     1
102
RTVSPost2010Prop56
140
1.0
102
RTVSPost2010PropOp56
 70
     1
102
RTVSPost2010Prop57
140
1.0
102
RTVSPost2010PropOp57
 70
     1
102
RTVSPropertyOp0
 70
     1
102
RTVSPropertyOp1
 70
     1
102
RTVSPropertyOp2
 70
     1
102
RTVSPropertyOp3
 70
     1
102
RTVSPropertyOp4
 70
     1
102
RTVSPropertyOp5
 70
     1
102
RTVSPropertyOp6
 70
     1
102
RTVSPropertyOp7
 70
     1
102
RTVSPropertyOp8
 70
     1
102
RTVSPropertyOp9
 70
     1
102
RTVSPropertyOp10
 70
     1
102
RTVSPropertyOp11
 70
     1
102
RTVSPropertyOp12
 70
     1
102
RTVSPropertyOp13
 70
     1
102
RTVSPropertyOp14
 70
     1
102
RTVSPropertyOp15
 70
     1
102
RTVSPropertyOp16
 70
     1
102
RTVSPropertyOp17
 70
     1
102
RTVSPropertyOp18
 70
     1
102
RTVSPropertyOp19
 70
     1
102
RTVSPropertyOp20
 70
     1
102
RTVSPropertyOp21
 70
     1
102
RTVSPropertyOp22
 70
     1
102
RTVSPropertyOp23
 70
     1
102
RTVSPropertyOp24
 70
     1
102
RTVSPropertyOp25
 70
     1
102
RTVSPropertyOp26
 70
     1
102
RTVSPropertyOp27
 70
     1
102
RTVSPropertyOp28
 70
     1
102
RTVSPropertyOp29
 70
     1
102
RTVSPropertyOp30
 70
     1
102
RTVSPropertyOp31
 70
     1
102
RTVSPropertyOp32
 70
     1
102
RTVSPropertyOp33
 70
     1
102
RTVSPropertyOp34
 70
     1
102
RTVSPropertyOp35
 70
     1
102
RTVSPropertyOp36
 70
     1
102
RTVSPropertyOp37
 70
     1
102
RTVSPropertyOp38
 70
     1
102
RTVSPropertyOp39
 70
     1
102
RTVSPropertyOp40
 70
     1
102
RTVSPropertyOp41
 70
     1
102
RTVSPropertyOp42
 70
     1
102
RTVSPropertyOp43
 70
     1
102
RTVSPropertyOp44
 70
     1
102
RTVSPropertyOp45
 70
     1
102
RTVSPropertyOp46
 70
     1
102
RTVSPropertyOp47
 70
     1
102
RTVSPropertyOp48
 70
     1
102
RTVSPropertyOp49
 70
     1
102
RTVSPropertyOp50
 70
     1
102
RTVSPropertyOp51
 70
     0
102
RTVSPropertyOp52
 70
     0
102
RTVSPropertyOp53
 70
     1
102
RTVSPropertyOp54
 70
     1
102
RTVSPropertyOp55
 70
     1
102
RTVSPropertyOp56
 70
     1
102
RTVSPropertyOp57
 70
     1
102
RTVSPropertyOp58
 70
     1
102
RTVSPropertyOp59
 70
     1
102
RTVSPropertyOp60
 70
     1
102
RTVSPropertyOp61
 70
     1
102
RTVSPropertyOp62
 70
     1
  0
XRECORD
  5
1432
102
{ACAD_REACTORS
330
1431
102
}
330
1431
100
AcDbXrecord
280
     1
102
RTVSPost2010Prop28
280
     0
102
RTVSPost2010PropOp28
 70
     0
102
RTVSPost2010Prop29
280
     1
102
RTVSPost2010PropOp29
 70
     0
102
RTVSPost2010Prop30
280
     1
102
RTVSPost2010PropOp30
 70
     0
102
RTVSPost2010Prop31
280
     0
102
RTVSPost2010PropOp31
 70
     0
102
RTVSPost2010Prop32
280
     0
102
RTVSPost2010PropOp32
 70
     0
102
RTVSPost2010Prop33
280
     0
102
RTVSPost2010PropOp33
 70
     0
102
RTVSPost2010Prop34
280
     0
102
RTVSPost2010PropOp34
 70
     0
102
RTVSPost2010Prop35
280
     0
102
RTVSPost2010PropOp35
 70
     0
102
RTVSPost2010Prop36
280
     0
102
RTVSPost2010PropOp36
 70
     0
102
RTVSPost2010Prop37
 90
       50
102
RTVSPost2010PropOp37
 70
     0
102
RTVSPost2010Prop38
140
0.0
102
RTVSPost2010PropOp38
 70
     0
102
RTVSPost2010Prop39
140
1.0
102
RTVSPost2010PropOp39
 70
     0
102
RTVSPost2010Prop40
 90
        0
102
RTVSPost2010PropOp40
 70
     0
102
RTVSPost2010Prop41ColorIndex
 90
       18
102
RTVSPost2010Prop41ColorRGB
 90
        0
102
RTVSPost2010PropOp41
 70
     0
102
RTVSPost2010Prop42
 90
       50
102
RTVSPost2010PropOp42
 70
     0
102
RTVSPost2010Prop43
 90
        3
102
RTVSPost2010PropOp43
 70
     0
102
RTVSPost2010Prop44ColorIndex
 90
        5
102
RTVSPost2010Prop44ColorRGB
 90
      255
102
RTVSPost2010PropOp44
 70
     0
102
RTVSPost2010Prop45
280
     0
102
RTVSPost2010PropOp45
 70
     0
102
RTVSPost2010Prop46
 90
       50
102
RTVSPost2010PropOp46
 70
     0
102
RTVSPost2010Prop47
 90
       50
102
RTVSPost2010PropOp47
 70
     0
102
RTVSPost2010Prop48
 90
       50
102
RTVSPost2010PropOp48
 70
     0
102
RTVSPost2010Prop49
280
     0
102
RTVSPost2010PropOp49
 70
     0
102
RTVSPost2010Prop50
 90
       50
102
RTVSPost2010PropOp50
 70
     0
102
RTVSPost2010Prop51ColorIndex
 90
      256
102
RTVSPost2010Prop51ColorRGB
 90
-16777216
102
RTVSPost2010PropOp51
 70
     0
102
RTVSPost2010Prop52
140
1.0
102
RTVSPost2010PropOp52
 70
     0
102
RTVSPost2010Prop53
 90
        2
102
RTVSPost2010PropOp53
 70
     0
102
RTVSPost2010Prop54
  1
strokes_ogs.tif
102
RTVSPost2010PropOp54
 70
     0
102
RTVSPost2010Prop55
280
     0
102
RTVSPost2010PropOp55
 70
     0
102
RTVSPost2010Prop56
140
1.0
102
RTVSPost2010PropOp56
 70
     0
102
RTVSPost2010Prop57
140
1.0
102
RTVSPost2010PropOp57
 70
     0
102
RTVSPropertyOp0
 70
     0
102
RTVSPropertyOp1
 70
     0
102
RTVSPropertyOp2
 70
     0
102
RTVSPropertyOp3
 70
     0
102
RTVSPropertyOp4
 70
     0
102
RTVSPropertyOp5
 70
     0
102
RTVSPropertyOp6
 70
     0
102
RTVSPropertyOp7
 70
     0
102
RTVSPropertyOp8
 70
     0
102
RTVSPropertyOp9
 70
     0
102
RTVSPropertyOp10
 70
     0
102
RTVSPropertyOp11
 70
     0
102
RTVSPropertyOp12
 70
     0
102
RTVSPropertyOp13
 70
     0
102
RTVSPropertyOp14
 70
     2
102
RTVSPropertyOp15
 70
     0
102
RTVSPropertyOp16
 70
     0
102
RTVSPropertyOp17
 70
     0
102
RTVSPropertyOp18
 70
     0
102
RTVSPropertyOp19
 70
     0
102
RTVSPropertyOp20
 70
     0
102
RTVSPropertyOp21
 70
     0
102
RTVSPropertyOp22
 70
     0
102
RTVSPropertyOp23
 70
     0
102
RTVSPropertyOp24
 70
     0
102
RTVSPropertyOp25
 70
     0
102
RTVSPropertyOp26
 70
     0
102
RTVSPropertyOp27
 70
     0
102
RTVSPropertyOp28
 70
     0
102
RTVSPropertyOp29
 70
     0
102
RTVSPropertyOp30
 70
     0
102
RTVSPropertyOp31
 70
     0
102
RTVSPropertyOp32
 70
     0
102
RTVSPropertyOp33
 70
     0
102
RTVSPropertyOp34
 70
     0
102
RTVSPropertyOp35
 70
     0
102
RTVSPropertyOp36
 70
     0
102
RTVSPropertyOp37
 70
     0
102
RTVSPropertyOp38
 70
     0
102
RTVSPropertyOp39
 70
     0
102
RTVSPropertyOp40
 70
     0
102
RTVSPropertyOp41
 70
     0
102
RTVSPropertyOp42
 70
     0
102
RTVSPropertyOp43
 70
     0
102
RTVSPropertyOp44
 70
     0
102
RTVSPropertyOp45
 70
     0
102
RTVSPropertyOp46
 70
     0
102
RTVSPropertyOp47
 70
     0
102
RTVSPropertyOp48
 70
     0
102
RTVSPropertyOp49
 70
     0
102
RTVSPropertyOp50
 70
     0
102
RTVSPropertyOp51
 70
     0
102
RTVSPropertyOp52
 70
     0
102
RTVSPropertyOp53
 70
     0
102
RTVSPropertyOp54
 70
     0
102
RTVSPropertyOp55
 70
     0
102
RTVSPropertyOp56
 70
     0
102
RTVSPropertyOp57
 70
     0
102
RTVSPropertyOp58
 70
     0
102
RTVSPropertyOp59
 70
     0
102
RTVSPropertyOp60
 70
     0
102
RTVSPropertyOp61
 70
     0
102
RTVSPropertyOp62
 70
     0
  0
XRECORD
  5
1422
102
{ACAD_REACTORS
330
1421
102
}
330
1421
100
AcDbXrecord
280
     1
102
RTVSPost2010Prop28
280
     0
102
RTVSPost2010PropOp28
 70
     1
102
RTVSPost2010Prop29
280
     1
102
RTVSPost2010PropOp29
 70
     1
102
RTVSPost2010Prop30
280
     1
102
RTVSPost2010PropOp30
 70
     1
102
RTVSPost2010Prop31
280
     0
102
RTVSPost2010PropOp31
 70
     1
102
RTVSPost2010Prop32
280
     0
102
RTVSPost2010PropOp32
 70
     1
102
RTVSPost2010Prop33
280
     0
102
RTVSPost2010PropOp33
 70
     1
102
RTVSPost2010Prop34
280
     0
102
RTVSPost2010PropOp34
 70
     1
102
RTVSPost2010Prop35
280
     0
102
RTVSPost2010PropOp35
 70
     1
102
RTVSPost2010Prop36
280
     0
102
RTVSPost2010PropOp36
 70
     1
102
RTVSPost2010Prop37
 90
       50
102
RTVSPost2010PropOp37
 70
     1
102
RTVSPost2010Prop38
140
0.0
102
RTVSPost2010PropOp38
 70
     1
102
RTVSPost2010Prop39
140
1.0
102
RTVSPost2010PropOp39
 70
     1
102
RTVSPost2010Prop40
 90
        0
102
RTVSPost2010PropOp40
 70
     1
102
RTVSPost2010Prop41ColorIndex
 90
       18
102
RTVSPost2010Prop41ColorRGB
 90
        0
102
RTVSPost2010PropOp41
 70
     1
102
RTVSPost2010Prop42
 90
       50
102
RTVSPost2010PropOp42
 70
     1
102
RTVSPost2010Prop43
 90
        3
102
RTVSPost2010PropOp43
 70
     1
102
RTVSPost2010Prop44ColorIndex
 90
        5
102
RTVSPost2010Prop44ColorRGB
 90
      255
102
RTVSPost2010PropOp44
 70
     1
102
RTVSPost2010Prop45
280
     0
102
RTVSPost2010PropOp45
 70
     1
102
RTVSPost2010Prop46
 90
       50
102
RTVSPost2010PropOp46
 70
     1
102
RTVSPost2010Prop47
 90
       50
102
RTVSPost2010PropOp47
 70
     1
102
RTVSPost2010Prop48
 90
       50
102
RTVSPost2010PropOp48
 70
     1
102
RTVSPost2010Prop49
280
     0
102
RTVSPost2010PropOp49
 70
     1
102
RTVSPost2010Prop50
 90
       50
102
RTVSPost2010PropOp50
 70
     1
102
RTVSPost2010Prop51ColorIndex
 90
      256
102
RTVSPost2010Prop51ColorRGB
 90
-16777216
102
RTVSPost2010PropOp51
 70
     0
102
RTVSPost2010Prop52
140
1.0
102
RTVSPost2010PropOp52
 70
     0
102
RTVSPost2010Prop53
 90
        2
102
RTVSPost2010PropOp53
 70
     1
102
RTVSPost2010Prop54
  1
strokes_ogs.tif
102
RTVSPost2010PropOp54
 70
     1
102
RTVSPost2010Prop55
280
     0
102
RTVSPost2010PropOp55
 70
     1
102
RTVSPost2010Prop56
140
1.0
102
RTVSPost2010PropOp56
 70
     1
102
RTVSPost2010Prop57
140
1.0
102
RTVSPost2010PropOp57
 70
     1
102
RTVSPropertyOp0
 70
     1
102
RTVSPropertyOp1
 70
     1
102
RTVSPropertyOp2
 70
     1
102
RTVSPropertyOp3
 70
     1
102
RTVSPropertyOp4
 70
     1
102
RTVSPropertyOp5
 70
     1
102
RTVSPropertyOp6
 70
     1
102
RTVSPropertyOp7
 70
     1
102
RTVSPropertyOp8
 70
     1
102
RTVSPropertyOp9
 70
     1
102
RTVSPropertyOp10
 70
     1
102
RTVSPropertyOp11
 70
     1
102
RTVSPropertyOp12
 70
     1
102
RTVSPropertyOp13
 70
     1
102
RTVSPropertyOp14
 70
     1
102
RTVSPropertyOp15
 70
     1
102
RTVSPropertyOp16
 70
     1
102
RTVSPropertyOp17
 70
     1
102
RTVSPropertyOp18
 70
     1
102
RTVSPropertyOp19
 70
     1
102
RTVSPropertyOp20
 70
     1
102
RTVSPropertyOp21
 70
     1
102
RTVSPropertyOp22
 70
     1
102
RTVSPropertyOp23
 70
     1
102
RTVSPropertyOp24
 70
     1
102
RTVSPropertyOp25
 70
     1
102
RTVSPropertyOp26
 70
     1
102
RTVSPropertyOp27
 70
     1
102
RTVSPropertyOp28
 70
     1
102
RTVSPropertyOp29
 70
     1
102
RTVSPropertyOp30
 70
     1
102
RTVSPropertyOp31
 70
     1
102
RTVSPropertyOp32
 70
     1
102
RTVSPropertyOp33
 70
     1
102
RTVSPropertyOp34
 70
     1
102
RTVSPropertyOp35
 70
     1
102
RTVSPropertyOp36
 70
     1
102
RTVSPropertyOp37
 70
     1
102
RTVSPropertyOp38
 70
     1
102
RTVSPropertyOp39
 70
     1
102
RTVSPropertyOp40
 70
     1
102
RTVSPropertyOp41
 70
     1
102
RTVSPropertyOp42
 70
     1
102
RTVSPropertyOp43
 70
     1
102
RTVSPropertyOp44
 70
     1
102
RTVSPropertyOp45
 70
     1
102
RTVSPropertyOp46
 70
     1
102
RTVSPropertyOp47
 70
     1
102
RTVSPropertyOp48
 70
     1
102
RTVSPropertyOp49
 70
     1
102
RTVSPropertyOp50
 70
     1
102
RTVSPropertyOp51
 70
     0
102
RTVSPropertyOp52
 70
     0
102
RTVSPropertyOp53
 70
     1
102
RTVSPropertyOp54
 70
     1
102
RTVSPropertyOp55
 70
     1
102
RTVSPropertyOp56
 70
     1
102
RTVSPropertyOp57
 70
     1
102
RTVSPropertyOp58
 70
     1
102
RTVSPropertyOp59
 70
     1
102
RTVSPropertyOp60
 70
     1
102
RTVSPropertyOp61
 70
     1
102
RTVSPropertyOp62
 70
     1
  0
XRECORD
  5
1434
102
{ACAD_REACTORS
330
1433
102
}
330
1433
100
AcDbXrecord
280
     1
102
RTVSPost2010Prop28
280
     0
102
RTVSPost2010PropOp28
 70
     0
102
RTVSPost2010Prop29
280
     1
102
RTVSPost2010PropOp29
 70
     0
102
RTVSPost2010Prop30
280
     1
102
RTVSPost2010PropOp30
 70
     0
102
RTVSPost2010Prop31
280
     0
102
RTVSPost2010PropOp31
 70
     0
102
RTVSPost2010Prop32
280
     0
102
RTVSPost2010PropOp32
 70
     0
102
RTVSPost2010Prop33
280
     0
102
RTVSPost2010PropOp33
 70
     0
102
RTVSPost2010Prop34
280
     0
102
RTVSPost2010PropOp34
 70
     0
102
RTVSPost2010Prop35
280
     0
102
RTVSPost2010PropOp35
 70
     0
102
RTVSPost2010Prop36
280
     0
102
RTVSPost2010PropOp36
 70
     0
102
RTVSPost2010Prop37
 90
       50
102
RTVSPost2010PropOp37
 70
     0
102
RTVSPost2010Prop38
140
0.0
102
RTVSPost2010PropOp38
 70
     0
102
RTVSPost2010Prop39
140
1.0
102
RTVSPost2010PropOp39
 70
     0
102
RTVSPost2010Prop40
 90
        0
102
RTVSPost2010PropOp40
 70
     0
102
RTVSPost2010Prop41ColorIndex
 90
       18
102
RTVSPost2010Prop41ColorRGB
 90
        0
102
RTVSPost2010PropOp41
 70
     0
102
RTVSPost2010Prop42
 90
       50
102
RTVSPost2010PropOp42
 70
     0
102
RTVSPost2010Prop43
 90
        3
102
RTVSPost2010PropOp43
 70
     0
102
RTVSPost2010Prop44ColorIndex
 90
        5
102
RTVSPost2010Prop44ColorRGB
 90
      255
102
RTVSPost2010PropOp44
 70
     0
102
RTVSPost2010Prop45
280
     0
102
RTVSPost2010PropOp45
 70
     0
102
RTVSPost2010Prop46
 90
       50
102
RTVSPost2010PropOp46
 70
     0
102
RTVSPost2010Prop47
 90
       50
102
RTVSPost2010PropOp47
 70
     0
102
RTVSPost2010Prop48
 90
       50
102
RTVSPost2010PropOp48
 70
     0
102
RTVSPost2010Prop49
280
     0
102
RTVSPost2010PropOp49
 70
     0
102
RTVSPost2010Prop50
 90
       50
102
RTVSPost2010PropOp50
 70
     0
102
RTVSPost2010Prop51ColorIndex
 90
      256
102
RTVSPost2010Prop51ColorRGB
 90
-16777216
102
RTVSPost2010PropOp51
 70
     0
102
RTVSPost2010Prop52
140
1.0
102
RTVSPost2010PropOp52
 70
     0
102
RTVSPost2010Prop53
 90
        2
102
RTVSPost2010PropOp53
 70
     0
102
RTVSPost2010Prop54
  1
strokes_ogs.tif
102
RTVSPost2010PropOp54
 70
     0
102
RTVSPost2010Prop55
280
     0
102
RTVSPost2010PropOp55
 70
     0
102
RTVSPost2010Prop56
140
1.0
102
RTVSPost2010PropOp56
 70
     0
102
RTVSPost2010Prop57
140
1.0
102
RTVSPost2010PropOp57
 70
     0
102
RTVSPropertyOp0
 70
     0
102
RTVSPropertyOp1
 70
     0
102
RTVSPropertyOp2
 70
     0
102
RTVSPropertyOp3
 70
     0
102
RTVSPropertyOp4
 70
     0
102
RTVSPropertyOp5
 70
     0
102
RTVSPropertyOp6
 70
     0
102
RTVSPropertyOp7
 70
     0
102
RTVSPropertyOp8
 70
     0
102
RTVSPropertyOp9
 70
     0
102
RTVSPropertyOp10
 70
     0
102
RTVSPropertyOp11
 70
     0
102
RTVSPropertyOp12
 70
     0
102
RTVSPropertyOp13
 70
     0
102
RTVSPropertyOp14
 70
     2
102
RTVSPropertyOp15
 70
     0
102
RTVSPropertyOp16
 70
     0
102
RTVSPropertyOp17
 70
     0
102
RTVSPropertyOp18
 70
     0
102
RTVSPropertyOp19
 70
     0
102
RTVSPropertyOp20
 70
     0
102
RTVSPropertyOp21
 70
     0
102
RTVSPropertyOp22
 70
     0
102
RTVSPropertyOp23
 70
     0
102
RTVSPropertyOp24
 70
     0
102
RTVSPropertyOp25
 70
     0
102
RTVSPropertyOp26
 70
     0
102
RTVSPropertyOp27
 70
     0
102
RTVSPropertyOp28
 70
     0
102
RTVSPropertyOp29
 70
     0
102
RTVSPropertyOp30
 70
     0
102
RTVSPropertyOp31
 70
     0
102
RTVSPropertyOp32
 70
     0
102
RTVSPropertyOp33
 70
     0
102
RTVSPropertyOp34
 70
     0
102
RTVSPropertyOp35
 70
     0
102
RTVSPropertyOp36
 70
     0
102
RTVSPropertyOp37
 70
     0
102
RTVSPropertyOp38
 70
     0
102
RTVSPropertyOp39
 70
     0
102
RTVSPropertyOp40
 70
     0
102
RTVSPropertyOp41
 70
     0
102
RTVSPropertyOp42
 70
     0
102
RTVSPropertyOp43
 70
     0
102
RTVSPropertyOp44
 70
     0
102
RTVSPropertyOp45
 70
     0
102
RTVSPropertyOp46
 70
     0
102
RTVSPropertyOp47
 70
     0
102
RTVSPropertyOp48
 70
     0
102
RTVSPropertyOp49
 70
     0
102
RTVSPropertyOp50
 70
     0
102
RTVSPropertyOp51
 70
     0
102
RTVSPropertyOp52
 70
     0
102
RTVSPropertyOp53
 70
     0
102
RTVSPropertyOp54
 70
     0
102
RTVSPropertyOp55
 70
     0
102
RTVSPropertyOp56
 70
     0
102
RTVSPropertyOp57
 70
     0
102
RTVSPropertyOp58
 70
     0
102
RTVSPropertyOp59
 70
     0
102
RTVSPropertyOp60
 70
     0
102
RTVSPropertyOp61
 70
     0
102
RTVSPropertyOp62
 70
     0
  0
XRECORD
  5
141A
102
{ACAD_REACTORS
330
1419
102
}
330
1419
100
AcDbXrecord
280
     1
102
RTVSPost2010Prop28
280
     0
102
RTVSPost2010PropOp28
 70
     1
102
RTVSPost2010Prop29
280
     1
102
RTVSPost2010PropOp29
 70
     1
102
RTVSPost2010Prop30
280
     1
102
RTVSPost2010PropOp30
 70
     1
102
RTVSPost2010Prop31
280
     0
102
RTVSPost2010PropOp31
 70
     1
102
RTVSPost2010Prop32
280
     0
102
RTVSPost2010PropOp32
 70
     1
102
RTVSPost2010Prop33
280
     0
102
RTVSPost2010PropOp33
 70
     1
102
RTVSPost2010Prop34
280
     0
102
RTVSPost2010PropOp34
 70
     1
102
RTVSPost2010Prop35
280
     0
102
RTVSPost2010PropOp35
 70
     1
102
RTVSPost2010Prop36
280
     0
102
RTVSPost2010PropOp36
 70
     1
102
RTVSPost2010Prop37
 90
       50
102
RTVSPost2010PropOp37
 70
     1
102
RTVSPost2010Prop38
140
0.0
102
RTVSPost2010PropOp38
 70
     1
102
RTVSPost2010Prop39
140
1.0
102
RTVSPost2010PropOp39
 70
     1
102
RTVSPost2010Prop40
 90
        0
102
RTVSPost2010PropOp40
 70
     1
102
RTVSPost2010Prop41ColorIndex
 90
       18
102
RTVSPost2010Prop41ColorRGB
 90
        0
102
RTVSPost2010PropOp41
 70
     1
102
RTVSPost2010Prop42
 90
       50
102
RTVSPost2010PropOp42
 70
     1
102
RTVSPost2010Prop43
 90
        3
102
RTVSPost2010PropOp43
 70
     1
102
RTVSPost2010Prop44ColorIndex
 90
        5
102
RTVSPost2010Prop44ColorRGB
 90
      255
102
RTVSPost2010PropOp44
 70
     1
102
RTVSPost2010Prop45
280
     0
102
RTVSPost2010PropOp45
 70
     1
102
RTVSPost2010Prop46
 90
       50
102
RTVSPost2010PropOp46
 70
     1
102
RTVSPost2010Prop47
 90
       50
102
RTVSPost2010PropOp47
 70
     1
102
RTVSPost2010Prop48
 90
       50
102
RTVSPost2010PropOp48
 70
     1
102
RTVSPost2010Prop49
280
     0
102
RTVSPost2010PropOp49
 70
     1
102
RTVSPost2010Prop50
 90
       50
102
RTVSPost2010PropOp50
 70
     1
102
RTVSPost2010Prop51ColorIndex
 90
      256
102
RTVSPost2010Prop51ColorRGB
 90
-16777216
102
RTVSPost2010PropOp51
 70
     0
102
RTVSPost2010Prop52
140
1.0
102
RTVSPost2010PropOp52
 70
     0
102
RTVSPost2010Prop53
 90
        2
102
RTVSPost2010PropOp53
 70
     1
102
RTVSPost2010Prop54
  1
strokes_ogs.tif
102
RTVSPost2010PropOp54
 70
     1
102
RTVSPost2010Prop55
280
     0
102
RTVSPost2010PropOp55
 70
     1
102
RTVSPost2010Prop56
140
1.0
102
RTVSPost2010PropOp56
 70
     1
102
RTVSPost2010Prop57
140
1.0
102
RTVSPost2010PropOp57
 70
     1
102
RTVSPropertyOp0
 70
     1
102
RTVSPropertyOp1
 70
     1
102
RTVSPropertyOp2
 70
     1
102
RTVSPropertyOp3
 70
     1
102
RTVSPropertyOp4
 70
     1
102
RTVSPropertyOp5
 70
     1
102
RTVSPropertyOp6
 70
     1
102
RTVSPropertyOp7
 70
     1
102
RTVSPropertyOp8
 70
     1
102
RTVSPropertyOp9
 70
     1
102
RTVSPropertyOp10
 70
     1
102
RTVSPropertyOp11
 70
     1
102
RTVSPropertyOp12
 70
     1
102
RTVSPropertyOp13
 70
     1
102
RTVSPropertyOp14
 70
     1
102
RTVSPropertyOp15
 70
     1
102
RTVSPropertyOp16
 70
     1
102
RTVSPropertyOp17
 70
     1
102
RTVSPropertyOp18
 70
     1
102
RTVSPropertyOp19
 70
     1
102
RTVSPropertyOp20
 70
     1
102
RTVSPropertyOp21
 70
     1
102
RTVSPropertyOp22
 70
     1
102
RTVSPropertyOp23
 70
     1
102
RTVSPropertyOp24
 70
     1
102
RTVSPropertyOp25
 70
     1
102
RTVSPropertyOp26
 70
     1
102
RTVSPropertyOp27
 70
     1
102
RTVSPropertyOp28
 70
     1
102
RTVSPropertyOp29
 70
     1
102
RTVSPropertyOp30
 70
     1
102
RTVSPropertyOp31
 70
     1
102
RTVSPropertyOp32
 70
     1
102
RTVSPropertyOp33
 70
     1
102
RTVSPropertyOp34
 70
     1
102
RTVSPropertyOp35
 70
     1
102
RTVSPropertyOp36
 70
     1
102
RTVSPropertyOp37
 70
     1
102
RTVSPropertyOp38
 70
     1
102
RTVSPropertyOp39
 70
     1
102
RTVSPropertyOp40
 70
     1
102
RTVSPropertyOp41
 70
     1
102
RTVSPropertyOp42
 70
     1
102
RTVSPropertyOp43
 70
     1
102
RTVSPropertyOp44
 70
     1
102
RTVSPropertyOp45
 70
     1
102
RTVSPropertyOp46
 70
     1
102
RTVSPropertyOp47
 70
     1
102
RTVSPropertyOp48
 70
     1
102
RTVSPropertyOp49
 70
     1
102
RTVSPropertyOp50
 70
     1
102
RTVSPropertyOp51
 70
     0
102
RTVSPropertyOp52
 70
     0
102
RTVSPropertyOp53
 70
     1
102
RTVSPropertyOp54
 70
     1
102
RTVSPropertyOp55
 70
     1
102
RTVSPropertyOp56
 70
     1
102
RTVSPropertyOp57
 70
     1
102
RTVSPropertyOp58
 70
     1
102
RTVSPropertyOp59
 70
     1
102
RTVSPropertyOp60
 70
     1
102
RTVSPropertyOp61
 70
     1
102
RTVSPropertyOp62
 70
     1
  0
XRECORD
  5
1430
102
{ACAD_REACTORS
330
142F
102
}
330
142F
100
AcDbXrecord
280
     1
102
RTVSPost2010Prop28
280
     0
102
RTVSPost2010PropOp28
 70
     1
102
RTVSPost2010Prop29
280
     1
102
RTVSPost2010PropOp29
 70
     1
102
RTVSPost2010Prop30
280
     1
102
RTVSPost2010PropOp30
 70
     1
102
RTVSPost2010Prop31
280
     0
102
RTVSPost2010PropOp31
 70
     1
102
RTVSPost2010Prop32
280
     0
102
RTVSPost2010PropOp32
 70
     1
102
RTVSPost2010Prop33
280
     0
102
RTVSPost2010PropOp33
 70
     1
102
RTVSPost2010Prop34
280
     0
102
RTVSPost2010PropOp34
 70
     1
102
RTVSPost2010Prop35
280
     0
102
RTVSPost2010PropOp35
 70
     1
102
RTVSPost2010Prop36
280
     0
102
RTVSPost2010PropOp36
 70
     1
102
RTVSPost2010Prop37
 90
       50
102
RTVSPost2010PropOp37
 70
     1
102
RTVSPost2010Prop38
140
0.0
102
RTVSPost2010PropOp38
 70
     1
102
RTVSPost2010Prop39
140
1.0
102
RTVSPost2010PropOp39
 70
     1
102
RTVSPost2010Prop40
 90
        0
102
RTVSPost2010PropOp40
 70
     1
102
RTVSPost2010Prop41ColorIndex
 90
       18
102
RTVSPost2010Prop41ColorRGB
 90
        0
102
RTVSPost2010PropOp41
 70
     1
102
RTVSPost2010Prop42
 90
       50
102
RTVSPost2010PropOp42
 70
     1
102
RTVSPost2010Prop43
 90
        3
102
RTVSPost2010PropOp43
 70
     1
102
RTVSPost2010Prop44ColorIndex
 90
        5
102
RTVSPost2010Prop44ColorRGB
 90
      255
102
RTVSPost2010PropOp44
 70
     1
102
RTVSPost2010Prop45
280
     0
102
RTVSPost2010PropOp45
 70
     1
102
RTVSPost2010Prop46
 90
       50
102
RTVSPost2010PropOp46
 70
     1
102
RTVSPost2010Prop47
 90
       50
102
RTVSPost2010PropOp47
 70
     1
102
RTVSPost2010Prop48
 90
       50
102
RTVSPost2010PropOp48
 70
     1
102
RTVSPost2010Prop49
280
     0
102
RTVSPost2010PropOp49
 70
     1
102
RTVSPost2010Prop50
 90
       50
102
RTVSPost2010PropOp50
 70
     1
102
RTVSPost2010Prop51ColorIndex
 90
      256
102
RTVSPost2010Prop51ColorRGB
 90
-16777216
102
RTVSPost2010PropOp51
 70
     0
102
RTVSPost2010Prop52
140
1.0
102
RTVSPost2010PropOp52
 70
     0
102
RTVSPost2010Prop53
 90
        2
102
RTVSPost2010PropOp53
 70
     1
102
RTVSPost2010Prop54
  1
strokes_ogs.tif
102
RTVSPost2010PropOp54
 70
     1
102
RTVSPost2010Prop55
280
     0
102
RTVSPost2010PropOp55
 70
     1
102
RTVSPost2010Prop56
140
1.0
102
RTVSPost2010PropOp56
 70
     1
102
RTVSPost2010Prop57
140
1.0
102
RTVSPost2010PropOp57
 70
     1
102
RTVSPropertyOp0
 70
     1
102
RTVSPropertyOp1
 70
     1
102
RTVSPropertyOp2
 70
     1
102
RTVSPropertyOp3
 70
     1
102
RTVSPropertyOp4
 70
     1
102
RTVSPropertyOp5
 70
     1
102
RTVSPropertyOp6
 70
     1
102
RTVSPropertyOp7
 70
     1
102
RTVSPropertyOp8
 70
     1
102
RTVSPropertyOp9
 70
     1
102
RTVSPropertyOp10
 70
     1
102
RTVSPropertyOp11
 70
     1
102
RTVSPropertyOp12
 70
     1
102
RTVSPropertyOp13
 70
     1
102
RTVSPropertyOp14
 70
     1
102
RTVSPropertyOp15
 70
     1
102
RTVSPropertyOp16
 70
     1
102
RTVSPropertyOp17
 70
     1
102
RTVSPropertyOp18
 70
     1
102
RTVSPropertyOp19
 70
     1
102
RTVSPropertyOp20
 70
     1
102
RTVSPropertyOp21
 70
     1
102
RTVSPropertyOp22
 70
     1
102
RTVSPropertyOp23
 70
     1
102
RTVSPropertyOp24
 70
     1
102
RTVSPropertyOp25
 70
     1
102
RTVSPropertyOp26
 70
     1
102
RTVSPropertyOp27
 70
     1
102
RTVSPropertyOp28
 70
     1
102
RTVSPropertyOp29
 70
     1
102
RTVSPropertyOp30
 70
     1
102
RTVSPropertyOp31
 70
     1
102
RTVSPropertyOp32
 70
     1
102
RTVSPropertyOp33
 70
     1
102
RTVSPropertyOp34
 70
     1
102
RTVSPropertyOp35
 70
     1
102
RTVSPropertyOp36
 70
     1
102
RTVSPropertyOp37
 70
     1
102
RTVSPropertyOp38
 70
     1
102
RTVSPropertyOp39
 70
     1
102
RTVSPropertyOp40
 70
     1
102
RTVSPropertyOp41
 70
     1
102
RTVSPropertyOp42
 70
     1
102
RTVSPropertyOp43
 70
     1
102
RTVSPropertyOp44
 70
     1
102
RTVSPropertyOp45
 70
     1
102
RTVSPropertyOp46
 70
     1
102
RTVSPropertyOp47
 70
     1
102
RTVSPropertyOp48
 70
     1
102
RTVSPropertyOp49
 70
     1
102
RTVSPropertyOp50
 70
     1
102
RTVSPropertyOp51
 70
     0
102
RTVSPropertyOp52
 70
     0
102
RTVSPropertyOp53
 70
     1
102
RTVSPropertyOp54
 70
     1
102
RTVSPropertyOp55
 70
     1
102
RTVSPropertyOp56
 70
     1
102
RTVSPropertyOp57
 70
     1
102
RTVSPropertyOp58
 70
     1
102
RTVSPropertyOp59
 70
     1
102
RTVSPropertyOp60
 70
     1
102
RTVSPropertyOp61
 70
     1
102
RTVSPropertyOp62
 70
     1
  0
XRECORD
  5
142E
102
{ACAD_REACTORS
330
142D
102
}
330
142D
100
AcDbXrecord
280
     1
102
RTVSPost2010Prop28
280
     0
102
RTVSPost2010PropOp28
 70
     1
102
RTVSPost2010Prop29
280
     1
102
RTVSPost2010PropOp29
 70
     1
102
RTVSPost2010Prop30
280
     1
102
RTVSPost2010PropOp30
 70
     1
102
RTVSPost2010Prop31
280
     0
102
RTVSPost2010PropOp31
 70
     1
102
RTVSPost2010Prop32
280
     0
102
RTVSPost2010PropOp32
 70
     1
102
RTVSPost2010Prop33
280
     0
102
RTVSPost2010PropOp33
 70
     1
102
RTVSPost2010Prop34
280
     0
102
RTVSPost2010PropOp34
 70
     1
102
RTVSPost2010Prop35
280
     0
102
RTVSPost2010PropOp35
 70
     1
102
RTVSPost2010Prop36
280
     0
102
RTVSPost2010PropOp36
 70
     1
102
RTVSPost2010Prop37
 90
       50
102
RTVSPost2010PropOp37
 70
     1
102
RTVSPost2010Prop38
140
0.0
102
RTVSPost2010PropOp38
 70
     1
102
RTVSPost2010Prop39
140
1.0
102
RTVSPost2010PropOp39
 70
     1
102
RTVSPost2010Prop40
 90
        0
102
RTVSPost2010PropOp40
 70
     1
102
RTVSPost2010Prop41ColorIndex
 90
       18
102
RTVSPost2010Prop41ColorRGB
 90
        0
102
RTVSPost2010PropOp41
 70
     1
102
RTVSPost2010Prop42
 90
       50
102
RTVSPost2010PropOp42
 70
     1
102
RTVSPost2010Prop43
 90
        3
102
RTVSPost2010PropOp43
 70
     1
102
RTVSPost2010Prop44ColorIndex
 90
        5
102
RTVSPost2010Prop44ColorRGB
 90
      255
102
RTVSPost2010PropOp44
 70
     1
102
RTVSPost2010Prop45
280
     0
102
RTVSPost2010PropOp45
 70
     1
102
RTVSPost2010Prop46
 90
       50
102
RTVSPost2010PropOp46
 70
     1
102
RTVSPost2010Prop47
 90
       50
102
RTVSPost2010PropOp47
 70
     1
102
RTVSPost2010Prop48
 90
       50
102
RTVSPost2010PropOp48
 70
     1
102
RTVSPost2010Prop49
280
     0
102
RTVSPost2010PropOp49
 70
     1
102
RTVSPost2010Prop50
 90
       50
102
RTVSPost2010PropOp50
 70
     1
102
RTVSPost2010Prop51ColorIndex
 90
      256
102
RTVSPost2010Prop51ColorRGB
 90
-16777216
102
RTVSPost2010PropOp51
 70
     0
102
RTVSPost2010Prop52
140
1.0
102
RTVSPost2010PropOp52
 70
     0
102
RTVSPost2010Prop53
 90
        2
102
RTVSPost2010PropOp53
 70
     1
102
RTVSPost2010Prop54
  1
strokes_ogs.tif
102
RTVSPost2010PropOp54
 70
     1
102
RTVSPost2010Prop55
280
     0
102
RTVSPost2010PropOp55
 70
     1
102
RTVSPost2010Prop56
140
1.0
102
RTVSPost2010PropOp56
 70
     1
102
RTVSPost2010Prop57
140
1.0
102
RTVSPost2010PropOp57
 70
     1
102
RTVSPropertyOp0
 70
     1
102
RTVSPropertyOp1
 70
     1
102
RTVSPropertyOp2
 70
     1
102
RTVSPropertyOp3
 70
     1
102
RTVSPropertyOp4
 70
     1
102
RTVSPropertyOp5
 70
     1
102
RTVSPropertyOp6
 70
     1
102
RTVSPropertyOp7
 70
     1
102
RTVSPropertyOp8
 70
     1
102
RTVSPropertyOp9
 70
     1
102
RTVSPropertyOp10
 70
     1
102
RTVSPropertyOp11
 70
     1
102
RTVSPropertyOp12
 70
     1
102
RTVSPropertyOp13
 70
     1
102
RTVSPropertyOp14
 70
     1
102
RTVSPropertyOp15
 70
     1
102
RTVSPropertyOp16
 70
     1
102
RTVSPropertyOp17
 70
     1
102
RTVSPropertyOp18
 70
     1
102
RTVSPropertyOp19
 70
     1
102
RTVSPropertyOp20
 70
     1
102
RTVSPropertyOp21
 70
     1
102
RTVSPropertyOp22
 70
     1
102
RTVSPropertyOp23
 70
     1
102
RTVSPropertyOp24
 70
     1
102
RTVSPropertyOp25
 70
     1
102
RTVSPropertyOp26
 70
     1
102
RTVSPropertyOp27
 70
     1
102
RTVSPropertyOp28
 70
     1
102
RTVSPropertyOp29
 70
     1
102
RTVSPropertyOp30
 70
     1
102
RTVSPropertyOp31
 70
     1
102
RTVSPropertyOp32
 70
     1
102
RTVSPropertyOp33
 70
     1
102
RTVSPropertyOp34
 70
     1
102
RTVSPropertyOp35
 70
     1
102
RTVSPropertyOp36
 70
     1
102
RTVSPropertyOp37
 70
     1
102
RTVSPropertyOp38
 70
     1
102
RTVSPropertyOp39
 70
     1
102
RTVSPropertyOp40
 70
     1
102
RTVSPropertyOp41
 70
     1
102
RTVSPropertyOp42
 70
     1
102
RTVSPropertyOp43
 70
     1
102
RTVSPropertyOp44
 70
     1
102
RTVSPropertyOp45
 70
     1
102
RTVSPropertyOp46
 70
     1
102
RTVSPropertyOp47
 70
     1
102
RTVSPropertyOp48
 70
     1
102
RTVSPropertyOp49
 70
     1
102
RTVSPropertyOp50
 70
     1
102
RTVSPropertyOp51
 70
     0
102
RTVSPropertyOp52
 70
     0
102
RTVSPropertyOp53
 70
     1
102
RTVSPropertyOp54
 70
     1
102
RTVSPropertyOp55
 70
     1
102
RTVSPropertyOp56
 70
     1
102
RTVSPropertyOp57
 70
     1
102
RTVSPropertyOp58
 70
     1
102
RTVSPropertyOp59
 70
     1
102
RTVSPropertyOp60
 70
     1
102
RTVSPropertyOp61
 70
     1
102
RTVSPropertyOp62
 70
     1
  0
XRECORD
  5
1428
102
{ACAD_REACTORS
330
1427
102
}
330
1427
100
AcDbXrecord
280
     1
102
RTVSPost2010Prop28
280
     0
102
RTVSPost2010PropOp28
 70
     1
102
RTVSPost2010Prop29
280
     1
102
RTVSPost2010PropOp29
 70
     1
102
RTVSPost2010Prop30
280
     1
102
RTVSPost2010PropOp30
 70
     1
102
RTVSPost2010Prop31
280
     0
102
RTVSPost2010PropOp31
 70
     1
102
RTVSPost2010Prop32
280
     0
102
RTVSPost2010PropOp32
 70
     1
102
RTVSPost2010Prop33
280
     0
102
RTVSPost2010PropOp33
 70
     1
102
RTVSPost2010Prop34
280
     0
102
RTVSPost2010PropOp34
 70
     1
102
RTVSPost2010Prop35
280
     0
102
RTVSPost2010PropOp35
 70
     1
102
RTVSPost2010Prop36
280
     0
102
RTVSPost2010PropOp36
 70
     1
102
RTVSPost2010Prop37
 90
       50
102
RTVSPost2010PropOp37
 70
     1
102
RTVSPost2010Prop38
140
0.0
102
RTVSPost2010PropOp38
 70
     1
102
RTVSPost2010Prop39
140
1.0
102
RTVSPost2010PropOp39
 70
     1
102
RTVSPost2010Prop40
 90
        0
102
RTVSPost2010PropOp40
 70
     1
102
RTVSPost2010Prop41ColorIndex
 90
       18
102
RTVSPost2010Prop41ColorRGB
 90
        0
102
RTVSPost2010PropOp41
 70
     1
102
RTVSPost2010Prop42
 90
       50
102
RTVSPost2010PropOp42
 70
     1
102
RTVSPost2010Prop43
 90
        3
102
RTVSPost2010PropOp43
 70
     1
102
RTVSPost2010Prop44ColorIndex
 90
        5
102
RTVSPost2010Prop44ColorRGB
 90
      255
102
RTVSPost2010PropOp44
 70
     1
102
RTVSPost2010Prop45
280
     0
102
RTVSPost2010PropOp45
 70
     1
102
RTVSPost2010Prop46
 90
       50
102
RTVSPost2010PropOp46
 70
     1
102
RTVSPost2010Prop47
 90
       50
102
RTVSPost2010PropOp47
 70
     1
102
RTVSPost2010Prop48
 90
       50
102
RTVSPost2010PropOp48
 70
     1
102
RTVSPost2010Prop49
280
     0
102
RTVSPost2010PropOp49
 70
     1
102
RTVSPost2010Prop50
 90
       50
102
RTVSPost2010PropOp50
 70
     1
102
RTVSPost2010Prop51ColorIndex
 90
      256
102
RTVSPost2010Prop51ColorRGB
 90
-16777216
102
RTVSPost2010PropOp51
 70
     0
102
RTVSPost2010Prop52
140
1.0
102
RTVSPost2010PropOp52
 70
     0
102
RTVSPost2010Prop53
 90
        2
102
RTVSPost2010PropOp53
 70
     1
102
RTVSPost2010Prop54
  1
strokes_ogs.tif
102
RTVSPost2010PropOp54
 70
     1
102
RTVSPost2010Prop55
280
     0
102
RTVSPost2010PropOp55
 70
     1
102
RTVSPost2010Prop56
140
1.0
102
RTVSPost2010PropOp56
 70
     1
102
RTVSPost2010Prop57
140
1.0
102
RTVSPost2010PropOp57
 70
     1
102
RTVSPropertyOp0
 70
     1
102
RTVSPropertyOp1
 70
     1
102
RTVSPropertyOp2
 70
     1
102
RTVSPropertyOp3
 70
     1
102
RTVSPropertyOp4
 70
     1
102
RTVSPropertyOp5
 70
     1
102
RTVSPropertyOp6
 70
     1
102
RTVSPropertyOp7
 70
     1
102
RTVSPropertyOp8
 70
     1
102
RTVSPropertyOp9
 70
     1
102
RTVSPropertyOp10
 70
     1
102
RTVSPropertyOp11
 70
     1
102
RTVSPropertyOp12
 70
     1
102
RTVSPropertyOp13
 70
     1
102
RTVSPropertyOp14
 70
     1
102
RTVSPropertyOp15
 70
     1
102
RTVSPropertyOp16
 70
     1
102
RTVSPropertyOp17
 70
     1
102
RTVSPropertyOp18
 70
     1
102
RTVSPropertyOp19
 70
     1
102
RTVSPropertyOp20
 70
     1
102
RTVSPropertyOp21
 70
     1
102
RTVSPropertyOp22
 70
     1
102
RTVSPropertyOp23
 70
     1
102
RTVSPropertyOp24
 70
     1
102
RTVSPropertyOp25
 70
     1
102
RTVSPropertyOp26
 70
     1
102
RTVSPropertyOp27
 70
     1
102
RTVSPropertyOp28
 70
     1
102
RTVSPropertyOp29
 70
     1
102
RTVSPropertyOp30
 70
     1
102
RTVSPropertyOp31
 70
     1
102
RTVSPropertyOp32
 70
     1
102
RTVSPropertyOp33
 70
     1
102
RTVSPropertyOp34
 70
     1
102
RTVSPropertyOp35
 70
     1
102
RTVSPropertyOp36
 70
     1
102
RTVSPropertyOp37
 70
     1
102
RTVSPropertyOp38
 70
     1
102
RTVSPropertyOp39
 70
     1
102
RTVSPropertyOp40
 70
     1
102
RTVSPropertyOp41
 70
     1
102
RTVSPropertyOp42
 70
     1
102
RTVSPropertyOp43
 70
     1
102
RTVSPropertyOp44
 70
     1
102
RTVSPropertyOp45
 70
     1
102
RTVSPropertyOp46
 70
     1
102
RTVSPropertyOp47
 70
     1
102
RTVSPropertyOp48
 70
     1
102
RTVSPropertyOp49
 70
     1
102
RTVSPropertyOp50
 70
     1
102
RTVSPropertyOp51
 70
     0
102
RTVSPropertyOp52
 70
     0
102
RTVSPropertyOp53
 70
     1
102
RTVSPropertyOp54
 70
     1
102
RTVSPropertyOp55
 70
     1
102
RTVSPropertyOp56
 70
     1
102
RTVSPropertyOp57
 70
     1
102
RTVSPropertyOp58
 70
     1
102
RTVSPropertyOp59
 70
     1
102
RTVSPropertyOp60
 70
     1
102
RTVSPropertyOp61
 70
     1
102
RTVSPropertyOp62
 70
     1
  0
XRECORD
  5
142A
102
{ACAD_REACTORS
330
1429
102
}
330
1429
100
AcDbXrecord
280
     1
102
RTVSPost2010Prop28
280
     0
102
RTVSPost2010PropOp28
 70
     1
102
RTVSPost2010Prop29
280
     1
102
RTVSPost2010PropOp29
 70
     1
102
RTVSPost2010Prop30
280
     1
102
RTVSPost2010PropOp30
 70
     1
102
RTVSPost2010Prop31
280
     0
102
RTVSPost2010PropOp31
 70
     1
102
RTVSPost2010Prop32
280
     0
102
RTVSPost2010PropOp32
 70
     1
102
RTVSPost2010Prop33
280
     0
102
RTVSPost2010PropOp33
 70
     1
102
RTVSPost2010Prop34
280
     0
102
RTVSPost2010PropOp34
 70
     1
102
RTVSPost2010Prop35
280
     0
102
RTVSPost2010PropOp35
 70
     1
102
RTVSPost2010Prop36
280
     0
102
RTVSPost2010PropOp36
 70
     1
102
RTVSPost2010Prop37
 90
       50
102
RTVSPost2010PropOp37
 70
     1
102
RTVSPost2010Prop38
140
0.0
102
RTVSPost2010PropOp38
 70
     1
102
RTVSPost2010Prop39
140
1.0
102
RTVSPost2010PropOp39
 70
     1
102
RTVSPost2010Prop40
 90
        0
102
RTVSPost2010PropOp40
 70
     1
102
RTVSPost2010Prop41ColorIndex
 90
       18
102
RTVSPost2010Prop41ColorRGB
 90
        0
102
RTVSPost2010PropOp41
 70
     1
102
RTVSPost2010Prop42
 90
       50
102
RTVSPost2010PropOp42
 70
     1
102
RTVSPost2010Prop43
 90
        3
102
RTVSPost2010PropOp43
 70
     1
102
RTVSPost2010Prop44ColorIndex
 90
        5
102
RTVSPost2010Prop44ColorRGB
 90
      255
102
RTVSPost2010PropOp44
 70
     1
102
RTVSPost2010Prop45
280
     0
102
RTVSPost2010PropOp45
 70
     1
102
RTVSPost2010Prop46
 90
       50
102
RTVSPost2010PropOp46
 70
     1
102
RTVSPost2010Prop47
 90
       50
102
RTVSPost2010PropOp47
 70
     1
102
RTVSPost2010Prop48
 90
       50
102
RTVSPost2010PropOp48
 70
     1
102
RTVSPost2010Prop49
280
     0
102
RTVSPost2010PropOp49
 70
     1
102
RTVSPost2010Prop50
 90
       50
102
RTVSPost2010PropOp50
 70
     1
102
RTVSPost2010Prop51ColorIndex
 90
      256
102
RTVSPost2010Prop51ColorRGB
 90
-16777216
102
RTVSPost2010PropOp51
 70
     0
102
RTVSPost2010Prop52
140
1.0
102
RTVSPost2010PropOp52
 70
     0
102
RTVSPost2010Prop53
 90
        2
102
RTVSPost2010PropOp53
 70
     1
102
RTVSPost2010Prop54
  1
strokes_ogs.tif
102
RTVSPost2010PropOp54
 70
     1
102
RTVSPost2010Prop55
280
     0
102
RTVSPost2010PropOp55
 70
     1
102
RTVSPost2010Prop56
140
1.0
102
RTVSPost2010PropOp56
 70
     1
102
RTVSPost2010Prop57
140
1.0
102
RTVSPost2010PropOp57
 70
     1
102
RTVSPropertyOp0
 70
     1
102
RTVSPropertyOp1
 70
     1
102
RTVSPropertyOp2
 70
     1
102
RTVSPropertyOp3
 70
     1
102
RTVSPropertyOp4
 70
     1
102
RTVSPropertyOp5
 70
     1
102
RTVSPropertyOp6
 70
     1
102
RTVSPropertyOp7
 70
     1
102
RTVSPropertyOp8
 70
     1
102
RTVSPropertyOp9
 70
     1
102
RTVSPropertyOp10
 70
     1
102
RTVSPropertyOp11
 70
     1
102
RTVSPropertyOp12
 70
     1
102
RTVSPropertyOp13
 70
     1
102
RTVSPropertyOp14
 70
     1
102
RTVSPropertyOp15
 70
     1
102
RTVSPropertyOp16
 70
     1
102
RTVSPropertyOp17
 70
     1
102
RTVSPropertyOp18
 70
     1
102
RTVSPropertyOp19
 70
     1
102
RTVSPropertyOp20
 70
     1
102
RTVSPropertyOp21
 70
     1
102
RTVSPropertyOp22
 70
     1
102
RTVSPropertyOp23
 70
     1
102
RTVSPropertyOp24
 70
     1
102
RTVSPropertyOp25
 70
     1
102
RTVSPropertyOp26
 70
     1
102
RTVSPropertyOp27
 70
     1
102
RTVSPropertyOp28
 70
     1
102
RTVSPropertyOp29
 70
     1
102
RTVSPropertyOp30
 70
     1
102
RTVSPropertyOp31
 70
     1
102
RTVSPropertyOp32
 70
     1
102
RTVSPropertyOp33
 70
     1
102
RTVSPropertyOp34
 70
     1
102
RTVSPropertyOp35
 70
     1
102
RTVSPropertyOp36
 70
     1
102
RTVSPropertyOp37
 70
     1
102
RTVSPropertyOp38
 70
     1
102
RTVSPropertyOp39
 70
     1
102
RTVSPropertyOp40
 70
     1
102
RTVSPropertyOp41
 70
     1
102
RTVSPropertyOp42
 70
     1
102
RTVSPropertyOp43
 70
     1
102
RTVSPropertyOp44
 70
     1
102
RTVSPropertyOp45
 70
     1
102
RTVSPropertyOp46
 70
     1
102
RTVSPropertyOp47
 70
     1
102
RTVSPropertyOp48
 70
     1
102
RTVSPropertyOp49
 70
     1
102
RTVSPropertyOp50
 70
     1
102
RTVSPropertyOp51
 70
     0
102
RTVSPropertyOp52
 70
     0
102
RTVSPropertyOp53
 70
     1
102
RTVSPropertyOp54
 70
     1
102
RTVSPropertyOp55
 70
     1
102
RTVSPropertyOp56
 70
     1
102
RTVSPropertyOp57
 70
     1
102
RTVSPropertyOp58
 70
     1
102
RTVSPropertyOp59
 70
     1
102
RTVSPropertyOp60
 70
     1
102
RTVSPropertyOp61
 70
     1
102
RTVSPropertyOp62
 70
     1
  0
XRECORD
  5
1420
102
{ACAD_REACTORS
330
141F
102
}
330
141F
100
AcDbXrecord
280
     1
102
RTVSPost2010Prop28
280
     0
102
RTVSPost2010PropOp28
 70
     1
102
RTVSPost2010Prop29
280
     1
102
RTVSPost2010PropOp29
 70
     1
102
RTVSPost2010Prop30
280
     1
102
RTVSPost2010PropOp30
 70
     1
102
RTVSPost2010Prop31
280
     0
102
RTVSPost2010PropOp31
 70
     1
102
RTVSPost2010Prop32
280
     0
102
RTVSPost2010PropOp32
 70
     1
102
RTVSPost2010Prop33
280
     0
102
RTVSPost2010PropOp33
 70
     1
102
RTVSPost2010Prop34
280
     0
102
RTVSPost2010PropOp34
 70
     1
102
RTVSPost2010Prop35
280
     0
102
RTVSPost2010PropOp35
 70
     1
102
RTVSPost2010Prop36
280
     0
102
RTVSPost2010PropOp36
 70
     1
102
RTVSPost2010Prop37
 90
       50
102
RTVSPost2010PropOp37
 70
     1
102
RTVSPost2010Prop38
140
0.0
102
RTVSPost2010PropOp38
 70
     1
102
RTVSPost2010Prop39
140
1.0
102
RTVSPost2010PropOp39
 70
     1
102
RTVSPost2010Prop40
 90
        0
102
RTVSPost2010PropOp40
 70
     1
102
RTVSPost2010Prop41ColorIndex
 90
       18
102
RTVSPost2010Prop41ColorRGB
 90
        0
102
RTVSPost2010PropOp41
 70
     1
102
RTVSPost2010Prop42
 90
       50
102
RTVSPost2010PropOp42
 70
     1
102
RTVSPost2010Prop43
 90
        3
102
RTVSPost2010PropOp43
 70
     1
102
RTVSPost2010Prop44ColorIndex
 90
        5
102
RTVSPost2010Prop44ColorRGB
 90
      255
102
RTVSPost2010PropOp44
 70
     1
102
RTVSPost2010Prop45
280
     0
102
RTVSPost2010PropOp45
 70
     1
102
RTVSPost2010Prop46
 90
       50
102
RTVSPost2010PropOp46
 70
     1
102
RTVSPost2010Prop47
 90
       50
102
RTVSPost2010PropOp47
 70
     1
102
RTVSPost2010Prop48
 90
       50
102
RTVSPost2010PropOp48
 70
     1
102
RTVSPost2010Prop49
280
     0
102
RTVSPost2010PropOp49
 70
     1
102
RTVSPost2010Prop50
 90
       50
102
RTVSPost2010PropOp50
 70
     1
102
RTVSPost2010Prop51ColorIndex
 90
      256
102
RTVSPost2010Prop51ColorRGB
 90
-16777216
102
RTVSPost2010PropOp51
 70
     0
102
RTVSPost2010Prop52
140
1.0
102
RTVSPost2010PropOp52
 70
     0
102
RTVSPost2010Prop53
 90
        2
102
RTVSPost2010PropOp53
 70
     1
102
RTVSPost2010Prop54
  1
strokes_ogs.tif
102
RTVSPost2010PropOp54
 70
     1
102
RTVSPost2010Prop55
280
     0
102
RTVSPost2010PropOp55
 70
     1
102
RTVSPost2010Prop56
140
1.0
102
RTVSPost2010PropOp56
 70
     1
102
RTVSPost2010Prop57
140
1.0
102
RTVSPost2010PropOp57
 70
     1
102
RTVSPropertyOp0
 70
     1
102
RTVSPropertyOp1
 70
     1
102
RTVSPropertyOp2
 70
     1
102
RTVSPropertyOp3
 70
     1
102
RTVSPropertyOp4
 70
     1
102
RTVSPropertyOp5
 70
     1
102
RTVSPropertyOp6
 70
     1
102
RTVSPropertyOp7
 70
     1
102
RTVSPropertyOp8
 70
     1
102
RTVSPropertyOp9
 70
     1
102
RTVSPropertyOp10
 70
     1
102
RTVSPropertyOp11
 70
     1
102
RTVSPropertyOp12
 70
     1
102
RTVSPropertyOp13
 70
     1
102
RTVSPropertyOp14
 70
     1
102
RTVSPropertyOp15
 70
     1
102
RTVSPropertyOp16
 70
     1
102
RTVSPropertyOp17
 70
     1
102
RTVSPropertyOp18
 70
     1
102
RTVSPropertyOp19
 70
     1
102
RTVSPropertyOp20
 70
     1
102
RTVSPropertyOp21
 70
     1
102
RTVSPropertyOp22
 70
     1
102
RTVSPropertyOp23
 70
     1
102
RTVSPropertyOp24
 70
     1
102
RTVSPropertyOp25
 70
     1
102
RTVSPropertyOp26
 70
     1
102
RTVSPropertyOp27
 70
     1
102
RTVSPropertyOp28
 70
     1
102
RTVSPropertyOp29
 70
     1
102
RTVSPropertyOp30
 70
     1
102
RTVSPropertyOp31
 70
     1
102
RTVSPropertyOp32
 70
     1
102
RTVSPropertyOp33
 70
     1
102
RTVSPropertyOp34
 70
     1
102
RTVSPropertyOp35
 70
     1
102
RTVSPropertyOp36
 70
     1
102
RTVSPropertyOp37
 70
     1
102
RTVSPropertyOp38
 70
     1
102
RTVSPropertyOp39
 70
     1
102
RTVSPropertyOp40
 70
     1
102
RTVSPropertyOp41
 70
     1
102
RTVSPropertyOp42
 70
     1
102
RTVSPropertyOp43
 70
     1
102
RTVSPropertyOp44
 70
     1
102
RTVSPropertyOp45
 70
     1
102
RTVSPropertyOp46
 70
     1
102
RTVSPropertyOp47
 70
     1
102
RTVSPropertyOp48
 70
     1
102
RTVSPropertyOp49
 70
     1
102
RTVSPropertyOp50
 70
     1
102
RTVSPropertyOp51
 70
     0
102
RTVSPropertyOp52
 70
     0
102
RTVSPropertyOp53
 70
     1
102
RTVSPropertyOp54
 70
     1
102
RTVSPropertyOp55
 70
     1
102
RTVSPropertyOp56
 70
     1
102
RTVSPropertyOp57
 70
     1
102
RTVSPropertyOp58
 70
     1
102
RTVSPropertyOp59
 70
     1
102
RTVSPropertyOp60
 70
     1
102
RTVSPropertyOp61
 70
     1
102
RTVSPropertyOp62
 70
     1
  0
XRECORD
  5
1414
102
{ACAD_REACTORS
330
1413
102
}
330
1413
100
AcDbXrecord
280
     1
102
RTVSPost2010Prop28
280
     0
102
RTVSPost2010PropOp28
 70
     1
102
RTVSPost2010Prop29
280
     1
102
RTVSPost2010PropOp29
 70
     1
102
RTVSPost2010Prop30
280
     1
102
RTVSPost2010PropOp30
 70
     1
102
RTVSPost2010Prop31
280
     0
102
RTVSPost2010PropOp31
 70
     1
102
RTVSPost2010Prop32
280
     0
102
RTVSPost2010PropOp32
 70
     1
102
RTVSPost2010Prop33
280
     0
102
RTVSPost2010PropOp33
 70
     1
102
RTVSPost2010Prop34
280
     0
102
RTVSPost2010PropOp34
 70
     1
102
RTVSPost2010Prop35
280
     0
102
RTVSPost2010PropOp35
 70
     1
102
RTVSPost2010Prop36
280
     0
102
RTVSPost2010PropOp36
 70
     1
102
RTVSPost2010Prop37
 90
       50
102
RTVSPost2010PropOp37
 70
     1
102
RTVSPost2010Prop38
140
0.0
102
RTVSPost2010PropOp38
 70
     1
102
RTVSPost2010Prop39
140
1.0
102
RTVSPost2010PropOp39
 70
     1
102
RTVSPost2010Prop40
 90
        0
102
RTVSPost2010PropOp40
 70
     1
102
RTVSPost2010Prop41ColorIndex
 90
       18
102
RTVSPost2010Prop41ColorRGB
 90
        0
102
RTVSPost2010PropOp41
 70
     1
102
RTVSPost2010Prop42
 90
       50
102
RTVSPost2010PropOp42
 70
     1
102
RTVSPost2010Prop43
 90
        3
102
RTVSPost2010PropOp43
 70
     1
102
RTVSPost2010Prop44ColorIndex
 90
        5
102
RTVSPost2010Prop44ColorRGB
 90
      255
102
RTVSPost2010PropOp44
 70
     1
102
RTVSPost2010Prop45
280
     0
102
RTVSPost2010PropOp45
 70
     1
102
RTVSPost2010Prop46
 90
       50
102
RTVSPost2010PropOp46
 70
     1
102
RTVSPost2010Prop47
 90
       50
102
RTVSPost2010PropOp47
 70
     1
102
RTVSPost2010Prop48
 90
       50
102
RTVSPost2010PropOp48
 70
     1
102
RTVSPost2010Prop49
280
     0
102
RTVSPost2010PropOp49
 70
     1
102
RTVSPost2010Prop50
 90
       50
102
RTVSPost2010PropOp50
 70
     1
102
RTVSPost2010Prop51ColorIndex
 90
      256
102
RTVSPost2010Prop51ColorRGB
 90
-16777216
102
RTVSPost2010PropOp51
 70
     0
102
RTVSPost2010Prop52
140
1.0
102
RTVSPost2010PropOp52
 70
     0
102
RTVSPost2010Prop53
 90
        2
102
RTVSPost2010PropOp53
 70
     1
102
RTVSPost2010Prop54
  1
strokes_ogs.tif
102
RTVSPost2010PropOp54
 70
     1
102
RTVSPost2010Prop55
280
     0
102
RTVSPost2010PropOp55
 70
     1
102
RTVSPost2010Prop56
140
1.0
102
RTVSPost2010PropOp56
 70
     1
102
RTVSPost2010Prop57
140
1.0
102
RTVSPost2010PropOp57
 70
     1
102
RTVSPropertyOp0
 70
     1
102
RTVSPropertyOp1
 70
     1
102
RTVSPropertyOp2
 70
     1
102
RTVSPropertyOp3
 70
     1
102
RTVSPropertyOp4
 70
     1
102
RTVSPropertyOp5
 70
     1
102
RTVSPropertyOp6
 70
     1
102
RTVSPropertyOp7
 70
     1
102
RTVSPropertyOp8
 70
     1
102
RTVSPropertyOp9
 70
     1
102
RTVSPropertyOp10
 70
     1
102
RTVSPropertyOp11
 70
     1
102
RTVSPropertyOp12
 70
     1
102
RTVSPropertyOp13
 70
     1
102
RTVSPropertyOp14
 70
     1
102
RTVSPropertyOp15
 70
     1
102
RTVSPropertyOp16
 70
     1
102
RTVSPropertyOp17
 70
     1
102
RTVSPropertyOp18
 70
     1
102
RTVSPropertyOp19
 70
     1
102
RTVSPropertyOp20
 70
     1
102
RTVSPropertyOp21
 70
     1
102
RTVSPropertyOp22
 70
     1
102
RTVSPropertyOp23
 70
     1
102
RTVSPropertyOp24
 70
     1
102
RTVSPropertyOp25
 70
     1
102
RTVSPropertyOp26
 70
     1
102
RTVSPropertyOp27
 70
     1
102
RTVSPropertyOp28
 70
     1
102
RTVSPropertyOp29
 70
     1
102
RTVSPropertyOp30
 70
     1
102
RTVSPropertyOp31
 70
     1
102
RTVSPropertyOp32
 70
     1
102
RTVSPropertyOp33
 70
     1
102
RTVSPropertyOp34
 70
     1
102
RTVSPropertyOp35
 70
     1
102
RTVSPropertyOp36
 70
     1
102
RTVSPropertyOp37
 70
     1
102
RTVSPropertyOp38
 70
     1
102
RTVSPropertyOp39
 70
     1
102
RTVSPropertyOp40
 70
     1
102
RTVSPropertyOp41
 70
     1
102
RTVSPropertyOp42
 70
     1
102
RTVSPropertyOp43
 70
     1
102
RTVSPropertyOp44
 70
     1
102
RTVSPropertyOp45
 70
     1
102
RTVSPropertyOp46
 70
     1
102
RTVSPropertyOp47
 70
     1
102
RTVSPropertyOp48
 70
     1
102
RTVSPropertyOp49
 70
     1
102
RTVSPropertyOp50
 70
     1
102
RTVSPropertyOp51
 70
     0
102
RTVSPropertyOp52
 70
     0
102
RTVSPropertyOp53
 70
     1
102
RTVSPropertyOp54
 70
     1
102
RTVSPropertyOp55
 70
     1
102
RTVSPropertyOp56
 70
     1
102
RTVSPropertyOp57
 70
     1
102
RTVSPropertyOp58
 70
     1
102
RTVSPropertyOp59
 70
     1
102
RTVSPropertyOp60
 70
     1
102
RTVSPropertyOp61
 70
     1
102
RTVSPropertyOp62
 70
     1
  0
XRECORD
  5
142C
102
{ACAD_REACTORS
330
142B
102
}
330
142B
100
AcDbXrecord
280
     1
102
RTVSPost2010Prop28
280
     0
102
RTVSPost2010PropOp28
 70
     1
102
RTVSPost2010Prop29
280
     1
102
RTVSPost2010PropOp29
 70
     1
102
RTVSPost2010Prop30
280
     1
102
RTVSPost2010PropOp30
 70
     1
102
RTVSPost2010Prop31
280
     0
102
RTVSPost2010PropOp31
 70
     1
102
RTVSPost2010Prop32
280
     0
102
RTVSPost2010PropOp32
 70
     1
102
RTVSPost2010Prop33
280
     0
102
RTVSPost2010PropOp33
 70
     1
102
RTVSPost2010Prop34
280
     0
102
RTVSPost2010PropOp34
 70
     1
102
RTVSPost2010Prop35
280
     0
102
RTVSPost2010PropOp35
 70
     1
102
RTVSPost2010Prop36
280
     0
102
RTVSPost2010PropOp36
 70
     1
102
RTVSPost2010Prop37
 90
       50
102
RTVSPost2010PropOp37
 70
     1
102
RTVSPost2010Prop38
140
0.0
102
RTVSPost2010PropOp38
 70
     1
102
RTVSPost2010Prop39
140
1.0
102
RTVSPost2010PropOp39
 70
     1
102
RTVSPost2010Prop40
 90
        0
102
RTVSPost2010PropOp40
 70
     1
102
RTVSPost2010Prop41ColorIndex
 90
       18
102
RTVSPost2010Prop41ColorRGB
 90
        0
102
RTVSPost2010PropOp41
 70
     1
102
RTVSPost2010Prop42
 90
       50
102
RTVSPost2010PropOp42
 70
     1
102
RTVSPost2010Prop43
 90
        3
102
RTVSPost2010PropOp43
 70
     1
102
RTVSPost2010Prop44ColorIndex
 90
        5
102
RTVSPost2010Prop44ColorRGB
 90
      255
102
RTVSPost2010PropOp44
 70
     1
102
RTVSPost2010Prop45
280
     0
102
RTVSPost2010PropOp45
 70
     1
102
RTVSPost2010Prop46
 90
       50
102
RTVSPost2010PropOp46
 70
     1
102
RTVSPost2010Prop47
 90
       50
102
RTVSPost2010PropOp47
 70
     1
102
RTVSPost2010Prop48
 90
       50
102
RTVSPost2010PropOp48
 70
     1
102
RTVSPost2010Prop49
280
     0
102
RTVSPost2010PropOp49
 70
     1
102
RTVSPost2010Prop50
 90
       50
102
RTVSPost2010PropOp50
 70
     1
102
RTVSPost2010Prop51ColorIndex
 90
      256
102
RTVSPost2010Prop51ColorRGB
 90
-16777216
102
RTVSPost2010PropOp51
 70
     0
102
RTVSPost2010Prop52
140
1.0
102
RTVSPost2010PropOp52
 70
     0
102
RTVSPost2010Prop53
 90
        2
102
RTVSPost2010PropOp53
 70
     1
102
RTVSPost2010Prop54
  1
strokes_ogs.tif
102
RTVSPost2010PropOp54
 70
     1
102
RTVSPost2010Prop55
280
     0
102
RTVSPost2010PropOp55
 70
     1
102
RTVSPost2010Prop56
140
1.0
102
RTVSPost2010PropOp56
 70
     1
102
RTVSPost2010Prop57
140
1.0
102
RTVSPost2010PropOp57
 70
     1
102
RTVSPropertyOp0
 70
     1
102
RTVSPropertyOp1
 70
     1
102
RTVSPropertyOp2
 70
     1
102
RTVSPropertyOp3
 70
     1
102
RTVSPropertyOp4
 70
     1
102
RTVSPropertyOp5
 70
     1
102
RTVSPropertyOp6
 70
     1
102
RTVSPropertyOp7
 70
     1
102
RTVSPropertyOp8
 70
     1
102
RTVSPropertyOp9
 70
     1
102
RTVSPropertyOp10
 70
     1
102
RTVSPropertyOp11
 70
     1
102
RTVSPropertyOp12
 70
     1
102
RTVSPropertyOp13
 70
     1
102
RTVSPropertyOp14
 70
     1
102
RTVSPropertyOp15
 70
     1
102
RTVSPropertyOp16
 70
     1
102
RTVSPropertyOp17
 70
     1
102
RTVSPropertyOp18
 70
     1
102
RTVSPropertyOp19
 70
     1
102
RTVSPropertyOp20
 70
     1
102
RTVSPropertyOp21
 70
     1
102
RTVSPropertyOp22
 70
     1
102
RTVSPropertyOp23
 70
     1
102
RTVSPropertyOp24
 70
     1
102
RTVSPropertyOp25
 70
     1
102
RTVSPropertyOp26
 70
     1
102
RTVSPropertyOp27
 70
     1
102
RTVSPropertyOp28
 70
     1
102
RTVSPropertyOp29
 70
     1
102
RTVSPropertyOp30
 70
     1
102
RTVSPropertyOp31
 70
     1
102
RTVSPropertyOp32
 70
     1
102
RTVSPropertyOp33
 70
     1
102
RTVSPropertyOp34
 70
     1
102
RTVSPropertyOp35
 70
     1
102
RTVSPropertyOp36
 70
     1
102
RTVSPropertyOp37
 70
     1
102
RTVSPropertyOp38
 70
     1
102
RTVSPropertyOp39
 70
     1
102
RTVSPropertyOp40
 70
     1
102
RTVSPropertyOp41
 70
     1
102
RTVSPropertyOp42
 70
     1
102
RTVSPropertyOp43
 70
     1
102
RTVSPropertyOp44
 70
     1
102
RTVSPropertyOp45
 70
     1
102
RTVSPropertyOp46
 70
     1
102
RTVSPropertyOp47
 70
     1
102
RTVSPropertyOp48
 70
     1
102
RTVSPropertyOp49
 70
     1
102
RTVSPropertyOp50
 70
     1
102
RTVSPropertyOp51
 70
     0
102
RTVSPropertyOp52
 70
     0
102
RTVSPropertyOp53
 70
     1
102
RTVSPropertyOp54
 70
     1
102
RTVSPropertyOp55
 70
     1
102
RTVSPropertyOp56
 70
     1
102
RTVSPropertyOp57
 70
     1
102
RTVSPropertyOp58
 70
     1
102
RTVSPropertyOp59
 70
     1
102
RTVSPropertyOp60
 70
     1
102
RTVSPropertyOp61
 70
     1
102
RTVSPropertyOp62
 70
     1
  0
ENDSEC
  0
EOF
