  0
SECTION
  2
HEADER
  9
$ACADVER
  1
AC1018
  9
$ACADMAINTVER
 70
     2
  9
$DWGCODEPAGE
  3
ANSI_1252
  9
$INSBASE
 10
0.0
 20
0.0
 30
0.0
  9
$EXTMIN
 10
0.0
 20
0.0
 30
0.0
  9
$EXTMAX
 10
840.0
 20
594.0
 30
0.0
  9
$LIMMIN
 10
0.0
 20
0.0
  9
$LIMMAX
 10
840.0
 20
594.0
  9
$ORTHOMODE
 70
     1
  9
$REGENMODE
 70
     1
  9
$FILLMODE
 70
     1
  9
$QTEXTMODE
 70
     0
  9
$MIRRTEXT
 70
     1
  9
$LTSCALE
 40
20.0
  9
$ATTMODE
 70
     1
  9
$TEXTSIZE
 40
3.5
  9
$TRACEWID
 40
1.0
  9
$TEXTSTYLE
  7
STANDARD
  9
$CLAYER
  8
VOLL
  9
$CELTYPE
  6
ByLayer
  9
$CECOLOR
 62
   256
  9
$CELTSCALE
 40
1.0
  9
$DISPSILH
 70
     0
  9
$DIMSCALE
 40
2.0
  9
$DIMASZ
 40
3.5
  9
$DIMEXO
 40
1.0
  9
$DIMDLI
 40
7.0
  9
$DIMRND
 40
0.0
  9
$DIMDLE
 40
0.0
  9
$DIMEXE
 40
1.0
  9
$DIMTP
 40
0.0
  9
$DIMTM
 40
0.0
  9
$DIMTXT
 40
3.5
  9
$DIMCEN
 40
1.5
  9
$DIMTSZ
 40
0.0
  9
$DIMTOL
 70
     0
  9
$DIMLIM
 70
     0
  9
$DIMTIH
 70
     0
  9
$DIMTOH
 70
     0
  9
$DIMSE1
 70
     0
  9
$DIMSE2
 70
     0
  9
$DIMTAD
 70
     1
  9
$DIMZIN
 70
     8
  9
$DIMBLK
  1

  9
$DIMASO
 70
     1
  9
$DIMSHO
 70
     0
  9
$DIMPOST
  1

  9
$DIMAPOST
  1

  9
$DIMALT
 70
     0
  9
$DIMALTD
 70
     2
  9
$DIMALTF
 40
25.4
  9
$DIMLFAC
 40
1.0
  9
$DIMTOFL
 70
     1
  9
$DIMTVP
 40
0.0
  9
$DIMTIX
 70
     0
  9
$DIMSOXD
 70
     0
  9
$DIMSAH
 70
     0
  9
$DIMBLK1
  1

  9
$DIMBLK2
  1

  9
$DIMSTYLE
  2
Standard
  9
$DIMCLRD
 70
     0
  9
$DIMCLRE
 70
     0
  9
$DIMCLRT
 70
     1
  9
$DIMTFAC
 40
0.5
  9
$DIMGAP
 40
1.5
  9
$DIMJUST
 70
     0
  9
$DIMSD1
 70
     0
  9
$DIMSD2
 70
     0
  9
$DIMTOLJ
 70
     1
  9
$DIMTZIN
 70
     8
  9
$DIMALTZ
 70
     8
  9
$DIMALTTZ
 70
     8
  9
$DIMUPT
 70
     0
  9
$DIMDEC
 70
     2
  9
$DIMTDEC
 70
     2
  9
$DIMALTU
 70
     2
  9
$DIMALTTD
 70
     2
  9
$DIMTXSTY
  7
STANDARD
  9
$DIMAUNIT
 70
     0
  9
$DIMADEC
 70
     2
  9
$DIMALTRND
 40
0.0
  9
$DIMAZIN
 70
     2
  9
$DIMDSEP
 70
    46
  9
$DIMATFIT
 70
     3
  9
$DIMFRAC
 70
     0
  9
$DIMLDRBLK
  1

  9
$DIMLUNIT
 70
     2
  9
$DIMLWD
 70
    -2
  9
$DIMLWE
 70
    -2
  9
$DIMTMOVE
 70
     0
  9
$LUNITS
 70
     2
  9
$LUPREC
 70
     2
  9
$SKETCHINC
 40
1.0
  9
$FILLETRAD
 40
0.0
  9
$AUNITS
 70
     0
  9
$AUPREC
 70
     0
  9
$MENU
  1
ACAD
  9
$ELEVATION
 40
0.0
  9
$PELEVATION
 40
0.0
  9
$THICKNESS
 40
0.0
  9
$LIMCHECK
 70
     0
  9
$CHAMFERA
 40
0.0
  9
$CHAMFERB
 40
0.0
  9
$CHAMFERC
 40
0.0
  9
$CHAMFERD
 40
0.0
  9
$SKPOLY
 70
     0
  9
$TDCREATE
 40
2455397.867059838
  9
$TDUCREATE
 40
2455397.783726505
  9
$TDUPDATE
 40
2455859.405363449
  9
$TDUUPDATE
 40
2455859.322030116
  9
$TDINDWG
 40
0.0478477778
  9
$TDUSRTIMER
 40
0.0478477778
  9
$USRTIMER
 70
     1
  9
$ANGBASE
 50
0.0
  9
$ANGDIR
 70
     0
  9
$PDMODE
 70
     0
  9
$PDSIZE
 40
0.0
  9
$PLINEWID
 40
0.0
  9
$SPLFRAME
 70
     0
  9
$SPLINETYPE
 70
     6
  9
$SPLINESEGS
 70
     8
  9
$HANDSEED
  5
6D6
  9
$SURFTAB1
 70
     6
  9
$SURFTAB2
 70
     6
  9
$SURFTYPE
 70
     6
  9
$SURFU
 70
     6
  9
$SURFV
 70
     6
  9
$UCSBASE
  2

  9
$UCSNAME
  2

  9
$UCSORG
 10
0.0
 20
0.0
 30
0.0
  9
$UCSXDIR
 10
1.0
 20
0.0
 30
0.0
  9
$UCSYDIR
 10
0.0
 20
1.0
 30
0.0
  9
$UCSORTHOREF
  2

  9
$UCSORTHOVIEW
 70
     0
  9
$UCSORGTOP
 10
0.0
 20
0.0
 30
0.0
  9
$UCSORGBOTTOM
 10
0.0
 20
0.0
 30
0.0
  9
$UCSORGLEFT
 10
0.0
 20
0.0
 30
0.0
  9
$UCSORGRIGHT
 10
0.0
 20
0.0
 30
0.0
  9
$UCSORGFRONT
 10
0.0
 20
0.0
 30
0.0
  9
$UCSORGBACK
 10
0.0
 20
0.0
 30
0.0
  9
$PUCSBASE
  2

  9
$PUCSNAME
  2

  9
$PUCSORG
 10
0.0
 20
0.0
 30
0.0
  9
$PUCSXDIR
 10
1.0
 20
0.0
 30
0.0
  9
$PUCSYDIR
 10
0.0
 20
1.0
 30
0.0
  9
$PUCSORTHOREF
  2

  9
$PUCSORTHOVIEW
 70
     0
  9
$PUCSORGTOP
 10
0.0
 20
0.0
 30
0.0
  9
$PUCSORGBOTTOM
 10
0.0
 20
0.0
 30
0.0
  9
$PUCSORGLEFT
 10
0.0
 20
0.0
 30
0.0
  9
$PUCSORGRIGHT
 10
0.0
 20
0.0
 30
0.0
  9
$PUCSORGFRONT
 10
0.0
 20
0.0
 30
0.0
  9
$PUCSORGBACK
 10
0.0
 20
0.0
 30
0.0
  9
$USERI1
 70
     0
  9
$USERI2
 70
     0
  9
$USERI3
 70
     0
  9
$USERI4
 70
     0
  9
$USERI5
 70
     0
  9
$USERR1
 40
0.0
  9
$USERR2
 40
0.0
  9
$USERR3
 40
0.0
  9
$USERR4
 40
0.0
  9
$USERR5
 40
0.0
  9
$WORLDVIEW
 70
     1
  9
$SHADEDGE
 70
     3
  9
$SHADEDIF
 70
    70
  9
$TILEMODE
 70
     1
  9
$MAXACTVP
 70
    16
  9
$PINSBASE
 10
0.0
 20
0.0
 30
0.0
  9
$PLIMCHECK
 70
     0
  9
$PEXTMIN
 10
1.000000000000000E+20
 20
1.000000000000000E+20
 30
1.000000000000000E+20
  9
$PEXTMAX
 10
-1.000000000000000E+20
 20
-1.000000000000000E+20
 30
-1.000000000000000E+20
  9
$PLIMMIN
 10
0.0
 20
0.0
  9
$PLIMMAX
 10
12.0
 20
9.0
  9
$UNITMODE
 70
     0
  9
$VISRETAIN
 70
     0
  9
$PLINEGEN
 70
     0
  9
$PSLTSCALE
 70
     0
  9
$TREEDEPTH
 70
  3020
  9
$CMLSTYLE
  2
Standard
  9
$CMLJUST
 70
     0
  9
$CMLSCALE
 40
1.0
  9
$PROXYGRAPHICS
 70
     1
  9
$MEASUREMENT
 70
     0
  9
$CELWEIGHT
370
    -1
  9
$ENDCAPS
280
     0
  9
$JOINSTYLE
280
     0
  9
$LWDISPLAY
290
     0
  9
$INSUNITS
 70
     0
  9
$HYPERLINKBASE
  1

  9
$STYLESHEET
  1
monochrome1.ctb
  9
$XEDIT
290
     1
  9
$CEPSNTYPE
380
     0
  9
$PSTYLEMODE
290
     1
  9
$FINGERPRINTGUID
  2
{D68B0D0D-A558-11D7-B632-000102183313}
  9
$VERSIONGUID
  2
{B94231A3-57BF-49B1-88D1-8004390AD1BE}
  9
$EXTNAMES
290
     1
  9
$PSVPSCALE
 40
0.0
  9
$OLESTARTUP
290
     0
  9
$SORTENTS
280
   127
  9
$INDEXCTL
280
     0
  9
$HIDETEXT
280
     0
  9
$XCLIPFRAME
290
     0
  9
$HALOGAP
280
     0
  9
$OBSCOLOR
 70
   257
  9
$OBSLTYPE
280
     0
  9
$INTERSECTIONDISPLAY
280
     0
  9
$INTERSECTIONCOLOR
 70
   257
  9
$DIMASSOC
280
     1
  9
$PROJECTNAME
  1

  0
ENDSEC
  0
SECTION
  2
CLASSES
  0
CLASS
  1
ACDBDICTIONARYWDFLT
  2
AcDbDictionaryWithDefault
  3
ObjectDBX Classes
 90
        0
 91
        1
280
     0
281
     0
  0
CLASS
  1
DICTIONARYVAR
  2
AcDbDictionaryVar
  3
ObjectDBX Classes
 90
        0
 91
        2
280
     0
281
     0
  0
CLASS
  1
DIMASSOC
  2
AcDbDimAssoc
  3
"AcDbDimAssoc|Product Desc:     AcDim ARX App For Dimension|Company:          Autodesk, Inc.|WEB Address:      www.autodesk.com"
 90
        0
 91
        1
280
     0
281
     0
  0
ENDSEC
  0
SECTION
  2
TABLES
  0
TABLE
  2
VPORT
  5
8
330
0
100
AcDbSymbolTable
 70
     2
  0
VPORT
  5
6D5
330
8
100
AcDbSymbolTableRecord
100
AcDbViewportTableRecord
  2
*Active
 70
     0
 10
0.0
 20
0.0
 11
1.0
 21
1.0
 12
420.0
 22
297.0
 13
0.0
 23
0.0
 14
1.0
 24
1.0
 15
10.0
 25
10.0
 16
0.0
 26
0.0
 36
1.0
 17
0.0
 27
0.0
 37
0.0
 40
615.8893280632411
 41
1.36388140161725
 42
50.0
 43
0.0
 44
0.0
 50
0.0
 51
0.0
 71
     0
 72
  1500
 73
     1
 74
     0
 75
     0
 76
     0
 77
     0
 78
     0
281
     0
 65
     1
110
0.0
120
0.0
130
0.0
111
1.0
121
0.0
131
0.0
112
0.0
122
1.0
132
0.0
 79
     0
146
0.0
  0
ENDTAB
  0
TABLE
  2
LTYPE
  5
5
330
0
100
AcDbSymbolTable
 70
     3
  0
LTYPE
  5
13
330
5
100
AcDbSymbolTableRecord
100
AcDbLinetypeTableRecord
  2
ByBlock
 70
     0
  3

 72
    65
 73
     0
 40
0.0
  0
LTYPE
  5
14
330
5
100
AcDbSymbolTableRecord
100
AcDbLinetypeTableRecord
  2
ByLayer
 70
     0
  3

 72
    65
 73
     0
 40
0.0
  0
LTYPE
  5
15
330
5
100
AcDbSymbolTableRecord
100
AcDbLinetypeTableRecord
  2
Continuous
 70
     0
  3
Solid line
 72
    65
 73
     0
 40
0.0
  0
LTYPE
  5
25
330
5
100
AcDbSymbolTableRecord
100
AcDbLinetypeTableRecord
  2
STRICHPUNKT
 70
     0
  3
__ . __ . __ . __ . __ . __ . __ . __ . __ . __
 72
    65
 73
     4
 40
1.0
 49
0.5
 74
     0
 49
-0.25
 74
     0
 49
0.0
 74
     0
 49
-0.25
 74
     0
  0
LTYPE
  5
34
330
5
100
AcDbSymbolTableRecord
100
AcDbLinetypeTableRecord
  2
AUSGEZOGEN
 70
     0
  3
Ausgezogene Linie
 72
    65
 73
     0
 40
0.0
  0
ENDTAB
  0
TABLE
  2
LAYER
  5
2
330
0
100
AcDbSymbolTable
 70
     9
  0
LAYER
  5
10
330
2
100
AcDbSymbolTableRecord
100
AcDbLayerTableRecord
  2
0
 70
     0
 62
     7
  6
Continuous
370
    -3
390
F
  0
LAYER
  5
2B
330
2
100
AcDbSymbolTableRecord
100
AcDbLayerTableRecord
  2
VOLL
 70
     0
 62
     1
  6
Continuous
370
    -3
390
F
  0
LAYER
  5
2C
330
2
100
AcDbSymbolTableRecord
100
AcDbLayerTableRecord
  2
HILF
 70
     0
 62
     2
  6
Continuous
370
    -3
390
F
  0
LAYER
  5
2D
330
2
100
AcDbSymbolTableRecord
100
AcDbLayerTableRecord
  2
MITTEL
 70
     0
 62
     2
  6
STRICHPUNKT
370
    -3
390
F
  0
LAYER
  5
2F
330
2
100
AcDbSymbolTableRecord
100
AcDbLayerTableRecord
  2
BEM
 70
     0
 62
     7
  6
Continuous
370
    -3
390
F
  0
LAYER
  5
30
330
2
100
AcDbSymbolTableRecord
100
AcDbLayerTableRecord
  2
STEMPEL
 70
     0
 62
     3
  6
Continuous
370
    -3
390
F
  0
LAYER
  5
33
330
2
100
AcDbSymbolTableRecord
100
AcDbLayerTableRecord
  2
TEXT
 70
     0
 62
     7
  6
Continuous
370
    -3
390
F
  0
LAYER
  5
1E6
330
2
100
AcDbSymbolTableRecord
100
AcDbLayerTableRecord
  2
SCHRAFF
 70
     0
 62
     7
  6
AUSGEZOGEN
370
    -3
390
F
  0
LAYER
  5
1E7
330
2
100
AcDbSymbolTableRecord
100
AcDbLayerTableRecord
  2
DEFPOINTS
 70
     0
 62
     7
  6
AUSGEZOGEN
290
     0
370
    -3
390
F
  0
ENDTAB
  0
TABLE
  2
STYLE
  5
3
330
0
100
AcDbSymbolTable
 70
     2
  0
STYLE
  5
11
330
3
100
AcDbSymbolTableRecord
100
AcDbTextStyleTableRecord
  2
STANDARD
 70
     0
 40
0.0
 41
0.8
 50
0.0
 71
     0
 42
3.5
  3
simplex.shx
  4

  0
STYLE
  5
24
330
3
100
AcDbSymbolTableRecord
100
AcDbTextStyleTableRecord
  2
GREEKS
 70
     0
 40
0.0
 41
0.8
 50
0.0
 71
     0
 42
2.5
  3
SIMPLEX.shx
  4

  0
ENDTAB
  0
TABLE
  2
VIEW
  5
6
330
0
100
AcDbSymbolTable
 70
     0
  0
ENDTAB
  0
TABLE
  2
UCS
  5
7
330
0
100
AcDbSymbolTable
 70
     0
  0
ENDTAB
  0
TABLE
  2
APPID
  5
9
330
0
100
AcDbSymbolTable
 70
     1
  0
APPID
  5
12
330
9
100
AcDbSymbolTableRecord
100
AcDbRegAppTableRecord
  2
ACAD
 70
     0
  0
ENDTAB
  0
TABLE
  2
DIMSTYLE
  5
A
330
0
100
AcDbSymbolTable
 70
     1
100
AcDbDimStyleTable
 71
     1
340
A2
  0
DIMSTYLE
105
A2
102
{ACAD_REACTORS
330
32B
330
32A
330
329
330
319
330
2C8
330
2B7
330
2AB
102
}
330
A
100
AcDbSymbolTableRecord
100
AcDbDimStyleTableRecord
  2
Standard
 70
     0
340
11
  0
ENDTAB
  0
TABLE
  2
BLOCK_RECORD
  5
1
330
0
100
AcDbSymbolTable
 70
     9
  0
BLOCK_RECORD
  5
1E
102
{ACAD_XDICTIONARY
360
DB
102
}
330
1
100
AcDbSymbolTableRecord
100
AcDbBlockTableRecord
  2
*Model_Space
340
21
  0
BLOCK_RECORD
  5
1A
102
{ACAD_XDICTIONARY
360
DD
102
}
330
1
100
AcDbSymbolTableRecord
100
AcDbBlockTableRecord
  2
*Paper_Space
340
1D
  0
BLOCK_RECORD
  5
22
330
1
100
AcDbSymbolTableRecord
100
AcDbBlockTableRecord
  2
LOGO
340
0
102
{BLKREFS
331
56
102
}
  0
BLOCK_RECORD
  5
23
330
1
100
AcDbSymbolTableRecord
100
AcDbBlockTableRecord
  2
LORO
340
0
102
{BLKREFS
331
9B
102
}
  0
BLOCK_RECORD
  5
344
330
1
100
AcDbSymbolTableRecord
100
AcDbBlockTableRecord
  2
*D2
340
0
  0
BLOCK_RECORD
  5
350
330
1
100
AcDbSymbolTableRecord
100
AcDbBlockTableRecord
  2
*D3
340
0
  0
BLOCK_RECORD
  5
35C
330
1
100
AcDbSymbolTableRecord
100
AcDbBlockTableRecord
  2
*D4
340
0
  0
BLOCK_RECORD
  5
374
330
1
100
AcDbSymbolTableRecord
100
AcDbBlockTableRecord
  2
*D5
340
0
  0
BLOCK_RECORD
  5
380
330
1
100
AcDbSymbolTableRecord
100
AcDbBlockTableRecord
  2
*D6
340
0
  0
BLOCK_RECORD
  5
38C
330
1
100
AcDbSymbolTableRecord
100
AcDbBlockTableRecord
  2
*D7
340
0
  0
BLOCK_RECORD
  5
398
330
1
100
AcDbSymbolTableRecord
100
AcDbBlockTableRecord
  2
*D8
340
0
  0
ENDTAB
  0
ENDSEC
  0
SECTION
  2
BLOCKS
  0
BLOCK
  5
37
330
1E
100
AcDbEntity
  8
0
100
AcDbBlockBegin
  2
*Model_Space
 70
     0
 10
0.0
 20
0.0
 30
0.0
  3
*Model_Space
  1

  0
ENDBLK
  5
38
330
1E
100
AcDbEntity
  8
0
100
AcDbBlockEnd
  0
BLOCK
  5
35
330
1A
100
AcDbEntity
 67
     1
  8
0
100
AcDbBlockBegin
  2
*Paper_Space
 70
     0
 10
0.0
 20
0.0
 30
0.0
  3
*Paper_Space
  1

  0
ENDBLK
  5
36
330
1A
100
AcDbEntity
 67
     1
  8
0
100
AcDbBlockEnd
  0
BLOCK
  5
39
330
22
100
AcDbEntity
  8
0
100
AcDbBlockBegin
  2
LOGO
 70
     0
 10
0.0
 20
0.0
 30
0.0
  3
LOGO
  1

  0
ARC
  5
3A
330
22
100
AcDbEntity
  8
0
100
AcDbCircle
 10
11.59973089678112
 20
-9.271599258481501
 30
0.0
 40
4.5
100
AcDbArc
 50
270.0
 51
231.0575587310159
  0
LINE
  5
3B
330
22
100
AcDbEntity
  8
0
100
AcDbLine
 10
3.599730896781125
 20
-4.771599258481529
 30
0.0
 11
3.599730896781153
 21
-11.77159925848133
 31
0.0
  0
LINE
  5
3C
330
22
100
AcDbEntity
  8
0
100
AcDbLine
 10
2.599730896781125
 20
-4.771599258481529
 30
0.0
 11
2.599730896781153
 21
-11.77159925848133
 31
0.0
  0
CIRCLE
  5
3D
330
22
100
AcDbEntity
  8
0
100
AcDbCircle
 10
11.59973089678112
 20
-9.271599258481501
 30
0.0
 40
3.5
  0
ARC
  5
3E
330
22
100
AcDbEntity
  8
0
100
AcDbCircle
 10
31.59973089678115
 20
-9.271599258481472
 30
0.0
 40
4.5
100
AcDbArc
 50
270.0
 51
231.0575587310182
  0
LINE
  5
3F
330
22
100
AcDbEntity
  8
0
100
AcDbLine
 10
17.59973089678112
 20
-4.771599258481472
 30
0.0
 11
17.59973089678115
 21
-13.77159925848147
 31
0.0
  0
ARC
  5
40
330
22
100
AcDbEntity
  8
0
100
AcDbCircle
 10
22.59973089678116
 20
-7.271599258481472
 30
0.0
 40
2.5
100
AcDbArc
 50
293.1161887722295
 51
90.0
  0
CIRCLE
  5
41
330
22
100
AcDbEntity
  8
0
100
AcDbCircle
 10
31.59973089678115
 20
-9.271599258481472
 30
0.0
 40
3.5
  0
ARC
  5
42
330
22
100
AcDbEntity
  8
0
100
AcDbCircle
 10
4.599730896781153
 20
-11.77159925848133
 30
0.0
 40
1.0
100
AcDbArc
 50
180.0
 51
270.0
  0
ARC
  5
43
330
22
100
AcDbEntity
  8
0
100
AcDbCircle
 10
4.599730896781153
 20
-11.77159925848133
 30
0.0
 40
2.0
100
AcDbArc
 50
179.9999999999992
 51
270.0
  0
LINE
  5
44
330
22
100
AcDbEntity
  8
0
100
AcDbLine
 10
11.59973089678115
 20
-13.77159925848144
 30
0.0
 11
4.599730896781153
 21
-13.77159925848147
 31
0.0
  0
LINE
  5
45
330
22
100
AcDbEntity
  8
0
100
AcDbLine
 10
8.771303772034769
 20
-12.77159925848136
 30
0.0
 11
4.599730896781153
 21
-12.77159925848133
 31
0.0
  0
LINE
  5
46
330
22
100
AcDbEntity
  8
0
100
AcDbLine
 10
31.59973089678115
 20
-13.77159925848147
 30
0.0
 11
23.6715276665056
 21
-13.77159925848144
 31
0.0
  0
LINE
  5
47
330
22
100
AcDbEntity
  8
0
100
AcDbLine
 10
23.56565672307022
 20
-9.51278021337896
 30
0.0
 11
24.4388546544846
 21
-12.77159925848144
 31
0.0
  0
LINE
  5
48
330
22
100
AcDbEntity
  8
0
100
AcDbLine
 10
22.59973089678116
 20
-9.771599258481472
 30
0.0
 11
18.59973089678112
 21
-9.771599258481472
 31
0.0
  0
LINE
  5
49
330
22
100
AcDbEntity
  8
0
100
AcDbLine
 10
18.59973089678115
 20
-13.77159925848144
 30
0.0
 11
17.59973089678115
 21
-13.77159925848144
 31
0.0
  0
LINE
  5
4A
330
22
100
AcDbEntity
  8
0
100
AcDbLine
 10
18.59973089678115
 20
-9.771599258481472
 30
0.0
 11
18.59973089678115
 21
-13.77159925848144
 31
0.0
  0
LINE
  5
4B
330
22
100
AcDbEntity
  8
0
100
AcDbLine
 10
22.59973089678116
 20
-9.771599258481472
 30
0.0
 11
23.67152766650562
 21
-13.77159925848147
 31
0.0
  0
ARC
  5
4C
330
22
100
AcDbEntity
  8
0
100
AcDbCircle
 10
22.59973089678116
 20
-7.271599258481472
 30
0.0
 40
2.5
100
AcDbArc
 50
270.0
 51
270.0000000000007
  0
LINE
  5
4D
330
22
100
AcDbEntity
  8
0
100
AcDbLine
 10
28.77130377203494
 20
-12.77159925848147
 30
0.0
 11
24.43885465448463
 21
-12.77159925848144
 31
0.0
  0
LINE
  5
4E
330
22
100
AcDbEntity
  8
0
100
AcDbLine
 10
3.599730896781125
 20
-4.771599258481472
 30
0.0
 11
2.599730896781125
 21
-4.771599258481472
 31
0.0
  0
LINE
  5
4F
330
22
100
AcDbEntity
  8
0
100
AcDbLine
 10
22.59973089678116
 20
-8.771599258481472
 30
0.0
 11
18.59973089678115
 21
-8.771599258481472
 31
0.0
  0
LINE
  5
50
330
22
100
AcDbEntity
  8
0
100
AcDbLine
 10
22.59973089678116
 20
-5.771599258481472
 30
0.0
 11
18.59973089678115
 21
-5.771599258481472
 31
0.0
  0
LINE
  5
51
330
22
100
AcDbEntity
  8
0
100
AcDbLine
 10
22.59973089678116
 20
-4.771599258481472
 30
0.0
 11
17.59973089678115
 21
-4.771599258481472
 31
0.0
  0
LINE
  5
52
330
22
100
AcDbEntity
  8
0
100
AcDbLine
 10
18.59973089678115
 20
-5.771599258481472
 30
0.0
 11
18.59973089678115
 21
-8.771599258481472
 31
0.0
  0
ARC
  5
53
330
22
100
AcDbEntity
  8
0
100
AcDbCircle
 10
22.59973089678116
 20
-7.271599258481472
 30
0.0
 40
1.5
100
AcDbArc
 50
270.0
 51
90.0
  0
ENDBLK
  5
54
330
22
100
AcDbEntity
  8
0
100
AcDbBlockEnd
  0
BLOCK
  5
55
330
23
100
AcDbEntity
  8
0
100
AcDbBlockBegin
  2
LORO
 70
     0
 10
0.0
 20
0.0
 30
0.0
  3
LORO
  1

  0
INSERT
  5
56
330
23
100
AcDbEntity
  8
STEMPEL
100
AcDbBlockReference
  2
LOGO
 10
-1.748032802467321
 20
3.771489518552062
 30
0.0
  0
ENDBLK
  5
57
330
23
100
AcDbEntity
  8
0
100
AcDbBlockEnd
  0
BLOCK
  5
34E
330
344
100
AcDbEntity
  8
0
100
AcDbBlockBegin
  2
*D2
 70
     1
 10
0.0
 20
0.0
 30
0.0
  3
*D2
  1

  0
LINE
  5
6C7
330
344
100
AcDbEntity
  8
BEM
 62
     0
370
    -2
100
AcDbLine
 10
170.0905012001755
 20
454.6634596010939
 30
0.0
 11
137.3670837546445
 21
454.6634596010939
 31
0.0
  0
LINE
  5
6C8
330
344
100
AcDbEntity
  8
BEM
 62
     0
370
    -2
100
AcDbLine
 10
221.0905012001755
 20
314.6634596010939
 30
0.0
 11
137.3670837546444
 21
314.6634596010939
 31
0.0
  0
LINE
  5
6C9
330
344
100
AcDbEntity
  8
BEM
 62
     0
370
    -2
100
AcDbLine
 10
139.3670837546445
 20
447.6634596010939
 30
0.0
 11
139.3670837546445
 21
321.6634596010939
 31
0.0
  0
SOLID
  5
6CA
330
344
100
AcDbEntity
  8
BEM
 62
     0
100
AcDbTrace
 10
138.2004170879778
 20
447.6634596010939
 30
0.0
 11
140.5337504213111
 21
447.6634596010939
 31
0.0
 12
139.3670837546445
 22
454.6634596010939
 32
0.0
 13
139.3670837546445
 23
454.6634596010939
 33
0.0
  0
SOLID
  5
6CB
330
344
100
AcDbEntity
  8
BEM
 62
     0
100
AcDbTrace
 10
138.2004170879778
 20
321.6634596010939
 30
0.0
 11
140.5337504213111
 21
321.6634596010939
 31
0.0
 12
139.3670837546444
 22
314.6634596010939
 32
0.0
 13
139.3670837546444
 23
314.6634596010939
 33
0.0
  0
MTEXT
  5
6CC
330
344
100
AcDbEntity
  8
BEM
 62
     1
100
AcDbMText
 10
132.8670837546444
 20
384.663459601094
 30
0.0
 40
7.0
 41
0.0
 71
     5
 72
     1
  1
\A1;140
 11
0.0000000000000001
 21
1.0
 31
0.0
 73
     1
 44
1.0
  0
POINT
  5
6CD
330
344
100
AcDbEntity
  8
DEFPOINTS
 62
     0
100
AcDbPoint
 10
172.0905012001755
 20
454.6634596010939
 30
0.0
  0
POINT
  5
6CE
330
344
100
AcDbEntity
  8
DEFPOINTS
 62
     0
100
AcDbPoint
 10
223.0905012001755
 20
314.6634596010939
 30
0.0
  0
POINT
  5
6CF
330
344
100
AcDbEntity
  8
DEFPOINTS
 62
     0
100
AcDbPoint
 10
139.3670837546444
 20
314.6634596010939
 30
0.0
  0
ENDBLK
  5
34F
330
344
100
AcDbEntity
  8
0
100
AcDbBlockEnd
  0
BLOCK
  5
35A
330
350
100
AcDbEntity
  8
0
100
AcDbBlockBegin
  2
*D3
 70
     1
 10
0.0
 20
0.0
 30
0.0
  3
*D3
  1

  0
LINE
  5
48D
330
350
100
AcDbEntity
  8
BEM
 62
     0
370
    -2
100
AcDbLine
 10
172.0905012001755
 20
456.6634596010938
 30
0.0
 11
172.0905012001755
 21
481.1201444105658
 31
0.0
  0
LINE
  5
48E
330
350
100
AcDbEntity
  8
BEM
 62
     0
370
    -2
100
AcDbLine
 10
274.0905012001755
 20
456.6634596010938
 30
0.0
 11
274.0905012001755
 21
481.1201444105658
 31
0.0
  0
LINE
  5
48F
330
350
100
AcDbEntity
  8
BEM
 62
     0
370
    -2
100
AcDbLine
 10
179.0905012001756
 20
479.1201444105658
 30
0.0
 11
267.0905012001755
 21
479.1201444105658
 31
0.0
  0
SOLID
  5
490
330
350
100
AcDbEntity
  8
BEM
 62
     0
100
AcDbTrace
 10
179.0905012001756
 20
480.2868110772325
 30
0.0
 11
179.0905012001756
 21
477.9534777438991
 31
0.0
 12
172.0905012001755
 22
479.1201444105658
 32
0.0
 13
172.0905012001755
 23
479.1201444105658
 33
0.0
  0
SOLID
  5
491
330
350
100
AcDbEntity
  8
BEM
 62
     0
100
AcDbTrace
 10
267.0905012001755
 20
480.2868110772325
 30
0.0
 11
267.0905012001755
 21
477.9534777438991
 31
0.0
 12
274.0905012001755
 22
479.1201444105658
 32
0.0
 13
274.0905012001755
 23
479.1201444105658
 33
0.0
  0
MTEXT
  5
492
330
350
100
AcDbEntity
  8
BEM
 62
     1
100
AcDbMText
 10
223.0905012001755
 20
485.6201444105658
 30
0.0
 40
7.0
 41
0.0
 71
     5
 72
     1
  1
\A1;%%c102
 73
     1
 44
1.0
  0
POINT
  5
493
330
350
100
AcDbEntity
  8
DEFPOINTS
 62
     0
100
AcDbPoint
 10
172.0905012001755
 20
454.6634596010939
 30
0.0
  0
POINT
  5
494
330
350
100
AcDbEntity
  8
DEFPOINTS
 62
     0
100
AcDbPoint
 10
274.0905012001755
 20
454.6634596010938
 30
0.0
  0
POINT
  5
495
330
350
100
AcDbEntity
  8
DEFPOINTS
 62
     0
100
AcDbPoint
 10
274.0905012001755
 20
479.1201444105658
 30
0.0
  0
ENDBLK
  5
35B
330
350
100
AcDbEntity
  8
0
100
AcDbBlockEnd
  0
BLOCK
  5
366
330
35C
100
AcDbEntity
  8
0
100
AcDbBlockBegin
  2
*D4
 70
     1
 10
0.0
 20
0.0
 30
0.0
  3
*D4
  1

  0
LINE
  5
6A8
330
35C
100
AcDbEntity
  8
BEM
 62
     0
370
    -2
100
AcDbLine
 10
723.0905012001755
 20
292.2701504894604
 30
0.0
 11
723.0905012001755
 21
247.7330431861163
 31
0.0
  0
LINE
  5
6A9
330
35C
100
AcDbEntity
  8
BEM
 62
     0
370
    -2
100
AcDbLine
 10
698.0905012001755
 20
268.1634596010939
 30
0.0
 11
698.0905012001755
 21
247.7330431861163
 31
0.0
  0
LINE
  5
6AA
330
35C
100
AcDbEntity
  8
BEM
 62
     0
370
    -2
100
AcDbLine
 10
716.0905012001755
 20
249.7330431861163
 30
0.0
 11
705.0905012001756
 21
249.7330431861163
 31
0.0
  0
SOLID
  5
6AB
330
35C
100
AcDbEntity
  8
BEM
 62
     0
100
AcDbTrace
 10
716.0905012001755
 20
250.899709852783
 30
0.0
 11
716.0905012001755
 21
248.5663765194497
 31
0.0
 12
723.0905012001755
 22
249.7330431861163
 32
0.0
 13
723.0905012001755
 23
249.7330431861163
 33
0.0
  0
SOLID
  5
6AC
330
35C
100
AcDbEntity
  8
BEM
 62
     0
100
AcDbTrace
 10
705.0905012001756
 20
250.899709852783
 30
0.0
 11
705.0905012001756
 21
248.5663765194497
 31
0.0
 12
698.0905012001755
 22
249.7330431861163
 32
0.0
 13
698.0905012001755
 23
249.7330431861163
 33
0.0
  0
MTEXT
  5
6AD
330
35C
100
AcDbEntity
  8
BEM
 62
     1
100
AcDbMText
 10
709.9177597399419
 20
256.2330431861163
 30
0.0
 40
7.0
 41
0.0
 71
     5
 72
     1
  1
\A1;25
 73
     1
 44
1.0
  0
POINT
  5
6AE
330
35C
100
AcDbEntity
  8
DEFPOINTS
 62
     0
100
AcDbPoint
 10
723.0905012001755
 20
294.2701504894604
 30
0.0
  0
POINT
  5
6AF
330
35C
100
AcDbEntity
  8
DEFPOINTS
 62
     0
100
AcDbPoint
 10
698.0905012001755
 20
270.1634596010939
 30
0.0
  0
POINT
  5
6B0
330
35C
100
AcDbEntity
  8
DEFPOINTS
 62
     0
100
AcDbPoint
 10
698.0905012001755
 20
249.7330431861163
 30
0.0
  0
ENDBLK
  5
367
330
35C
100
AcDbEntity
  8
0
100
AcDbBlockEnd
  0
BLOCK
  5
37E
330
374
100
AcDbEntity
  8
0
100
AcDbBlockBegin
  2
*D5
 70
     1
 10
0.0
 20
0.0
 30
0.0
  3
*D5
  1

  0
LINE
  5
69F
330
374
100
AcDbEntity
  8
BEM
 62
     0
370
    -2
100
AcDbLine
 10
223.0905012001755
 20
312.6634596010939
 30
0.0
 11
223.0905012001755
 21
229.1722395747084
 31
0.0
  0
LINE
  5
6A0
330
374
100
AcDbEntity
  8
BEM
 62
     0
370
    -2
100
AcDbLine
 10
723.0905012001755
 20
292.2701504894604
 30
0.0
 11
723.0905012001755
 21
229.1722395747084
 31
0.0
  0
LINE
  5
6A1
330
374
100
AcDbEntity
  8
BEM
 62
     0
370
    -2
100
AcDbLine
 10
230.0905012001754
 20
231.1722395747084
 30
0.0
 11
716.0905012001755
 21
231.1722395747084
 31
0.0
  0
SOLID
  5
6A2
330
374
100
AcDbEntity
  8
BEM
 62
     0
100
AcDbTrace
 10
230.0905012001754
 20
232.338906241375
 30
0.0
 11
230.0905012001754
 21
230.0055729080417
 31
0.0
 12
223.0905012001755
 22
231.1722395747084
 32
0.0
 13
223.0905012001755
 23
231.1722395747084
 33
0.0
  0
SOLID
  5
6A3
330
374
100
AcDbEntity
  8
BEM
 62
     0
100
AcDbTrace
 10
716.0905012001755
 20
232.338906241375
 30
0.0
 11
716.0905012001755
 21
230.0055729080417
 31
0.0
 12
723.0905012001755
 22
231.1722395747084
 32
0.0
 13
723.0905012001755
 23
231.1722395747084
 33
0.0
  0
MTEXT
  5
6A4
330
374
100
AcDbEntity
  8
BEM
 62
     1
100
AcDbMText
 10
473.0905012001755
 20
237.6722395747084
 30
0.0
 40
7.0
 41
0.0
 71
     5
 72
     1
  1
\A1;500
 73
     1
 44
1.0
  0
POINT
  5
6A5
330
374
100
AcDbEntity
  8
DEFPOINTS
 62
     0
100
AcDbPoint
 10
223.0905012001755
 20
314.6634596010939
 30
0.0
  0
POINT
  5
6A6
330
374
100
AcDbEntity
  8
DEFPOINTS
 62
     0
100
AcDbPoint
 10
723.0905012001755
 20
294.2701504894604
 30
0.0
  0
POINT
  5
6A7
330
374
100
AcDbEntity
  8
DEFPOINTS
 62
     0
100
AcDbPoint
 10
723.0905012001755
 20
231.1722395747084
 30
0.0
  0
ENDBLK
  5
37F
330
374
100
AcDbEntity
  8
0
100
AcDbBlockEnd
  0
BLOCK
  5
38A
330
380
100
AcDbEntity
  8
0
100
AcDbBlockBegin
  2
*D6
 70
     1
 10
0.0
 20
0.0
 30
0.0
  3
*D6
  1

  0
LINE
  5
3FE
330
380
100
AcDbEntity
  8
BEM
 62
     0
370
    -2
100
AcDbLine
 10
718.1559926145383
 20
293.6634596010939
 30
0.0
 11
750.6151353427416
 21
293.6634596010939
 31
0.0
  0
LINE
  5
3FF
330
380
100
AcDbEntity
  8
BEM
 62
     0
370
    -2
100
AcDbLine
 10
718.1559926145381
 20
335.6634596010939
 30
0.0
 11
750.6151353427416
 21
335.6634596010939
 31
0.0
  0
LINE
  5
400
330
380
100
AcDbEntity
  8
BEM
 62
     0
370
    -2
100
AcDbLine
 10
748.6151353427416
 20
300.663459601094
 30
0.0
 11
748.6151353427416
 21
328.6634596010939
 31
0.0
  0
SOLID
  5
401
330
380
100
AcDbEntity
  8
BEM
 62
     0
100
AcDbTrace
 10
747.4484686760749
 20
300.663459601094
 30
0.0
 11
749.7818020094082
 21
300.663459601094
 31
0.0
 12
748.6151353427416
 22
293.6634596010939
 32
0.0
 13
748.6151353427416
 23
293.6634596010939
 33
0.0
  0
SOLID
  5
402
330
380
100
AcDbEntity
  8
BEM
 62
     0
100
AcDbTrace
 10
747.4484686760749
 20
328.6634596010939
 30
0.0
 11
749.7818020094082
 21
328.6634596010939
 31
0.0
 12
748.6151353427416
 22
335.6634596010939
 32
0.0
 13
748.6151353427416
 23
335.6634596010939
 33
0.0
  0
MTEXT
  5
403
330
380
100
AcDbEntity
  8
BEM
 62
     1
100
AcDbMText
 10
742.1151353427415
 20
314.6634596010941
 30
0.0
 40
7.0
 41
0.0
 71
     5
 72
     1
  1
\A1;%%c42
 11
0.0000000000000001
 21
1.0
 31
0.0
 73
     1
 44
1.0
  0
POINT
  5
404
330
380
100
AcDbEntity
  8
DEFPOINTS
 62
     0
100
AcDbPoint
 10
716.1559926145383
 20
293.6634596010939
 30
0.0
  0
POINT
  5
405
330
380
100
AcDbEntity
  8
DEFPOINTS
 62
     0
100
AcDbPoint
 10
716.1559926145381
 20
335.6634596010939
 30
0.0
  0
POINT
  5
406
330
380
100
AcDbEntity
  8
DEFPOINTS
 62
     0
100
AcDbPoint
 10
748.6151353427416
 20
335.6634596010939
 30
0.0
  0
ENDBLK
  5
38B
330
380
100
AcDbEntity
  8
0
100
AcDbBlockEnd
  0
BLOCK
  5
396
330
38C
100
AcDbEntity
  8
0
100
AcDbBlockBegin
  2
*D7
 70
     1
 10
0.0
 20
0.0
 30
0.0
  3
*D7
  1

  0
LINE
  5
526
330
38C
100
AcDbEntity
  8
BEM
 62
     0
370
    -2
100
AcDbLine
 10
702.0905012001755
 20
359.1634596010939
 30
0.0
 11
768.5800595084868
 21
359.1634596010939
 31
0.0
  0
LINE
  5
527
330
38C
100
AcDbEntity
  8
BEM
 62
     0
370
    -2
100
AcDbLine
 10
702.0905012001755
 20
270.1634596010939
 30
0.0
 11
768.5800595084868
 21
270.1634596010939
 31
0.0
  0
LINE
  5
528
330
38C
100
AcDbEntity
  8
BEM
 62
     0
370
    -2
100
AcDbLine
 10
766.5800595084867
 20
352.1634596010939
 30
0.0
 11
766.5800595084867
 21
277.1634596010939
 31
0.0
  0
SOLID
  5
529
330
38C
100
AcDbEntity
  8
BEM
 62
     0
100
AcDbTrace
 10
765.4133928418201
 20
352.1634596010939
 30
0.0
 11
767.7467261751534
 21
352.1634596010939
 31
0.0
 12
766.5800595084867
 22
359.1634596010939
 32
0.0
 13
766.5800595084867
 23
359.1634596010939
 33
0.0
  0
SOLID
  5
52A
330
38C
100
AcDbEntity
  8
BEM
 62
     0
100
AcDbTrace
 10
765.4133928418201
 20
277.1634596010939
 30
0.0
 11
767.7467261751534
 21
277.1634596010939
 31
0.0
 12
766.5800595084867
 22
270.1634596010939
 32
0.0
 13
766.5800595084867
 23
270.1634596010939
 33
0.0
  0
MTEXT
  5
52B
330
38C
100
AcDbEntity
  8
BEM
 62
     1
100
AcDbMText
 10
760.0800595084867
 20
314.663459601094
 30
0.0
 40
7.0
 41
0.0
 71
     5
 72
     1
  1
\A1;%%c89
 11
0.0000000000000001
 21
1.0
 31
0.0
 73
     1
 44
1.0
  0
POINT
  5
52C
330
38C
100
AcDbEntity
  8
DEFPOINTS
 62
     0
100
AcDbPoint
 10
700.0905012001754
 20
359.1634596010939
 30
0.0
  0
POINT
  5
52D
330
38C
100
AcDbEntity
  8
DEFPOINTS
 62
     0
100
AcDbPoint
 10
700.0905012001756
 20
270.1634596010939
 30
0.0
  0
POINT
  5
52E
330
38C
100
AcDbEntity
  8
DEFPOINTS
 62
     0
100
AcDbPoint
 10
766.5800595084867
 20
270.1634596010939
 30
0.0
  0
ENDBLK
  5
397
330
38C
100
AcDbEntity
  8
0
100
AcDbBlockEnd
  0
BLOCK
  5
3A4
330
398
100
AcDbEntity
  8
0
100
AcDbBlockBegin
  2
*D8
 70
     1
 10
0.0
 20
0.0
 30
0.0
  3
*D8
  1

  0
LINE
  5
6BC
330
398
100
AcDbEntity
  8
BEM
 62
     0
370
    -2
100
AcDbLine
 10
221.0905012001754
 20
314.6634596010939
 30
0.0
 11
137.3670837546445
 21
314.6634596010939
 31
0.0
  0
LINE
  5
6BD
330
398
100
AcDbEntity
  8
BEM
 62
     0
370
    -2
100
AcDbLine
 10
223.0905012001754
 20
312.6634596010938
 30
0.0
 11
223.0905012001752
 21
228.940042155563
 31
0.0
  0
ARC
  5
6BE
330
398
100
AcDbEntity
  8
BEM
 62
     0
370
    -2
100
AcDbCircle
 10
223.0905012001754
 20
314.6634596010938
 30
0.0
 40
83.72341744553088
100
AcDbArc
 50
184.7918178604482
 51
265.2081821395517
  0
SOLID
  5
6BF
330
398
100
AcDbEntity
  8
BEM
 62
     0
100
AcDbTrace
 10
138.4940671627838
 20
307.6208071787854
 30
0.0
 11
140.8253607371465
 21
307.7183505772257
 31
0.0
 12
139.3670837546444
 22
314.6634596010939
 32
0.0
 13
139.3670837546444
 23
314.6634596010939
 33
0.0
  0
SOLID
  5
6C0
330
398
100
AcDbEntity
  8
BEM
 62
     0
100
AcDbTrace
 10
216.1453921763071
 20
232.3983191380651
 30
0.0
 11
216.0478487778668
 21
230.0670255637022
 31
0.0
 12
223.0905012001752
 22
230.940042155563
 32
0.0
 13
223.0905012001752
 23
230.940042155563
 33
0.0
  0
MTEXT
  5
6C1
330
398
100
AcDbEntity
  8
BEM
 62
     1
100
AcDbMText
 10
169.708620372788
 20
258.8617481461811
 30
0.0
 40
7.0
 41
0.0
 71
     5
 72
     1
  1
\A1;90°
 11
0.7226009065743848
 21
-0.6912654553916875
 31
0.0
 73
     1
 44
1.0
  0
POINT
  5
6C2
330
398
100
AcDbEntity
  8
DEFPOINTS
 62
     0
100
AcDbPoint
 10
150.5838948006963
 20
272.8017508783285
 30
0.0
  0
POINT
  5
6C3
330
398
100
AcDbEntity
  8
DEFPOINTS
 62
     0
100
AcDbPoint
 10
223.0905012001754
 20
314.6634596010938
 30
0.0
  0
POINT
  5
6C4
330
398
100
AcDbEntity
  8
DEFPOINTS
 62
     0
100
AcDbPoint
 10
728.0905012001755
 20
314.663459601094
 30
0.0
  0
POINT
  5
6C5
330
398
100
AcDbEntity
  8
DEFPOINTS
 62
     0
100
AcDbPoint
 10
223.0905012001754
 20
314.6634596010938
 30
0.0
  0
POINT
  5
6C6
330
398
100
AcDbEntity
  8
DEFPOINTS
 62
     0
100
AcDbPoint
 10
223.0905012001755
 20
459.6634596010938
 30
0.0
  0
ENDBLK
  5
3A5
330
398
100
AcDbEntity
  8
0
100
AcDbBlockEnd
  0
ENDSEC
  0
SECTION
  2
ENTITIES
  0
LINE
  5
58
330
1E
100
AcDbEntity
  8
STEMPEL
100
AcDbLine
 10
830.0000000000002
 20
110.0
 30
0.0
 11
470.0000000000001
 21
110.0
 31
0.0
  0
LINE
  5
59
330
1E
100
AcDbEntity
  8
STEMPEL
100
AcDbLine
 10
470.0000000000001
 20
110.0
 30
0.0
 11
470.0000000000001
 21
10.0
 31
0.0
  0
LINE
  5
5A
330
1E
100
AcDbEntity
  8
STEMPEL
100
AcDbLine
 10
566.0000000000002
 20
109.9999999999999
 30
0.0
 11
566.0000000000001
 21
9.999999999999886
 31
0.0
  0
LINE
  5
5B
330
1E
100
AcDbEntity
  8
STEMPEL
100
AcDbLine
 10
650.0
 20
110.0
 30
0.0
 11
650.0
 21
10.0
 31
0.0
  0
LINE
  5
5C
330
1E
100
AcDbEntity
  8
STEMPEL
100
AcDbLine
 10
752.0000000000002
 20
109.9999999999997
 30
0.0
 11
752.0000000000002
 21
40.0
 31
0.0
  0
LINE
  5
5D
330
1E
100
AcDbEntity
  8
STEMPEL
100
AcDbLine
 10
566.0
 20
30.0
 30
0.0
 11
470.0000000000001
 21
30.0
 31
0.0
  0
LINE
  5
5E
330
1E
100
AcDbEntity
  8
STEMPEL
100
AcDbLine
 10
830.0000000000002
 20
40.0
 30
0.0
 11
566.0000000000001
 21
40.0
 31
0.0
  0
LINE
  5
5F
330
1E
100
AcDbEntity
  8
STEMPEL
100
AcDbLine
 10
830.0000000000002
 20
80.0
 30
0.0
 11
566.0000000000002
 21
80.0
 31
0.0
  0
LINE
  5
60
330
1E
100
AcDbEntity
  8
VOLL
100
AcDbLine
 10
484.0000000000002
 20
110.0
 30
0.0
 11
484.0000000000001
 21
9.999999999999985
 31
0.0
  0
LINE
  5
61
330
1E
100
AcDbEntity
  8
VOLL
100
AcDbLine
 10
524.0000000000001
 20
109.9999999999999
 30
0.0
 11
524.0000000000001
 21
9.999999999999943
 31
0.0
  0
LINE
  5
62
330
1E
100
AcDbEntity
  8
VOLL
100
AcDbLine
 10
544.0000000000002
 20
109.9999999999999
 30
0.0
 11
544.0000000000001
 21
9.999999999999914
 31
0.0
  0
LINE
  5
63
330
1E
100
AcDbEntity
  8
VOLL
100
AcDbLine
 10
584.0000000000002
 20
80.0
 30
0.0
 11
584.0000000000002
 21
40.0
 31
0.0
  0
LINE
  5
64
330
1E
100
AcDbEntity
  8
VOLL
100
AcDbLine
 10
610.0000000000002
 20
109.9999999999998
 30
0.0
 11
610.0000000000001
 21
40.0
 31
0.0
  0
LINE
  5
65
330
1E
100
AcDbEntity
  8
HILF
100
AcDbLine
 10
470.0000000000001
 20
100.0
 30
0.0
 11
566.0000000000002
 21
100.0
 31
0.0
  0
LINE
  5
66
330
1E
100
AcDbEntity
  8
HILF
100
AcDbLine
 10
470.0000000000001
 20
90.0
 30
0.0
 11
566.0000000000002
 21
90.0
 31
0.0
  0
LINE
  5
67
330
1E
100
AcDbEntity
  8
HILF
100
AcDbLine
 10
470.0000000000001
 20
80.0
 30
0.0
 11
566.0000000000002
 21
80.0
 31
0.0
  0
LINE
  5
68
330
1E
100
AcDbEntity
  8
HILF
100
AcDbLine
 10
470.0000000000001
 20
70.0
 30
0.0
 11
566.0000000000002
 21
70.0
 31
0.0
  0
LINE
  5
69
330
1E
100
AcDbEntity
  8
HILF
100
AcDbLine
 10
470.0000000000001
 20
60.0
 30
0.0
 11
566.0000000000002
 21
60.0
 31
0.0
  0
LINE
  5
6A
330
1E
100
AcDbEntity
  8
HILF
100
AcDbLine
 10
470.0000000000001
 20
50.0
 30
0.0
 11
566.0000000000002
 21
50.0
 31
0.0
  0
LINE
  5
6B
330
1E
100
AcDbEntity
  8
HILF
100
AcDbLine
 10
470.0000000000001
 20
40.0
 30
0.0
 11
566.0000000000002
 21
40.0
 31
0.0
  0
LINE
  5
6C
330
1E
100
AcDbEntity
  8
HILF
100
AcDbLine
 10
566.0000000000002
 20
70.0
 30
0.0
 11
650.0
 21
70.0
 31
0.0
  0
LINE
  5
6D
330
1E
100
AcDbEntity
  8
HILF
100
AcDbLine
 10
566.0000000000002
 20
60.0
 30
0.0
 11
650.0
 21
60.0
 31
0.0
  0
LINE
  5
6E
330
1E
100
AcDbEntity
  8
HILF
100
AcDbLine
 10
566.0000000000002
 20
50.0
 30
0.0
 11
650.0
 21
50.0
 31
0.0
  0
LINE
  5
6F
330
1E
100
AcDbEntity
  8
HILF
100
AcDbLine
 10
654.7736801096948
 20
84.03758247564136
 30
0.0
 11
746.6297842514811
 21
84.03758247564136
 31
0.0
  0
LINE
  5
70
330
1E
100
AcDbEntity
  8
HILF
100
AcDbLine
 10
654.7736801096948
 20
70.0
 30
0.0
 11
746.6297842514811
 21
70.0
 31
0.0
  0
LINE
  5
71
330
1E
100
AcDbEntity
  8
HILF
100
AcDbLine
 10
654.7736801096948
 20
60.0
 30
0.0
 11
746.6297842514811
 21
60.0
 31
0.0
  0
LINE
  5
72
330
1E
100
AcDbEntity
  8
HILF
100
AcDbLine
 10
654.7736801096948
 20
50.0
 30
0.0
 11
746.6297842514811
 21
50.0
 31
0.0
  0
LINE
  5
73
330
1E
100
AcDbEntity
  8
VOLL
100
AcDbLine
 10
752.0000000000002
 20
60.0
 30
0.0
 11
830.0000000000002
 21
60.0
 31
0.0
  0
LINE
  5
74
330
1E
100
AcDbEntity
  8
HILF
100
AcDbLine
 10
756.7238616296995
 20
83.77983636955823
 30
0.0
 11
824.858883932673
 21
83.77983636955823
 31
0.0
  0
LINE
  5
75
330
1E
100
AcDbEntity
  8
HILF
100
AcDbLine
 10
654.7736801096948
 20
14.89398258028305
 30
0.0
 11
824.858883932673
 21
14.89398258028305
 31
0.0
  0
TEXT
  5
76
330
1E
100
AcDbEntity
  8
TEXT
100
AcDbText
 10
492.3998239263297
 20
18.67381894984129
 30
0.0
 40
4.0
  1
Änderung
 41
0.8
  7
GREEKS
 72
     1
 11
503.1426810691868
 21
18.67381894984129
 31
0.0
100
AcDbText
  0
TEXT
  5
78
330
1E
100
AcDbEntity
  8
TEXT
100
AcDbText
 10
573.5163572150378
 20
102.4620895087088
 30
0.0
 40
5.0
  1
Maßstab
 41
0.8
  7
GREEKS
100
AcDbText
  0
TEXT
  5
79
330
1E
100
AcDbEntity
  8
TEXT
100
AcDbText
 10
654.8779403809011
 20
102.5489328011779
 30
0.0
 40
5.0
  1
Benennung
 41
0.8
  7
GREEKS
100
AcDbText
  0
TEXT
  5
7A
330
1E
100
AcDbEntity
  8
TEXT
100
AcDbText
 10
756.1787549576343
 20
102.3132034537135
 30
0.0
 40
5.0
  1
Zeichnungs Nr.
 41
0.8
  7
GREEKS
100
AcDbText
  0
TEXT
  5
7B
330
1E
100
AcDbEntity
  8
TEXT
100
AcDbText
 10
654.742238391136
 20
30.84560570193055
 30
0.0
 40
5.0
  1
Bauvorhaben
 41
0.8
  7
GREEKS
100
AcDbText
  0
TEXT
  5
7C
330
1E
100
AcDbEntity
  8
TEXT
100
AcDbText
 10
756.7238616296995
 20
73.18118237099965
 30
0.0
 40
5.0
  1
Ersatz für:
 41
0.8
  7
GREEKS
100
AcDbText
  0
TEXT
  5
7D
330
1E
100
AcDbEntity
  8
TEXT
100
AcDbText
 10
478.2664110704577
 20
13.65465846027187
 30
0.0
 40
4.0
  1
Index
 50
90.0
 41
0.8
  7
GREEKS
100
AcDbText
  0
TEXT
  5
7E
330
1E
100
AcDbEntity
  8
TEXT
100
AcDbText
 10
529.8990113186979
 20
18.67156269339808
 30
0.0
 40
4.0
  1
Tag
 41
0.8
  7
GREEKS
 72
     1
 11
533.6323446520313
 21
18.67156269339808
 31
0.0
100
AcDbText
  0
TEXT
  5
7F
330
1E
100
AcDbEntity
  8
TEXT
100
AcDbText
 10
548.9795678138293
 20
18.59324216966404
 30
0.0
 40
4.0
  1
Name
 41
0.8
  7
GREEKS
 72
     1
 11
555.3033773376388
 21
18.59324216966404
 31
0.0
100
AcDbText
  0
TEXT
  5
80
330
1E
100
AcDbEntity
  8
TEXT
100
AcDbText
 10
592.3311673153651
 20
73.31880501229919
 30
0.0
 40
4.0
  1
Tag
 41
0.8
  7
GREEKS
100
AcDbText
  0
TEXT
  5
81
330
1E
100
AcDbEntity
  8
TEXT
100
AcDbText
 10
622.4626584226296
 20
73.3096109191522
 30
0.0
 40
4.0
  1
Name
 41
0.8
  7
GREEKS
100
AcDbText
  0
TEXT
  5
82
330
1E
100
AcDbEntity
  8
TEXT
100
AcDbText
 10
567.5836127167616
 20
63.62990369617961
 30
0.0
 40
4.0
  1
Gez.
 41
0.8
  7
GREEKS
100
AcDbText
  0
TEXT
  5
83
330
1E
100
AcDbEntity
  8
TEXT
100
AcDbText
 10
567.5515086571673
 20
53.68926291428373
 30
0.0
 40
4.0
  1
Gepr.
 41
0.8
  7
GREEKS
100
AcDbText
  0
TEXT
  5
84
330
1E
100
AcDbEntity
  8
TEXT
100
AcDbText
 10
567.6006777387304
 20
43.52946389649804
 30
0.0
 40
4.0
  1
Norm.
 41
0.8
  7
GREEKS
100
AcDbText
  0
TEXT
  5
85
330
1E
100
AcDbEntity
  8
TEXT
100
AcDbText
 10
757.2400861497007
 20
52.07416177878596
 30
0.0
 40
5.0
  1
ersetzt durch:
 41
0.8
  7
GREEKS
100
AcDbText
  0
TEXT
  5
86
330
1E
100
AcDbEntity
  8
TEXT
100
AcDbText
 10
568.8693027807324
 20
72.96682596523723
 30
0.0
 40
4.0
  1
2011
 41
0.8
  7
GREEKS
100
AcDbText
  0
LINE
  5
87
330
1E
100
AcDbEntity
  8
HILF
100
AcDbLine
 10
0.0
 20
0.0
 30
0.0
 11
840.0
 21
0.0
 31
0.0
  0
LINE
  5
88
330
1E
100
AcDbEntity
  8
HILF
100
AcDbLine
 10
840.0
 20
0.0
 30
0.0
 11
840.0
 21
594.0
 31
0.0
  0
LINE
  5
89
330
1E
100
AcDbEntity
  8
HILF
100
AcDbLine
 10
840.0
 20
594.0
 30
0.0
 11
0.0
 21
594.0
 31
0.0
  0
LINE
  5
8B
330
1E
100
AcDbEntity
  8
STEMPEL
100
AcDbLine
 10
830.0
 20
584.0
 30
0.0
 11
40.0
 21
584.0
 31
0.0
  0
LINE
  5
8D
330
1E
100
AcDbEntity
  8
STEMPEL
100
AcDbLine
 10
40.0
 20
10.0
 30
0.0
 11
830.0
 21
10.0
 31
0.0
  0
LINE
  5
8E
330
1E
100
AcDbEntity
  8
STEMPEL
100
AcDbLine
 10
830.0
 20
10.0
 30
0.0
 11
830.0
 21
584.0
 31
0.0
  0
TEXT
  5
8F
330
1E
100
AcDbEntity
  8
TEXT
 62
     1
100
AcDbText
 10
655.0390572473189
 20
87.37343075652544
 30
0.0
 40
7.0
  1
Verbundrohr 
 41
0.8
  7
GREEKS
100
AcDbText
  0
TEXT
  5
90
330
1E
100
AcDbEntity
  8
TEXT
 62
     1
100
AcDbText
 10
766.5294755517469
 20
87.37343075652544
 30
0.0
 40
7.0
  1
58042CA0X
 41
0.8
  7
GREEKS
 72
     1
 11
790.1294755517469
 21
87.37343075652544
 31
0.0
100
AcDbText
  0
TEXT
  5
91
330
1E
100
AcDbEntity
  8
TEXT
100
AcDbText
 10
618.509022641583
 20
102.83989611379
 30
0.0
 40
5.0
  1
Zul.Abw.
 41
0.8
  7
GREEKS
100
AcDbText
  0
TEXT
  5
93
330
1E
100
AcDbEntity
  8
TEXT
100
AcDbText
 10
590.4612856559488
 20
63.1508587612022
 30
0.0
 40
4.0
  1
24.10.
 41
0.8
  7
GREEKS
 72
     1
 11
597.1660475607107
 21
63.1508587612022
 31
0.0
100
AcDbText
  0
TEXT
  5
94
330
1E
100
AcDbEntity
  8
TEXT
100
AcDbText
 10
624.023175322661
 20
62.94297655165468
 30
0.0
 40
4.0
  1
Koeh
 41
0.8
  7
GREEKS
 72
     1
 11
629.2803181798038
 21
62.94297655165468
 31
0.0
100
AcDbText
  0
TEXT
  5
95
330
1E
100
AcDbEntity
  8
TEXT
100
AcDbText
 10
654.3410940884992
 20
72.10021383107525
 30
0.0
 40
5.0
  1
Anschlußbogen DN70/40
 41
0.8
  7
GREEKS
100
AcDbText
  0
TEXT
  5
97
330
1E
100
AcDbEntity
  8
TEXT
100
AcDbText
 10
654.3410940884992
 20
52.59097337846058
 30
0.0
 40
5.0
  1
EDV-Art.Nr. 58042.CA0X
 41
0.8
  7
GREEKS
100
AcDbText
  0
TEXT
  5
98
330
1E
100
AcDbEntity
  8
TEXT
100
AcDbText
 10
654.1676050109348
 20
43.31127624791508
 30
0.0
 40
4.0
  1
58042.CA0XA.DWG
 41
0.8
  7
GREEKS
100
AcDbText
  0
TEXT
  5
99
330
1E
100
AcDbEntity
  8
TEXT
 62
     1
100
AcDbText
 10
582.7034912034222
 20
87.47077088414977
 30
0.0
 40
7.0
  1
1:2
 41
0.8
  7
GREEKS
100
AcDbText
  0
TEXT
  5
9A
330
1E
100
AcDbEntity
  8
TEXT
100
AcDbText
 10
470.0441139350127
 20
114.1143585051043
 30
0.0
 40
5.0
  1
Erstellt mit AUTOCAD 2004
 41
0.8
  7
GREEKS
100
AcDbText
  0
INSERT
  5
9B
330
1E
100
AcDbEntity
  8
HILF
100
AcDbBlockReference
  2
LORO
 10
573.0624985962354
 20
36.9805930029896
 30
0.0
 41
2.0
 42
2.0
 43
2.0
  0
LINE
  5
9C
330
1E
100
AcDbEntity
  8
BEM
100
AcDbLine
 10
456.0
 20
0.0
 30
0.0
 11
456.0
 21
10.0
 31
0.0
  0
LINE
  5
13E
330
1E
100
AcDbEntity
  8
HILF
100
AcDbLine
 10
0.0
 20
0.0
 30
0.0
 11
0.0
 21
594.0
 31
0.0
  0
LINE
  5
13F
330
1E
100
AcDbEntity
  8
STEMPEL
100
AcDbLine
 10
40.0
 20
10.0
 30
0.0
 11
40.0
 21
584.0
 31
0.0
  0
LINE
  5
14A
330
1E
100
AcDbEntity
  8
HILF
100
AcDbLine
 10
0.0
 20
297.0
 30
0.0
 11
40.0
 21
297.0
 31
0.0
  0
TEXT
  5
15B
330
1E
100
AcDbEntity
  8
BEM
100
AcDbText
 10
837.3022923857165
 20
10.16790107998861
 30
0.0
 40
4.0
  1
Diese Zeichnung ist urheberrechtlich geschützt und bleibt unser Eigentum. Sie darf weder ganz noch teilweise verfielfältigt und nicht an Dritte weitergegeben werden.
 50
90.0
 41
0.8
  7
GREEKS
100
AcDbText
  0
HATCH
  5
28F
330
1E
100
AcDbEntity
  8
SCHRAFF
100
AcDbHatch
 10
0.0
 20
0.0
 30
0.0
210
0.0
220
0.0
230
1.0
  2
_USER
 70
     0
 71
     0
 91
        1
 92
        7
 72
     1
 73
     1
 93
        5
 10
202.2118215437354
 20
340.663459601094
 42
0.0
 10
200.0905012001755
 20
340.6634596010939
 42
0.0
 10
197.0905012001755
 20
343.663459601094
 42
0.4508914252525446
 10
202.0174182748687
 20
337.6634596010938
 42
0.0
 10
200.866201601264
 20
340.0006572395833
 42
0.0
 97
        0
 75
     0
 76
     0
 52
0.0
 41
0.1
 77
     0
 78
     1
 53
0.0
 43
33.15230505506634
 44
1.183174324187575
 45
0.0
 46
0.1
 79
     0
 47
0.0172005361569238
 98
        1
 10
200.4570814230819
 20
340.336557631429
  0
ARC
  5
290
102
{ACAD_REACTORS
330
589
102
}
330
1E
100
AcDbEntity
  8
SCHRAFF
100
AcDbCircle
 10
202.2043658375744
 20
342.8398481126303
 30
0.0
 40
5.179763258448029
100
AcDbArc
 50
170.8508162009122
 51
267.9316365180739
  0
ARC
  5
291
330
1E
100
AcDbEntity
  8
STEMPEL
100
AcDbCircle
 10
201.2306947041364
 20
336.9975460503263
 30
0.0
 40
2.5
100
AcDbArc
 50
4.380127142905821
 51
26.22314314378159
  0
ARC
  5
292
102
{ACAD_REACTORS
330
589
102
}
330
1E
100
AcDbEntity
  8
STEMPEL
100
AcDbCircle
 10
201.2306947041364
 20
336.9975460503263
 30
0.0
 40
1.0
100
AcDbArc
 50
4.380127142905821
 51
26.22314314378159
  0
HATCH
  5
293
330
1E
100
AcDbEntity
  8
SCHRAFF
100
AcDbHatch
 10
0.0
 20
0.0
 30
0.0
210
0.0
220
0.0
230
1.0
  2
_USER
 70
     0
 71
     0
 91
        1
 92
        7
 72
     1
 73
     1
 93
        6
 10
249.0905012001757
 20
343.6634596010939
 42
0.0
 10
246.0905012001757
 20
340.6634596010939
 42
0.0
 10
243.969180856616
 20
340.6634596010939
 42
0.0
 10
245.4356734499857
 20
340.3481827805189
 42
0.0
 10
245.0067867435075
 20
338.3532401225149
 42
0.1798931969913645
 10
245.1069590415059
 20
337.6634596010938
 42
0.4061324538948368
 97
        0
 75
     0
 76
     0
 52
0.0
 41
0.1
 77
     0
 78
     1
 53
0.0
 43
33.15230505506634
 44
1.183174324187575
 45
0.0
 46
0.1
 79
     0
 47
0.0254070536845206
 98
        1
 10
247.7379146795788
 20
340.1907928871462
  0
ARC
  5
294
102
{ACAD_REACTORS
330
589
102
}
330
1E
100
AcDbEntity
  8
SCHRAFF
100
AcDbCircle
 10
244.0145524521328
 20
342.7111182291149
 30
0.0
 40
5.164514476844936
100
AcDbArc
 50
282.2115393491878
 51
10.62620844628062
  0
ARC
  5
295
330
1E
100
AcDbEntity
  8
STEMPEL
100
AcDbCircle
 10
245.9844484724206
 20
338.1430555754649
 30
0.0
 40
2.5
100
AcDbArc
 50
167.866832610983
 51
219.0575749987752
  0
ARC
  5
296
102
{ACAD_REACTORS
330
589
102
}
330
1E
100
AcDbEntity
  8
STEMPEL
100
AcDbCircle
 10
245.9844484724206
 20
338.1430555754649
 30
0.0
 40
1.0
100
AcDbArc
 50
167.866832610983
 51
219.0575749987752
  0
HATCH
  5
297
330
1E
100
AcDbEntity
  8
SCHRAFF
100
AcDbHatch
 10
0.0
 20
0.0
 30
0.0
210
0.0
220
0.0
230
1.0
  2
_USER
 70
     0
 71
     1
 91
        1
 92
        7
 72
     1
 73
     1
 93
        3
 10
189.0905012001756
 20
351.6634596010938
 42
0.0
 10
188.1530012001755
 20
354.6634596010939
 42
0.6186054870211397
 10
192.0905012001756
 20
348.6634596010938
 42
0.0
 97
        3
330
2F1
330
298
330
303
 75
     0
 76
     0
 52
0.0
 41
0.1
 77
     0
 78
     1
 53
0.0
 43
33.15230505506634
 44
1.183174324187575
 45
0.0
 46
0.1
 79
     0
 47
0.0237289717694437
 98
        1
 10
188.8491155187212
 20
351.0248997829165
  0
ARC
  5
298
102
{ACAD_REACTORS
330
297
330
589
102
}
330
1E
100
AcDbEntity
  8
SCHRAFF
100
AcDbCircle
 10
191.6186517233185
 20
352.6458005694065
 30
0.0
 40
4.010197191748926
100
AcDbArc
 50
149.7925630758634
 51
276.7572128938032
  0
HATCH
  5
299
330
1E
100
AcDbEntity
  8
SCHRAFF
100
AcDbHatch
 10
0.0
 20
0.0
 30
0.0
210
0.0
220
0.0
230
1.0
  2
_USER
 70
     0
 71
     1
 91
        1
 92
        7
 72
     1
 73
     1
 93
        3
 10
258.0280012001758
 20
354.6634596010941
 42
0.0
 10
257.0905012001757
 20
351.6634596010937
 42
0.0
 10
254.0905012001758
 20
348.6634596010939
 42
0.5731782532909416
 97
        3
330
2ED
330
300
330
29A
 75
     0
 76
     0
 52
0.0
 41
0.1
 77
     0
 78
     1
 53
0.0
 43
33.15230505506634
 44
1.183174324187575
 45
0.0
 46
0.1
 79
     0
 47
0.0237289712093207
 98
        1
 10
257.7355473756365
 20
351.594395204452
  0
ARC
  5
29A
102
{ACAD_REACTORS
330
299
330
589
102
}
330
1E
100
AcDbEntity
  8
SCHRAFF
100
AcDbCircle
 10
254.3020316456156
 20
352.8166349337741
 30
0.0
 40
4.158558701441107
100
AcDbArc
 50
267.0843181140401
 51
26.36590591628932
  0
HATCH
  5
29B
330
1E
100
AcDbEntity
  8
SCHRAFF
100
AcDbHatch
 10
0.0
 20
0.0
 30
0.0
210
0.0
220
0.0
230
1.0
  2
_USER
 70
     0
 71
     1
 91
        1
 92
        7
 72
     1
 73
     1
 93
        5
 10
297.0534450540489
 20
266.2066685949873
 42
0.0
 10
293.923715923411
 20
264.2975338252981
 42
0.0
 10
293.0905012001754
 20
265.6634596010941
 42
0.0
 10
293.0905012001754
 20
263.663459601094
 42
-0.0072175049213816
 10
289.5977746894219
 20
263.7138797691612
 42
0.829004293984382
 97
        5
330
31D
330
31E
330
2B5
330
2B2
330
29C
 75
     0
 76
     0
 52
0.0
 41
0.1
 77
     0
 78
     1
 53
0.0
 43
33.15230505506634
 44
1.183174324187575
 45
0.0
 46
0.1
 79
     0
 47
0.037300614878159
 98
        1
 10
295.5758158461108
 20
263.2942162802637
  0
ARC
  5
29C
102
{ACAD_REACTORS
330
29B
102
}
330
1E
100
AcDbEntity
  8
SCHRAFF
100
AcDbCircle
 10
293.0905012001754
 20
265.6634596010941
 30
0.0
 40
4.0
100
AcDbArc
 50
209.1695030550147
 51
7.80501257815518
  0
HATCH
  5
29D
330
1E
100
AcDbEntity
  8
SCHRAFF
100
AcDbHatch
 10
0.0
 20
0.0
 30
0.0
210
0.0
220
0.0
230
1.0
  2
_USER
 70
     0
 71
     1
 91
        1
 92
        7
 72
     1
 73
     1
 93
        5
 10
289.8078939735823
 20
365.9491738868082
 42
0.0434373015947383
 10
293.0905012001755
 20
365.663459601094
 42
0.0
 10
293.0905012001754
 20
363.663459601094
 42
0.0
 10
293.9237159234109
 20
365.02938537689
 42
0.0
 10
297.053445054049
 20
363.1202506072007
 42
0.7880188719728974
 97
        5
330
2B1
330
2B4
330
2E8
330
2E5
330
29E
 75
     0
 76
     0
 52
0.0
 41
0.1
 77
     0
 78
     1
 53
0.0
 43
33.15230505506634
 44
1.183174324187575
 45
0.0
 46
0.1
 79
     0
 47
0.037300614878159
 98
        1
 10
295.4638339009971
 20
365.6097886251514
  0
ARC
  5
29E
102
{ACAD_REACTORS
330
29D
102
}
330
1E
100
AcDbEntity
  8
SCHRAFF
100
AcDbCircle
 10
293.0905012001755
 20
363.663459601094
 30
0.0
 40
4.0
100
AcDbArc
 50
352.1949874218448
 51
145.1500954209546
  0
ARC
  5
29F
102
{ACAD_REACTORS
330
589
102
}
330
1E
100
AcDbEntity
  8
SCHRAFF
100
AcDbCircle
 10
303.0905012001755
 20
295.3300804115905
 30
0.0
 40
3.004600626702395
100
AcDbArc
 50
213.6893399418216
 51
326.3106600581857
  0
HATCH
  5
2A0
330
1E
100
AcDbEntity
  8
SCHRAFF
100
AcDbHatch
 10
0.0
 20
0.0
 30
0.0
210
0.0
220
0.0
230
1.0
  2
_USER
 70
     0
 71
     0
 91
        1
 92
        7
 72
     1
 73
     1
 93
        2
 10
300.5905012001755
 20
293.6634596010939
 42
0.0
 10
305.5905012001755
 20
293.6634596010939
 42
-0.5351919264823131
 97
        0
 75
     0
 76
     0
 52
0.0
 41
0.1
 77
     0
 78
     1
 53
0.0
 43
33.15230505506634
 44
628.1437448780002
 45
0.0
 46
-0.1
 79
     0
 47
0.0244874615588118
 98
        1
 10
301.9926011690586
 20
293.2611211890267
  0
HATCH
  5
2A1
330
1E
100
AcDbEntity
  8
SCHRAFF
100
AcDbHatch
 10
0.0
 20
0.0
 30
0.0
210
0.0
220
0.0
230
1.0
  2
_USER
 70
     0
 71
     1
 91
        1
 92
        7
 72
     1
 73
     1
 93
        2
 10
300.5905012001755
 20
335.6634596010939
 42
0.0
 10
305.5905012001755
 20
335.6634596010939
 42
0.5351919264823131
 97
        2
330
30E
330
2A2
 75
     0
 76
     0
 52
0.0
 41
0.1
 77
     0
 78
     1
 53
0.0
 43
33.15230505506634
 44
1.183174324187575
 45
0.0
 46
0.1
 79
     0
 47
0.0244874615588118
 98
        1
 10
301.9926011690586
 20
336.0657980131612
  0
ARC
  5
2A2
102
{ACAD_REACTORS
330
2A1
330
589
102
}
330
1E
100
AcDbEntity
  8
SCHRAFF
100
AcDbCircle
 10
303.0905012001755
 20
333.9968387905973
 30
0.0
 40
3.004600626702395
100
AcDbArc
 50
33.68933994181436
 51
146.3106600581784
  0
HATCH
  5
2A3
330
1E
100
AcDbEntity
  8
SCHRAFF
100
AcDbHatch
 10
0.0
 20
0.0
 30
0.0
210
0.0
220
0.0
230
1.0
  2
NET
 70
     0
 71
     1
 91
        2
 92
        7
 72
     1
 73
     1
 93
        5
 10
262.8558985284512
 20
454.6634596010938
 42
-0.1093332246020749
 10
265.1905012001758
 20
444.1145371939751
 42
0.0
 10
265.1905012001758
 20
441.6634596010938
 42
0.0
 10
272.0905012001755
 20
441.6634596010938
 42
0.0
 10
272.0905012001755
 20
454.6634596010938
 42
0.0
 97
        5
330
2C7
330
2C2
330
2E2
330
2C1
330
309
 92
        7
 72
     1
 73
     1
 93
        5
 10
183.3251038719002
 20
454.6634596010939
 42
0.0
 10
174.0905012001755
 20
454.6634596010939
 42
0.0
 10
174.0905012001755
 20
441.6634596010938
 42
0.0
 10
180.9905012001755
 20
441.6634596010938
 42
0.0
 10
180.9905012001755
 20
444.1145371939752
 42
-0.1093332246020748
 97
        5
330
2C7
330
30A
330
2C4
330
2E0
330
2C5
 75
     0
 76
     1
 52
45.0
 41
15.0
 77
     0
 78
     2
 53
45.0
 43
33.15230505506634
 44
1.183174324187575
 45
-1.325825214724776
 46
1.325825214724776
 79
     0
 53
135.0
 43
33.15230505506634
 44
1.183174324187575
 45
-1.325825214724776
 46
-1.325825214724776
 79
     0
 47
0.194207868078679
 98
        2
 10
267.3358509489967
 20
453.0071805916845
 10
179.1031151217685
 20
451.0651018504879
  0
HATCH
  5
2A5
330
1E
100
AcDbEntity
  8
SCHRAFF
100
AcDbHatch
 10
0.0
 20
0.0
 30
0.0
210
0.0
220
0.0
230
1.0
  2
_USER
 70
     0
 71
     0
 91
        2
 92
        7
 72
     1
 73
     1
 93
        8
 10
698.0905012001754
 20
359.1634596010938
 42
0.0
 10
306.9111363382757
 20
359.163459601094
 42
-0.1377973704969901
 10
300.6620259140092
 20
360.9190162826248
 42
0.0
 10
293.9237159234109
 20
365.0293853768899
 42
0.0
 10
293.0905012001755
 20
363.663459601094
 42
0.0
 10
299.828811190774
 20
359.5530905068288
 42
0.1377973704969847
 10
306.9111363382757
 20
357.5634596010939
 42
0.0
 10
698.0905012001754
 20
357.5634596010938
 42
0.0
 97
        0
 92
        7
 72
     1
 73
     1
 93
        8
 10
698.0905012001755
 20
271.7634596010939
 42
0.0
 10
306.9111363382757
 20
271.7634596010939
 42
0.1377973704969879
 10
299.8288111907738
 20
269.773828695359
 42
0.0
 10
293.0905012001755
 20
265.663459601094
 42
0.0
 10
293.9237159234108
 20
264.2975338252981
 42
0.0
 10
300.6620259140094
 20
268.4079029195632
 42
-0.1377973704969855
 10
306.9111363382757
 20
270.1634596010939
 42
0.0
 10
698.0905012001755
 20
270.1634596010939
 42
0.0
 97
        0
 75
     0
 76
     0
 52
45.0
 41
2.0
 77
     0
 78
     1
 53
45.0
 43
33.15230505506634
 44
1.183174324187575
 45
-1.414213562373094
 46
1.414213562373095
 79
     0
 47
0.6154895469625456
 98
        2
 10
574.9469655758616
 20
358.6117008647812
 10
512.1226292626992
 20
270.5966953333666
  0
HATCH
  5
2A6
330
1E
100
AcDbEntity
  8
SCHRAFF
100
AcDbHatch
 10
0.0
 20
0.0
 30
0.0
210
0.0
220
0.0
230
1.0
  2
_USER
 70
     0
 71
     1
 91
        2
 92
       23
 72
     1
 73
     1
 93
        6
 10
274.0905012001755
 20
454.6634596010937
 42
0.0
 10
272.0905012001755
 20
454.6634596010937
 42
0.0
 10
272.0905012001754
 20
384.663459601094
 42
0.4142135623730969
 10
293.0905012001755
 20
363.663459601094
 42
0.0
 10
293.0905012001755
 20
365.663459601094
 42
-0.4142135623730953
 10
274.0905012001755
 20
384.663459601094
 42
0.0
 97
        6
330
2C7
330
309
330
2B0
330
2B4
330
2B1
330
30C
 92
        7
 72
     1
 73
     1
 93
        6
 10
174.0905012001755
 20
454.6634596010939
 42
0.0
 10
172.0905012001755
 20
454.6634596010938
 42
0.0
 10
172.0905012001755
 20
384.6634596010941
 42
0.4142135623730953
 10
293.0905012001754
 20
263.6634596010939
 42
0.0
 10
293.0905012001754
 20
265.663459601094
 42
-0.414213562373095
 10
174.0905012001755
 20
384.6634596010941
 42
0.0
 97
        6
330
2C7
330
30B
330
2B2
330
2B5
330
2AF
330
30A
 75
     0
 76
     0
 52
135.0
 41
2.0
 77
     0
 78
     1
 53
135.0
 43
33.15230505506634
 44
1.183174324187575
 45
-1.414213562373095
 46
-1.414213562373094
 79
     0
 47
0.388956832156751
 98
        2
 10
273.3492956647533
 20
415.8858489639547
 10
173.7059223007868
 20
405.3840138517752
  0
HATCH
  5
2A7
330
1E
100
AcDbEntity
  8
SCHRAFF
100
AcDbHatch
 10
0.0
 20
0.0
 30
0.0
210
0.0
220
0.0
230
1.0
  2
_USER
 70
     0
 71
     1
 91
        2
 92
        7
 72
     0
 73
     1
 93
        6
 10
716.0905012001751
 20
334.1634596010939
 10
723.0905012001754
 20
333.5510389564123
 10
723.0905012001755
 20
335.0567687127274
 10
716.1559926145378
 20
335.6634596010939
 10
303.0905012001755
 20
335.6634596010939
 10
303.0905012001755
 20
334.1634596010939
 97
        6
330
2BD
330
30E
330
328
330
30F
330
2BE
330
324
 92
        7
 72
     0
 73
     1
 93
        6
 10
716.1559926145386
 20
293.663459601094
 10
723.0905012001756
 20
294.2701504894604
 10
723.0905012001756
 20
295.7758802457755
 10
716.0905012001753
 20
295.163459601094
 10
303.0905012001755
 20
295.163459601094
 10
303.0905012001755
 20
293.6634596010939
 97
        6
330
315
330
320
330
328
330
31F
330
316
330
324
 75
     0
 76
     0
 52
135.0
 41
2.0
 77
     0
 78
     1
 53
135.0
 43
33.15230505506634
 44
1.183174324187575
 45
-1.414213562373095
 46
-1.414213562373094
 79
     0
 47
0.5691784415263362
 98
        2
 10
624.8002532285132
 20
334.7965876194066
 10
608.2824036578895
 20
294.38491861688
  0
HATCH
  5
2A8
330
1E
100
AcDbEntity
  8
SCHRAFF
100
AcDbHatch
 10
0.0
 20
0.0
 30
0.0
210
0.0
220
0.0
230
1.0
  2
_USER
 70
     0
 71
     1
 91
        2
 92
        7
 72
     0
 73
     1
 93
        4
 10
243.9691808566159
 20
340.6634596010939
 10
246.0905012001757
 20
340.6634596010939
 10
257.0905012001758
 20
351.6634596010939
 10
254.9691808566159
 20
351.6634596010939
 97
        4
330
2F3
330
301
330
2FE
330
300
 92
        7
 72
     0
 73
     1
 93
        4
 10
191.2118215437352
 20
351.6634596010939
 10
189.0905012001756
 20
351.6634596010939
 10
200.0905012001756
 20
340.6634596010939
 10
202.2118215437353
 20
340.6634596010939
 97
        4
330
2F3
330
303
330
2FE
330
302
 75
     0
 76
     0
 52
135.0
 41
1.0
 77
     0
 78
     1
 53
135.0
 43
33.15230505506634
 44
1.183174324187575
 45
-0.7071067811865476
 46
-0.7071067811865475
 79
     0
 47
0.101730137022936
 98
        2
 10
249.7654394498222
 20
345.779033793096
 10
198.9661948719067
 20
343.3375105323082
  0
HATCH
  5
2A9
330
1E
100
AcDbEntity
  8
SCHRAFF
100
AcDbHatch
 10
0.0
 20
0.0
 30
0.0
210
0.0
220
0.0
230
1.0
  2
_USER
 70
     0
 71
     1
 91
        2
 92
        7
 72
     1
 73
     1
 93
       22
 10
257.9905012001756
 20
361.1285244604346
 42
-0.0758662707634283
 10
257.6263410244557
 20
358.7423245153472
 42
0.0
 10
255.5633332353196
 20
352.1406995901114
 42
0.0
 10
257.0905012001757
 20
351.6634596010939
 42
0.0
 10
259.1535089893119
 20
358.2650845263294
 42
0.0758662707634226
 10
259.5905012001755
 20
361.128524460434
 42
0.0
 10
259.5905012001757
 20
394.3568599365252
 42
-0.1420008527982322
 10
260.8305012001758
 20
398.6349903693195
 42
0.1420008527982313
 10
262.6905012001756
 20
405.0521860185109
 42
0.0
 10
262.6905012001756
 20
421.6634596010939
 42
-0.0926930603363572
 10
263.5013402086173
 20
425.9996648897065
 42
0.092004438419248
 10
265.1905012001758
 20
434.9651795529204
 42
0.0
 10
265.1905012001758
 20
444.1145371939752
 42
0.1093332246020744
 10
262.8558985284511
 20
454.6634596010938
 42
0.0
 10
261.0778235764066
 20
454.6634596010938
 42
-0.1174534402570143
 10
263.5905012001757
 20
444.1145371939752
 42
0.0
 10
263.5905012001757
 20
435.0995185670288
 42
-0.0934049271928111
 10
262.0094520764098
 20
426.5778255948547
 42
0.092693060336367
 10
261.0905012001755
 20
421.6634596010933
 42
0.0
 10
261.0905012001755
 20
405.0521860185109
 42
-0.1420008527982318
 10
259.4785012001755
 20
399.4906164558784
 42
0.1420008527982328
 10
257.9905012001756
 20
394.3568599365252
 42
0.0
 97
       22
330
2CE
330
2D0
330
2D2
330
2CC
330
2C9
330
2E2
330
2C2
330
2C7
330
2C3
330
2E3
330
2CA
330
2CB
330
2D1
330
2CF
330
2CD
330
307
330
2E9
330
2EC
330
2EB
330
2ED
330
2EA
330
308
 92
        7
 72
     1
 73
     1
 93
       22
 10
186.5905012001754
 20
361.1285244604353
 42
0.0758662707634458
 10
187.0274934110392
 20
358.2650845263298
 42
0.0
 10
189.0905012001756
 20
351.6634596010939
 42
0.0
 10
190.6176691650317
 20
352.1406995901114
 42
0.0
 10
188.5546613758952
 20
358.7423245153476
 42
-0.0758662707634494
 10
188.1905012001753
 20
361.1285244604356
 42
0.0
 10
188.1905012001753
 20
394.3568599365252
 42
0.1420008527982331
 10
186.7025012001755
 20
399.4906164558784
 42
-0.1420008527982317
 10
185.0905012001754
 20
405.0521860185109
 42
0.0
 10
185.0905012001754
 20
421.6634596010939
 42
0.0926930603363595
 10
184.1715503239415
 20
426.5778255948549
 42
-0.0934049271926537
 10
182.5905012001754
 20
435.0995185670143
 42
0.0
 10
182.5905012001754
 20
444.1145371939752
 42
-0.1174534402570152
 10
185.1031788239447
 20
454.6634596010939
 42
0.0
 10
183.3251038719002
 20
454.6634596010939
 42
0.1093332246020748
 10
180.9905012001755
 20
444.1145371939752
 42
0.0
 10
180.9905012001755
 20
434.9651795529082
 42
0.0920044384191244
 10
182.6796621917338
 20
425.9996648897064
 42
-0.0926930603363569
 10
183.4905012001755
 20
421.6634596010939
 42
0.0
 10
183.4905012001755
 20
405.0521860185109
 42
0.1420008527982314
 10
185.3505012001755
 20
398.6349903693195
 42
-0.1420008527982331
 10
186.5905012001754
 20
394.3568599365252
 42
0.0
 97
       22
330
2D8
330
2DA
330
2DC
330
2D6
330
2D4
330
2E1
330
2C6
330
2C7
330
2C5
330
2E0
330
2D3
330
2D5
330
2DB
330
2D9
330
2D7
330
305
330
2EF
330
2F1
330
2F0
330
2F2
330
2EE
330
306
 75
     0
 76
     0
 52
45.0
 41
2.0
 77
     0
 78
     1
 53
45.0
 43
33.15230505506634
 44
1.183174324187575
 45
-1.414213562373094
 46
1.414213562373095
 79
     0
 47
0.2721968530324906
 98
        2
 10
258.689628919205
 20
381.5866674130186
 10
187.3236114582264
 20
383.492045235643
  0
HATCH
  5
2AA
330
1E
100
AcDbEntity
  8
SCHRAFF
100
AcDbHatch
 10
0.0
 20
0.0
 30
0.0
210
0.0
220
0.0
230
1.0
  2
_U
 70
     0
 71
     0
 91
        2
 92
       23
 72
     1
 73
     1
 93
        8
 10
303.0905012001754
 20
335.6634596010938
 42
0.0
 10
249.0905012001754
 20
335.6634596010939
 42
-0.2524414607802596
 10
244.9128400683263
 20
337.9162523887714
 42
0.0
 10
245.4356734499857
 20
340.348182780519
 42
0.0
 10
243.9691808566159
 20
340.6634596010939
 42
0.0
 10
243.3242199028401
 20
337.6634596010938
 42
0.2797392812230322
 10
249.0905012001754
 20
334.1634596010939
 42
0.0
 10
303.0905012001754
 20
334.1634596010938
 42
0.0
 97
        0
 92
        7
 72
     1
 73
     1
 93
        8
 10
303.0905012001753
 20
295.163459601094
 42
0.0
 10
249.0905012001754
 20
295.1634596010939
 42
-0.3950173219843981
 10
203.6895100215679
 20
337.6634596010939
 42
0.0
 10
202.2118215437352
 20
340.6634596010939
 42
0.0
 10
200.866201601264
 20
340.0006572395833
 42
0.0
 10
202.2135027659348
 20
337.2653692850205
 42
0.3931743114544613
 10
249.0905012001754
 20
293.6634596010939
 42
0.0
 10
303.0905012001755
 20
293.6634596010939
 42
0.0
 97
        0
 75
     0
 76
     0
 52
45.0
 41
2.0
 77
     0
 78
     1
 53
45.0
 43
33.15230505506634
 44
1.183174324187575
 45
-1.414213562373094
 46
1.414213562373095
 79
     0
 47
0.5217145550752499
 98
        2
 10
272.4274919191152
 20
334.8196485401688
 10
257.287070598119
 20
294.1259124352377
  0
DIMENSION
  5
2AB
102
{ACAD_XDICTIONARY
360
2AC
102
}
102
{ACAD_REACTORS
330
2AD
102
}
330
1E
100
AcDbEntity
  8
BEM
100
AcDbDimension
  2
*D8
 10
223.0905012001755
 20
459.6634596010939
 30
0.0
 11
165.2153949127421
 21
254.1648422534477
 31
0.0
 70
   162
 71
     5
 42
1.570796326794895
  3
Standard
100
AcDb2LineAngularDimension
 13
728.0905012001755
 23
314.6634596010939
 33
0.0
 14
223.0905012001754
 24
314.6634596010939
 34
0.0
 15
223.0905012001754
 25
314.6634596010939
 35
0.0
 16
150.5838948006963
 26
272.8017508783285
 36
0.0
1001
ACAD
1000
DSTYLE
1002
{
1070
    40
1040
2.0
1070
    41
1040
3.5
1070
    42
1040
1.0
1070
    43
1040
7.0
1070
    44
1040
1.0
1070
    73
1070
     0
1070
    74
1070
     0
1070
    77
1070
     1
1070
    78
1070
     8
1070
    79
1070
     2
1070
   140
1040
3.5
1070
   141
1040
1.5
1070
   146
1040
0.5
1070
   147
1040
1.5
1070
   172
1070
     1
1070
   178
1070
     1
1070
   179
1070
     2
1070
   271
1070
     2
1070
   272
1070
     2
1070
   284
1070
     8
1070
   285
1070
     8
1070
   286
1070
     8
1002
}
  0
ARC
  5
2AF
102
{ACAD_REACTORS
330
2A6
330
589
102
}
330
1E
100
AcDbEntity
  8
STEMPEL
100
AcDbCircle
 10
293.0905012001755
 20
384.663459601094
 30
0.0
 40
119.0
100
AcDbArc
 50
180.0
 51
270.0
  0
ARC
  5
2B0
102
{ACAD_REACTORS
330
2A6
330
589
102
}
330
1E
100
AcDbEntity
  8
STEMPEL
100
AcDbCircle
 10
293.0905012001755
 20
384.663459601094
 30
0.0
 40
21.0
100
AcDbArc
 50
180.0
 51
270.0
  0
ARC
  5
2B1
102
{ACAD_REACTORS
330
2A6
330
29D
102
}
330
1E
100
AcDbEntity
  8
STEMPEL
100
AcDbCircle
 10
293.0905012001755
 20
384.663459601094
 30
0.0
 40
19.0
100
AcDbArc
 50
180.0
 51
270.0
  0
ARC
  5
2B2
102
{ACAD_REACTORS
330
2A6
330
29B
102
}
330
1E
100
AcDbEntity
  8
STEMPEL
100
AcDbCircle
 10
293.0905012001755
 20
384.663459601094
 30
0.0
 40
121.0
100
AcDbArc
 50
180.0
 51
270.0
  0
ARC
  5
2B3
330
1E
100
AcDbEntity
  8
MITTEL
100
AcDbCircle
 10
293.0905012001755
 20
384.663459601094
 30
0.0
 40
70.0
100
AcDbArc
 50
180.0
 51
270.0
  0
LINE
  5
2B4
102
{ACAD_REACTORS
330
2A6
330
29D
102
}
330
1E
100
AcDbEntity
  8
STEMPEL
100
AcDbLine
 10
293.0905012001755
 20
363.663459601094
 30
0.0
 11
293.0905012001755
 21
365.663459601094
 31
0.0
  0
LINE
  5
2B5
102
{ACAD_REACTORS
330
2A6
330
29B
102
}
330
1E
100
AcDbEntity
  8
STEMPEL
100
AcDbLine
 10
293.0905012001754
 20
263.663459601094
 30
0.0
 11
293.0905012001754
 21
265.663459601094
 31
0.0
  0
DIMENSION
  5
2B7
330
1E
100
AcDbEntity
  8
BEM
100
AcDbDimension
  2
*D2
 10
139.3670837546444
 20
314.6634596010939
 30
0.0
 11
132.8670837546444
 21
384.663459601094
 31
0.0
 70
    32
 71
     5
 42
140.0
  3
Standard
100
AcDbAlignedDimension
 13
172.0905012001755
 23
454.6634596010939
 33
0.0
 14
223.0905012001755
 24
314.6634596010939
 34
0.0
 50
90.0
100
AcDbRotatedDimension
1001
ACAD
1000
DSTYLE
1002
{
1070
    40
1040
2.0
1070
    41
1040
3.5
1070
    42
1040
1.0
1070
    43
1040
7.0
1070
    44
1040
1.0
1070
    73
1070
     0
1070
    74
1070
     0
1070
    77
1070
     1
1070
    78
1070
     8
1070
    79
1070
     2
1070
   140
1040
3.5
1070
   141
1040
1.5
1070
   146
1040
0.5
1070
   147
1040
1.5
1070
   172
1070
     1
1070
   178
1070
     1
1070
   179
1070
     2
1070
   271
1070
     2
1070
   272
1070
     2
1070
   284
1070
     8
1070
   285
1070
     8
1070
   286
1070
     8
1002
}
  0
LINE
  5
2BB
102
{ACAD_REACTORS
330
54A
102
}
330
1E
100
AcDbEntity
  8
STEMPEL
100
AcDbLine
 10
692.0905012001754
 20
335.6634596010939
 30
0.0
 11
692.0905012001754
 21
339.1993579859562
 31
0.0
  0
LINE
  5
2BD
102
{ACAD_REACTORS
330
2A7
102
}
330
1E
100
AcDbEntity
  8
STEMPEL
100
AcDbLine
 10
716.1559926145381
 20
335.6634596010939
 30
0.0
 11
723.0905012001755
 21
335.0567687127274
 31
0.0
  0
LINE
  5
2BE
102
{ACAD_REACTORS
330
2A7
102
}
330
1E
100
AcDbEntity
  8
STEMPEL
100
AcDbLine
 10
716.0905012001754
 20
334.1634596010939
 30
0.0
 11
723.0905012001755
 21
333.5510389564123
 31
0.0
  0
LINE
  5
2BF
102
{ACAD_REACTORS
330
54A
102
}
330
1E
100
AcDbEntity
  8
STEMPEL
100
AcDbLine
 10
698.0905012001755
 20
357.5634596010939
 30
0.0
 11
698.0905012001755
 21
359.1634596010939
 31
0.0
  0
LINE
  5
2C0
102
{ACAD_REACTORS
330
54A
330
589
102
}
330
1E
100
AcDbEntity
  8
STEMPEL
100
AcDbLine
 10
682.0905012001754
 20
335.6634596010939
 30
0.0
 11
682.0905012001754
 21
357.5634596010939
 31
0.0
  0
LINE
  5
2C1
102
{ACAD_REACTORS
330
2A3
330
589
102
}
330
1E
100
AcDbEntity
  8
STEMPEL
100
AcDbLine
 10
265.1905012001756
 20
441.6634596010937
 30
0.0
 11
272.0905012001756
 21
441.6634596010937
 31
0.0
  0
ARC
  5
2C2
102
{ACAD_REACTORS
330
2A9
330
2A3
102
}
330
1E
100
AcDbEntity
  8
STEMPEL
100
AcDbCircle
 10
240.1905012001758
 20
444.1145371939752
 30
0.0
 40
25.0
100
AcDbArc
 50
0.0
 51
24.95819631231679
  0
ARC
  5
2C3
102
{ACAD_REACTORS
330
2A9
102
}
330
1E
100
AcDbEntity
  8
STEMPEL
100
AcDbCircle
 10
240.1905012001758
 20
444.1145371939752
 30
0.0
 40
23.4
100
AcDbArc
 50
0.0
 51
26.79557793123296
  0
LINE
  5
2C4
102
{ACAD_REACTORS
330
2A3
330
589
102
}
330
1E
100
AcDbEntity
  8
STEMPEL
100
AcDbLine
 10
180.9905012001755
 20
441.6634596010939
 30
0.0
 11
174.0905012001755
 21
441.6634596010939
 31
0.0
  0
ARC
  5
2C5
102
{ACAD_REACTORS
330
2A9
330
2A3
102
}
330
1E
100
AcDbEntity
  8
STEMPEL
100
AcDbCircle
 10
205.9905012001756
 20
444.1145371939752
 30
0.0
 40
25.0
100
AcDbArc
 50
155.0418036876832
 51
180.0
  0
ARC
  5
2C6
102
{ACAD_REACTORS
330
2A9
102
}
330
1E
100
AcDbEntity
  8
STEMPEL
100
AcDbCircle
 10
205.9905012001756
 20
444.1145371939752
 30
0.0
 40
23.4
100
AcDbArc
 50
153.204422068767
 51
180.0
  0
LINE
  5
2C7
102
{ACAD_REACTORS
330
2A9
330
2A6
330
2A3
102
}
330
1E
100
AcDbEntity
  8
STEMPEL
100
AcDbLine
 10
274.0905012001755
 20
454.6634596010938
 30
0.0
 11
172.0905012001755
 21
454.6634596010939
 31
0.0
  0
DIMENSION
  5
2C8
330
1E
100
AcDbEntity
  8
BEM
100
AcDbDimension
  2
*D3
 10
274.0905012001755
 20
479.1201444105658
 30
0.0
 11
223.0905012001755
 21
485.6201444105658
 31
0.0
 70
    32
  1
%%c<>
 71
     5
 42
101.9999999999999
  3
Standard
100
AcDbAlignedDimension
 13
172.0905012001755
 23
454.6634596010939
 33
0.0
 14
274.0905012001755
 24
454.6634596010938
 34
0.0
100
AcDbRotatedDimension
1001
ACAD
1000
DSTYLE
1002
{
1070
    40
1040
2.0
1070
    41
1040
3.5
1070
    42
1040
1.0
1070
    43
1040
7.0
1070
    44
1040
1.0
1070
    73
1070
     0
1070
    74
1070
     0
1070
    77
1070
     1
1070
    78
1070
     8
1070
    79
1070
     2
1070
   140
1040
3.5
1070
   141
1040
1.5
1070
   146
1040
0.5
1070
   147
1040
1.5
1070
   172
1070
     1
1070
   178
1070
     1
1070
   179
1070
     2
1070
   271
1070
     2
1070
   272
1070
     2
1070
   284
1070
     8
1070
   285
1070
     8
1070
   286
1070
     8
1002
}
  0
ARC
  5
2C9
102
{ACAD_REACTORS
330
2A9
330
589
102
}
330
1E
100
AcDbEntity
  8
STEMPEL
100
AcDbCircle
 10
240.1905012001758
 20
435.0334596010937
 30
0.0
 40
25.00009324312574
100
AcDbArc
 50
338.8168456069636
 51
0.1564859543669127
  0
ARC
  5
2CA
102
{ACAD_REACTORS
330
2A9
102
}
330
1E
100
AcDbEntity
  8
STEMPEL
100
AcDbCircle
 10
240.1905012001758
 20
435.0334596010937
 30
0.0
 40
23.40009324312573
100
AcDbArc
 50
338.8168456069636
 51
0.1617474313028211
  0
ARC
  5
2CB
102
{ACAD_REACTORS
330
2A9
102
}
330
1E
100
AcDbEntity
  8
STEMPEL
100
AcDbCircle
 10
274.6905012001756
 20
421.6634596010939
 30
0.0
 40
13.6
100
AcDbArc
 50
158.8168456069635
 51
180.0
  0
ARC
  5
2CC
102
{ACAD_REACTORS
330
2A9
330
589
102
}
330
1E
100
AcDbEntity
  8
STEMPEL
100
AcDbCircle
 10
274.6905012001756
 20
421.6634596010939
 30
0.0
 40
12.0
100
AcDbArc
 50
158.8168456069635
 51
180.0
  0
ARC
  5
2CD
102
{ACAD_REACTORS
330
2A9
102
}
330
1E
100
AcDbEntity
  8
STEMPEL
100
AcDbCircle
 10
267.5905012001757
 20
394.3568599365252
 30
0.0
 40
9.599999999999999
100
AcDbArc
 50
147.6719358778349
 51
180.0
  0
ARC
  5
2CE
102
{ACAD_REACTORS
330
2A9
330
589
102
}
330
1E
100
AcDbEntity
  8
STEMPEL
100
AcDbCircle
 10
267.5905012001757
 20
394.3568599365252
 30
0.0
 40
8.0
100
AcDbArc
 50
147.6719358778349
 51
180.0
  0
ARC
  5
2CF
102
{ACAD_REACTORS
330
2A9
102
}
330
1E
100
AcDbEntity
  8
STEMPEL
100
AcDbCircle
 10
250.6905012001756
 20
405.0521860185109
 30
0.0
 40
10.4
100
AcDbArc
 50
327.6719358778349
 51
0.0
  0
ARC
  5
2D0
102
{ACAD_REACTORS
330
2A9
330
589
102
}
330
1E
100
AcDbEntity
  8
STEMPEL
100
AcDbCircle
 10
250.6905012001756
 20
405.0521860185109
 30
0.0
 40
12.0
100
AcDbArc
 50
327.6719358778349
 51
0.0
  0
LINE
  5
2D1
102
{ACAD_REACTORS
330
2A9
102
}
330
1E
100
AcDbEntity
  8
STEMPEL
100
AcDbLine
 10
261.0905012001755
 20
421.6634596010939
 30
0.0
 11
261.0905012001755
 21
405.0521860185109
 31
0.0
  0
LINE
  5
2D2
102
{ACAD_REACTORS
330
2A9
330
589
102
}
330
1E
100
AcDbEntity
  8
STEMPEL
100
AcDbLine
 10
262.6905012001756
 20
421.6634596010939
 30
0.0
 11
262.6905012001756
 21
405.0521860185109
 31
0.0
  0
ARC
  5
2D3
102
{ACAD_REACTORS
330
2A9
330
589
102
}
330
1E
100
AcDbEntity
  8
STEMPEL
100
AcDbCircle
 10
205.9905012001756
 20
435.0334596010937
 30
0.0
 40
25.00009324312574
100
AcDbArc
 50
179.8435140456396
 51
201.1831543930364
  0
ARC
  5
2D4
102
{ACAD_REACTORS
330
2A9
102
}
330
1E
100
AcDbEntity
  8
STEMPEL
100
AcDbCircle
 10
205.9905012001756
 20
435.0334596010937
 30
0.0
 40
23.40009324312573
100
AcDbArc
 50
179.8382525687297
 51
201.1831543930364
  0
ARC
  5
2D5
102
{ACAD_REACTORS
330
2A9
330
589
102
}
330
1E
100
AcDbEntity
  8
STEMPEL
100
AcDbCircle
 10
171.4905012001755
 20
421.6634596010939
 30
0.0
 40
12.0
100
AcDbArc
 50
0.0
 51
21.18315439303641
  0
ARC
  5
2D6
102
{ACAD_REACTORS
330
2A9
102
}
330
1E
100
AcDbEntity
  8
STEMPEL
100
AcDbCircle
 10
171.4905012001755
 20
421.6634596010939
 30
0.0
 40
13.6
100
AcDbArc
 50
0.0
 51
21.18315439303641
  0
ARC
  5
2D7
102
{ACAD_REACTORS
330
2A9
330
589
102
}
330
1E
100
AcDbEntity
  8
STEMPEL
100
AcDbCircle
 10
178.5905012001754
 20
394.3568599365252
 30
0.0
 40
8.0
100
AcDbArc
 50
0.0
 51
32.32806412216511
  0
ARC
  5
2D8
102
{ACAD_REACTORS
330
2A9
102
}
330
1E
100
AcDbEntity
  8
STEMPEL
100
AcDbCircle
 10
178.5905012001754
 20
394.3568599365252
 30
0.0
 40
9.599999999999999
100
AcDbArc
 50
0.0
 51
32.32806412216511
  0
ARC
  5
2D9
102
{ACAD_REACTORS
330
2A9
330
589
102
}
330
1E
100
AcDbEntity
  8
STEMPEL
100
AcDbCircle
 10
195.4905012001755
 20
405.0521860185109
 30
0.0
 40
12.0
100
AcDbArc
 50
180.0
 51
212.3280641221651
  0
ARC
  5
2DA
102
{ACAD_REACTORS
330
2A9
102
}
330
1E
100
AcDbEntity
  8
STEMPEL
100
AcDbCircle
 10
195.4905012001755
 20
405.0521860185109
 30
0.0
 40
10.4
100
AcDbArc
 50
180.0
 51
212.3280641221651
  0
LINE
  5
2DB
102
{ACAD_REACTORS
330
2A9
330
589
102
}
330
1E
100
AcDbEntity
  8
STEMPEL
100
AcDbLine
 10
183.4905012001755
 20
421.6634596010939
 30
0.0
 11
183.4905012001755
 21
405.0521860185109
 31
0.0
  0
LINE
  5
2DC
102
{ACAD_REACTORS
330
2A9
102
}
330
1E
100
AcDbEntity
  8
STEMPEL
100
AcDbLine
 10
185.0905012001754
 20
421.6634596010939
 30
0.0
 11
185.0905012001754
 21
405.0521860185109
 31
0.0
  0
LINE
  5
2E0
102
{ACAD_REACTORS
330
2A9
330
2A3
330
589
102
}
330
1E
100
AcDbEntity
  8
STEMPEL
100
AcDbLine
 10
180.9905012001755
 20
444.1145371939752
 30
0.0
 11
180.9905012001755
 21
435.1017396492875
 31
0.0
  0
LINE
  5
2E1
102
{ACAD_REACTORS
330
2A9
102
}
330
1E
100
AcDbEntity
  8
STEMPEL
100
AcDbLine
 10
182.5905012001754
 20
444.1145371939752
 30
0.0
 11
182.5905012001754
 21
435.0995185670143
 31
0.0
  0
LINE
  5
2E2
102
{ACAD_REACTORS
330
2A9
330
2A3
330
589
102
}
330
1E
100
AcDbEntity
  8
STEMPEL
100
AcDbLine
 10
265.1905012001758
 20
444.1145371939752
 30
0.0
 11
265.1905012001758
 21
435.1017396492927
 31
0.0
  0
LINE
  5
2E3
102
{ACAD_REACTORS
330
2A9
102
}
330
1E
100
AcDbEntity
  8
STEMPEL
100
AcDbLine
 10
263.5905012001757
 20
444.1145371939752
 30
0.0
 11
263.5905012001757
 21
435.0995185670288
 31
0.0
  0
LINE
  5
2E4
102
{ACAD_REACTORS
330
589
102
}
330
1E
100
AcDbEntity
  8
STEMPEL
100
AcDbLine
 10
299.828811190774
 20
359.5530905068288
 30
0.0
 11
293.0905012001755
 21
363.663459601094
 31
0.0
  0
LINE
  5
2E5
102
{ACAD_REACTORS
330
29D
102
}
330
1E
100
AcDbEntity
  8
STEMPEL
100
AcDbLine
 10
300.6620259140094
 20
360.9190162826247
 30
0.0
 11
293.9237159234109
 21
365.0293853768899
 31
0.0
  0
ARC
  5
2E6
330
1E
100
AcDbEntity
  8
STEMPEL
100
AcDbCircle
 10
306.9111363382757
 20
371.1634596010939
 30
0.0
 40
12.0
100
AcDbArc
 50
238.6168089436427
 51
270.0
  0
ARC
  5
2E7
102
{ACAD_REACTORS
330
589
102
}
330
1E
100
AcDbEntity
  8
STEMPEL
100
AcDbCircle
 10
306.9111363382757
 20
371.1634596010939
 30
0.0
 40
13.6
100
AcDbArc
 50
238.6168089436427
 51
270.0
  0
LINE
  5
2E8
102
{ACAD_REACTORS
330
29D
102
}
330
1E
100
AcDbEntity
  8
STEMPEL
100
AcDbLine
 10
293.0905012001755
 20
363.663459601094
 30
0.0
 11
293.9237159234109
 21
365.0293853768899
 31
0.0
  0
ARC
  5
2E9
102
{ACAD_REACTORS
330
2A9
102
}
330
1E
100
AcDbEntity
  8
STEMPEL
100
AcDbCircle
 10
249.9905012001756
 20
361.1285244604346
 30
0.0
 40
8.0
100
AcDbArc
 50
342.6459753637403
 51
0.0
  0
ARC
  5
2EA
102
{ACAD_REACTORS
330
2A9
330
589
102
}
330
1E
100
AcDbEntity
  8
STEMPEL
100
AcDbCircle
 10
249.9905012001756
 20
361.1285244604346
 30
0.0
 40
9.599999999999999
100
AcDbArc
 50
342.6459753637403
 51
0.0
  0
LINE
  5
2EB
102
{ACAD_REACTORS
330
2A9
102
}
330
1E
100
AcDbEntity
  8
STEMPEL
100
AcDbLine
 10
257.0905012001757
 20
351.6634596010939
 30
0.0
 11
255.5633332353196
 21
352.1406995901115
 31
0.0
  0
LINE
  5
2EC
102
{ACAD_REACTORS
330
2A9
102
}
330
1E
100
AcDbEntity
  8
STEMPEL
100
AcDbLine
 10
257.6263410244556
 20
358.742324515347
 30
0.0
 11
255.5633332353196
 21
352.1406995901115
 31
0.0
  0
LINE
  5
2ED
102
{ACAD_REACTORS
330
2A9
330
299
330
589
102
}
330
1E
100
AcDbEntity
  8
STEMPEL
100
AcDbLine
 10
259.1535089893119
 20
358.2650845263294
 30
0.0
 11
257.0905012001757
 21
351.6634596010939
 31
0.0
  0
ARC
  5
2EE
102
{ACAD_REACTORS
330
2A9
102
}
330
1E
100
AcDbEntity
  8
STEMPEL
100
AcDbCircle
 10
196.1905012001753
 20
361.1285244604353
 30
0.0
 40
8.0
100
AcDbArc
 50
180.0
 51
197.3540246362597
  0
ARC
  5
2EF
102
{ACAD_REACTORS
330
2A9
330
589
102
}
330
1E
100
AcDbEntity
  8
STEMPEL
100
AcDbCircle
 10
196.1905012001753
 20
361.1285244604353
 30
0.0
 40
9.599999999999999
100
AcDbArc
 50
180.0
 51
197.3540246362597
  0
LINE
  5
2F0
102
{ACAD_REACTORS
330
2A9
102
}
330
1E
100
AcDbEntity
  8
STEMPEL
100
AcDbLine
 10
189.0905012001756
 20
351.6634596010939
 30
0.0
 11
190.6176691650317
 21
352.1406995901114
 31
0.0
  0
LINE
  5
2F1
102
{ACAD_REACTORS
330
2A9
330
297
330
589
102
}
330
1E
100
AcDbEntity
  8
STEMPEL
100
AcDbLine
 10
187.0274934110392
 20
358.26508452633
 30
0.0
 11
189.0905012001756
 21
351.6634596010939
 31
0.0
  0
LINE
  5
2F2
102
{ACAD_REACTORS
330
2A9
102
}
330
1E
100
AcDbEntity
  8
STEMPEL
100
AcDbLine
 10
188.5546613758952
 20
358.7423245153476
 30
0.0
 11
190.6176691650317
 21
352.1406995901114
 31
0.0
  0
LINE
  5
2F3
102
{ACAD_REACTORS
330
2A8
102
}
330
1E
100
AcDbEntity
  8
STEMPEL
100
AcDbLine
 10
189.0905012001756
 20
351.6634596010939
 30
0.0
 11
257.0905012001757
 21
351.6634596010939
 31
0.0
  0
LINE
  5
2F4
330
1E
100
AcDbEntity
  8
HILF
100
AcDbLine
 10
189.9604462278713
 20
359.6634596010939
 30
0.0
 11
256.2205561724799
 21
359.6634596010939
 31
0.0
  0
LINE
  5
2F5
330
1E
100
AcDbEntity
  8
STEMPEL
100
AcDbLine
 10
243.5402941501378
 20
338.6685169430899
 30
0.0
 11
243.9691808566159
 21
340.6634596010939
 31
0.0
  0
LINE
  5
2F6
330
1E
100
AcDbEntity
  8
STEMPEL
100
AcDbLine
 10
245.0067867435075
 20
338.3532401225149
 30
0.0
 11
245.4356734499856
 21
340.3481827805189
 31
0.0
  0
LINE
  5
2F7
330
1E
100
AcDbEntity
  8
STEMPEL
100
AcDbLine
 10
243.9691808566159
 20
340.6634596010939
 30
0.0
 11
245.4356734499856
 21
340.3481827805189
 31
0.0
  0
ARC
  5
2F8
102
{ACAD_REACTORS
330
589
102
}
330
1E
100
AcDbEntity
  8
STEMPEL
100
AcDbCircle
 10
249.0905012001754
 20
340.6634596010939
 30
0.0
 40
5.0
100
AcDbArc
 50
219.057574998775
 51
270.0
  0
ARC
  5
2F9
330
1E
100
AcDbEntity
  8
STEMPEL
100
AcDbCircle
 10
249.0905012001754
 20
340.6634596010939
 30
0.0
 40
6.5
100
AcDbArc
 50
219.0575749987752
 51
270.0
  0
ARC
  5
2FA
330
1E
100
AcDbEntity
  8
MITTEL
100
AcDbCircle
 10
249.0905012001754
 20
340.6634596010939
 30
0.0
 40
26.0
100
AcDbArc
 50
180.0
 51
270.0
  0
LINE
  5
2FB
330
1E
100
AcDbEntity
  8
STEMPEL
100
AcDbLine
 10
203.473394608255
 20
338.1022166528438
 30
0.0
 11
202.2118215437352
 21
340.6634596010939
 31
0.0
  0
LINE
  5
2FC
330
1E
100
AcDbEntity
  8
STEMPEL
100
AcDbLine
 10
202.1277746657839
 20
337.4394142913334
 30
0.0
 11
200.866201601264
 21
340.0006572395833
 31
0.0
  0
LINE
  5
2FD
330
1E
100
AcDbEntity
  8
STEMPEL
100
AcDbLine
 10
200.866201601264
 20
340.0006572395833
 30
0.0
 11
202.2118215437352
 21
340.6634596010939
 31
0.0
  0
LINE
  5
2FE
102
{ACAD_REACTORS
330
2A8
102
}
330
1E
100
AcDbEntity
  8
STEMPEL
100
AcDbLine
 10
200.0905012001757
 20
340.6634596010939
 30
0.0
 11
246.0905012001757
 21
340.6634596010939
 31
0.0
  0
LINE
  5
2FF
330
1E
100
AcDbEntity
  8
HILF
100
AcDbLine
 10
205.1928930648796
 20
337.6634596010939
 30
0.0
 11
241.7899468965033
 21
337.6634596010938
 31
0.0
  0
LINE
  5
300
102
{ACAD_REACTORS
330
2A8
330
299
330
589
102
}
330
1E
100
AcDbEntity
  8
STEMPEL
100
AcDbLine
 10
246.0905012001757
 20
340.6634596010939
 30
0.0
 11
257.0905012001757
 21
351.6634596010939
 31
0.0
  0
LINE
  5
301
102
{ACAD_REACTORS
330
2A8
102
}
330
1E
100
AcDbEntity
  8
STEMPEL
100
AcDbLine
 10
243.9691808566159
 20
340.6634596010939
 30
0.0
 11
254.9691808566159
 21
351.6634596010939
 31
0.0
  0
LINE
  5
302
102
{ACAD_REACTORS
330
2A8
102
}
330
1E
100
AcDbEntity
  8
STEMPEL
100
AcDbLine
 10
202.2118215437352
 20
340.6634596010939
 30
0.0
 11
191.2118215437352
 21
351.6634596010939
 31
0.0
  0
LINE
  5
303
102
{ACAD_REACTORS
330
2A8
330
297
330
589
102
}
330
1E
100
AcDbEntity
  8
STEMPEL
100
AcDbLine
 10
200.0905012001757
 20
340.6634596010939
 30
0.0
 11
189.0905012001756
 21
351.6634596010939
 31
0.0
  0
LINE
  5
304
102
{ACAD_REACTORS
330
2AD
102
}
330
1E
100
AcDbEntity
  8
MITTEL
100
AcDbLine
 10
223.0905012001754
 20
314.6634596010939
 30
0.0
 11
223.0905012001755
 21
459.6634596010939
 31
0.0
  0
LINE
  5
305
102
{ACAD_REACTORS
330
2A9
330
589
102
}
330
1E
100
AcDbEntity
  8
STEMPEL
100
AcDbLine
 10
186.5905012001754
 20
361.1285244604353
 30
0.0
 11
186.5905012001754
 21
394.3568599365252
 31
0.0
  0
LINE
  5
306
102
{ACAD_REACTORS
330
2A9
102
}
330
1E
100
AcDbEntity
  8
STEMPEL
100
AcDbLine
 10
188.1905012001753
 20
361.1285244604353
 30
0.0
 11
188.1905012001753
 21
394.3568599365252
 31
0.0
  0
LINE
  5
307
102
{ACAD_REACTORS
330
2A9
102
}
330
1E
100
AcDbEntity
  8
STEMPEL
100
AcDbLine
 10
257.9905012001756
 20
361.1285244604346
 30
0.0
 11
257.9905012001756
 21
394.3568599365252
 31
0.0
  0
LINE
  5
308
102
{ACAD_REACTORS
330
2A9
330
589
102
}
330
1E
100
AcDbEntity
  8
STEMPEL
100
AcDbLine
 10
259.5905012001755
 20
361.1285244604346
 30
0.0
 11
259.5905012001757
 21
394.3568599365252
 31
0.0
  0
LINE
  5
309
102
{ACAD_REACTORS
330
2A6
330
2A3
330
589
102
}
330
1E
100
AcDbEntity
  8
STEMPEL
100
AcDbLine
 10
272.0905012001754
 20
384.663459601094
 30
0.0
 11
272.0905012001755
 21
454.6634596010938
 31
0.0
  0
LINE
  5
30A
102
{ACAD_REACTORS
330
2A6
330
2A3
330
589
102
}
330
1E
100
AcDbEntity
  8
STEMPEL
100
AcDbLine
 10
174.0905012001755
 20
384.663459601094
 30
0.0
 11
174.0905012001755
 21
454.6634596010939
 31
0.0
  0
LINE
  5
30B
102
{ACAD_REACTORS
330
2A6
102
}
330
1E
100
AcDbEntity
  8
STEMPEL
100
AcDbLine
 10
172.0905012001755
 20
384.6634596010941
 30
0.0
 11
172.0905012001755
 21
454.6634596010939
 31
0.0
  0
LINE
  5
30C
102
{ACAD_REACTORS
330
2A6
102
}
330
1E
100
AcDbEntity
  8
STEMPEL
100
AcDbLine
 10
274.0905012001755
 20
384.663459601094
 30
0.0
 11
274.0905012001755
 21
454.6634596010938
 31
0.0
  0
LINE
  5
30D
102
{ACAD_REACTORS
330
2AD
102
}
330
1E
100
AcDbEntity
  8
MITTEL
100
AcDbLine
 10
728.0905012001755
 20
314.6634596010939
 30
0.0
 11
223.0905012001754
 21
314.6634596010939
 31
0.0
  0
LINE
  5
30E
102
{ACAD_REACTORS
330
2A7
330
2A1
330
54A
330
589
102
}
330
1E
100
AcDbEntity
  8
STEMPEL
100
AcDbLine
 10
716.1559926145381
 20
335.6634596010939
 30
0.0
 11
249.0905012001754
 21
335.6634596010939
 31
0.0
  0
LINE
  5
30F
102
{ACAD_REACTORS
330
2A7
102
}
330
1E
100
AcDbEntity
  8
STEMPEL
100
AcDbLine
 10
716.0905012001754
 20
334.1634596010939
 30
0.0
 11
249.0905012001754
 21
334.1634596010939
 31
0.0
  0
LINE
  5
310
102
{ACAD_REACTORS
330
54A
102
}
330
1E
100
AcDbEntity
  8
STEMPEL
100
AcDbLine
 10
700.0905012001756
 20
359.1634596010938
 30
0.0
 11
306.9111363382757
 21
359.163459601094
 31
0.0
  0
LINE
  5
311
102
{ACAD_REACTORS
330
54A
330
589
102
}
330
1E
100
AcDbEntity
  8
STEMPEL
100
AcDbLine
 10
698.0905012001755
 20
357.5634596010939
 30
0.0
 11
306.9111363382757
 21
357.5634596010939
 31
0.0
  0
LINE
  5
313
102
{ACAD_REACTORS
330
54A
102
}
330
1E
100
AcDbEntity
  8
STEMPEL
100
AcDbLine
 10
692.0905012001754
 20
293.6634596010939
 30
0.0
 11
692.0905012001754
 21
290.1275612162315
 31
0.0
  0
LINE
  5
315
102
{ACAD_REACTORS
330
2A7
102
}
330
1E
100
AcDbEntity
  8
STEMPEL
100
AcDbLine
 10
716.0905012001755
 20
295.163459601094
 30
0.0
 11
723.0905012001755
 21
295.7758802457755
 31
0.0
  0
LINE
  5
316
102
{ACAD_REACTORS
330
2A7
102
}
330
1E
100
AcDbEntity
  8
STEMPEL
100
AcDbLine
 10
716.1559926145383
 20
293.6634596010939
 30
0.0
 11
723.0905012001755
 21
294.2701504894604
 31
0.0
  0
LINE
  5
317
102
{ACAD_REACTORS
330
54A
102
}
330
1E
100
AcDbEntity
  8
STEMPEL
100
AcDbLine
 10
698.0905012001755
 20
270.1634596010939
 30
0.0
 11
698.0905012001755
 21
271.7634596010939
 31
0.0
  0
LINE
  5
318
102
{ACAD_REACTORS
330
54A
330
589
102
}
330
1E
100
AcDbEntity
  8
STEMPEL
100
AcDbLine
 10
682.0905012001755
 20
271.7634596010939
 30
0.0
 11
682.0905012001754
 21
293.6634596010939
 31
0.0
  0
DIMENSION
  5
319
330
1E
100
AcDbEntity
  8
BEM
100
AcDbDimension
  2
*D4
 10
698.0905012001755
 20
249.7330431861163
 30
0.0
 11
709.9177597399419
 21
249.7330431861163
 31
0.0
 70
   160
 71
     5
 42
25.0
  3
Standard
100
AcDbAlignedDimension
 13
723.0905012001755
 23
294.2701504894604
 33
0.0
 14
698.0905012001755
 24
270.1634596010939
 34
0.0
100
AcDbRotatedDimension
1001
ACAD
1000
DSTYLE
1002
{
1070
    40
1040
2.0
1070
    41
1040
3.5
1070
    42
1040
1.0
1070
    43
1040
7.0
1070
    44
1040
1.0
1070
    73
1070
     0
1070
    74
1070
     0
1070
    77
1070
     1
1070
    78
1070
     8
1070
    79
1070
     2
1070
   140
1040
3.5
1070
   141
1040
1.5
1070
   146
1040
0.5
1070
   147
1040
1.5
1070
   172
1070
     1
1070
   178
1070
     1
1070
   179
1070
     2
1070
   271
1070
     2
1070
   272
1070
     2
1070
   284
1070
     8
1070
   285
1070
     8
1070
   286
1070
     8
1002
}
  0
LINE
  5
31A
102
{ACAD_REACTORS
330
589
102
}
330
1E
100
AcDbEntity
  8
STEMPEL
100
AcDbLine
 10
299.828811190774
 20
269.7738286953591
 30
0.0
 11
293.0905012001755
 21
265.663459601094
 31
0.0
  0
ARC
  5
31B
102
{ACAD_REACTORS
330
589
102
}
330
1E
100
AcDbEntity
  8
STEMPEL
100
AcDbCircle
 10
306.9111363382757
 20
258.163459601094
 30
0.0
 40
13.6
100
AcDbArc
 50
90.0
 51
121.3831910563573
  0
ARC
  5
31C
330
1E
100
AcDbEntity
  8
STEMPEL
100
AcDbCircle
 10
306.9111363382757
 20
258.163459601094
 30
0.0
 40
12.0
100
AcDbArc
 50
90.0
 51
121.3831910563573
  0
LINE
  5
31D
102
{ACAD_REACTORS
330
29B
102
}
330
1E
100
AcDbEntity
  8
STEMPEL
100
AcDbLine
 10
300.6620259140094
 20
268.4079029195632
 30
0.0
 11
293.9237159234109
 21
264.2975338252981
 31
0.0
  0
LINE
  5
31E
102
{ACAD_REACTORS
330
29B
102
}
330
1E
100
AcDbEntity
  8
STEMPEL
100
AcDbLine
 10
293.0905012001755
 20
265.663459601094
 30
0.0
 11
293.9237159234109
 21
264.2975338252981
 31
0.0
  0
LINE
  5
31F
102
{ACAD_REACTORS
330
2A7
330
54A
330
589
102
}
330
1E
100
AcDbEntity
  8
STEMPEL
100
AcDbLine
 10
716.1559926145383
 20
293.6634596010939
 30
0.0
 11
249.0905012001754
 21
293.6634596010939
 31
0.0
  0
LINE
  5
320
102
{ACAD_REACTORS
330
2A7
102
}
330
1E
100
AcDbEntity
  8
STEMPEL
100
AcDbLine
 10
716.0905012001755
 20
295.163459601094
 30
0.0
 11
249.0905012001754
 21
295.1634596010939
 31
0.0
  0
LINE
  5
321
102
{ACAD_REACTORS
330
54A
102
}
330
1E
100
AcDbEntity
  8
STEMPEL
100
AcDbLine
 10
700.0905012001754
 20
270.1634596010939
 30
0.0
 11
306.9111363382757
 21
270.1634596010939
 31
0.0
  0
LINE
  5
322
102
{ACAD_REACTORS
330
54A
330
589
102
}
330
1E
100
AcDbEntity
  8
STEMPEL
100
AcDbLine
 10
698.0905012001755
 20
271.7634596010939
 30
0.0
 11
306.9111363382757
 21
271.7634596010939
 31
0.0
  0
LINE
  5
324
102
{ACAD_REACTORS
330
2A7
102
}
330
1E
100
AcDbEntity
  8
STEMPEL
100
AcDbLine
 10
723.0905012001755
 20
294.2701504894604
 30
0.0
 11
723.0905012001755
 21
335.0567687127274
 31
0.0
  0
LINE
  5
325
330
1E
100
AcDbEntity
  8
HILF
100
AcDbLine
 10
716.0905012001755
 20
296.663459601094
 30
0.0
 11
716.0905012001754
 21
332.6634596010939
 31
0.0
  0
ARC
  5
326
102
{ACAD_REACTORS
330
589
102
}
330
1E
100
AcDbEntity
  8
STEMPEL
100
AcDbCircle
 10
249.0905012001754
 20
340.6634596010939
 30
0.0
 40
47.0
100
AcDbArc
 50
184.3801271429058
 51
270.0
  0
ARC
  5
327
330
1E
100
AcDbEntity
  8
STEMPEL
100
AcDbCircle
 10
249.0905012001754
 20
340.6634596010939
 30
0.0
 40
45.49999999999999
100
AcDbArc
 50
184.3801271429058
 51
270.0
  0
LINE
  5
328
102
{ACAD_REACTORS
330
2A7
102
}
330
1E
100
AcDbEntity
  8
STEMPEL
100
AcDbLine
 10
303.0905012001755
 20
293.6634596010939
 30
0.0
 11
303.0905012001755
 21
335.6634596010938
 31
0.0
  0
DIMENSION
  5
329
330
1E
100
AcDbEntity
  8
BEM
100
AcDbDimension
  2
*D5
 10
723.0905012001755
 20
231.1722395747084
 30
0.0
 11
473.0905012001755
 21
237.6722395747084
 31
0.0
 70
    32
 71
     5
 42
500.0
  3
Standard
100
AcDbAlignedDimension
 13
223.0905012001755
 23
314.6634596010939
 33
0.0
 14
723.0905012001755
 24
294.2701504894604
 34
0.0
100
AcDbRotatedDimension
1001
ACAD
1000
DSTYLE
1002
{
1070
    40
1040
2.0
1070
    41
1040
3.5
1070
    42
1040
1.0
1070
    43
1040
7.0
1070
    44
1040
1.0
1070
    73
1070
     0
1070
    74
1070
     0
1070
    77
1070
     1
1070
    78
1070
     8
1070
    79
1070
     2
1070
   140
1040
3.5
1070
   141
1040
1.5
1070
   146
1040
0.5
1070
   147
1040
1.5
1070
   172
1070
     1
1070
   178
1070
     1
1070
   179
1070
     2
1070
   271
1070
     2
1070
   272
1070
     2
1070
   284
1070
     8
1070
   285
1070
     8
1070
   286
1070
     8
1002
}
  0
DIMENSION
  5
32A
330
1E
100
AcDbEntity
  8
BEM
100
AcDbDimension
  2
*D6
 10
748.6151353427416
 20
335.6634596010939
 30
0.0
 11
742.1151353427415
 21
314.6634596010941
 31
0.0
 70
    32
  1
%%c<>
 71
     5
 42
41.99999999999994
  3
Standard
100
AcDbAlignedDimension
 13
716.1559926145383
 23
293.6634596010939
 33
0.0
 14
716.1559926145381
 24
335.6634596010939
 34
0.0
 50
90.0
100
AcDbRotatedDimension
1001
ACAD
1000
DSTYLE
1002
{
1070
    40
1040
2.0
1070
    41
1040
3.5
1070
    42
1040
1.0
1070
    43
1040
7.0
1070
    44
1040
1.0
1070
    73
1070
     0
1070
    74
1070
     0
1070
    77
1070
     1
1070
    78
1070
     8
1070
    79
1070
     2
1070
   140
1040
3.5
1070
   141
1040
1.5
1070
   146
1040
0.5
1070
   147
1040
1.5
1070
   172
1070
     1
1070
   178
1070
     1
1070
   179
1070
     2
1070
   271
1070
     2
1070
   272
1070
     2
1070
   284
1070
     8
1070
   285
1070
     8
1070
   286
1070
     8
1002
}
  0
DIMENSION
  5
32B
330
1E
100
AcDbEntity
  8
BEM
100
AcDbDimension
  2
*D7
 10
766.5800595084867
 20
270.1634596010939
 30
0.0
 11
760.0800595084867
 21
314.663459601094
 31
0.0
 70
    32
  1
%%c<>
 71
     5
 42
89.0
  3
Standard
100
AcDbAlignedDimension
 13
700.0905012001754
 23
359.1634596010939
 33
0.0
 14
700.0905012001756
 24
270.1634596010939
 34
0.0
 50
90.0
100
AcDbRotatedDimension
1001
ACAD
1000
DSTYLE
1002
{
1070
    40
1040
2.0
1070
    41
1040
3.5
1070
    42
1040
1.0
1070
    43
1040
7.0
1070
    44
1040
1.0
1070
    73
1070
     0
1070
    74
1070
     0
1070
    77
1070
     1
1070
    78
1070
     8
1070
    79
1070
     2
1070
   140
1040
3.5
1070
   141
1040
1.5
1070
   146
1040
0.5
1070
   147
1040
1.5
1070
   172
1070
     1
1070
   178
1070
     1
1070
   179
1070
     2
1070
   271
1070
     2
1070
   272
1070
     2
1070
   284
1070
     8
1070
   285
1070
     8
1070
   286
1070
     8
1002
}
  0
TEXT
  5
32C
330
1E
100
AcDbEntity
  8
TEXT
 62
     1
100
AcDbText
 10
668.7403666994971
 20
131.3559339614753
 30
0.0
 40
7.0
  1
und innenbeschichtet
 41
0.8
  7
GREEKS
100
AcDbText
  0
TEXT
  5
32D
330
1E
100
AcDbEntity
  8
TEXT
 62
     1
100
AcDbText
 10
617.8029302775342
 20
118.7610985760932
 30
0.0
 40
7.0
  1
Dämmung: 2 K-PU-Schaum
 41
0.8
  7
GREEKS
100
AcDbText
  0
TEXT
  5
32E
330
1E
100
AcDbEntity
  8
TEXT
 62
     1
100
AcDbText
 10
621.0858378234834
 20
142.6249878007011
 30
0.0
 40
7.0
  1
Innenrohr: E195 EN10305 feuerverzinkt
 41
0.8
  7
GREEKS
100
AcDbText
  0
TEXT
  5
32F
330
1E
100
AcDbEntity
  8
TEXT
 62
     1
100
AcDbText
 10
617.3136204526193
 20
153.9780558370561
 30
0.0
 40
7.0
  1
Außenrohr: E195 EN10305 feuerverzinkt
 41
0.8
  7
GREEKS
100
AcDbText
  0
TEXT
  5
3F4
330
1E
100
AcDbEntity
  8
TEXT
100
AcDbText
 10
612.2898419893276
 20
88.04076300767105
 30
0.0
 40
4.0
  1
DIN EN1123-2
 41
0.8
  7
GREEKS
 72
     1
 11
629.2803181798038
 21
88.04076300767105
 31
0.0
100
AcDbText
  0
TEXT
  5
460
330
1E
100
AcDbEntity
  8
TEXT
 62
     1
100
AcDbText
 10
485.1926930916522
 20
321.0854146365969
 30
0.0
 40
7.0
  1
DN40
 41
0.8
  7
GREEKS
100
AcDbText
  0
TEXT
  5
461
330
1E
100
AcDbEntity
  8
TEXT
 62
     1
100
AcDbText
 10
214.7415028594609
 20
428.9214574676264
 30
0.0
 40
7.0
  1
DN70
 50
90.0
 41
0.8
  7
GREEKS
100
AcDbText
  0
LINE
  5
478
330
1E
100
AcDbEntity
  8
HILF
100
AcDbLine
 10
256.614163012966
 20
396.5839656816574
 30
0.0
 11
189.5668393873852
 21
396.5839656816574
 31
0.0
  0
LINE
  5
479
330
1E
100
AcDbEntity
  8
HILF
100
AcDbLine
 10
258.8317541749945
 20
401.7115274008126
 30
0.0
 11
187.3492482253566
 21
401.7115274008126
 31
0.0
  0
LINE
  5
47A
330
1E
100
AcDbEntity
  8
HILF
100
AcDbLine
 10
259.6513866667548
 20
423.8691418199666
 30
0.0
 11
186.5296157335963
 21
423.8691418199665
 31
0.0
  0
POINT
  5
4F6
330
1E
100
AcDbEntity
  8
STEMPEL
100
AcDbPoint
 10
698.0905012001755
 20
277.6993579859561
 30
0.0
  0
POINT
  5
4F7
330
1E
100
AcDbEntity
  8
STEMPEL
100
AcDbPoint
 10
698.0905012001755
 20
277.6993579859561
 30
0.0
  0
POINT
  5
4F8
330
1E
100
AcDbEntity
  8
STEMPEL
100
AcDbPoint
 10
698.0905012001755
 20
277.6993579859561
 30
0.0
  0
POINT
  5
4F9
330
1E
100
AcDbEntity
  8
STEMPEL
100
AcDbPoint
 10
698.0905012001755
 20
281.6993579859561
 30
0.0
  0
POINT
  5
4FC
330
1E
100
AcDbEntity
  8
STEMPEL
100
AcDbPoint
 10
700.0905012001754
 20
276.1993579859561
 30
0.0
  0
POINT
  5
4FD
330
1E
100
AcDbEntity
  8
STEMPEL
100
AcDbPoint
 10
700.0905012001754
 20
353.1993579859561
 30
0.0
  0
POINT
  5
4FE
330
1E
100
AcDbEntity
  8
STEMPEL
100
AcDbPoint
 10
698.0905012001755
 20
342.6634596010938
 30
0.0
  0
LINE
  5
503
102
{ACAD_REACTORS
330
54A
102
}
330
1E
100
AcDbEntity
  8
STEMPEL
100
AcDbLine
 10
692.0905012001754
 20
290.1993579859562
 30
0.0
 11
698.0905012001755
 21
286.7352563708183
 31
0.0
  0
LINE
  5
504
102
{ACAD_REACTORS
330
54A
102
}
330
1E
100
AcDbEntity
  8
STEMPEL
100
AcDbLine
 10
700.0905012001754
 20
276.1993579859561
 30
0.0
 11
698.0905012001755
 21
276.1993579859561
 31
0.0
  0
LINE
  5
510
102
{ACAD_REACTORS
330
54A
102
}
330
1E
100
AcDbEntity
  8
STEMPEL
100
AcDbLine
 10
692.0905012001754
 20
339.1993579859562
 30
0.0
 11
698.0905012001755
 21
342.6634596010938
 31
0.0
  0
LINE
  5
511
102
{ACAD_REACTORS
330
54A
102
}
330
1E
100
AcDbEntity
  8
STEMPEL
100
AcDbLine
 10
698.0905012001755
 20
353.1993579859561
 30
0.0
 11
698.0905012001755
 21
335.6634596010939
 31
0.0
  0
LINE
  5
512
102
{ACAD_REACTORS
330
54A
102
}
330
1E
100
AcDbEntity
  8
STEMPEL
100
AcDbLine
 10
700.0905012001754
 20
353.1993579859561
 30
0.0
 11
698.0905012001755
 21
353.1993579859561
 31
0.0
  0
LINE
  5
518
102
{ACAD_REACTORS
330
54A
102
}
330
1E
100
AcDbEntity
  8
STEMPEL
100
AcDbLine
 10
700.0905012001756
 20
359.1634596010938
 30
0.0
 11
700.0905012001754
 21
335.6634596010938
 31
0.0
  0
HATCH
  5
54A
330
1E
100
AcDbEntity
  8
SCHRAFF
100
AcDbHatch
 10
0.0
 20
0.0
 30
0.0
210
0.0
220
0.0
230
1.0
  2
NET
 70
     0
 71
     1
 91
        2
 92
        7
 72
     0
 73
     1
 93
       10
 10
698.0905012001755
 20
342.6634596010938
 10
698.0905012001755
 20
353.1993579859561
 10
700.0905012001756
 20
353.1993579859561
 10
700.0905012001756
 20
359.1634596010939
 10
698.0905012001755
 20
359.1634596010939
 10
698.0905012001754
 20
357.5634596010939
 10
682.0905012001754
 20
357.5634596010939
 10
682.0905012001754
 20
335.6634596010938
 10
692.0905012001754
 20
335.6634596010939
 10
692.0905012001754
 20
339.1993579859562
 97
       10
330
512
330
518
330
310
330
2BF
330
311
330
2C0
330
30E
330
2BB
330
510
330
511
 92
        7
 72
     0
 73
     1
 93
       10
 10
692.0905012001756
 20
290.1993579859562
 10
692.0905012001754
 20
293.6634596010939
 10
682.0905012001754
 20
293.6634596010939
 10
682.0905012001755
 20
271.7634596010939
 10
698.0905012001755
 20
271.7634596010939
 10
698.0905012001755
 20
270.1634596010939
 10
700.0905012001753
 20
270.1634596010939
 10
700.0905012001753
 20
276.1993579859561
 10
698.0905012001755
 20
276.1993579859561
 10
698.0905012001754
 20
286.7352563708183
 97
       10
330
503
330
313
330
31F
330
318
330
322
330
317
330
321
330
518
330
504
330
511
 75
     0
 76
     1
 52
45.0
 41
20.0
 77
     0
 78
     2
 53
45.0
 43
0.0
 44
0.0
 45
-1.767766952966368
 46
1.767766952966368
 79
     0
 53
135.0
 43
0.0
 44
0.0
 45
-1.767766952966368
 46
-1.767766952966368
 79
     0
 47
0.2220070949667424
 98
        2
 10
690.4861889625995
 20
346.7780391258732
 10
690.0419078875093
 20
284.1720376928129
  0
LINE
  5
54B
330
1E
100
AcDbEntity
  8
STEMPEL
100
AcDbLine
 10
700.0905012001756
 20
293.663459601094
 30
0.0
 11
700.0905012001754
 21
270.1634596010939
 31
0.0
  0
LINE
  5
54C
330
1E
100
AcDbEntity
  8
STEMPEL
100
AcDbLine
 10
698.0905012001755
 20
293.663459601094
 30
0.0
 11
698.0905012001755
 21
276.1993579859561
 31
0.0
  0
HATCH
  5
589
330
1E
100
AcDbEntity
  8
SCHRAFF
100
AcDbHatch
 10
0.0
 20
0.0
 30
0.0
210
0.0
220
0.0
230
1.0
  2
HONEY
 70
     0
 71
     1
 91
        2
 92
        7
 72
     1
 73
     1
 93
       24
 10
306.9111363382757
 20
357.5634596010939
 42
-0.1377973704969839
 10
299.828811190774
 20
359.5530905068287
 42
0.0
 10
293.0905012001755
 20
363.663459601094
 42
-0.4142135623730975
 10
272.0905012001754
 20
384.663459601094
 42
0.0
 10
272.0905012001754
 20
441.6634596010937
 42
0.0
 10
265.1905012001758
 20
441.6634596010937
 42
0.0
 10
265.1905012001758
 20
435.1017396492927
 42
-0.0933817694259964
 10
263.5013402086174
 20
425.999664889706
 42
0.0926930603363598
 10
262.6905012001756
 20
421.6634596010933
 42
0.0
 10
262.6905012001756
 20
405.0521860185109
 42
-0.1420008527982421
 10
260.8305012001753
 20
398.6349903693191
 42
0.1420008527982141
 10
259.5905012001757
 20
394.3568599365252
 42
0.0
 10
259.5905012001755
 20
361.1285244604346
 42
-0.0758662707634413
 10
259.1535089893119
 20
358.2650845263292
 42
0.0
 10
258.0280012001758
 20
354.6634596010941
 42
-0.5731782532909459
 10
254.0905012001757
 20
348.6634596010939
 42
0.0
 10
249.0905012001757
 20
343.6634596010939
 42
-0.4061324538948379
 10
245.1069590415059
 20
337.6634596010938
 42
0.0454034259368836
 10
245.2079352904819
 20
337.5129545690577
 42
0.2260128322480315
 10
249.0905012001754
 20
335.6634596010939
 42
0.0
 10
300.5905012001755
 20
335.6634596010939
 42
-0.5351919264823089
 10
305.5905012001755
 20
335.6634596010939
 42
0.0
 10
682.0905012001754
 20
335.6634596010939
 42
0.0
 10
682.0905012001755
 20
357.5634596010939
 42
0.0
 97
       23
330
311
330
2E7
330
2E4
330
2B0
330
309
330
2C1
330
2E2
330
2C9
330
2CC
330
2D2
330
2D0
330
2CE
330
308
330
2EA
330
2ED
330
29A
330
300
330
294
330
296
330
2F8
330
30E
330
2A2
330
2C0
 92
        7
 72
     1
 73
     1
 93
       24
 10
682.0905012001754
 20
271.763459601094
 42
0.0
 10
682.0905012001754
 20
293.663459601094
 42
0.0
 10
305.5905012001755
 20
293.6634596010939
 42
-0.5351919264823092
 10
300.5905012001755
 20
293.6634596010939
 42
0.0
 10
249.0905012001754
 20
293.6634596010939
 42
-0.3919957471254159
 10
202.2277740061373
 20
337.0739192492994
 42
0.1651131311436286
 10
201.9752054436476
 20
337.6651565346303
 42
-0.4484400887253404
 10
197.0905012001755
 20
343.663459601094
 42
0.0
 10
192.0905012001756
 20
348.6634596010939
 42
-0.6186054870211219
 10
188.1530012001756
 20
354.6634596010938
 42
0.0
 10
187.0274934110392
 20
358.26508452633
 42
-0.0758662707634452
 10
186.5905012001754
 20
361.1285244604355
 42
0.0
 10
186.5905012001754
 20
394.3568599365252
 42
0.1420008527982325
 10
185.3505012001755
 20
398.6349903693195
 42
-0.1420008527982314
 10
183.4905012001755
 20
405.0521860185109
 42
0.0
 10
183.4905012001755
 20
421.6634596010939
 42
0.0926930603363575
 10
182.6796621917337
 20
425.9996648897065
 42
-0.0933817694259396
 10
180.9905012001755
 20
435.1017396492875
 42
0.0
 10
180.9905012001755
 20
441.6634596010938
 42
0.0
 10
174.0905012001755
 20
441.6634596010939
 42
0.0
 10
174.0905012001755
 20
384.663459601094
 42
0.4142135623730951
 10
293.0905012001755
 20
265.663459601094
 42
0.0
 10
299.828811190774
 20
269.7738286953591
 42
-0.1377973704969845
 10
306.9111363382757
 20
271.7634596010939
 42
0.0
 97
       23
330
31F
330
29F
330
326
330
292
330
290
330
303
330
298
330
2F1
330
2EF
330
305
330
2D7
330
2D9
330
2DB
330
2D5
330
2D3
330
2E0
330
2C4
330
30A
330
2AF
330
31A
330
31B
330
322
330
318
 75
     0
 76
     1
 52
0.0
 41
30.0
 77
     0
 78
     3
 53
0.0
 43
0.0
 44
0.0
 45
5.625
 46
3.247595249999999
 79
     2
 49
3.75
 49
-7.5
 53
120.0
 43
0.0
 44
0.0
 45
-5.624999987709673
 46
3.247595271287468
 79
     2
 49
3.75
 49
-7.5
 53
60.0
 43
0.0
 44
0.0
 45
0.0000000122903263
 46
6.495190521287468
 79
     2
 49
-7.5
 49
3.75
 47
0.6192210587477032
 98
        2
 10
511.6812652510602
 20
350.2364861663
 10
381.5663957241199
 20
278.4068430100522
  0
ENDSEC
  0
SECTION
  2
OBJECTS
  0
DICTIONARY
  5
C
330
0
100
AcDbDictionary
281
     1
  3
ACAD_COLOR
350
11A
  3
ACAD_GROUP
350
D
  3
ACAD_LAYOUT
350
19
  3
ACAD_MATERIAL
350
119
  3
ACAD_MLINESTYLE
350
16
  3
ACAD_PLOTSETTINGS
350
18
  3
ACAD_PLOTSTYLENAME
350
E
  3
AcDbVariableDictionary
350
125
  0
DICTIONARY
  5
DB
330
1E
100
AcDbDictionary
280
     1
281
     1
  3
ACAD_LAYOUTSELFREF
360
10F
  0
DICTIONARY
  5
DD
330
1A
100
AcDbDictionary
280
     1
281
     1
  3
ACAD_LAYOUTSELFREF
360
10E
  0
DICTIONARY
  5
2AC
330
2AB
100
AcDbDictionary
280
     1
281
     1
  3
ACAD_DIMASSOC
360
2AD
  0
DICTIONARY
  5
11A
102
{ACAD_REACTORS
330
C
102
}
330
C
100
AcDbDictionary
281
     1
  0
DICTIONARY
  5
D
102
{ACAD_REACTORS
330
C
102
}
330
C
100
AcDbDictionary
281
     1
  0
DICTIONARY
  5
19
102
{ACAD_REACTORS
330
C
102
}
330
C
100
AcDbDictionary
281
     1
  3
Layout1
350
1D
  3
Model
350
21
  0
DICTIONARY
  5
119
102
{ACAD_REACTORS
330
C
102
}
330
C
100
AcDbDictionary
281
     1
  0
DICTIONARY
  5
16
102
{ACAD_REACTORS
330
C
102
}
330
C
100
AcDbDictionary
281
     1
  3
Standard
350
17
  0
DICTIONARY
  5
18
102
{ACAD_REACTORS
330
C
102
}
330
C
100
AcDbDictionary
281
     1
  0
ACDBDICTIONARYWDFLT
  5
E
102
{ACAD_REACTORS
330
C
102
}
330
C
100
AcDbDictionary
281
     1
  3
Normal
350
F
100
AcDbDictionaryWithDefault
340
F
  0
DICTIONARY
  5
125
102
{ACAD_REACTORS
330
C
102
}
330
C
100
AcDbDictionary
281
     1
  3
DIMASSOC
350
126
  3
PROJECTNAME
350
127
  0
XRECORD
  5
10F
102
{ACAD_REACTORS
330
DB
102
}
330
DB
100
AcDbXrecord
280
     1
340
1E
  0
XRECORD
  5
10E
102
{ACAD_REACTORS
330
DD
102
}
330
DD
100
AcDbXrecord
280
     1
340
1A
  0
DIMASSOC
  5
2AD
102
{ACAD_REACTORS
330
2AC
102
}
330
2AC
100
AcDbDimAssoc
330
2AB
 90
       15
 70
     0
 71
     0
  1
AcDbOsnapPointRef
 72
    13
331
30D
 73
     2
 91
        0
 40
0.0
 10
0.0
 20
0.0
 30
2.000000000000000E+50
 75
     0
  1
AcDbOsnapPointRef
 72
     1
331
30D
 73
     2
 91
        0
 40
1.0
 10
0.0
 20
0.0
 30
2.000000000000000E+50
 75
     0
  1
AcDbOsnapPointRef
 72
    13
331
304
 73
     2
 91
        0
 40
0.0
 10
0.0
 20
0.0
 30
2.000000000000000E+50
 75
     0
  1
AcDbOsnapPointRef
 72
     1
331
304
 73
     2
 91
        0
 40
1.0
 10
0.0
 20
0.0
 30
2.000000000000000E+50
 75
     0
  0
LAYOUT
  5
1D
102
{ACAD_REACTORS
330
19
102
}
330
19
100
AcDbPlotSettings
  1

  2
\\NT_WORK01\HP LaserJet 5000 PCL 6
  4

  6

 40
0.0
 41
0.0
 42
0.0
 43
0.0
 44
0.0
 45
0.0
 46
0.0
 47
0.0
 48
0.0
 49
0.0
140
0.0
141
0.0
142
1.0
143
1.0
 70
   688
 72
     0
 73
     0
 74
     5
  7

 75
    16
147
1.0
 76
     0
 77
     2
 78
   300
148
0.0
149
0.0
100
AcDbLayout
  1
Layout1
 70
     0
 71
     1
 10
0.0
 20
0.0
 11
12.0
 21
9.0
 12
0.0
 22
0.0
 32
0.0
 14
1.000000000000000E+20
 24
1.000000000000000E+20
 34
1.000000000000000E+20
 15
-1.000000000000000E+20
 25
-1.000000000000000E+20
 35
-1.000000000000000E+20
146
0.0
 13
0.0
 23
0.0
 33
0.0
 16
1.0
 26
0.0
 36
0.0
 17
0.0
 27
1.0
 37
0.0
 76
     0
330
1A
  0
LAYOUT
  5
21
102
{ACAD_REACTORS
330
19
102
}
330
19
100
AcDbPlotSettings
  1

  2
none_device
  4
Letter_(8.50_x_11.00_Inches)
  6

 40
6.349999904632568
 41
6.349999904632568
 42
6.350006103515625
 43
6.350006103515625
 44
215.8999938964844
 45
279.3999938964844
 46
0.0
 47
0.0
 48
0.0
 49
0.0
140
0.0
141
0.0
142
1.0
143
1.0
 70
 11952
 72
     0
 73
     1
 74
     0
  7

 75
     0
147
1.0
 76
     0
 77
     2
 78
   300
148
-3044.540434587873
149
79.65959450939812
100
AcDbLayout
  1
Model
 70
     1
 71
     0
 10
0.0
 20
0.0
 11
12.0
 21
9.0
 12
0.0
 22
0.0
 32
0.0
 14
0.0
 24
0.0
 34
0.0
 15
0.0
 25
0.0
 35
0.0
146
0.0
 13
0.0
 23
0.0
 33
0.0
 16
1.0
 26
0.0
 36
0.0
 17
0.0
 27
1.0
 37
0.0
 76
     0
330
1E
  0
MLINESTYLE
  5
17
102
{ACAD_REACTORS
330
16
102
}
330
16
100
AcDbMlineStyle
  2
STANDARD
 70
     0
  3

 62
   256
 51
90.0
 52
90.0
 71
     2
 49
0.5
 62
   256
  6
BYLAYER
 49
-0.5
 62
   256
  6
BYLAYER
  0
ACDBPLACEHOLDER
  5
F
102
{ACAD_REACTORS
330
E
102
}
330
E
  0
DICTIONARYVAR
  5
126
102
{ACAD_REACTORS
330
125
102
}
330
125
100
DictionaryVariables
280
     0
  1
1
  0
DICTIONARYVAR
  5
127
102
{ACAD_REACTORS
330
125
102
}
330
125
100
DictionaryVariables
280
     0
  1

  0
ENDSEC
  0
EOF
