  0
SECTION
  2
HEADER
  9
$ACADVER
  1
AC1018
  9
$ACADMAINTVER
 70
     2
  9
$DWGCODEPAGE
  3
ANSI_1252
  9
$INSBASE
 10
0.0
 20
0.0
 30
0.0
  9
$EXTMIN
 10
-0.0289277414385651
 20
-0.036214425595972
 30
-0.0000000000000053
  9
$EXTMAX
 10
420.0239616829613
 20
594.031736852866
 30
0.0000000000000099
  9
$LIMMIN
 10
0.0
 20
0.0
  9
$LIMMAX
 10
419.9999999999999
 20
594.0000000000002
  9
$ORTHOMODE
 70
     1
  9
$REGENMODE
 70
     1
  9
$FILLMODE
 70
     1
  9
$QTEXTMODE
 70
     0
  9
$MIRRTEXT
 70
     1
  9
$LTSCALE
 40
20.0
  9
$ATTMODE
 70
     1
  9
$TEXTSIZE
 40
3.5
  9
$TRACEWID
 40
0.5
  9
$TEXTSTYLE
  7
STANDARD
  9
$CLAYER
  8
BEM
  9
$CELTYPE
  6
ByLayer
  9
$CECOLOR
 62
   256
  9
$CELTSCALE
 40
1.0
  9
$DISPSILH
 70
     0
  9
$DIMSCALE
 40
2.0
  9
$DIMASZ
 40
3.5
  9
$DIMEXO
 40
1.0
  9
$DIMDLI
 40
7.0
  9
$DIMRND
 40
0.0
  9
$DIMDLE
 40
0.0
  9
$DIMEXE
 40
1.0
  9
$DIMTP
 40
0.0
  9
$DIMTM
 40
0.0
  9
$DIMTXT
 40
3.5
  9
$DIMCEN
 40
1.5
  9
$DIMTSZ
 40
0.0
  9
$DIMTOL
 70
     0
  9
$DIMLIM
 70
     0
  9
$DIMTIH
 70
     0
  9
$DIMTOH
 70
     0
  9
$DIMSE1
 70
     0
  9
$DIMSE2
 70
     0
  9
$DIMTAD
 70
     1
  9
$DIMZIN
 70
     8
  9
$DIMBLK
  1

  9
$DIMASO
 70
     1
  9
$DIMSHO
 70
     0
  9
$DIMPOST
  1

  9
$DIMAPOST
  1

  9
$DIMALT
 70
     0
  9
$DIMALTD
 70
     2
  9
$DIMALTF
 40
25.4
  9
$DIMLFAC
 40
1.0
  9
$DIMTOFL
 70
     1
  9
$DIMTVP
 40
0.0
  9
$DIMTIX
 70
     0
  9
$DIMSOXD
 70
     0
  9
$DIMSAH
 70
     0
  9
$DIMBLK1
  1

  9
$DIMBLK2
  1

  9
$DIMSTYLE
  2
Standard
  9
$DIMCLRD
 70
     0
  9
$DIMCLRE
 70
     0
  9
$DIMCLRT
 70
     1
  9
$DIMTFAC
 40
0.5142857142857144
  9
$DIMGAP
 40
1.5
  9
$DIMJUST
 70
     0
  9
$DIMSD1
 70
     0
  9
$DIMSD2
 70
     0
  9
$DIMTOLJ
 70
     1
  9
$DIMTZIN
 70
     8
  9
$DIMALTZ
 70
     8
  9
$DIMALTTZ
 70
     8
  9
$DIMUPT
 70
     0
  9
$DIMDEC
 70
     2
  9
$DIMTDEC
 70
     2
  9
$DIMALTU
 70
     2
  9
$DIMALTTD
 70
     2
  9
$DIMTXSTY
  7
STANDARD
  9
$DIMAUNIT
 70
     0
  9
$DIMADEC
 70
     2
  9
$DIMALTRND
 40
0.0
  9
$DIMAZIN
 70
     2
  9
$DIMDSEP
 70
    46
  9
$DIMATFIT
 70
     3
  9
$DIMFRAC
 70
     0
  9
$DIMLDRBLK
  1

  9
$DIMLUNIT
 70
     2
  9
$DIMLWD
 70
    -2
  9
$DIMLWE
 70
    -2
  9
$DIMTMOVE
 70
     0
  9
$LUNITS
 70
     2
  9
$LUPREC
 70
     2
  9
$SKETCHINC
 40
1.0
  9
$FILLETRAD
 40
0.0
  9
$AUNITS
 70
     0
  9
$AUPREC
 70
     0
  9
$MENU
  1
ACAD
  9
$ELEVATION
 40
0.0
  9
$PELEVATION
 40
0.0
  9
$THICKNESS
 40
0.0
  9
$LIMCHECK
 70
     0
  9
$CHAMFERA
 40
0.0
  9
$CHAMFERB
 40
0.0
  9
$CHAMFERC
 40
0.0
  9
$CHAMFERD
 40
0.0
  9
$SKPOLY
 70
     0
  9
$TDCREATE
 40
2455397.823042361
  9
$TDUCREATE
 40
2455397.781375695
  9
$TDUPDATE
 40
2455532.548135046
  9
$TDUUPDATE
 40
2455532.506468379
  9
$TDINDWG
 40
0.5063749074
  9
$TDUSRTIMER
 40
0.5063749074
  9
$USRTIMER
 70
     1
  9
$ANGBASE
 50
0.0
  9
$ANGDIR
 70
     0
  9
$PDMODE
 70
     0
  9
$PDSIZE
 40
0.0
  9
$PLINEWID
 40
0.0
  9
$SPLFRAME
 70
     0
  9
$SPLINETYPE
 70
     6
  9
$SPLINESEGS
 70
     8
  9
$HANDSEED
  5
355A
  9
$SURFTAB1
 70
     6
  9
$SURFTAB2
 70
     6
  9
$SURFTYPE
 70
     6
  9
$SURFU
 70
     6
  9
$SURFV
 70
     6
  9
$UCSBASE
  2

  9
$UCSNAME
  2

  9
$UCSORG
 10
0.0
 20
0.0
 30
0.0
  9
$UCSXDIR
 10
1.0
 20
0.0
 30
0.0
  9
$UCSYDIR
 10
0.0
 20
1.0
 30
0.0
  9
$UCSORTHOREF
  2

  9
$UCSORTHOVIEW
 70
     0
  9
$UCSORGTOP
 10
0.0
 20
0.0
 30
0.0
  9
$UCSORGBOTTOM
 10
0.0
 20
0.0
 30
0.0
  9
$UCSORGLEFT
 10
0.0
 20
0.0
 30
0.0
  9
$UCSORGRIGHT
 10
0.0
 20
0.0
 30
0.0
  9
$UCSORGFRONT
 10
0.0
 20
0.0
 30
0.0
  9
$UCSORGBACK
 10
0.0
 20
0.0
 30
0.0
  9
$PUCSBASE
  2

  9
$PUCSNAME
  2

  9
$PUCSORG
 10
0.0
 20
0.0
 30
0.0
  9
$PUCSXDIR
 10
1.0
 20
0.0
 30
0.0
  9
$PUCSYDIR
 10
0.0
 20
1.0
 30
0.0
  9
$PUCSORTHOREF
  2

  9
$PUCSORTHOVIEW
 70
     0
  9
$PUCSORGTOP
 10
0.0
 20
0.0
 30
0.0
  9
$PUCSORGBOTTOM
 10
0.0
 20
0.0
 30
0.0
  9
$PUCSORGLEFT
 10
0.0
 20
0.0
 30
0.0
  9
$PUCSORGRIGHT
 10
0.0
 20
0.0
 30
0.0
  9
$PUCSORGFRONT
 10
0.0
 20
0.0
 30
0.0
  9
$PUCSORGBACK
 10
0.0
 20
0.0
 30
0.0
  9
$USERI1
 70
     0
  9
$USERI2
 70
     0
  9
$USERI3
 70
     0
  9
$USERI4
 70
     0
  9
$USERI5
 70
     0
  9
$USERR1
 40
0.0
  9
$USERR2
 40
0.0
  9
$USERR3
 40
0.0
  9
$USERR4
 40
0.0
  9
$USERR5
 40
0.0
  9
$WORLDVIEW
 70
     1
  9
$SHADEDGE
 70
     3
  9
$SHADEDIF
 70
    70
  9
$TILEMODE
 70
     1
  9
$MAXACTVP
 70
    16
  9
$PINSBASE
 10
0.0
 20
0.0
 30
0.0
  9
$PLIMCHECK
 70
     0
  9
$PEXTMIN
 10
1.000000000000000E+20
 20
1.000000000000000E+20
 30
1.000000000000000E+20
  9
$PEXTMAX
 10
-1.000000000000000E+20
 20
-1.000000000000000E+20
 30
-1.000000000000000E+20
  9
$PLIMMIN
 10
0.0
 20
0.0
  9
$PLIMMAX
 10
12.0
 20
9.0
  9
$UNITMODE
 70
     0
  9
$VISRETAIN
 70
     0
  9
$PLINEGEN
 70
     0
  9
$PSLTSCALE
 70
     0
  9
$TREEDEPTH
 70
  3020
  9
$CMLSTYLE
  2
Standard
  9
$CMLJUST
 70
     0
  9
$CMLSCALE
 40
1.0
  9
$PROXYGRAPHICS
 70
     1
  9
$MEASUREMENT
 70
     0
  9
$CELWEIGHT
370
    -1
  9
$ENDCAPS
280
     0
  9
$JOINSTYLE
280
     0
  9
$LWDISPLAY
290
     0
  9
$INSUNITS
 70
     0
  9
$HYPERLINKBASE
  1

  9
$STYLESHEET
  1
monochrome 1.ctb
  9
$XEDIT
290
     1
  9
$CEPSNTYPE
380
     0
  9
$PSTYLEMODE
290
     1
  9
$FINGERPRINTGUID
  2
{D68B0D02-A558-11D7-B632-000102183313}
  9
$VERSIONGUID
  2
{F2A6CCAD-8E65-4B48-8E51-F36723CD3051}
  9
$EXTNAMES
290
     1
  9
$PSVPSCALE
 40
0.0
  9
$OLESTARTUP
290
     0
  9
$SORTENTS
280
   127
  9
$INDEXCTL
280
     0
  9
$HIDETEXT
280
     0
  9
$XCLIPFRAME
290
     0
  9
$HALOGAP
280
     0
  9
$OBSCOLOR
 70
   257
  9
$OBSLTYPE
280
     0
  9
$INTERSECTIONDISPLAY
280
     0
  9
$INTERSECTIONCOLOR
 70
   257
  9
$DIMASSOC
280
     1
  9
$PROJECTNAME
  1

  0
ENDSEC
  0
SECTION
  2
CLASSES
  0
CLASS
  1
ACDBDICTIONARYWDFLT
  2
AcDbDictionaryWithDefault
  3
ObjectDBX Classes
 90
        0
 91
        1
280
     0
281
     0
  0
CLASS
  1
DICTIONARYVAR
  2
AcDbDictionaryVar
  3
ObjectDBX Classes
 90
        0
 91
        2
280
     0
281
     0
  0
ENDSEC
  0
SECTION
  2
TABLES
  0
TABLE
  2
VPORT
  5
8
330
0
100
AcDbSymbolTable
 70
     2
  0
VPORT
  5
3559
330
8
100
AcDbSymbolTableRecord
100
AcDbViewportTableRecord
  2
*Active
 70
     0
 10
0.0
 20
0.0
 11
1.0
 21
1.0
 12
209.9975169707614
 22
296.9977612136351
 13
0.0
 23
0.0
 14
1.0
 24
1.0
 15
10.0
 25
10.0
 16
0.0
 26
0.0
 36
1.0
 17
0.0
 27
0.0
 37
0.0
 40
598.8652698621374
 41
1.336927223719676
 42
50.0
 43
0.0
 44
0.0
 50
0.0
 51
0.0
 71
     0
 72
  1500
 73
     1
 74
     0
 75
     0
 76
     0
 77
     0
 78
     0
281
     0
 65
     1
110
0.0
120
0.0
130
0.0
111
1.0
121
0.0
131
0.0
112
0.0
122
1.0
132
0.0
 79
     0
146
0.0
  0
ENDTAB
  0
TABLE
  2
LTYPE
  5
5
330
0
100
AcDbSymbolTable
 70
     2
  0
LTYPE
  5
13
330
5
100
AcDbSymbolTableRecord
100
AcDbLinetypeTableRecord
  2
ByBlock
 70
     0
  3

 72
    65
 73
     0
 40
0.0
  0
LTYPE
  5
14
330
5
100
AcDbSymbolTableRecord
100
AcDbLinetypeTableRecord
  2
ByLayer
 70
     0
  3

 72
    65
 73
     0
 40
0.0
  0
LTYPE
  5
15
330
5
100
AcDbSymbolTableRecord
100
AcDbLinetypeTableRecord
  2
Continuous
 70
     0
  3
Solid line
 72
    65
 73
     0
 40
0.0
  0
LTYPE
  5
25
330
5
100
AcDbSymbolTableRecord
100
AcDbLinetypeTableRecord
  2
STRICHPUNKT
 70
     0
  3
__ . __ . __ . __ . __ . __ . __ . __ . __ . __
 72
    65
 73
     4
 40
1.0
 49
0.5
 74
     0
 49
-0.25
 74
     0
 49
0.0
 74
     0
 49
-0.25
 74
     0
  0
ENDTAB
  0
TABLE
  2
LAYER
  5
2
330
0
100
AcDbSymbolTable
 70
     9
  0
LAYER
  5
10
330
2
100
AcDbSymbolTableRecord
100
AcDbLayerTableRecord
  2
0
 70
     0
 62
     7
  6
Continuous
370
    -3
390
F
  0
LAYER
  5
2A
330
2
100
AcDbSymbolTableRecord
100
AcDbLayerTableRecord
  2
VOLL
 70
     0
 62
     1
  6
Continuous
370
    -3
390
F
  0
LAYER
  5
2B
330
2
100
AcDbSymbolTableRecord
100
AcDbLayerTableRecord
  2
HILF
 70
     0
 62
     2
  6
Continuous
370
    -3
390
F
  0
LAYER
  5
2C
330
2
100
AcDbSymbolTableRecord
100
AcDbLayerTableRecord
  2
MITTEL
 70
     0
 62
     2
  6
STRICHPUNKT
370
    -3
390
F
  0
LAYER
  5
2F
330
2
100
AcDbSymbolTableRecord
100
AcDbLayerTableRecord
  2
BEM
 70
     0
 62
     7
  6
Continuous
370
    -3
390
F
  0
LAYER
  5
30
330
2
100
AcDbSymbolTableRecord
100
AcDbLayerTableRecord
  2
STEMPEL
 70
     0
 62
     3
  6
Continuous
370
    -3
390
F
  0
LAYER
  5
31
330
2
100
AcDbSymbolTableRecord
100
AcDbLayerTableRecord
  2
TEXT
 70
     0
 62
     7
  6
Continuous
370
    -3
390
F
  0
LAYER
  5
171
330
2
100
AcDbSymbolTableRecord
100
AcDbLayerTableRecord
  2
Defpoints
 70
     0
 62
     7
  6
Continuous
290
     0
370
    -3
390
F
  0
LAYER
  5
19C
330
2
100
AcDbSymbolTableRecord
100
AcDbLayerTableRecord
  2
SCHRAFF
 70
     0
 62
     7
  6
Continuous
370
    -3
390
F
  0
ENDTAB
  0
TABLE
  2
STYLE
  5
3
330
0
100
AcDbSymbolTable
 70
     2
  0
STYLE
  5
11
330
3
100
AcDbSymbolTableRecord
100
AcDbTextStyleTableRecord
  2
STANDARD
 70
     0
 40
0.0
 41
0.8
 50
0.0
 71
     0
 42
3.5
  3
simplex.shx
  4

  0
STYLE
  5
24
330
3
100
AcDbSymbolTableRecord
100
AcDbTextStyleTableRecord
  2
GREEKS
 70
     0
 40
0.0
 41
0.8
 50
0.0
 71
     0
 42
2.5
  3
SIMPLEX.shx
  4

  0
ENDTAB
  0
TABLE
  2
VIEW
  5
6
330
0
100
AcDbSymbolTable
 70
     0
  0
ENDTAB
  0
TABLE
  2
UCS
  5
7
330
0
100
AcDbSymbolTable
 70
     0
  0
ENDTAB
  0
TABLE
  2
APPID
  5
9
330
0
100
AcDbSymbolTable
 70
     1
  0
APPID
  5
12
330
9
100
AcDbSymbolTableRecord
100
AcDbRegAppTableRecord
  2
ACAD
 70
     0
  0
ENDTAB
  0
TABLE
  2
DIMSTYLE
  5
A
330
0
100
AcDbSymbolTable
 70
     1
100
AcDbDimStyleTable
 71
     1
340
9D
  0
DIMSTYLE
105
9D
102
{ACAD_REACTORS
330
31D9
330
31DA
330
31DB
330
31FB
330
32AF
330
32DD
102
}
330
A
100
AcDbSymbolTableRecord
100
AcDbDimStyleTableRecord
  2
Standard
 70
     0
340
11
  0
ENDTAB
  0
TABLE
  2
BLOCK_RECORD
  5
1
330
0
100
AcDbSymbolTable
 70
     7
  0
BLOCK_RECORD
  5
1E
102
{ACAD_XDICTIONARY
360
A0
102
}
330
1
100
AcDbSymbolTableRecord
100
AcDbBlockTableRecord
  2
*Model_Space
340
21
  0
BLOCK_RECORD
  5
1A
102
{ACAD_XDICTIONARY
360
A2
102
}
330
1
100
AcDbSymbolTableRecord
100
AcDbBlockTableRecord
  2
*Paper_Space
340
1D
  0
BLOCK_RECORD
  5
22
330
1
100
AcDbSymbolTableRecord
100
AcDbBlockTableRecord
  2
LOGO
340
0
102
{BLKREFS
331
9B
102
}
  0
BLOCK_RECORD
  5
321F
330
1
100
AcDbSymbolTableRecord
100
AcDbBlockTableRecord
  2
*D1
340
0
  0
BLOCK_RECORD
  5
322B
330
1
100
AcDbSymbolTableRecord
100
AcDbBlockTableRecord
  2
*D2
340
0
  0
BLOCK_RECORD
  5
3237
330
1
100
AcDbSymbolTableRecord
100
AcDbBlockTableRecord
  2
*D3
340
0
  0
BLOCK_RECORD
  5
3243
330
1
100
AcDbSymbolTableRecord
100
AcDbBlockTableRecord
  2
*D4
340
0
  0
BLOCK_RECORD
  5
32BC
330
1
100
AcDbSymbolTableRecord
100
AcDbBlockTableRecord
  2
*D5
340
0
  0
BLOCK_RECORD
  5
32FE
330
1
100
AcDbSymbolTableRecord
100
AcDbBlockTableRecord
  2
*D6
340
0
  0
ENDTAB
  0
ENDSEC
  0
SECTION
  2
BLOCKS
  0
BLOCK
  5
35
330
1E
100
AcDbEntity
  8
0
100
AcDbBlockBegin
  2
*Model_Space
 70
     0
 10
0.0
 20
0.0
 30
0.0
  3
*Model_Space
  1

  0
ENDBLK
  5
36
330
1E
100
AcDbEntity
  8
0
100
AcDbBlockEnd
  0
BLOCK
  5
33
330
1A
100
AcDbEntity
 67
     1
  8
0
100
AcDbBlockBegin
  2
*Paper_Space
 70
     0
 10
0.0
 20
0.0
 30
0.0
  3
*Paper_Space
  1

  0
ENDBLK
  5
34
330
1A
100
AcDbEntity
 67
     1
  8
0
100
AcDbBlockEnd
  0
BLOCK
  5
37
330
22
100
AcDbEntity
  8
0
100
AcDbBlockBegin
  2
LOGO
 70
     0
 10
0.0
 20
0.0
 30
0.0
  3
LOGO
  1

  0
ARC
  5
38
330
22
100
AcDbEntity
  8
0
100
AcDbCircle
 10
11.59973089678112
 20
-9.271599258481501
 30
0.0
 40
4.5
100
AcDbArc
 50
270.0
 51
231.0575587310159
  0
LINE
  5
39
330
22
100
AcDbEntity
  8
0
100
AcDbLine
 10
3.599730896781125
 20
-4.771599258481529
 30
0.0
 11
3.599730896781153
 21
-11.77159925848133
 31
0.0
  0
LINE
  5
3A
330
22
100
AcDbEntity
  8
0
100
AcDbLine
 10
2.599730896781125
 20
-4.771599258481529
 30
0.0
 11
2.599730896781153
 21
-11.77159925848133
 31
0.0
  0
CIRCLE
  5
3B
330
22
100
AcDbEntity
  8
0
100
AcDbCircle
 10
11.59973089678112
 20
-9.271599258481501
 30
0.0
 40
3.5
  0
ARC
  5
3C
330
22
100
AcDbEntity
  8
0
100
AcDbCircle
 10
31.59973089678115
 20
-9.271599258481472
 30
0.0
 40
4.5
100
AcDbArc
 50
270.0
 51
231.0575587310182
  0
LINE
  5
3D
330
22
100
AcDbEntity
  8
0
100
AcDbLine
 10
17.59973089678112
 20
-4.771599258481472
 30
0.0
 11
17.59973089678115
 21
-13.77159925848147
 31
0.0
  0
ARC
  5
3E
330
22
100
AcDbEntity
  8
0
100
AcDbCircle
 10
22.59973089678116
 20
-7.271599258481472
 30
0.0
 40
2.5
100
AcDbArc
 50
293.1161887722295
 51
90.0
  0
CIRCLE
  5
3F
330
22
100
AcDbEntity
  8
0
100
AcDbCircle
 10
31.59973089678115
 20
-9.271599258481472
 30
0.0
 40
3.5
  0
ARC
  5
40
330
22
100
AcDbEntity
  8
0
100
AcDbCircle
 10
4.599730896781153
 20
-11.77159925848133
 30
0.0
 40
1.0
100
AcDbArc
 50
180.0
 51
270.0
  0
ARC
  5
41
330
22
100
AcDbEntity
  8
0
100
AcDbCircle
 10
4.599730896781153
 20
-11.77159925848133
 30
0.0
 40
2.0
100
AcDbArc
 50
179.9999999999992
 51
270.0
  0
LINE
  5
42
330
22
100
AcDbEntity
  8
0
100
AcDbLine
 10
11.59973089678115
 20
-13.77159925848144
 30
0.0
 11
4.599730896781153
 21
-13.77159925848147
 31
0.0
  0
LINE
  5
43
330
22
100
AcDbEntity
  8
0
100
AcDbLine
 10
8.771303772034769
 20
-12.77159925848136
 30
0.0
 11
4.599730896781153
 21
-12.77159925848133
 31
0.0
  0
LINE
  5
44
330
22
100
AcDbEntity
  8
0
100
AcDbLine
 10
31.59973089678115
 20
-13.77159925848147
 30
0.0
 11
23.6715276665056
 21
-13.77159925848144
 31
0.0
  0
LINE
  5
45
330
22
100
AcDbEntity
  8
0
100
AcDbLine
 10
23.56565672307022
 20
-9.51278021337896
 30
0.0
 11
24.4388546544846
 21
-12.77159925848144
 31
0.0
  0
LINE
  5
46
330
22
100
AcDbEntity
  8
0
100
AcDbLine
 10
22.59973089678116
 20
-9.771599258481472
 30
0.0
 11
18.59973089678112
 21
-9.771599258481472
 31
0.0
  0
LINE
  5
47
330
22
100
AcDbEntity
  8
0
100
AcDbLine
 10
18.59973089678115
 20
-13.77159925848144
 30
0.0
 11
17.59973089678115
 21
-13.77159925848144
 31
0.0
  0
LINE
  5
48
330
22
100
AcDbEntity
  8
0
100
AcDbLine
 10
18.59973089678115
 20
-9.771599258481472
 30
0.0
 11
18.59973089678115
 21
-13.77159925848144
 31
0.0
  0
LINE
  5
49
330
22
100
AcDbEntity
  8
0
100
AcDbLine
 10
22.59973089678116
 20
-9.771599258481472
 30
0.0
 11
23.67152766650562
 21
-13.77159925848147
 31
0.0
  0
ARC
  5
4A
330
22
100
AcDbEntity
  8
0
100
AcDbCircle
 10
22.59973089678116
 20
-7.271599258481472
 30
0.0
 40
2.5
100
AcDbArc
 50
270.0
 51
270.0000000000007
  0
LINE
  5
4B
330
22
100
AcDbEntity
  8
0
100
AcDbLine
 10
28.77130377203494
 20
-12.77159925848147
 30
0.0
 11
24.43885465448463
 21
-12.77159925848144
 31
0.0
  0
LINE
  5
4C
330
22
100
AcDbEntity
  8
0
100
AcDbLine
 10
3.599730896781125
 20
-4.771599258481472
 30
0.0
 11
2.599730896781125
 21
-4.771599258481472
 31
0.0
  0
LINE
  5
4D
330
22
100
AcDbEntity
  8
0
100
AcDbLine
 10
22.59973089678116
 20
-8.771599258481472
 30
0.0
 11
18.59973089678115
 21
-8.771599258481472
 31
0.0
  0
LINE
  5
4E
330
22
100
AcDbEntity
  8
0
100
AcDbLine
 10
22.59973089678116
 20
-5.771599258481472
 30
0.0
 11
18.59973089678115
 21
-5.771599258481472
 31
0.0
  0
LINE
  5
4F
330
22
100
AcDbEntity
  8
0
100
AcDbLine
 10
22.59973089678116
 20
-4.771599258481472
 30
0.0
 11
17.59973089678115
 21
-4.771599258481472
 31
0.0
  0
LINE
  5
50
330
22
100
AcDbEntity
  8
0
100
AcDbLine
 10
18.59973089678115
 20
-5.771599258481472
 30
0.0
 11
18.59973089678115
 21
-8.771599258481472
 31
0.0
  0
ARC
  5
51
330
22
100
AcDbEntity
  8
0
100
AcDbCircle
 10
22.59973089678116
 20
-7.271599258481472
 30
0.0
 40
1.5
100
AcDbArc
 50
270.0
 51
90.0
  0
ENDBLK
  5
52
330
22
100
AcDbEntity
  8
0
100
AcDbBlockEnd
  0
BLOCK
  5
3229
330
321F
100
AcDbEntity
  8
0
100
AcDbBlockBegin
  2
*D1
 70
     1
 10
0.0
 20
0.0
 30
0.0
  3
*D1
  1

  0
LINE
  5
3534
330
321F
100
AcDbEntity
  8
BEM
 62
     0
370
    -2
100
AcDbLine
 10
156.8852572689404
 20
262.6931895337857
 30
0.0
 11
108.5291076969967
 21
262.6931895337858
 31
0.0
  0
LINE
  5
3535
330
321F
100
AcDbEntity
  8
BEM
 62
     0
370
    -2
100
AcDbLine
 10
222.0824769099099
 20
374.6919143166514
 30
0.0
 11
108.5291076969967
 21
374.6919143166514
 31
0.0
  0
LINE
  5
3536
330
321F
100
AcDbEntity
  8
BEM
 62
     0
370
    -2
100
AcDbLine
 10
110.5291076969967
 20
269.6931895337858
 30
0.0
 11
110.5291076969967
 21
367.6919143166514
 31
0.0
  0
SOLID
  5
3537
330
321F
100
AcDbEntity
  8
BEM
 62
     0
100
AcDbTrace
 10
109.36244103033
 20
269.6931895337858
 30
0.0
 11
111.6957743636634
 21
269.6931895337858
 31
0.0
 12
110.5291076969967
 22
262.6931895337858
 32
0.0
 13
110.5291076969967
 23
262.6931895337858
 33
0.0
  0
SOLID
  5
3538
330
321F
100
AcDbEntity
  8
BEM
 62
     0
100
AcDbTrace
 10
109.36244103033
 20
367.6919143166514
 30
0.0
 11
111.6957743636634
 21
367.6919143166514
 31
0.0
 12
110.5291076969967
 22
374.6919143166514
 32
0.0
 13
110.5291076969967
 23
374.6919143166514
 33
0.0
  0
MTEXT
  5
3539
330
321F
100
AcDbEntity
  8
BEM
 62
     1
100
AcDbMText
 10
104.0291076969966
 20
318.6925519252186
 30
0.0
 40
7.0
 41
0.0
 71
     5
 72
     1
  1
\A1;112
 11
0.0000000000000001
 21
1.0
 31
0.0
 73
     1
 44
1.0
  0
POINT
  5
353A
330
321F
100
AcDbEntity
  8
Defpoints
 62
     0
100
AcDbPoint
 10
158.8852572689404
 20
262.6931895337857
 30
0.0
  0
POINT
  5
353B
330
321F
100
AcDbEntity
  8
Defpoints
 62
     0
100
AcDbPoint
 10
224.0824769099099
 20
374.6919143166514
 30
0.0
  0
POINT
  5
353C
330
321F
100
AcDbEntity
  8
Defpoints
 62
     0
100
AcDbPoint
 10
110.5291076969967
 20
374.6919143166514
 30
0.0
  0
ENDBLK
  5
322A
330
321F
100
AcDbEntity
  8
0
100
AcDbBlockEnd
  0
BLOCK
  5
3235
330
322B
100
AcDbEntity
  8
0
100
AcDbBlockBegin
  2
*D2
 70
     1
 10
0.0
 20
0.0
 30
0.0
  3
*D2
  1

  0
LINE
  5
353D
330
322B
100
AcDbEntity
  8
BEM
 62
     0
370
    -2
100
AcDbLine
 10
169.8553699761078
 20
505.1716358314451
 30
0.0
 11
149.1491520658691
 21
510.7198501987969
 31
0.0
  0
LINE
  5
353E
330
322B
100
AcDbEntity
  8
BEM
 62
     0
370
    -2
100
AcDbLine
 10
222.1506252573318
 20
375.2095524068565
 30
0.0
 11
120.1617490648659
 21
402.5373894195878
 31
0.0
  0
LINE
  5
353F
330
322B
100
AcDbEntity
  8
BEM
 62
     0
370
    -2
100
AcDbLine
 10
149.2692704027294
 20
503.4407313245684
 30
0.0
 11
123.9053340331618
 21
408.7812321134061
 31
0.0
  0
SOLID
  5
3540
330
322B
100
AcDbEntity
  8
BEM
 62
     0
100
AcDbTrace
 10
148.1423569387255
 20
503.7426868771881
 30
0.0
 11
150.3961838667333
 21
503.1387757719488
 31
0.0
 12
151.0810037184472
 22
510.2022121085918
 32
0.0
 13
151.0810037184472
 23
510.2022121085918
 33
0.0
  0
SOLID
  5
3541
330
322B
100
AcDbEntity
  8
BEM
 62
     0
100
AcDbTrace
 10
122.7784205691579
 20
409.0831876660257
 30
0.0
 11
125.0322474971657
 21
408.4792765607865
 31
0.0
 12
122.0936007174441
 22
402.0197513293827
 32
0.0
 13
122.0936007174441
 23
402.0197513293827
 33
0.0
  0
MTEXT
  5
3542
330
322B
100
AcDbEntity
  8
BEM
 62
     1
100
AcDbMText
 10
130.3087843470668
 20
457.7933055121538
 30
0.0
 40
7.0
 41
0.0
 71
     5
 72
     1
  1
\A1;112
 11
0.2588190451025413
 21
0.9659258262890627
 31
0.0
 73
     1
 44
1.0
  0
POINT
  5
3543
330
322B
100
AcDbEntity
  8
Defpoints
 62
     0
100
AcDbPoint
 10
171.787221628686
 20
504.65399774124
 30
0.0
  0
POINT
  5
3544
330
322B
100
AcDbEntity
  8
Defpoints
 62
     0
100
AcDbPoint
 10
224.0824769099099
 20
374.6919143166514
 30
0.0
  0
POINT
  5
3545
330
322B
100
AcDbEntity
  8
Defpoints
 62
     0
100
AcDbPoint
 10
122.0936007174441
 20
402.0197513293827
 30
0.0
  0
ENDBLK
  5
3236
330
322B
100
AcDbEntity
  8
0
100
AcDbBlockEnd
  0
BLOCK
  5
3241
330
3237
100
AcDbEntity
  8
0
100
AcDbBlockBegin
  2
*D3
 70
     1
 10
0.0
 20
0.0
 30
0.0
  3
*D3
  1

  0
LINE
  5
33A4
330
3237
100
AcDbEntity
  8
BEM
 62
     0
370
    -2
100
AcDbLine
 10
157.5824769099099
 20
275.5840371765133
 30
0.0
 11
157.5824769099099
 21
236.0214826627666
 31
0.0
  0
LINE
  5
33A5
330
3237
100
AcDbEntity
  8
BEM
 62
     0
370
    -2
100
AcDbLine
 10
290.5824769099099
 20
275.5840371765133
 30
0.0
 11
290.5824769099099
 21
236.0214826627666
 31
0.0
  0
LINE
  5
33A6
330
3237
100
AcDbEntity
  8
BEM
 62
     0
370
    -2
100
AcDbLine
 10
164.5824769099099
 20
238.0214826627666
 30
0.0
 11
283.5824769099099
 21
238.0214826627666
 31
0.0
  0
SOLID
  5
33A7
330
3237
100
AcDbEntity
  8
BEM
 62
     0
100
AcDbTrace
 10
164.5824769099099
 20
239.1881493294333
 30
0.0
 11
164.5824769099099
 21
236.8548159961
 31
0.0
 12
157.5824769099099
 22
238.0214826627666
 32
0.0
 13
157.5824769099099
 23
238.0214826627666
 33
0.0
  0
SOLID
  5
33A8
330
3237
100
AcDbEntity
  8
BEM
 62
     0
100
AcDbTrace
 10
283.5824769099099
 20
239.1881493294333
 30
0.0
 11
283.5824769099099
 21
236.8548159961
 31
0.0
 12
290.5824769099099
 22
238.0214826627666
 32
0.0
 13
290.5824769099099
 23
238.0214826627666
 33
0.0
  0
MTEXT
  5
33A9
330
3237
100
AcDbEntity
  8
BEM
 62
     1
100
AcDbMText
 10
224.0824769099099
 20
244.5214826627666
 30
0.0
 40
7.0
 41
0.0
 71
     5
 72
     1
  1
\A1;%%c133
 73
     1
 44
1.0
  0
POINT
  5
33AA
330
3237
100
AcDbEntity
  8
Defpoints
 62
     0
100
AcDbPoint
 10
157.5824769099099
 20
277.5840371765133
 30
0.0
  0
POINT
  5
33AB
330
3237
100
AcDbEntity
  8
Defpoints
 62
     0
100
AcDbPoint
 10
290.5824769099099
 20
277.5840371765133
 30
0.0
  0
POINT
  5
33AC
330
3237
100
AcDbEntity
  8
Defpoints
 62
     0
100
AcDbPoint
 10
290.5824769099099
 20
238.0214826627666
 30
0.0
  0
ENDBLK
  5
3242
330
3237
100
AcDbEntity
  8
0
100
AcDbBlockEnd
  0
BLOCK
  5
324F
330
3243
100
AcDbEntity
  8
0
100
AcDbBlockBegin
  2
*D4
 70
     1
 10
0.0
 20
0.0
 30
0.0
  3
*D4
  1

  0
LINE
  5
3399
330
3243
100
AcDbEntity
  8
BEM
 62
     0
370
    -2
100
AcDbLine
 10
254.8816132266288
 20
489.6358558798863
 30
0.0
 11
260.1699488916525
 21
509.3721932692329
 31
0.0
  0
LINE
  5
339A
330
3243
100
AcDbEntity
  8
BEM
 62
     0
370
    -2
100
AcDbLine
 10
224.08247690991
 20
376.6919143166514
 30
0.0
 11
224.0824769099099
 21
514.1231990872445
 31
0.0
  0
ARC
  5
339B
330
3243
100
AcDbEntity
  8
BEM
 62
     0
370
    -2
100
AcDbCircle
 10
224.0824769099099
 20
374.6919143166514
 30
0.0
 40
137.4312847705931
100
AcDbArc
 50
77.91865003249528
 51
87.08134996750477
  0
SOLID
  5
339C
330
3243
100
AcDbEntity
  8
BEM
 62
     0
100
AcDbTrace
 10
253.1200413568672
 20
510.2135287748747
 30
0.0
 11
252.5737249512056
 21
507.9450528924044
 31
0.0
 12
259.6523108014474
 22
507.4403416166548
 32
0.0
 13
259.6523108014474
 23
507.4403416166548
 33
0.0
  0
SOLID
  5
339D
330
3243
100
AcDbEntity
  8
BEM
 62
     0
100
AcDbTrace
 10
231.0504946867048
 20
510.7786399128745
 30
0.0
 11
231.10991832289
 21
513.1112164445036
 31
0.0
 12
224.0824769099099
 22
512.1231990872445
 32
0.0
 13
224.0824769099099
 23
512.1231990872445
 33
0.0
  0
MTEXT
  5
339E
330
3243
100
AcDbEntity
  8
BEM
 62
     1
100
AcDbMText
 10
242.8692794523553
 20
517.3918469933865
 30
0.0
 40
7.0
 41
0.0
 71
     5
 72
     1
  1
\A1;15°
 11
0.9914448613738105
 21
-0.1305261922200512
 31
0.0
 73
     1
 44
1.0
  0
POINT
  5
339F
330
3243
100
AcDbEntity
  8
Defpoints
 62
     0
100
AcDbPoint
 10
247.9471690647484
 20
510.0353090651601
 30
0.0
  0
POINT
  5
33A0
330
3243
100
AcDbEntity
  8
Defpoints
 62
     0
100
AcDbPoint
 10
224.0824769099099
 20
374.6919143166514
 30
0.0
  0
POINT
  5
33A1
330
3243
100
AcDbEntity
  8
Defpoints
 62
     0
100
AcDbPoint
 10
224.0824769099099
 20
374.6919143166514
 30
0.0
  0
POINT
  5
33A2
330
3243
100
AcDbEntity
  8
Defpoints
 62
     0
100
AcDbPoint
 10
254.3639751364238
 20
487.7040042273081
 30
0.0
  0
POINT
  5
33A3
330
3243
100
AcDbEntity
  8
Defpoints
 62
     0
100
AcDbPoint
 10
224.0824769099099
 20
257.6931895337858
 30
0.0
  0
ENDBLK
  5
3250
330
3243
100
AcDbEntity
  8
0
100
AcDbBlockEnd
  0
BLOCK
  5
32C6
330
32BC
100
AcDbEntity
  8
0
100
AcDbBlockBegin
  2
*D5
 70
     1
 10
0.0
 20
0.0
 30
0.0
  3
*D5
  1

  0
LINE
  5
352B
330
32BC
100
AcDbEntity
  8
BEM
 62
     0
370
    -2
100
AcDbLine
 10
137.9258480343595
 20
322.692102646
 30
0.0
 11
124.6823291418016
 21
322.692102646
 31
0.0
  0
LINE
  5
352C
330
32BC
100
AcDbEntity
  8
BEM
 62
     0
370
    -2
100
AcDbLine
 10
156.2823835730732
 20
262.6931895337857
 30
0.0
 11
124.6823291418015
 21
262.6931895337858
 31
0.0
  0
LINE
  5
352D
330
32BC
100
AcDbEntity
  8
BEM
 62
     0
370
    -2
100
AcDbLine
 10
126.6823291418016
 20
315.692102646
 30
0.0
 11
126.6823291418015
 21
269.6931895337858
 31
0.0
  0
SOLID
  5
352E
330
32BC
100
AcDbEntity
  8
BEM
 62
     0
100
AcDbTrace
 10
125.5156624751349
 20
315.692102646
 30
0.0
 11
127.8489958084682
 21
315.692102646
 31
0.0
 12
126.6823291418016
 22
322.692102646
 32
0.0
 13
126.6823291418016
 23
322.692102646
 33
0.0
  0
SOLID
  5
352F
330
32BC
100
AcDbEntity
  8
BEM
 62
     0
100
AcDbTrace
 10
125.5156624751349
 20
269.6931895337858
 30
0.0
 11
127.8489958084682
 21
269.6931895337858
 31
0.0
 12
126.6823291418015
 22
262.6931895337858
 32
0.0
 13
126.6823291418015
 23
262.6931895337858
 33
0.0
  0
MTEXT
  5
3530
330
32BC
100
AcDbEntity
  8
BEM
 62
     1
100
AcDbMText
 10
120.1823291418015
 20
292.6926460898929
 30
0.0
 40
7.0
 41
0.0
 71
     5
 72
     1
  1
\A1;60
 11
0.0000000000000001
 21
1.0
 31
0.0
 73
     1
 44
1.0
  0
POINT
  5
3531
330
32BC
100
AcDbEntity
  8
Defpoints
 62
     0
100
AcDbPoint
 10
139.9258480343595
 20
322.692102646
 30
0.0
  0
POINT
  5
3532
330
32BC
100
AcDbEntity
  8
Defpoints
 62
     0
100
AcDbPoint
 10
158.2823835730732
 20
262.6931895337857
 30
0.0
  0
POINT
  5
3533
330
32BC
100
AcDbEntity
  8
Defpoints
 62
     0
100
AcDbPoint
 10
126.6823291418015
 20
262.6931895337858
 30
0.0
  0
ENDBLK
  5
32C7
330
32BC
100
AcDbEntity
  8
0
100
AcDbBlockEnd
  0
BLOCK
  5
3308
330
32FE
100
AcDbEntity
  8
0
100
AcDbBlockBegin
  2
*D6
 70
     1
 10
0.0
 20
0.0
 30
0.0
  3
*D6
  1

  0
LINE
  5
3546
330
32FE
100
AcDbEntity
  8
BEM
 62
     0
370
    -2
100
AcDbLine
 10
172.3048597188911
 20
506.5858493938181
 30
0.0
 11
182.7593950872334
 21
545.6027065579969
 31
0.0
  0
LINE
  5
3547
330
32FE
100
AcDbEntity
  8
BEM
 62
     0
370
    -2
100
AcDbLine
 10
334.8701762833413
 20
463.0266041030636
 30
0.0
 11
345.3247116516835
 21
502.0434612672424
 31
0.0
  0
LINE
  5
3548
330
32FE
100
AcDbEntity
  8
BEM
 62
     0
370
    -2
100
AcDbLine
 10
189.0032377810518
 20
541.859121589701
 30
0.0
 11
338.045592777455
 21
501.9233429303819
 31
0.0
  0
SOLID
  5
3549
330
32FE
100
AcDbEntity
  8
BEM
 62
     0
100
AcDbTrace
 10
189.3051933336714
 20
542.9860350537051
 30
0.0
 11
188.7012822284322
 21
540.7322081256973
 31
0.0
 12
182.2417569970283
 22
543.6708549054187
 32
0.0
 13
182.2417569970283
 23
543.6708549054187
 33
0.0
  0
SOLID
  5
354A
330
32FE
100
AcDbEntity
  8
BEM
 62
     0
100
AcDbTrace
 10
338.3475483300746
 20
503.0502563943858
 30
0.0
 11
337.7436372248354
 21
500.7964294663781
 31
0.0
 12
344.8070735614785
 22
500.1116096146643
 32
0.0
 13
344.8070735614785
 23
500.1116096146643
 33
0.0
  0
MTEXT
  5
354B
330
32FE
100
AcDbEntity
  8
BEM
 62
     1
100
AcDbMText
 10
265.2067390724198
 20
528.1697501309205
 30
0.0
 40
7.0
 41
0.0
 71
     5
 72
     1
  1
\A1;%%c168.3
 11
0.9659258262890681
 21
-0.2588190451025222
 31
0.0
 73
     1
 44
1.0
  0
POINT
  5
354C
330
32FE
100
AcDbEntity
  8
Defpoints
 62
     0
100
AcDbPoint
 10
171.7872216286861
 20
504.65399774124
 30
0.0
  0
POINT
  5
354D
330
32FE
100
AcDbEntity
  8
Defpoints
 62
     0
100
AcDbPoint
 10
334.3525381931363
 20
461.0947524504854
 30
0.0
  0
POINT
  5
354E
330
32FE
100
AcDbEntity
  8
Defpoints
 62
     0
100
AcDbPoint
 10
344.8070735614785
 20
500.1116096146643
 30
0.0
  0
ENDBLK
  5
3309
330
32FE
100
AcDbEntity
  8
0
100
AcDbBlockEnd
  0
ENDSEC
  0
SECTION
  2
ENTITIES
  0
LINE
  5
57
330
1E
100
AcDbEntity
  8
STEMPEL
100
AcDbLine
 10
410.0
 20
110.0
 30
0.0
 11
39.99999999999997
 21
110.0
 31
0.0
  0
LINE
  5
58
330
1E
100
AcDbEntity
  8
STEMPEL
100
AcDbLine
 10
146.0000000000001
 20
109.9999999999999
 30
0.0
 11
146.0
 21
9.999999999999971
 31
0.0
  0
LINE
  5
59
330
1E
100
AcDbEntity
  8
STEMPEL
100
AcDbLine
 10
230.0
 20
110.0
 30
0.0
 11
230.0
 21
9.999999999999971
 31
0.0
  0
LINE
  5
5A
330
1E
100
AcDbEntity
  8
STEMPEL
100
AcDbLine
 10
332.0
 20
109.9999999999997
 30
0.0
 11
332.0
 21
40.0
 31
0.0
  0
LINE
  5
5B
330
1E
100
AcDbEntity
  8
STEMPEL
100
AcDbLine
 10
145.9999999999999
 20
29.99999999999997
 30
0.0
 11
39.99999999999997
 21
29.99999999999997
 31
0.0
  0
LINE
  5
5C
330
1E
100
AcDbEntity
  8
STEMPEL
100
AcDbLine
 10
410.0
 20
40.0
 30
0.0
 11
146.0000000000001
 21
39.99999999999997
 31
0.0
  0
LINE
  5
5D
330
1E
100
AcDbEntity
  8
STEMPEL
100
AcDbLine
 10
410.0
 20
80.0
 30
0.0
 11
146.0000000000001
 21
79.99999999999994
 31
0.0
  0
LINE
  5
5E
330
1E
100
AcDbEntity
  8
VOLL
100
AcDbLine
 10
54.00000000000009
 20
110.0
 30
0.0
 11
53.99999999999997
 21
9.999999999999971
 31
0.0
  0
LINE
  5
5F
330
1E
100
AcDbEntity
  8
VOLL
100
AcDbLine
 10
104.0000000000001
 20
109.9999999999999
 30
0.0
 11
104.0
 21
9.999999999999971
 31
0.0
  0
LINE
  5
60
330
1E
100
AcDbEntity
  8
VOLL
100
AcDbLine
 10
124.0000000000001
 20
109.9999999999999
 30
0.0
 11
124.0
 21
9.999999999999971
 31
0.0
  0
LINE
  5
61
330
1E
100
AcDbEntity
  8
VOLL
100
AcDbLine
 10
164.0000000000001
 20
79.99999999999994
 30
0.0
 11
164.0000000000001
 21
39.99999999999997
 31
0.0
  0
LINE
  5
62
330
1E
100
AcDbEntity
  8
VOLL
100
AcDbLine
 10
190.0000000000001
 20
109.9999999999998
 30
0.0
 11
190.0
 21
39.99999999999997
 31
0.0
  0
LINE
  5
63
330
1E
100
AcDbEntity
  8
HILF
100
AcDbLine
 10
40.00000000000008
 20
100.0
 30
0.0
 11
146.0000000000001
 21
100.0
 31
0.0
  0
LINE
  5
64
330
1E
100
AcDbEntity
  8
HILF
100
AcDbLine
 10
40.00000000000008
 20
90.00000000000005
 30
0.0
 11
146.0000000000001
 21
90.00000000000005
 31
0.0
  0
LINE
  5
65
330
1E
100
AcDbEntity
  8
HILF
100
AcDbLine
 10
40.00000000000008
 20
79.99999999999994
 30
0.0
 11
146.0000000000001
 21
79.99999999999994
 31
0.0
  0
LINE
  5
66
330
1E
100
AcDbEntity
  8
HILF
100
AcDbLine
 10
40.00000000000008
 20
69.99999999999994
 30
0.0
 11
146.0000000000001
 21
69.99999999999994
 31
0.0
  0
LINE
  5
67
330
1E
100
AcDbEntity
  8
HILF
100
AcDbLine
 10
40.00000000000008
 20
59.99999999999997
 30
0.0
 11
146.0000000000001
 21
59.99999999999997
 31
0.0
  0
LINE
  5
68
330
1E
100
AcDbEntity
  8
HILF
100
AcDbLine
 10
40.00000000000008
 20
49.99999999999997
 30
0.0
 11
146.0000000000001
 21
49.99999999999997
 31
0.0
  0
LINE
  5
69
330
1E
100
AcDbEntity
  8
HILF
100
AcDbLine
 10
40.00000000000008
 20
39.99999999999997
 30
0.0
 11
146.0000000000001
 21
39.99999999999997
 31
0.0
  0
LINE
  5
6A
330
1E
100
AcDbEntity
  8
HILF
100
AcDbLine
 10
146.0000000000001
 20
69.99999999999994
 30
0.0
 11
230.0
 21
69.99999999999994
 31
0.0
  0
LINE
  5
6B
330
1E
100
AcDbEntity
  8
HILF
100
AcDbLine
 10
146.0000000000001
 20
59.99999999999997
 30
0.0
 11
230.0
 21
59.99999999999997
 31
0.0
  0
LINE
  5
6C
330
1E
100
AcDbEntity
  8
HILF
100
AcDbLine
 10
146.0000000000001
 20
49.99999999999997
 30
0.0
 11
230.0
 21
49.99999999999997
 31
0.0
  0
LINE
  5
6D
330
1E
100
AcDbEntity
  8
HILF
100
AcDbLine
 10
234.7736801096947
 20
84.03758247564139
 30
0.0
 11
324.8353916556311
 21
84.03758247564139
 31
0.0
  0
LINE
  5
6E
330
1E
100
AcDbEntity
  8
HILF
100
AcDbLine
 10
234.7736801096947
 20
69.99999999999994
 30
0.0
 11
324.835391655631
 21
69.99999999999994
 31
0.0
  0
LINE
  5
6F
330
1E
100
AcDbEntity
  8
HILF
100
AcDbLine
 10
234.7736801096947
 20
59.99999999999997
 30
0.0
 11
324.835391655631
 21
59.99999999999997
 31
0.0
  0
LINE
  5
70
330
1E
100
AcDbEntity
  8
HILF
100
AcDbLine
 10
234.7736801096947
 20
49.99999999999997
 30
0.0
 11
324.835391655631
 21
49.99999999999997
 31
0.0
  0
LINE
  5
71
330
1E
100
AcDbEntity
  8
VOLL
100
AcDbLine
 10
332.0
 20
60.0
 30
0.0
 11
410.0
 21
60.0
 31
0.0
  0
LINE
  5
72
330
1E
100
AcDbEntity
  8
HILF
100
AcDbLine
 10
336.7238616296993
 20
83.77983636955827
 30
0.0
 11
404.8588839326728
 21
83.77983636955827
 31
0.0
  0
LINE
  5
73
330
1E
100
AcDbEntity
  8
HILF
100
AcDbLine
 10
233.4909699289885
 20
14.89398258028314
 30
0.0
 11
404.8588839326728
 21
14.89398258028314
 31
0.0
  0
TEXT
  5
74
330
1E
100
AcDbEntity
  8
TEXT
100
AcDbText
 10
67.79509897490102
 20
18.67381894984132
 30
0.0
 40
4.0
  1
Änderung
 41
0.8
  7
GREEKS
 72
     1
 11
78.53795611775817
 21
18.67381894984132
 31
0.0
100
AcDbText
  0
TEXT
  5
75
330
1E
100
AcDbEntity
  8
TEXT
100
AcDbText
 10
153.5163572150377
 20
102.4620895087088
 30
0.0
 40
5.0
  1
Maßstab
 41
0.8
  7
GREEKS
100
AcDbText
  0
TEXT
  5
76
330
1E
100
AcDbEntity
  8
TEXT
100
AcDbText
 10
194.2858954734051
 20
102.4184168434819
 30
0.0
 40
5.0
  1
Zul. Abw.
 41
0.8
  7
GREEKS
100
AcDbText
  0
TEXT
  5
77
330
1E
100
AcDbEntity
  8
TEXT
100
AcDbText
 10
234.877940380901
 20
102.5489328011779
 30
0.0
 40
5.0
  1
Benennung
 41
0.8
  7
GREEKS
100
AcDbText
  0
TEXT
  5
78
330
1E
100
AcDbEntity
  8
TEXT
100
AcDbText
 10
336.178754957634
 20
102.3132034537136
 30
0.0
 40
5.0
  1
Zeichnungs Nr.
 41
0.8
  7
GREEKS
100
AcDbText
  0
TEXT
  5
79
330
1E
100
AcDbEntity
  8
TEXT
100
AcDbText
 10
234.742238391136
 20
30.84560570193057
 30
0.0
 40
5.0
  1
Bauvorhaben
 41
0.8
  7
GREEKS
100
AcDbText
  0
TEXT
  5
7A
330
1E
100
AcDbEntity
  8
TEXT
100
AcDbText
 10
336.7238616296993
 20
73.1811823709997
 30
0.0
 40
5.0
  1
Ersatz für:
 41
0.8
  7
GREEKS
100
AcDbText
  0
TEXT
  5
7B
330
1E
100
AcDbEntity
  8
TEXT
100
AcDbText
 10
48.26641107045756
 20
13.65465846027192
 30
0.0
 40
4.0
  1
Index
 50
90.0
 41
0.8
  7
GREEKS
100
AcDbText
  0
TEXT
  5
7C
330
1E
100
AcDbEntity
  8
TEXT
100
AcDbText
 10
110.6986119235389
 20
18.6715626933981
 30
0.0
 40
4.0
  1
Tag
 41
0.8
  7
GREEKS
 72
     1
 11
114.4319452568723
 21
18.6715626933981
 31
0.0
100
AcDbText
  0
TEXT
  5
7D
330
1E
100
AcDbEntity
  8
TEXT
100
AcDbText
 10
129.0122744386592
 20
18.59324216966408
 30
0.0
 40
4.0
  1
Name
 41
0.8
  7
GREEKS
 72
     1
 11
135.3360839624688
 21
18.59324216966408
 31
0.0
100
AcDbText
  0
TEXT
  5
7E
330
1E
100
AcDbEntity
  8
TEXT
100
AcDbText
 10
172.331167315365
 20
73.31880501229926
 30
0.0
 40
4.0
  1
Tag
 41
0.8
  7
GREEKS
100
AcDbText
  0
TEXT
  5
7F
330
1E
100
AcDbEntity
  8
TEXT
100
AcDbText
 10
202.4626584226295
 20
73.30961091915225
 30
0.0
 40
4.0
  1
Name
 41
0.8
  7
GREEKS
100
AcDbText
  0
TEXT
  5
80
330
1E
100
AcDbEntity
  8
TEXT
100
AcDbText
 10
147.5836127167615
 20
63.62990369617964
 30
0.0
 40
4.0
  1
Gez.
 41
0.8
  7
GREEKS
100
AcDbText
  0
TEXT
  5
81
330
1E
100
AcDbEntity
  8
TEXT
100
AcDbText
 10
147.5515086571672
 20
53.68926291428377
 30
0.0
 40
4.0
  1
Gepr.
 41
0.8
  7
GREEKS
100
AcDbText
  0
TEXT
  5
82
330
1E
100
AcDbEntity
  8
TEXT
100
AcDbText
 10
147.6006777387303
 20
43.52946389649807
 30
0.0
 40
4.0
  1
Norm.
 41
0.8
  7
GREEKS
100
AcDbText
  0
LINE
  5
83
330
1E
100
AcDbEntity
  8
STEMPEL
100
AcDbLine
 10
49.99999999999989
 20
10.0
 30
0.0
 11
410.0
 21
10.0
 31
0.0
  0
TEXT
  5
84
330
1E
100
AcDbEntity
  8
TEXT
100
AcDbText
 10
337.2400861497006
 20
52.07416177878602
 30
0.0
 40
5.0
  1
ersetzt durch:
 41
0.8
  7
GREEKS
100
AcDbText
  0
LINE
  5
85
330
1E
100
AcDbEntity
  8
STEMPEL
100
AcDbLine
 10
410.0
 20
10.0
 30
0.0
 11
39.99999999999989
 21
10.0
 31
0.0
  0
LINE
  5
86
330
1E
100
AcDbEntity
  8
STEMPEL
100
AcDbLine
 10
410.0
 20
10.0
 30
0.0
 11
410.0
 21
584.0
 31
0.0
  0
LINE
  5
87
330
1E
100
AcDbEntity
  8
STEMPEL
100
AcDbLine
 10
40.0
 20
10.0
 30
0.0
 11
39.99999999999989
 21
584.0
 31
0.0
  0
LINE
  5
88
330
1E
100
AcDbEntity
  8
STEMPEL
100
AcDbLine
 10
410.0
 20
584.0
 30
0.0
 11
39.99999999999989
 21
584.0
 31
0.0
  0
LINE
  5
89
330
1E
100
AcDbEntity
  8
HILF
100
AcDbLine
 10
0.0
 20
0.0
 30
0.0
 11
-0.0000000000001137
 21
594.0
 31
0.0
  0
LINE
  5
8A
330
1E
100
AcDbEntity
  8
HILF
100
AcDbLine
 10
419.9999999999999
 20
594.0000000000002
 30
0.0
 11
0.0
 21
594.0
 31
0.0
  0
LINE
  5
8B
330
1E
100
AcDbEntity
  8
HILF
100
AcDbLine
 10
420.0
 20
0.0
 30
0.0
 11
0.0
 21
0.0
 31
0.0
  0
LINE
  5
8C
330
1E
100
AcDbEntity
  8
HILF
100
AcDbLine
 10
31.08767135713856
 20
297.0
 30
0.0
 11
0.0000000000001137
 21
297.0
 31
0.0
  0
LINE
  5
8E
330
1E
100
AcDbEntity
  8
HILF
100
AcDbLine
 10
420.0
 20
-0.0000000000001137
 30
0.0
 11
419.9999999999999
 21
594.0
 31
0.0
  0
TEXT
  5
8F
330
1E
100
AcDbEntity
  8
VOLL
100
AcDbText
 10
78.07675471698113
 20
31.02594776470585
 30
0.0
 40
1.8
  1

  7
GREEKS
100
AcDbText
  0
TEXT
  5
90
330
1E
100
AcDbEntity
  8
TEXT
100
AcDbText
 10
41.85509950977674
 20
111.6719999999999
 30
0.0
 40
5.0
  1
Erstellt mit AUTOCAD 2004
 41
0.8
  7
GREEKS
100
AcDbText
  0
TEXT
  5
91
330
1E
100
AcDbEntity
  8
TEXT
100
AcDbText
 10
204.4216048581257
 20
63.0896391972351
 30
0.0
 40
4.0
  1
Koeh
 41
0.8
  7
GREEKS
 72
     1
 11
209.6787477152686
 21
63.0896391972351
 31
0.0
100
AcDbText
  0
TEXT
  5
92
330
1E
100
AcDbEntity
  8
TEXT
 62
     1
100
AcDbText
 10
347.3097540684081
 20
88.14901428913959
 30
0.0
 40
7.0
  1
58034125W
 41
0.8
  7
GREEKS
 72
     1
 11
370.7764207350748
 21
88.14901428913959
 31
0.0
100
AcDbText
  0
TEXT
  5
93
330
1E
100
AcDbEntity
  8
TEXT
 62
     1
100
AcDbText
 10
160.5006306481887
 20
88.14901428913959
 30
0.0
 40
7.0
  1
1:2
 41
0.8
  7
GREEKS
100
AcDbText
  0
TEXT
  5
95
330
1E
100
AcDbEntity
  8
TEXT
 62
     1
100
AcDbText
 10
236.8935731057402
 20
87.41748789253779
 30
0.0
 40
7.0
  1
Verbundrohr DN125
 41
0.8
  7
GREEKS
100
AcDbText
  0
TEXT
  5
98
330
1E
100
AcDbEntity
  8
TEXT
100
AcDbText
 10
235.1296391125315
 20
51.64011943042158
 30
0.0
 40
5.0
  1
EDV-Art.Nr. 58034.125X
 41
0.8
  7
GREEKS
100
AcDbText
  0
TEXT
  5
99
330
1E
100
AcDbEntity
  8
TEXT
100
AcDbText
 10
234.9837501577827
 20
42.62974153022632
 30
0.0
 40
4.0
  1
58034125W.DWG
 41
0.8
  7
GREEKS
100
AcDbText
  0
TEXT
  5
9A
330
1E
100
AcDbEntity
  8
TEXT
100
AcDbText
 10
192.626132208084
 20
90.76363841023022
 30
0.0
 40
4.0
  1
DIN EN1123-2
 41
0.8
  7
GREEKS
 72
     1
 11
209.6166083985602
 21
90.76363841023022
 31
0.0
100
AcDbText
  0
INSERT
  5
9B
330
1E
100
AcDbEntity
  8
STEMPEL
100
AcDbBlockReference
  2
LOGO
 10
150.9955485457794
 20
45.02105276448322
 30
0.0
 41
2.0
 42
2.0
 43
2.0
  0
TEXT
  5
2C0
330
1E
100
AcDbEntity
  8
BEM
100
AcDbText
 10
417.3022923857165
 20
10.16790107998861
 30
0.0
 40
4.0
  1
Diese Zeichnung ist urheberrechtlich geschützt und bleibt unser Eigentum. Sie darf weder ganz noch teilweise verfielfältigt und nicht an Dritte weitergegeben werden.
 50
90.0
 41
0.8
  7
GREEKS
100
AcDbText
  0
TEXT
  5
77A
330
1E
100
AcDbEntity
  8
TEXT
100
AcDbText
 10
235.1296391125315
 20
71.64011943042154
 30
0.0
 40
5.0
  1
Bogen 15°
 41
0.8
  7
GREEKS
100
AcDbText
  0
TEXT
  5
78C
330
1E
100
AcDbEntity
  8
TEXT
 62
     1
100
AcDbText
 10
255.030129115258
 20
129.7422179729062
 30
0.0
 40
7.0
  1
und innenbeschichtet
 41
0.8
  7
GREEKS
100
AcDbText
  0
TEXT
  5
78D
330
1E
100
AcDbEntity
  8
TEXT
 62
     1
100
AcDbText
 10
203.5978685380308
 20
117.4850225199828
 30
0.0
 40
7.0
  1
Dämmung: 2 K-PU-Schaum
 41
0.8
  7
GREEKS
100
AcDbText
  0
TEXT
  5
78E
330
1E
100
AcDbEntity
  8
TEXT
 62
     1
100
AcDbText
 10
207.3756002392443
 20
141.011271812132
 30
0.0
 40
7.0
  1
Innenrohr: E195 EN10305 feuerverzinkt
 41
0.8
  7
GREEKS
100
AcDbText
  0
TEXT
  5
78F
330
1E
100
AcDbEntity
  8
TEXT
 62
     1
100
AcDbText
 10
203.6033828683802
 20
152.364339848487
 30
0.0
 40
7.0
  1
Außenrohr: P235 TR1 EN10217-1 feuerverzinkt
 41
0.8
  7
GREEKS
100
AcDbText
  0
TEXT
  5
2A8D
330
1E
100
AcDbEntity
  8
TEXT
 62
     1
100
AcDbText
 10
274.7548514361692
 20
198.1566237481482
 30
0.0
 40
7.0
  1
Rohrende leicht eingezogen
 41
0.8
  7
GREEKS
100
AcDbText
  0
HATCH
  5
31D6
330
1E
100
AcDbEntity
  8
SCHRAFF
100
AcDbHatch
 10
0.0
 20
0.0
 30
0.0
210
0.0
220
0.0
230
1.0
  2
_USER
 70
     0
 71
     0
 91
        2
 92
        7
 72
     0
 73
     1
 93
        6
 10
290.5824769099099
 20
366.0896037921095
 10
288.0824769099099
 20
366.4187350360779
 10
288.0824769099099
 20
279.6931895337853
 10
286.7701469570211
 20
264.6931895337857
 10
289.2796965508795
 20
264.6931895337857
 10
290.5824769099099
 20
279.5840371765132
 97
        0
 92
        7
 72
     0
 73
     1
 93
        8
 10
160.0824769099099
 20
383.1176741622455
 10
160.1219676660494
 20
383.2650556705871
 10
157.6219676660494
 20
383.5941869145555
 10
157.5824769099099
 20
383.4468054062142
 10
157.5824769099099
 20
279.5840371765131
 10
158.8852572689404
 20
264.6931895337857
 10
161.3948068627991
 20
264.6931895337858
 10
160.08247690991
 20
279.6931895337857
 97
        0
 75
     0
 76
     0
 52
45.0
 41
2.0
 77
     0
 78
     1
 53
45.0
 43
4.011624873507457
 44
44.35398963569173
 45
-1.414213562373094
 46
1.414213562373095
 79
     0
 47
0.2824404873109162
 98
        2
 10
288.8611889892891
 20
331.3271754311838
 10
159.3765158479035
 20
352.7926526824172
  0
HATCH
  5
31D7
330
1E
100
AcDbEntity
  8
SCHRAFF
100
AcDbHatch
 10
0.0
 20
0.0
 30
0.0
210
0.0
220
0.0
230
1.0
  2
_USER
 70
     0
 71
     1
 91
        2
 92
        7
 72
     1
 73
     1
 93
       21
 10
178.5537773373643
 20
488.758687238358
 42
-0.1095178116832401
 10
184.0505153745418
 20
499.3178227644182
 42
0.0
 10
185.4550720706762
 20
500.991708253039
 42
0.0
 10
182.7906190004688
 20
501.7056463014717
 42
0.0
 10
182.1354042667443
 20
500.9247917886348
 42
0.109517811683246
 10
176.1389627716414
 20
489.4057348511138
 42
0.0
 10
171.1938049666837
 20
470.950154671565
 42
0.0
 10
171.1940597202583
 20
470.9500864105501
 42
0.1095494205537629
 10
170.6282579734281
 20
457.9724927053723
 42
-0.1095494205537614
 10
170.2887739408094
 20
450.1858680273727
 42
0.0
 10
166.7866208227708
 20
437.1156546549666
 42
0.1528962216020399
 10
167.2344482349589
 20
426.3679229722728
 42
-0.1528962216020344
 10
167.4832412417302
 20
420.3969609263321
 42
0.0
 10
157.6219676660492
 20
383.5941869145554
 42
0.0
 10
160.1219676660493
 20
383.2650556705869
 42
0.0
 10
169.8980558074531
 20
419.7499133135758
 42
0.1528962216020324
 10
169.5870645489888
 20
427.2136158710017
 42
-0.1528962216020405
 10
169.2014353884935
 20
436.4686070422102
 42
0.0
 10
172.7035885065321
 20
449.5388204146157
 42
0.1085781327860663
 10
173.1037516826285
 20
458.3293828051993
 42
-0.1102736034486025
 10
173.6086195324062
 20
470.3031070588086
 42
0.0
 97
       21
330
31F9
330
31EE
330
31DF
330
31FA
330
31F8
330
31EF
330
31F7
330
31F6
330
31F3
330
31F1
330
31E6
330
31EC
330
31E8
330
31D8
330
31E9
330
31ED
330
31E7
330
31F4
330
31F2
330
31F5
330
31F0
 92
        7
 72
     1
 73
     1
 93
       21
 10
323.5261461692742
 20
463.0392566786149
 42
0.0
 10
323.3491408213533
 20
464.0431038902536
 42
0.0
 10
320.684687751146
 20
464.7570419386864
 42
0.0
 10
321.0641267867434
 20
462.6051362344477
 42
-0.1095178116832367
 10
320.5448738018574
 20
450.7122876082883
 42
0.0
 10
315.5997159968997
 20
432.2567074287384
 42
-0.1102736034487809
 10
310.0500822535438
 20
421.6347241222994
 42
0.1085781327858243
 10
306.0013525344235
 20
413.8217921904685
 42
0.0
 10
302.4991994163846
 20
400.7515788180627
 42
-0.152896221602039
 10
297.5377391813513
 20
392.9293359322432
 42
0.1528962216020357
 10
293.5365615724538
 20
386.6210755404533
 42
0.0
 10
288.1219676660496
 20
366.4135359794006
 42
0.0
 10
290.6219676660496
 20
366.084404735432
 42
0.0
 10
295.9513761381763
 20
385.974027927697
 42
-0.1528962216020461
 10
299.1523182252947
 20
391.0206362411291
 42
0.1528962216020364
 10
304.9140139821075
 20
400.1045312053064
 42
0.0
 10
308.416167100146
 20
413.174744577712
 42
-0.1095494205537218
 10
312.0154776427167
 20
420.0879013749019
 42
0.1095494205537915
 10
318.0142758090468
 20
431.6097280769968
 42
0.0
 10
318.014530562622
 20
431.6096598159822
 42
0.0
 10
322.95968836758
 20
450.0652399955312
 42
0.1095178116832421
 97
       21
330
321D
330
31DF
330
321E
330
321B
330
3209
330
320C
330
3218
330
3217
330
3214
330
320D
330
3211
330
31D8
330
3212
330
320E
330
3215
330
3216
330
3219
330
320B
330
321A
330
320A
330
321C
 75
     0
 76
     0
 52
120.0
 41
2.0
 77
     0
 78
     1
 53
119.9999999999999
 43
5.085723910682929
 44
48.36258181479133
 45
-1.732050807568877
 46
-0.9999999999999998
 79
     0
 47
0.4261181738831369
 98
        2
 10
175.1028022311182
 20
478.9707117045147
 10
321.7868521407029
 20
454.6819748258067
  0
LINE
  5
31D8
102
{ACAD_REACTORS
330
31D7
102
}
330
1E
100
AcDbEntity
  8
STEMPEL
  6
Continuous
100
AcDbLine
 10
157.5824769099099
 20
383.5993859712328
 30
0.0
 11
290.5824769099099
 21
366.0896037921095
 31
0.0
  0
DIMENSION
  5
31D9
330
1E
100
AcDbEntity
  8
BEM
100
AcDbDimension
  2
*D1
 10
110.5291076969967
 20
374.6919143166514
 30
0.0
 11
104.0291076969966
 21
318.6925519252186
 31
0.0
 70
    32
 71
     5
 42
111.9987247828656
  3
Standard
100
AcDbAlignedDimension
 13
158.8852572689404
 23
262.6931895337857
 33
0.0
 14
224.0824769099099
 24
374.6919143166514
 34
0.0
 50
90.0
100
AcDbRotatedDimension
1001
ACAD
1000
DSTYLE
1002
{
1070
    40
1040
2.0
1070
    41
1040
3.5
1070
    42
1040
1.0
1070
    43
1040
7.0
1070
    44
1040
1.0
1070
    47
1040
1.199999999999999
1070
    48
1040
1.199999999999999
1070
    73
1070
     0
1070
    74
1070
     0
1070
    77
1070
     1
1070
    78
1070
     8
1070
    79
1070
     2
1070
   140
1040
3.5
1070
   141
1040
1.5
1070
   146
1040
0.5142857142857144
1070
   147
1040
1.5
1070
   172
1070
     1
1070
   178
1070
     1
1070
   179
1070
     2
1070
   271
1070
     2
1070
   272
1070
     2
1070
   284
1070
     8
1070
   285
1070
     8
1070
   286
1070
     8
1002
}
  0
DIMENSION
  5
31DA
330
1E
100
AcDbEntity
  8
BEM
100
AcDbDimension
  2
*D2
 10
122.0936007174441
 20
402.0197513293827
 30
0.0
 11
130.3087843470668
 21
457.7933055121538
 31
0.0
 70
    32
 71
     5
 42
111.9987247828639
  3
Standard
100
AcDbAlignedDimension
 13
171.787221628686
 23
504.65399774124
 33
0.0
 14
224.0824769099099
 24
374.6919143166514
 34
0.0
 50
74.99999999999878
100
AcDbRotatedDimension
1001
ACAD
1000
DSTYLE
1002
{
1070
    40
1040
2.0
1070
    41
1040
3.5
1070
    42
1040
1.0
1070
    43
1040
7.0
1070
    44
1040
1.0
1070
    47
1040
1.199999999999999
1070
    48
1040
1.199999999999999
1070
    73
1070
     0
1070
    74
1070
     0
1070
    77
1070
     1
1070
    78
1070
     8
1070
    79
1070
     2
1070
   140
1040
3.5
1070
   141
1040
1.5
1070
   146
1040
0.5142857142857144
1070
   147
1040
1.5
1070
   172
1070
     1
1070
   178
1070
     1
1070
   179
1070
     2
1070
   271
1070
     2
1070
   272
1070
     2
1070
   284
1070
     8
1070
   285
1070
     8
1070
   286
1070
     8
1002
}
  0
DIMENSION
  5
31DB
330
1E
100
AcDbEntity
  8
BEM
100
AcDbDimension
  2
*D3
 10
290.5824769099099
 20
238.0214826627666
 30
0.0
 11
224.0824769099099
 21
244.5214826627666
 31
0.0
 70
    32
  1
%%c<>
 71
     5
 42
133.0
  3
Standard
100
AcDbAlignedDimension
 13
157.5824769099099
 23
277.5840371765133
 33
0.0
 14
290.5824769099099
 24
277.5840371765133
 34
0.0
100
AcDbRotatedDimension
1001
ACAD
1000
DSTYLE
1002
{
1070
    40
1040
2.0
1070
    41
1040
3.5
1070
    42
1040
1.0
1070
    43
1040
7.0
1070
    44
1040
1.0
1070
    47
1040
1.199999999999999
1070
    48
1040
1.199999999999999
1070
    73
1070
     0
1070
    74
1070
     0
1070
    77
1070
     1
1070
    78
1070
     8
1070
    79
1070
     2
1070
   140
1040
3.5
1070
   141
1040
1.5
1070
   146
1040
0.5142857142857144
1070
   147
1040
1.5
1070
   172
1070
     1
1070
   178
1070
     1
1070
   179
1070
     2
1070
   271
1070
     2
1070
   272
1070
     2
1070
   284
1070
     8
1070
   285
1070
     8
1070
   286
1070
     8
1002
}
  0
LINE
  5
31DC
330
1E
100
AcDbEntity
  8
HILF
  6
Continuous
100
AcDbLine
 10
305.1993849528976
 20
418.7384266677891
 30
0.0
 11
175.856430043805
 21
453.3957669823352
 31
0.0
  0
LINE
  5
31DD
330
1E
100
AcDbEntity
  8
HILF
  6
Continuous
100
AcDbLine
 10
298.7313603258701
 20
398.1700856647595
 30
0.0
 11
171.1737331816005
 21
432.3490488464962
 31
0.0
  0
LINE
  5
31DE
330
1E
100
AcDbEntity
  8
HILF
  6
Continuous
100
AcDbLine
 10
291.9714463816174
 20
389.6286373429252
 30
0.0
 11
172.7572662238021
 21
421.5719806425496
 31
0.0
  0
LINE
  5
31DF
102
{ACAD_REACTORS
330
31D7
330
33EA
330
3444
102
}
330
1E
100
AcDbEntity
  8
STEMPEL
  6
Continuous
100
AcDbLine
 10
334.3525381931364
 20
461.0947524504857
 30
0.0
 11
171.7872216286858
 21
504.6539977412396
 31
0.0
  0
LINE
  5
31E0
330
1E
100
AcDbEntity
  8
STEMPEL
  6
Continuous
100
AcDbLine
 10
158.8852572689404
 20
262.6931895337857
 30
0.0
 11
289.2796965508795
 21
262.6931895337857
 31
0.0
  0
LINE
  5
31E1
330
1E
100
AcDbEntity
  8
HILF
  6
Continuous
100
AcDbLine
 10
162.5824769099099
 20
277.6931895337858
 30
0.0
 11
285.5824769099099
 21
277.6931895337858
 31
0.0
  0
LINE
  5
31E2
330
1E
100
AcDbEntity
  8
STEMPEL
  6
Continuous
100
AcDbLine
 10
160.0824769099099
 20
383.1176741622455
 30
0.0
 11
160.08247690991
 21
277.6931895337858
 31
0.0
  0
LINE
  5
31E3
102
{ACAD_REACTORS
330
3416
102
}
330
1E
100
AcDbEntity
  8
STEMPEL
  6
Continuous
100
AcDbLine
 10
157.5824769099099
 20
383.4468054062142
 30
0.0
 11
157.5824769099099
 21
277.5840371765133
 31
0.0
  0
LINE
  5
31E4
330
1E
100
AcDbEntity
  8
STEMPEL
100
AcDbLine
 10
157.5824769099099
 20
277.5840371765133
 30
0.0
 11
158.8852572689404
 21
262.6931895337857
 31
0.0
  0
LINE
  5
31E5
330
1E
100
AcDbEntity
  8
STEMPEL
100
AcDbLine
 10
160.08247690991
 20
277.6931895337858
 30
0.0
 11
161.394806862799
 21
262.6931895337858
 31
0.0
  0
ARC
  5
31E6
102
{ACAD_REACTORS
330
31D7
330
3416
102
}
330
1E
100
AcDbEntity
  8
STEMPEL
  6
Continuous
100
AcDbCircle
 10
184.1732856959738
 20
432.4569118431212
 30
0.0
 40
18.0
100
AcDbArc
 50
165.0000000000008
 51
199.7719440319485
  0
ARC
  5
31E7
102
{ACAD_REACTORS
330
31D7
102
}
330
1E
100
AcDbEntity
  8
STEMPEL
  6
Continuous
100
AcDbCircle
 10
184.1732856959738
 20
432.4569118431212
 30
0.0
 40
15.5
100
AcDbArc
 50
165.0000000000008
 51
199.7719440319485
  0
LINE
  5
31E8
102
{ACAD_REACTORS
330
31D7
330
3416
102
}
330
1E
100
AcDbEntity
  8
STEMPEL
  6
Continuous
100
AcDbLine
 10
157.5824769099099
 20
383.4468054062142
 30
0.0
 11
167.4832412417302
 21
420.3969609263321
 31
0.0
  0
LINE
  5
31E9
102
{ACAD_REACTORS
330
31D7
102
}
330
1E
100
AcDbEntity
  8
STEMPEL
  6
Continuous
100
AcDbLine
 10
160.0824769099099
 20
383.1176741622455
 30
0.0
 11
169.8980558074531
 21
419.7499133135758
 31
0.0
  0
ARC
  5
31EA
102
{ACAD_REACTORS
330
3416
102
}
330
1E
100
AcDbEntity
  8
SCHRAFF
100
AcDbCircle
 10
159.0780031471057
 20
383.3951674797819
 30
0.0
 40
3.193495143396843
100
AcDbArc
 50
102.1635405416252
 51
242.0757446314297
  0
HATCH
  5
31EB
330
1E
100
AcDbEntity
  8
SCHRAFF
100
AcDbHatch
 10
0.0
 20
0.0
 30
0.0
210
0.0
220
0.0
230
1.0
  2
_USER
 70
     0
 71
     0
 91
        1
 92
        7
 72
     1
 73
     1
 93
        3
 10
157.5824769099099
 20
380.5734990894924
 42
0.0
 10
157.58247690991
 20
383.4468054062142
 42
0.0
 10
158.4051248193697
 20
386.516969201058
 42
0.6996367878865319
 97
        0
 75
     0
 76
     0
 52
0.0000000000000032
 41
0.1
 77
     0
 78
     1
 53
0.0000000000000016
 43
4.011624873507457
 44
44.35398963569173
 45
0.0
 46
0.1
 79
     0
 47
0.0771092967380028
 98
        1
 10
156.6005136266784
 20
382.6733142509354
  0
ARC
  5
31EC
102
{ACAD_REACTORS
330
31D7
330
3416
102
}
330
1E
100
AcDbEntity
  8
STEMPEL
  6
Continuous
100
AcDbCircle
 10
157.8239829788394
 20
422.9851513773573
 30
0.0
 40
10.0
100
AcDbArc
 50
345.0000000000009
 51
19.77194403194855
  0
ARC
  5
31ED
102
{ACAD_REACTORS
330
31D7
102
}
330
1E
100
AcDbEntity
  8
STEMPEL
  6
Continuous
100
AcDbCircle
 10
157.8239829788394
 20
422.9851513773573
 30
0.0
 40
12.5
100
AcDbArc
 50
345.0000000000009
 51
19.77194403194855
  0
LINE
  5
31EE
102
{ACAD_REACTORS
330
31D7
102
}
330
1E
100
AcDbEntity
  8
STEMPEL
  6
Continuous
100
AcDbLine
 10
185.4550720706763
 20
500.9917082530391
 30
0.0
 11
184.0505153745418
 21
499.3178227644182
 31
0.0
  0
LINE
  5
31EF
102
{ACAD_REACTORS
330
31D7
330
3416
330
3444
102
}
330
1E
100
AcDbEntity
  8
STEMPEL
  6
Continuous
100
AcDbLine
 10
176.1389627716415
 20
489.405734851114
 30
0.0
 11
171.1938049666837
 21
470.950154671565
 31
0.0
  0
LINE
  5
31F0
102
{ACAD_REACTORS
330
31D7
102
}
330
1E
100
AcDbEntity
  8
STEMPEL
  6
Continuous
100
AcDbLine
 10
178.5537773373643
 20
488.758687238358
 30
0.0
 11
173.6086195324062
 21
470.3031070588086
 31
0.0
  0
LINE
  5
31F1
102
{ACAD_REACTORS
330
31D7
330
3416
102
}
330
1E
100
AcDbEntity
  8
STEMPEL
  6
Continuous
100
AcDbLine
 10
170.2887739408093
 20
450.1858680273722
 30
0.0
 11
166.7866208227708
 21
437.1156546549666
 31
0.0
  0
ARC
  5
31F2
102
{ACAD_REACTORS
330
31D7
102
}
330
1E
100
AcDbEntity
  8
STEMPEL
  6
Continuous
100
AcDbCircle
 10
152.9021090676057
 20
454.8446108392175
 30
0.0
 40
20.5
100
AcDbArc
 50
345.000000000004
 51
10.2271443659151
  0
ARC
  5
31F3
102
{ACAD_REACTORS
330
31D7
330
3416
102
}
330
1E
100
AcDbEntity
  8
STEMPEL
  6
Continuous
100
AcDbCircle
 10
152.9021090676057
 20
454.8446108392175
 30
0.0
 40
18.0
100
AcDbArc
 50
345.000000000004
 51
10.00715833655259
  0
LINE
  5
31F4
102
{ACAD_REACTORS
330
31D7
102
}
330
1E
100
AcDbEntity
  8
STEMPEL
  6
Continuous
100
AcDbLine
 10
172.7035885065321
 20
449.5388204146157
 30
0.0
 11
169.2014353884935
 21
436.4686070422102
 31
0.0
  0
ARC
  5
31F5
102
{ACAD_REACTORS
330
31D7
102
}
330
1E
100
AcDbEntity
  8
STEMPEL
  6
Continuous
100
AcDbCircle
 10
200.1715797553558
 20
463.1855833184896
 30
0.0
 40
27.5
100
AcDbArc
 50
165.000000000004
 51
190.1711477430638
  0
ARC
  5
31F6
102
{ACAD_REACTORS
330
31D7
330
3416
102
}
330
1E
100
AcDbEntity
  8
STEMPEL
  6
Continuous
100
AcDbCircle
 10
200.1715797553558
 20
463.1855833184896
 30
0.0
 40
29.99973625969209
100
AcDbArc
 50
165.000000000004
 51
190.0071583365526
  0
LINE
  5
31F7
102
{ACAD_REACTORS
330
31D7
330
3416
102
}
330
1E
100
AcDbEntity
  8
STEMPEL
  6
Continuous
100
AcDbLine
 10
171.1940597202583
 20
470.9500864105501
 30
0.0
 11
171.1938049666837
 21
470.950154671565
 31
0.0
  0
ARC
  5
31F8
102
{ACAD_REACTORS
330
31D7
330
3444
102
}
330
1E
100
AcDbEntity
  8
STEMPEL
  6
Continuous
100
AcDbCircle
 10
205.1167375603136
 20
481.6411634980388
 30
0.0
 40
30.0
100
AcDbArc
 50
140.0000000000057
 51
165.000000000004
  0
ARC
  5
31F9
102
{ACAD_REACTORS
330
31D7
102
}
330
1E
100
AcDbEntity
  8
STEMPEL
  6
Continuous
100
AcDbCircle
 10
205.1167375603136
 20
481.6411634980388
 30
0.0
 40
27.5
100
AcDbArc
 50
140.0000000000057
 51
165.000000000004
  0
LINE
  5
31FA
102
{ACAD_REACTORS
330
31D7
330
3444
102
}
330
1E
100
AcDbEntity
  8
STEMPEL
  6
Continuous
100
AcDbLine
 10
182.7906190004688
 20
501.7056463014717
 30
0.0
 11
182.1354042667443
 21
500.9247917886348
 31
0.0
  0
DIMENSION
  5
31FB
330
1E
100
AcDbEntity
  8
BEM
100
AcDbDimension
  2
*D4
 10
224.0824769099099
 20
257.6931895337858
 30
0.0
 11
242.8692794523553
 21
517.3918469933867
 31
0.0
 70
    34
 71
     5
 42
0.2617993877991487
  3
Standard
100
AcDb2LineAngularDimension
 13
224.0824769099099
 23
374.6919143166514
 33
0.0
 14
254.3639751364237
 24
487.7040042273081
 34
0.0
 15
224.0824769099099
 25
374.6919143166514
 35
0.0
 16
247.9471690647484
 26
510.0353090651601
 36
0.0
1001
ACAD
1000
DSTYLE
1002
{
1070
    40
1040
2.0
1070
    41
1040
3.5
1070
    42
1040
1.0
1070
    43
1040
7.0
1070
    44
1040
1.0
1070
    47
1040
1.199999999999999
1070
    48
1040
1.199999999999999
1070
    73
1070
     0
1070
    74
1070
     0
1070
    77
1070
     1
1070
    78
1070
     8
1070
    79
1070
     2
1070
   140
1040
3.5
1070
   141
1040
1.5
1070
   146
1040
0.5142857142857144
1070
   147
1040
1.5
1070
   172
1070
     1
1070
   178
1070
     1
1070
   179
1070
     2
1070
   271
1070
     2
1070
   272
1070
     2
1070
   284
1070
     8
1070
   285
1070
     8
1070
   286
1070
     8
1002
}
  0
LINE
  5
31FC
102
{ACAD_REACTORS
330
320F
330
3416
102
}
330
1E
100
AcDbEntity
  8
STEMPEL
  6
Continuous
100
AcDbLine
 10
290.5824769099099
 20
366.0896037921095
 30
0.0
 11
290.5824769099099
 21
277.5840371765133
 31
0.0
  0
LINE
  5
31FD
330
1E
100
AcDbEntity
  8
STEMPEL
  6
Continuous
100
AcDbLine
 10
288.0824769099099
 20
366.418735036078
 30
0.0
 11
288.0824769099099
 21
277.6931895337858
 31
0.0
  0
LINE
  5
31FE
330
1E
100
AcDbEntity
  8
MITTEL
100
AcDbLine
 10
224.0824769099099
 20
374.6919143166514
 30
0.0
 11
224.0824769099099
 21
257.6931895337858
 31
0.0
  0
POINT
  5
3200
330
1E
100
AcDbEntity
  8
Defpoints
  6
ByBlock
 62
     0
100
AcDbPoint
 10
224.0824769099099
 20
257.6931895337858
 30
0.0
  0
POINT
  5
3201
330
1E
100
AcDbEntity
  8
Defpoints
  6
ByBlock
 62
     0
100
AcDbPoint
 10
224.0824769099099
 20
257.6931895337858
 30
0.0
  0
POINT
  5
3202
330
1E
100
AcDbEntity
  8
Defpoints
  6
ByBlock
 62
     0
100
AcDbPoint
 10
224.0824769099099
 20
257.6931895337858
 30
0.0
  0
POINT
  5
3203
330
1E
100
AcDbEntity
  8
Defpoints
  6
ByBlock
 62
     0
100
AcDbPoint
 10
224.0824769099099
 20
257.6931895337858
 30
0.0
  0
POINT
  5
3204
330
1E
100
AcDbEntity
  8
Defpoints
  6
ByBlock
 62
     0
100
AcDbPoint
 10
224.0824769099099
 20
257.6931895337858
 30
0.0
  0
LINE
  5
3205
330
1E
100
AcDbEntity
  8
STEMPEL
100
AcDbLine
 10
290.5824769099099
 20
277.5840371765133
 30
0.0
 11
289.2796965508795
 21
262.6931895337857
 31
0.0
  0
LINE
  5
3206
330
1E
100
AcDbEntity
  8
STEMPEL
100
AcDbLine
 10
288.0824769099099
 20
277.6931895337858
 30
0.0
 11
286.7701469570211
 21
262.6931895337858
 31
0.0
  0
LINE
  5
3207
330
1E
100
AcDbEntity
  8
MITTEL
100
AcDbLine
 10
224.0824769099099
 20
374.6919143166514
 30
0.0
 11
254.3639751364237
 21
487.7040042273081
 31
0.0
  0
TEXT
  5
3208
330
1E
100
AcDbEntity
  8
TEXT
 62
     1
100
AcDbText
 10
270.8490117262481
 20
437.1119105982187
 30
0.0
 40
7.0
  1
DN125
 50
74.99999999999883
 41
0.8
  7
GREEKS
100
AcDbText
  0
LINE
  5
3209
102
{ACAD_REACTORS
330
31D7
102
}
330
1E
100
AcDbEntity
  8
STEMPEL
  6
Continuous
100
AcDbLine
 10
320.5448738018572
 20
450.7122876082875
 30
0.0
 11
315.5997159968997
 21
432.2567074287384
 31
0.0
  0
LINE
  5
320A
102
{ACAD_REACTORS
330
31D7
330
3416
330
3444
102
}
330
1E
100
AcDbEntity
  8
STEMPEL
  6
Continuous
100
AcDbLine
 10
322.95968836758
 20
450.0652399955312
 30
0.0
 11
318.0145305626221
 21
431.6096598159821
 31
0.0
  0
ARC
  5
320B
102
{ACAD_REACTORS
330
31D7
330
3416
102
}
330
1E
100
AcDbEntity
  8
STEMPEL
  6
Continuous
100
AcDbCircle
 10
289.0367557739495
 20
439.3742311690576
 30
0.0
 40
29.99973625969209
100
AcDbArc
 50
319.9928416634573
 51
345.000000000004
  0
ARC
  5
320C
102
{ACAD_REACTORS
330
31D7
102
}
330
1E
100
AcDbEntity
  8
STEMPEL
  6
Continuous
100
AcDbCircle
 10
289.0367557739495
 20
439.3742311690576
 30
0.0
 40
27.5
100
AcDbArc
 50
319.8288522569459
 51
345.000000000004
  0
ARC
  5
320D
102
{ACAD_REACTORS
330
31D7
102
}
330
1E
100
AcDbEntity
  8
STEMPEL
  6
Continuous
100
AcDbCircle
 10
305.610634401067
 20
383.385837476672
 30
0.0
 40
12.5
100
AcDbArc
 50
130.2280559680511
 51
165.0000000000008
  0
ARC
  5
320E
102
{ACAD_REACTORS
330
31D7
330
3416
102
}
330
1E
100
AcDbEntity
  8
STEMPEL
  6
Continuous
100
AcDbCircle
 10
305.610634401067
 20
383.385837476672
 30
0.0
 40
10.0
100
AcDbArc
 50
130.2280559680511
 51
165.000000000004
  0
HATCH
  5
320F
330
1E
100
AcDbEntity
  8
SCHRAFF
100
AcDbHatch
 10
0.0
 20
0.0
 30
0.0
210
0.0
220
0.0
230
1.0
  2
_USER
 70
     0
 71
     1
 91
        1
 92
        7
 72
     1
 73
     1
 93
        3
 10
291.40512481937
 20
369.0071870219345
 42
0.0
 10
290.5824769099099
 20
365.9370232270892
 42
0.0
 10
290.5824769099099
 20
363.0637169103689
 42
0.5011695069622899
 97
        3
330
3212
330
31FC
330
3210
 75
     0
 76
     0
 52
0.0000000000000032
 41
0.1
 77
     0
 78
     1
 53
0.0000000000000016
 43
4.011624873507457
 44
44.35398963569173
 45
0.0
 46
0.1
 79
     0
 47
0.1048499066282471
 98
        1
 10
291.5995930546319
 20
366.1331469597148
  0
ARC
  5
3210
102
{ACAD_REACTORS
330
320F
330
3416
102
}
330
1E
100
AcDbEntity
  8
SCHRAFF
100
AcDbCircle
 10
288.7736720145158
 20
366.3427445617235
 30
0.0
 40
3.744836109624751
100
AcDbArc
 50
298.8823778935837
 51
45.35690727946752
  0
LINE
  5
3211
102
{ACAD_REACTORS
330
31D7
102
}
330
1E
100
AcDbEntity
  8
STEMPEL
  6
Continuous
100
AcDbLine
 10
288.1219676660496
 20
366.4135359794006
 30
0.0
 11
293.5365615724538
 21
386.6210755404533
 31
0.0
  0
LINE
  5
3212
102
{ACAD_REACTORS
330
320F
330
31D7
330
3416
102
}
330
1E
100
AcDbEntity
  8
STEMPEL
  6
Continuous
100
AcDbLine
 10
290.5824769099099
 20
365.9370232270893
 30
0.0
 11
295.9513761381763
 21
385.974027927697
 31
0.0
  0
ARC
  5
3213
330
1E
100
AcDbEntity
  8
STEMPEL
  6
Continuous
100
AcDbCircle
 10
305.610634401067
 20
383.385837476672
 30
0.0
 40
12.5
100
AcDbArc
 50
165.0000000000008
 51
165.000000000004
  0
ARC
  5
3214
102
{ACAD_REACTORS
330
31D7
102
}
330
1E
100
AcDbEntity
  8
STEMPEL
  6
Continuous
100
AcDbCircle
 10
287.5273491089041
 20
404.7632740171518
 30
0.0
 40
15.5
100
AcDbArc
 50
310.2280559680512
 51
345.000000000004
  0
ARC
  5
3215
102
{ACAD_REACTORS
330
31D7
330
3416
102
}
330
1E
100
AcDbEntity
  8
STEMPEL
  6
Continuous
100
AcDbCircle
 10
287.5273491089041
 20
404.7632740171518
 30
0.0
 40
18.0
100
AcDbArc
 50
310.2280559680522
 51
345.000000000004
  0
LINE
  5
3216
102
{ACAD_REACTORS
330
31D7
330
3416
102
}
330
1E
100
AcDbEntity
  8
STEMPEL
  6
Continuous
100
AcDbLine
 10
308.416167100146
 20
413.174744577712
 30
0.0
 11
304.9140139821075
 21
400.1045312053064
 31
0.0
  0
LINE
  5
3217
102
{ACAD_REACTORS
330
31D7
102
}
330
1E
100
AcDbEntity
  8
STEMPEL
  6
Continuous
100
AcDbLine
 10
306.0013525344234
 20
413.8217921904683
 30
0.0
 11
302.4991994163846
 21
400.7515788180627
 31
0.0
  0
ARC
  5
3218
102
{ACAD_REACTORS
330
31D7
102
}
330
1E
100
AcDbEntity
  8
STEMPEL
  6
Continuous
100
AcDbCircle
 10
325.8028319733492
 20
408.5160017658665
 30
0.0
 40
20.5
100
AcDbArc
 50
139.7728556340949
 51
165.000000000004
  0
ARC
  5
3219
102
{ACAD_REACTORS
330
31D7
330
3416
102
}
330
1E
100
AcDbEntity
  8
STEMPEL
  6
Continuous
100
AcDbCircle
 10
325.8028319733492
 20
408.5160017658665
 30
0.0
 40
18.0
100
AcDbArc
 50
139.9928416634573
 51
165.000000000004
  0
LINE
  5
321A
102
{ACAD_REACTORS
330
31D7
330
3416
102
}
330
1E
100
AcDbEntity
  8
STEMPEL
  6
Continuous
100
AcDbLine
 10
318.0142758090474
 20
431.6097280769966
 30
0.0
 11
318.0145305626221
 21
431.6096598159821
 31
0.0
  0
ARC
  5
321B
102
{ACAD_REACTORS
330
31D7
102
}
330
1E
100
AcDbEntity
  8
STEMPEL
  6
Continuous
100
AcDbCircle
 10
293.9819135789077
 20
457.8298113486068
 30
0.0
 40
27.5
100
AcDbArc
 50
345.000000000004
 51
9.999999999997003
  0
ARC
  5
321C
102
{ACAD_REACTORS
330
31D7
330
3444
102
}
330
1E
100
AcDbEntity
  8
STEMPEL
  6
Continuous
100
AcDbCircle
 10
293.9819135789077
 20
457.8298113486068
 30
0.0
 40
30.0
100
AcDbArc
 50
345.000000000004
 51
9.999999999997003
  0
LINE
  5
321D
102
{ACAD_REACTORS
330
31D7
330
3444
102
}
330
1E
100
AcDbEntity
  8
STEMPEL
  6
Continuous
100
AcDbLine
 10
323.3491408213533
 20
464.0431038902538
 30
0.0
 11
323.5261461692742
 21
463.0392566786149
 31
0.0
  0
LINE
  5
321E
102
{ACAD_REACTORS
330
31D7
102
}
330
1E
100
AcDbEntity
  8
STEMPEL
  6
Continuous
100
AcDbLine
 10
320.684687751146
 20
464.7570419386865
 30
0.0
 11
321.0641267867434
 21
462.6051362344477
 31
0.0
  0
LINE
  5
32A0
102
{ACAD_REACTORS
330
3416
102
}
330
1E
100
AcDbEntity
  8
STEMPEL
100
AcDbLine
 10
142.8258480343598
 20
336.5921026460001
 30
0.0
 11
144.92584803436
 21
338.6921026460001
 31
0.0
  0
LINE
  5
32A2
102
{ACAD_REACTORS
330
3416
102
}
330
1E
100
AcDbEntity
  8
STEMPEL
100
AcDbLine
 10
157.5758480343601
 20
338.6921026460001
 30
0.0
 11
144.92584803436
 21
338.6921026460001
 31
0.0
  0
LINE
  5
32A3
330
1E
100
AcDbEntity
  8
STEMPEL
100
AcDbLine
 10
157.5758480343601
 20
328.6921026460001
 30
0.0
 11
150.2194415738089
 21
328.6921026460001
 31
0.0
  0
LINE
  5
32A4
102
{ACAD_REACTORS
330
33D9
102
}
330
1E
100
AcDbEntity
  8
STEMPEL
100
AcDbLine
 10
142.8258480343598
 20
322.692102646
 30
0.0
 11
139.9258480343595
 21
322.692102646
 31
0.0
  0
LINE
  5
32A5
102
{ACAD_REACTORS
330
3416
102
}
330
1E
100
AcDbEntity
  8
STEMPEL
100
AcDbLine
 10
305.2258480343598
 20
336.6921026460001
 30
0.0
 11
303.2258480343598
 21
338.6921026460001
 31
0.0
  0
LINE
  5
32A7
102
{ACAD_REACTORS
330
3416
102
}
330
1E
100
AcDbEntity
  8
STEMPEL
100
AcDbLine
 10
303.2258480343598
 20
338.6921026460001
 30
0.0
 11
290.5758480343597
 21
338.6921026460001
 31
0.0
  0
LINE
  5
32A8
330
1E
100
AcDbEntity
  8
STEMPEL
100
AcDbLine
 10
297.9322544949109
 20
328.6921026460001
 30
0.0
 11
290.5758480343597
 21
328.6921026460001
 31
0.0
  0
LINE
  5
32A9
102
{ACAD_REACTORS
330
33D9
102
}
330
1E
100
AcDbEntity
  8
STEMPEL
100
AcDbLine
 10
308.2258480343596
 20
322.6921026459999
 30
0.0
 11
305.3258480343599
 21
322.6921026459999
 31
0.0
  0
LINE
  5
32AA
102
{ACAD_REACTORS
330
33D9
102
}
330
1E
100
AcDbEntity
  8
STEMPEL
100
AcDbLine
 10
308.2258480343603
 20
363.5886173443239
 30
0.0
 11
308.2258480343598
 21
320.692102645999
 31
0.0
  0
LINE
  5
32AB
102
{ACAD_REACTORS
330
33D9
330
3416
102
}
330
1E
100
AcDbEntity
  8
STEMPEL
100
AcDbLine
 10
305.3258480343597
 20
363.9704095873264
 30
0.0
 11
305.32584803436
 21
322.6921026459999
 31
0.0
  0
LINE
  5
32AC
102
{ACAD_REACTORS
330
33D9
102
}
330
1E
100
AcDbEntity
  8
STEMPEL
100
AcDbLine
 10
139.9258480343597
 20
385.7457326882818
 30
0.0
 11
139.9258480343597
 21
320.6921026460001
 31
0.0
  0
LINE
  5
32AD
102
{ACAD_REACTORS
330
33D9
330
3416
102
}
330
1E
100
AcDbEntity
  8
STEMPEL
100
AcDbLine
 10
142.8258480343598
 20
385.363940445279
 30
0.0
 11
142.8258480343598
 21
322.692102646
 31
0.0
  0
DIMENSION
  5
32AF
330
1E
100
AcDbEntity
  8
BEM
100
AcDbDimension
  2
*D5
 10
126.6823291418015
 20
262.6931895337858
 30
0.0
 11
120.1823291418015
 21
292.6926460898929
 31
0.0
 70
    32
 71
     5
 42
59.99891311221421
  3
Standard
100
AcDbAlignedDimension
 13
139.9258480343595
 23
322.692102646
 33
0.0
 14
158.2823835730732
 24
262.6931895337857
 34
0.0
 50
90.0
100
AcDbRotatedDimension
1001
ACAD
1000
DSTYLE
1002
{
1070
   279
1070
     1
1070
    40
1040
2.0
1070
    41
1040
3.5
1070
    42
1040
1.0
1070
    43
1040
7.0
1070
    44
1040
1.0
1070
    73
1070
     0
1070
    74
1070
     0
1070
    77
1070
     1
1070
    78
1070
     8
1070
    79
1070
     2
1070
   140
1040
3.5
1070
   141
1040
1.5
1070
   146
1040
0.5142857142857144
1070
   147
1040
1.5
1070
   172
1070
     1
1070
   178
1070
     1
1070
   179
1070
     2
1070
   271
1070
     2
1070
   272
1070
     2
1070
   284
1070
     8
1070
   285
1070
     8
1070
   286
1070
     8
1002
}
  0
LINE
  5
32DA
102
{ACAD_REACTORS
330
3416
330
3444
102
}
330
1E
100
AcDbEntity
  8
STEMPEL
100
AcDbLine
 10
327.4102485752576
 20
446.3905144606578
 30
0.0
 11
322.33913798724
 21
447.7493144474461
 31
0.0
  0
LINE
  5
32DB
102
{ACAD_REACTORS
330
33EA
330
3416
330
3444
102
}
330
1E
100
AcDbEntity
  8
STEMPEL
100
AcDbLine
 10
305.3258480343597
 20
363.9704095873264
 30
0.0
 11
331.5513532968981
 21
461.8453276812829
 31
0.0
  0
LINE
  5
32DC
102
{ACAD_REACTORS
330
33EA
102
}
330
1E
100
AcDbEntity
  8
STEMPEL
100
AcDbLine
 10
308.2258480343603
 20
363.5886173443239
 30
0.0
 11
334.3525381931364
 21
461.0947524504855
 31
0.0
  0
DIMENSION
  5
32DD
330
1E
100
AcDbEntity
  8
BEM
100
AcDbDimension
  2
*D6
 10
344.8070735614785
 20
500.1116096146643
 30
0.0
 11
265.2067390724198
 21
528.1697501309205
 31
0.0
 70
    33
  1
%%c<>
 71
     5
 42
168.3
  3
Standard
100
AcDbAlignedDimension
 13
171.7872216286861
 23
504.65399774124
 33
0.0
 14
334.3525381931363
 24
461.0947524504855
 34
0.0
1001
ACAD
1000
DSTYLE
1002
{
1070
    40
1040
2.0
1070
    41
1040
3.5
1070
    42
1040
1.0
1070
    43
1040
7.0
1070
    44
1040
1.0
1070
    73
1070
     0
1070
    74
1070
     0
1070
    77
1070
     1
1070
    78
1070
     8
1070
    79
1070
     2
1070
   140
1040
3.5
1070
   141
1040
1.5
1070
   146
1040
0.5142857142857144
1070
   147
1040
1.5
1070
   172
1070
     1
1070
   178
1070
     1
1070
   179
1070
     2
1070
   271
1070
     2
1070
   272
1070
     2
1070
   284
1070
     8
1070
   285
1070
     8
1070
   286
1070
     8
1002
}
  0
LINE
  5
32E0
102
{ACAD_REACTORS
330
3416
330
3444
102
}
330
1E
100
AcDbEntity
  8
STEMPEL
100
AcDbLine
 10
175.5184123913016
 20
487.0898093030292
 30
0.0
 11
170.4473018032837
 21
488.4486092898176
 31
0.0
  0
LINE
  5
32E1
102
{ACAD_REACTORS
330
33EA
330
3416
330
3444
102
}
330
1E
100
AcDbEntity
  8
STEMPEL
100
AcDbLine
 10
142.8258480343598
 20
385.363940445279
 30
0.0
 11
174.5884065249241
 21
503.9034225104427
 31
0.0
  0
LINE
  5
32E2
102
{ACAD_REACTORS
330
33EA
102
}
330
1E
100
AcDbEntity
  8
STEMPEL
100
AcDbLine
 10
139.9258480343597
 20
385.7457326882818
 30
0.0
 11
171.787221628686
 21
504.65399774124
 31
0.0
  0
LINE
  5
33C7
102
{ACAD_REACTORS
330
33D9
330
33EA
102
}
330
1E
100
AcDbEntity
  8
STEMPEL
100
AcDbLine
 10
139.9258480343597
 20
385.7457326882818
 30
0.0
 11
142.8258480343597
 21
385.3639404452784
 31
0.0
  0
LINE
  5
33C8
102
{ACAD_REACTORS
330
33D9
330
33EA
102
}
330
1E
100
AcDbEntity
  8
STEMPEL
100
AcDbLine
 10
305.3258480343598
 20
363.9704095873275
 30
0.0
 11
308.2258480343603
 21
363.5886173443239
 31
0.0
  0
HATCH
  5
33D9
330
1E
100
AcDbEntity
  8
SCHRAFF
100
AcDbHatch
 10
0.0
 20
0.0
 30
0.0
210
0.0
220
0.0
230
1.0
  2
_USER
 70
     0
 71
     1
 91
        2
 92
        7
 72
     0
 73
     1
 93
        4
 10
305.32584803436
 20
322.6921026459999
 10
308.2258480343599
 20
322.6921026459999
 10
308.2258480343603
 20
363.5886173443239
 10
305.3258480343597
 20
363.9704095873275
 97
        4
330
33C8
330
32AB
330
32A9
330
32AA
 92
        7
 72
     0
 73
     1
 93
        4
 10
142.8258480343598
 20
385.3639404452784
 10
139.9258480343597
 20
385.7457326882818
 10
139.9258480343597
 20
322.692102646
 10
142.8258480343598
 20
322.692102646
 97
        4
330
33C7
330
32AC
330
32A4
330
32AD
 75
     0
 76
     0
 52
135.0
 41
2.0
 77
     0
 78
     1
 53
135.0
 43
0.0
 44
0.0
 45
-1.414213562373095
 46
-1.414213562373094
 79
     0
 47
0.4355484390273844
 98
        2
 10
306.3649190669807
 20
354.2397683253864
 10
141.6111643773242
 20
361.2085434049181
  0
HATCH
  5
33EA
330
1E
100
AcDbEntity
  8
SCHRAFF
100
AcDbHatch
 10
0.0
 20
0.0
 30
0.0
210
0.0
220
0.0
230
1.0
  2
_USER
 70
     0
 71
     1
 91
        2
 92
        7
 72
     0
 73
     1
 93
        4
 10
334.3525381931364
 20
461.0947524504855
 10
331.5513532968981
 20
461.8453276812829
 10
305.32584803436
 20
363.9704095873274
 10
308.2258480343603
 20
363.588617344324
 97
        4
330
31DF
330
32DB
330
33C8
330
32DC
 92
        7
 72
     0
 73
     1
 93
        4
 10
139.9258480343597
 20
385.7457326882819
 10
142.8258480343597
 20
385.3639404452783
 10
174.588406524924
 20
503.9034225104423
 10
171.7872216286858
 20
504.6539977412397
 97
        4
330
31DF
330
32E2
330
33C7
330
32E1
 75
     0
 76
     0
 52
30.0
 41
2.0
 77
     0
 78
     1
 53
30.0
 43
0.0
 44
0.0
 45
-0.9999999999999998
 46
1.732050807568877
 79
     0
 47
0.4355484390273844
 98
        2
 10
326.414317258455
 20
434.8162299200899
 10
159.0454248455094
 20
454.8514587985119
  0
ARC
  5
33EB
330
1E
100
AcDbEntity
  8
SCHRAFF
100
AcDbCircle
 10
306.4170431389662
 20
363.841758113938
 30
0.0
 40
3.744836109624751
100
AcDbArc
 50
298.8823778935837
 51
45.35690727946752
  0
HATCH
  5
33EC
330
1E
100
AcDbEntity
  8
SCHRAFF
100
AcDbHatch
 10
0.0
 20
0.0
 30
0.0
210
0.0
220
0.0
230
1.0
  2
_USER
 70
     0
 71
     0
 91
        1
 92
        7
 72
     1
 73
     1
 93
        3
 10
309.0484959438204
 20
366.5062005741489
 42
0.0
 10
308.2258480343603
 20
363.4360367793036
 42
0.0
 10
308.2258480343603
 20
360.5627304625834
 42
0.5011695069622899
 97
        0
 75
     0
 76
     0
 52
0.0000000000000032
 41
0.1
 77
     0
 78
     1
 53
0.0000000000000016
 43
21.65499599795783
 44
41.85300318790621
 45
0.0
 46
0.1
 79
     0
 47
0.1048499066282471
 98
        1
 10
309.2429641790823
 20
363.6321605119293
  0
HATCH
  5
33ED
330
1E
100
AcDbEntity
  8
SCHRAFF
100
AcDbHatch
 10
0.0
 20
0.0
 30
0.0
210
0.0
220
0.0
230
1.0
  2
_USER
 70
     0
 71
     0
 91
        1
 92
        7
 72
     1
 73
     1
 93
        3
 10
139.9258480343597
 20
382.7198458065414
 42
0.0
 10
139.9258480343599
 20
385.5931521232632
 42
0.0
 10
140.7484959438195
 20
388.6633159181069
 42
0.6996367878865319
 97
        0
 75
     0
 76
     0
 52
0.0000000000000032
 41
0.1
 77
     0
 78
     1
 53
0.0000000000000016
 43
-13.64500400204269
 44
46.5003363527407
 45
0.0
 46
0.1
 79
     0
 47
0.0771092967380028
 98
        1
 10
138.9438847511283
 20
384.8196609679844
  0
ARC
  5
33EE
330
1E
100
AcDbEntity
  8
SCHRAFF
100
AcDbCircle
 10
141.4213742715556
 20
385.5415141968308
 30
0.0
 40
3.193495143396843
100
AcDbArc
 50
102.1635405416252
 51
242.0757446314297
  0
HATCH
  5
3416
330
1E
100
AcDbEntity
  8
SCHRAFF
100
AcDbHatch
 10
0.0
 20
0.0
 30
0.0
210
0.0
220
0.0
230
1.0
  2
HONEY
 70
     0
 71
     1
 91
        2
 92
        7
 72
     1
 73
     1
 93
       15
 10
291.40512481937
 20
369.0071870219345
 42
-0.5011695069622899
 10
290.5824769099099
 20
363.0637169103689
 42
0.0
 10
290.5824769099099
 20
338.6921026460001
 42
0.0
 10
303.2258480343598
 20
338.6921026460001
 42
0.0
 10
305.3258480343599
 20
336.5921026460001
 42
0.0
 10
305.3258480343598
 20
363.9704095873266
 42
0.0
 10
327.4102485752577
 20
446.3905144606578
 42
0.0
 10
322.3391379872399
 20
447.7493144474461
 42
0.0
 10
318.0145305626221
 20
431.6096598159821
 42
0.0
 10
318.0142758090474
 20
431.6097280769966
 42
-0.1095494205537268
 10
312.0154776427215
 20
420.0879013749079
 42
0.1095494205538239
 10
308.4161671001461
 20
413.1747445777125
 42
0.0
 10
304.9140139821075
 20
400.1045312053064
 42
-0.1528962216020362
 10
299.1523182252946
 20
391.0206362411292
 42
0.1528962216020466
 10
295.9513761381763
 20
385.974027927697
 42
0.0
 97
       15
330
32DA
330
320A
330
321A
330
320B
330
3219
330
3216
330
3215
330
320E
330
3212
330
3210
330
31FC
330
32A7
330
32A5
330
32AB
330
32DB
 92
        7
 72
     1
 73
     1
 93
       15
 10
167.4832412417302
 20
420.3969609263321
 42
0.1528962216020374
 10
167.2344482349588
 20
426.367922972273
 42
-0.1528962216020381
 10
166.7866208227708
 20
437.1156546549666
 42
0.0
 10
170.2887739408093
 20
450.1858680273722
 42
0.1095494205537615
 10
170.6282579734282
 20
457.9724927053717
 42
-0.1095494205537677
 10
171.1940597202584
 20
470.9500864105501
 42
0.0
 10
171.1938049666837
 20
470.950154671565
 42
0.0
 10
175.5184123913016
 20
487.0898093030292
 42
0.0
 10
170.4473018032838
 20
488.4486092898175
 42
0.0
 10
142.8258480343598
 20
385.363940445279
 42
0.0
 10
142.8258480343598
 20
336.5921026460001
 42
0.0
 10
144.92584803436
 20
338.692102646
 42
0.0
 10
157.5824769099099
 20
338.692102646
 42
0.0
 10
157.5824769099099
 20
380.5734990894925
 42
-0.6996367878865114
 10
158.4051248193696
 20
386.516969201058
 42
0.0
 97
       15
330
31EC
330
31E6
330
31F1
330
31F3
330
31F6
330
31F7
330
31EF
330
32E0
330
32E1
330
32AD
330
32A0
330
32A2
330
31E3
330
31EA
330
31E8
 75
     0
 76
     1
 52
0.0
 41
30.0
 77
     0
 78
     3
 53
0.0
 43
0.0
 44
0.0
 45
5.625
 46
3.247595249999999
 79
     2
 49
3.75
 49
-7.5
 53
120.0
 43
0.0
 44
0.0
 45
-5.624999987709673
 46
3.247595271287468
 79
     2
 49
3.75
 49
-7.5
 53
60.0
 43
0.0
 44
0.0
 45
0.0000000122903263
 46
6.495190521287468
 79
     2
 49
-7.5
 49
3.75
 47
0.4984351139275942
 98
        2
 10
300.7978416415071
 20
382.8334073069109
 10
158.6433636949382
 20
415.231689822392
  0
HATCH
  5
3444
330
1E
100
AcDbEntity
  8
SCHRAFF
100
AcDbHatch
 10
0.0
 20
0.0
 30
0.0
210
0.0
220
0.0
230
1.0
  2
NET
 70
     0
 71
     1
 91
        2
 92
        7
 72
     1
 73
     1
 93
        6
 10
331.5513532968981
 20
461.845327681283
 42
0.0
 10
323.3491408213534
 20
464.0431038902537
 42
0.0
 10
323.5261461692742
 20
463.0392566786149
 42
-0.1095178116832351
 10
322.9596883675802
 20
450.065239995532
 42
0.0
 10
322.33913798724
 20
447.7493144474462
 42
0.0
 10
327.4102485752578
 20
446.3905144606577
 42
0.0
 97
        6
330
31DF
330
321D
330
321C
330
320A
330
32DA
330
32DB
 92
        7
 72
     1
 73
     1
 93
        6
 10
182.1354042667443
 20
500.9247917886348
 42
0.0
 10
182.7906190004688
 20
501.7056463014716
 42
0.0
 10
174.588406524924
 20
503.9034225104424
 42
0.0
 10
170.4473018032838
 20
488.4486092898174
 42
0.0
 10
175.5184123913016
 20
487.0898093030292
 42
0.0
 10
176.1389627716415
 20
489.405734851114
 42
-0.1095178116832435
 97
        6
330
31FA
330
31DF
330
32E1
330
32E0
330
31EF
330
31F8
 75
     0
 76
     1
 52
30.0
 41
20.0
 77
     0
 78
     2
 53
30.0
 43
0.0
 44
0.0
 45
-1.249999999999999
 46
2.165063509461096
 79
     0
 53
120.0
 43
0.0
 44
0.0
 45
-2.165063509461096
 46
-1.249999999999999
 79
     0
 47
0.4984351139275942
 98
        2
 10
327.2335872302815
 20
458.0971098735963
 10
177.5972940878141
 20
496.9750488921736
  0
HATCH
  5
3512
330
1E
100
AcDbEntity
  8
SCHRAFF
100
AcDbHatch
 10
0.0
 20
0.0
 30
0.0
210
0.0
220
0.0
230
1.0
  2
NET
 70
     0
 71
     0
 91
        2
 92
        7
 72
     0
 73
     1
 93
        9
 10
297.9322544949109
 20
328.6921026460001
 10
300.0758480343602
 20
320.692102645999
 10
308.2258480343599
 20
320.692102645999
 10
308.2258480343598
 20
322.6921026459999
 10
305.3258480343597
 20
322.6921026459999
 10
305.3258480343598
 20
336.5921026460002
 10
303.2258480343598
 20
338.692102646
 10
290.5758480343597
 20
338.6921026460001
 10
290.5758480343597
 20
328.6921026460001
 97
        0
 92
        7
 72
     0
 73
     1
 93
        9
 10
150.2194415738089
 20
328.6921026460001
 10
157.5758480343596
 20
328.6921026460001
 10
157.5758480343596
 20
338.6921026460001
 10
144.9258480343599
 20
338.692102646
 10
142.8258480343597
 20
336.5921026459999
 10
142.8258480343597
 20
322.692102646
 10
139.9258480343597
 20
322.692102646
 10
139.9258480343597
 20
320.692102646
 10
148.0758480343598
 20
320.692102646
 97
        0
 75
     0
 76
     1
 52
45.0
 41
20.0
 77
     0
 78
     2
 53
45.0
 43
-0.9241519656402488
 44
9.106492194373004
 45
-1.767766952966368
 46
1.767766952966368
 79
     0
 53
135.0
 43
-0.9241519656402488
 44
9.106492194373004
 45
-1.767766952966368
 46
-1.767766952966368
 79
     0
 47
0.2115359210124944
 98
        2
 10
300.2356115696735
 20
331.0853603347916
 10
148.896184928948
 20
332.7776478167371
  0
LINE
  5
3513
330
1E
100
AcDbEntity
  8
STEMPEL
100
AcDbLine
 10
308.2258480343599
 20
320.692102645999
 30
0.0
 11
290.5758480343596
 21
320.692102645999
 31
0.0
  0
LINE
  5
3514
330
1E
100
AcDbEntity
  8
STEMPEL
100
AcDbLine
 10
300.0758480343602
 20
320.692102645999
 30
0.0
 11
297.9322544949109
 21
328.6921026460001
 31
0.0
  0
LINE
  5
3515
330
1E
100
AcDbEntity
  8
STEMPEL
100
AcDbLine
 10
157.5758480343596
 20
320.6921026459999
 30
0.0
 11
139.9258480343597
 21
320.692102646
 31
0.0
  0
LINE
  5
3516
330
1E
100
AcDbEntity
  8
STEMPEL
100
AcDbLine
 10
148.0758480343598
 20
320.692102646
 30
0.0
 11
150.2194415738089
 21
328.6921026460001
 31
0.0
  0
TEXT
  5
351F
330
1E
100
AcDbEntity
  8
TEXT
100
AcDbText
 10
148.622109822104
 20
73.14025471151666
 30
0.0
 40
4.0
  1
2007
 41
0.8
  7
GREEKS
100
AcDbText
  0
TEXT
  5
3520
330
1E
100
AcDbEntity
  8
TEXT
100
AcDbText
 10
170.398997108236
 20
63.10765040825732
 30
0.0
 40
4.0
  1
28.09.
 41
0.8
  7
GREEKS
 72
     1
 11
177.4085209177598
 21
63.10765040825732
 31
0.0
100
AcDbText
  0
ENDSEC
  0
SECTION
  2
OBJECTS
  0
DICTIONARY
  5
C
330
0
100
AcDbDictionary
281
     1
  3
ACAD_COLOR
350
DF
  3
ACAD_GROUP
350
D
  3
ACAD_LAYOUT
350
19
  3
ACAD_MATERIAL
350
DE
  3
ACAD_MLINESTYLE
350
16
  3
ACAD_PLOTSETTINGS
350
18
  3
ACAD_PLOTSTYLENAME
350
E
  3
AcDbVariableDictionary
350
25E
  0
DICTIONARY
  5
A0
330
1E
100
AcDbDictionary
280
     1
281
     1
  3
ACAD_LAYOUTSELFREF
360
D4
  0
DICTIONARY
  5
A2
330
1A
100
AcDbDictionary
280
     1
281
     1
  3
ACAD_LAYOUTSELFREF
360
D3
  0
DICTIONARY
  5
DF
102
{ACAD_REACTORS
330
C
102
}
330
C
100
AcDbDictionary
281
     1
  0
DICTIONARY
  5
D
102
{ACAD_REACTORS
330
C
102
}
330
C
100
AcDbDictionary
281
     1
  0
DICTIONARY
  5
19
102
{ACAD_REACTORS
330
C
102
}
330
C
100
AcDbDictionary
281
     1
  3
Layout1
350
1D
  3
Model
350
21
  0
DICTIONARY
  5
DE
102
{ACAD_REACTORS
330
C
102
}
330
C
100
AcDbDictionary
281
     1
  0
DICTIONARY
  5
16
102
{ACAD_REACTORS
330
C
102
}
330
C
100
AcDbDictionary
281
     1
  3
Standard
350
17
  0
DICTIONARY
  5
18
102
{ACAD_REACTORS
330
C
102
}
330
C
100
AcDbDictionary
281
     1
  0
ACDBDICTIONARYWDFLT
  5
E
102
{ACAD_REACTORS
330
C
102
}
330
C
100
AcDbDictionary
281
     1
  3
Normal
350
F
100
AcDbDictionaryWithDefault
340
F
  0
DICTIONARY
  5
25E
102
{ACAD_REACTORS
330
C
102
}
330
C
100
AcDbDictionary
281
     1
  3
DIMASSOC
350
25F
  3
PROJECTNAME
350
260
  0
XRECORD
  5
D4
102
{ACAD_REACTORS
330
A0
102
}
330
A0
100
AcDbXrecord
280
     1
340
1E
  0
XRECORD
  5
D3
102
{ACAD_REACTORS
330
A2
102
}
330
A2
100
AcDbXrecord
280
     1
340
1A
  0
LAYOUT
  5
1D
102
{ACAD_REACTORS
330
19
102
}
330
19
100
AcDbPlotSettings
  1

  2
\\NT_WORK01\HP LaserJet 5000 PCL 6
  4

  6

 40
0.0
 41
0.0
 42
0.0
 43
0.0
 44
0.0
 45
0.0
 46
0.0
 47
0.0
 48
0.0
 49
0.0
140
0.0
141
0.0
142
1.0
143
1.0
 70
   688
 72
     0
 73
     0
 74
     5
  7

 75
    16
147
1.0
 76
     0
 77
     2
 78
   300
148
0.0
149
0.0
100
AcDbLayout
  1
Layout1
 70
     0
 71
     1
 10
0.0
 20
0.0
 11
12.0
 21
9.0
 12
0.0
 22
0.0
 32
0.0
 14
1.000000000000000E+20
 24
1.000000000000000E+20
 34
1.000000000000000E+20
 15
-1.000000000000000E+20
 25
-1.000000000000000E+20
 35
-1.000000000000000E+20
146
0.0
 13
0.0
 23
0.0
 33
0.0
 16
1.0
 26
0.0
 36
0.0
 17
0.0
 27
1.0
 37
0.0
 76
     0
330
1A
  0
LAYOUT
  5
21
102
{ACAD_REACTORS
330
19
102
}
330
19
100
AcDbPlotSettings
  1

  2
RICOH Aficio 2027 PCL 6
  4
A4
  6

 40
5.027083
 41
5.027084999999999
 42
5.027084
 43
5.027069
 44
209.973328
 45
296.925995
 46
0.0
 47
2.06
 48
0.0
 49
0.0
140
0.0
141
0.0
142
1.0
143
2.100849152723284
 70
 11956
 72
     1
 73
     0
 74
     2
  7
monochrome1.ctb
 75
     0
147
0.4759980023809526
 76
     1
 77
     2
 78
   300
148
0.0
149
0.0
100
AcDbLayout
  1
Model
 70
     1
 71
     0
 10
0.0
 20
0.0
 11
12.0
 21
9.0
 12
0.0
 22
0.0
 32
0.0
 14
0.0
 24
0.0
 34
0.0
 15
0.0
 25
0.0
 35
0.0
146
0.0
 13
0.0
 23
0.0
 33
0.0
 16
1.0
 26
0.0
 36
0.0
 17
0.0
 27
1.0
 37
0.0
 76
     0
330
1E
  0
MLINESTYLE
  5
17
102
{ACAD_REACTORS
330
16
102
}
330
16
100
AcDbMlineStyle
  2
STANDARD
 70
     0
  3

 62
   256
 51
90.0
 52
90.0
 71
     2
 49
0.5
 62
   256
  6
BYLAYER
 49
-0.5
 62
   256
  6
BYLAYER
  0
ACDBPLACEHOLDER
  5
F
102
{ACAD_REACTORS
330
E
102
}
330
E
  0
DICTIONARYVAR
  5
25F
102
{ACAD_REACTORS
330
25E
102
}
330
25E
100
DictionaryVariables
280
     0
  1
1
  0
DICTIONARYVAR
  5
260
102
{ACAD_REACTORS
330
25E
102
}
330
25E
100
DictionaryVariables
280
     0
  1

  0
ENDSEC
  0
EOF
