  0
SECTION
  2
HEADER
  9
$ACADVER
  1
AC1018
  9
$ACADMAINTVER
 70
     2
  9
$DWGCODEPAGE
  3
ANSI_1252
  9
$INSBASE
 10
0.0
 20
0.0
 30
0.0
  9
$EXTMIN
 10
-0.0095755799026165
 20
-0.0452838860169322
 30
-0.0000000000000053
  9
$EXTMAX
 10
420.0260151375649
 20
594.0408007806827
 30
0.0000000000000099
  9
$LIMMIN
 10
0.0
 20
0.0
  9
$LIMMAX
 10
419.9999999999999
 20
594.0000000000002
  9
$ORTHOMODE
 70
     0
  9
$REGENMODE
 70
     1
  9
$FILLMODE
 70
     1
  9
$QTEXTMODE
 70
     0
  9
$MIRRTEXT
 70
     1
  9
$LTSCALE
 40
20.0
  9
$ATTMODE
 70
     1
  9
$TEXTSIZE
 40
3.5
  9
$TRACEWID
 40
0.5
  9
$TEXTSTYLE
  7
STANDARD
  9
$CLAYER
  8
SCHRAFF
  9
$CELTYPE
  6
ByLayer
  9
$CECOLOR
 62
   256
  9
$CELTSCALE
 40
1.0
  9
$DISPSILH
 70
     0
  9
$DIMSCALE
 40
2.0
  9
$DIMASZ
 40
3.5
  9
$DIMEXO
 40
1.0
  9
$DIMDLI
 40
7.0
  9
$DIMRND
 40
0.0
  9
$DIMDLE
 40
0.0
  9
$DIMEXE
 40
1.0
  9
$DIMTP
 40
0.0
  9
$DIMTM
 40
0.0
  9
$DIMTXT
 40
3.5
  9
$DIMCEN
 40
1.5
  9
$DIMTSZ
 40
0.0
  9
$DIMTOL
 70
     0
  9
$DIMLIM
 70
     0
  9
$DIMTIH
 70
     0
  9
$DIMTOH
 70
     0
  9
$DIMSE1
 70
     0
  9
$DIMSE2
 70
     0
  9
$DIMTAD
 70
     1
  9
$DIMZIN
 70
     8
  9
$DIMBLK
  1

  9
$DIMASO
 70
     1
  9
$DIMSHO
 70
     0
  9
$DIMPOST
  1

  9
$DIMAPOST
  1

  9
$DIMALT
 70
     0
  9
$DIMALTD
 70
     2
  9
$DIMALTF
 40
25.4
  9
$DIMLFAC
 40
1.0
  9
$DIMTOFL
 70
     1
  9
$DIMTVP
 40
0.0
  9
$DIMTIX
 70
     0
  9
$DIMSOXD
 70
     0
  9
$DIMSAH
 70
     0
  9
$DIMBLK1
  1

  9
$DIMBLK2
  1

  9
$DIMSTYLE
  2
Standard
  9
$DIMCLRD
 70
     0
  9
$DIMCLRE
 70
     0
  9
$DIMCLRT
 70
     1
  9
$DIMTFAC
 40
0.5142857142857144
  9
$DIMGAP
 40
1.5
  9
$DIMJUST
 70
     0
  9
$DIMSD1
 70
     0
  9
$DIMSD2
 70
     0
  9
$DIMTOLJ
 70
     1
  9
$DIMTZIN
 70
     8
  9
$DIMALTZ
 70
     8
  9
$DIMALTTZ
 70
     8
  9
$DIMUPT
 70
     0
  9
$DIMDEC
 70
     2
  9
$DIMTDEC
 70
     2
  9
$DIMALTU
 70
     2
  9
$DIMALTTD
 70
     2
  9
$DIMTXSTY
  7
STANDARD
  9
$DIMAUNIT
 70
     0
  9
$DIMADEC
 70
     2
  9
$DIMALTRND
 40
0.0
  9
$DIMAZIN
 70
     2
  9
$DIMDSEP
 70
    46
  9
$DIMATFIT
 70
     3
  9
$DIMFRAC
 70
     0
  9
$DIMLDRBLK
  1

  9
$DIMLUNIT
 70
     2
  9
$DIMLWD
 70
    -2
  9
$DIMLWE
 70
    -2
  9
$DIMTMOVE
 70
     0
  9
$LUNITS
 70
     2
  9
$LUPREC
 70
     2
  9
$SKETCHINC
 40
1.0
  9
$FILLETRAD
 40
70.0
  9
$AUNITS
 70
     0
  9
$AUPREC
 70
     0
  9
$MENU
  1
ACAD
  9
$ELEVATION
 40
0.0
  9
$PELEVATION
 40
0.0
  9
$THICKNESS
 40
0.0
  9
$LIMCHECK
 70
     0
  9
$CHAMFERA
 40
0.0
  9
$CHAMFERB
 40
0.0
  9
$CHAMFERC
 40
0.0
  9
$CHAMFERD
 40
0.0
  9
$SKPOLY
 70
     0
  9
$TDCREATE
 40
2455397.823042361
  9
$TDUCREATE
 40
2455397.781375695
  9
$TDUPDATE
 40
2455532.547422882
  9
$TDUUPDATE
 40
2455532.505756215
  9
$TDINDWG
 40
0.4463654977
  9
$TDUSRTIMER
 40
0.4463654977
  9
$USRTIMER
 70
     1
  9
$ANGBASE
 50
0.0
  9
$ANGDIR
 70
     0
  9
$PDMODE
 70
     0
  9
$PDSIZE
 40
0.0
  9
$PLINEWID
 40
0.0
  9
$SPLFRAME
 70
     0
  9
$SPLINETYPE
 70
     6
  9
$SPLINESEGS
 70
     8
  9
$HANDSEED
  5
3028
  9
$SURFTAB1
 70
     6
  9
$SURFTAB2
 70
     6
  9
$SURFTYPE
 70
     6
  9
$SURFU
 70
     6
  9
$SURFV
 70
     6
  9
$UCSBASE
  2

  9
$UCSNAME
  2

  9
$UCSORG
 10
0.0
 20
0.0
 30
0.0
  9
$UCSXDIR
 10
1.0
 20
0.0
 30
0.0
  9
$UCSYDIR
 10
0.0
 20
1.0
 30
0.0
  9
$UCSORTHOREF
  2

  9
$UCSORTHOVIEW
 70
     0
  9
$UCSORGTOP
 10
0.0
 20
0.0
 30
0.0
  9
$UCSORGBOTTOM
 10
0.0
 20
0.0
 30
0.0
  9
$UCSORGLEFT
 10
0.0
 20
0.0
 30
0.0
  9
$UCSORGRIGHT
 10
0.0
 20
0.0
 30
0.0
  9
$UCSORGFRONT
 10
0.0
 20
0.0
 30
0.0
  9
$UCSORGBACK
 10
0.0
 20
0.0
 30
0.0
  9
$PUCSBASE
  2

  9
$PUCSNAME
  2

  9
$PUCSORG
 10
0.0
 20
0.0
 30
0.0
  9
$PUCSXDIR
 10
1.0
 20
0.0
 30
0.0
  9
$PUCSYDIR
 10
0.0
 20
1.0
 30
0.0
  9
$PUCSORTHOREF
  2

  9
$PUCSORTHOVIEW
 70
     0
  9
$PUCSORGTOP
 10
0.0
 20
0.0
 30
0.0
  9
$PUCSORGBOTTOM
 10
0.0
 20
0.0
 30
0.0
  9
$PUCSORGLEFT
 10
0.0
 20
0.0
 30
0.0
  9
$PUCSORGRIGHT
 10
0.0
 20
0.0
 30
0.0
  9
$PUCSORGFRONT
 10
0.0
 20
0.0
 30
0.0
  9
$PUCSORGBACK
 10
0.0
 20
0.0
 30
0.0
  9
$USERI1
 70
     0
  9
$USERI2
 70
     0
  9
$USERI3
 70
     0
  9
$USERI4
 70
     0
  9
$USERI5
 70
     0
  9
$USERR1
 40
0.0
  9
$USERR2
 40
0.0
  9
$USERR3
 40
0.0
  9
$USERR4
 40
0.0
  9
$USERR5
 40
0.0
  9
$WORLDVIEW
 70
     1
  9
$SHADEDGE
 70
     3
  9
$SHADEDIF
 70
    70
  9
$TILEMODE
 70
     1
  9
$MAXACTVP
 70
    16
  9
$PINSBASE
 10
0.0
 20
0.0
 30
0.0
  9
$PLIMCHECK
 70
     0
  9
$PEXTMIN
 10
1.000000000000000E+20
 20
1.000000000000000E+20
 30
1.000000000000000E+20
  9
$PEXTMAX
 10
-1.000000000000000E+20
 20
-1.000000000000000E+20
 30
-1.000000000000000E+20
  9
$PLIMMIN
 10
0.0
 20
0.0
  9
$PLIMMAX
 10
12.0
 20
9.0
  9
$UNITMODE
 70
     0
  9
$VISRETAIN
 70
     0
  9
$PLINEGEN
 70
     0
  9
$PSLTSCALE
 70
     0
  9
$TREEDEPTH
 70
  3020
  9
$CMLSTYLE
  2
Standard
  9
$CMLJUST
 70
     0
  9
$CMLSCALE
 40
1.0
  9
$PROXYGRAPHICS
 70
     1
  9
$MEASUREMENT
 70
     0
  9
$CELWEIGHT
370
    -1
  9
$ENDCAPS
280
     0
  9
$JOINSTYLE
280
     0
  9
$LWDISPLAY
290
     0
  9
$INSUNITS
 70
     0
  9
$HYPERLINKBASE
  1

  9
$STYLESHEET
  1
monochrome 1.ctb
  9
$XEDIT
290
     1
  9
$CEPSNTYPE
380
     0
  9
$PSTYLEMODE
290
     1
  9
$FINGERPRINTGUID
  2
{D68B0D02-A558-11D7-B632-000102183313}
  9
$VERSIONGUID
  2
{4DECA16C-117C-4443-80DD-48CDF18D1855}
  9
$EXTNAMES
290
     1
  9
$PSVPSCALE
 40
0.0
  9
$OLESTARTUP
290
     0
  9
$SORTENTS
280
   127
  9
$INDEXCTL
280
     0
  9
$HIDETEXT
280
     0
  9
$XCLIPFRAME
290
     0
  9
$HALOGAP
280
     0
  9
$OBSCOLOR
 70
   257
  9
$OBSLTYPE
280
     0
  9
$INTERSECTIONDISPLAY
280
     0
  9
$INTERSECTIONCOLOR
 70
   257
  9
$DIMASSOC
280
     1
  9
$PROJECTNAME
  1

  0
ENDSEC
  0
SECTION
  2
CLASSES
  0
CLASS
  1
ACDBDICTIONARYWDFLT
  2
AcDbDictionaryWithDefault
  3
ObjectDBX Classes
 90
        0
 91
        1
280
     0
281
     0
  0
CLASS
  1
DICTIONARYVAR
  2
AcDbDictionaryVar
  3
ObjectDBX Classes
 90
        0
 91
        2
280
     0
281
     0
  0
ENDSEC
  0
SECTION
  2
TABLES
  0
TABLE
  2
VPORT
  5
8
330
0
100
AcDbSymbolTable
 70
     2
  0
VPORT
  5
3027
330
8
100
AcDbSymbolTableRecord
100
AcDbViewportTableRecord
  2
*Active
 70
     0
 10
0.0
 20
0.0
 11
1.0
 21
1.0
 12
210.0082197788311
 22
296.997758447333
 13
0.0
 23
0.0
 14
1.0
 24
1.0
 15
10.0
 25
10.0
 16
0.0
 26
0.0
 36
1.0
 17
0.0
 27
0.0
 37
0.0
 40
598.8835496841966
 41
1.336927223719676
 42
50.0
 43
0.0
 44
0.0
 50
0.0
 51
0.0
 71
     0
 72
  1500
 73
     1
 74
     0
 75
     0
 76
     0
 77
     0
 78
     0
281
     0
 65
     1
110
0.0
120
0.0
130
0.0
111
1.0
121
0.0
131
0.0
112
0.0
122
1.0
132
0.0
 79
     0
146
0.0
  0
ENDTAB
  0
TABLE
  2
LTYPE
  5
5
330
0
100
AcDbSymbolTable
 70
     2
  0
LTYPE
  5
13
330
5
100
AcDbSymbolTableRecord
100
AcDbLinetypeTableRecord
  2
ByBlock
 70
     0
  3

 72
    65
 73
     0
 40
0.0
  0
LTYPE
  5
14
330
5
100
AcDbSymbolTableRecord
100
AcDbLinetypeTableRecord
  2
ByLayer
 70
     0
  3

 72
    65
 73
     0
 40
0.0
  0
LTYPE
  5
15
330
5
100
AcDbSymbolTableRecord
100
AcDbLinetypeTableRecord
  2
Continuous
 70
     0
  3
Solid line
 72
    65
 73
     0
 40
0.0
  0
LTYPE
  5
25
330
5
100
AcDbSymbolTableRecord
100
AcDbLinetypeTableRecord
  2
STRICHPUNKT
 70
     0
  3
__ . __ . __ . __ . __ . __ . __ . __ . __ . __
 72
    65
 73
     4
 40
1.0
 49
0.5
 74
     0
 49
-0.25
 74
     0
 49
0.0
 74
     0
 49
-0.25
 74
     0
  0
ENDTAB
  0
TABLE
  2
LAYER
  5
2
330
0
100
AcDbSymbolTable
 70
     9
  0
LAYER
  5
10
330
2
100
AcDbSymbolTableRecord
100
AcDbLayerTableRecord
  2
0
 70
     0
 62
     7
  6
Continuous
370
    -3
390
F
  0
LAYER
  5
2A
330
2
100
AcDbSymbolTableRecord
100
AcDbLayerTableRecord
  2
VOLL
 70
     0
 62
     1
  6
Continuous
370
    -3
390
F
  0
LAYER
  5
2B
330
2
100
AcDbSymbolTableRecord
100
AcDbLayerTableRecord
  2
HILF
 70
     0
 62
     2
  6
Continuous
370
    -3
390
F
  0
LAYER
  5
2C
330
2
100
AcDbSymbolTableRecord
100
AcDbLayerTableRecord
  2
MITTEL
 70
     0
 62
     2
  6
STRICHPUNKT
370
    -3
390
F
  0
LAYER
  5
2F
330
2
100
AcDbSymbolTableRecord
100
AcDbLayerTableRecord
  2
BEM
 70
     0
 62
     7
  6
Continuous
370
    -3
390
F
  0
LAYER
  5
30
330
2
100
AcDbSymbolTableRecord
100
AcDbLayerTableRecord
  2
STEMPEL
 70
     0
 62
     3
  6
Continuous
370
    -3
390
F
  0
LAYER
  5
31
330
2
100
AcDbSymbolTableRecord
100
AcDbLayerTableRecord
  2
TEXT
 70
     0
 62
     7
  6
Continuous
370
    -3
390
F
  0
LAYER
  5
171
330
2
100
AcDbSymbolTableRecord
100
AcDbLayerTableRecord
  2
Defpoints
 70
     0
 62
     7
  6
Continuous
290
     0
370
    -3
390
F
  0
LAYER
  5
19C
330
2
100
AcDbSymbolTableRecord
100
AcDbLayerTableRecord
  2
SCHRAFF
 70
     0
 62
     7
  6
Continuous
370
    -3
390
F
  0
ENDTAB
  0
TABLE
  2
STYLE
  5
3
330
0
100
AcDbSymbolTable
 70
     2
  0
STYLE
  5
11
330
3
100
AcDbSymbolTableRecord
100
AcDbTextStyleTableRecord
  2
STANDARD
 70
     0
 40
0.0
 41
0.8
 50
0.0
 71
     0
 42
3.5
  3
simplex.shx
  4

  0
STYLE
  5
24
330
3
100
AcDbSymbolTableRecord
100
AcDbTextStyleTableRecord
  2
GREEKS
 70
     0
 40
0.0
 41
0.8
 50
0.0
 71
     0
 42
2.5
  3
SIMPLEX.shx
  4

  0
ENDTAB
  0
TABLE
  2
VIEW
  5
6
330
0
100
AcDbSymbolTable
 70
     0
  0
ENDTAB
  0
TABLE
  2
UCS
  5
7
330
0
100
AcDbSymbolTable
 70
     0
  0
ENDTAB
  0
TABLE
  2
APPID
  5
9
330
0
100
AcDbSymbolTable
 70
     1
  0
APPID
  5
12
330
9
100
AcDbSymbolTableRecord
100
AcDbRegAppTableRecord
  2
ACAD
 70
     0
  0
ENDTAB
  0
TABLE
  2
DIMSTYLE
  5
A
330
0
100
AcDbSymbolTable
 70
     1
100
AcDbDimStyleTable
 71
     1
340
9D
  0
DIMSTYLE
105
9D
102
{ACAD_REACTORS
330
2D02
330
2D3D
330
2DAD
330
2DBA
330
2E0B
330
2E18
102
}
330
A
100
AcDbSymbolTableRecord
100
AcDbDimStyleTableRecord
  2
Standard
 70
     0
340
11
  0
ENDTAB
  0
TABLE
  2
BLOCK_RECORD
  5
1
330
0
100
AcDbSymbolTable
 70
     7
  0
BLOCK_RECORD
  5
1E
102
{ACAD_XDICTIONARY
360
A0
102
}
330
1
100
AcDbSymbolTableRecord
100
AcDbBlockTableRecord
  2
*Model_Space
340
21
  0
BLOCK_RECORD
  5
1A
102
{ACAD_XDICTIONARY
360
A2
102
}
330
1
100
AcDbSymbolTableRecord
100
AcDbBlockTableRecord
  2
*Paper_Space
340
1D
  0
BLOCK_RECORD
  5
22
330
1
100
AcDbSymbolTableRecord
100
AcDbBlockTableRecord
  2
LOGO
340
0
102
{BLKREFS
331
9B
102
}
  0
BLOCK_RECORD
  5
2D03
330
1
100
AcDbSymbolTableRecord
100
AcDbBlockTableRecord
  2
*D1
340
0
  0
BLOCK_RECORD
  5
2D3E
330
1
100
AcDbSymbolTableRecord
100
AcDbBlockTableRecord
  2
*D2
340
0
  0
BLOCK_RECORD
  5
2DAE
330
1
100
AcDbSymbolTableRecord
100
AcDbBlockTableRecord
  2
*D3
340
0
  0
BLOCK_RECORD
  5
2DBB
330
1
100
AcDbSymbolTableRecord
100
AcDbBlockTableRecord
  2
*D4
340
0
  0
BLOCK_RECORD
  5
2E0C
330
1
100
AcDbSymbolTableRecord
100
AcDbBlockTableRecord
  2
*D5
340
0
  0
BLOCK_RECORD
  5
2E19
330
1
100
AcDbSymbolTableRecord
100
AcDbBlockTableRecord
  2
*D6
340
0
  0
ENDTAB
  0
ENDSEC
  0
SECTION
  2
BLOCKS
  0
BLOCK
  5
35
330
1E
100
AcDbEntity
  8
0
100
AcDbBlockBegin
  2
*Model_Space
 70
     0
 10
0.0
 20
0.0
 30
0.0
  3
*Model_Space
  1

  0
ENDBLK
  5
36
330
1E
100
AcDbEntity
  8
0
100
AcDbBlockEnd
  0
BLOCK
  5
33
330
1A
100
AcDbEntity
 67
     1
  8
0
100
AcDbBlockBegin
  2
*Paper_Space
 70
     0
 10
0.0
 20
0.0
 30
0.0
  3
*Paper_Space
  1

  0
ENDBLK
  5
34
330
1A
100
AcDbEntity
 67
     1
  8
0
100
AcDbBlockEnd
  0
BLOCK
  5
37
330
22
100
AcDbEntity
  8
0
100
AcDbBlockBegin
  2
LOGO
 70
     0
 10
0.0
 20
0.0
 30
0.0
  3
LOGO
  1

  0
ARC
  5
38
330
22
100
AcDbEntity
  8
0
100
AcDbCircle
 10
11.59973089678112
 20
-9.271599258481501
 30
0.0
 40
4.5
100
AcDbArc
 50
270.0
 51
231.0575587310159
  0
LINE
  5
39
330
22
100
AcDbEntity
  8
0
100
AcDbLine
 10
3.599730896781125
 20
-4.771599258481529
 30
0.0
 11
3.599730896781153
 21
-11.77159925848133
 31
0.0
  0
LINE
  5
3A
330
22
100
AcDbEntity
  8
0
100
AcDbLine
 10
2.599730896781125
 20
-4.771599258481529
 30
0.0
 11
2.599730896781153
 21
-11.77159925848133
 31
0.0
  0
CIRCLE
  5
3B
330
22
100
AcDbEntity
  8
0
100
AcDbCircle
 10
11.59973089678112
 20
-9.271599258481501
 30
0.0
 40
3.5
  0
ARC
  5
3C
330
22
100
AcDbEntity
  8
0
100
AcDbCircle
 10
31.59973089678115
 20
-9.271599258481472
 30
0.0
 40
4.5
100
AcDbArc
 50
270.0
 51
231.0575587310182
  0
LINE
  5
3D
330
22
100
AcDbEntity
  8
0
100
AcDbLine
 10
17.59973089678112
 20
-4.771599258481472
 30
0.0
 11
17.59973089678115
 21
-13.77159925848147
 31
0.0
  0
ARC
  5
3E
330
22
100
AcDbEntity
  8
0
100
AcDbCircle
 10
22.59973089678116
 20
-7.271599258481472
 30
0.0
 40
2.5
100
AcDbArc
 50
293.1161887722295
 51
90.0
  0
CIRCLE
  5
3F
330
22
100
AcDbEntity
  8
0
100
AcDbCircle
 10
31.59973089678115
 20
-9.271599258481472
 30
0.0
 40
3.5
  0
ARC
  5
40
330
22
100
AcDbEntity
  8
0
100
AcDbCircle
 10
4.599730896781153
 20
-11.77159925848133
 30
0.0
 40
1.0
100
AcDbArc
 50
180.0
 51
270.0
  0
ARC
  5
41
330
22
100
AcDbEntity
  8
0
100
AcDbCircle
 10
4.599730896781153
 20
-11.77159925848133
 30
0.0
 40
2.0
100
AcDbArc
 50
179.9999999999992
 51
270.0
  0
LINE
  5
42
330
22
100
AcDbEntity
  8
0
100
AcDbLine
 10
11.59973089678115
 20
-13.77159925848144
 30
0.0
 11
4.599730896781153
 21
-13.77159925848147
 31
0.0
  0
LINE
  5
43
330
22
100
AcDbEntity
  8
0
100
AcDbLine
 10
8.771303772034769
 20
-12.77159925848136
 30
0.0
 11
4.599730896781153
 21
-12.77159925848133
 31
0.0
  0
LINE
  5
44
330
22
100
AcDbEntity
  8
0
100
AcDbLine
 10
31.59973089678115
 20
-13.77159925848147
 30
0.0
 11
23.6715276665056
 21
-13.77159925848144
 31
0.0
  0
LINE
  5
45
330
22
100
AcDbEntity
  8
0
100
AcDbLine
 10
23.56565672307022
 20
-9.51278021337896
 30
0.0
 11
24.4388546544846
 21
-12.77159925848144
 31
0.0
  0
LINE
  5
46
330
22
100
AcDbEntity
  8
0
100
AcDbLine
 10
22.59973089678116
 20
-9.771599258481472
 30
0.0
 11
18.59973089678112
 21
-9.771599258481472
 31
0.0
  0
LINE
  5
47
330
22
100
AcDbEntity
  8
0
100
AcDbLine
 10
18.59973089678115
 20
-13.77159925848144
 30
0.0
 11
17.59973089678115
 21
-13.77159925848144
 31
0.0
  0
LINE
  5
48
330
22
100
AcDbEntity
  8
0
100
AcDbLine
 10
18.59973089678115
 20
-9.771599258481472
 30
0.0
 11
18.59973089678115
 21
-13.77159925848144
 31
0.0
  0
LINE
  5
49
330
22
100
AcDbEntity
  8
0
100
AcDbLine
 10
22.59973089678116
 20
-9.771599258481472
 30
0.0
 11
23.67152766650562
 21
-13.77159925848147
 31
0.0
  0
ARC
  5
4A
330
22
100
AcDbEntity
  8
0
100
AcDbCircle
 10
22.59973089678116
 20
-7.271599258481472
 30
0.0
 40
2.5
100
AcDbArc
 50
270.0
 51
270.0000000000007
  0
LINE
  5
4B
330
22
100
AcDbEntity
  8
0
100
AcDbLine
 10
28.77130377203494
 20
-12.77159925848147
 30
0.0
 11
24.43885465448463
 21
-12.77159925848144
 31
0.0
  0
LINE
  5
4C
330
22
100
AcDbEntity
  8
0
100
AcDbLine
 10
3.599730896781125
 20
-4.771599258481472
 30
0.0
 11
2.599730896781125
 21
-4.771599258481472
 31
0.0
  0
LINE
  5
4D
330
22
100
AcDbEntity
  8
0
100
AcDbLine
 10
22.59973089678116
 20
-8.771599258481472
 30
0.0
 11
18.59973089678115
 21
-8.771599258481472
 31
0.0
  0
LINE
  5
4E
330
22
100
AcDbEntity
  8
0
100
AcDbLine
 10
22.59973089678116
 20
-5.771599258481472
 30
0.0
 11
18.59973089678115
 21
-5.771599258481472
 31
0.0
  0
LINE
  5
4F
330
22
100
AcDbEntity
  8
0
100
AcDbLine
 10
22.59973089678116
 20
-4.771599258481472
 30
0.0
 11
17.59973089678115
 21
-4.771599258481472
 31
0.0
  0
LINE
  5
50
330
22
100
AcDbEntity
  8
0
100
AcDbLine
 10
18.59973089678115
 20
-5.771599258481472
 30
0.0
 11
18.59973089678115
 21
-8.771599258481472
 31
0.0
  0
ARC
  5
51
330
22
100
AcDbEntity
  8
0
100
AcDbCircle
 10
22.59973089678116
 20
-7.271599258481472
 30
0.0
 40
1.5
100
AcDbArc
 50
270.0
 51
90.0
  0
ENDBLK
  5
52
330
22
100
AcDbEntity
  8
0
100
AcDbBlockEnd
  0
BLOCK
  5
2D0D
330
2D03
100
AcDbEntity
  8
0
100
AcDbBlockBegin
  2
*D1
 70
     1
 10
0.0
 20
0.0
 30
0.0
  3
*D1
  1

  0
LINE
  5
2FA2
330
2D03
100
AcDbEntity
  8
BEM
 62
     0
370
    -2
100
AcDbLine
 10
166.6882066629161
 20
278.7740686201565
 30
0.0
 11
166.6882066629161
 21
249.4053266103795
 31
0.0
  0
LINE
  5
2FA3
330
2D03
100
AcDbEntity
  8
BEM
 62
     0
370
    -2
100
AcDbLine
 10
268.6882066629164
 20
278.7740686201556
 30
0.0
 11
268.6882066629164
 21
249.4053266103795
 31
0.0
  0
LINE
  5
2FA4
330
2D03
100
AcDbEntity
  8
BEM
 62
     0
370
    -2
100
AcDbLine
 10
173.6882066629162
 20
251.4053266103795
 30
0.0
 11
261.6882066629164
 21
251.4053266103795
 31
0.0
  0
SOLID
  5
2FA5
330
2D03
100
AcDbEntity
  8
BEM
 62
     0
100
AcDbTrace
 10
173.6882066629162
 20
252.5719932770461
 30
0.0
 11
173.6882066629162
 21
250.2386599437128
 31
0.0
 12
166.6882066629161
 22
251.4053266103795
 32
0.0
 13
166.6882066629161
 23
251.4053266103795
 33
0.0
  0
SOLID
  5
2FA6
330
2D03
100
AcDbEntity
  8
BEM
 62
     0
100
AcDbTrace
 10
261.6882066629164
 20
252.5719932770461
 30
0.0
 11
261.6882066629164
 21
250.2386599437128
 31
0.0
 12
268.6882066629164
 22
251.4053266103795
 32
0.0
 13
268.6882066629164
 23
251.4053266103795
 33
0.0
  0
MTEXT
  5
2FA7
330
2D03
100
AcDbEntity
  8
BEM
 62
     1
100
AcDbMText
 10
217.6882066629163
 20
257.9053266103795
 30
0.0
 40
7.0
 41
0.0
 71
     5
 72
     1
  1
\A1;%%c102
 73
     1
 44
1.0
  0
POINT
  5
2FA8
330
2D03
100
AcDbEntity
  8
Defpoints
 62
     0
100
AcDbPoint
 10
166.6882066629161
 20
280.7740686201565
 30
0.0
  0
POINT
  5
2FA9
330
2D03
100
AcDbEntity
  8
Defpoints
 62
     0
100
AcDbPoint
 10
268.6882066629164
 20
280.7740686201556
 30
0.0
  0
POINT
  5
2FAA
330
2D03
100
AcDbEntity
  8
Defpoints
 62
     0
100
AcDbPoint
 10
268.6882066629164
 20
251.4053266103795
 30
0.0
  0
ENDBLK
  5
2D0E
330
2D03
100
AcDbEntity
  8
0
100
AcDbBlockEnd
  0
BLOCK
  5
2D48
330
2D3E
100
AcDbEntity
  8
0
100
AcDbBlockBegin
  2
*D2
 70
     1
 10
0.0
 20
0.0
 30
0.0
  3
*D2
  1

  0
LINE
  5
2F85
330
2D3E
100
AcDbEntity
  8
BEM
 62
     0
370
    -2
100
AcDbLine
 10
180.8889579955603
 20
496.4609945919327
 30
0.0
 11
190.7964171562053
 21
533.436135553373
 31
0.0
  0
LINE
  5
2F86
330
2D3E
100
AcDbEntity
  8
BEM
 62
     0
370
    -2
100
AcDbLine
 10
309.3570928920064
 20
462.0380615932969
 30
0.0
 11
319.2645520526514
 21
499.0132025547374
 31
0.0
  0
LINE
  5
2F87
330
2D3E
100
AcDbEntity
  8
BEM
 62
     0
370
    -2
100
AcDbLine
 10
197.0402598500237
 20
529.6925505850772
 30
0.0
 11
311.9854331784229
 21
498.8930842178769
 31
0.0
  0
SOLID
  5
2F88
330
2D3E
100
AcDbEntity
  8
BEM
 62
     0
100
AcDbTrace
 10
197.3422154026433
 20
530.8194640490811
 30
0.0
 11
196.7383042974041
 21
528.5656371210734
 31
0.0
 12
190.2787790660002
 22
531.5042839007949
 32
0.0
 13
190.2787790660002
 23
531.5042839007949
 33
0.0
  0
SOLID
  5
2F89
330
2D3E
100
AcDbEntity
  8
BEM
 62
     0
100
AcDbTrace
 10
312.2873887310425
 20
500.0199976818808
 30
0.0
 11
311.6834776258033
 21
497.7661707538731
 31
0.0
 12
318.7469139624464
 22
497.0813509021592
 32
0.0
 13
318.7469139624464
 23
497.0813509021592
 33
0.0
  0
MTEXT
  5
2F8A
330
2D3E
100
AcDbEntity
  8
BEM
 62
     1
100
AcDbMText
 10
256.1951703073897
 20
520.5713352723559
 30
0.0
 40
7.0
 41
0.0
 71
     5
 72
     1
  1
\A1;%%c133
 11
0.9659258262890675
 21
-0.2588190451025239
 31
0.0
 73
     1
 44
1.0
  0
POINT
  5
2F8B
330
2D3E
100
AcDbEntity
  8
Defpoints
 62
     0
100
AcDbPoint
 10
180.3713199053552
 20
494.5291429393545
 30
0.0
  0
POINT
  5
2F8C
330
2D3E
100
AcDbEntity
  8
Defpoints
 62
     0
100
AcDbPoint
 10
308.8394548018014
 20
460.1062099407188
 30
0.0
  0
POINT
  5
2F8D
330
2D3E
100
AcDbEntity
  8
Defpoints
 62
     0
100
AcDbPoint
 10
318.7469139624464
 20
497.0813509021592
 30
0.0
  0
ENDBLK
  5
2D49
330
2D3E
100
AcDbEntity
  8
0
100
AcDbBlockEnd
  0
BLOCK
  5
2DB8
330
2DAE
100
AcDbEntity
  8
0
100
AcDbBlockBegin
  2
*D3
 70
     1
 10
0.0
 20
0.0
 30
0.0
  3
*D3
  1

  0
LINE
  5
2FFD
330
2DAE
100
AcDbEntity
  8
BEM
 62
     0
370
    -2
100
AcDbLine
 10
149.1882066629161
 20
332.8613905059735
 30
0.0
 11
133.7982282993255
 21
332.8613905059735
 31
0.0
  0
LINE
  5
2FFE
330
2DAE
100
AcDbEntity
  8
BEM
 62
     0
370
    -2
100
AcDbLine
 10
165.3804762960369
 20
272.8613905059736
 30
0.0
 11
133.7982282993255
 21
272.8613905059736
 31
0.0
  0
LINE
  5
2FFF
330
2DAE
100
AcDbEntity
  8
BEM
 62
     0
370
    -2
100
AcDbLine
 10
135.7982282993255
 20
325.8613905059736
 30
0.0
 11
135.7982282993255
 21
279.8613905059736
 31
0.0
  0
SOLID
  5
3000
330
2DAE
100
AcDbEntity
  8
BEM
 62
     0
100
AcDbTrace
 10
134.6315616326589
 20
325.8613905059736
 30
0.0
 11
136.9648949659922
 21
325.8613905059736
 31
0.0
 12
135.7982282993255
 22
332.8613905059735
 32
0.0
 13
135.7982282993255
 23
332.8613905059735
 33
0.0
  0
SOLID
  5
3001
330
2DAE
100
AcDbEntity
  8
BEM
 62
     0
100
AcDbTrace
 10
134.6315616326588
 20
279.8613905059736
 30
0.0
 11
136.9648949659921
 21
279.8613905059736
 31
0.0
 12
135.7982282993255
 22
272.8613905059736
 32
0.0
 13
135.7982282993255
 23
272.8613905059736
 33
0.0
  0
MTEXT
  5
3002
330
2DAE
100
AcDbEntity
  8
BEM
 62
     1
100
AcDbMText
 10
129.2982282993254
 20
302.8613905059736
 30
0.0
 40
7.0
 41
0.0
 71
     5
 72
     1
  1
\A1;60
 11
0.0000000000000001
 21
1.0
 31
0.0
 73
     1
 44
1.0
  0
POINT
  5
3003
330
2DAE
100
AcDbEntity
  8
Defpoints
 62
     0
100
AcDbPoint
 10
151.1882066629161
 20
332.8613905059735
 30
0.0
  0
POINT
  5
3004
330
2DAE
100
AcDbEntity
  8
Defpoints
 62
     0
100
AcDbPoint
 10
167.3804762960369
 20
272.8613905059736
 30
0.0
  0
POINT
  5
3005
330
2DAE
100
AcDbEntity
  8
Defpoints
 62
     0
100
AcDbPoint
 10
135.7982282993255
 20
272.8613905059736
 30
0.0
  0
ENDBLK
  5
2DB9
330
2DAE
100
AcDbEntity
  8
0
100
AcDbBlockEnd
  0
BLOCK
  5
2DC5
330
2DBB
100
AcDbEntity
  8
0
100
AcDbBlockBegin
  2
*D4
 70
     1
 10
0.0
 20
0.0
 30
0.0
  3
*D4
  1

  0
LINE
  5
2FF4
330
2DBB
100
AcDbEntity
  8
BEM
 62
     0
370
    -2
100
AcDbLine
 10
215.6882066629162
 20
376.8613905059737
 30
0.0
 11
118.3176375787991
 21
376.8613905059737
 31
0.0
  0
LINE
  5
2FF5
330
2DBB
100
AcDbEntity
  8
BEM
 62
     0
370
    -2
100
AcDbLine
 10
165.3804762960369
 20
272.8613905059736
 30
0.0
 11
118.3176375787991
 21
272.8613905059737
 31
0.0
  0
LINE
  5
2FF6
330
2DBB
100
AcDbEntity
  8
BEM
 62
     0
370
    -2
100
AcDbLine
 10
120.3176375787991
 20
369.8613905059737
 30
0.0
 11
120.3176375787991
 21
279.8613905059736
 31
0.0
  0
SOLID
  5
2FF7
330
2DBB
100
AcDbEntity
  8
BEM
 62
     0
100
AcDbTrace
 10
119.1509709121325
 20
369.8613905059737
 30
0.0
 11
121.4843042454658
 21
369.8613905059737
 31
0.0
 12
120.3176375787991
 22
376.8613905059737
 32
0.0
 13
120.3176375787991
 23
376.8613905059737
 33
0.0
  0
SOLID
  5
2FF8
330
2DBB
100
AcDbEntity
  8
BEM
 62
     0
100
AcDbTrace
 10
119.1509709121324
 20
279.8613905059736
 30
0.0
 11
121.4843042454658
 21
279.8613905059736
 31
0.0
 12
120.3176375787991
 22
272.8613905059737
 32
0.0
 13
120.3176375787991
 23
272.8613905059737
 33
0.0
  0
MTEXT
  5
2FF9
330
2DBB
100
AcDbEntity
  8
BEM
 62
     1
100
AcDbMText
 10
113.8176375787991
 20
324.8613905059737
 30
0.0
 40
7.0
 41
0.0
 71
     5
 72
     1
  1
\A1;104
 11
0.0000000000000001
 21
1.0
 31
0.0
 73
     1
 44
1.0
  0
POINT
  5
2FFA
330
2DBB
100
AcDbEntity
  8
Defpoints
 62
     0
100
AcDbPoint
 10
217.6882066629162
 20
376.8613905059737
 30
0.0
  0
POINT
  5
2FFB
330
2DBB
100
AcDbEntity
  8
Defpoints
 62
     0
100
AcDbPoint
 10
167.3804762960369
 20
272.8613905059736
 30
0.0
  0
POINT
  5
2FFC
330
2DBB
100
AcDbEntity
  8
Defpoints
 62
     0
100
AcDbPoint
 10
120.3176375787991
 20
272.8613905059737
 30
0.0
  0
ENDBLK
  5
2DC6
330
2DBB
100
AcDbEntity
  8
0
100
AcDbBlockEnd
  0
BLOCK
  5
2E16
330
2E0C
100
AcDbEntity
  8
0
100
AcDbBlockBegin
  2
*D5
 70
     1
 10
0.0
 20
0.0
 30
0.0
  3
*D5
  1

  0
LINE
  5
2FEB
330
2E0C
100
AcDbEntity
  8
BEM
 62
     0
370
    -2
100
AcDbLine
 10
215.7563550103381
 20
377.3790285961788
 30
0.0
 11
128.6154004307127
 21
400.7283770034664
 31
0.0
  0
LINE
  5
2FEC
330
2E0C
100
AcDbEntity
  8
BEM
 62
     0
370
    -2
100
AcDbLine
 10
178.4394682527771
 20
495.0467810295596
 30
0.0
 11
155.5325811213748
 21
501.1846629375297
 31
0.0
  0
LINE
  5
2FED
330
2E0C
100
AcDbEntity
  8
BEM
 62
     0
370
    -2
100
AcDbLine
 10
132.3589853990085
 20
406.9722196972849
 30
0.0
 11
155.6526994582353
 21
493.9055440633011
 31
0.0
  0
SOLID
  5
2FEE
330
2E0C
100
AcDbEntity
  8
BEM
 62
     0
100
AcDbTrace
 10
131.2320719350046
 20
407.2741752499045
 30
0.0
 11
133.4858988630124
 21
406.6702641446652
 31
0.0
 12
130.5472520832909
 22
400.2107389132614
 32
0.0
 13
130.5472520832909
 23
400.2107389132614
 33
0.0
  0
SOLID
  5
2FEF
330
2E0C
100
AcDbEntity
  8
BEM
 62
     0
100
AcDbTrace
 10
154.5257859942314
 20
494.2074996159207
 30
0.0
 11
156.7796129222393
 21
493.6035885106815
 31
0.0
 12
157.464432773953
 22
500.6670248473247
 32
0.0
 13
157.464432773953
 23
500.6670248473247
 33
0.0
  0
MTEXT
  5
2FF0
330
2E0C
100
AcDbEntity
  8
BEM
 62
     1
100
AcDbMText
 10
137.727324557743
 20
452.1212056734593
 30
0.0
 40
7.0
 41
0.0
 71
     5
 72
     1
  1
\A1;104
 11
0.2588190451025203
 21
0.9659258262890684
 31
0.0
 73
     1
 44
1.0
  0
POINT
  5
2FF1
330
2E0C
100
AcDbEntity
  8
Defpoints
 62
     0
100
AcDbPoint
 10
217.6882066629162
 20
376.8613905059737
 30
0.0
  0
POINT
  5
2FF2
330
2E0C
100
AcDbEntity
  8
Defpoints
 62
     0
100
AcDbPoint
 10
180.3713199053552
 20
494.5291429393545
 30
0.0
  0
POINT
  5
2FF3
330
2E0C
100
AcDbEntity
  8
Defpoints
 62
     0
100
AcDbPoint
 10
157.464432773953
 20
500.6670248473247
 30
0.0
  0
ENDBLK
  5
2E17
330
2E0C
100
AcDbEntity
  8
0
100
AcDbBlockEnd
  0
BLOCK
  5
2E26
330
2E19
100
AcDbEntity
  8
0
100
AcDbBlockBegin
  2
*D6
 70
     1
 10
0.0
 20
0.0
 30
0.0
  3
*D6
  1

  0
LINE
  5
3012
330
2E19
100
AcDbEntity
  8
BEM
 62
     0
370
    -2
100
AcDbLine
 10
246.4171206692959
 20
484.07915722406
 30
0.0
 11
251.2232998532362
 21
502.0160621288049
 31
0.0
  0
LINE
  5
3013
330
2E19
100
AcDbEntity
  8
BEM
 62
     0
370
    -2
100
AcDbLine
 10
217.6882066629162
 20
378.8613905059737
 30
0.0
 11
217.6882066629161
 21
506.4310409041367
 31
0.0
  0
ARC
  5
3014
330
2E19
100
AcDbEntity
  8
BEM
 62
     0
370
    -2
100
AcDbCircle
 10
217.6882066629162
 20
376.8613905059737
 30
0.0
 40
127.569650398163
100
AcDbArc
 50
78.14432773729667
 51
86.85567226270336
  0
SOLID
  5
3015
330
2E19
100
AcDbEntity
  8
BEM
 62
     0
100
AcDbTrace
 10
244.1679434487912
 20
502.8445275512677
 30
0.0
 11
243.6260956576557
 21
500.5749801479984
 31
0.0
 12
250.7056617630312
 22
500.0842104762268
 32
0.0
 13
250.7056617630312
 23
500.0842104762268
 33
0.0
  0
SOLID
  5
3016
330
2E19
100
AcDbEntity
  8
BEM
 62
     0
100
AcDbTrace
 10
224.6535629408321
 20
503.072761465727
 30
0.0
 11
224.7175802571858
 21
505.4052164444245
 31
0.0
 12
217.6882066629161
 22
504.4310409041367
 32
0.0
 13
217.6882066629161
 23
504.4310409041367
 33
0.0
  0
MTEXT
  5
3017
330
2E19
100
AcDbEntity
  8
BEM
 62
     1
100
AcDbMText
 10
235.3837060080643
 20
509.7581190616891
 30
0.0
 40
7.0
 41
0.0
 71
     5
 72
     1
  1
\A1;15°
 11
0.9912513992617702
 21
-0.1319873609918105
 31
0.0
 73
     1
 44
1.0
  0
POINT
  5
3018
330
2E19
100
AcDbEntity
  8
Defpoints
 62
     0
100
AcDbPoint
 10
228.8066342954271
 20
503.9455998700412
 30
0.0
  0
POINT
  5
3019
330
2E19
100
AcDbEntity
  8
Defpoints
 62
     0
100
AcDbPoint
 10
217.6882066629163
 20
267.8613905059735
 30
0.0
  0
POINT
  5
301A
330
2E19
100
AcDbEntity
  8
Defpoints
 62
     0
100
AcDbPoint
 10
217.6882066629162
 20
376.8613905059737
 30
0.0
  0
POINT
  5
301B
330
2E19
100
AcDbEntity
  8
Defpoints
 62
     0
100
AcDbPoint
 10
245.8994825790909
 20
482.1473055714819
 30
0.0
  0
POINT
  5
301C
330
2E19
100
AcDbEntity
  8
Defpoints
 62
     0
100
AcDbPoint
 10
217.6882066629162
 20
376.8613905059737
 30
0.0
  0
ENDBLK
  5
2E27
330
2E19
100
AcDbEntity
  8
0
100
AcDbBlockEnd
  0
ENDSEC
  0
SECTION
  2
ENTITIES
  0
LINE
  5
57
330
1E
100
AcDbEntity
  8
STEMPEL
100
AcDbLine
 10
410.0
 20
110.0
 30
0.0
 11
39.99999999999997
 21
110.0
 31
0.0
  0
LINE
  5
58
330
1E
100
AcDbEntity
  8
STEMPEL
100
AcDbLine
 10
146.0000000000001
 20
109.9999999999999
 30
0.0
 11
146.0
 21
9.999999999999971
 31
0.0
  0
LINE
  5
59
330
1E
100
AcDbEntity
  8
STEMPEL
100
AcDbLine
 10
230.0
 20
110.0
 30
0.0
 11
230.0
 21
9.999999999999971
 31
0.0
  0
LINE
  5
5A
330
1E
100
AcDbEntity
  8
STEMPEL
100
AcDbLine
 10
332.0
 20
109.9999999999997
 30
0.0
 11
332.0
 21
40.0
 31
0.0
  0
LINE
  5
5B
330
1E
100
AcDbEntity
  8
STEMPEL
100
AcDbLine
 10
145.9999999999999
 20
29.99999999999997
 30
0.0
 11
39.99999999999997
 21
29.99999999999997
 31
0.0
  0
LINE
  5
5C
330
1E
100
AcDbEntity
  8
STEMPEL
100
AcDbLine
 10
410.0
 20
40.0
 30
0.0
 11
146.0000000000001
 21
39.99999999999997
 31
0.0
  0
LINE
  5
5D
330
1E
100
AcDbEntity
  8
STEMPEL
100
AcDbLine
 10
410.0
 20
80.0
 30
0.0
 11
146.0000000000001
 21
79.99999999999994
 31
0.0
  0
LINE
  5
5E
330
1E
100
AcDbEntity
  8
VOLL
100
AcDbLine
 10
54.00000000000009
 20
110.0
 30
0.0
 11
53.99999999999997
 21
9.999999999999971
 31
0.0
  0
LINE
  5
5F
330
1E
100
AcDbEntity
  8
VOLL
100
AcDbLine
 10
104.0000000000001
 20
109.9999999999999
 30
0.0
 11
104.0
 21
9.999999999999971
 31
0.0
  0
LINE
  5
60
330
1E
100
AcDbEntity
  8
VOLL
100
AcDbLine
 10
124.0000000000001
 20
109.9999999999999
 30
0.0
 11
124.0
 21
9.999999999999971
 31
0.0
  0
LINE
  5
61
330
1E
100
AcDbEntity
  8
VOLL
100
AcDbLine
 10
164.0000000000001
 20
79.99999999999994
 30
0.0
 11
164.0000000000001
 21
39.99999999999997
 31
0.0
  0
LINE
  5
62
330
1E
100
AcDbEntity
  8
VOLL
100
AcDbLine
 10
190.0000000000001
 20
109.9999999999998
 30
0.0
 11
190.0
 21
39.99999999999997
 31
0.0
  0
LINE
  5
63
330
1E
100
AcDbEntity
  8
HILF
100
AcDbLine
 10
40.00000000000008
 20
100.0
 30
0.0
 11
146.0000000000001
 21
100.0
 31
0.0
  0
LINE
  5
64
330
1E
100
AcDbEntity
  8
HILF
100
AcDbLine
 10
40.00000000000008
 20
90.00000000000005
 30
0.0
 11
146.0000000000001
 21
90.00000000000005
 31
0.0
  0
LINE
  5
65
330
1E
100
AcDbEntity
  8
HILF
100
AcDbLine
 10
40.00000000000008
 20
79.99999999999994
 30
0.0
 11
146.0000000000001
 21
79.99999999999994
 31
0.0
  0
LINE
  5
66
330
1E
100
AcDbEntity
  8
HILF
100
AcDbLine
 10
40.00000000000008
 20
69.99999999999994
 30
0.0
 11
146.0000000000001
 21
69.99999999999994
 31
0.0
  0
LINE
  5
67
330
1E
100
AcDbEntity
  8
HILF
100
AcDbLine
 10
40.00000000000008
 20
59.99999999999997
 30
0.0
 11
146.0000000000001
 21
59.99999999999997
 31
0.0
  0
LINE
  5
68
330
1E
100
AcDbEntity
  8
HILF
100
AcDbLine
 10
40.00000000000008
 20
49.99999999999997
 30
0.0
 11
146.0000000000001
 21
49.99999999999997
 31
0.0
  0
LINE
  5
69
330
1E
100
AcDbEntity
  8
HILF
100
AcDbLine
 10
40.00000000000008
 20
39.99999999999997
 30
0.0
 11
146.0000000000001
 21
39.99999999999997
 31
0.0
  0
LINE
  5
6A
330
1E
100
AcDbEntity
  8
HILF
100
AcDbLine
 10
146.0000000000001
 20
69.99999999999994
 30
0.0
 11
230.0
 21
69.99999999999994
 31
0.0
  0
LINE
  5
6B
330
1E
100
AcDbEntity
  8
HILF
100
AcDbLine
 10
146.0000000000001
 20
59.99999999999997
 30
0.0
 11
230.0
 21
59.99999999999997
 31
0.0
  0
LINE
  5
6C
330
1E
100
AcDbEntity
  8
HILF
100
AcDbLine
 10
146.0000000000001
 20
49.99999999999997
 30
0.0
 11
230.0
 21
49.99999999999997
 31
0.0
  0
LINE
  5
6D
330
1E
100
AcDbEntity
  8
HILF
100
AcDbLine
 10
234.7736801096947
 20
84.03758247564139
 30
0.0
 11
324.8353916556311
 21
84.03758247564139
 31
0.0
  0
LINE
  5
6E
330
1E
100
AcDbEntity
  8
HILF
100
AcDbLine
 10
234.7736801096947
 20
69.99999999999994
 30
0.0
 11
324.835391655631
 21
69.99999999999994
 31
0.0
  0
LINE
  5
6F
330
1E
100
AcDbEntity
  8
HILF
100
AcDbLine
 10
234.7736801096947
 20
59.99999999999997
 30
0.0
 11
324.835391655631
 21
59.99999999999997
 31
0.0
  0
LINE
  5
70
330
1E
100
AcDbEntity
  8
HILF
100
AcDbLine
 10
234.7736801096947
 20
49.99999999999997
 30
0.0
 11
324.835391655631
 21
49.99999999999997
 31
0.0
  0
LINE
  5
71
330
1E
100
AcDbEntity
  8
VOLL
100
AcDbLine
 10
332.0
 20
60.0
 30
0.0
 11
410.0
 21
60.0
 31
0.0
  0
LINE
  5
72
330
1E
100
AcDbEntity
  8
HILF
100
AcDbLine
 10
336.7238616296993
 20
83.77983636955827
 30
0.0
 11
404.8588839326728
 21
83.77983636955827
 31
0.0
  0
LINE
  5
73
330
1E
100
AcDbEntity
  8
HILF
100
AcDbLine
 10
233.4909699289885
 20
14.89398258028314
 30
0.0
 11
404.8588839326728
 21
14.89398258028314
 31
0.0
  0
TEXT
  5
74
330
1E
100
AcDbEntity
  8
TEXT
100
AcDbText
 10
67.79509897490102
 20
18.67381894984132
 30
0.0
 40
4.0
  1
Änderung
 41
0.8
  7
GREEKS
 72
     1
 11
78.53795611775817
 21
18.67381894984132
 31
0.0
100
AcDbText
  0
TEXT
  5
75
330
1E
100
AcDbEntity
  8
TEXT
100
AcDbText
 10
153.5163572150377
 20
102.4620895087088
 30
0.0
 40
5.0
  1
Maßstab
 41
0.8
  7
GREEKS
100
AcDbText
  0
TEXT
  5
76
330
1E
100
AcDbEntity
  8
TEXT
100
AcDbText
 10
194.2858954734051
 20
102.4184168434819
 30
0.0
 40
5.0
  1
Zul. Abw.
 41
0.8
  7
GREEKS
100
AcDbText
  0
TEXT
  5
77
330
1E
100
AcDbEntity
  8
TEXT
100
AcDbText
 10
234.877940380901
 20
102.5489328011779
 30
0.0
 40
5.0
  1
Benennung
 41
0.8
  7
GREEKS
100
AcDbText
  0
TEXT
  5
78
330
1E
100
AcDbEntity
  8
TEXT
100
AcDbText
 10
336.178754957634
 20
102.3132034537136
 30
0.0
 40
5.0
  1
Zeichnungs Nr.
 41
0.8
  7
GREEKS
100
AcDbText
  0
TEXT
  5
79
330
1E
100
AcDbEntity
  8
TEXT
100
AcDbText
 10
234.742238391136
 20
30.84560570193057
 30
0.0
 40
5.0
  1
Bauvorhaben
 41
0.8
  7
GREEKS
100
AcDbText
  0
TEXT
  5
7A
330
1E
100
AcDbEntity
  8
TEXT
100
AcDbText
 10
336.7238616296993
 20
73.1811823709997
 30
0.0
 40
5.0
  1
Ersatz für:
 41
0.8
  7
GREEKS
100
AcDbText
  0
TEXT
  5
7B
330
1E
100
AcDbEntity
  8
TEXT
100
AcDbText
 10
48.26641107045756
 20
13.65465846027192
 30
0.0
 40
4.0
  1
Index
 50
90.0
 41
0.8
  7
GREEKS
100
AcDbText
  0
TEXT
  5
7C
330
1E
100
AcDbEntity
  8
TEXT
100
AcDbText
 10
110.6986119235389
 20
18.6715626933981
 30
0.0
 40
4.0
  1
Tag
 41
0.8
  7
GREEKS
 72
     1
 11
114.4319452568723
 21
18.6715626933981
 31
0.0
100
AcDbText
  0
TEXT
  5
7D
330
1E
100
AcDbEntity
  8
TEXT
100
AcDbText
 10
129.0122744386592
 20
18.59324216966408
 30
0.0
 40
4.0
  1
Name
 41
0.8
  7
GREEKS
 72
     1
 11
135.3360839624688
 21
18.59324216966408
 31
0.0
100
AcDbText
  0
TEXT
  5
7E
330
1E
100
AcDbEntity
  8
TEXT
100
AcDbText
 10
172.331167315365
 20
73.31880501229926
 30
0.0
 40
4.0
  1
Tag
 41
0.8
  7
GREEKS
100
AcDbText
  0
TEXT
  5
7F
330
1E
100
AcDbEntity
  8
TEXT
100
AcDbText
 10
202.4626584226295
 20
73.30961091915225
 30
0.0
 40
4.0
  1
Name
 41
0.8
  7
GREEKS
100
AcDbText
  0
TEXT
  5
80
330
1E
100
AcDbEntity
  8
TEXT
100
AcDbText
 10
147.5836127167615
 20
63.62990369617964
 30
0.0
 40
4.0
  1
Gez.
 41
0.8
  7
GREEKS
100
AcDbText
  0
TEXT
  5
81
330
1E
100
AcDbEntity
  8
TEXT
100
AcDbText
 10
147.5515086571672
 20
53.68926291428377
 30
0.0
 40
4.0
  1
Gepr.
 41
0.8
  7
GREEKS
100
AcDbText
  0
TEXT
  5
82
330
1E
100
AcDbEntity
  8
TEXT
100
AcDbText
 10
147.6006777387303
 20
43.52946389649807
 30
0.0
 40
4.0
  1
Norm.
 41
0.8
  7
GREEKS
100
AcDbText
  0
LINE
  5
83
330
1E
100
AcDbEntity
  8
STEMPEL
100
AcDbLine
 10
49.99999999999989
 20
10.0
 30
0.0
 11
410.0
 21
10.0
 31
0.0
  0
TEXT
  5
84
330
1E
100
AcDbEntity
  8
TEXT
100
AcDbText
 10
337.2400861497006
 20
52.07416177878602
 30
0.0
 40
5.0
  1
ersetzt durch:
 41
0.8
  7
GREEKS
100
AcDbText
  0
LINE
  5
85
330
1E
100
AcDbEntity
  8
STEMPEL
100
AcDbLine
 10
410.0
 20
10.0
 30
0.0
 11
39.99999999999989
 21
10.0
 31
0.0
  0
LINE
  5
86
330
1E
100
AcDbEntity
  8
STEMPEL
100
AcDbLine
 10
410.0
 20
10.0
 30
0.0
 11
410.0
 21
584.0
 31
0.0
  0
LINE
  5
87
330
1E
100
AcDbEntity
  8
STEMPEL
100
AcDbLine
 10
40.0
 20
10.0
 30
0.0
 11
39.99999999999989
 21
584.0
 31
0.0
  0
LINE
  5
88
330
1E
100
AcDbEntity
  8
STEMPEL
100
AcDbLine
 10
410.0
 20
584.0
 30
0.0
 11
39.99999999999989
 21
584.0
 31
0.0
  0
LINE
  5
89
330
1E
100
AcDbEntity
  8
HILF
100
AcDbLine
 10
0.0
 20
0.0
 30
0.0
 11
-0.0000000000001137
 21
594.0
 31
0.0
  0
LINE
  5
8A
330
1E
100
AcDbEntity
  8
HILF
100
AcDbLine
 10
419.9999999999999
 20
594.0000000000002
 30
0.0
 11
0.0
 21
594.0
 31
0.0
  0
LINE
  5
8B
330
1E
100
AcDbEntity
  8
HILF
100
AcDbLine
 10
420.0
 20
0.0
 30
0.0
 11
0.0
 21
0.0
 31
0.0
  0
LINE
  5
8C
330
1E
100
AcDbEntity
  8
HILF
100
AcDbLine
 10
31.08767135713856
 20
297.0
 30
0.0
 11
0.0000000000001137
 21
297.0
 31
0.0
  0
LINE
  5
8E
330
1E
100
AcDbEntity
  8
HILF
100
AcDbLine
 10
420.0
 20
-0.0000000000001137
 30
0.0
 11
419.9999999999999
 21
594.0
 31
0.0
  0
TEXT
  5
8F
330
1E
100
AcDbEntity
  8
VOLL
100
AcDbText
 10
78.07675471698113
 20
31.02594776470585
 30
0.0
 40
1.8
  1

  7
GREEKS
100
AcDbText
  0
TEXT
  5
90
330
1E
100
AcDbEntity
  8
TEXT
100
AcDbText
 10
41.85509950977674
 20
111.6719999999999
 30
0.0
 40
5.0
  1
Erstellt mit AUTOCAD 2004
 41
0.8
  7
GREEKS
100
AcDbText
  0
TEXT
  5
91
330
1E
100
AcDbEntity
  8
TEXT
100
AcDbText
 10
204.4216048581257
 20
63.0896391972351
 30
0.0
 40
4.0
  1
Koeh
 41
0.8
  7
GREEKS
 72
     1
 11
209.6787477152686
 21
63.0896391972351
 31
0.0
100
AcDbText
  0
TEXT
  5
92
330
1E
100
AcDbEntity
  8
TEXT
 62
     1
100
AcDbText
 10
347.3097540684081
 20
88.14901428913959
 30
0.0
 40
7.0
  1
58034100W
 41
0.8
  7
GREEKS
 72
     1
 11
370.7764207350748
 21
88.14901428913959
 31
0.0
100
AcDbText
  0
TEXT
  5
93
330
1E
100
AcDbEntity
  8
TEXT
 62
     1
100
AcDbText
 10
160.5006306481887
 20
88.14901428913959
 30
0.0
 40
7.0
  1
1:2
 41
0.8
  7
GREEKS
100
AcDbText
  0
TEXT
  5
95
330
1E
100
AcDbEntity
  8
TEXT
 62
     1
100
AcDbText
 10
236.8935731057402
 20
87.41748789253779
 30
0.0
 40
7.0
  1
Verbundrohr DN100
 41
0.8
  7
GREEKS
100
AcDbText
  0
TEXT
  5
98
330
1E
100
AcDbEntity
  8
TEXT
100
AcDbText
 10
235.1296391125315
 20
51.64011943042158
 30
0.0
 40
5.0
  1
EDV-Art.Nr. 58034.100X
 41
0.8
  7
GREEKS
100
AcDbText
  0
TEXT
  5
99
330
1E
100
AcDbEntity
  8
TEXT
100
AcDbText
 10
234.9837501577827
 20
42.62974153022632
 30
0.0
 40
4.0
  1
58034100W.DWG
 41
0.8
  7
GREEKS
100
AcDbText
  0
TEXT
  5
9A
330
1E
100
AcDbEntity
  8
TEXT
100
AcDbText
 10
192.626132208084
 20
90.76363841023022
 30
0.0
 40
4.0
  1
DIN EN1123-2
 41
0.8
  7
GREEKS
 72
     1
 11
209.6166083985602
 21
90.76363841023022
 31
0.0
100
AcDbText
  0
INSERT
  5
9B
330
1E
100
AcDbEntity
  8
STEMPEL
100
AcDbBlockReference
  2
LOGO
 10
150.9955485457794
 20
45.02105276448322
 30
0.0
 41
2.0
 42
2.0
 43
2.0
  0
TEXT
  5
2C0
330
1E
100
AcDbEntity
  8
BEM
100
AcDbText
 10
417.3022923857165
 20
10.16790107998861
 30
0.0
 40
4.0
  1
Diese Zeichnung ist urheberrechtlich geschützt und bleibt unser Eigentum. Sie darf weder ganz noch teilweise verfielfältigt und nicht an Dritte weitergegeben werden.
 50
90.0
 41
0.8
  7
GREEKS
100
AcDbText
  0
TEXT
  5
77A
330
1E
100
AcDbEntity
  8
TEXT
100
AcDbText
 10
235.1296391125315
 20
71.64011943042154
 30
0.0
 40
5.0
  1
Bogen 15°
 41
0.8
  7
GREEKS
100
AcDbText
  0
TEXT
  5
78C
330
1E
100
AcDbEntity
  8
TEXT
 62
     1
100
AcDbText
 10
255.030129115258
 20
129.7422179729062
 30
0.0
 40
7.0
  1
und innenbeschichtet
 41
0.8
  7
GREEKS
100
AcDbText
  0
TEXT
  5
78D
330
1E
100
AcDbEntity
  8
TEXT
 62
     1
100
AcDbText
 10
203.0317247605451
 20
117.1473825875242
 30
0.0
 40
7.0
  1
Dämmung: 2 K-PU-Schaum
 41
0.8
  7
GREEKS
100
AcDbText
  0
TEXT
  5
78E
330
1E
100
AcDbEntity
  8
TEXT
 62
     1
100
AcDbText
 10
207.3756002392443
 20
141.011271812132
 30
0.0
 40
7.0
  1
Innenrohr: E195 EN10305 feuerverzinkt
 41
0.8
  7
GREEKS
100
AcDbText
  0
TEXT
  5
78F
330
1E
100
AcDbEntity
  8
TEXT
 62
     1
100
AcDbText
 10
203.6033828683802
 20
152.364339848487
 30
0.0
 40
7.0
  1
Außenrohr: E195 EN10305 feuerverzinkt
 41
0.8
  7
GREEKS
100
AcDbText
  0
TEXT
  5
1E90
330
1E
100
AcDbEntity
  8
TEXT
 62
     1
100
AcDbText
 10
269.3968606696117
 20
207.5698074149157
 30
0.0
 40
7.0
  1
Rohrende leicht eingezogen
 41
0.8
  7
GREEKS
100
AcDbText
  0
TEXT
  5
2798
330
1E
100
AcDbEntity
  8
VOLL
100
AcDbText
 10
269.0122540567622
 20
430.9440564166676
 30
0.0
 40
7.0
  1
DN100
 50
74.99999999999883
 41
0.8
  7
GREEKS
100
AcDbText
  0
LINE
  5
2C5E
330
1E
100
AcDbEntity
  8
MITTEL
100
AcDbLine
 10
217.6882066629163
 20
267.8613905059735
 30
0.0
 11
217.6882066629162
 21
376.8613905059737
 31
0.0
  0
LINE
  5
2C5F
330
1E
100
AcDbEntity
  8
MITTEL
100
AcDbLine
 10
217.6882066629162
 20
376.8613905059737
 30
0.0
 11
245.8994825790909
 21
482.1473055714818
 31
0.0
  0
LINE
  5
2C62
102
{ACAD_REACTORS
330
2E59
102
}
330
1E
100
AcDbEntity
  8
STEMPEL
100
AcDbLine
 10
267.9959370297957
 20
272.8613905059735
 30
0.0
 11
167.3804762960369
 21
272.8613905059736
 31
0.0
  0
LINE
  5
2C96
330
1E
100
AcDbEntity
  8
HILF
100
AcDbLine
 10
179.9356215579687
 20
418.9825695063868
 30
0.0
 11
271.4434939225415
 21
394.4631090052094
 31
0.0
  0
LINE
  5
2C97
330
1E
100
AcDbEntity
  8
HILF
100
AcDbLine
 10
275.8849544839825
 20
399.6701515082975
 30
0.0
 11
178.6927251333981
 21
425.712730873367
 31
0.0
  0
LINE
  5
2C98
330
1E
100
AcDbEntity
  8
HILF
100
AcDbLine
 10
183.5696345213249
 20
447.8862589037783
 30
0.0
 11
282.7481910772887
 21
421.3114447681234
 31
0.0
  0
LINE
  5
2C99
102
{ACAD_REACTORS
330
2E59
330
2E9D
102
}
330
1E
100
AcDbEntity
  8
STEMPEL
100
AcDbLine
 10
170.811181681939
 20
398.9628201322612
 30
0.0
 11
269.335615963424
 21
372.563277531804
 31
0.0
  0
LINE
  5
2C9A
102
{ACAD_REACTORS
330
2E6B
330
2E9D
330
2F05
102
}
330
1E
100
AcDbEntity
  8
STEMPEL
100
AcDbLine
 10
180.3713199053553
 20
494.5291429393545
 30
0.0
 11
308.8394548018014
 21
460.1062099407188
 31
0.0
  0
LINE
  5
2C9C
102
{ACAD_REACTORS
330
2E9D
102
}
330
1E
100
AcDbEntity
  8
STEMPEL
100
AcDbLine
 10
272.2567075024183
 20
391.1923461792027
 30
0.0
 11
267.4037643108459
 21
373.0809156220091
 31
0.0
  0
LINE
  5
2C9D
102
{ACAD_REACTORS
330
2E9D
330
2EBE
330
2F30
102
}
330
1E
100
AcDbEntity
  8
STEMPEL
100
AcDbLine
 10
274.1885591549964
 20
390.6747080889976
 30
0.0
 11
269.3356159634241
 21
372.5632775318041
 31
0.0
  0
LINE
  5
2C9E
102
{ACAD_REACTORS
330
2E9D
102
}
330
1E
100
AcDbEntity
  8
STEMPEL
100
AcDbLine
 10
283.5054996033698
 20
417.718596603108
 30
0.0
 11
279.4750890458124
 21
402.6768996269421
 31
0.0
  0
LINE
  5
2C9F
102
{ACAD_REACTORS
330
2E9D
330
2F30
102
}
330
1E
100
AcDbEntity
  8
STEMPEL
100
AcDbLine
 10
285.4374031571075
 20
417.2011522106672
 30
0.0
 11
281.4069406983906
 21
402.1592615367371
 31
0.0
  0
LINE
  5
2CA0
102
{ACAD_REACTORS
330
2E9D
102
}
330
1E
100
AcDbEntity
  8
STEMPEL
100
AcDbLine
 10
296.400809714758
 20
450.3897358975406
 30
0.0
 11
291.700073891386
 21
432.8463509717571
 31
0.0
  0
LINE
  5
2CA1
102
{ACAD_REACTORS
330
2E9D
330
2F05
330
2F30
102
}
330
1E
100
AcDbEntity
  8
STEMPEL
100
AcDbLine
 10
298.3326613673362
 20
449.8720978073357
 30
0.0
 11
293.6319774451238
 21
432.3289065793164
 31
0.0
  0
LINE
  5
2CA2
102
{ACAD_REACTORS
330
2E9D
102
}
330
1E
100
AcDbEntity
  8
STEMPEL
100
AcDbLine
 10
296.2824190600436
 20
463.4708575270519
 30
0.0
 11
296.8350940293901
 21
460.3364820212381
 31
0.0
  0
LINE
  5
2CA3
102
{ACAD_REACTORS
330
2E9D
330
2F05
102
}
330
1E
100
AcDbEntity
  8
STEMPEL
100
AcDbLine
 10
298.4139815162095
 20
462.8997070883055
 30
0.0
 11
298.8047095354147
 21
460.6837783765715
 31
0.0
  0
ARC
  5
2CA4
102
{ACAD_REACTORS
330
2E9D
330
2F30
102
}
330
1E
100
AcDbEntity
  8
STEMPEL
100
AcDbCircle
 10
281.9159657653089
 20
388.6041557281775
 30
0.0
 40
8.0
100
AcDbArc
 50
130.6988472432076
 51
165.0
  0
ARC
  5
2CA5
102
{ACAD_REACTORS
330
2E9D
102
}
330
1E
100
AcDbEntity
  8
STEMPEL
100
AcDbCircle
 10
281.9159657653089
 20
388.6041557281775
 30
0.0
 40
10.0
100
AcDbArc
 50
130.6988472432076
 51
165.0
  0
ARC
  5
2CA6
102
{ACAD_REACTORS
330
2E9D
102
}
330
1E
100
AcDbEntity
  8
STEMPEL
100
AcDbCircle
 10
266.9180533040545
 20
406.0415472132749
 30
0.0
 40
13.0
100
AcDbArc
 50
310.6988472432076
 51
345.0
  0
ARC
  5
2CA7
102
{ACAD_REACTORS
330
2E9D
330
2F30
102
}
330
1E
100
AcDbEntity
  8
STEMPEL
100
AcDbCircle
 10
266.9180533040545
 20
406.0415472132749
 30
0.0
 40
15.0
100
AcDbArc
 50
310.6988472432076
 51
345.0
  0
ARC
  5
2CA8
102
{ACAD_REACTORS
330
2E9D
330
2F30
102
}
330
1E
100
AcDbEntity
  8
STEMPEL
100
AcDbCircle
 10
297.0285130725762
 20
414.095323669437
 30
0.0
 40
12.0
100
AcDbArc
 50
138.1119523822754
 51
165.0
  0
ARC
  5
2CA9
102
{ACAD_REACTORS
330
2E9D
102
}
330
1E
100
AcDbEntity
  8
STEMPEL
100
AcDbCircle
 10
297.0284611714167
 20
414.0951299716727
 30
0.0
 40
14.0
100
AcDbArc
 50
138.1119523822754
 51
165.0
  0
ARC
  5
2CAA
102
{ACAD_REACTORS
330
2E9D
102
}
330
1E
100
AcDbEntity
  8
STEMPEL
100
AcDbCircle
 10
269.4837798867374
 20
438.7991890091152
 30
0.0
 40
23.0
100
AcDbArc
 50
318.1119523822754
 51
345.0
  0
ARC
  5
2CAB
102
{ACAD_REACTORS
330
2E9D
330
2F30
102
}
330
1E
100
AcDbEntity
  8
STEMPEL
100
AcDbCircle
 10
269.4838317878969
 20
438.7993827068795
 30
0.0
 40
25.0
100
AcDbArc
 50
318.1119523822754
 51
345.0
  0
ARC
  5
2CAC
102
{ACAD_REACTORS
330
2E9D
330
2F05
102
}
330
1E
100
AcDbEntity
  8
STEMPEL
100
AcDbCircle
 10
274.1845157101094
 20
456.3425739348986
 30
0.0
 40
25.0
100
AcDbArc
 50
345.0
 51
9.999999999999355
  0
ARC
  5
2CAD
102
{ACAD_REACTORS
330
2E9D
102
}
330
1E
100
AcDbEntity
  8
STEMPEL
100
AcDbCircle
 10
274.1845157101094
 20
456.3425739348986
 30
0.0
 40
23.0
100
AcDbArc
 50
345.0
 51
9.999999999999355
  0
ARC
  5
2CAE
102
{ACAD_REACTORS
330
2E9D
102
}
330
1E
100
AcDbEntity
  8
STEMPEL
100
AcDbCircle
 10
208.5015595224528
 20
473.9422690018701
 30
0.0
 40
23.0
100
AcDbArc
 50
140.0000000000006
 51
165.0
  0
ARC
  5
2CAF
102
{ACAD_REACTORS
330
2E9D
330
2F05
102
}
330
1E
100
AcDbEntity
  8
STEMPEL
100
AcDbCircle
 10
208.5015595224528
 20
473.9422690018701
 30
0.0
 40
25.0
100
AcDbArc
 50
140.0000000000006
 51
165.0
  0
ARC
  5
2CB0
102
{ACAD_REACTORS
330
2E9D
330
2F30
102
}
330
1E
100
AcDbEntity
  8
STEMPEL
100
AcDbCircle
 10
203.8008756002402
 20
456.3990777738509
 30
0.0
 40
25.0
100
AcDbArc
 50
165.0
 51
191.8880476177246
  0
ARC
  5
2CB1
102
{ACAD_REACTORS
330
2E9D
102
}
330
1E
100
AcDbEntity
  8
STEMPEL
100
AcDbCircle
 10
203.8008236990807
 20
456.3988840760866
 30
0.0
 40
23.0
100
AcDbArc
 50
165.0
 51
191.8880476177246
  0
ARC
  5
2CB2
102
{ACAD_REACTORS
330
2E9D
102
}
330
1E
100
AcDbEntity
  8
STEMPEL
100
AcDbCircle
 10
167.5944004486815
 20
448.7768820154105
 30
0.0
 40
14.0
100
AcDbArc
 50
345.0
 51
11.88804761772463
  0
ARC
  5
2CB3
102
{ACAD_REACTORS
330
2E9D
330
2F30
102
}
330
1E
100
AcDbEntity
  8
STEMPEL
100
AcDbCircle
 10
167.594452349841
 20
448.7770757131748
 30
0.0
 40
12.0
100
AcDbArc
 50
345.0
 51
11.88804761772463
  0
ARC
  5
2CB4
102
{ACAD_REACTORS
330
2E9D
330
2F30
102
}
330
1E
100
AcDbEntity
  8
STEMPEL
100
AcDbCircle
 10
189.643987200929
 20
426.7470708214765
 30
0.0
 40
15.0
100
AcDbArc
 50
165.0
 51
199.3011527567924
  0
ARC
  5
2CB5
102
{ACAD_REACTORS
330
2E9D
102
}
330
1E
100
AcDbEntity
  8
STEMPEL
100
AcDbCircle
 10
189.643987200929
 20
426.7470708214766
 30
0.0
 40
13.0
100
AcDbArc
 50
165.0
 51
199.3011527567924
  0
ARC
  5
2CB6
102
{ACAD_REACTORS
330
2E9D
102
}
330
1E
100
AcDbEntity
  8
STEMPEL
100
AcDbCircle
 10
167.9367182631988
 20
419.1448030502749
 30
0.0
 40
10.0
100
AcDbArc
 50
345.0
 51
19.3011527567924
  0
ARC
  5
2CB7
102
{ACAD_REACTORS
330
2E9D
330
2F30
102
}
330
1E
100
AcDbEntity
  8
STEMPEL
100
AcDbCircle
 10
167.9367182631988
 20
419.1448030502749
 30
0.0
 40
8.0
100
AcDbArc
 50
345.0
 51
19.3011527567924
  0
LINE
  5
2CB8
102
{ACAD_REACTORS
330
2E9D
330
2F05
102
}
330
1E
100
AcDbEntity
  8
STEMPEL
100
AcDbLine
 10
190.7967931909472
 20
491.7356457917677
 30
0.0
 11
189.350448444478
 21
490.0119592440331
 31
0.0
  0
LINE
  5
2CB9
102
{ACAD_REACTORS
330
2E9D
102
}
330
1E
100
AcDbEntity
  8
STEMPEL
100
AcDbLine
 10
192.9283556471132
 20
491.1644953530214
 30
0.0
 11
190.8825373307163
 21
488.7263840246605
 31
0.0
  0
LINE
  5
2CBA
102
{ACAD_REACTORS
330
2E9D
330
2F05
330
2F30
102
}
330
1E
100
AcDbEntity
  8
STEMPEL
100
AcDbLine
 10
184.3534138652261
 20
480.412745129433
 30
0.0
 11
179.6527299430136
 21
462.8695539014139
 31
0.0
  0
LINE
  5
2CBB
102
{ACAD_REACTORS
330
2E9D
102
}
330
1E
100
AcDbEntity
  8
STEMPEL
100
AcDbLine
 10
186.2852655178042
 20
479.895107039228
 30
0.0
 11
181.5845296944321
 21
462.3517221134445
 31
0.0
  0
LINE
  5
2CBC
102
{ACAD_REACTORS
330
2E9D
330
2F30
102
}
330
1E
100
AcDbEntity
  8
STEMPEL
100
AcDbLine
 10
179.1855622653099
 20
445.6712471719445
 30
0.0
 11
175.155099806593
 21
430.6293564980144
 31
0.0
  0
LINE
  5
2CBD
102
{ACAD_REACTORS
330
2E9D
102
}
330
1E
100
AcDbEntity
  8
STEMPEL
100
AcDbLine
 10
181.1173620167285
 20
445.1534153839752
 30
0.0
 11
177.0869514591712
 21
430.1117184078093
 31
0.0
  0
LINE
  5
2CBE
102
{ACAD_REACTORS
330
2E9D
330
2EBE
330
2F30
102
}
330
1E
100
AcDbEntity
  8
STEMPEL
100
AcDbLine
 10
175.6641248735114
 20
417.0742506894547
 30
0.0
 11
170.8111816819391
 21
398.9628201322612
 31
0.0
  0
LINE
  5
2CBF
102
{ACAD_REACTORS
330
2E9D
102
}
330
1E
100
AcDbEntity
  8
STEMPEL
100
AcDbLine
 10
177.5959765260895
 20
416.5566125992496
 30
0.0
 11
172.743033334517
 21
398.4451820420562
 31
0.0
  0
LINE
  5
2CC0
102
{ACAD_REACTORS
330
2E59
330
2F30
102
}
330
1E
100
AcDbEntity
  8
STEMPEL
100
AcDbLine
 10
166.6882066629161
 20
280.7740686201565
 30
0.0
 11
166.6882066629161
 21
367.6457156748561
 31
0.0
  0
LINE
  5
2CC1
102
{ACAD_REACTORS
330
2E59
330
2F30
102
}
330
1E
100
AcDbEntity
  8
STEMPEL
100
AcDbLine
 10
268.6882066629164
 20
280.7740686201556
 30
0.0
 11
268.6882066629162
 21
367.6457156748561
 31
0.0
  0
ARC
  5
2CC2
330
1E
100
AcDbEntity
  8
MITTEL
100
AcDbCircle
 10
287.6882066629163
 20
367.6457156748562
 30
0.0
 40
70.0
100
AcDbArc
 50
165.0
 51
180.0
  0
ARC
  5
2CC3
102
{ACAD_REACTORS
330
2E59
330
2EBE
330
2F30
102
}
330
1E
100
AcDbEntity
  8
STEMPEL
100
AcDbCircle
 10
287.6882066629163
 20
367.6457156748562
 30
0.0
 40
121.0
100
AcDbArc
 50
165.0
 51
180.0
  0
ARC
  5
2CC4
102
{ACAD_REACTORS
330
2E59
330
2EBE
330
2F30
102
}
330
1E
100
AcDbEntity
  8
STEMPEL
100
AcDbCircle
 10
287.6882066629163
 20
367.6457156748562
 30
0.0
 40
19.0
100
AcDbArc
 50
165.0
 51
180.0
  0
LINE
  5
2CC5
102
{ACAD_REACTORS
330
2E59
102
}
330
1E
100
AcDbEntity
  8
STEMPEL
100
AcDbLine
 10
266.6882066629164
 20
280.8613905059736
 30
0.0
 11
266.6882066629162
 21
367.6457156748561
 31
0.0
  0
ARC
  5
2CC6
102
{ACAD_REACTORS
330
2E59
102
}
330
1E
100
AcDbEntity
  8
STEMPEL
100
AcDbCircle
 10
287.6882066629163
 20
367.6457156748562
 30
0.0
 40
21.0
100
AcDbArc
 50
165.0
 51
180.0
  0
ARC
  5
2CC7
102
{ACAD_REACTORS
330
2E59
102
}
330
1E
100
AcDbEntity
  8
STEMPEL
100
AcDbCircle
 10
287.6882066629163
 20
367.6457156748562
 30
0.0
 40
119.0
100
AcDbArc
 50
165.0
 51
180.0
  0
LINE
  5
2CC8
102
{ACAD_REACTORS
330
2E59
102
}
330
1E
100
AcDbEntity
  8
STEMPEL
100
AcDbLine
 10
169.3881159711236
 20
272.8613905059736
 30
0.0
 11
168.6882066629161
 21
280.8613905059736
 31
0.0
  0
LINE
  5
2CC9
330
1E
100
AcDbEntity
  8
HILF
100
AcDbLine
 10
264.6805669878297
 20
280.8613905059736
 30
0.0
 11
170.6958463380028
 21
280.8613905059736
 31
0.0
  0
LINE
  5
2CCA
102
{ACAD_REACTORS
330
2E59
102
}
330
1E
100
AcDbEntity
  8
STEMPEL
100
AcDbLine
 10
168.6882066629161
 20
280.8613905059736
 30
0.0
 11
168.6882066629161
 21
367.6457156748561
 31
0.0
  0
LINE
  5
2CCC
102
{ACAD_REACTORS
330
2E59
102
}
330
1E
100
AcDbEntity
  8
STEMPEL
100
AcDbLine
 10
167.3804762960369
 20
272.8613905059736
 30
0.0
 11
166.6882066629161
 21
280.7740686201565
 31
0.0
  0
LINE
  5
2CCD
102
{ACAD_REACTORS
330
2E59
102
}
330
1E
100
AcDbEntity
  8
STEMPEL
100
AcDbLine
 10
267.9959370297956
 20
272.8613905059736
 30
0.0
 11
268.6882066629164
 21
280.7740686201565
 31
0.0
  0
LINE
  5
2CCF
102
{ACAD_REACTORS
330
2E59
102
}
330
1E
100
AcDbEntity
  8
STEMPEL
100
AcDbLine
 10
265.988297354709
 20
272.8613905059736
 30
0.0
 11
266.6882066629164
 21
280.8613905059736
 31
0.0
  0
LINE
  5
2CD8
330
1E
100
AcDbEntity
  8
STEMPEL
100
AcDbLine
 10
166.7317746823582
 20
338.8613905059735
 30
0.0
 11
161.6882066629161
 21
338.8613905059735
 31
0.0
  0
LINE
  5
2CD9
102
{ACAD_REACTORS
330
2F30
102
}
330
1E
100
AcDbEntity
  8
STEMPEL
100
AcDbLine
 10
153.6882066629162
 20
348.8613905059736
 30
0.0
 11
155.1882066629164
 21
350.3613905059735
 31
0.0
  0
LINE
  5
2CDA
102
{ACAD_REACTORS
330
2F30
102
}
330
1E
100
AcDbEntity
  8
STEMPEL
100
AcDbLine
 10
166.6882066629161
 20
350.3613905059734
 30
0.0
 11
155.1882066629164
 21
350.3613905059735
 31
0.0
  0
LINE
  5
2CDC
102
{ACAD_REACTORS
330
2E3C
102
}
330
1E
100
AcDbEntity
  8
STEMPEL
100
AcDbLine
 10
151.1882066629164
 20
332.8613905059735
 30
0.0
 11
153.6882066629162
 21
332.8613905059735
 31
0.0
  0
LINE
  5
2CDD
102
{ACAD_REACTORS
330
2E3C
330
2ED1
102
}
330
1E
100
AcDbEntity
  8
STEMPEL
100
AcDbLine
 10
151.1882066629164
 20
385.6162815955361
 30
0.0
 11
151.1882066629161
 21
330.8613905059735
 31
0.0
  0
LINE
  5
2CDE
102
{ACAD_REACTORS
330
2E3C
330
2F30
102
}
330
1E
100
AcDbEntity
  8
STEMPEL
100
AcDbLine
 10
153.6882066629163
 20
385.2871503515673
 30
0.0
 11
153.6882066629162
 21
332.8613905059735
 31
0.0
  0
LINE
  5
2CDF
102
{ACAD_REACTORS
330
2F30
102
}
330
1E
100
AcDbEntity
  8
STEMPEL
100
AcDbLine
 10
281.6882066629162
 20
348.8613905059736
 30
0.0
 11
280.1882066629162
 21
350.3613905059735
 31
0.0
  0
LINE
  5
2CE0
102
{ACAD_REACTORS
330
2F30
102
}
330
1E
100
AcDbEntity
  8
STEMPEL
100
AcDbLine
 10
280.1882066629162
 20
350.3613905059735
 30
0.0
 11
268.6882066629162
 21
350.3613905059735
 31
0.0
  0
LINE
  5
2CE1
330
1E
100
AcDbEntity
  8
STEMPEL
100
AcDbLine
 10
273.6882066629162
 20
338.8613905059735
 30
0.0
 11
268.731774682358
 21
338.8613905059736
 31
0.0
  0
LINE
  5
2CE3
102
{ACAD_REACTORS
330
2E3C
102
}
330
1E
100
AcDbEntity
  8
STEMPEL
100
AcDbLine
 10
284.1882066629162
 20
332.8613905059734
 30
0.0
 11
281.6882066629164
 21
332.8613905059734
 31
0.0
  0
LINE
  5
2CE4
102
{ACAD_REACTORS
330
2E3C
330
2F30
102
}
330
1E
100
AcDbEntity
  8
STEMPEL
100
AcDbLine
 10
281.688206662916
 20
368.4356306603799
 30
0.0
 11
281.6882066629164
 21
332.8613905059734
 31
0.0
  0
LINE
  5
2CE5
102
{ACAD_REACTORS
330
2E3C
330
2ED1
102
}
330
1E
100
AcDbEntity
  8
STEMPEL
100
AcDbLine
 10
284.1882066629166
 20
368.1064994164135
 30
0.0
 11
284.1882066629164
 21
330.8613905059731
 31
0.0
  0
LINE
  5
2CFC
102
{ACAD_REACTORS
330
2E6B
330
2ED1
102
}
330
1E
100
AcDbEntity
  8
STEMPEL
100
AcDbLine
 10
151.1882066629164
 20
385.6162815955361
 30
0.0
 11
180.3713199053552
 21
494.5291429393545
 31
0.0
  0
LINE
  5
2CFD
102
{ACAD_REACTORS
330
2E6B
330
2ED1
102
}
330
1E
100
AcDbEntity
  8
STEMPEL
100
AcDbLine
 10
284.1882066629166
 20
368.1064994164135
 30
0.0
 11
308.8394548018014
 21
460.1062099407188
 31
0.0
  0
LINE
  5
2CFE
102
{ACAD_REACTORS
330
2E6B
330
2F05
330
2F30
102
}
330
1E
100
AcDbEntity
  8
STEMPEL
100
AcDbLine
 10
281.688206662916
 20
368.4356306603799
 30
0.0
 11
306.4246402360788
 21
460.7532575534751
 31
0.0
  0
LINE
  5
2CFF
102
{ACAD_REACTORS
330
2E6B
330
2F05
330
2F30
102
}
330
1E
100
AcDbEntity
  8
STEMPEL
100
AcDbLine
 10
153.6882066629163
 20
385.2871503515673
 30
0.0
 11
182.7861344710781
 21
493.8820953265982
 31
0.0
  0
LINE
  5
2D00
102
{ACAD_REACTORS
330
2E3C
330
2E6B
102
}
330
1E
100
AcDbEntity
  8
STEMPEL
100
AcDbLine
 10
284.1882066629166
 20
368.1064994164135
 30
0.0
 11
281.6882066629162
 21
368.4356306603821
 31
0.0
  0
LINE
  5
2D01
102
{ACAD_REACTORS
330
2E3C
330
2E6B
102
}
330
1E
100
AcDbEntity
  8
STEMPEL
100
AcDbLine
 10
153.6882066629164
 20
385.2871503515676
 30
0.0
 11
151.1882066629164
 21
385.6162815955361
 31
0.0
  0
DIMENSION
  5
2D02
330
1E
100
AcDbEntity
  8
BEM
100
AcDbDimension
  2
*D1
 10
268.6882066629164
 20
251.4053266103795
 30
0.0
 11
217.6882066629163
 21
257.9053266103795
 31
0.0
 70
    32
  1
%%c<>
 71
     5
 42
102.0000000000002
  3
Standard
100
AcDbAlignedDimension
 13
166.6882066629161
 23
280.7740686201565
 33
0.0
 14
268.6882066629164
 24
280.7740686201556
 34
0.0
100
AcDbRotatedDimension
1001
ACAD
1000
DSTYLE
1002
{
1070
    40
1040
2.0
1070
    41
1040
3.5
1070
    42
1040
1.0
1070
    43
1040
7.0
1070
    44
1040
1.0
1070
    73
1070
     0
1070
    74
1070
     0
1070
    77
1070
     1
1070
    78
1070
     8
1070
    79
1070
     2
1070
   140
1040
3.5
1070
   141
1040
1.5
1070
   146
1040
0.5142857142857144
1070
   147
1040
1.5
1070
   172
1070
     1
1070
   178
1070
     1
1070
   179
1070
     2
1070
   271
1070
     2
1070
   272
1070
     2
1070
   284
1070
     8
1070
   285
1070
     8
1070
   286
1070
     8
1002
}
  0
DIMENSION
  5
2D3D
330
1E
100
AcDbEntity
  8
BEM
100
AcDbDimension
  2
*D2
 10
318.7469139624464
 20
497.0813509021592
 30
0.0
 11
256.1951703073897
 21
520.5713352723559
 31
0.0
 70
    33
  1
%%c<>
 71
     5
 42
133.0000000000001
  3
Standard
100
AcDbAlignedDimension
 13
180.3713199053552
 23
494.5291429393545
 33
0.0
 14
308.8394548018014
 24
460.1062099407188
 34
0.0
1001
ACAD
1000
DSTYLE
1002
{
1070
    40
1040
2.0
1070
    41
1040
3.5
1070
    42
1040
1.0
1070
    43
1040
7.0
1070
    44
1040
1.0
1070
    73
1070
     0
1070
    74
1070
     0
1070
    77
1070
     1
1070
    78
1070
     8
1070
    79
1070
     2
1070
   140
1040
3.5
1070
   141
1040
1.5
1070
   146
1040
0.5142857142857144
1070
   147
1040
1.5
1070
   172
1070
     1
1070
   178
1070
     1
1070
   179
1070
     2
1070
   271
1070
     2
1070
   272
1070
     2
1070
   284
1070
     8
1070
   285
1070
     8
1070
   286
1070
     8
1002
}
  0
DIMENSION
  5
2DAD
330
1E
100
AcDbEntity
  8
BEM
100
AcDbDimension
  2
*D3
 10
135.7982282993255
 20
272.8613905059736
 30
0.0
 11
129.2982282993254
 21
302.8613905059736
 31
0.0
 70
    32
 71
     5
 42
59.99999999999994
  3
Standard
100
AcDbAlignedDimension
 13
151.1882066629161
 23
332.8613905059735
 33
0.0
 14
167.3804762960369
 24
272.8613905059736
 34
0.0
 50
90.0
100
AcDbRotatedDimension
1001
ACAD
1000
DSTYLE
1002
{
1070
   279
1070
     1
1070
    40
1040
2.0
1070
    41
1040
3.5
1070
    42
1040
1.0
1070
    43
1040
7.0
1070
    44
1040
1.0
1070
    73
1070
     0
1070
    74
1070
     0
1070
    77
1070
     1
1070
    78
1070
     8
1070
    79
1070
     2
1070
   140
1040
3.5
1070
   141
1040
1.5
1070
   146
1040
0.5142857142857144
1070
   147
1040
1.5
1070
   172
1070
     1
1070
   178
1070
     1
1070
   179
1070
     2
1070
   271
1070
     2
1070
   272
1070
     2
1070
   284
1070
     8
1070
   285
1070
     8
1070
   286
1070
     8
1002
}
  0
DIMENSION
  5
2DBA
330
1E
100
AcDbEntity
  8
BEM
100
AcDbDimension
  2
*D4
 10
120.3176375787991
 20
272.8613905059737
 30
0.0
 11
113.8176375787991
 21
324.8613905059737
 31
0.0
 70
    32
 71
     5
 42
104.0
  3
Standard
100
AcDbAlignedDimension
 13
217.6882066629162
 23
376.8613905059737
 33
0.0
 14
167.3804762960369
 24
272.8613905059736
 34
0.0
 50
90.0
100
AcDbRotatedDimension
1001
ACAD
1000
DSTYLE
1002
{
1070
    40
1040
2.0
1070
    41
1040
3.5
1070
    42
1040
1.0
1070
    43
1040
7.0
1070
    44
1040
1.0
1070
    73
1070
     0
1070
    74
1070
     0
1070
    77
1070
     1
1070
    78
1070
     8
1070
    79
1070
     2
1070
   140
1040
3.5
1070
   141
1040
1.5
1070
   146
1040
0.5142857142857144
1070
   147
1040
1.5
1070
   172
1070
     1
1070
   178
1070
     1
1070
   179
1070
     2
1070
   271
1070
     2
1070
   272
1070
     2
1070
   284
1070
     8
1070
   285
1070
     8
1070
   286
1070
     8
1002
}
  0
DIMENSION
  5
2E0B
330
1E
100
AcDbEntity
  8
BEM
100
AcDbDimension
  2
*D5
 10
157.464432773953
 20
500.6670248473247
 30
0.0
 11
137.7273245577429
 21
452.1212056734594
 31
0.0
 70
    32
 71
     5
 42
104.0000000000001
 51
285.0
  3
Standard
100
AcDbAlignedDimension
 13
217.6882066629162
 23
376.8613905059737
 33
0.0
 14
180.3713199053552
 24
494.5291429393545
 34
0.0
 50
74.99999999999889
100
AcDbRotatedDimension
1001
ACAD
1000
DSTYLE
1002
{
1070
    40
1040
2.0
1070
    41
1040
3.5
1070
    42
1040
1.0
1070
    43
1040
7.0
1070
    44
1040
1.0
1070
    73
1070
     0
1070
    74
1070
     0
1070
    77
1070
     1
1070
    78
1070
     8
1070
    79
1070
     2
1070
   140
1040
3.5
1070
   141
1040
1.5
1070
   146
1040
0.5142857142857144
1070
   147
1040
1.5
1070
   172
1070
     1
1070
   178
1070
     1
1070
   179
1070
     2
1070
   271
1070
     2
1070
   272
1070
     2
1070
   284
1070
     8
1070
   285
1070
     8
1070
   286
1070
     8
1002
}
  0
DIMENSION
  5
2E18
330
1E
100
AcDbEntity
  8
BEM
100
AcDbDimension
  2
*D6
 10
217.6882066629162
 20
376.8613905059737
 30
0.0
 11
234.5257881616176
 21
503.3149849664876
 31
0.0
 70
   162
 71
     5
 42
0.2617993877991502
  3
Standard
100
AcDb2LineAngularDimension
 13
217.6882066629162
 23
376.8613905059737
 33
0.0
 14
245.8994825790909
 24
482.1473055714818
 34
0.0
 15
217.6882066629163
 25
267.8613905059735
 35
0.0
 16
228.8066342954271
 26
503.9455998700412
 36
0.0
1001
ACAD
1000
DSTYLE
1002
{
1070
    40
1040
2.0
1070
    41
1040
3.5
1070
    42
1040
1.0
1070
    43
1040
7.0
1070
    44
1040
1.0
1070
    73
1070
     0
1070
    74
1070
     0
1070
    77
1070
     1
1070
    78
1070
     8
1070
    79
1070
     2
1070
   140
1040
3.5
1070
   141
1040
1.5
1070
   146
1040
0.5142857142857144
1070
   147
1040
1.5
1070
   172
1070
     1
1070
   178
1070
     1
1070
   179
1070
     2
1070
   271
1070
     2
1070
   272
1070
     2
1070
   284
1070
     8
1070
   285
1070
     8
1070
   286
1070
     8
1002
}
  0
HATCH
  5
2E3C
330
1E
100
AcDbEntity
  8
SCHRAFF
100
AcDbHatch
 10
0.0
 20
0.0
 30
0.0
210
0.0
220
0.0
230
1.0
  2
_USER
 70
     0
 71
     1
 91
        2
 92
        7
 72
     0
 73
     1
 93
        4
 10
281.6882066629164
 20
332.8613905059733
 10
284.1882066629164
 20
332.8613905059734
 10
284.1882066629166
 20
368.1064994164135
 10
281.688206662916
 20
368.4356306603821
 97
        4
330
2D00
330
2CE4
330
2CE3
330
2CE5
 92
        7
 72
     0
 73
     1
 93
        4
 10
153.6882066629163
 20
385.2871503515676
 10
151.1882066629164
 20
385.6162815955362
 10
151.1882066629162
 20
332.8613905059735
 10
153.6882066629162
 20
332.8613905059734
 97
        4
330
2D01
330
2CDD
330
2CDC
330
2CDE
 75
     0
 76
     0
 52
45.0
 41
2.0
 77
     0
 78
     1
 53
45.0
 43
-362.3045591362697
 44
26.02963013213503
 45
-1.414213562373094
 46
1.414213562373095
 79
     0
 47
0.561037934277243
 98
        2
 10
282.8582238285528
 20
345.4492569061795
 10
152.605363884212
 20
348.8154852415034
  0
HATCH
  5
2E59
330
1E
100
AcDbEntity
  8
SCHRAFF
100
AcDbHatch
 10
0.0
 20
0.0
 30
0.0
210
0.0
220
0.0
230
1.0
  2
_USER
 70
     0
 71
     1
 91
        2
 92
        7
 72
     1
 73
     1
 93
        8
 10
268.6882066629162
 20
367.6457156748561
 42
-0.0655434628152393
 10
269.335615963424
 20
372.563277531804
 42
0.0
 10
267.4037643108459
 20
373.080915622009
 42
0.0655434628152393
 10
266.6882066629162
 20
367.6457156748561
 42
0.0
 10
266.6882066629164
 20
280.8613905059736
 42
0.0
 10
265.988297354709
 20
272.8613905059736
 42
0.0
 10
267.9959370297956
 20
272.8613905059735
 42
0.0
 10
268.6882066629164
 20
280.7740686201565
 42
0.0
 97
        8
330
2CC4
330
2C99
330
2CC6
330
2CC5
330
2CCF
330
2C62
330
2CCD
330
2CC1
 92
        7
 72
     1
 73
     1
 93
        8
 10
168.6882066629161
 20
367.6457156748561
 42
-0.0655434628152384
 10
172.7430333345171
 20
398.4451820420562
 42
0.0
 10
170.811181681939
 20
398.9628201322612
 42
0.0655434628152384
 10
166.6882066629161
 20
367.6457156748561
 42
0.0
 10
166.6882066629161
 20
280.7740686201567
 42
0.0
 10
167.3804762960369
 20
272.8613905059736
 42
0.0
 10
169.3881159711235
 20
272.8613905059736
 42
0.0
 10
168.6882066629161
 20
280.8613905059737
 42
0.0
 97
        8
330
2CC7
330
2C99
330
2CC3
330
2CC0
330
2CCC
330
2C62
330
2CC8
330
2CCA
 75
     0
 76
     0
 52
135.0
 41
2.0
 77
     0
 78
     1
 53
135.0
 43
-362.3045591362697
 44
26.02963013213503
 45
-1.414213562373095
 46
-1.414213562373094
 79
     0
 47
0.561037934277243
 98
        2
 10
268.2609192381844
 20
346.571332556925
 10
167.7641005277267
 20
341.5219914370268
  0
HATCH
  5
2E6B
330
1E
100
AcDbEntity
  8
SCHRAFF
100
AcDbHatch
 10
0.0
 20
0.0
 30
0.0
210
0.0
220
0.0
230
1.0
  2
_USER
 70
     0
 71
     1
 91
        2
 92
        7
 72
     0
 73
     1
 93
        4
 10
281.6882066629165
 20
368.435630660382
 10
284.1882066629166
 20
368.1064994164134
 10
308.8394548018014
 20
460.1062099407188
 10
306.4246402360788
 20
460.7532575534751
 97
        4
330
2C9A
330
2CFE
330
2D00
330
2CFD
 92
        7
 72
     0
 73
     1
 93
        4
 10
182.786134471078
 20
493.8820953265981
 10
180.3713199053552
 20
494.5291429393545
 10
151.1882066629164
 20
385.6162815955362
 10
153.6882066629164
 20
385.2871503515676
 97
        4
330
2C9A
330
2CFC
330
2D01
330
2CFF
 75
     0
 76
     0
 52
120.0
 41
2.0
 77
     0
 78
     1
 53
120.0
 43
-362.3045591362697
 44
26.02963013213503
 45
-1.732050807568877
 46
-0.9999999999999996
 79
     0
 47
0.3169643472136335
 98
        2
 10
298.1169826101762
 20
425.0420962716694
 10
167.1181201731681
 20
439.3054925007032
  0
HATCH
  5
2E9D
330
1E
100
AcDbEntity
  8
SCHRAFF
100
AcDbHatch
 10
0.0
 20
0.0
 30
0.0
210
0.0
220
0.0
230
1.0
  2
_USER
 70
     0
 71
     1
 91
        2
 92
        7
 72
     1
 73
     1
 93
       20
 10
291.700073891386
 20
432.8463509717571
 42
-0.1178625008509379
 10
286.6061493339703
 20
423.4426117696237
 42
0.1178625008509291
 10
283.5054996033698
 20
417.7185966031081
 42
0.0
 10
279.4750890458124
 20
402.6768996269421
 42
-0.1507946423587067
 10
275.3951342604155
 20
396.1856302869153
 42
0.1507946423586964
 10
272.2567075024183
 20
391.1923461792027
 42
0.0
 10
267.4037643108459
 20
373.080915622009
 42
0.0
 10
269.3356159634241
 20
372.563277531804
 42
0.0
 10
274.1885591549964
 20
390.6747080889976
 42
-0.1507946423587093
 10
276.6993005613944
 20
394.669335375168
 42
0.1507946423587027
 10
281.4069406983906
 20
402.1592615367371
 42
0.0
 10
285.4374031571075
 20
417.2011522106672
 42
-0.1178625008509381
 10
288.0951029261938
 20
422.1074509248238
 42
0.1178625008509356
 10
293.6319774451238
 20
432.3289065793164
 42
0.0
 10
298.3326613673362
 20
449.8720978073357
 42
0.1095178116832368
 10
298.8047095354147
 20
460.6837783765715
 42
0.0
 10
298.4139815162095
 20
462.8997070883054
 42
0.0
 10
296.2824190600436
 20
463.4708575270515
 42
0.0
 10
296.8350940293901
 20
460.3364820212381
 42
-0.109517811683243
 10
296.400809714758
 20
450.3897358975406
 42
0.0
 97
       20
330
2CAC
330
2CA3
330
2C9A
330
2CA2
330
2CAD
330
2CA0
330
2CAA
330
2CA9
330
2C9E
330
2CA6
330
2CA5
330
2C9C
330
2C99
330
2C9D
330
2CA4
330
2CA7
330
2C9F
330
2CA8
330
2CAB
330
2CA1
 92
        7
 72
     1
 73
     1
 93
       20
 10
179.6527299430136
 20
462.8695539014139
 42
0.1178625008509364
 10
179.3370761067272
 20
451.2490763815022
 42
-0.1178625008509394
 10
179.1855622653099
 20
445.6712471719444
 42
0.0
 10
175.155099806593
 20
430.6293564980144
 42
0.1507946423587047
 10
175.4870726763224
 20
421.7890701011276
 42
-0.150794642358704
 10
175.6641248735114
 20
417.0742506894546
 42
0.0
 10
170.8111816819391
 20
398.9628201322612
 42
0.0
 10
172.743033334517
 20
398.4451820420562
 42
0.0
 10
177.5959765260895
 20
416.5566125992496
 42
0.1507946423587046
 10
177.3746612796032
 20
422.4501368638408
 42
-0.1507946423587042
 10
177.0869514591712
 20
430.1117184078093
 42
0.0
 10
181.1173620167285
 20
445.1534153839752
 42
0.1178625008509361
 10
181.2941281650488
 20
451.6608827951258
 42
-0.1178625008509355
 10
181.5845296944321
 20
462.3517221134445
 42
0.0
 10
186.2852655178042
 20
479.895107039228
 42
-0.1095178116832427
 10
190.8825373307163
 20
488.7263840246605
 42
0.0
 10
192.9283556471134
 20
491.1644953530216
 42
0.0
 10
190.7967931909473
 20
491.7356457917678
 42
0.0
 10
189.350448444478
 20
490.0119592440331
 42
0.1095178116832357
 10
184.3534138652261
 20
480.4127451294331
 42
0.0
 97
       20
330
2CAE
330
2CB9
330
2C9A
330
2CB8
330
2CAF
330
2CBA
330
2CB0
330
2CB3
330
2CBC
330
2CB4
330
2CB7
330
2CBE
330
2C99
330
2CBF
330
2CB6
330
2CB5
330
2CBD
330
2CB2
330
2CB1
330
2CBB
 75
     0
 76
     0
 52
30.0
 41
2.0
 77
     0
 78
     1
 53
30.0
 43
-362.3045591362697
 44
26.02963013213503
 45
-0.9999999999999998
 46
1.732050807568877
 79
     0
 47
0.3169643472136335
 98
        2
 10
293.3591543683663
 20
435.1849557201096
 10
181.3916048985973
 20
465.9304976884293
  0
LINE
  5
2EAD
102
{ACAD_REACTORS
330
2F05
330
2F30
102
}
330
1E
100
AcDbEntity
  8
STEMPEL
100
AcDbLine
 10
179.1626678396427
 20
480.3591337585514
 30
0.0
 11
183.992296971088
 21
479.0650385330386
 31
0.0
  0
LINE
  5
2EAE
102
{ACAD_REACTORS
330
2F05
330
2F30
102
}
330
1E
100
AcDbEntity
  8
STEMPEL
100
AcDbLine
 10
297.971544473198
 20
448.5243912109408
 30
0.0
 11
302.8011736046435
 21
447.2302959854282
 31
0.0
  0
ARC
  5
2EAF
102
{ACAD_REACTORS
330
2EBE
330
2F30
102
}
330
1E
100
AcDbEntity
  8
SCHRAFF
100
AcDbCircle
 10
269.335615963424
 20
372.563277531804
 30
0.0
 40
4.0
100
AcDbArc
 50
261.0423284190539
 51
74.99999999999883
  0
ARC
  5
2EB0
102
{ACAD_REACTORS
330
2EBE
330
2F30
102
}
330
1E
100
AcDbEntity
  8
SCHRAFF
100
AcDbCircle
 10
170.811181681939
 20
398.9628201322611
 30
0.0
 40
4.0
100
AcDbArc
 50
74.99999999999706
 51
255.9470808058356
  0
HATCH
  5
2EBE
330
1E
100
AcDbEntity
  8
SCHRAFF
100
AcDbHatch
 10
0.0
 20
0.0
 30
0.0
210
0.0
220
0.0
230
1.0
  2
_USER
 70
     0
 71
     1
 91
        2
 92
        7
 72
     1
 73
     1
 93
        3
 10
268.712796972922
 20
368.6120629710556
 42
0.9486136137589321
 10
270.3708921438341
 20
376.4269808369603
 42
0.0
 10
269.3356159634241
 20
372.5632775318041
 42
0.0527781861544088
 97
        3
330
2C9D
330
2CC4
330
2EAF
 92
        7
 72
     1
 73
     1
 93
        3
 10
169.8399097972498
 20
395.0825326524456
 42
-0.0082650273609695
 10
170.8111816819391
 20
398.9628201322612
 42
0.0
 10
171.8464578623492
 20
402.8265234374173
 42
1.008299182116256
 97
        3
330
2EB0
330
2CC3
330
2CBE
 75
     0
 76
     0
 52
0.0
 41
0.1
 77
     0
 78
     1
 53
0.0
 43
-362.3045591362697
 44
26.02963013213503
 45
0.0
 46
0.1
 79
     0
 47
0.1942063768334655
 98
        2
 10
270.98479569397
 20
371.440044399463
 10
168.5656478579892
 20
399.0173512057793
  0
ARC
  5
2EC0
102
{ACAD_REACTORS
330
2ED1
102
}
330
1E
100
AcDbEntity
  8
SCHRAFF
100
AcDbCircle
 10
152.7279146685071
 20
385.4135751910447
 30
0.0
 40
4.097577258938713
100
AcDbArc
 50
97.07132909465419
 51
247.928670905345
  0
ARC
  5
2EC2
102
{ACAD_REACTORS
330
2ED1
102
}
330
1E
100
AcDbEntity
  8
SCHRAFF
100
AcDbCircle
 10
280.9265039623442
 20
368.5839886737109
 30
0.0
 40
5.470874983174662
100
AcDbArc
 50
306.5977947201739
 51
38.23971142679267
  0
HATCH
  5
2ED1
330
1E
100
AcDbEntity
  8
SCHRAFF
100
AcDbHatch
 10
0.0
 20
0.0
 30
0.0
210
0.0
220
0.0
230
1.0
  2
_USER
 70
     0
 71
     1
 91
        2
 92
        7
 72
     1
 73
     1
 93
        3
 10
285.2234828433267
 20
371.9702027215697
 42
0.0
 10
284.1882066629166
 20
368.1064994164137
 42
0.0
 10
284.1882066629166
 20
364.1917490884189
 42
0.4226320862842796
 97
        3
330
2CFD
330
2CE5
330
2EC2
 92
        7
 72
     1
 73
     1
 93
        3
 10
152.2234828433265
 20
389.4799849006924
 42
0.7732875679777165
 10
151.1882066629163
 20
381.616281595536
 42
0.0
 10
151.1882066629164
 20
385.6162815955361
 42
0.0
 97
        3
330
2EC0
330
2CDD
330
2CFC
 75
     0
 76
     0
 52
0.0
 41
0.1
 77
     0
 78
     1
 53
0.0
 43
-362.3045591362697
 44
26.02963013213503
 45
0.0
 46
0.1
 79
     0
 47
0.2225903886035521
 98
        2
 10
285.4492035259443
 20
367.9346207210015
 10
150.6867699715351
 20
387.0773931716565
  0
HATCH
  5
2F05
330
1E
100
AcDbEntity
  8
SCHRAFF
100
AcDbHatch
 10
0.0
 20
0.0
 30
0.0
210
0.0
220
0.0
230
1.0
  2
NET
 70
     0
 71
     1
 91
        2
 92
        7
 72
     1
 73
     1
 93
        6
 10
306.4246402360789
 20
460.7532575534751
 42
0.0
 10
298.4139815162096
 20
462.8997070883054
 42
0.0
 10
298.8047095354147
 20
460.6837783765715
 42
-0.1095178116832362
 10
298.3326613673362
 20
449.8720978073357
 42
0.0
 10
297.971544473198
 20
448.5243912109408
 42
0.0
 10
302.8011736046436
 20
447.2302959854282
 42
0.0
 97
        6
330
2C9A
330
2CA3
330
2CAC
330
2CA1
330
2EAE
330
2CFE
 92
        7
 72
     1
 73
     1
 93
        6
 10
189.350448444478
 20
490.0119592440331
 42
0.0
 10
190.7967931909473
 20
491.7356457917678
 42
0.0
 10
182.786134471078
 20
493.8820953265981
 42
0.0
 10
179.1626678396428
 20
480.3591337585514
 42
0.0
 10
183.9922969710881
 20
479.0650385330386
 42
0.0
 10
184.3534138652261
 20
480.412745129433
 42
-0.1095178116832369
 97
        6
330
2CB8
330
2C9A
330
2CFF
330
2EAD
330
2CBA
330
2CAF
 75
     0
 76
     1
 52
30.0
 41
20.0
 77
     0
 78
     2
 53
30.0
 43
-362.3045591362697
 44
26.02963013213503
 45
-1.249999999999999
 46
2.165063509461096
 79
     0
 53
120.0
 43
-362.3045591362697
 44
26.02963013213503
 45
-2.165063509461096
 46
-1.249999999999999
 79
     0
 47
0.486774581965298
 98
        2
 10
304.4176652253757
 20
456.8449770813733
 10
184.5864245856276
 20
487.0250020943556
  0
HATCH
  5
2F30
330
1E
100
AcDbEntity
  8
SCHRAFF
100
AcDbHatch
 10
0.0
 20
0.0
 30
0.0
210
0.0
220
0.0
230
1.0
  2
HONEY
 70
     0
 71
     1
 91
        2
 92
        7
 72
     1
 73
     1
 93
       15
 10
302.8011736046436
 20
447.2302959854282
 42
0.0
 10
297.9715444731981
 20
448.5243912109408
 42
0.0
 10
293.6319774451238
 20
432.3289065793164
 42
-0.1178625008509393
 10
288.0951029261935
 20
422.1074509248236
 42
0.1178625008509242
 10
285.4374031571076
 20
417.2011522106675
 42
0.0
 10
281.4069406983906
 20
402.1592615367371
 42
-0.1507946423587083
 10
276.6993005613942
 20
394.6693353751678
 42
0.1507946423586988
 10
274.1885591549964
 20
390.6747080889976
 42
0.0
 10
270.3708921438341
 20
376.4269808369603
 42
-0.9486136137589584
 10
268.712796972922
 20
368.6120629710556
 42
0.0127212704142926
 10
268.6882066629162
 20
367.6457156748561
 42
0.0
 10
268.6882066629162
 20
350.3613905059735
 42
0.0
 10
280.1882066629162
 20
350.3613905059735
 42
0.0
 10
281.6882066629163
 20
348.8613905059736
 42
0.0
 10
281.688206662916
 20
368.4356306603797
 42
0.0
 97
       15
330
2EAE
330
2CA1
330
2CAB
330
2CA8
330
2C9F
330
2CA7
330
2CA4
330
2C9D
330
2EAF
330
2CC4
330
2CC1
330
2CE0
330
2CDF
330
2CE4
330
2CFE
 92
        7
 72
     1
 73
     1
 93
       15
 10
171.8464578623492
 20
402.8265234374173
 42
0.0
 10
175.6641248735114
 20
417.0742506894547
 42
0.1507946423586983
 10
175.4870726763224
 20
421.7890701011275
 42
-0.1507946423587067
 10
175.155099806593
 20
430.6293564980144
 42
0.0
 10
179.1855622653099
 20
445.6712471719445
 42
0.1178625008509357
 10
179.3370761067273
 20
451.2490763815021
 42
-0.1178625008509369
 10
179.6527299430136
 20
462.8695539014139
 42
0.0
 10
183.9922969710881
 20
479.0650385330386
 42
0.0
 10
179.1626678396428
 20
480.3591337585514
 42
0.0
 10
153.6882066629163
 20
385.2871503515673
 42
0.0
 10
153.6882066629162
 20
348.8613905059736
 42
0.0
 10
155.1882066629164
 20
350.3613905059735
 42
0.0
 10
166.6882066629161
 20
350.3613905059733
 42
0.0
 10
166.6882066629161
 20
367.6457156748561
 42
-0.0572474234651277
 10
169.8399097972498
 20
395.0825326524456
 42
-1.008299182116121
 97
       15
330
2CB7
330
2CB4
330
2CBC
330
2CB3
330
2CB0
330
2CBA
330
2EAD
330
2CFF
330
2CDE
330
2CD9
330
2CDA
330
2CC0
330
2CC3
330
2EB0
330
2CBE
 75
     0
 76
     1
 52
0.0
 41
30.0
 77
     0
 78
     3
 53
0.0
 43
-362.3045591362697
 44
26.02963013213503
 45
5.625
 46
3.247595249999999
 79
     2
 49
3.75
 49
-7.5
 53
120.0
 43
-362.3045591362697
 44
26.02963013213503
 45
-5.624999987709673
 46
3.247595271287468
 79
     2
 49
3.749999999999999
 49
-7.499999999999999
 53
60.0
 43
-362.3045591362697
 44
26.02963013213503
 45
0.0000000122903263
 46
6.495190521287468
 79
     2
 49
-7.5
 49
3.75
 47
0.486774581965298
 98
        2
 10
282.0101967266499
 20
385.2891131540312
 10
166.0759073177962
 20
406.2204201104736
  0
HATCH
  5
2FD3
330
1E
100
AcDbEntity
  8
SCHRAFF
100
AcDbHatch
 10
0.0
 20
0.0
 30
0.0
210
0.0
220
0.0
230
1.0
  2
NET
 70
     0
 71
     0
 91
        2
 92
        7
 72
     0
 73
     1
 93
        9
 10
281.6882066629163
 20
348.8613905059734
 10
280.188206662916
 20
350.3613905059736
 10
268.6882066629162
 20
350.3613905059736
 10
268.6882066629162
 20
338.8613905059735
 10
273.6882066629162
 20
338.8613905059735
 10
278.3070088164333
 20
330.8613905059731
 10
284.1882066629164
 20
330.8613905059731
 10
284.1882066629164
 20
332.8613905059735
 10
281.6882066629164
 20
332.8613905059735
 97
        0
 92
        7
 72
     0
 73
     1
 93
        9
 10
166.6882066629163
 20
350.3613905059735
 10
155.1882066629163
 20
350.3613905059736
 10
153.6882066629162
 20
348.8613905059736
 10
153.6882066629162
 20
332.8613905059734
 10
151.1882066629161
 20
332.8613905059735
 10
151.1882066629161
 20
330.8613905059735
 10
157.069404509399
 20
330.8613905059735
 10
161.6882066629161
 20
338.8613905059735
 10
166.6882066629163
 20
338.8613905059735
 97
        0
 75
     0
 76
     1
 52
45.0
 41
20.0
 77
     0
 78
     2
 53
45.0
 43
-7.311793337083543
 44
20.98639644678787
 45
-1.767766952966368
 46
1.767766952966368
 79
     0
 53
135.0
 43
-7.311793337083543
 44
20.98639644678787
 45
-1.767766952966368
 46
-1.767766952966368
 79
     0
 47
0.1961114262777251
 98
        2
 10
277.4695720631462
 20
344.0593008955277
 10
165.0299354180843
 20
345.2359694342164
  0
LINE
  5
2FD4
330
1E
100
AcDbEntity
  8
STEMPEL
100
AcDbLine
 10
268.6882066629162
 20
330.8613905059732
 30
0.0
 11
284.1882066629164
 21
330.8613905059731
 31
0.0
  0
LINE
  5
2FD5
330
1E
100
AcDbEntity
  8
STEMPEL
100
AcDbLine
 10
273.6882066629162
 20
338.8613905059735
 30
0.0
 11
278.3070088164333
 21
330.8613905059732
 31
0.0
  0
LINE
  5
2FD6
330
1E
100
AcDbEntity
  8
STEMPEL
100
AcDbLine
 10
151.1882066629161
 20
330.8613905059735
 30
0.0
 11
166.6882066629163
 21
330.8613905059734
 31
0.0
  0
LINE
  5
2FD7
330
1E
100
AcDbEntity
  8
STEMPEL
100
AcDbLine
 10
161.6882066629161
 20
338.8613905059735
 30
0.0
 11
157.0694045093991
 21
330.8613905059735
 31
0.0
  0
TEXT
  5
2FDF
330
1E
100
AcDbEntity
  8
TEXT
100
AcDbText
 10
148.622109822104
 20
73.14025471151666
 30
0.0
 40
4.0
  1
2007
 41
0.8
  7
GREEKS
100
AcDbText
  0
TEXT
  5
2FE0
330
1E
100
AcDbEntity
  8
TEXT
100
AcDbText
 10
170.398997108236
 20
63.10765040825732
 30
0.0
 40
4.0
  1
28.09.
 41
0.8
  7
GREEKS
 72
     1
 11
177.4085209177598
 21
63.10765040825732
 31
0.0
100
AcDbText
  0
ENDSEC
  0
SECTION
  2
OBJECTS
  0
DICTIONARY
  5
C
330
0
100
AcDbDictionary
281
     1
  3
ACAD_COLOR
350
DF
  3
ACAD_GROUP
350
D
  3
ACAD_LAYOUT
350
19
  3
ACAD_MATERIAL
350
DE
  3
ACAD_MLINESTYLE
350
16
  3
ACAD_PLOTSETTINGS
350
18
  3
ACAD_PLOTSTYLENAME
350
E
  3
AcDbVariableDictionary
350
25E
  0
DICTIONARY
  5
A0
330
1E
100
AcDbDictionary
280
     1
281
     1
  3
ACAD_LAYOUTSELFREF
360
D4
  0
DICTIONARY
  5
A2
330
1A
100
AcDbDictionary
280
     1
281
     1
  3
ACAD_LAYOUTSELFREF
360
D3
  0
DICTIONARY
  5
DF
102
{ACAD_REACTORS
330
C
102
}
330
C
100
AcDbDictionary
281
     1
  0
DICTIONARY
  5
D
102
{ACAD_REACTORS
330
C
102
}
330
C
100
AcDbDictionary
281
     1
  0
DICTIONARY
  5
19
102
{ACAD_REACTORS
330
C
102
}
330
C
100
AcDbDictionary
281
     1
  3
Layout1
350
1D
  3
Model
350
21
  0
DICTIONARY
  5
DE
102
{ACAD_REACTORS
330
C
102
}
330
C
100
AcDbDictionary
281
     1
  0
DICTIONARY
  5
16
102
{ACAD_REACTORS
330
C
102
}
330
C
100
AcDbDictionary
281
     1
  3
Standard
350
17
  0
DICTIONARY
  5
18
102
{ACAD_REACTORS
330
C
102
}
330
C
100
AcDbDictionary
281
     1
  0
ACDBDICTIONARYWDFLT
  5
E
102
{ACAD_REACTORS
330
C
102
}
330
C
100
AcDbDictionary
281
     1
  3
Normal
350
F
100
AcDbDictionaryWithDefault
340
F
  0
DICTIONARY
  5
25E
102
{ACAD_REACTORS
330
C
102
}
330
C
100
AcDbDictionary
281
     1
  3
DIMASSOC
350
25F
  3
PROJECTNAME
350
260
  0
XRECORD
  5
D4
102
{ACAD_REACTORS
330
A0
102
}
330
A0
100
AcDbXrecord
280
     1
340
1E
  0
XRECORD
  5
D3
102
{ACAD_REACTORS
330
A2
102
}
330
A2
100
AcDbXrecord
280
     1
340
1A
  0
LAYOUT
  5
1D
102
{ACAD_REACTORS
330
19
102
}
330
19
100
AcDbPlotSettings
  1

  2
\\NT_WORK01\HP LaserJet 5000 PCL 6
  4

  6

 40
0.0
 41
0.0
 42
0.0
 43
0.0
 44
0.0
 45
0.0
 46
0.0
 47
0.0
 48
0.0
 49
0.0
140
0.0
141
0.0
142
1.0
143
1.0
 70
   688
 72
     0
 73
     0
 74
     5
  7

 75
    16
147
1.0
 76
     0
 77
     2
 78
   300
148
0.0
149
0.0
100
AcDbLayout
  1
Layout1
 70
     0
 71
     1
 10
0.0
 20
0.0
 11
12.0
 21
9.0
 12
0.0
 22
0.0
 32
0.0
 14
1.000000000000000E+20
 24
1.000000000000000E+20
 34
1.000000000000000E+20
 15
-1.000000000000000E+20
 25
-1.000000000000000E+20
 35
-1.000000000000000E+20
146
0.0
 13
0.0
 23
0.0
 33
0.0
 16
1.0
 26
0.0
 36
0.0
 17
0.0
 27
1.0
 37
0.0
 76
     0
330
1A
  0
LAYOUT
  5
21
102
{ACAD_REACTORS
330
19
102
}
330
19
100
AcDbPlotSettings
  1

  2
RICOH Aficio 2027 PCL 6
  4
A4
  6

 40
5.027083
 41
5.027084999999999
 42
5.027084
 43
5.027069
 44
209.973328
 45
296.925995
 46
0.0
 47
2.06
 48
0.0
 49
0.0
140
0.0
141
0.0
142
1.0
143
2.100849152723284
 70
 11956
 72
     1
 73
     0
 74
     2
  7
monochrome1.ctb
 75
     0
147
0.4759980023809526
 76
     1
 77
     2
 78
   300
148
0.0
149
0.0
100
AcDbLayout
  1
Model
 70
     1
 71
     0
 10
0.0
 20
0.0
 11
12.0
 21
9.0
 12
0.0
 22
0.0
 32
0.0
 14
0.0
 24
0.0
 34
0.0
 15
0.0
 25
0.0
 35
0.0
146
0.0
 13
0.0
 23
0.0
 33
0.0
 16
1.0
 26
0.0
 36
0.0
 17
0.0
 27
1.0
 37
0.0
 76
     0
330
1E
  0
MLINESTYLE
  5
17
102
{ACAD_REACTORS
330
16
102
}
330
16
100
AcDbMlineStyle
  2
STANDARD
 70
     0
  3

 62
   256
 51
90.0
 52
90.0
 71
     2
 49
0.5
 62
   256
  6
BYLAYER
 49
-0.5
 62
   256
  6
BYLAYER
  0
ACDBPLACEHOLDER
  5
F
102
{ACAD_REACTORS
330
E
102
}
330
E
  0
DICTIONARYVAR
  5
25F
102
{ACAD_REACTORS
330
25E
102
}
330
25E
100
DictionaryVariables
280
     0
  1
1
  0
DICTIONARYVAR
  5
260
102
{ACAD_REACTORS
330
25E
102
}
330
25E
100
DictionaryVariables
280
     0
  1

  0
ENDSEC
  0
EOF
