  0
SECTION
  2
HEADER
  9
$ACADVER
  1
AC1018
  9
$ACADMAINTVER
 70
     2
  9
$DWGCODEPAGE
  3
ANSI_1252
  9
$INSBASE
 10
0.0
 20
0.0
 30
0.0
  9
$EXTMIN
 10
-0.0161105048679247
 20
-0.018087400018203
 30
-0.0000000000000129
  9
$EXTMAX
 10
420.0111424904863
 20
594.0136070611126
 30
0.0000000000000023
  9
$LIMMIN
 10
0.0
 20
0.0
  9
$LIMMAX
 10
419.9999999999999
 20
594.0000000000002
  9
$ORTHOMODE
 70
     0
  9
$REGENMODE
 70
     1
  9
$FILLMODE
 70
     1
  9
$QTEXTMODE
 70
     0
  9
$MIRRTEXT
 70
     1
  9
$LTSCALE
 40
20.0
  9
$ATTMODE
 70
     1
  9
$TEXTSIZE
 40
3.5
  9
$TRACEWID
 40
0.5
  9
$TEXTSTYLE
  7
STANDARD
  9
$CLAYER
  8
BEM
  9
$CELTYPE
  6
ByLayer
  9
$CECOLOR
 62
   256
  9
$CELTSCALE
 40
1.0
  9
$DISPSILH
 70
     0
  9
$DIMSCALE
 40
2.0
  9
$DIMASZ
 40
3.5
  9
$DIMEXO
 40
1.0
  9
$DIMDLI
 40
7.0
  9
$DIMRND
 40
0.0
  9
$DIMDLE
 40
0.0
  9
$DIMEXE
 40
1.0
  9
$DIMTP
 40
0.0
  9
$DIMTM
 40
0.0
  9
$DIMTXT
 40
3.5
  9
$DIMCEN
 40
1.5
  9
$DIMTSZ
 40
0.0
  9
$DIMTOL
 70
     0
  9
$DIMLIM
 70
     0
  9
$DIMTIH
 70
     0
  9
$DIMTOH
 70
     0
  9
$DIMSE1
 70
     0
  9
$DIMSE2
 70
     0
  9
$DIMTAD
 70
     1
  9
$DIMZIN
 70
     8
  9
$DIMBLK
  1

  9
$DIMASO
 70
     1
  9
$DIMSHO
 70
     0
  9
$DIMPOST
  1

  9
$DIMAPOST
  1

  9
$DIMALT
 70
     0
  9
$DIMALTD
 70
     2
  9
$DIMALTF
 40
25.4
  9
$DIMLFAC
 40
1.0
  9
$DIMTOFL
 70
     1
  9
$DIMTVP
 40
0.0
  9
$DIMTIX
 70
     0
  9
$DIMSOXD
 70
     0
  9
$DIMSAH
 70
     0
  9
$DIMBLK1
  1

  9
$DIMBLK2
  1

  9
$DIMSTYLE
  2
Standard
  9
$DIMCLRD
 70
     0
  9
$DIMCLRE
 70
     0
  9
$DIMCLRT
 70
     1
  9
$DIMTFAC
 40
0.5142857142857144
  9
$DIMGAP
 40
1.5
  9
$DIMJUST
 70
     0
  9
$DIMSD1
 70
     0
  9
$DIMSD2
 70
     0
  9
$DIMTOLJ
 70
     1
  9
$DIMTZIN
 70
     8
  9
$DIMALTZ
 70
     8
  9
$DIMALTTZ
 70
     8
  9
$DIMUPT
 70
     0
  9
$DIMDEC
 70
     2
  9
$DIMTDEC
 70
     2
  9
$DIMALTU
 70
     2
  9
$DIMALTTD
 70
     2
  9
$DIMTXSTY
  7
STANDARD
  9
$DIMAUNIT
 70
     0
  9
$DIMADEC
 70
     2
  9
$DIMALTRND
 40
0.0
  9
$DIMAZIN
 70
     2
  9
$DIMDSEP
 70
    46
  9
$DIMATFIT
 70
     3
  9
$DIMFRAC
 70
     0
  9
$DIMLDRBLK
  1

  9
$DIMLUNIT
 70
     2
  9
$DIMLWD
 70
    -2
  9
$DIMLWE
 70
    -2
  9
$DIMTMOVE
 70
     0
  9
$LUNITS
 70
     2
  9
$LUPREC
 70
     2
  9
$SKETCHINC
 40
1.0
  9
$FILLETRAD
 40
0.0
  9
$AUNITS
 70
     0
  9
$AUPREC
 70
     0
  9
$MENU
  1
ACAD
  9
$ELEVATION
 40
0.0
  9
$PELEVATION
 40
0.0
  9
$THICKNESS
 40
0.0
  9
$LIMCHECK
 70
     0
  9
$CHAMFERA
 40
0.0
  9
$CHAMFERB
 40
0.0
  9
$CHAMFERC
 40
0.0
  9
$CHAMFERD
 40
0.0
  9
$SKPOLY
 70
     0
  9
$TDCREATE
 40
2455397.823042361
  9
$TDUCREATE
 40
2455397.781375695
  9
$TDUPDATE
 40
2455532.541746030
  9
$TDUUPDATE
 40
2455532.500079364
  9
$TDINDWG
 40
0.6343756713
  9
$TDUSRTIMER
 40
0.6343756713
  9
$USRTIMER
 70
     1
  9
$ANGBASE
 50
0.0
  9
$ANGDIR
 70
     0
  9
$PDMODE
 70
     0
  9
$PDSIZE
 40
0.0
  9
$PLINEWID
 40
0.0
  9
$SPLFRAME
 70
     0
  9
$SPLINETYPE
 70
     6
  9
$SPLINESEGS
 70
     8
  9
$HANDSEED
  5
319B
  9
$SURFTAB1
 70
     6
  9
$SURFTAB2
 70
     6
  9
$SURFTYPE
 70
     6
  9
$SURFU
 70
     6
  9
$SURFV
 70
     6
  9
$UCSBASE
  2

  9
$UCSNAME
  2

  9
$UCSORG
 10
0.0
 20
0.0
 30
0.0
  9
$UCSXDIR
 10
1.0
 20
0.0
 30
0.0
  9
$UCSYDIR
 10
0.0
 20
1.0
 30
0.0
  9
$UCSORTHOREF
  2

  9
$UCSORTHOVIEW
 70
     0
  9
$UCSORGTOP
 10
0.0
 20
0.0
 30
0.0
  9
$UCSORGBOTTOM
 10
0.0
 20
0.0
 30
0.0
  9
$UCSORGLEFT
 10
0.0
 20
0.0
 30
0.0
  9
$UCSORGRIGHT
 10
0.0
 20
0.0
 30
0.0
  9
$UCSORGFRONT
 10
0.0
 20
0.0
 30
0.0
  9
$UCSORGBACK
 10
0.0
 20
0.0
 30
0.0
  9
$PUCSBASE
  2

  9
$PUCSNAME
  2

  9
$PUCSORG
 10
0.0
 20
0.0
 30
0.0
  9
$PUCSXDIR
 10
1.0
 20
0.0
 30
0.0
  9
$PUCSYDIR
 10
0.0
 20
1.0
 30
0.0
  9
$PUCSORTHOREF
  2

  9
$PUCSORTHOVIEW
 70
     0
  9
$PUCSORGTOP
 10
0.0
 20
0.0
 30
0.0
  9
$PUCSORGBOTTOM
 10
0.0
 20
0.0
 30
0.0
  9
$PUCSORGLEFT
 10
0.0
 20
0.0
 30
0.0
  9
$PUCSORGRIGHT
 10
0.0
 20
0.0
 30
0.0
  9
$PUCSORGFRONT
 10
0.0
 20
0.0
 30
0.0
  9
$PUCSORGBACK
 10
0.0
 20
0.0
 30
0.0
  9
$USERI1
 70
     0
  9
$USERI2
 70
     0
  9
$USERI3
 70
     0
  9
$USERI4
 70
     0
  9
$USERI5
 70
     0
  9
$USERR1
 40
0.0
  9
$USERR2
 40
0.0
  9
$USERR3
 40
0.0
  9
$USERR4
 40
0.0
  9
$USERR5
 40
0.0
  9
$WORLDVIEW
 70
     1
  9
$SHADEDGE
 70
     3
  9
$SHADEDIF
 70
    70
  9
$TILEMODE
 70
     1
  9
$MAXACTVP
 70
    16
  9
$PINSBASE
 10
0.0
 20
0.0
 30
0.0
  9
$PLIMCHECK
 70
     0
  9
$PEXTMIN
 10
1.000000000000000E+20
 20
1.000000000000000E+20
 30
1.000000000000000E+20
  9
$PEXTMAX
 10
-1.000000000000000E+20
 20
-1.000000000000000E+20
 30
-1.000000000000000E+20
  9
$PLIMMIN
 10
0.0
 20
0.0
  9
$PLIMMAX
 10
12.0
 20
9.0
  9
$UNITMODE
 70
     0
  9
$VISRETAIN
 70
     0
  9
$PLINEGEN
 70
     0
  9
$PSLTSCALE
 70
     0
  9
$TREEDEPTH
 70
  3020
  9
$CMLSTYLE
  2
Standard
  9
$CMLJUST
 70
     0
  9
$CMLSCALE
 40
1.0
  9
$PROXYGRAPHICS
 70
     1
  9
$MEASUREMENT
 70
     0
  9
$CELWEIGHT
370
    -1
  9
$ENDCAPS
280
     0
  9
$JOINSTYLE
280
     0
  9
$LWDISPLAY
290
     0
  9
$INSUNITS
 70
     0
  9
$HYPERLINKBASE
  1

  9
$STYLESHEET
  1
monochrome 1.ctb
  9
$XEDIT
290
     1
  9
$CEPSNTYPE
380
     0
  9
$PSTYLEMODE
290
     1
  9
$FINGERPRINTGUID
  2
{D68B0D02-A558-11D7-B632-000102183313}
  9
$VERSIONGUID
  2
{69C4583D-8C39-46BE-AE4D-7460B63B6278}
  9
$EXTNAMES
290
     1
  9
$PSVPSCALE
 40
0.0
  9
$OLESTARTUP
290
     0
  9
$SORTENTS
280
   127
  9
$INDEXCTL
280
     0
  9
$HIDETEXT
280
     0
  9
$XCLIPFRAME
290
     0
  9
$HALOGAP
280
     0
  9
$OBSCOLOR
 70
   257
  9
$OBSLTYPE
280
     0
  9
$INTERSECTIONDISPLAY
280
     0
  9
$INTERSECTIONCOLOR
 70
   257
  9
$DIMASSOC
280
     1
  9
$PROJECTNAME
  1

  0
ENDSEC
  0
SECTION
  2
CLASSES
  0
CLASS
  1
ACDBDICTIONARYWDFLT
  2
AcDbDictionaryWithDefault
  3
ObjectDBX Classes
 90
        0
 91
        1
280
     0
281
     0
  0
CLASS
  1
DICTIONARYVAR
  2
AcDbDictionaryVar
  3
ObjectDBX Classes
 90
        0
 91
        2
280
     0
281
     0
  0
ENDSEC
  0
SECTION
  2
TABLES
  0
TABLE
  2
VPORT
  5
8
330
0
100
AcDbSymbolTable
 70
     2
  0
VPORT
  5
319A
330
8
100
AcDbSymbolTableRecord
100
AcDbViewportTableRecord
  2
*Active
 70
     0
 10
0.0
 20
0.0
 11
1.0
 21
1.0
 12
209.9975159928092
 22
296.9977598305472
 13
0.0
 23
0.0
 14
1.0
 24
1.0
 15
10.0
 25
10.0
 16
0.0
 26
0.0
 36
1.0
 17
0.0
 27
0.0
 37
0.0
 40
598.8287202575868
 41
1.336927223719676
 42
50.0
 43
0.0
 44
0.0
 50
0.0
 51
0.0
 71
     0
 72
  1500
 73
     1
 74
     0
 75
     0
 76
     0
 77
     0
 78
     0
281
     0
 65
     1
110
0.0
120
0.0
130
0.0
111
1.0
121
0.0
131
0.0
112
0.0
122
1.0
132
0.0
 79
     0
146
0.0
  0
ENDTAB
  0
TABLE
  2
LTYPE
  5
5
330
0
100
AcDbSymbolTable
 70
     2
  0
LTYPE
  5
13
330
5
100
AcDbSymbolTableRecord
100
AcDbLinetypeTableRecord
  2
ByBlock
 70
     0
  3

 72
    65
 73
     0
 40
0.0
  0
LTYPE
  5
14
330
5
100
AcDbSymbolTableRecord
100
AcDbLinetypeTableRecord
  2
ByLayer
 70
     0
  3

 72
    65
 73
     0
 40
0.0
  0
LTYPE
  5
15
330
5
100
AcDbSymbolTableRecord
100
AcDbLinetypeTableRecord
  2
Continuous
 70
     0
  3
Solid line
 72
    65
 73
     0
 40
0.0
  0
LTYPE
  5
25
330
5
100
AcDbSymbolTableRecord
100
AcDbLinetypeTableRecord
  2
STRICHPUNKT
 70
     0
  3
__ . __ . __ . __ . __ . __ . __ . __ . __ . __
 72
    65
 73
     4
 40
1.0
 49
0.5
 74
     0
 49
-0.25
 74
     0
 49
0.0
 74
     0
 49
-0.25
 74
     0
  0
ENDTAB
  0
TABLE
  2
LAYER
  5
2
330
0
100
AcDbSymbolTable
 70
     9
  0
LAYER
  5
10
330
2
100
AcDbSymbolTableRecord
100
AcDbLayerTableRecord
  2
0
 70
     0
 62
     7
  6
Continuous
370
    -3
390
F
  0
LAYER
  5
2A
330
2
100
AcDbSymbolTableRecord
100
AcDbLayerTableRecord
  2
VOLL
 70
     0
 62
     1
  6
Continuous
370
    -3
390
F
  0
LAYER
  5
2B
330
2
100
AcDbSymbolTableRecord
100
AcDbLayerTableRecord
  2
HILF
 70
     0
 62
     2
  6
Continuous
370
    -3
390
F
  0
LAYER
  5
2C
330
2
100
AcDbSymbolTableRecord
100
AcDbLayerTableRecord
  2
MITTEL
 70
     0
 62
     2
  6
STRICHPUNKT
370
    -3
390
F
  0
LAYER
  5
2F
330
2
100
AcDbSymbolTableRecord
100
AcDbLayerTableRecord
  2
BEM
 70
     0
 62
     7
  6
Continuous
370
    -3
390
F
  0
LAYER
  5
30
330
2
100
AcDbSymbolTableRecord
100
AcDbLayerTableRecord
  2
STEMPEL
 70
     0
 62
     3
  6
Continuous
370
    -3
390
F
  0
LAYER
  5
31
330
2
100
AcDbSymbolTableRecord
100
AcDbLayerTableRecord
  2
TEXT
 70
     0
 62
     7
  6
Continuous
370
    -3
390
F
  0
LAYER
  5
171
330
2
100
AcDbSymbolTableRecord
100
AcDbLayerTableRecord
  2
Defpoints
 70
     0
 62
     7
  6
Continuous
290
     0
370
    -3
390
F
  0
LAYER
  5
19C
330
2
100
AcDbSymbolTableRecord
100
AcDbLayerTableRecord
  2
SCHRAFF
 70
     0
 62
     7
  6
Continuous
370
    -3
390
F
  0
ENDTAB
  0
TABLE
  2
STYLE
  5
3
330
0
100
AcDbSymbolTable
 70
     2
  0
STYLE
  5
11
330
3
100
AcDbSymbolTableRecord
100
AcDbTextStyleTableRecord
  2
STANDARD
 70
     0
 40
0.0
 41
0.8
 50
0.0
 71
     0
 42
3.5
  3
simplex.shx
  4

  0
STYLE
  5
24
330
3
100
AcDbSymbolTableRecord
100
AcDbTextStyleTableRecord
  2
GREEKS
 70
     0
 40
0.0
 41
0.8
 50
0.0
 71
     0
 42
2.5
  3
SIMPLEX.shx
  4

  0
ENDTAB
  0
TABLE
  2
VIEW
  5
6
330
0
100
AcDbSymbolTable
 70
     0
  0
ENDTAB
  0
TABLE
  2
UCS
  5
7
330
0
100
AcDbSymbolTable
 70
     0
  0
ENDTAB
  0
TABLE
  2
APPID
  5
9
330
0
100
AcDbSymbolTable
 70
     1
  0
APPID
  5
12
330
9
100
AcDbSymbolTableRecord
100
AcDbRegAppTableRecord
  2
ACAD
 70
     0
  0
ENDTAB
  0
TABLE
  2
DIMSTYLE
  5
A
330
0
100
AcDbSymbolTable
 70
     1
100
AcDbDimStyleTable
 71
     1
340
9D
  0
DIMSTYLE
105
9D
102
{ACAD_REACTORS
330
2F3F
330
2F4C
330
2F74
330
2F9D
330
2FBC
330
30B6
102
}
330
A
100
AcDbSymbolTableRecord
100
AcDbDimStyleTableRecord
  2
Standard
 70
     0
340
11
  0
ENDTAB
  0
TABLE
  2
BLOCK_RECORD
  5
1
330
0
100
AcDbSymbolTable
 70
     8
  0
BLOCK_RECORD
  5
1E
102
{ACAD_XDICTIONARY
360
A0
102
}
330
1
100
AcDbSymbolTableRecord
100
AcDbBlockTableRecord
  2
*Model_Space
340
21
  0
BLOCK_RECORD
  5
1A
102
{ACAD_XDICTIONARY
360
A2
102
}
330
1
100
AcDbSymbolTableRecord
100
AcDbBlockTableRecord
  2
*Paper_Space
340
1D
  0
BLOCK_RECORD
  5
22
330
1
100
AcDbSymbolTableRecord
100
AcDbBlockTableRecord
  2
LOGO
340
0
102
{BLKREFS
331
9B
102
}
  0
BLOCK_RECORD
  5
2BEE
330
1
100
AcDbSymbolTableRecord
100
AcDbBlockTableRecord
  2
*X1
340
0
102
{BLKREFS
331
2D40
102
}
  0
BLOCK_RECORD
  5
2F40
330
1
100
AcDbSymbolTableRecord
100
AcDbBlockTableRecord
  2
*D2
340
0
  0
BLOCK_RECORD
  5
2F4D
330
1
100
AcDbSymbolTableRecord
100
AcDbBlockTableRecord
  2
*D3
340
0
  0
BLOCK_RECORD
  5
2F75
330
1
100
AcDbSymbolTableRecord
100
AcDbBlockTableRecord
  2
*D4
340
0
  0
BLOCK_RECORD
  5
2F9E
330
1
100
AcDbSymbolTableRecord
100
AcDbBlockTableRecord
  2
*D5
340
0
  0
BLOCK_RECORD
  5
2FBD
330
1
100
AcDbSymbolTableRecord
100
AcDbBlockTableRecord
  2
*D6
340
0
  0
BLOCK_RECORD
  5
30B7
330
1
100
AcDbSymbolTableRecord
100
AcDbBlockTableRecord
  2
*D7
340
0
  0
ENDTAB
  0
ENDSEC
  0
SECTION
  2
BLOCKS
  0
BLOCK
  5
35
330
1E
100
AcDbEntity
  8
0
100
AcDbBlockBegin
  2
*Model_Space
 70
     0
 10
0.0
 20
0.0
 30
0.0
  3
*Model_Space
  1

  0
ENDBLK
  5
36
330
1E
100
AcDbEntity
  8
0
100
AcDbBlockEnd
  0
BLOCK
  5
33
330
1A
100
AcDbEntity
 67
     1
  8
0
100
AcDbBlockBegin
  2
*Paper_Space
 70
     0
 10
0.0
 20
0.0
 30
0.0
  3
*Paper_Space
  1

  0
ENDBLK
  5
34
330
1A
100
AcDbEntity
 67
     1
  8
0
100
AcDbBlockEnd
  0
BLOCK
  5
37
330
22
100
AcDbEntity
  8
0
100
AcDbBlockBegin
  2
LOGO
 70
     0
 10
0.0
 20
0.0
 30
0.0
  3
LOGO
  1

  0
ARC
  5
38
330
22
100
AcDbEntity
  8
0
100
AcDbCircle
 10
11.59973089678112
 20
-9.271599258481501
 30
0.0
 40
4.5
100
AcDbArc
 50
270.0
 51
231.0575587310159
  0
LINE
  5
39
330
22
100
AcDbEntity
  8
0
100
AcDbLine
 10
3.599730896781125
 20
-4.771599258481529
 30
0.0
 11
3.599730896781153
 21
-11.77159925848133
 31
0.0
  0
LINE
  5
3A
330
22
100
AcDbEntity
  8
0
100
AcDbLine
 10
2.599730896781125
 20
-4.771599258481529
 30
0.0
 11
2.599730896781153
 21
-11.77159925848133
 31
0.0
  0
CIRCLE
  5
3B
330
22
100
AcDbEntity
  8
0
100
AcDbCircle
 10
11.59973089678112
 20
-9.271599258481501
 30
0.0
 40
3.5
  0
ARC
  5
3C
330
22
100
AcDbEntity
  8
0
100
AcDbCircle
 10
31.59973089678115
 20
-9.271599258481472
 30
0.0
 40
4.5
100
AcDbArc
 50
270.0
 51
231.0575587310182
  0
LINE
  5
3D
330
22
100
AcDbEntity
  8
0
100
AcDbLine
 10
17.59973089678112
 20
-4.771599258481472
 30
0.0
 11
17.59973089678115
 21
-13.77159925848147
 31
0.0
  0
ARC
  5
3E
330
22
100
AcDbEntity
  8
0
100
AcDbCircle
 10
22.59973089678116
 20
-7.271599258481472
 30
0.0
 40
2.5
100
AcDbArc
 50
293.1161887722295
 51
90.0
  0
CIRCLE
  5
3F
330
22
100
AcDbEntity
  8
0
100
AcDbCircle
 10
31.59973089678115
 20
-9.271599258481472
 30
0.0
 40
3.5
  0
ARC
  5
40
330
22
100
AcDbEntity
  8
0
100
AcDbCircle
 10
4.599730896781153
 20
-11.77159925848133
 30
0.0
 40
1.0
100
AcDbArc
 50
180.0
 51
270.0
  0
ARC
  5
41
330
22
100
AcDbEntity
  8
0
100
AcDbCircle
 10
4.599730896781153
 20
-11.77159925848133
 30
0.0
 40
2.0
100
AcDbArc
 50
179.9999999999992
 51
270.0
  0
LINE
  5
42
330
22
100
AcDbEntity
  8
0
100
AcDbLine
 10
11.59973089678115
 20
-13.77159925848144
 30
0.0
 11
4.599730896781153
 21
-13.77159925848147
 31
0.0
  0
LINE
  5
43
330
22
100
AcDbEntity
  8
0
100
AcDbLine
 10
8.771303772034769
 20
-12.77159925848136
 30
0.0
 11
4.599730896781153
 21
-12.77159925848133
 31
0.0
  0
LINE
  5
44
330
22
100
AcDbEntity
  8
0
100
AcDbLine
 10
31.59973089678115
 20
-13.77159925848147
 30
0.0
 11
23.6715276665056
 21
-13.77159925848144
 31
0.0
  0
LINE
  5
45
330
22
100
AcDbEntity
  8
0
100
AcDbLine
 10
23.56565672307022
 20
-9.51278021337896
 30
0.0
 11
24.4388546544846
 21
-12.77159925848144
 31
0.0
  0
LINE
  5
46
330
22
100
AcDbEntity
  8
0
100
AcDbLine
 10
22.59973089678116
 20
-9.771599258481472
 30
0.0
 11
18.59973089678112
 21
-9.771599258481472
 31
0.0
  0
LINE
  5
47
330
22
100
AcDbEntity
  8
0
100
AcDbLine
 10
18.59973089678115
 20
-13.77159925848144
 30
0.0
 11
17.59973089678115
 21
-13.77159925848144
 31
0.0
  0
LINE
  5
48
330
22
100
AcDbEntity
  8
0
100
AcDbLine
 10
18.59973089678115
 20
-9.771599258481472
 30
0.0
 11
18.59973089678115
 21
-13.77159925848144
 31
0.0
  0
LINE
  5
49
330
22
100
AcDbEntity
  8
0
100
AcDbLine
 10
22.59973089678116
 20
-9.771599258481472
 30
0.0
 11
23.67152766650562
 21
-13.77159925848147
 31
0.0
  0
ARC
  5
4A
330
22
100
AcDbEntity
  8
0
100
AcDbCircle
 10
22.59973089678116
 20
-7.271599258481472
 30
0.0
 40
2.5
100
AcDbArc
 50
270.0
 51
270.0000000000007
  0
LINE
  5
4B
330
22
100
AcDbEntity
  8
0
100
AcDbLine
 10
28.77130377203494
 20
-12.77159925848147
 30
0.0
 11
24.43885465448463
 21
-12.77159925848144
 31
0.0
  0
LINE
  5
4C
330
22
100
AcDbEntity
  8
0
100
AcDbLine
 10
3.599730896781125
 20
-4.771599258481472
 30
0.0
 11
2.599730896781125
 21
-4.771599258481472
 31
0.0
  0
LINE
  5
4D
330
22
100
AcDbEntity
  8
0
100
AcDbLine
 10
22.59973089678116
 20
-8.771599258481472
 30
0.0
 11
18.59973089678115
 21
-8.771599258481472
 31
0.0
  0
LINE
  5
4E
330
22
100
AcDbEntity
  8
0
100
AcDbLine
 10
22.59973089678116
 20
-5.771599258481472
 30
0.0
 11
18.59973089678115
 21
-5.771599258481472
 31
0.0
  0
LINE
  5
4F
330
22
100
AcDbEntity
  8
0
100
AcDbLine
 10
22.59973089678116
 20
-4.771599258481472
 30
0.0
 11
17.59973089678115
 21
-4.771599258481472
 31
0.0
  0
LINE
  5
50
330
22
100
AcDbEntity
  8
0
100
AcDbLine
 10
18.59973089678115
 20
-5.771599258481472
 30
0.0
 11
18.59973089678115
 21
-8.771599258481472
 31
0.0
  0
ARC
  5
51
330
22
100
AcDbEntity
  8
0
100
AcDbCircle
 10
22.59973089678116
 20
-7.271599258481472
 30
0.0
 40
1.5
100
AcDbArc
 50
270.0
 51
90.0
  0
ENDBLK
  5
52
330
22
100
AcDbEntity
  8
0
100
AcDbBlockEnd
  0
BLOCK
  5
2BEF
330
2BEE
100
AcDbEntity
  8
0
100
AcDbBlockBegin
  2
*X1
 70
     1
 10
0.0
 20
0.0
 30
0.0
  3
*X1
  1

  0
LINE
  5
2BF0
330
2BEE
100
AcDbEntity
  8
0
 62
     0
100
AcDbLine
 10
137.3657200036454
 20
393.9
 30
0.0
 11
137.4039930109954
 21
393.9
 31
0.0
  0
LINE
  5
2BF1
330
2BEE
100
AcDbEntity
  8
0
 62
     0
100
AcDbLine
 10
137.3241365762884
 20
394.0
 30
0.0
 11
137.4954350265017
 21
394.0
 31
0.0
  0
LINE
  5
2BF2
330
2BEE
100
AcDbEntity
  8
0
 62
     0
100
AcDbLine
 10
137.2863905070698
 20
394.1
 30
0.0
 11
137.5870362149941
 21
394.1
 31
0.0
  0
LINE
  5
2BF3
330
2BEE
100
AcDbEntity
  8
0
 62
     0
100
AcDbLine
 10
137.2523411075647
 20
394.2000000000001
 30
0.0
 11
137.6787969559582
 21
394.2000000000001
 31
0.0
  0
LINE
  5
2BF4
330
2BEE
100
AcDbEntity
  8
0
 62
     0
100
AcDbLine
 10
137.2218673154197
 20
394.3
 30
0.0
 11
137.7707176307512
 21
394.3
 31
0.0
  0
LINE
  5
2BF5
330
2BEE
100
AcDbEntity
  8
0
 62
     0
100
AcDbLine
 10
137.1948652294121
 20
394.4
 30
0.0
 11
137.8627986226145
 21
394.4
 31
0.0
  0
LINE
  5
2BF6
330
2BEE
100
AcDbEntity
  8
0
 62
     0
100
AcDbLine
 10
137.1712461267202
 20
394.5
 30
0.0
 11
137.9550403166865
 21
394.5
 31
0.0
  0
LINE
  5
2BF7
330
2BEE
100
AcDbEntity
  8
0
 62
     0
100
AcDbLine
 10
137.1509348652325
 20
394.6
 30
0.0
 11
138.0474431000157
 21
394.6
 31
0.0
  0
LINE
  5
2BF8
330
2BEE
100
AcDbEntity
  8
0
 62
     0
100
AcDbLine
 10
137.1338685980773
 20
394.7
 30
0.0
 11
138.1400073615735
 21
394.7
 31
0.0
  0
LINE
  5
2BF9
330
2BEE
100
AcDbEntity
  8
0
 62
     0
100
AcDbLine
 10
137.1199957454963
 20
394.8
 30
0.0
 11
138.232733492268
 21
394.8
 31
0.0
  0
LINE
  5
2BFA
330
2BEE
100
AcDbEntity
  8
0
 62
     0
100
AcDbLine
 10
137.1092751826579
 20
394.9
 30
0.0
 11
138.3256218849567
 21
394.9
 31
0.0
  0
LINE
  5
2BFB
330
2BEE
100
AcDbEntity
  8
0
 62
     0
100
AcDbLine
 10
137.1016756123215
 20
395.0
 30
0.0
 11
138.4186729344603
 21
395.0
 31
0.0
  0
LINE
  5
2BFC
330
2BEE
100
AcDbEntity
  8
0
 62
     0
100
AcDbLine
 10
137.0971750993414
 20
395.1
 30
0.0
 11
138.5118870375763
 21
395.1
 31
0.0
  0
LINE
  5
2BFD
330
2BEE
100
AcDbEntity
  8
0
 62
     0
100
AcDbLine
 10
137.0957607505252
 20
395.2
 30
0.0
 11
138.6052645930926
 21
395.2
 31
0.0
  0
LINE
  5
2BFE
330
2BEE
100
AcDbEntity
  8
0
 62
     0
100
AcDbLine
 10
137.0974285287958
 20
395.3
 30
0.0
 11
138.698806001801
 21
395.3
 31
0.0
  0
LINE
  5
2BFF
330
2BEE
100
AcDbEntity
  8
0
 62
     0
100
AcDbLine
 10
137.1021831953575
 20
395.4
 30
0.0
 11
138.792511666512
 21
395.4
 31
0.0
  0
LINE
  5
2C00
330
2BEE
100
AcDbEntity
  8
0
 62
     0
100
AcDbLine
 10
137.1100383779218
 20
395.5
 30
0.0
 11
138.8863819920678
 21
395.5
 31
0.0
  0
LINE
  5
2C01
330
2BEE
100
AcDbEntity
  8
0
 62
     0
100
AcDbLine
 10
137.1210167672863
 20
395.6
 30
0.0
 11
138.9804173853574
 21
395.6
 31
0.0
  0
LINE
  5
2C02
330
2BEE
100
AcDbEntity
  8
0
 62
     0
100
AcDbLine
 10
137.1351504489406
 20
395.7000000000001
 30
0.0
 11
139.0746182553305
 21
395.7000000000001
 31
0.0
  0
LINE
  5
2C03
330
2BEE
100
AcDbEntity
  8
0
 62
     0
100
AcDbLine
 10
137.1524813811634
 20
395.8
 30
0.0
 11
139.1689850130117
 21
395.8
 31
0.0
  0
LINE
  5
2C04
330
2BEE
100
AcDbEntity
  8
0
 62
     0
100
AcDbLine
 10
137.1730620365884
 20
395.9000000000001
 30
0.0
 11
139.2635180715158
 21
395.9000000000001
 31
0.0
  0
LINE
  5
2C05
330
2BEE
100
AcDbEntity
  8
0
 62
     0
100
AcDbLine
 10
137.196956230846
 20
396.0
 30
0.0
 11
139.3582178460619
 21
396.0
 31
0.0
  0
LINE
  5
2C06
330
2BEE
100
AcDbEntity
  8
0
 62
     0
100
AcDbLine
 10
137.2242401701228
 20
396.1
 30
0.0
 11
139.4530847539885
 21
396.1
 31
0.0
  0
LINE
  5
2C07
330
2BEE
100
AcDbEntity
  8
0
 62
     0
100
AcDbLine
 10
137.2550037600181
 20
396.2000000000001
 30
0.0
 11
139.5481192147686
 21
396.2000000000001
 31
0.0
  0
LINE
  5
2C08
330
2BEE
100
AcDbEntity
  8
0
 62
     0
100
AcDbLine
 10
137.2893522318564
 20
396.3
 30
0.0
 11
139.6433216500245
 21
396.3
 31
0.0
  0
LINE
  5
2C09
330
2BEE
100
AcDbEntity
  8
0
 62
     0
100
AcDbLine
 10
137.3274081610049
 20
396.4
 30
0.0
 11
139.7386924835436
 21
396.4
 31
0.0
  0
LINE
  5
2C0A
330
2BEE
100
AcDbEntity
  8
0
 62
     0
100
AcDbLine
 10
137.3693139767336
 20
396.5
 30
0.0
 11
139.8342321412929
 21
396.5
 31
0.0
  0
LINE
  5
2C0B
330
2BEE
100
AcDbEntity
  8
0
 62
     0
100
AcDbLine
 10
137.4152350977059
 20
396.6
 30
0.0
 11
139.9299410514358
 21
396.6
 31
0.0
  0
LINE
  5
2C0C
330
2BEE
100
AcDbEntity
  8
0
 62
     0
100
AcDbLine
 10
137.4653638758039
 20
396.7
 30
0.0
 11
140.0258196443467
 21
396.7
 31
0.0
  0
LINE
  5
2C0D
330
2BEE
100
AcDbEntity
  8
0
 62
     0
100
AcDbLine
 10
137.5199246006657
 20
396.8
 30
0.0
 11
140.1218683526275
 21
396.8
 31
0.0
  0
LINE
  5
2C0E
330
2BEE
100
AcDbEntity
  8
0
 62
     0
100
AcDbLine
 10
137.5791799191297
 20
396.9
 30
0.0
 11
140.2180876111233
 21
396.9
 31
0.0
  0
LINE
  5
2C0F
330
2BEE
100
AcDbEntity
  8
0
 62
     0
100
AcDbLine
 10
137.6434391758056
 20
397.0
 30
0.0
 11
140.3144778569385
 21
397.0
 31
0.0
  0
LINE
  5
2C10
330
2BEE
100
AcDbEntity
  8
0
 62
     0
100
AcDbLine
 10
137.7130694133755
 20
397.1
 30
0.0
 11
140.4110395294535
 21
397.1
 31
0.0
  0
LINE
  5
2C11
330
2BEE
100
AcDbEntity
  8
0
 62
     0
100
AcDbLine
 10
137.7885101359912
 20
397.2
 30
0.0
 11
140.5077730703406
 21
397.2
 31
0.0
  0
LINE
  5
2C12
330
2BEE
100
AcDbEntity
  8
0
 62
     0
100
AcDbLine
 10
137.8702935290336
 20
397.3
 30
0.0
 11
140.6046789235809
 21
397.3
 31
0.0
  0
LINE
  5
2C13
330
2BEE
100
AcDbEntity
  8
0
 62
     0
100
AcDbLine
 10
137.9590728156377
 20
397.4000000000001
 30
0.0
 11
140.7017575354811
 21
397.4000000000001
 31
0.0
  0
LINE
  5
2C14
330
2BEE
100
AcDbEntity
  8
0
 62
     0
100
AcDbLine
 10
138.0556631487676
 20
397.5
 30
0.0
 11
140.7990093546902
 21
397.5
 31
0.0
  0
LINE
  5
2C15
330
2BEE
100
AcDbEntity
  8
0
 62
     0
100
AcDbLine
 10
138.1611025704244
 20
397.6
 30
0.0
 11
140.896434832217
 21
397.6
 31
0.0
  0
LINE
  5
2C16
330
2BEE
100
AcDbEntity
  8
0
 62
     0
100
AcDbLine
 10
138.2767466036951
 20
397.7000000000001
 30
0.0
 11
140.9940344214465
 21
397.7000000000001
 31
0.0
  0
LINE
  5
2C17
330
2BEE
100
AcDbEntity
  8
0
 62
     0
100
AcDbLine
 10
138.4044224660855
 20
397.8
 30
0.0
 11
141.0918085781583
 21
397.8
 31
0.0
  0
LINE
  5
2C18
330
2BEE
100
AcDbEntity
  8
0
 62
     0
100
AcDbLine
 10
138.5466966707664
 20
397.9
 30
0.0
 11
141.1897577605435
 21
397.9
 31
0.0
  0
LINE
  5
2C19
330
2BEE
100
AcDbEntity
  8
0
 62
     0
100
AcDbLine
 10
138.707378827545
 20
398.0
 30
0.0
 11
141.2878824292227
 21
398.0
 31
0.0
  0
LINE
  5
2C1A
330
2BEE
100
AcDbEntity
  8
0
 62
     0
100
AcDbLine
 10
138.8925821604941
 20
398.1
 30
0.0
 11
141.3861830472639
 21
398.1
 31
0.0
  0
LINE
  5
2C1B
330
2BEE
100
AcDbEntity
  8
0
 62
     0
100
AcDbLine
 10
139.1133543553141
 20
398.2000000000001
 30
0.0
 11
141.4846600802002
 21
398.2000000000001
 31
0.0
  0
LINE
  5
2C1C
330
2BEE
100
AcDbEntity
  8
0
 62
     0
100
AcDbLine
 10
139.3942585794022
 20
398.3
 30
0.0
 11
141.287839495477
 21
398.3
 31
0.0
  0
LINE
  5
2C1D
330
2BEE
100
AcDbEntity
  8
0
 62
     0
100
AcDbLine
 10
139.8256946832893
 20
398.4
 30
0.0
 11
140.8564033915899
 21
398.4
 31
0.0
  0
LINE
  5
2C1E
330
2BEE
100
AcDbEntity
  8
0
 62
     0
100
AcDbLine
 10
238.0280282574957
 20
306.5
 30
0.0
 11
238.1174552325116
 21
306.5
 31
0.0
  0
LINE
  5
2C1F
330
2BEE
100
AcDbEntity
  8
0
 62
     0
100
AcDbLine
 10
237.9071019057846
 20
306.4
 30
0.0
 11
238.1410708539121
 21
306.4
 31
0.0
  0
LINE
  5
2C20
330
2BEE
100
AcDbEntity
  8
0
 62
     0
100
AcDbLine
 10
237.7878001505248
 20
306.3
 30
0.0
 11
238.1616286385443
 21
306.3
 31
0.0
  0
LINE
  5
2C21
330
2BEE
100
AcDbEntity
  8
0
 62
     0
100
AcDbLine
 10
237.670084922095
 20
306.2
 30
0.0
 11
238.1791829551469
 21
306.2
 31
0.0
  0
LINE
  5
2C22
330
2BEE
100
AcDbEntity
  8
0
 62
     0
100
AcDbLine
 10
237.5539198142703
 20
306.1
 30
0.0
 11
238.1937792126568
 21
306.1
 31
0.0
  0
LINE
  5
2C23
330
2BEE
100
AcDbEntity
  8
0
 62
     0
100
AcDbLine
 10
237.4392699842303
 20
306.0
 30
0.0
 11
238.2054544730869
 21
306.0
 31
0.0
  0
LINE
  5
2C24
330
2BEE
100
AcDbEntity
  8
0
 62
     0
100
AcDbLine
 10
237.3261020602019
 20
305.9000000000001
 30
0.0
 11
238.2142379367671
 21
305.9000000000001
 31
0.0
  0
LINE
  5
2C25
330
2BEE
100
AcDbEntity
  8
0
 62
     0
100
AcDbLine
 10
237.2143840560358
 20
305.8
 30
0.0
 11
238.2201513152462
 21
305.8
 31
0.0
  0
LINE
  5
2C26
330
2BEE
100
AcDbEntity
  8
0
 62
     0
100
AcDbLine
 10
237.1040852920909
 20
305.7
 30
0.0
 11
238.2232091032182
 21
305.7
 31
0.0
  0
LINE
  5
2C27
330
2BEE
100
AcDbEntity
  8
0
 62
     0
100
AcDbLine
 10
236.9951763218641
 20
305.6
 30
0.0
 11
238.2234187575349
 21
305.6
 31
0.0
  0
LINE
  5
2C28
330
2BEE
100
AcDbEntity
  8
0
 62
     0
100
AcDbLine
 10
236.8876288638635
 20
305.5
 30
0.0
 11
238.2207807885158
 21
305.5
 31
0.0
  0
LINE
  5
2C29
330
2BEE
100
AcDbEntity
  8
0
 62
     0
100
AcDbLine
 10
236.7814157382739
 20
305.4
 30
0.0
 11
238.2152887661776
 21
305.4
 31
0.0
  0
LINE
  5
2C2A
330
2BEE
100
AcDbEntity
  8
0
 62
     0
100
AcDbLine
 10
236.6765108080076
 20
305.3
 30
0.0
 11
238.2069292415616
 21
305.3
 31
0.0
  0
LINE
  5
2C2B
330
2BEE
100
AcDbEntity
  8
0
 62
     0
100
AcDbLine
 10
236.5728889237741
 20
305.2
 30
0.0
 11
238.1956815809013
 21
305.2
 31
0.0
  0
LINE
  5
2C2C
330
2BEE
100
AcDbEntity
  8
0
 62
     0
100
AcDbLine
 10
236.4705258728403
 20
305.1
 30
0.0
 11
238.1815177078166
 21
305.1
 31
0.0
  0
LINE
  5
2C2D
330
2BEE
100
AcDbEntity
  8
0
 62
     0
100
AcDbLine
 10
236.3693983311784
 20
305.0
 30
0.0
 11
238.1644017459128
 21
305.0
 31
0.0
  0
LINE
  5
2C2E
330
2BEE
100
AcDbEntity
  8
0
 62
     0
100
AcDbLine
 10
236.2694838187362
 20
304.9
 30
0.0
 11
238.1442895509445
 21
304.9
 31
0.0
  0
LINE
  5
2C2F
330
2BEE
100
AcDbEntity
  8
0
 62
     0
100
AcDbLine
 10
236.1707606575786
 20
304.8
 30
0.0
 11
238.1211281178745
 21
304.8
 31
0.0
  0
LINE
  5
2C30
330
2BEE
100
AcDbEntity
  8
0
 62
     0
100
AcDbLine
 10
236.0732079326832
 20
304.7
 30
0.0
 11
238.094854843483
 21
304.7
 31
0.0
  0
LINE
  5
2C31
330
2BEE
100
AcDbEntity
  8
0
 62
     0
100
AcDbLine
 10
235.9768054551818
 20
304.6
 30
0.0
 11
238.0653966193207
 21
304.6
 31
0.0
  0
LINE
  5
2C32
330
2BEE
100
AcDbEntity
  8
0
 62
     0
100
AcDbLine
 10
235.8815337278676
 20
304.5
 30
0.0
 11
238.0326687223121
 21
304.5
 31
0.0
  0
LINE
  5
2C33
330
2BEE
100
AcDbEntity
  8
0
 62
     0
100
AcDbLine
 10
235.787373912797
 20
304.4
 30
0.0
 11
237.9965734605816
 21
304.4
 31
0.0
  0
LINE
  5
2C34
330
2BEE
100
AcDbEntity
  8
0
 62
     0
100
AcDbLine
 10
235.6943078008337
 20
304.3
 30
0.0
 11
237.956998519227
 21
304.3
 31
0.0
  0
LINE
  5
2C35
330
2BEE
100
AcDbEntity
  8
0
 62
     0
100
AcDbLine
 10
235.6023177829935
 20
304.2
 30
0.0
 11
237.9138149335366
 21
304.2
 31
0.0
  0
LINE
  5
2C36
330
2BEE
100
AcDbEntity
  8
0
 62
     0
100
AcDbLine
 10
235.5113868234618
 20
304.1
 30
0.0
 11
237.8668745937218
 21
304.1
 31
0.0
  0
LINE
  5
2C37
330
2BEE
100
AcDbEntity
  8
0
 62
     0
100
AcDbLine
 10
235.4214984341658
 20
304.0
 30
0.0
 11
237.8160071528806
 21
304.0
 31
0.0
  0
LINE
  5
2C38
330
2BEE
100
AcDbEntity
  8
0
 62
     0
100
AcDbLine
 10
235.3326366507926
 20
303.9000000000001
 30
0.0
 11
237.7610161645091
 21
303.9000000000001
 31
0.0
  0
LINE
  5
2C39
330
2BEE
100
AcDbEntity
  8
0
 62
     0
100
AcDbLine
 10
235.2447860101545
 20
303.8
 30
0.0
 11
237.7016742110781
 21
303.8
 31
0.0
  0
LINE
  5
2C3A
330
2BEE
100
AcDbEntity
  8
0
 62
     0
100
AcDbLine
 10
235.1579315288098
 20
303.7
 30
0.0
 11
237.6377166909538
 21
303.7
 31
0.0
  0
LINE
  5
2C3B
330
2BEE
100
AcDbEntity
  8
0
 62
     0
100
AcDbLine
 10
235.0720586828543
 20
303.6
 30
0.0
 11
237.5688337910803
 21
303.6
 31
0.0
  0
LINE
  5
2C3C
330
2BEE
100
AcDbEntity
  8
0
 62
     0
100
AcDbLine
 10
234.9871533888072
 20
303.5
 30
0.0
 11
237.4946599604782
 21
303.5
 31
0.0
  0
LINE
  5
2C3D
330
2BEE
100
AcDbEntity
  8
0
 62
     0
100
AcDbLine
 10
234.903201985519
 20
303.4
 30
0.0
 11
237.4147598688872
 21
303.4
 31
0.0
  0
LINE
  5
2C3E
330
2BEE
100
AcDbEntity
  8
0
 62
     0
100
AcDbLine
 10
234.8201912170347
 20
303.3
 30
0.0
 11
237.3286093047922
 21
303.3
 31
0.0
  0
LINE
  5
2C3F
330
2BEE
100
AcDbEntity
  8
0
 62
     0
100
AcDbLine
 10
234.7381082163531
 20
303.2
 30
0.0
 11
237.2355685891673
 21
303.2
 31
0.0
  0
LINE
  5
2C40
330
2BEE
100
AcDbEntity
  8
0
 62
     0
100
AcDbLine
 10
234.6569404900234
 20
303.1
 30
0.0
 11
237.1348445713782
 21
303.1
 31
0.0
  0
LINE
  5
2C41
330
2BEE
100
AcDbEntity
  8
0
 62
     0
100
AcDbLine
 10
234.5766759035287
 20
303.0
 30
0.0
 11
237.0254345599132
 21
303.0
 31
0.0
  0
LINE
  5
2C42
330
2BEE
100
AcDbEntity
  8
0
 62
     0
100
AcDbLine
 10
234.4973026674068
 20
302.9
 30
0.0
 11
236.906040402018
 21
302.9
 31
0.0
  0
LINE
  5
2C43
330
2BEE
100
AcDbEntity
  8
0
 62
     0
100
AcDbLine
 10
234.4188093240634
 20
302.8
 30
0.0
 11
236.7749305656303
 21
302.8
 31
0.0
  0
LINE
  5
2C44
330
2BEE
100
AcDbEntity
  8
0
 62
     0
100
AcDbLine
 10
234.3411847352359
 20
302.7
 30
0.0
 11
236.6297055077127
 21
302.7
 31
0.0
  0
LINE
  5
2C45
330
2BEE
100
AcDbEntity
  8
0
 62
     0
100
AcDbLine
 10
234.2644180700702
 20
302.6
 30
0.0
 11
236.4668673866974
 21
302.6
 31
0.0
  0
LINE
  5
2C46
330
2BEE
100
AcDbEntity
  8
0
 62
     0
100
AcDbLine
 10
234.1884987937713
 20
302.5
 30
0.0
 11
236.2809469210509
 21
302.5
 31
0.0
  0
LINE
  5
2C47
330
2BEE
100
AcDbEntity
  8
0
 62
     0
100
AcDbLine
 10
234.1134166567985
 20
302.4
 30
0.0
 11
236.0624546584026
 21
302.4
 31
0.0
  0
LINE
  5
2C48
330
2BEE
100
AcDbEntity
  8
0
 62
     0
100
AcDbLine
 10
234.0391616845689
 20
302.3
 30
0.0
 11
235.7918234651394
 21
302.3
 31
0.0
  0
LINE
  5
2C49
330
2BEE
100
AcDbEntity
  8
0
 62
     0
100
AcDbLine
 10
234.0099477709872
 20
302.2
 30
0.0
 11
235.4110297631384
 21
302.2
 31
0.0
  0
ENDBLK
  5
2C4A
330
2BEE
100
AcDbEntity
  8
0
100
AcDbBlockEnd
  0
BLOCK
  5
2F4A
330
2F40
100
AcDbEntity
  8
0
100
AcDbBlockBegin
  2
*D2
 70
     1
 10
0.0
 20
0.0
 30
0.0
  3
*D2
  1

  0
LINE
  5
3175
330
2F40
100
AcDbEntity
  8
BEM
 62
     0
370
    -2
100
AcDbLine
 10
129.9116861910787
 20
302.6401271267331
 30
0.0
 11
115.6810783578501
 21
302.6401271267332
 31
0.0
  0
LINE
  5
3176
330
2F40
100
AcDbEntity
  8
BEM
 62
     0
370
    -2
100
AcDbLine
 10
148.2682217297924
 20
242.6412140145189
 30
0.0
 11
115.6810783578501
 21
242.6412140145189
 31
0.0
  0
LINE
  5
3177
330
2F40
100
AcDbEntity
  8
BEM
 62
     0
370
    -2
100
AcDbLine
 10
117.6810783578501
 20
295.6401271267331
 30
0.0
 11
117.6810783578501
 21
249.6412140145189
 31
0.0
  0
SOLID
  5
3178
330
2F40
100
AcDbEntity
  8
BEM
 62
     0
100
AcDbTrace
 10
116.5144116911834
 20
295.6401271267331
 30
0.0
 11
118.8477450245168
 21
295.6401271267331
 31
0.0
 12
117.6810783578501
 22
302.6401271267332
 32
0.0
 13
117.6810783578501
 23
302.6401271267332
 33
0.0
  0
SOLID
  5
3179
330
2F40
100
AcDbEntity
  8
BEM
 62
     0
100
AcDbTrace
 10
116.5144116911834
 20
249.6412140145189
 30
0.0
 11
118.8477450245167
 21
249.6412140145189
 31
0.0
 12
117.6810783578501
 22
242.6412140145189
 32
0.0
 13
117.6810783578501
 23
242.6412140145189
 33
0.0
  0
MTEXT
  5
317A
330
2F40
100
AcDbEntity
  8
BEM
 62
     1
100
AcDbMText
 10
111.18107835785
 20
272.640670570626
 30
0.0
 40
7.0
 41
0.0
 71
     5
 72
     1
  1
\A1;60
 11
0.0000000000000001
 21
1.0
 31
0.0
 73
     1
 44
1.0
  0
POINT
  5
317B
330
2F40
100
AcDbEntity
  8
Defpoints
 62
     0
100
AcDbPoint
 10
131.9116861910787
 20
302.6401271267331
 30
0.0
  0
POINT
  5
317C
330
2F40
100
AcDbEntity
  8
Defpoints
 62
     0
100
AcDbPoint
 10
150.2682217297924
 20
242.6412140145189
 30
0.0
  0
POINT
  5
317D
330
2F40
100
AcDbEntity
  8
Defpoints
 62
     0
100
AcDbPoint
 10
117.6810783578501
 20
242.6412140145189
 30
0.0
  0
ENDBLK
  5
2F4B
330
2F40
100
AcDbEntity
  8
0
100
AcDbBlockEnd
  0
BLOCK
  5
2F57
330
2F4D
100
AcDbEntity
  8
0
100
AcDbBlockBegin
  2
*D3
 70
     1
 10
0.0
 20
0.0
 30
0.0
  3
*D3
  1

  0
LINE
  5
316C
330
2F4D
100
AcDbEntity
  8
BEM
 62
     0
370
    -2
100
AcDbLine
 10
214.0733002119359
 20
360.6412140145188
 30
0.0
 11
100.6621193158763
 21
360.6412140145188
 31
0.0
  0
LINE
  5
316D
330
2F4D
100
AcDbEntity
  8
BEM
 62
     0
370
    -2
100
AcDbLine
 10
148.2682217297924
 20
242.6412140145189
 30
0.0
 11
100.6621193158763
 21
242.6412140145189
 31
0.0
  0
LINE
  5
316E
330
2F4D
100
AcDbEntity
  8
BEM
 62
     0
370
    -2
100
AcDbLine
 10
102.6621193158763
 20
353.6412140145188
 30
0.0
 11
102.6621193158763
 21
249.6412140145189
 31
0.0
  0
SOLID
  5
316F
330
2F4D
100
AcDbEntity
  8
BEM
 62
     0
100
AcDbTrace
 10
101.4954526492097
 20
353.6412140145188
 30
0.0
 11
103.828785982543
 21
353.6412140145188
 31
0.0
 12
102.6621193158763
 22
360.6412140145188
 32
0.0
 13
102.6621193158763
 23
360.6412140145188
 33
0.0
  0
SOLID
  5
3170
330
2F4D
100
AcDbEntity
  8
BEM
 62
     0
100
AcDbTrace
 10
101.4954526492096
 20
249.6412140145189
 30
0.0
 11
103.828785982543
 21
249.6412140145189
 31
0.0
 12
102.6621193158763
 22
242.6412140145189
 32
0.0
 13
102.6621193158763
 23
242.6412140145189
 33
0.0
  0
MTEXT
  5
3171
330
2F4D
100
AcDbEntity
  8
BEM
 62
     1
100
AcDbMText
 10
96.16211931587629
 20
301.6412140145189
 30
0.0
 40
7.0
 41
0.0
 71
     5
 72
     1
  1
\A1;118
 11
0.0000000000000001
 21
1.0
 31
0.0
 73
     1
 44
1.0
  0
POINT
  5
3172
330
2F4D
100
AcDbEntity
  8
Defpoints
 62
     0
100
AcDbPoint
 10
216.0733002119359
 20
360.6412140145188
 30
0.0
  0
POINT
  5
3173
330
2F4D
100
AcDbEntity
  8
Defpoints
 62
     0
100
AcDbPoint
 10
150.2682217297924
 20
242.6412140145189
 30
0.0
  0
POINT
  5
3174
330
2F4D
100
AcDbEntity
  8
Defpoints
 62
     0
100
AcDbPoint
 10
102.6621193158763
 20
242.6412140145189
 30
0.0
  0
ENDBLK
  5
2F58
330
2F4D
100
AcDbEntity
  8
0
100
AcDbBlockEnd
  0
BLOCK
  5
2F7F
330
2F75
100
AcDbEntity
  8
0
100
AcDbBlockBegin
  2
*D4
 70
     1
 10
0.0
 20
0.0
 30
0.0
  3
*D4
  1

  0
LINE
  5
317E
330
2F75
100
AcDbEntity
  8
BEM
 62
     0
370
    -2
100
AcDbLine
 10
214.3412494043671
 20
361.6412140145188
 30
0.0
 11
123.1747755515981
 21
414.276202234484
 31
0.0
  0
LINE
  5
317F
330
2F75
100
AcDbEntity
  8
BEM
 62
     0
370
    -2
100
AcDbLine
 10
201.4652116759069
 20
507.6392624686517
 30
0.0
 11
183.1747755515984
 21
518.1992506886169
 31
0.0
  0
LINE
  5
3180
330
2F75
100
AcDbEntity
  8
BEM
 62
     0
370
    -2
100
AcDbLine
 10
128.406826359167
 20
419.338380060975
 30
0.0
 11
181.4068263591673
 21
511.1370728621258
 31
0.0
  0
SOLID
  5
3181
330
2F75
100
AcDbEntity
  8
BEM
 62
     0
100
AcDbTrace
 10
127.3964633880852
 20
419.9217133943084
 30
0.0
 11
129.4171893302489
 21
418.7550467276418
 31
0.0
 12
124.906826359167
 22
413.276202234484
 32
0.0
 13
124.906826359167
 23
413.276202234484
 33
0.0
  0
SOLID
  5
3182
330
2F75
100
AcDbEntity
  8
BEM
 62
     0
100
AcDbTrace
 10
180.3964633880854
 20
511.7204061954591
 30
0.0
 11
182.4171893302491
 21
510.5537395287925
 31
0.0
 12
184.9068263591673
 22
517.1992506886169
 32
0.0
 13
184.9068263591673
 23
517.1992506886169
 33
0.0
  0
MTEXT
  5
3183
330
2F75
100
AcDbEntity
  8
BEM
 62
     1
100
AcDbMText
 10
149.2776612345683
 20
468.4877264615504
 30
0.0
 40
7.0
 41
0.0
 71
     5
 72
     1
  1
\A1;120
 11
0.5000000000000009
 21
0.8660254037844381
 31
0.0
 73
     1
 44
1.0
  0
POINT
  5
3184
330
2F75
100
AcDbEntity
  8
Defpoints
 62
     0
100
AcDbPoint
 10
216.073300211936
 20
360.6412140145188
 30
0.0
  0
POINT
  5
3185
330
2F75
100
AcDbEntity
  8
Defpoints
 62
     0
100
AcDbPoint
 10
203.1972624834758
 20
506.6392624686517
 30
0.0
  0
POINT
  5
3186
330
2F75
100
AcDbEntity
  8
Defpoints
 62
     0
100
AcDbPoint
 10
184.9068263591673
 20
517.1992506886169
 30
0.0
  0
ENDBLK
  5
2F80
330
2F75
100
AcDbEntity
  8
0
100
AcDbBlockEnd
  0
BLOCK
  5
2FA8
330
2F9E
100
AcDbEntity
  8
0
100
AcDbBlockBegin
  2
*D5
 70
     1
 10
0.0
 20
0.0
 30
0.0
  3
*D5
  1

  0
LINE
  5
3187
330
2F9E
100
AcDbEntity
  8
BEM
 62
     0
370
    -2
100
AcDbLine
 10
204.1972624834757
 20
508.3713132762203
 30
0.0
 11
211.4571232260666
 21
520.9457609382623
 31
0.0
  0
LINE
  5
3188
330
2F9E
100
AcDbEntity
  8
BEM
 62
     0
370
    -2
100
AcDbLine
 10
349.9493379403966
 20
424.22131327622
 30
0.0
 11
357.2091986829875
 21
436.7957609382621
 31
0.0
  0
LINE
  5
3189
330
2F9E
100
AcDbEntity
  8
BEM
 62
     0
370
    -2
100
AcDbLine
 10
216.5193010525576
 20
515.7137101306934
 30
0.0
 11
350.1470208564964
 21
438.5637101306932
 31
0.0
  0
SOLID
  5
318A
330
2F9E
100
AcDbEntity
  8
BEM
 62
     0
100
AcDbTrace
 10
217.1026343858909
 20
516.7240731017752
 30
0.0
 11
215.9359677192243
 21
514.7033471596115
 31
0.0
 12
210.4571232260666
 22
519.2137101306933
 32
0.0
 13
210.4571232260666
 23
519.2137101306933
 33
0.0
  0
SOLID
  5
318B
330
2F9E
100
AcDbEntity
  8
BEM
 62
     0
100
AcDbTrace
 10
350.7303541898297
 20
439.5740731017751
 30
0.0
 11
349.5636875231631
 21
437.5533471596114
 31
0.0
 12
356.2091986829874
 22
435.0637101306932
 32
0.0
 13
356.2091986829874
 23
435.0637101306932
 33
0.0
  0
MTEXT
  5
318C
330
2F9E
100
AcDbEntity
  8
BEM
 62
     1
100
AcDbMText
 10
286.583160954527
 20
482.7678752552921
 30
0.0
 40
7.0
 41
0.0
 71
     5
 72
     1
  1
\A1;%%c168.3
 11
0.866025403784438
 21
-0.500000000000001
 31
0.0
 73
     1
 44
1.0
  0
POINT
  5
318D
330
2F9E
100
AcDbEntity
  8
Defpoints
 62
     0
100
AcDbPoint
 10
203.1972624834757
 20
506.6392624686513
 30
0.0
  0
POINT
  5
318E
330
2F9E
100
AcDbEntity
  8
Defpoints
 62
     0
100
AcDbPoint
 10
348.9493379403966
 20
422.4892624686511
 30
0.0
  0
POINT
  5
318F
330
2F9E
100
AcDbEntity
  8
Defpoints
 62
     0
100
AcDbPoint
 10
356.2091986829874
 20
435.0637101306932
 30
0.0
  0
ENDBLK
  5
2FA9
330
2F9E
100
AcDbEntity
  8
0
100
AcDbBlockEnd
  0
BLOCK
  5
2FC8
330
2FBD
100
AcDbEntity
  8
0
100
AcDbBlockBegin
  2
*D6
 70
     1
 10
0.0
 20
0.0
 30
0.0
  3
*D6
  1

  0
LINE
  5
30D5
330
2FBD
100
AcDbEntity
  8
BEM
 62
     0
370
    -2
100
AcDbLine
 10
216.0733847059241
 20
362.6412140127339
 30
0.0
 11
216.0774008102598
 21
457.703701151541
 31
0.0
  0
ARC
  5
30D6
330
2FBD
100
AcDbEntity
  8
BEM
 62
     0
370
    -2
100
AcDbCircle
 10
216.0733002119359
 20
360.6412140145188
 30
0.0
 40
95.06248722364125
100
AcDbArc
 50
64.21997294546061
 51
85.77760648008029
  0
SOLID
  5
30D7
330
2FBD
100
AcDbEntity
  8
BEM
 62
     0
100
AcDbTrace
 10
257.9633519941989
 20
447.273328322273
 30
0.0
 11
256.8718751984515
 21
445.2110182464626
 31
0.0
 12
263.6045438237566
 22
442.9677428971256
 32
0.0
 13
263.6045438237566
 23
442.9677428971256
 33
0.0
  0
SOLID
  5
30D8
330
2FBD
100
AcDbEntity
  8
BEM
 62
     0
100
AcDbTrace
 10
223.0295559066549
 20
454.2798065683869
 30
0.0
 11
223.115562821209
 21
456.6115542509403
 31
0.0
 12
216.0773163162716
 22
455.7037011533259
 32
0.0
 13
216.0773163162716
 23
455.7037011533259
 33
0.0
  0
MTEXT
  5
30D9
330
2FBD
100
AcDbEntity
  8
BEM
 62
     1
100
AcDbMText
 10
242.3616784212349
 20
458.7424881253943
 30
0.0
 40
7.0
 41
0.0
 71
     5
 72
     1
  1
\A1;30°
 11
0.9659203589102338
 21
-0.2588394487761193
 31
0.0
 73
     1
 44
1.0
  0
POINT
  5
30DA
330
2FBD
100
AcDbEntity
  8
Defpoints
 62
     0
100
AcDbPoint
 10
248.5878436817063
 20
449.9702739004113
 30
0.0
  0
POINT
  5
30DB
330
2FBD
100
AcDbEntity
  8
Defpoints
 62
     0
100
AcDbPoint
 10
216.0733002119359
 20
360.6412140145188
 30
0.0
  0
POINT
  5
30DC
330
2FBD
100
AcDbEntity
  8
Defpoints
 62
     0
100
AcDbPoint
 10
216.0733002119359
 20
360.6412140145188
 30
0.0
  0
POINT
  5
30DD
330
2FBD
100
AcDbEntity
  8
Defpoints
 62
     0
100
AcDbPoint
 10
278.5733002119361
 20
468.8943894875733
 30
0.0
  0
POINT
  5
30DE
330
2FBD
100
AcDbEntity
  8
Defpoints
 62
     0
100
AcDbPoint
 10
216.0681038316585
 20
237.6412140145189
 30
0.0
  0
ENDBLK
  5
2FC9
330
2FBD
100
AcDbEntity
  8
0
100
AcDbBlockEnd
  0
BLOCK
  5
30C1
330
30B7
100
AcDbEntity
  8
0
100
AcDbBlockBegin
  2
*D7
 70
     1
 10
0.0
 20
0.0
 30
0.0
  3
*D7
  1

  0
LINE
  5
30CC
330
30B7
100
AcDbEntity
  8
BEM
 62
     0
370
    -2
100
AcDbLine
 10
149.5686529832372
 20
248.6412140145189
 30
0.0
 11
149.5686529832372
 21
219.4545270651688
 31
0.0
  0
LINE
  5
30CD
330
30B7
100
AcDbEntity
  8
BEM
 62
     0
370
    -2
100
AcDbLine
 10
282.5686528645475
 20
248.6355951643068
 30
0.0
 11
282.5686528645475
 21
219.4545270651688
 31
0.0
  0
LINE
  5
30CE
330
30B7
100
AcDbEntity
  8
BEM
 62
     0
370
    -2
100
AcDbLine
 10
156.5686529832372
 20
221.4545270651688
 30
0.0
 11
275.5686528645475
 21
221.4545270651688
 31
0.0
  0
SOLID
  5
30CF
330
30B7
100
AcDbEntity
  8
BEM
 62
     0
100
AcDbTrace
 10
156.5686529832372
 20
222.6211937318355
 30
0.0
 11
156.5686529832372
 21
220.2878603985022
 31
0.0
 12
149.5686529832372
 22
221.4545270651688
 32
0.0
 13
149.5686529832372
 23
221.4545270651688
 33
0.0
  0
SOLID
  5
30D0
330
30B7
100
AcDbEntity
  8
BEM
 62
     0
100
AcDbTrace
 10
275.5686528645475
 20
222.6211937318355
 30
0.0
 11
275.5686528645475
 21
220.2878603985022
 31
0.0
 12
282.5686528645475
 22
221.4545270651688
 32
0.0
 13
282.5686528645475
 23
221.4545270651688
 33
0.0
  0
MTEXT
  5
30D1
330
30B7
100
AcDbEntity
  8
BEM
 62
     1
100
AcDbMText
 10
216.0686529238924
 20
227.9545270651688
 30
0.0
 40
7.0
 41
0.0
 71
     5
 72
     1
  1
\A1;%%c133
 73
     1
 44
1.0
  0
POINT
  5
30D2
330
30B7
100
AcDbEntity
  8
Defpoints
 62
     0
100
AcDbPoint
 10
149.5686529832372
 20
250.6412140145189
 30
0.0
  0
POINT
  5
30D3
330
30B7
100
AcDbEntity
  8
Defpoints
 62
     0
100
AcDbPoint
 10
282.5686528645475
 20
250.6355951643068
 30
0.0
  0
POINT
  5
30D4
330
30B7
100
AcDbEntity
  8
Defpoints
 62
     0
100
AcDbPoint
 10
282.5686528645475
 20
221.4545270651688
 30
0.0
  0
ENDBLK
  5
30C2
330
30B7
100
AcDbEntity
  8
0
100
AcDbBlockEnd
  0
ENDSEC
  0
SECTION
  2
ENTITIES
  0
LINE
  5
57
330
1E
100
AcDbEntity
  8
STEMPEL
100
AcDbLine
 10
410.0
 20
110.0
 30
0.0
 11
39.99999999999997
 21
110.0
 31
0.0
  0
LINE
  5
58
330
1E
100
AcDbEntity
  8
STEMPEL
100
AcDbLine
 10
146.0000000000001
 20
109.9999999999999
 30
0.0
 11
146.0
 21
9.999999999999971
 31
0.0
  0
LINE
  5
59
330
1E
100
AcDbEntity
  8
STEMPEL
100
AcDbLine
 10
230.0
 20
110.0
 30
0.0
 11
230.0
 21
9.999999999999971
 31
0.0
  0
LINE
  5
5A
330
1E
100
AcDbEntity
  8
STEMPEL
100
AcDbLine
 10
332.0
 20
109.9999999999997
 30
0.0
 11
332.0
 21
40.0
 31
0.0
  0
LINE
  5
5B
330
1E
100
AcDbEntity
  8
STEMPEL
100
AcDbLine
 10
145.9999999999999
 20
29.99999999999997
 30
0.0
 11
39.99999999999997
 21
29.99999999999997
 31
0.0
  0
LINE
  5
5C
330
1E
100
AcDbEntity
  8
STEMPEL
100
AcDbLine
 10
410.0
 20
40.0
 30
0.0
 11
146.0000000000001
 21
39.99999999999997
 31
0.0
  0
LINE
  5
5D
330
1E
100
AcDbEntity
  8
STEMPEL
100
AcDbLine
 10
410.0
 20
80.0
 30
0.0
 11
146.0000000000001
 21
79.99999999999994
 31
0.0
  0
LINE
  5
5E
330
1E
100
AcDbEntity
  8
VOLL
100
AcDbLine
 10
54.00000000000009
 20
110.0
 30
0.0
 11
53.99999999999997
 21
9.999999999999971
 31
0.0
  0
LINE
  5
5F
330
1E
100
AcDbEntity
  8
VOLL
100
AcDbLine
 10
104.0000000000001
 20
109.9999999999999
 30
0.0
 11
104.0
 21
9.999999999999971
 31
0.0
  0
LINE
  5
60
330
1E
100
AcDbEntity
  8
VOLL
100
AcDbLine
 10
124.0000000000001
 20
109.9999999999999
 30
0.0
 11
124.0
 21
9.999999999999971
 31
0.0
  0
LINE
  5
61
330
1E
100
AcDbEntity
  8
VOLL
100
AcDbLine
 10
164.0000000000001
 20
79.99999999999994
 30
0.0
 11
164.0000000000001
 21
39.99999999999997
 31
0.0
  0
LINE
  5
62
330
1E
100
AcDbEntity
  8
VOLL
100
AcDbLine
 10
190.0000000000001
 20
109.9999999999998
 30
0.0
 11
190.0
 21
39.99999999999997
 31
0.0
  0
LINE
  5
63
330
1E
100
AcDbEntity
  8
HILF
100
AcDbLine
 10
40.00000000000008
 20
100.0
 30
0.0
 11
146.0000000000001
 21
100.0
 31
0.0
  0
LINE
  5
64
330
1E
100
AcDbEntity
  8
HILF
100
AcDbLine
 10
40.00000000000008
 20
90.00000000000005
 30
0.0
 11
146.0000000000001
 21
90.00000000000005
 31
0.0
  0
LINE
  5
65
330
1E
100
AcDbEntity
  8
HILF
100
AcDbLine
 10
40.00000000000008
 20
79.99999999999994
 30
0.0
 11
146.0000000000001
 21
79.99999999999994
 31
0.0
  0
LINE
  5
66
330
1E
100
AcDbEntity
  8
HILF
100
AcDbLine
 10
40.00000000000008
 20
69.99999999999994
 30
0.0
 11
146.0000000000001
 21
69.99999999999994
 31
0.0
  0
LINE
  5
67
330
1E
100
AcDbEntity
  8
HILF
100
AcDbLine
 10
40.00000000000008
 20
59.99999999999997
 30
0.0
 11
146.0000000000001
 21
59.99999999999997
 31
0.0
  0
LINE
  5
68
330
1E
100
AcDbEntity
  8
HILF
100
AcDbLine
 10
40.00000000000008
 20
49.99999999999997
 30
0.0
 11
146.0000000000001
 21
49.99999999999997
 31
0.0
  0
LINE
  5
69
330
1E
100
AcDbEntity
  8
HILF
100
AcDbLine
 10
40.00000000000008
 20
39.99999999999997
 30
0.0
 11
146.0000000000001
 21
39.99999999999997
 31
0.0
  0
LINE
  5
6A
330
1E
100
AcDbEntity
  8
HILF
100
AcDbLine
 10
146.0000000000001
 20
69.99999999999994
 30
0.0
 11
230.0
 21
69.99999999999994
 31
0.0
  0
LINE
  5
6B
330
1E
100
AcDbEntity
  8
HILF
100
AcDbLine
 10
146.0000000000001
 20
59.99999999999997
 30
0.0
 11
230.0
 21
59.99999999999997
 31
0.0
  0
LINE
  5
6C
330
1E
100
AcDbEntity
  8
HILF
100
AcDbLine
 10
146.0000000000001
 20
49.99999999999997
 30
0.0
 11
230.0
 21
49.99999999999997
 31
0.0
  0
LINE
  5
6D
330
1E
100
AcDbEntity
  8
HILF
100
AcDbLine
 10
234.7736801096947
 20
84.03758247564139
 30
0.0
 11
324.8353916556311
 21
84.03758247564139
 31
0.0
  0
LINE
  5
6E
330
1E
100
AcDbEntity
  8
HILF
100
AcDbLine
 10
234.7736801096947
 20
69.99999999999994
 30
0.0
 11
324.835391655631
 21
69.99999999999994
 31
0.0
  0
LINE
  5
6F
330
1E
100
AcDbEntity
  8
HILF
100
AcDbLine
 10
234.7736801096947
 20
59.99999999999997
 30
0.0
 11
324.835391655631
 21
59.99999999999997
 31
0.0
  0
LINE
  5
70
330
1E
100
AcDbEntity
  8
HILF
100
AcDbLine
 10
234.7736801096947
 20
49.99999999999997
 30
0.0
 11
324.835391655631
 21
49.99999999999997
 31
0.0
  0
LINE
  5
71
330
1E
100
AcDbEntity
  8
VOLL
100
AcDbLine
 10
332.0
 20
60.0
 30
0.0
 11
410.0
 21
60.0
 31
0.0
  0
LINE
  5
72
330
1E
100
AcDbEntity
  8
HILF
100
AcDbLine
 10
336.7238616296993
 20
83.77983636955827
 30
0.0
 11
404.8588839326728
 21
83.77983636955827
 31
0.0
  0
LINE
  5
73
330
1E
100
AcDbEntity
  8
HILF
100
AcDbLine
 10
233.4909699289885
 20
14.89398258028314
 30
0.0
 11
404.8588839326728
 21
14.89398258028314
 31
0.0
  0
TEXT
  5
74
330
1E
100
AcDbEntity
  8
TEXT
100
AcDbText
 10
67.79509897490102
 20
18.67381894984132
 30
0.0
 40
4.0
  1
Änderung
 41
0.8
  7
GREEKS
 72
     1
 11
78.53795611775817
 21
18.67381894984132
 31
0.0
100
AcDbText
  0
TEXT
  5
75
330
1E
100
AcDbEntity
  8
TEXT
100
AcDbText
 10
153.5163572150377
 20
102.4620895087088
 30
0.0
 40
5.0
  1
Maßstab
 41
0.8
  7
GREEKS
100
AcDbText
  0
TEXT
  5
76
330
1E
100
AcDbEntity
  8
TEXT
100
AcDbText
 10
194.2858954734051
 20
102.4184168434819
 30
0.0
 40
5.0
  1
Zul. Abw.
 41
0.8
  7
GREEKS
100
AcDbText
  0
TEXT
  5
77
330
1E
100
AcDbEntity
  8
TEXT
100
AcDbText
 10
234.877940380901
 20
102.5489328011779
 30
0.0
 40
5.0
  1
Benennung
 41
0.8
  7
GREEKS
100
AcDbText
  0
TEXT
  5
78
330
1E
100
AcDbEntity
  8
TEXT
100
AcDbText
 10
336.178754957634
 20
102.3132034537136
 30
0.0
 40
5.0
  1
Zeichnungs Nr.
 41
0.8
  7
GREEKS
100
AcDbText
  0
TEXT
  5
79
330
1E
100
AcDbEntity
  8
TEXT
100
AcDbText
 10
234.742238391136
 20
30.84560570193057
 30
0.0
 40
5.0
  1
Bauvorhaben
 41
0.8
  7
GREEKS
100
AcDbText
  0
TEXT
  5
7A
330
1E
100
AcDbEntity
  8
TEXT
100
AcDbText
 10
336.7238616296993
 20
73.1811823709997
 30
0.0
 40
5.0
  1
Ersatz für:
 41
0.8
  7
GREEKS
100
AcDbText
  0
TEXT
  5
7B
330
1E
100
AcDbEntity
  8
TEXT
100
AcDbText
 10
48.26641107045756
 20
13.65465846027192
 30
0.0
 40
4.0
  1
Index
 50
90.0
 41
0.8
  7
GREEKS
100
AcDbText
  0
TEXT
  5
7C
330
1E
100
AcDbEntity
  8
TEXT
100
AcDbText
 10
110.6986119235389
 20
18.6715626933981
 30
0.0
 40
4.0
  1
Tag
 41
0.8
  7
GREEKS
 72
     1
 11
114.4319452568723
 21
18.6715626933981
 31
0.0
100
AcDbText
  0
TEXT
  5
7D
330
1E
100
AcDbEntity
  8
TEXT
100
AcDbText
 10
129.0122744386592
 20
18.59324216966408
 30
0.0
 40
4.0
  1
Name
 41
0.8
  7
GREEKS
 72
     1
 11
135.3360839624688
 21
18.59324216966408
 31
0.0
100
AcDbText
  0
TEXT
  5
7E
330
1E
100
AcDbEntity
  8
TEXT
100
AcDbText
 10
172.331167315365
 20
73.31880501229926
 30
0.0
 40
4.0
  1
Tag
 41
0.8
  7
GREEKS
100
AcDbText
  0
TEXT
  5
7F
330
1E
100
AcDbEntity
  8
TEXT
100
AcDbText
 10
202.4626584226295
 20
73.30961091915225
 30
0.0
 40
4.0
  1
Name
 41
0.8
  7
GREEKS
100
AcDbText
  0
TEXT
  5
80
330
1E
100
AcDbEntity
  8
TEXT
100
AcDbText
 10
147.5836127167615
 20
63.62990369617964
 30
0.0
 40
4.0
  1
Gez.
 41
0.8
  7
GREEKS
100
AcDbText
  0
TEXT
  5
81
330
1E
100
AcDbEntity
  8
TEXT
100
AcDbText
 10
147.5515086571672
 20
53.68926291428377
 30
0.0
 40
4.0
  1
Gepr.
 41
0.8
  7
GREEKS
100
AcDbText
  0
TEXT
  5
82
330
1E
100
AcDbEntity
  8
TEXT
100
AcDbText
 10
147.6006777387303
 20
43.52946389649807
 30
0.0
 40
4.0
  1
Norm.
 41
0.8
  7
GREEKS
100
AcDbText
  0
LINE
  5
83
330
1E
100
AcDbEntity
  8
STEMPEL
100
AcDbLine
 10
49.99999999999989
 20
10.0
 30
0.0
 11
410.0
 21
10.0
 31
0.0
  0
TEXT
  5
84
330
1E
100
AcDbEntity
  8
TEXT
100
AcDbText
 10
337.2400861497006
 20
52.07416177878602
 30
0.0
 40
5.0
  1
ersetzt durch:
 41
0.8
  7
GREEKS
100
AcDbText
  0
LINE
  5
85
330
1E
100
AcDbEntity
  8
STEMPEL
100
AcDbLine
 10
410.0
 20
10.0
 30
0.0
 11
39.99999999999989
 21
10.0
 31
0.0
  0
LINE
  5
86
330
1E
100
AcDbEntity
  8
STEMPEL
100
AcDbLine
 10
410.0
 20
10.0
 30
0.0
 11
410.0
 21
584.0
 31
0.0
  0
LINE
  5
87
330
1E
100
AcDbEntity
  8
STEMPEL
100
AcDbLine
 10
40.0
 20
10.0
 30
0.0
 11
39.99999999999989
 21
584.0
 31
0.0
  0
LINE
  5
88
330
1E
100
AcDbEntity
  8
STEMPEL
100
AcDbLine
 10
410.0
 20
584.0
 30
0.0
 11
39.99999999999989
 21
584.0
 31
0.0
  0
LINE
  5
89
330
1E
100
AcDbEntity
  8
HILF
100
AcDbLine
 10
0.0
 20
0.0
 30
0.0
 11
-0.0000000000001137
 21
594.0
 31
0.0
  0
LINE
  5
8A
330
1E
100
AcDbEntity
  8
HILF
100
AcDbLine
 10
419.9999999999999
 20
594.0000000000002
 30
0.0
 11
0.0
 21
594.0
 31
0.0
  0
LINE
  5
8B
330
1E
100
AcDbEntity
  8
HILF
100
AcDbLine
 10
420.0
 20
0.0
 30
0.0
 11
0.0
 21
0.0
 31
0.0
  0
LINE
  5
8C
330
1E
100
AcDbEntity
  8
HILF
100
AcDbLine
 10
31.08767135713856
 20
297.0
 30
0.0
 11
0.0000000000001137
 21
297.0
 31
0.0
  0
LINE
  5
8E
330
1E
100
AcDbEntity
  8
HILF
100
AcDbLine
 10
420.0
 20
-0.0000000000001137
 30
0.0
 11
419.9999999999999
 21
594.0
 31
0.0
  0
TEXT
  5
8F
330
1E
100
AcDbEntity
  8
VOLL
100
AcDbText
 10
78.07675471698113
 20
31.02594776470585
 30
0.0
 40
1.8
  1

  7
GREEKS
100
AcDbText
  0
TEXT
  5
90
330
1E
100
AcDbEntity
  8
TEXT
100
AcDbText
 10
41.85509950977674
 20
111.6719999999999
 30
0.0
 40
5.0
  1
Erstellt mit AUTOCAD 2004
 41
0.8
  7
GREEKS
100
AcDbText
  0
TEXT
  5
91
330
1E
100
AcDbEntity
  8
TEXT
100
AcDbText
 10
204.4216048581257
 20
63.0896391972351
 30
0.0
 40
4.0
  1
Koeh
 41
0.8
  7
GREEKS
 72
     1
 11
209.6787477152686
 21
63.0896391972351
 31
0.0
100
AcDbText
  0
TEXT
  5
92
330
1E
100
AcDbEntity
  8
TEXT
 62
     1
100
AcDbText
 10
347.3097540684081
 20
88.14901428913959
 30
0.0
 40
7.0
  1
58033125W
 41
0.8
  7
GREEKS
 72
     1
 11
370.7764207350748
 21
88.14901428913959
 31
0.0
100
AcDbText
  0
TEXT
  5
93
330
1E
100
AcDbEntity
  8
TEXT
 62
     1
100
AcDbText
 10
160.5006306481887
 20
88.14901428913959
 30
0.0
 40
7.0
  1
1:2
 41
0.8
  7
GREEKS
100
AcDbText
  0
TEXT
  5
95
330
1E
100
AcDbEntity
  8
TEXT
 62
     1
100
AcDbText
 10
236.8935731057402
 20
87.41748789253779
 30
0.0
 40
7.0
  1
Verbundrohr DN125
 41
0.8
  7
GREEKS
100
AcDbText
  0
TEXT
  5
98
330
1E
100
AcDbEntity
  8
TEXT
100
AcDbText
 10
235.1296391125315
 20
51.64011943042158
 30
0.0
 40
5.0
  1
EDV-Art.Nr. 58033.125X
 41
0.8
  7
GREEKS
100
AcDbText
  0
TEXT
  5
99
330
1E
100
AcDbEntity
  8
TEXT
100
AcDbText
 10
234.9837501577827
 20
42.62974153022632
 30
0.0
 40
4.0
  1
58033125W.DWG
 41
0.8
  7
GREEKS
100
AcDbText
  0
TEXT
  5
9A
330
1E
100
AcDbEntity
  8
TEXT
100
AcDbText
 10
192.626132208084
 20
90.76363841023022
 30
0.0
 40
4.0
  1
DIN EN1123-2
 41
0.8
  7
GREEKS
 72
     1
 11
209.6166083985602
 21
90.76363841023022
 31
0.0
100
AcDbText
  0
INSERT
  5
9B
330
1E
100
AcDbEntity
  8
STEMPEL
100
AcDbBlockReference
  2
LOGO
 10
150.9955485457794
 20
45.02105276448322
 30
0.0
 41
2.0
 42
2.0
 43
2.0
  0
TEXT
  5
2C0
330
1E
100
AcDbEntity
  8
BEM
100
AcDbText
 10
417.3022923857165
 20
10.16790107998861
 30
0.0
 40
4.0
  1
Diese Zeichnung ist urheberrechtlich geschützt und bleibt unser Eigentum. Sie darf weder ganz noch teilweise verfielfältigt und nicht an Dritte weitergegeben werden.
 50
90.0
 41
0.8
  7
GREEKS
100
AcDbText
  0
TEXT
  5
77A
330
1E
100
AcDbEntity
  8
TEXT
100
AcDbText
 10
235.1296391125315
 20
71.64011943042154
 30
0.0
 40
5.0
  1
Bogen 30°
 41
0.8
  7
GREEKS
100
AcDbText
  0
TEXT
  5
78C
330
1E
100
AcDbEntity
  8
TEXT
 62
     1
100
AcDbText
 10
255.030129115258
 20
129.7422179729062
 30
0.0
 40
7.0
  1
und innenbeschichtet
 41
0.8
  7
GREEKS
100
AcDbText
  0
TEXT
  5
78D
330
1E
100
AcDbEntity
  8
TEXT
 62
     1
100
AcDbText
 10
203.5978685380308
 20
117.4850225199828
 30
0.0
 40
7.0
  1
Dämmung: 2 K-PU-Schaum
 41
0.8
  7
GREEKS
100
AcDbText
  0
TEXT
  5
78E
330
1E
100
AcDbEntity
  8
TEXT
 62
     1
100
AcDbText
 10
207.3756002392443
 20
141.011271812132
 30
0.0
 40
7.0
  1
Innenrohr: E195 EN10305 feuerverzinkt
 41
0.8
  7
GREEKS
100
AcDbText
  0
TEXT
  5
78F
330
1E
100
AcDbEntity
  8
TEXT
 62
     1
100
AcDbText
 10
203.6033828683802
 20
152.364339848487
 30
0.0
 40
7.0
  1
Außenrohr: P235 TR1 EN10217-1 feuerverzinkt
 41
0.8
  7
GREEKS
100
AcDbText
  0
TEXT
  5
2A8D
330
1E
100
AcDbEntity
  8
TEXT
 62
     1
100
AcDbText
 10
274.7548514361692
 20
198.1566237481482
 30
0.0
 40
7.0
  1
Rohrende leicht eingezogen
 41
0.8
  7
GREEKS
100
AcDbText
  0
TEXT
  5
2CF7
330
1E
100
AcDbEntity
  8
VOLL
100
AcDbText
 10
279.8292640971458
 20
416.8411605988576
 30
0.0
 40
7.0
  1
DN125
 50
60.00000000000028
 41
0.8
  7
GREEKS
100
AcDbText
  0
LINE
  5
2D19
330
1E
100
AcDbEntity
  8
MITTEL
100
AcDbLine
 10
216.0733002119359
 20
360.6412140145188
 30
0.0
 11
216.0681038316585
 21
237.6412140145189
 31
0.0
  0
POINT
  5
2D1D
330
1E
100
AcDbEntity
  8
Defpoints
  6
ByBlock
 62
     0
100
AcDbPoint
 10
216.0681038316585
 20
237.6412140145189
 30
0.0
  0
POINT
  5
2D1E
330
1E
100
AcDbEntity
  8
Defpoints
  6
ByBlock
 62
     0
100
AcDbPoint
 10
216.0681038316585
 20
237.6412140145189
 30
0.0
  0
ARC
  5
2D3E
102
{ACAD_REACTORS
330
2FF1
330
30B5
102
}
330
1E
100
AcDbEntity
  8
SCHRAFF
100
AcDbCircle
 10
284.3065529195899
 20
349.1004067476061
 30
0.0
 40
3.513188705310844
100
AcDbArc
 50
271.3588139395919
 51
28.64118606040801
  0
ARC
  5
2D3F
102
{ACAD_REACTORS
330
30B5
102
}
330
1E
100
AcDbEntity
  8
SCHRAFF
100
AcDbCircle
 10
171.6387562441907
 20
414.14918948715
 30
0.0
 40
3.24529088985965
100
AcDbArc
 50
82.41948862385005
 51
217.5805113761481
  0
INSERT
  5
2D40
330
1E
100
AcDbEntity
  8
SCHRAFF
100
AcDbBlockReference
  2
*X1
 10
127.4319898272325
 20
-2.889373573098737
 30
0.0
 50
13.5
1001
ACAD
1000
HATCH
1002
{
1070
    16
1000
_U,I
1040
0.1
1040
0.0
1070
     0
1002
}
  0
LINE
  5
2E1D
102
{ACAD_REACTORS
330
303C
330
30B5
102
}
330
1E
100
AcDbEntity
  8
STEMPEL
100
AcDbLine
 10
297.3116861910789
 20
338.8502260552855
 30
0.0
 11
297.3116861910792
 21
302.640127126733
 31
0.0
  0
LINE
  5
2E1E
102
{ACAD_REACTORS
330
2EF0
330
303C
102
}
330
1E
100
AcDbEntity
  8
STEMPEL
100
AcDbLine
 10
300.2116861910794
 20
338.0731733972357
 30
0.0
 11
300.2116861910791
 21
300.6401271267321
 31
0.0
  0
LINE
  5
2E1F
102
{ACAD_REACTORS
330
303C
102
}
330
1E
100
AcDbEntity
  8
STEMPEL
100
AcDbLine
 10
300.2116861910788
 20
302.640127126733
 30
0.0
 11
297.3116861910791
 21
302.640127126733
 31
0.0
  0
LINE
  5
2E20
330
1E
100
AcDbEntity
  8
STEMPEL
100
AcDbLine
 10
289.9180926516301
 20
308.6401271267332
 30
0.0
 11
282.5616861910789
 21
308.6401271267332
 31
0.0
  0
LINE
  5
2E21
102
{ACAD_REACTORS
330
30B5
102
}
330
1E
100
AcDbEntity
  8
STEMPEL
100
AcDbLine
 10
295.211686191079
 20
318.6401271267332
 30
0.0
 11
282.5616861910789
 21
318.6401271267332
 31
0.0
  0
LINE
  5
2E23
102
{ACAD_REACTORS
330
30B5
102
}
330
1E
100
AcDbEntity
  8
STEMPEL
100
AcDbLine
 10
297.2116861910791
 20
316.6401271267332
 30
0.0
 11
295.211686191079
 21
318.6401271267332
 31
0.0
  0
LINE
  5
2E28
330
1E
100
AcDbEntity
  8
HILF
100
AcDbLine
 10
154.5877336242432
 20
250.6412140145189
 30
0.0
 11
277.5500269459176
 21
250.6412140145189
 31
0.0
  0
LINE
  5
2E29
102
{ACAD_REACTORS
330
2FF1
102
}
330
1E
100
AcDbEntity
  8
STEMPEL
100
AcDbLine
 10
150.2682217297924
 20
242.6412140145189
 30
0.0
 11
281.8688948170632
 21
242.6412140145188
 31
0.0
  0
LINE
  5
2E30
102
{ACAD_REACTORS
330
303C
102
}
330
1E
100
AcDbEntity
  8
STEMPEL
100
AcDbLine
 10
134.811686191079
 20
302.6401271267331
 30
0.0
 11
131.9116861910787
 21
302.6401271267331
 31
0.0
  0
LINE
  5
2E31
330
1E
100
AcDbEntity
  8
STEMPEL
100
AcDbLine
 10
149.5616861910793
 20
308.6401271267332
 30
0.0
 11
142.2052797305281
 21
308.6401271267332
 31
0.0
  0
LINE
  5
2E32
102
{ACAD_REACTORS
330
30B5
102
}
330
1E
100
AcDbEntity
  8
STEMPEL
100
AcDbLine
 10
149.5616861910793
 20
318.6401271267332
 30
0.0
 11
136.9116861910792
 21
318.6401271267332
 31
0.0
  0
LINE
  5
2E34
102
{ACAD_REACTORS
330
30B5
102
}
330
1E
100
AcDbEntity
  8
STEMPEL
100
AcDbLine
 10
134.811686191079
 20
316.5401271267332
 30
0.0
 11
136.9116861910792
 21
318.6401271267332
 31
0.0
  0
LINE
  5
2E35
102
{ACAD_REACTORS
330
303C
330
30B5
102
}
330
1E
100
AcDbEntity
  8
STEMPEL
100
AcDbLine
 10
134.811686191079
 20
382.3919698253434
 30
0.0
 11
134.811686191079
 21
302.6401271267331
 31
0.0
  0
LINE
  5
2E36
102
{ACAD_REACTORS
330
2EEA
330
303C
102
}
330
1E
100
AcDbEntity
  8
STEMPEL
100
AcDbLine
 10
131.9116861910789
 20
383.1690224833933
 30
0.0
 11
131.911686191079
 21
300.6401271267332
 31
0.0
  0
LINE
  5
2E61
330
1E
100
AcDbEntity
  8
MITTEL
100
AcDbLine
 10
216.0733002119359
 20
360.6412140145188
 30
0.0
 11
278.5733002119361
 21
468.8943894875733
 31
0.0
  0
ARC
  5
2E65
330
1E
100
AcDbEntity
  8
MITTEL
100
AcDbCircle
 10
306.0722814133867
 20
336.5240220848675
 30
0.0
 40
90.0
100
AcDbArc
 50
150.0
 51
179.9975794255408
  0
ARC
  5
2E66
102
{ACAD_REACTORS
330
2FF1
330
30B5
102
}
330
1E
100
AcDbEntity
  8
STEMPEL
100
AcDbCircle
 10
306.0722814133867
 20
336.5240220848675
 30
0.0
 40
156.5
100
AcDbArc
 50
150.0
 51
179.9975794255408
  0
ARC
  5
2E67
102
{ACAD_REACTORS
330
2FF1
330
30B5
102
}
330
1E
100
AcDbEntity
  8
STEMPEL
100
AcDbCircle
 10
306.0722814133867
 20
336.5240220848675
 30
0.0
 40
23.5
100
AcDbArc
 50
150.0
 51
179.9975794255408
  0
ARC
  5
2E68
102
{ACAD_REACTORS
330
2FF1
102
}
330
1E
100
AcDbEntity
  8
STEMPEL
100
AcDbCircle
 10
306.0722814133867
 20
336.5240220848675
 30
0.0
 40
26.0
100
AcDbArc
 50
150.0
 51
179.9975794255408
  0
ARC
  5
2E69
102
{ACAD_REACTORS
330
2FF1
102
}
330
1E
100
AcDbEntity
  8
STEMPEL
100
AcDbCircle
 10
306.0722814133867
 20
336.5240220848675
 30
0.0
 40
154.0
100
AcDbArc
 50
150.0
 51
179.9975794255408
  0
LINE
  5
2E6A
102
{ACAD_REACTORS
330
2FF1
330
30B5
102
}
330
1E
100
AcDbEntity
  8
STEMPEL
100
AcDbLine
 10
149.5722815530478
 20
336.5306337394422
 30
0.0
 11
149.5686529832372
 21
250.6412140145189
 31
0.0
  0
LINE
  5
2E6B
102
{ACAD_REACTORS
330
2FF1
330
30B5
102
}
330
1E
100
AcDbEntity
  8
STEMPEL
100
AcDbLine
 10
282.5722814343582
 20
336.5250148892286
 30
0.0
 11
282.5686528645475
 21
250.6355951643068
 31
0.0
  0
LINE
  5
2E6C
102
{ACAD_REACTORS
330
2FF1
102
}
330
1E
100
AcDbEntity
  8
STEMPEL
100
AcDbLine
 10
149.5686529832372
 20
250.6412140145189
 30
0.0
 11
150.2682217297924
 21
242.6412140145189
 31
0.0
  0
LINE
  5
2E6D
102
{ACAD_REACTORS
330
2FF1
102
}
330
1E
100
AcDbEntity
  8
STEMPEL
100
AcDbLine
 10
152.0686575923653
 20
250.7502607542068
 30
0.0
 11
152.7777620502954
 21
242.6412140145189
 31
0.0
  0
LINE
  5
2E6F
102
{ACAD_REACTORS
330
2FF1
102
}
330
1E
100
AcDbEntity
  8
STEMPEL
100
AcDbLine
 10
152.0722815508167
 20
336.530528121957
 30
0.0
 11
152.0686575923653
 21
250.7502607542068
 31
0.0
  0
LINE
  5
2E71
102
{ACAD_REACTORS
330
2FF1
102
}
330
1E
100
AcDbEntity
  8
STEMPEL
100
AcDbLine
 10
280.0781753267107
 20
250.8535897365593
 30
0.0
 11
279.3593359453018
 21
242.6412140145189
 31
0.0
  0
LINE
  5
2E72
102
{ACAD_REACTORS
330
2FF1
102
}
330
1E
100
AcDbEntity
  8
STEMPEL
100
AcDbLine
 10
282.5686528645475
 20
250.6355951643068
 30
0.0
 11
281.8688948170632
 21
242.6412140145188
 31
0.0
  0
LINE
  5
2E73
102
{ACAD_REACTORS
330
2FF1
102
}
330
1E
100
AcDbEntity
  8
STEMPEL
100
AcDbLine
 10
280.0722814365881
 20
336.5251205067135
 30
0.0
 11
280.0686528667783
 21
250.635700781791
 31
0.0
  0
LINE
  5
2E75
102
{ACAD_REACTORS
330
2FF1
330
3028
102
}
330
1E
100
AcDbEntity
  8
STEMPEL
100
AcDbLine
 10
170.5393057211221
 20
414.7740220848675
 30
0.0
 11
285.7206844244524
 21
348.2740220848675
 31
0.0
  0
LINE
  5
2EA8
102
{ACAD_REACTORS
330
3028
330
308A
330
30B5
102
}
330
1E
100
AcDbEntity
  8
STEMPEL
100
AcDbLine
 10
335.0900421773213
 20
414.7842580498807
 30
0.0
 11
325.5367308995535
 21
398.2374375362661
 31
0.0
  0
LINE
  5
2EA9
102
{ACAD_REACTORS
330
3028
102
}
330
1E
100
AcDbEntity
  8
STEMPEL
100
AcDbLine
 10
332.9249786678602
 20
416.0342580498808
 30
0.0
 11
323.3716673900924
 21
399.487437536266
 31
0.0
  0
LINE
  5
2EAB
102
{ACAD_REACTORS
330
3028
102
}
330
1E
100
AcDbEntity
  8
STEMPEL
100
AcDbLine
 10
205.6192443115478
 20
489.5342580498808
 30
0.0
 11
196.0659330337799
 21
472.9874375362661
 31
0.0
  0
LINE
  5
2EAC
102
{ACAD_REACTORS
330
3028
330
308A
330
30B5
102
}
330
1E
100
AcDbEntity
  8
STEMPEL
100
AcDbLine
 10
203.4541808020867
 20
490.7842580498808
 30
0.0
 11
193.9008695243188
 21
474.2374375362661
 31
0.0
  0
LINE
  5
2EAD
330
1E
100
AcDbEntity
  8
HILF
100
AcDbLine
 10
193.3983594820807
 20
456.2667527141597
 30
0.0
 11
310.2249163413247
 21
388.816908662978
 31
0.0
  0
LINE
  5
2EAF
330
1E
100
AcDbEntity
  8
HILF
100
AcDbLine
 10
182.5735048787153
 20
427.5965098030627
 30
0.0
 11
290.8081849493269
 21
365.1071881286421
 31
0.0
  0
LINE
  5
2EB0
330
1E
100
AcDbEntity
  8
HILF
100
AcDbLine
 10
183.1777727483753
 20
436.0258066696446
 30
0.0
 11
297.8060362369977
 21
369.8451478877491
 31
0.0
  0
LINE
  5
2EB1
102
{ACAD_REACTORS
330
3028
102
}
330
1E
100
AcDbEntity
  8
STEMPEL
100
AcDbLine
 10
179.3976743697321
 20
425.1171666564351
 30
0.0
 11
172.7043692305833
 21
413.5240220848674
 31
0.0
  0
LINE
  5
2EB2
102
{ACAD_REACTORS
330
3028
330
30B5
102
}
330
1E
100
AcDbEntity
  8
STEMPEL
100
AcDbLine
 10
177.2326108602708
 20
426.3671666564351
 30
0.0
 11
170.5393057211221
 21
414.7740220848676
 31
0.0
  0
LINE
  5
2EB3
102
{ACAD_REACTORS
330
3028
102
}
330
1E
100
AcDbEntity
  8
STEMPEL
100
AcDbLine
 10
189.8175473508099
 20
453.164916068076
 30
0.0
 11
183.0519070621456
 21
441.4464833423744
 31
0.0
  0
LINE
  5
2EB4
102
{ACAD_REACTORS
330
3028
330
30B5
102
}
330
1E
100
AcDbEntity
  8
STEMPEL
100
AcDbLine
 10
187.6524838413488
 20
454.4149160680761
 30
0.0
 11
180.8868435526844
 21
442.6964833423745
 31
0.0
  0
ARC
  5
2EB5
102
{ACAD_REACTORS
330
3028
102
}
330
1E
100
AcDbEntity
  8
STEMPEL
100
AcDbCircle
 10
196.4753008208042
 20
433.6964833423743
 30
0.0
 40
15.5
100
AcDbArc
 50
149.9999999999999
 51
184.7719440319489
  0
ARC
  5
2EB6
102
{ACAD_REACTORS
330
3028
330
30B5
102
}
330
1E
100
AcDbEntity
  8
STEMPEL
100
AcDbCircle
 10
196.4753008208042
 20
433.6964833423743
 30
0.0
 40
18.0
100
AcDbArc
 50
149.9999999999999
 51
184.7719440319489
  0
ARC
  5
2EB7
102
{ACAD_REACTORS
330
3028
330
30B5
102
}
330
1E
100
AcDbEntity
  8
STEMPEL
100
AcDbCircle
 10
168.5723568224264
 20
431.3671666564351
 30
0.0
 40
10.0
100
AcDbArc
 50
330.0
 51
4.771944031948994
  0
ARC
  5
2EB8
102
{ACAD_REACTORS
330
3028
102
}
330
1E
100
AcDbEntity
  8
STEMPEL
100
AcDbCircle
 10
168.5723568224264
 20
431.3671666564351
 30
0.0
 40
12.5
100
AcDbArc
 50
330.0
 51
4.771944031948994
  0
ARC
  5
2EB9
102
{ACAD_REACTORS
330
3028
102
}
330
1E
100
AcDbEntity
  8
STEMPEL
100
AcDbCircle
 10
172.0640265732288
 20
463.414916068076
 30
0.0
 40
20.5
100
AcDbArc
 50
330.0
 51
355.2271443659088
  0
ARC
  5
2EBA
102
{ACAD_REACTORS
330
3028
330
30B5
102
}
330
1E
100
AcDbEntity
  8
STEMPEL
100
AcDbCircle
 10
172.0640265732288
 20
463.414916068076
 30
0.0
 40
18.0
100
AcDbArc
 50
330.0
 51
355.0071583365452
  0
ARC
  5
2EBB
102
{ACAD_REACTORS
330
3028
102
}
330
1E
100
AcDbEntity
  8
STEMPEL
100
AcDbCircle
 10
219.881631637852
 20
459.2374375362661
 30
0.0
 40
27.5
100
AcDbArc
 50
149.9999999999999
 51
174.8431689300321
  0
ARC
  5
2EBC
102
{ACAD_REACTORS
330
3028
330
30B5
102
}
330
1E
100
AcDbEntity
  8
STEMPEL
100
AcDbCircle
 10
219.881631637852
 20
459.2374375362661
 30
0.0
 40
29.99973625969209
100
AcDbArc
 50
149.9999999999999
 51
175.0071583365452
  0
LINE
  5
2EBD
102
{ACAD_REACTORS
330
3028
330
30B5
102
}
330
1E
100
AcDbEntity
  8
STEMPEL
100
AcDbLine
 10
193.9010979301255
 20
474.2373056661121
 30
0.0
 11
193.9008695243188
 21
474.2374375362661
 31
0.0
  0
LINE
  5
2EBE
102
{ACAD_REACTORS
330
3028
330
30B5
102
}
330
1E
100
AcDbEntity
  8
STEMPEL
100
AcDbLine
 10
292.4139895636013
 20
359.8671666564351
 30
0.0
 11
285.7206844244526
 21
348.2740220848676
 31
0.0
  0
LINE
  5
2EBF
102
{ACAD_REACTORS
330
3028
102
}
330
1E
100
AcDbEntity
  8
STEMPEL
100
AcDbLine
 10
290.2489260541401
 20
361.1171666564351
 30
0.0
 11
283.5556209149914
 21
349.5240220848676
 31
0.0
  0
LINE
  5
2EC1
102
{ACAD_REACTORS
330
3028
330
30B5
102
}
330
1E
100
AcDbEntity
  8
STEMPEL
100
AcDbLine
 10
311.4941165825233
 20
382.914916068076
 30
0.0
 11
304.728476293859
 21
371.1964833423743
 31
0.0
  0
LINE
  5
2EC2
102
{ACAD_REACTORS
330
3028
102
}
330
1E
100
AcDbEntity
  8
STEMPEL
100
AcDbLine
 10
309.3290530730623
 20
384.164916068076
 30
0.0
 11
302.563412784398
 21
372.4464833423743
 31
0.0
  0
ARC
  5
2EC3
102
{ACAD_REACTORS
330
3028
102
}
330
1E
100
AcDbEntity
  8
STEMPEL
100
AcDbCircle
 10
289.1400190257392
 20
380.1964833423743
 30
0.0
 40
15.5
100
AcDbArc
 50
295.2280559680509
 51
330.0
  0
ARC
  5
2EC4
102
{ACAD_REACTORS
330
3028
330
30B5
102
}
330
1E
100
AcDbEntity
  8
STEMPEL
100
AcDbCircle
 10
301.0742436014456
 20
354.867166656435
 30
0.0
 40
10.0
100
AcDbArc
 50
115.2280559680509
 51
149.9999999999999
  0
ARC
  5
2EC5
102
{ACAD_REACTORS
330
3028
102
}
330
1E
100
AcDbEntity
  8
STEMPEL
100
AcDbCircle
 10
301.0742436014456
 20
354.867166656435
 30
0.0
 40
12.5
100
AcDbArc
 50
115.2280559680509
 51
149.9999999999999
  0
ARC
  5
2EC6
102
{ACAD_REACTORS
330
3028
330
30B5
102
}
330
1E
100
AcDbEntity
  8
STEMPEL
100
AcDbCircle
 10
289.1400190257392
 20
380.1964833423743
 30
0.0
 40
18.0
100
AcDbArc
 50
295.2280559680509
 51
330.0
  0
ARC
  5
2EC7
102
{ACAD_REACTORS
330
3028
102
}
330
1E
100
AcDbEntity
  8
STEMPEL
100
AcDbCircle
 10
327.0825738506434
 20
373.9149160680759
 30
0.0
 40
20.5
100
AcDbArc
 50
124.7728556340941
 51
149.9999999999999
  0
ARC
  5
2EC8
102
{ACAD_REACTORS
330
3028
330
30B5
102
}
330
1E
100
AcDbEntity
  8
STEMPEL
100
AcDbCircle
 10
327.0825738506434
 20
373.9149160680759
 30
0.0
 40
18.0
100
AcDbArc
 50
124.9928416634576
 51
149.9999999999999
  0
ARC
  5
2EC9
102
{ACAD_REACTORS
330
3028
330
30B5
102
}
330
1E
100
AcDbEntity
  8
STEMPEL
100
AcDbCircle
 10
299.5559687860202
 20
413.2374375362659
 30
0.0
 40
29.99973625969209
100
AcDbArc
 50
304.9928416634577
 51
330.0
  0
ARC
  5
2ECA
102
{ACAD_REACTORS
330
3028
102
}
330
1E
100
AcDbEntity
  8
STEMPEL
100
AcDbCircle
 10
299.5559687860202
 20
413.2374375362659
 30
0.0
 40
27.5
100
AcDbArc
 50
305.1568310699678
 51
330.0
  0
LINE
  5
2ECB
102
{ACAD_REACTORS
330
3028
330
30B5
102
}
330
1E
100
AcDbEntity
  8
STEMPEL
100
AcDbLine
 10
325.5365024937469
 20
398.23756940642
 30
0.0
 11
325.5367308995535
 21
398.2374375362661
 31
0.0
  0
LINE
  5
2ECC
102
{ACAD_REACTORS
330
3028
330
3050
330
308A
102
}
330
1E
100
AcDbEntity
  8
STEMPEL
100
AcDbLine
 10
348.9493379403966
 20
422.4892624686511
 30
0.0
 11
203.1972624834757
 21
506.6392624686513
 31
0.0
  0
ARC
  5
2ECD
102
{ACAD_REACTORS
330
3028
102
}
330
1E
100
AcDbEntity
  8
STEMPEL
100
AcDbCircle
 10
229.4349429156199
 20
475.7842580498809
 30
0.0
 40
27.5
100
AcDbArc
 50
125.0000000000065
 51
149.9999999999999
  0
ARC
  5
2ECE
102
{ACAD_REACTORS
330
3028
330
308A
102
}
330
1E
100
AcDbEntity
  8
STEMPEL
100
AcDbCircle
 10
229.4349429156199
 20
475.7842580498809
 30
0.0
 40
30.0
100
AcDbArc
 50
125.0000000000065
 51
149.9999999999999
  0
LINE
  5
2ECF
102
{ACAD_REACTORS
330
3028
102
}
330
1E
100
AcDbEntity
  8
STEMPEL
100
AcDbLine
 10
215.4515219470255
 20
499.5642624686513
 30
0.0
 11
213.6615909159662
 21
498.310939267828
 31
0.0
  0
LINE
  5
2ED0
102
{ACAD_REACTORS
330
3028
330
308A
102
}
330
1E
100
AcDbEntity
  8
STEMPEL
100
AcDbLine
 10
213.0626386775347
 20
500.9434848673544
 30
0.0
 11
212.2276498250887
 21
500.3588193785508
 31
0.0
  0
ARC
  5
2ED1
102
{ACAD_REACTORS
330
3028
330
308A
102
}
330
1E
100
AcDbEntity
  8
STEMPEL
100
AcDbCircle
 10
309.1092800637882
 20
429.7842580498807
 30
0.0
 40
30.0
100
AcDbArc
 50
330.0
 51
354.9999999999934
  0
ARC
  5
2ED2
102
{ACAD_REACTORS
330
3028
102
}
330
1E
100
AcDbEntity
  8
STEMPEL
100
AcDbCircle
 10
309.1092800637882
 20
429.7842580498807
 30
0.0
 40
27.5
100
AcDbArc
 50
330.0
 51
354.9999999999905
  0
LINE
  5
2ED3
102
{ACAD_REACTORS
330
3028
330
308A
102
}
330
1E
100
AcDbEntity
  8
STEMPEL
100
AcDbLine
 10
339.0839617463375
 20
428.1850400699481
 30
0.0
 11
338.9951210065405
 21
427.1695857674512
 31
0.0
  0
LINE
  5
2ED4
102
{ACAD_REACTORS
330
3028
102
}
330
1E
100
AcDbEntity
  8
STEMPEL
100
AcDbLine
 10
336.6950784768469
 20
429.5642624686513
 30
0.0
 11
336.5046342613112
 21
427.3874751243201
 31
0.0
  0
LINE
  5
2ED5
102
{ACAD_REACTORS
330
2EEA
330
3050
102
}
330
1E
100
AcDbEntity
  8
STEMPEL
100
AcDbLine
 10
131.9116861910789
 20
383.1690224833933
 30
0.0
 11
203.1972624834756
 21
506.6392624686514
 31
0.0
  0
LINE
  5
2ED6
102
{ACAD_REACTORS
330
2EF0
330
3050
102
}
330
1E
100
AcDbEntity
  8
STEMPEL
100
AcDbLine
 10
300.2116861910794
 20
338.0731733972357
 30
0.0
 11
348.9493379403967
 21
422.4892624686511
 31
0.0
  0
LINE
  5
2ED7
102
{ACAD_REACTORS
330
3050
330
308A
330
30B5
102
}
330
1E
100
AcDbEntity
  8
STEMPEL
100
AcDbLine
 10
297.3116861910789
 20
338.8502260552855
 30
0.0
 11
346.4378642694219
 21
423.9392624686511
 31
0.0
  0
LINE
  5
2ED8
102
{ACAD_REACTORS
330
3050
330
308A
330
30B5
102
}
330
1E
100
AcDbEntity
  8
STEMPEL
100
AcDbLine
 10
134.811686191079
 20
382.3919698253434
 30
0.0
 11
205.7087361544504
 21
505.1892624686514
 31
0.0
  0
LINE
  5
2ED9
102
{ACAD_REACTORS
330
303C
330
3050
102
}
330
1E
100
AcDbEntity
  8
STEMPEL
100
AcDbLine
 10
131.9116861910789
 20
383.1690224833933
 30
0.0
 11
134.811686191079
 21
382.391969825343
 31
0.0
  0
LINE
  5
2EDA
102
{ACAD_REACTORS
330
303C
330
3050
102
}
330
1E
100
AcDbEntity
  8
STEMPEL
100
AcDbLine
 10
297.3116861910788
 20
338.8502260552861
 30
0.0
 11
300.2116861910794
 21
338.0731733972357
 31
0.0
  0
ARC
  5
2EE6
102
{ACAD_REACTORS
330
2EEA
102
}
330
1E
100
AcDbEntity
  8
SCHRAFF
100
AcDbCircle
 10
133.4761802536276
 20
382.74981756277
 30
0.0
 40
3.907650838066194
100
AcDbArc
 50
83.60111733421925
 51
246.3988826657812
  0
HATCH
  5
2EEA
330
1E
100
AcDbEntity
  8
SCHRAFF
100
AcDbHatch
 10
0.0
 20
0.0
 30
0.0
210
0.0
220
0.0
230
1.0
  2
_USER
 70
     0
 71
     1
 91
        1
 92
        7
 72
     1
 73
     1
 93
        3
 10
131.9116861910789
 20
379.1690224833932
 42
0.0
 10
131.9116861910789
 20
383.1690224833933
 42
0.0
 10
133.9116861910789
 20
386.633124098531
 42
0.8601187303102737
 97
        3
330
2EE6
330
2E36
330
2ED5
 75
     0
 76
     0
 52
0.0
 41
0.1
 77
     0
 78
     1
 53
0.0
 43
-388.3407470021834
 44
15.38067597555619
 45
0.0
 46
0.1
 79
     0
 47
0.0862012955191722
 98
        1
 10
130.3275758530108
 20
383.6121510407959
  0
ARC
  5
2EEC
102
{ACAD_REACTORS
330
2EF0
102
}
330
1E
100
AcDbEntity
  8
SCHRAFF
100
AcDbCircle
 10
297.942657003889
 20
338.6811579355461
 30
0.0
 40
5.136342566226264
100
AcDbArc
 50
296.2162113711236
 51
33.78378862887458
  0
HATCH
  5
2EF0
330
1E
100
AcDbEntity
  8
SCHRAFF
100
AcDbHatch
 10
0.0
 20
0.0
 30
0.0
210
0.0
220
0.0
230
1.0
  2
_USER
 70
     0
 71
     1
 91
        1
 92
        7
 72
     1
 73
     1
 93
        3
 10
302.2116861910794
 20
341.5372750123735
 42
0.0
 10
300.2116861910794
 20
338.0731733972357
 42
0.0
 10
300.2116861910793
 20
334.0731733972358
 42
0.4534495475687108
 97
        3
330
2ED6
330
2E1E
330
2EEC
 75
     0
 76
     0
 52
0.0
 41
0.1
 77
     0
 78
     1
 53
0.0
 43
-388.3407470021834
 44
15.38067597555619
 45
0.0
 46
0.1
 79
     0
 47
0.0628828346674665
 98
        1
 10
302.5096525932941
 20
337.9985301048659
  0
DIMENSION
  5
2F3F
330
1E
100
AcDbEntity
  8
BEM
100
AcDbDimension
  2
*D2
 10
117.6810783578501
 20
242.6412140145189
 30
0.0
 11
111.18107835785
 21
272.640670570626
 31
0.0
 70
    32
 71
     5
 42
59.99891311221424
  3
Standard
100
AcDbAlignedDimension
 13
131.9116861910787
 23
302.6401271267331
 33
0.0
 14
150.2682217297924
 24
242.6412140145189
 34
0.0
 50
90.0
100
AcDbRotatedDimension
1001
ACAD
1000
DSTYLE
1002
{
1070
   279
1070
     1
1070
    40
1040
2.0
1070
    41
1040
3.5
1070
    42
1040
1.0
1070
    43
1040
7.0
1070
    44
1040
1.0
1070
    73
1070
     0
1070
    74
1070
     0
1070
    77
1070
     1
1070
    78
1070
     8
1070
    79
1070
     2
1070
   140
1040
3.5
1070
   141
1040
1.5
1070
   146
1040
0.5142857142857144
1070
   147
1040
1.5
1070
   172
1070
     1
1070
   178
1070
     1
1070
   179
1070
     2
1070
   271
1070
     2
1070
   272
1070
     2
1070
   284
1070
     8
1070
   285
1070
     8
1070
   286
1070
     8
1002
}
  0
DIMENSION
  5
2F4C
330
1E
100
AcDbEntity
  8
BEM
100
AcDbDimension
  2
*D3
 10
102.6621193158763
 20
242.6412140145189
 30
0.0
 11
96.16211931587629
 21
301.6412140145189
 31
0.0
 70
    32
 71
     5
 42
117.9999999999999
  3
Standard
100
AcDbAlignedDimension
 13
216.0733002119359
 23
360.6412140145188
 33
0.0
 14
150.2682217297924
 24
242.6412140145189
 34
0.0
 50
90.0
100
AcDbRotatedDimension
1001
ACAD
1000
DSTYLE
1002
{
1070
    40
1040
2.0
1070
    41
1040
3.5
1070
    42
1040
1.0
1070
    43
1040
7.0
1070
    44
1040
1.0
1070
    73
1070
     0
1070
    74
1070
     0
1070
    77
1070
     1
1070
    78
1070
     8
1070
    79
1070
     2
1070
   140
1040
3.5
1070
   141
1040
1.5
1070
   146
1040
0.5142857142857144
1070
   147
1040
1.5
1070
   172
1070
     1
1070
   178
1070
     1
1070
   179
1070
     2
1070
   271
1070
     2
1070
   272
1070
     2
1070
   284
1070
     8
1070
   285
1070
     8
1070
   286
1070
     8
1002
}
  0
DIMENSION
  5
2F74
330
1E
100
AcDbEntity
  8
BEM
100
AcDbDimension
  2
*D4
 10
184.9068263591673
 20
517.1992506886169
 30
0.0
 11
149.2776612345683
 21
468.4877264615504
 31
0.0
 70
    32
 71
     5
 42
120.0000000000003
 51
300.0
  3
Standard
100
AcDbAlignedDimension
 13
216.0733002119359
 23
360.6412140145188
 33
0.0
 14
203.1972624834758
 24
506.6392624686516
 34
0.0
 50
59.99999999999997
100
AcDbRotatedDimension
1001
ACAD
1000
DSTYLE
1002
{
1070
    40
1040
2.0
1070
    41
1040
3.5
1070
    42
1040
1.0
1070
    43
1040
7.0
1070
    44
1040
1.0
1070
    73
1070
     0
1070
    74
1070
     0
1070
    77
1070
     1
1070
    78
1070
     8
1070
    79
1070
     2
1070
   140
1040
3.5
1070
   141
1040
1.5
1070
   146
1040
0.5142857142857144
1070
   147
1040
1.5
1070
   172
1070
     1
1070
   178
1070
     1
1070
   179
1070
     2
1070
   271
1070
     2
1070
   272
1070
     2
1070
   284
1070
     8
1070
   285
1070
     8
1070
   286
1070
     8
1002
}
  0
DIMENSION
  5
2F9D
330
1E
100
AcDbEntity
  8
BEM
100
AcDbDimension
  2
*D5
 10
356.2091986829874
 20
435.0637101306932
 30
0.0
 11
286.583160954527
 21
482.7678752552921
 31
0.0
 70
    33
  1
%%c<>
 71
     5
 42
168.3
  3
Standard
100
AcDbAlignedDimension
 13
203.1972624834757
 23
506.6392624686513
 33
0.0
 14
348.9493379403966
 24
422.4892624686511
 34
0.0
1001
ACAD
1000
DSTYLE
1002
{
1070
    40
1040
2.0
1070
    41
1040
3.5
1070
    42
1040
1.0
1070
    43
1040
7.0
1070
    44
1040
1.0
1070
    73
1070
     0
1070
    74
1070
     0
1070
    77
1070
     1
1070
    78
1070
     8
1070
    79
1070
     2
1070
   140
1040
3.5
1070
   141
1040
1.5
1070
   146
1040
0.5142857142857144
1070
   147
1040
1.5
1070
   172
1070
     1
1070
   178
1070
     1
1070
   179
1070
     2
1070
   271
1070
     2
1070
   272
1070
     2
1070
   284
1070
     8
1070
   285
1070
     8
1070
   286
1070
     8
1002
}
  0
DIMENSION
  5
2FBC
330
1E
100
AcDbEntity
  8
BEM
100
AcDbDimension
  2
*D6
 10
216.0681038316585
 20
237.6412140145189
 30
0.0
 11
242.3616784212349
 21
458.7424881253943
 31
0.0
 70
    34
 71
     5
 42
0.5235565286041995
  3
Standard
100
AcDb2LineAngularDimension
 13
216.0733002119359
 23
360.6412140145188
 33
0.0
 14
278.5733002119361
 24
468.8943894875733
 34
0.0
 15
216.0733002119359
 25
360.6412140145188
 35
0.0
 16
248.5878436817063
 26
449.9702739004113
 36
0.0
1001
ACAD
1000
DSTYLE
1002
{
1070
    40
1040
2.0
1070
    41
1040
3.5
1070
    42
1040
1.0
1070
    43
1040
7.0
1070
    44
1040
1.0
1070
    73
1070
     0
1070
    74
1070
     0
1070
    77
1070
     1
1070
    78
1070
     8
1070
    79
1070
     2
1070
   140
1040
3.5
1070
   141
1040
1.5
1070
   146
1040
0.5142857142857144
1070
   147
1040
1.5
1070
   172
1070
     1
1070
   178
1070
     1
1070
   179
1070
     2
1070
   271
1070
     2
1070
   272
1070
     2
1070
   284
1070
     8
1070
   285
1070
     8
1070
   286
1070
     8
1002
}
  0
HATCH
  5
2FF1
330
1E
100
AcDbEntity
  8
SCHRAFF
100
AcDbHatch
 10
0.0
 20
0.0
 30
0.0
210
0.0
220
0.0
230
1.0
  2
_USER
 70
     0
 71
     1
 91
        2
 92
        7
 72
     1
 73
     1
 93
       11
 10
282.5722814343582
 20
336.5250148892286
 42
-0.099308519919152
 10
284.390717792175
 20
345.5882263488586
 42
-0.0000608368239131
 10
284.3898631100906
 20
345.5882059715567
 42
0.0000608368239171
 10
284.390717792175
 20
345.5882263488586
 42
-0.031915990419918
 10
285.7206844244524
 20
348.2740220848675
 42
0.0
 10
283.5556209149913
 20
349.5240220848676
 42
0.1316417527935753
 10
280.0722814365881
 20
336.5251205067137
 42
0.0
 10
280.0686574781373
 20
250.7448531389652
 42
0.0
 10
279.3593359453018
 20
242.6412140145188
 42
0.0
 10
281.8688948170632
 20
242.6412140145189
 42
0.0
 10
282.5686528645476
 20
250.6355951643064
 42
0.0
 97
        9
330
2E67
330
2D3E
330
2E75
330
2E68
330
2E73
330
2E71
330
2E29
330
2E72
330
2E6B
 92
        7
 72
     1
 73
     1
 93
        8
 10
152.0722815508167
 20
336.530528121957
 42
-0.1316417527935709
 10
172.7043692305832
 20
413.5240220848674
 42
0.0
 10
170.5393057211221
 20
414.7740220848675
 42
0.131641752793571
 10
149.5722815530478
 20
336.5306337394422
 42
0.0
 10
149.5686529832372
 20
250.6412140145192
 42
0.0
 10
150.2682217297924
 20
242.6412140145188
 42
0.0
 10
152.7777620502954
 20
242.6412140145188
 42
0.0
 10
152.0686575923653
 20
250.7502607542073
 42
0.0
 97
        8
330
2E69
330
2E75
330
2E66
330
2E6A
330
2E6C
330
2E29
330
2E6D
330
2E6F
 75
     0
 76
     0
 52
45.0
 41
2.0
 77
     0
 78
     1
 53
45.0
 43
-388.3407470021834
 44
15.38067597555619
 45
-1.414213562373094
 46
1.414213562373095
 79
     0
 47
0.6148543877006892
 98
        2
 10
281.6013721042232
 20
311.5632841947986
 10
151.1600490891255
 20
312.792992110659
  0
HATCH
  5
3028
330
1E
100
AcDbEntity
  8
SCHRAFF
100
AcDbHatch
 10
0.0
 20
0.0
 30
0.0
210
0.0
220
0.0
230
1.0
  2
_USER
 70
     0
 71
     1
 91
        2
 92
        7
 72
     1
 73
     1
 93
       21
 10
311.4941165825233
 20
382.914916068076
 42
-0.1095494205537227
 10
316.7600402333197
 20
388.6609426420118
 42
0.1095494205537934
 10
325.5365024937467
 20
398.23756940642
 42
0.0
 10
325.5367308995535
 20
398.237437536266
 42
0.0
 10
335.0900421773213
 20
414.7842580498807
 42
0.1095178116832438
 10
338.9951210065405
 20
427.1695857674512
 42
0.0
 10
339.0839617463375
 20
428.1850400699481
 42
0.0
 10
336.695078476847
 20
429.5642624686512
 42
0.0
 10
336.5046342613112
 20
427.3874751243201
 42
-0.1095178116832409
 10
332.9249786678602
 20
416.0342580498808
 42
0.0
 10
323.3716673900924
 20
399.487437536266
 42
-0.1102736034490543
 10
315.2619612544481
 20
390.663740440272
 42
0.1085781327854615
 10
309.3290530730623
 20
384.1649160680759
 42
0.0
 10
302.563412784398
 20
372.4464833423743
 42
-0.1528962216020417
 10
295.7464647730051
 20
366.1748973198007
 42
0.1528962216020391
 10
290.24892605414
 20
361.1171666564349
 42
0.0
 10
283.5556209149913
 20
349.5240220848675
 42
0.0
 10
285.7206844244526
 20
348.2740220848674
 42
0.0
 10
292.4139895636013
 20
359.8671666564351
 42
-0.1528962216020396
 10
296.8120205386933
 20
363.9133511871277
 42
0.1528962216020375
 10
304.728476293859
 20
371.1964833423743
 42
0.0
 97
       21
330
2EC8
330
2EC9
330
2ECB
330
2EA8
330
2ED1
330
2ED3
330
2ECC
330
2ED4
330
2ED2
330
2EA9
330
2ECA
330
2EC7
330
2EC2
330
2EC3
330
2EC5
330
2EBF
330
2E75
330
2EBE
330
2EC4
330
2EC6
330
2EC1
 92
        7
 72
     1
 73
     1
 93
       21
 10
178.5376939647042
 20
432.1990654728419
 42
-0.1528962216020361
 10
177.2326108602708
 20
426.3671666564351
 42
0.0
 10
170.539305721122
 20
414.7740220848675
 42
0.0
 10
172.7043692305833
 20
413.5240220848674
 42
0.0
 10
179.3976743697321
 20
425.1171666564351
 42
0.1528962216020337
 10
181.0290282502737
 20
432.4070401769435
 42
-0.1528962216020451
 10
183.0519070621456
 20
441.4464833423744
 42
0.0
 10
189.8175473508099
 20
453.164916068076
 42
0.1085781327854619
 10
192.4792402611722
 20
461.5523774575748
 42
-0.1102736034490533
 10
196.0659330337799
 20
472.9874375362661
 42
0.0
 10
205.6192443115478
 20
489.5342580498808
 42
-0.1095178116832407
 10
213.6615909159662
 20
498.310939267828
 42
0.0
 10
215.4515219470255
 20
499.5642624686513
 42
0.0
 10
213.0626386775346
 20
500.9434848673544
 42
0.0
 10
212.2276498250887
 20
500.3588193785508
 42
0.1095178116832441
 10
203.4541808020867
 20
490.7842580498807
 42
0.0
 10
193.9008695243189
 20
474.2374375362662
 42
0.0
 10
193.9010979301255
 20
474.2373056661121
 42
0.1095494205537679
 10
189.9957269997998
 20
461.848353011026
 42
-0.1095494205537654
 10
187.6524838413488
 20
454.4149160680761
 42
0.0
 10
180.8868435526844
 20
442.6964833423745
 42
0.1528962216020413
 97
       21
330
2EB3
330
2EB9
330
2EBB
330
2EAB
330
2ECD
330
2ECF
330
2ECC
330
2ED0
330
2ECE
330
2EAC
330
2EBD
330
2EBC
330
2EBA
330
2EB4
330
2EB6
330
2EB7
330
2EB2
330
2E75
330
2EB1
330
2EB8
330
2EB5
 75
     0
 76
     0
 52
105.0
 41
2.0
 77
     0
 78
     1
 53
105.0
 43
-388.3407470021834
 44
15.38067597555619
 45
-1.931851652578136
 46
-0.5176380902050417
 79
     0
 47
0.6148543877006892
 98
        2
 10
307.4435225792486
 20
377.3527031773733
 10
179.4633570088322
 20
433.9193078927134
  0
HATCH
  5
303C
330
1E
100
AcDbEntity
  8
SCHRAFF
100
AcDbHatch
 10
0.0
 20
0.0
 30
0.0
210
0.0
220
0.0
230
1.0
  2
_USER
 70
     0
 71
     1
 91
        2
 92
        7
 72
     0
 73
     1
 93
        4
 10
300.2116861910794
 20
338.0731733972357
 10
297.3116861910789
 20
338.8502260552861
 10
297.3116861910792
 20
302.640127126733
 10
300.211686191079
 20
302.640127126733
 97
        4
330
2EDA
330
2E1D
330
2E1F
330
2E1E
 92
        7
 72
     0
 73
     1
 93
        4
 10
131.911686191079
 20
302.6401271267331
 10
134.811686191079
 20
302.6401271267331
 10
134.811686191079
 20
382.3919698253429
 10
131.9116861910789
 20
383.1690224833932
 97
        4
330
2ED9
330
2E36
330
2E30
330
2E35
 75
     0
 76
     0
 52
135.0
 41
2.0
 77
     0
 78
     1
 53
135.0
 43
-388.3407470021834
 44
15.38067597555619
 45
-1.414213562373095
 46
-1.414213562373094
 79
     0
 47
0.5286816140634248
 98
        2
 10
299.0753534173955
 20
315.2279557222589
 10
132.951916370815
 20
341.1333545468926
  0
HATCH
  5
3050
330
1E
100
AcDbEntity
  8
SCHRAFF
100
AcDbHatch
 10
0.0
 20
0.0
 30
0.0
210
0.0
220
0.0
230
1.0
  2
_USER
 70
     0
 71
     1
 91
        2
 92
        7
 72
     0
 73
     1
 93
        4
 10
348.9493379403967
 20
422.4892624686511
 10
346.4378642694218
 20
423.9392624686511
 10
297.3116861910792
 20
338.8502260552859
 10
300.2116861910794
 20
338.0731733972358
 97
        4
330
2ECC
330
2ED7
330
2EDA
330
2ED6
 92
        7
 72
     0
 73
     1
 93
        4
 10
205.7087361544504
 20
505.1892624686514
 10
203.1972624834756
 20
506.6392624686515
 10
131.9116861910789
 20
383.1690224833933
 10
134.8116861910788
 20
382.391969825343
 97
        4
330
2ECC
330
2ED5
330
2ED9
330
2ED8
 75
     0
 76
     0
 52
15.0
 41
2.0
 77
     0
 78
     1
 53
15.0
 43
-388.3407470021834
 44
15.38067597555619
 45
-0.5176380902050415
 46
1.931851652578136
 79
     0
 47
0.5286816140634248
 98
        2
 10
321.8247441675053
 20
377.6123862588813
 10
171.0439132845276
 20
447.9270404113883
  0
LINE
  5
3051
102
{ACAD_REACTORS
330
308A
330
30B5
102
}
330
1E
100
AcDbEntity
  8
STEMPEL
100
AcDbLine
 10
338.4378642694218
 20
410.0828560081002
 30
0.0
 11
333.8912308995534
 21
412.7078560081002
 31
0.0
  0
LINE
  5
305A
102
{ACAD_REACTORS
330
308A
330
30B5
102
}
330
1E
100
AcDbEntity
  8
STEMPEL
100
AcDbLine
 10
202.2553695243188
 20
488.7078560081002
 30
0.0
 11
197.7087361544503
 21
491.3328560081004
 31
0.0
  0
HATCH
  5
308A
330
1E
100
AcDbEntity
  8
SCHRAFF
100
AcDbHatch
 10
0.0
 20
0.0
 30
0.0
210
0.0
220
0.0
230
1.0
  2
NET
 70
     0
 71
     1
 91
        2
 92
        7
 72
     1
 73
     1
 93
        6
 10
346.4378642694219
 20
423.9392624686511
 42
0.0
 10
339.0839617463375
 20
428.1850400699481
 42
0.0
 10
338.9951210065405
 20
427.1695857674512
 42
-0.1095178116832427
 10
335.0900421773213
 20
414.7842580498808
 42
0.0
 10
333.8912308995534
 20
412.7078560081002
 42
0.0
 10
338.4378642694218
 20
410.0828560081002
 42
0.0
 97
        6
330
2ECC
330
2ED3
330
2ED1
330
2EA8
330
3051
330
2ED7
 92
        7
 72
     1
 73
     1
 93
        6
 10
197.7087361544504
 20
491.3328560081002
 42
0.0
 10
202.2553695243188
 20
488.7078560081001
 42
0.0
 10
203.4541808020867
 20
490.7842580498808
 42
-0.1095178116832435
 10
212.2276498250887
 20
500.3588193785508
 42
0.0
 10
213.0626386775347
 20
500.9434848673545
 42
0.0
 10
205.7087361544504
 20
505.1892624686514
 42
0.0
 97
        6
330
2ED0
330
2ECC
330
2ED8
330
305A
330
2EAC
330
2ECE
 75
     0
 76
     1
 52
15.0
 41
20.0
 77
     0
 78
     2
 53
15.0
 43
-388.3407470021834
 44
15.38067597555619
 45
-0.6470476127563019
 46
2.41481456572267
 79
     0
 53
105.0
 43
-388.3407470021834
 44
15.38067597555619
 45
-2.41481456572267
 46
-0.6470476127563018
 79
     0
 47
0.449495819913148
 98
        2
 10
341.6095535164564
 20
421.5651595587373
 10
201.2676680202889
 20
493.4844906566829
  0
HATCH
  5
30B5
330
1E
100
AcDbEntity
  8
SCHRAFF
100
AcDbHatch
 10
0.0
 20
0.0
 30
0.0
210
0.0
220
0.0
230
1.0
  2
HONEY
 70
     0
 71
     1
 91
        2
 92
        7
 72
     1
 73
     1
 93
       16
 10
338.4378642694219
 20
410.0828560081002
 42
0.0
 10
333.8912308995535
 20
412.7078560081003
 42
0.0
 10
325.5367308995535
 20
398.237437536266
 42
0.0
 10
325.5365024937469
 20
398.23756940642
 42
-0.1095494205537231
 10
316.7600402333266
 20
388.6609426420167
 42
0.1095494205538374
 10
311.4941165825235
 20
382.9149160680761
 42
0.0
 10
304.728476293859
 20
371.1964833423743
 42
-0.1528962216020405
 10
296.8120205386932
 20
363.9133511871275
 42
0.1528962216020428
 10
292.4139895636011
 20
359.8671666564348
 42
0.0
 10
287.279004733593
 20
350.9731120347652
 42
-0.5822417794004272
 10
284.390717792175
 20
345.5882263488586
 42
0.0993085199191516
 10
282.5722814343582
 20
336.5250148892286
 42
0.0
 10
282.5715258516099
 20
318.6401271267333
 42
0.0
 10
295.211686191079
 20
318.6401271267332
 42
0.0
 10
297.311686191079
 20
316.5401271267332
 42
0.0
 10
297.311686191079
 20
338.8502260552855
 42
0.0
 97
       16
330
3051
330
2EA8
330
2ECB
330
2EC9
330
2EC8
330
2EC1
330
2EC6
330
2EC4
330
2EBE
330
2D3E
330
2E67
330
2E6B
330
2E21
330
2E23
330
2E1D
330
2ED7
 92
        7
 72
     1
 73
     1
 93
       16
 10
169.0680220608687
 20
412.168472768761
 42
-0.6661625861016117
 10
172.0379957155603
 20
417.3698293000298
 42
0.0
 10
177.2326108602708
 20
426.3671666564351
 42
0.1528962216020362
 10
178.5376939647042
 20
432.1990654728419
 42
-0.1528962216020413
 10
180.8868435526844
 20
442.6964833423745
 42
0.0
 10
187.6524838413488
 20
454.4149160680761
 42
0.1095494205537645
 10
189.9957269997998
 20
461.8483530110259
 42
-0.1095494205537685
 10
193.9010979301255
 20
474.2373056661121
 42
0.0
 10
193.9008695243189
 20
474.2374375362662
 42
0.0
 10
202.2553695243188
 20
488.7078560081002
 42
0.0
 10
197.7087361544504
 20
491.3328560081003
 42
0.0
 10
134.811686191079
 20
382.3919698253435
 42
0.0
 10
134.811686191079
 20
316.5401271267331
 42
0.0
 10
136.9116861910792
 20
318.6401271267332
 42
0.0
 10
149.57152573292
 20
318.6401271267332
 42
0.0
 10
149.5722815530478
 20
336.5306337394422
 42
-0.1267819125095456
 97
       16
330
2D3F
330
2EB2
330
2EB7
330
2EB6
330
2EB4
330
2EBA
330
2EBC
330
2EBD
330
2EAC
330
305A
330
2ED8
330
2E35
330
2E34
330
2E32
330
2E6A
330
2E66
 75
     0
 76
     1
 52
0.0
 41
30.0
 77
     0
 78
     3
 53
0.0
 43
-388.3407470021834
 44
15.38067597555619
 45
5.625
 46
3.247595249999999
 79
     2
 49
3.75
 49
-7.5
 53
120.0
 43
-388.3407470021834
 44
15.38067597555619
 45
-5.624999987709673
 46
3.247595271287468
 79
     2
 49
3.749999999999999
 49
-7.499999999999999
 53
60.0
 43
-388.3407470021834
 44
15.38067597555619
 45
0.0000000122903263
 46
6.495190521287468
 79
     2
 49
-7.5
 49
3.75
 47
0.449495819913148
 98
        2
 10
293.4794860475081
 20
344.2518775088386
 10
145.0409532593671
 20
353.2417938960819
  0
DIMENSION
  5
30B6
330
1E
100
AcDbEntity
  8
BEM
100
AcDbDimension
  2
*D7
 10
282.5686528645475
 20
221.4545270651688
 30
0.0
 11
216.0686529238924
 21
227.9545270651688
 31
0.0
 70
    32
  1
%%c<>
 71
     5
 42
132.9999998813102
  3
Standard
100
AcDbAlignedDimension
 13
149.5686529832372
 23
250.6412140145189
 33
0.0
 14
282.5686528645475
 24
250.6355951643068
 34
0.0
100
AcDbRotatedDimension
1001
ACAD
1000
DSTYLE
1002
{
1070
    40
1040
2.0
1070
    41
1040
3.5
1070
    42
1040
1.0
1070
    43
1040
7.0
1070
    44
1040
1.0
1070
    73
1070
     0
1070
    74
1070
     0
1070
    77
1070
     1
1070
    78
1070
     8
1070
    79
1070
     2
1070
   140
1040
3.5
1070
   141
1040
1.5
1070
   146
1040
0.5142857142857144
1070
   147
1040
1.5
1070
   172
1070
     1
1070
   178
1070
     1
1070
   179
1070
     2
1070
   271
1070
     2
1070
   272
1070
     2
1070
   284
1070
     8
1070
   285
1070
     8
1070
   286
1070
     8
1002
}
  0
HATCH
  5
3153
330
1E
100
AcDbEntity
  8
SCHRAFF
100
AcDbHatch
 10
0.0
 20
0.0
 30
0.0
210
0.0
220
0.0
230
1.0
  2
NET
 70
     0
 71
     0
 91
        2
 92
        7
 72
     0
 73
     1
 93
        9
 10
289.91809265163
 20
308.6401271267332
 10
292.0616861910794
 20
300.6401271267322
 10
300.211686191079
 20
300.6401271267321
 10
300.211686191079
 20
302.640127126733
 10
297.3116861910789
 20
302.640127126733
 10
297.311686191079
 20
316.5401271267334
 10
295.211686191079
 20
318.6401271267332
 10
282.5616861910789
 20
318.6401271267333
 10
282.5616861910789
 20
308.6401271267332
 97
        0
 92
        7
 72
     0
 73
     1
 93
        9
 10
142.2052797305281
 20
308.6401271267332
 10
149.5616861910788
 20
308.6401271267332
 10
149.5616861910788
 20
318.6401271267332
 10
136.911686191079
 20
318.6401271267332
 10
134.8116861910789
 20
316.540127126733
 10
134.8116861910789
 20
302.6401271267331
 10
131.9116861910789
 20
302.6401271267331
 10
131.9116861910789
 20
300.6401271267332
 10
140.061686191079
 20
300.6401271267331
 97
        0
 75
     0
 76
     1
 52
45.0
 41
20.0
 77
     0
 78
     2
 53
45.0
 43
-8.938313808921066
 44
-10.94548332489387
 45
-1.767766952966368
 46
1.767766952966368
 79
     0
 53
135.0
 43
-8.938313808921066
 44
-10.94548332489387
 45
-1.767766952966368
 46
-1.767766952966368
 79
     0
 47
0.2115359210124944
 98
        2
 10
292.2214497263926
 20
311.0333848155248
 10
140.8820230856672
 20
312.7256722974702
  0
LINE
  5
3154
330
1E
100
AcDbEntity
  8
STEMPEL
100
AcDbLine
 10
300.211686191079
 20
300.6401271267321
 30
0.0
 11
282.5616861910788
 21
300.6401271267322
 31
0.0
  0
LINE
  5
3155
330
1E
100
AcDbEntity
  8
STEMPEL
100
AcDbLine
 10
292.0616861910793
 20
300.6401271267321
 30
0.0
 11
289.91809265163
 21
308.6401271267332
 31
0.0
  0
LINE
  5
3156
330
1E
100
AcDbEntity
  8
STEMPEL
100
AcDbLine
 10
149.5616861910788
 20
300.640127126733
 30
0.0
 11
131.9116861910789
 21
300.6401271267332
 31
0.0
  0
LINE
  5
3157
330
1E
100
AcDbEntity
  8
STEMPEL
100
AcDbLine
 10
140.061686191079
 20
300.6401271267332
 30
0.0
 11
142.2052797305281
 21
308.6401271267332
 31
0.0
  0
TEXT
  5
315F
330
1E
100
AcDbEntity
  8
TEXT
100
AcDbText
 10
148.622109822104
 20
73.14025471151666
 30
0.0
 40
4.0
  1
2007
 41
0.8
  7
GREEKS
100
AcDbText
  0
TEXT
  5
3160
330
1E
100
AcDbEntity
  8
TEXT
100
AcDbText
 10
170.398997108236
 20
63.10765040825732
 30
0.0
 40
4.0
  1
28.09.
 41
0.8
  7
GREEKS
 72
     1
 11
177.4085209177598
 21
63.10765040825732
 31
0.0
100
AcDbText
  0
ENDSEC
  0
SECTION
  2
OBJECTS
  0
DICTIONARY
  5
C
330
0
100
AcDbDictionary
281
     1
  3
ACAD_COLOR
350
DF
  3
ACAD_GROUP
350
D
  3
ACAD_LAYOUT
350
19
  3
ACAD_MATERIAL
350
DE
  3
ACAD_MLINESTYLE
350
16
  3
ACAD_PLOTSETTINGS
350
18
  3
ACAD_PLOTSTYLENAME
350
E
  3
AcDbVariableDictionary
350
25E
  0
DICTIONARY
  5
A0
330
1E
100
AcDbDictionary
280
     1
281
     1
  3
ACAD_LAYOUTSELFREF
360
D4
  0
DICTIONARY
  5
A2
330
1A
100
AcDbDictionary
280
     1
281
     1
  3
ACAD_LAYOUTSELFREF
360
D3
  0
DICTIONARY
  5
DF
102
{ACAD_REACTORS
330
C
102
}
330
C
100
AcDbDictionary
281
     1
  0
DICTIONARY
  5
D
102
{ACAD_REACTORS
330
C
102
}
330
C
100
AcDbDictionary
281
     1
  0
DICTIONARY
  5
19
102
{ACAD_REACTORS
330
C
102
}
330
C
100
AcDbDictionary
281
     1
  3
Layout1
350
1D
  3
Model
350
21
  0
DICTIONARY
  5
DE
102
{ACAD_REACTORS
330
C
102
}
330
C
100
AcDbDictionary
281
     1
  0
DICTIONARY
  5
16
102
{ACAD_REACTORS
330
C
102
}
330
C
100
AcDbDictionary
281
     1
  3
Standard
350
17
  0
DICTIONARY
  5
18
102
{ACAD_REACTORS
330
C
102
}
330
C
100
AcDbDictionary
281
     1
  0
ACDBDICTIONARYWDFLT
  5
E
102
{ACAD_REACTORS
330
C
102
}
330
C
100
AcDbDictionary
281
     1
  3
Normal
350
F
100
AcDbDictionaryWithDefault
340
F
  0
DICTIONARY
  5
25E
102
{ACAD_REACTORS
330
C
102
}
330
C
100
AcDbDictionary
281
     1
  3
DIMASSOC
350
25F
  3
PROJECTNAME
350
260
  0
XRECORD
  5
D4
102
{ACAD_REACTORS
330
A0
102
}
330
A0
100
AcDbXrecord
280
     1
340
1E
  0
XRECORD
  5
D3
102
{ACAD_REACTORS
330
A2
102
}
330
A2
100
AcDbXrecord
280
     1
340
1A
  0
LAYOUT
  5
1D
102
{ACAD_REACTORS
330
19
102
}
330
19
100
AcDbPlotSettings
  1

  2
\\NT_WORK01\HP LaserJet 5000 PCL 6
  4

  6

 40
0.0
 41
0.0
 42
0.0
 43
0.0
 44
0.0
 45
0.0
 46
0.0
 47
0.0
 48
0.0
 49
0.0
140
0.0
141
0.0
142
1.0
143
1.0
 70
   688
 72
     0
 73
     0
 74
     5
  7

 75
    16
147
1.0
 76
     0
 77
     2
 78
   300
148
0.0
149
0.0
100
AcDbLayout
  1
Layout1
 70
     0
 71
     1
 10
0.0
 20
0.0
 11
12.0
 21
9.0
 12
0.0
 22
0.0
 32
0.0
 14
1.000000000000000E+20
 24
1.000000000000000E+20
 34
1.000000000000000E+20
 15
-1.000000000000000E+20
 25
-1.000000000000000E+20
 35
-1.000000000000000E+20
146
0.0
 13
0.0
 23
0.0
 33
0.0
 16
1.0
 26
0.0
 36
0.0
 17
0.0
 27
1.0
 37
0.0
 76
     0
330
1A
  0
LAYOUT
  5
21
102
{ACAD_REACTORS
330
19
102
}
330
19
100
AcDbPlotSettings
  1

  2
RICOH Aficio 2027 PCL 6
  4
A4
  6

 40
5.027083
 41
5.027084999999999
 42
5.027084
 43
5.027069
 44
209.973328
 45
296.925995
 46
0.0
 47
2.06
 48
0.0
 49
0.0
140
0.0
141
0.0
142
1.0
143
2.100849152723284
 70
 11956
 72
     1
 73
     0
 74
     2
  7
monochrome1.ctb
 75
     0
147
0.4759980023809526
 76
     1
 77
     2
 78
   300
148
0.0
149
0.0
100
AcDbLayout
  1
Model
 70
     1
 71
     0
 10
0.0
 20
0.0
 11
12.0
 21
9.0
 12
0.0
 22
0.0
 32
0.0
 14
0.0
 24
0.0
 34
0.0
 15
0.0
 25
0.0
 35
0.0
146
0.0
 13
0.0
 23
0.0
 33
0.0
 16
1.0
 26
0.0
 36
0.0
 17
0.0
 27
1.0
 37
0.0
 76
     0
330
1E
  0
MLINESTYLE
  5
17
102
{ACAD_REACTORS
330
16
102
}
330
16
100
AcDbMlineStyle
  2
STANDARD
 70
     0
  3

 62
   256
 51
90.0
 52
90.0
 71
     2
 49
0.5
 62
   256
  6
BYLAYER
 49
-0.5
 62
   256
  6
BYLAYER
  0
ACDBPLACEHOLDER
  5
F
102
{ACAD_REACTORS
330
E
102
}
330
E
  0
DICTIONARYVAR
  5
25F
102
{ACAD_REACTORS
330
25E
102
}
330
25E
100
DictionaryVariables
280
     0
  1
1
  0
DICTIONARYVAR
  5
260
102
{ACAD_REACTORS
330
25E
102
}
330
25E
100
DictionaryVariables
280
     0
  1

  0
ENDSEC
  0
EOF
