  0
SECTION
  2
HEADER
  9
$ACADVER
  1
AC1018
  9
$ACADMAINTVER
 70
     2
  9
$DWGCODEPAGE
  3
ANSI_1252
  9
$INSBASE
 10
0.0
 20
0.0
 30
0.0
  9
$EXTMIN
 10
-0.0159876504408203
 20
-0.0090298345912743
 30
-0.0000000000000053
  9
$EXTMAX
 10
420.0003766348588
 20
594.0045411969058
 30
0.0000000000000099
  9
$LIMMIN
 10
0.0
 20
0.0
  9
$LIMMAX
 10
419.9999999999999
 20
594.0000000000002
  9
$ORTHOMODE
 70
     0
  9
$REGENMODE
 70
     1
  9
$FILLMODE
 70
     1
  9
$QTEXTMODE
 70
     0
  9
$MIRRTEXT
 70
     1
  9
$LTSCALE
 40
20.0
  9
$ATTMODE
 70
     1
  9
$TEXTSIZE
 40
3.5
  9
$TRACEWID
 40
0.5
  9
$TEXTSTYLE
  7
STANDARD
  9
$CLAYER
  8
SCHRAFF
  9
$CELTYPE
  6
ByLayer
  9
$CECOLOR
 62
   256
  9
$CELTSCALE
 40
1.0
  9
$DISPSILH
 70
     0
  9
$DIMSCALE
 40
2.0
  9
$DIMASZ
 40
3.5
  9
$DIMEXO
 40
1.0
  9
$DIMDLI
 40
7.0
  9
$DIMRND
 40
0.0
  9
$DIMDLE
 40
0.0
  9
$DIMEXE
 40
1.0
  9
$DIMTP
 40
0.0
  9
$DIMTM
 40
0.0
  9
$DIMTXT
 40
3.5
  9
$DIMCEN
 40
1.5
  9
$DIMTSZ
 40
0.0
  9
$DIMTOL
 70
     0
  9
$DIMLIM
 70
     0
  9
$DIMTIH
 70
     0
  9
$DIMTOH
 70
     0
  9
$DIMSE1
 70
     0
  9
$DIMSE2
 70
     0
  9
$DIMTAD
 70
     1
  9
$DIMZIN
 70
     8
  9
$DIMBLK
  1

  9
$DIMASO
 70
     1
  9
$DIMSHO
 70
     0
  9
$DIMPOST
  1

  9
$DIMAPOST
  1

  9
$DIMALT
 70
     0
  9
$DIMALTD
 70
     2
  9
$DIMALTF
 40
25.4
  9
$DIMLFAC
 40
1.0
  9
$DIMTOFL
 70
     1
  9
$DIMTVP
 40
0.0
  9
$DIMTIX
 70
     0
  9
$DIMSOXD
 70
     0
  9
$DIMSAH
 70
     0
  9
$DIMBLK1
  1

  9
$DIMBLK2
  1

  9
$DIMSTYLE
  2
Standard
  9
$DIMCLRD
 70
     0
  9
$DIMCLRE
 70
     0
  9
$DIMCLRT
 70
     1
  9
$DIMTFAC
 40
0.5142857142857144
  9
$DIMGAP
 40
1.5
  9
$DIMJUST
 70
     0
  9
$DIMSD1
 70
     0
  9
$DIMSD2
 70
     0
  9
$DIMTOLJ
 70
     1
  9
$DIMTZIN
 70
     8
  9
$DIMALTZ
 70
     8
  9
$DIMALTTZ
 70
     8
  9
$DIMUPT
 70
     0
  9
$DIMDEC
 70
     2
  9
$DIMTDEC
 70
     2
  9
$DIMALTU
 70
     2
  9
$DIMALTTD
 70
     2
  9
$DIMTXSTY
  7
STANDARD
  9
$DIMAUNIT
 70
     0
  9
$DIMADEC
 70
     2
  9
$DIMALTRND
 40
0.0
  9
$DIMAZIN
 70
     2
  9
$DIMDSEP
 70
    46
  9
$DIMATFIT
 70
     3
  9
$DIMFRAC
 70
     0
  9
$DIMLDRBLK
  1

  9
$DIMLUNIT
 70
     2
  9
$DIMLWD
 70
    -2
  9
$DIMLWE
 70
    -2
  9
$DIMTMOVE
 70
     0
  9
$LUNITS
 70
     2
  9
$LUPREC
 70
     2
  9
$SKETCHINC
 40
1.0
  9
$FILLETRAD
 40
0.0
  9
$AUNITS
 70
     0
  9
$AUPREC
 70
     0
  9
$MENU
  1
ACAD
  9
$ELEVATION
 40
0.0
  9
$PELEVATION
 40
0.0
  9
$THICKNESS
 40
0.0
  9
$LIMCHECK
 70
     0
  9
$CHAMFERA
 40
0.0
  9
$CHAMFERB
 40
0.0
  9
$CHAMFERC
 40
0.0
  9
$CHAMFERD
 40
0.0
  9
$SKPOLY
 70
     0
  9
$TDCREATE
 40
2455397.823042361
  9
$TDUCREATE
 40
2455397.781375695
  9
$TDUPDATE
 40
2455532.540708970
  9
$TDUUPDATE
 40
2455532.499042303
  9
$TDINDWG
 40
0.3880671991
  9
$TDUSRTIMER
 40
0.3880671991
  9
$USRTIMER
 70
     1
  9
$ANGBASE
 50
0.0
  9
$ANGDIR
 70
     0
  9
$PDMODE
 70
     0
  9
$PDSIZE
 40
0.0
  9
$PLINEWID
 40
0.0
  9
$SPLFRAME
 70
     0
  9
$SPLINETYPE
 70
     6
  9
$SPLINESEGS
 70
     8
  9
$HANDSEED
  5
2704
  9
$SURFTAB1
 70
     6
  9
$SURFTAB2
 70
     6
  9
$SURFTYPE
 70
     6
  9
$SURFU
 70
     6
  9
$SURFV
 70
     6
  9
$UCSBASE
  2

  9
$UCSNAME
  2

  9
$UCSORG
 10
0.0
 20
0.0
 30
0.0
  9
$UCSXDIR
 10
1.0
 20
0.0
 30
0.0
  9
$UCSYDIR
 10
0.0
 20
1.0
 30
0.0
  9
$UCSORTHOREF
  2

  9
$UCSORTHOVIEW
 70
     0
  9
$UCSORGTOP
 10
0.0
 20
0.0
 30
0.0
  9
$UCSORGBOTTOM
 10
0.0
 20
0.0
 30
0.0
  9
$UCSORGLEFT
 10
0.0
 20
0.0
 30
0.0
  9
$UCSORGRIGHT
 10
0.0
 20
0.0
 30
0.0
  9
$UCSORGFRONT
 10
0.0
 20
0.0
 30
0.0
  9
$UCSORGBACK
 10
0.0
 20
0.0
 30
0.0
  9
$PUCSBASE
  2

  9
$PUCSNAME
  2

  9
$PUCSORG
 10
0.0
 20
0.0
 30
0.0
  9
$PUCSXDIR
 10
1.0
 20
0.0
 30
0.0
  9
$PUCSYDIR
 10
0.0
 20
1.0
 30
0.0
  9
$PUCSORTHOREF
  2

  9
$PUCSORTHOVIEW
 70
     0
  9
$PUCSORGTOP
 10
0.0
 20
0.0
 30
0.0
  9
$PUCSORGBOTTOM
 10
0.0
 20
0.0
 30
0.0
  9
$PUCSORGLEFT
 10
0.0
 20
0.0
 30
0.0
  9
$PUCSORGRIGHT
 10
0.0
 20
0.0
 30
0.0
  9
$PUCSORGFRONT
 10
0.0
 20
0.0
 30
0.0
  9
$PUCSORGBACK
 10
0.0
 20
0.0
 30
0.0
  9
$USERI1
 70
     0
  9
$USERI2
 70
     0
  9
$USERI3
 70
     0
  9
$USERI4
 70
     0
  9
$USERI5
 70
     0
  9
$USERR1
 40
0.0
  9
$USERR2
 40
0.0
  9
$USERR3
 40
0.0
  9
$USERR4
 40
0.0
  9
$USERR5
 40
0.0
  9
$WORLDVIEW
 70
     1
  9
$SHADEDGE
 70
     3
  9
$SHADEDIF
 70
    70
  9
$TILEMODE
 70
     1
  9
$MAXACTVP
 70
    16
  9
$PINSBASE
 10
0.0
 20
0.0
 30
0.0
  9
$PLIMCHECK
 70
     0
  9
$PEXTMIN
 10
1.000000000000000E+20
 20
1.000000000000000E+20
 30
1.000000000000000E+20
  9
$PEXTMAX
 10
-1.000000000000000E+20
 20
-1.000000000000000E+20
 30
-1.000000000000000E+20
  9
$PLIMMIN
 10
0.0
 20
0.0
  9
$PLIMMAX
 10
12.0
 20
9.0
  9
$UNITMODE
 70
     0
  9
$VISRETAIN
 70
     0
  9
$PLINEGEN
 70
     0
  9
$PSLTSCALE
 70
     0
  9
$TREEDEPTH
 70
  3020
  9
$CMLSTYLE
  2
Standard
  9
$CMLJUST
 70
     0
  9
$CMLSCALE
 40
1.0
  9
$PROXYGRAPHICS
 70
     1
  9
$MEASUREMENT
 70
     0
  9
$CELWEIGHT
370
    -1
  9
$ENDCAPS
280
     0
  9
$JOINSTYLE
280
     0
  9
$LWDISPLAY
290
     0
  9
$INSUNITS
 70
     0
  9
$HYPERLINKBASE
  1

  9
$STYLESHEET
  1
monochrome 1.ctb
  9
$XEDIT
290
     1
  9
$CEPSNTYPE
380
     0
  9
$PSTYLEMODE
290
     1
  9
$FINGERPRINTGUID
  2
{D68B0D02-A558-11D7-B632-000102183313}
  9
$VERSIONGUID
  2
{2E58B9A7-A26C-413E-BD32-FE0DB5E35FEA}
  9
$EXTNAMES
290
     1
  9
$PSVPSCALE
 40
0.0
  9
$OLESTARTUP
290
     0
  9
$SORTENTS
280
   127
  9
$INDEXCTL
280
     0
  9
$HIDETEXT
280
     0
  9
$XCLIPFRAME
290
     0
  9
$HALOGAP
280
     0
  9
$OBSCOLOR
 70
   257
  9
$OBSLTYPE
280
     0
  9
$INTERSECTIONDISPLAY
280
     0
  9
$INTERSECTIONCOLOR
 70
   257
  9
$DIMASSOC
280
     1
  9
$PROJECTNAME
  1

  0
ENDSEC
  0
SECTION
  2
CLASSES
  0
CLASS
  1
ACDBDICTIONARYWDFLT
  2
AcDbDictionaryWithDefault
  3
ObjectDBX Classes
 90
        0
 91
        1
280
     0
281
     0
  0
CLASS
  1
DICTIONARYVAR
  2
AcDbDictionaryVar
  3
ObjectDBX Classes
 90
        0
 91
        2
280
     0
281
     0
  0
ENDSEC
  0
SECTION
  2
TABLES
  0
TABLE
  2
VPORT
  5
8
330
0
100
AcDbSymbolTable
 70
     2
  0
VPORT
  5
2703
330
8
100
AcDbSymbolTableRecord
100
AcDbViewportTableRecord
  2
*Active
 70
     0
 10
0.0
 20
0.0
 11
1.0
 21
1.0
 12
209.992194492209
 22
296.9977556811572
 13
0.0
 23
0.0
 14
1.0
 24
1.0
 15
10.0
 25
10.0
 16
0.0
 26
0.0
 36
1.0
 17
0.0
 27
0.0
 37
0.0
 40
598.8104504745508
 41
1.336927223719676
 42
50.0
 43
0.0
 44
0.0
 50
0.0
 51
0.0
 71
     0
 72
  1500
 73
     1
 74
     0
 75
     0
 76
     0
 77
     0
 78
     0
281
     0
 65
     1
110
0.0
120
0.0
130
0.0
111
1.0
121
0.0
131
0.0
112
0.0
122
1.0
132
0.0
 79
     0
146
0.0
  0
ENDTAB
  0
TABLE
  2
LTYPE
  5
5
330
0
100
AcDbSymbolTable
 70
     2
  0
LTYPE
  5
13
330
5
100
AcDbSymbolTableRecord
100
AcDbLinetypeTableRecord
  2
ByBlock
 70
     0
  3

 72
    65
 73
     0
 40
0.0
  0
LTYPE
  5
14
330
5
100
AcDbSymbolTableRecord
100
AcDbLinetypeTableRecord
  2
ByLayer
 70
     0
  3

 72
    65
 73
     0
 40
0.0
  0
LTYPE
  5
15
330
5
100
AcDbSymbolTableRecord
100
AcDbLinetypeTableRecord
  2
Continuous
 70
     0
  3
Solid line
 72
    65
 73
     0
 40
0.0
  0
LTYPE
  5
25
330
5
100
AcDbSymbolTableRecord
100
AcDbLinetypeTableRecord
  2
STRICHPUNKT
 70
     0
  3
__ . __ . __ . __ . __ . __ . __ . __ . __ . __
 72
    65
 73
     4
 40
1.0
 49
0.5
 74
     0
 49
-0.25
 74
     0
 49
0.0
 74
     0
 49
-0.25
 74
     0
  0
ENDTAB
  0
TABLE
  2
LAYER
  5
2
330
0
100
AcDbSymbolTable
 70
     9
  0
LAYER
  5
10
330
2
100
AcDbSymbolTableRecord
100
AcDbLayerTableRecord
  2
0
 70
     0
 62
     7
  6
Continuous
370
    -3
390
F
  0
LAYER
  5
2A
330
2
100
AcDbSymbolTableRecord
100
AcDbLayerTableRecord
  2
VOLL
 70
     0
 62
     1
  6
Continuous
370
    -3
390
F
  0
LAYER
  5
2B
330
2
100
AcDbSymbolTableRecord
100
AcDbLayerTableRecord
  2
HILF
 70
     0
 62
     2
  6
Continuous
370
    -3
390
F
  0
LAYER
  5
2C
330
2
100
AcDbSymbolTableRecord
100
AcDbLayerTableRecord
  2
MITTEL
 70
     0
 62
     2
  6
STRICHPUNKT
370
    -3
390
F
  0
LAYER
  5
2F
330
2
100
AcDbSymbolTableRecord
100
AcDbLayerTableRecord
  2
BEM
 70
     0
 62
     7
  6
Continuous
370
    -3
390
F
  0
LAYER
  5
30
330
2
100
AcDbSymbolTableRecord
100
AcDbLayerTableRecord
  2
STEMPEL
 70
     0
 62
     3
  6
Continuous
370
    -3
390
F
  0
LAYER
  5
31
330
2
100
AcDbSymbolTableRecord
100
AcDbLayerTableRecord
  2
TEXT
 70
     0
 62
     7
  6
Continuous
370
    -3
390
F
  0
LAYER
  5
171
330
2
100
AcDbSymbolTableRecord
100
AcDbLayerTableRecord
  2
Defpoints
 70
     0
 62
     7
  6
Continuous
290
     0
370
    -3
390
F
  0
LAYER
  5
19C
330
2
100
AcDbSymbolTableRecord
100
AcDbLayerTableRecord
  2
SCHRAFF
 70
     0
 62
     7
  6
Continuous
370
    -3
390
F
  0
ENDTAB
  0
TABLE
  2
STYLE
  5
3
330
0
100
AcDbSymbolTable
 70
     2
  0
STYLE
  5
11
330
3
100
AcDbSymbolTableRecord
100
AcDbTextStyleTableRecord
  2
STANDARD
 70
     0
 40
0.0
 41
0.8
 50
0.0
 71
     0
 42
3.5
  3
simplex.shx
  4

  0
STYLE
  5
24
330
3
100
AcDbSymbolTableRecord
100
AcDbTextStyleTableRecord
  2
GREEKS
 70
     0
 40
0.0
 41
0.8
 50
0.0
 71
     0
 42
2.5
  3
SIMPLEX.shx
  4

  0
ENDTAB
  0
TABLE
  2
VIEW
  5
6
330
0
100
AcDbSymbolTable
 70
     0
  0
ENDTAB
  0
TABLE
  2
UCS
  5
7
330
0
100
AcDbSymbolTable
 70
     0
  0
ENDTAB
  0
TABLE
  2
APPID
  5
9
330
0
100
AcDbSymbolTable
 70
     1
  0
APPID
  5
12
330
9
100
AcDbSymbolTableRecord
100
AcDbRegAppTableRecord
  2
ACAD
 70
     0
  0
ENDTAB
  0
TABLE
  2
DIMSTYLE
  5
A
330
0
100
AcDbSymbolTable
 70
     1
100
AcDbDimStyleTable
 71
     1
340
9D
  0
DIMSTYLE
105
9D
102
{ACAD_REACTORS
330
23B9
330
23FF
330
24F8
330
2512
330
251F
330
2535
102
}
330
A
100
AcDbSymbolTableRecord
100
AcDbDimStyleTableRecord
  2
Standard
 70
     0
340
11
  0
ENDTAB
  0
TABLE
  2
BLOCK_RECORD
  5
1
330
0
100
AcDbSymbolTable
 70
     7
  0
BLOCK_RECORD
  5
1E
102
{ACAD_XDICTIONARY
360
A0
102
}
330
1
100
AcDbSymbolTableRecord
100
AcDbBlockTableRecord
  2
*Model_Space
340
21
  0
BLOCK_RECORD
  5
1A
102
{ACAD_XDICTIONARY
360
A2
102
}
330
1
100
AcDbSymbolTableRecord
100
AcDbBlockTableRecord
  2
*Paper_Space
340
1D
  0
BLOCK_RECORD
  5
22
330
1
100
AcDbSymbolTableRecord
100
AcDbBlockTableRecord
  2
LOGO
340
0
102
{BLKREFS
331
9B
102
}
  0
BLOCK_RECORD
  5
23CF
330
1
100
AcDbSymbolTableRecord
100
AcDbBlockTableRecord
  2
*D1
340
0
  0
BLOCK_RECORD
  5
2439
330
1
100
AcDbSymbolTableRecord
100
AcDbBlockTableRecord
  2
*D2
340
0
  0
BLOCK_RECORD
  5
24F9
330
1
100
AcDbSymbolTableRecord
100
AcDbBlockTableRecord
  2
*D3
340
0
  0
BLOCK_RECORD
  5
2513
330
1
100
AcDbSymbolTableRecord
100
AcDbBlockTableRecord
  2
*D4
340
0
  0
BLOCK_RECORD
  5
2520
330
1
100
AcDbSymbolTableRecord
100
AcDbBlockTableRecord
  2
*D5
340
0
  0
BLOCK_RECORD
  5
2536
330
1
100
AcDbSymbolTableRecord
100
AcDbBlockTableRecord
  2
*D6
340
0
  0
ENDTAB
  0
ENDSEC
  0
SECTION
  2
BLOCKS
  0
BLOCK
  5
35
330
1E
100
AcDbEntity
  8
0
100
AcDbBlockBegin
  2
*Model_Space
 70
     0
 10
0.0
 20
0.0
 30
0.0
  3
*Model_Space
  1

  0
ENDBLK
  5
36
330
1E
100
AcDbEntity
  8
0
100
AcDbBlockEnd
  0
BLOCK
  5
33
330
1A
100
AcDbEntity
 67
     1
  8
0
100
AcDbBlockBegin
  2
*Paper_Space
 70
     0
 10
0.0
 20
0.0
 30
0.0
  3
*Paper_Space
  1

  0
ENDBLK
  5
34
330
1A
100
AcDbEntity
 67
     1
  8
0
100
AcDbBlockEnd
  0
BLOCK
  5
37
330
22
100
AcDbEntity
  8
0
100
AcDbBlockBegin
  2
LOGO
 70
     0
 10
0.0
 20
0.0
 30
0.0
  3
LOGO
  1

  0
ARC
  5
38
330
22
100
AcDbEntity
  8
0
100
AcDbCircle
 10
11.59973089678112
 20
-9.271599258481501
 30
0.0
 40
4.5
100
AcDbArc
 50
270.0
 51
231.0575587310159
  0
LINE
  5
39
330
22
100
AcDbEntity
  8
0
100
AcDbLine
 10
3.599730896781125
 20
-4.771599258481529
 30
0.0
 11
3.599730896781153
 21
-11.77159925848133
 31
0.0
  0
LINE
  5
3A
330
22
100
AcDbEntity
  8
0
100
AcDbLine
 10
2.599730896781125
 20
-4.771599258481529
 30
0.0
 11
2.599730896781153
 21
-11.77159925848133
 31
0.0
  0
CIRCLE
  5
3B
330
22
100
AcDbEntity
  8
0
100
AcDbCircle
 10
11.59973089678112
 20
-9.271599258481501
 30
0.0
 40
3.5
  0
ARC
  5
3C
330
22
100
AcDbEntity
  8
0
100
AcDbCircle
 10
31.59973089678115
 20
-9.271599258481472
 30
0.0
 40
4.5
100
AcDbArc
 50
270.0
 51
231.0575587310182
  0
LINE
  5
3D
330
22
100
AcDbEntity
  8
0
100
AcDbLine
 10
17.59973089678112
 20
-4.771599258481472
 30
0.0
 11
17.59973089678115
 21
-13.77159925848147
 31
0.0
  0
ARC
  5
3E
330
22
100
AcDbEntity
  8
0
100
AcDbCircle
 10
22.59973089678116
 20
-7.271599258481472
 30
0.0
 40
2.5
100
AcDbArc
 50
293.1161887722295
 51
90.0
  0
CIRCLE
  5
3F
330
22
100
AcDbEntity
  8
0
100
AcDbCircle
 10
31.59973089678115
 20
-9.271599258481472
 30
0.0
 40
3.5
  0
ARC
  5
40
330
22
100
AcDbEntity
  8
0
100
AcDbCircle
 10
4.599730896781153
 20
-11.77159925848133
 30
0.0
 40
1.0
100
AcDbArc
 50
180.0
 51
270.0
  0
ARC
  5
41
330
22
100
AcDbEntity
  8
0
100
AcDbCircle
 10
4.599730896781153
 20
-11.77159925848133
 30
0.0
 40
2.0
100
AcDbArc
 50
179.9999999999992
 51
270.0
  0
LINE
  5
42
330
22
100
AcDbEntity
  8
0
100
AcDbLine
 10
11.59973089678115
 20
-13.77159925848144
 30
0.0
 11
4.599730896781153
 21
-13.77159925848147
 31
0.0
  0
LINE
  5
43
330
22
100
AcDbEntity
  8
0
100
AcDbLine
 10
8.771303772034769
 20
-12.77159925848136
 30
0.0
 11
4.599730896781153
 21
-12.77159925848133
 31
0.0
  0
LINE
  5
44
330
22
100
AcDbEntity
  8
0
100
AcDbLine
 10
31.59973089678115
 20
-13.77159925848147
 30
0.0
 11
23.6715276665056
 21
-13.77159925848144
 31
0.0
  0
LINE
  5
45
330
22
100
AcDbEntity
  8
0
100
AcDbLine
 10
23.56565672307022
 20
-9.51278021337896
 30
0.0
 11
24.4388546544846
 21
-12.77159925848144
 31
0.0
  0
LINE
  5
46
330
22
100
AcDbEntity
  8
0
100
AcDbLine
 10
22.59973089678116
 20
-9.771599258481472
 30
0.0
 11
18.59973089678112
 21
-9.771599258481472
 31
0.0
  0
LINE
  5
47
330
22
100
AcDbEntity
  8
0
100
AcDbLine
 10
18.59973089678115
 20
-13.77159925848144
 30
0.0
 11
17.59973089678115
 21
-13.77159925848144
 31
0.0
  0
LINE
  5
48
330
22
100
AcDbEntity
  8
0
100
AcDbLine
 10
18.59973089678115
 20
-9.771599258481472
 30
0.0
 11
18.59973089678115
 21
-13.77159925848144
 31
0.0
  0
LINE
  5
49
330
22
100
AcDbEntity
  8
0
100
AcDbLine
 10
22.59973089678116
 20
-9.771599258481472
 30
0.0
 11
23.67152766650562
 21
-13.77159925848147
 31
0.0
  0
ARC
  5
4A
330
22
100
AcDbEntity
  8
0
100
AcDbCircle
 10
22.59973089678116
 20
-7.271599258481472
 30
0.0
 40
2.5
100
AcDbArc
 50
270.0
 51
270.0000000000007
  0
LINE
  5
4B
330
22
100
AcDbEntity
  8
0
100
AcDbLine
 10
28.77130377203494
 20
-12.77159925848147
 30
0.0
 11
24.43885465448463
 21
-12.77159925848144
 31
0.0
  0
LINE
  5
4C
330
22
100
AcDbEntity
  8
0
100
AcDbLine
 10
3.599730896781125
 20
-4.771599258481472
 30
0.0
 11
2.599730896781125
 21
-4.771599258481472
 31
0.0
  0
LINE
  5
4D
330
22
100
AcDbEntity
  8
0
100
AcDbLine
 10
22.59973089678116
 20
-8.771599258481472
 30
0.0
 11
18.59973089678115
 21
-8.771599258481472
 31
0.0
  0
LINE
  5
4E
330
22
100
AcDbEntity
  8
0
100
AcDbLine
 10
22.59973089678116
 20
-5.771599258481472
 30
0.0
 11
18.59973089678115
 21
-5.771599258481472
 31
0.0
  0
LINE
  5
4F
330
22
100
AcDbEntity
  8
0
100
AcDbLine
 10
22.59973089678116
 20
-4.771599258481472
 30
0.0
 11
17.59973089678115
 21
-4.771599258481472
 31
0.0
  0
LINE
  5
50
330
22
100
AcDbEntity
  8
0
100
AcDbLine
 10
18.59973089678115
 20
-5.771599258481472
 30
0.0
 11
18.59973089678115
 21
-8.771599258481472
 31
0.0
  0
ARC
  5
51
330
22
100
AcDbEntity
  8
0
100
AcDbCircle
 10
22.59973089678116
 20
-7.271599258481472
 30
0.0
 40
1.5
100
AcDbArc
 50
270.0
 51
90.0
  0
ENDBLK
  5
52
330
22
100
AcDbEntity
  8
0
100
AcDbBlockEnd
  0
BLOCK
  5
23D9
330
23CF
100
AcDbEntity
  8
0
100
AcDbBlockBegin
  2
*D1
 70
     1
 10
0.0
 20
0.0
 30
0.0
  3
*D1
  1

  0
LINE
  5
25AD
330
23CF
100
AcDbEntity
  8
BEM
 62
     0
370
    -2
100
AcDbLine
 10
173.2971657944793
 20
251.6238841289871
 30
0.0
 11
173.2971657944793
 21
223.5677101122618
 31
0.0
  0
LINE
  5
25AE
330
23CF
100
AcDbEntity
  8
BEM
 62
     0
370
    -2
100
AcDbLine
 10
275.2971657944793
 20
251.6238841289871
 30
0.0
 11
275.2971657944793
 21
223.5677101122618
 31
0.0
  0
LINE
  5
25AF
330
23CF
100
AcDbEntity
  8
BEM
 62
     0
370
    -2
100
AcDbLine
 10
180.2971657944794
 20
225.5677101122618
 30
0.0
 11
268.2971657944793
 21
225.5677101122618
 31
0.0
  0
SOLID
  5
25B0
330
23CF
100
AcDbEntity
  8
BEM
 62
     0
100
AcDbTrace
 10
180.2971657944794
 20
226.7343767789284
 30
0.0
 11
180.2971657944794
 21
224.4010434455951
 31
0.0
 12
173.2971657944793
 22
225.5677101122618
 32
0.0
 13
173.2971657944793
 23
225.5677101122618
 33
0.0
  0
SOLID
  5
25B1
330
23CF
100
AcDbEntity
  8
BEM
 62
     0
100
AcDbTrace
 10
268.2971657944793
 20
226.7343767789284
 30
0.0
 11
268.2971657944793
 21
224.4010434455951
 31
0.0
 12
275.2971657944793
 22
225.5677101122618
 32
0.0
 13
275.2971657944793
 23
225.5677101122618
 33
0.0
  0
MTEXT
  5
25B2
330
23CF
100
AcDbEntity
  8
BEM
 62
     1
100
AcDbMText
 10
224.2971657944793
 20
232.0677101122618
 30
0.0
 40
7.0
 41
0.0
 71
     5
 72
     1
  1
\A1;%%c102
  7
GREEKS
 73
     1
 44
1.0
  0
POINT
  5
25B3
330
23CF
100
AcDbEntity
  8
Defpoints
 62
     0
100
AcDbPoint
 10
173.2971657944793
 20
253.6238841289871
 30
0.0
  0
POINT
  5
25B4
330
23CF
100
AcDbEntity
  8
Defpoints
 62
     0
100
AcDbPoint
 10
275.2971657944793
 20
253.6238841289871
 30
0.0
  0
POINT
  5
25B5
330
23CF
100
AcDbEntity
  8
Defpoints
 62
     0
100
AcDbPoint
 10
275.2971657944793
 20
225.5677101122618
 30
0.0
  0
ENDBLK
  5
23DA
330
23CF
100
AcDbEntity
  8
0
100
AcDbBlockEnd
  0
BLOCK
  5
2443
330
2439
100
AcDbEntity
  8
0
100
AcDbBlockBegin
  2
*D2
 70
     1
 10
0.0
 20
0.0
 30
0.0
  3
*D2
  1

  0
LINE
  5
26F0
330
2439
100
AcDbEntity
  8
BEM
 62
     0
370
    -2
100
AcDbLine
 10
224.5846981779031
 20
493.2081505118553
 30
0.0
 11
233.0560788435422
 21
507.8810122349985
 31
0.0
  0
LINE
  5
26F1
330
2439
100
AcDbEntity
  8
BEM
 62
     0
370
    -2
100
AcDbLine
 10
339.7660768812337
 20
426.7081505118551
 30
0.0
 11
348.2374575468724
 21
441.3810122349977
 31
0.0
  0
LINE
  5
26F2
330
2439
100
AcDbEntity
  8
BEM
 62
     0
370
    -2
100
AcDbLine
 10
238.1182566700332
 20
502.6489614274296
 30
0.0
 11
341.1752797203813
 21
443.1489614274288
 31
0.0
  0
SOLID
  5
26F3
330
2439
100
AcDbEntity
  8
BEM
 62
     0
100
AcDbTrace
 10
238.7015900033665
 20
503.6593243985113
 30
0.0
 11
237.5349233366998
 21
501.6385984563477
 31
0.0
 12
232.0560788435421
 22
506.1489614274296
 32
0.0
 13
232.0560788435421
 23
506.1489614274296
 33
0.0
  0
SOLID
  5
26F4
330
2439
100
AcDbEntity
  8
BEM
 62
     0
100
AcDbTrace
 10
341.7586130537147
 20
444.1593243985106
 30
0.0
 11
340.591946387048
 21
442.138598456347
 31
0.0
 12
347.2374575468724
 22
439.6489614274288
 32
0.0
 13
347.2374575468724
 23
439.6489614274288
 33
0.0
  0
MTEXT
  5
26F5
330
2439
100
AcDbEntity
  8
BEM
 62
     1
100
AcDbMText
 10
292.8967681952073
 20
478.528126552028
 30
0.0
 40
7.0
 41
0.0
 71
     5
 72
     1
  1
\A1;%%c133
  7
GREEKS
 11
0.8660254037844358
 21
-0.5000000000000049
 31
0.0
 73
     1
 44
1.0
  0
POINT
  5
26F6
330
2439
100
AcDbEntity
  8
Defpoints
 62
     0
100
AcDbPoint
 10
223.5846981779031
 20
491.4760997042864
 30
0.0
  0
POINT
  5
26F7
330
2439
100
AcDbEntity
  8
Defpoints
 62
     0
100
AcDbPoint
 10
338.7660768812338
 20
424.9760997042862
 30
0.0
  0
POINT
  5
26F8
330
2439
100
AcDbEntity
  8
Defpoints
 62
     0
100
AcDbPoint
 10
347.2374575468724
 20
439.6489614274288
 30
0.0
  0
ENDBLK
  5
2444
330
2439
100
AcDbEntity
  8
0
100
AcDbBlockEnd
  0
BLOCK
  5
2503
330
24F9
100
AcDbEntity
  8
0
100
AcDbBlockBegin
  2
*D3
 70
     1
 10
0.0
 20
0.0
 30
0.0
  3
*D3
  1

  0
LINE
  5
26DE
330
24F9
100
AcDbEntity
  8
BEM
 62
     0
370
    -2
100
AcDbLine
 10
222.2971657944793
 20
359.7101298149433
 30
0.0
 11
126.1582621446326
 21
359.7101298149433
 31
0.0
  0
LINE
  5
26DF
330
24F9
100
AcDbEntity
  8
BEM
 62
     0
370
    -2
100
AcDbLine
 10
171.9894354275999
 20
245.7112060148066
 30
0.0
 11
126.1582621446326
 21
245.7112060148066
 31
0.0
  0
LINE
  5
26E0
330
24F9
100
AcDbEntity
  8
BEM
 62
     0
370
    -2
100
AcDbLine
 10
128.1582621446326
 20
352.7101298149433
 30
0.0
 11
128.1582621446326
 21
252.7112060148065
 31
0.0
  0
SOLID
  5
26E1
330
24F9
100
AcDbEntity
  8
BEM
 62
     0
100
AcDbTrace
 10
126.9915954779659
 20
352.7101298149434
 30
0.0
 11
129.3249288112993
 21
352.7101298149433
 31
0.0
 12
128.1582621446326
 22
359.7101298149433
 32
0.0
 13
128.1582621446326
 23
359.7101298149433
 33
0.0
  0
SOLID
  5
26E2
330
24F9
100
AcDbEntity
  8
BEM
 62
     0
100
AcDbTrace
 10
126.9915954779659
 20
252.7112060148065
 30
0.0
 11
129.3249288112992
 21
252.7112060148065
 31
0.0
 12
128.1582621446326
 22
245.7112060148066
 32
0.0
 13
128.1582621446326
 23
245.7112060148066
 33
0.0
  0
MTEXT
  5
26E3
330
24F9
100
AcDbEntity
  8
BEM
 62
     1
100
AcDbMText
 10
121.6582621446325
 20
302.710667914875
 30
0.0
 40
7.0
 41
0.0
 71
     5
 72
     1
  1
\A1;114
 11
0.0000000000000001
 21
1.0
 31
0.0
 73
     1
 44
1.0
  0
POINT
  5
26E4
330
24F9
100
AcDbEntity
  8
Defpoints
 62
     0
100
AcDbPoint
 10
224.2971657944793
 20
359.7101298149433
 30
0.0
  0
POINT
  5
26E5
330
24F9
100
AcDbEntity
  8
Defpoints
 62
     0
100
AcDbPoint
 10
173.9894354275999
 20
245.7112060148066
 30
0.0
  0
POINT
  5
26E6
330
24F9
100
AcDbEntity
  8
Defpoints
 62
     0
100
AcDbPoint
 10
128.1582621446326
 20
245.7112060148066
 30
0.0
  0
ENDBLK
  5
2504
330
24F9
100
AcDbEntity
  8
0
100
AcDbBlockEnd
  0
BLOCK
  5
251D
330
2513
100
AcDbEntity
  8
0
100
AcDbBlockBegin
  2
*D4
 70
     1
 10
0.0
 20
0.0
 30
0.0
  3
*D4
  1

  0
LINE
  5
26D5
330
2513
100
AcDbEntity
  8
BEM
 62
     0
370
    -2
100
AcDbLine
 10
155.7971657944792
 20
305.7112060148065
 30
0.0
 11
141.5263213987355
 21
305.7112060148065
 31
0.0
  0
LINE
  5
26D6
330
2513
100
AcDbEntity
  8
BEM
 62
     0
370
    -2
100
AcDbLine
 10
171.9894354275999
 20
245.7112060148066
 30
0.0
 11
141.5263213987355
 21
245.7112060148066
 31
0.0
  0
LINE
  5
26D7
330
2513
100
AcDbEntity
  8
BEM
 62
     0
370
    -2
100
AcDbLine
 10
143.5263213987355
 20
298.7112060148065
 30
0.0
 11
143.5263213987355
 21
252.7112060148065
 31
0.0
  0
SOLID
  5
26D8
330
2513
100
AcDbEntity
  8
BEM
 62
     0
100
AcDbTrace
 10
142.3596547320688
 20
298.7112060148065
 30
0.0
 11
144.6929880654021
 21
298.7112060148065
 31
0.0
 12
143.5263213987355
 22
305.7112060148065
 32
0.0
 13
143.5263213987355
 23
305.7112060148065
 33
0.0
  0
SOLID
  5
26D9
330
2513
100
AcDbEntity
  8
BEM
 62
     0
100
AcDbTrace
 10
142.3596547320688
 20
252.7112060148065
 30
0.0
 11
144.6929880654021
 21
252.7112060148065
 31
0.0
 12
143.5263213987355
 22
245.7112060148066
 32
0.0
 13
143.5263213987355
 23
245.7112060148066
 33
0.0
  0
MTEXT
  5
26DA
330
2513
100
AcDbEntity
  8
BEM
 62
     1
100
AcDbMText
 10
137.0263213987354
 20
275.7112060148066
 30
0.0
 40
7.0
 41
0.0
 71
     5
 72
     1
  1
\A1;60
 11
0.0000000000000001
 21
1.0
 31
0.0
 73
     1
 44
1.0
  0
POINT
  5
26DB
330
2513
100
AcDbEntity
  8
Defpoints
 62
     0
100
AcDbPoint
 10
157.7971657944792
 20
305.7112060148065
 30
0.0
  0
POINT
  5
26DC
330
2513
100
AcDbEntity
  8
Defpoints
 62
     0
100
AcDbPoint
 10
173.9894354275999
 20
245.7112060148066
 30
0.0
  0
POINT
  5
26DD
330
2513
100
AcDbEntity
  8
Defpoints
 62
     0
100
AcDbPoint
 10
143.5263213987355
 20
245.7112060148066
 30
0.0
  0
ENDBLK
  5
251E
330
2513
100
AcDbEntity
  8
0
100
AcDbBlockEnd
  0
BLOCK
  5
252A
330
2520
100
AcDbEntity
  8
0
100
AcDbBlockBegin
  2
*D5
 70
     1
 10
0.0
 20
0.0
 30
0.0
  3
*D5
  1

  0
LINE
  5
26E7
330
2520
100
AcDbEntity
  8
BEM
 62
     0
370
    -2
100
AcDbLine
 10
222.5651149869103
 20
360.7101298149432
 30
0.0
 11
137.0646395726962
 21
410.0738523111806
 31
0.0
  0
LINE
  5
26E8
330
2520
100
AcDbEntity
  8
BEM
 62
     0
370
    -2
100
AcDbLine
 10
221.8526473703341
 20
492.4760997042866
 30
0.0
 11
193.9428613077854
 21
508.5898222005239
 31
0.0
  0
LINE
  5
26E9
330
2520
100
AcDbEntity
  8
BEM
 62
     0
370
    -2
100
AcDbLine
 10
142.296690380265
 20
415.1360301376717
 30
0.0
 11
192.1749121153543
 21
501.5276443740328
 31
0.0
  0
SOLID
  5
26EA
330
2520
100
AcDbEntity
  8
BEM
 62
     0
100
AcDbTrace
 10
141.2863274091832
 20
415.7193634710051
 30
0.0
 11
143.3070533513469
 21
414.5526968043385
 31
0.0
 12
138.796690380265
 22
409.0738523111807
 32
0.0
 13
138.796690380265
 23
409.0738523111807
 33
0.0
  0
SOLID
  5
26EB
330
2520
100
AcDbEntity
  8
BEM
 62
     0
100
AcDbTrace
 10
191.1645491442724
 20
502.1109777073661
 30
0.0
 11
193.1852750864362
 21
500.9443110406995
 31
0.0
 12
195.6749121153543
 22
507.5898222005239
 32
0.0
 13
195.6749121153543
 23
507.5898222005239
 33
0.0
  0
MTEXT
  5
26EC
330
2520
100
AcDbEntity
  8
BEM
 62
     1
100
AcDbMText
 10
161.6066361232108
 20
461.5818372558522
 30
0.0
 40
7.0
 41
0.0
 71
     5
 72
     1
  1
\A1;114
 11
0.4999999999999993
 21
0.866025403784439
 31
0.0
 73
     1
 44
1.0
  0
POINT
  5
26ED
330
2520
100
AcDbEntity
  8
Defpoints
 62
     0
100
AcDbPoint
 10
224.2971657944792
 20
359.7101298149433
 30
0.0
  0
POINT
  5
26EE
330
2520
100
AcDbEntity
  8
Defpoints
 62
     0
100
AcDbPoint
 10
223.584698177903
 20
491.4760997042866
 30
0.0
  0
POINT
  5
26EF
330
2520
100
AcDbEntity
  8
Defpoints
 62
     0
100
AcDbPoint
 10
195.6749121153543
 20
507.5898222005239
 30
0.0
  0
ENDBLK
  5
252B
330
2520
100
AcDbEntity
  8
0
100
AcDbBlockEnd
  0
BLOCK
  5
2541
330
2536
100
AcDbEntity
  8
0
100
AcDbBlockBegin
  2
*D6
 70
     1
 10
0.0
 20
0.0
 30
0.0
  3
*D6
  1

  0
LINE
  5
2543
330
2536
100
AcDbEntity
  8
BEM
 62
     0
370
    -2
100
AcDbLine
 10
224.2971657944793
 20
361.7101298149433
 30
0.0
 11
224.2971657944793
 21
454.3786990257844
 31
0.0
  0
ARC
  5
2544
330
2536
100
AcDbEntity
  8
BEM
 62
     0
370
    -2
100
AcDbCircle
 10
224.2971657944793
 20
359.7101298149433
 30
0.0
 40
92.66856921084114
100
AcDbArc
 50
64.32903923777968
 51
85.67096076222039
  0
SOLID
  5
2545
330
2536
100
AcDbEntity
  8
BEM
 62
     0
100
AcDbTrace
 10
264.9861631433065
 20
444.2636791694392
 30
0.0
 11
263.8966497132139
 21
442.2003311788928
 31
0.0
 12
270.6314503998998
 22
439.9634648838882
 32
0.0
 13
270.6314503998998
 23
439.9634648838882
 33
0.0
  0
SOLID
  5
2546
330
2536
100
AcDbEntity
  8
BEM
 62
     0
100
AcDbTrace
 10
231.2481074260764
 20
450.9484817187846
 30
0.0
 11
231.3362351131251
 21
453.2801502104917
 31
0.0
 12
224.2971657944793
 22
452.3786990257844
 32
0.0
 13
224.2971657944793
 23
452.3786990257844
 33
0.0
  0
MTEXT
  5
2547
330
2536
100
AcDbEntity
  8
BEM
 62
     1
100
AcDbMText
 10
249.9638801818124
 20
455.4996119718297
 30
0.0
 40
7.0
 41
0.0
 71
     5
 72
     1
  1
\A1;30°
 11
0.9659258262890684
 21
-0.2588190451025205
 31
0.0
 73
     1
 44
1.0
  0
POINT
  5
2548
330
2536
100
AcDbEntity
  8
Defpoints
 62
     0
100
AcDbPoint
 10
255.9916831177558
 20
446.7901004811589
 30
0.0
  0
POINT
  5
2549
330
2536
100
AcDbEntity
  8
Defpoints
 62
     0
100
AcDbPoint
 10
224.2971657944793
 20
359.7101298149433
 30
0.0
  0
POINT
  5
254A
330
2536
100
AcDbEntity
  8
Defpoints
 62
     0
100
AcDbPoint
 10
283.4616276945478
 20
462.1859838283352
 30
0.0
  0
POINT
  5
254B
330
2536
100
AcDbEntity
  8
Defpoints
 62
     0
100
AcDbPoint
 10
224.2971657944793
 20
359.7101298149433
 30
0.0
  0
POINT
  5
254C
330
2536
100
AcDbEntity
  8
Defpoints
 62
     0
100
AcDbPoint
 10
224.2971657944793
 20
240.7112060148066
 30
0.0
  0
ENDBLK
  5
2542
330
2536
100
AcDbEntity
  8
0
100
AcDbBlockEnd
  0
ENDSEC
  0
SECTION
  2
ENTITIES
  0
LINE
  5
57
330
1E
100
AcDbEntity
  8
STEMPEL
100
AcDbLine
 10
410.0
 20
110.0
 30
0.0
 11
39.99999999999997
 21
110.0
 31
0.0
  0
LINE
  5
58
330
1E
100
AcDbEntity
  8
STEMPEL
100
AcDbLine
 10
146.0000000000001
 20
109.9999999999999
 30
0.0
 11
146.0
 21
9.999999999999971
 31
0.0
  0
LINE
  5
59
330
1E
100
AcDbEntity
  8
STEMPEL
100
AcDbLine
 10
230.0
 20
110.0
 30
0.0
 11
230.0
 21
9.999999999999971
 31
0.0
  0
LINE
  5
5A
330
1E
100
AcDbEntity
  8
STEMPEL
100
AcDbLine
 10
332.0
 20
109.9999999999997
 30
0.0
 11
332.0
 21
40.0
 31
0.0
  0
LINE
  5
5B
330
1E
100
AcDbEntity
  8
STEMPEL
100
AcDbLine
 10
145.9999999999999
 20
29.99999999999997
 30
0.0
 11
39.99999999999997
 21
29.99999999999997
 31
0.0
  0
LINE
  5
5C
330
1E
100
AcDbEntity
  8
STEMPEL
100
AcDbLine
 10
410.0
 20
40.0
 30
0.0
 11
146.0000000000001
 21
39.99999999999997
 31
0.0
  0
LINE
  5
5D
330
1E
100
AcDbEntity
  8
STEMPEL
100
AcDbLine
 10
410.0
 20
80.0
 30
0.0
 11
146.0000000000001
 21
79.99999999999994
 31
0.0
  0
LINE
  5
5E
330
1E
100
AcDbEntity
  8
VOLL
100
AcDbLine
 10
54.00000000000009
 20
110.0
 30
0.0
 11
53.99999999999997
 21
9.999999999999971
 31
0.0
  0
LINE
  5
5F
330
1E
100
AcDbEntity
  8
VOLL
100
AcDbLine
 10
104.0000000000001
 20
109.9999999999999
 30
0.0
 11
104.0
 21
9.999999999999971
 31
0.0
  0
LINE
  5
60
330
1E
100
AcDbEntity
  8
VOLL
100
AcDbLine
 10
124.0000000000001
 20
109.9999999999999
 30
0.0
 11
124.0
 21
9.999999999999971
 31
0.0
  0
LINE
  5
61
330
1E
100
AcDbEntity
  8
VOLL
100
AcDbLine
 10
164.0000000000001
 20
79.99999999999994
 30
0.0
 11
164.0000000000001
 21
39.99999999999997
 31
0.0
  0
LINE
  5
62
330
1E
100
AcDbEntity
  8
VOLL
100
AcDbLine
 10
190.0000000000001
 20
109.9999999999998
 30
0.0
 11
190.0
 21
39.99999999999997
 31
0.0
  0
LINE
  5
63
330
1E
100
AcDbEntity
  8
HILF
100
AcDbLine
 10
40.00000000000008
 20
100.0
 30
0.0
 11
146.0000000000001
 21
100.0
 31
0.0
  0
LINE
  5
64
330
1E
100
AcDbEntity
  8
HILF
100
AcDbLine
 10
40.00000000000008
 20
90.00000000000005
 30
0.0
 11
146.0000000000001
 21
90.00000000000005
 31
0.0
  0
LINE
  5
65
330
1E
100
AcDbEntity
  8
HILF
100
AcDbLine
 10
40.00000000000008
 20
79.99999999999994
 30
0.0
 11
146.0000000000001
 21
79.99999999999994
 31
0.0
  0
LINE
  5
66
330
1E
100
AcDbEntity
  8
HILF
100
AcDbLine
 10
40.00000000000008
 20
69.99999999999994
 30
0.0
 11
146.0000000000001
 21
69.99999999999994
 31
0.0
  0
LINE
  5
67
330
1E
100
AcDbEntity
  8
HILF
100
AcDbLine
 10
40.00000000000008
 20
59.99999999999997
 30
0.0
 11
146.0000000000001
 21
59.99999999999997
 31
0.0
  0
LINE
  5
68
330
1E
100
AcDbEntity
  8
HILF
100
AcDbLine
 10
40.00000000000008
 20
49.99999999999997
 30
0.0
 11
146.0000000000001
 21
49.99999999999997
 31
0.0
  0
LINE
  5
69
330
1E
100
AcDbEntity
  8
HILF
100
AcDbLine
 10
40.00000000000008
 20
39.99999999999997
 30
0.0
 11
146.0000000000001
 21
39.99999999999997
 31
0.0
  0
LINE
  5
6A
330
1E
100
AcDbEntity
  8
HILF
100
AcDbLine
 10
146.0000000000001
 20
69.99999999999994
 30
0.0
 11
230.0
 21
69.99999999999994
 31
0.0
  0
LINE
  5
6B
330
1E
100
AcDbEntity
  8
HILF
100
AcDbLine
 10
146.0000000000001
 20
59.99999999999997
 30
0.0
 11
230.0
 21
59.99999999999997
 31
0.0
  0
LINE
  5
6C
330
1E
100
AcDbEntity
  8
HILF
100
AcDbLine
 10
146.0000000000001
 20
49.99999999999997
 30
0.0
 11
230.0
 21
49.99999999999997
 31
0.0
  0
LINE
  5
6D
330
1E
100
AcDbEntity
  8
HILF
100
AcDbLine
 10
234.7736801096947
 20
84.03758247564139
 30
0.0
 11
324.8353916556311
 21
84.03758247564139
 31
0.0
  0
LINE
  5
6E
330
1E
100
AcDbEntity
  8
HILF
100
AcDbLine
 10
234.7736801096947
 20
69.99999999999994
 30
0.0
 11
324.835391655631
 21
69.99999999999994
 31
0.0
  0
LINE
  5
6F
330
1E
100
AcDbEntity
  8
HILF
100
AcDbLine
 10
234.7736801096947
 20
59.99999999999997
 30
0.0
 11
324.835391655631
 21
59.99999999999997
 31
0.0
  0
LINE
  5
70
330
1E
100
AcDbEntity
  8
HILF
100
AcDbLine
 10
234.7736801096947
 20
49.99999999999997
 30
0.0
 11
324.835391655631
 21
49.99999999999997
 31
0.0
  0
LINE
  5
71
330
1E
100
AcDbEntity
  8
VOLL
100
AcDbLine
 10
332.0
 20
60.0
 30
0.0
 11
410.0
 21
60.0
 31
0.0
  0
LINE
  5
72
330
1E
100
AcDbEntity
  8
HILF
100
AcDbLine
 10
336.7238616296993
 20
83.77983636955827
 30
0.0
 11
404.8588839326728
 21
83.77983636955827
 31
0.0
  0
LINE
  5
73
330
1E
100
AcDbEntity
  8
HILF
100
AcDbLine
 10
233.4909699289885
 20
14.89398258028314
 30
0.0
 11
404.8588839326728
 21
14.89398258028314
 31
0.0
  0
TEXT
  5
74
330
1E
100
AcDbEntity
  8
TEXT
100
AcDbText
 10
67.79509897490102
 20
18.67381894984132
 30
0.0
 40
4.0
  1
Änderung
 41
0.8
  7
GREEKS
 72
     1
 11
78.53795611775817
 21
18.67381894984132
 31
0.0
100
AcDbText
  0
TEXT
  5
75
330
1E
100
AcDbEntity
  8
TEXT
100
AcDbText
 10
153.5163572150377
 20
102.4620895087088
 30
0.0
 40
5.0
  1
Maßstab
 41
0.8
  7
GREEKS
100
AcDbText
  0
TEXT
  5
76
330
1E
100
AcDbEntity
  8
TEXT
100
AcDbText
 10
194.2858954734051
 20
102.4184168434819
 30
0.0
 40
5.0
  1
Zul. Abw.
 41
0.8
  7
GREEKS
100
AcDbText
  0
TEXT
  5
77
330
1E
100
AcDbEntity
  8
TEXT
100
AcDbText
 10
234.877940380901
 20
102.5489328011779
 30
0.0
 40
5.0
  1
Benennung
 41
0.8
  7
GREEKS
100
AcDbText
  0
TEXT
  5
78
330
1E
100
AcDbEntity
  8
TEXT
100
AcDbText
 10
336.178754957634
 20
102.3132034537136
 30
0.0
 40
5.0
  1
Zeichnungs Nr.
 41
0.8
  7
GREEKS
100
AcDbText
  0
TEXT
  5
79
330
1E
100
AcDbEntity
  8
TEXT
100
AcDbText
 10
234.742238391136
 20
30.84560570193057
 30
0.0
 40
5.0
  1
Bauvorhaben
 41
0.8
  7
GREEKS
100
AcDbText
  0
TEXT
  5
7A
330
1E
100
AcDbEntity
  8
TEXT
100
AcDbText
 10
336.7238616296993
 20
73.1811823709997
 30
0.0
 40
5.0
  1
Ersatz für:
 41
0.8
  7
GREEKS
100
AcDbText
  0
TEXT
  5
7B
330
1E
100
AcDbEntity
  8
TEXT
100
AcDbText
 10
48.26641107045756
 20
13.65465846027192
 30
0.0
 40
4.0
  1
Index
 50
90.0
 41
0.8
  7
GREEKS
100
AcDbText
  0
TEXT
  5
7C
330
1E
100
AcDbEntity
  8
TEXT
100
AcDbText
 10
110.6986119235389
 20
18.6715626933981
 30
0.0
 40
4.0
  1
Tag
 41
0.8
  7
GREEKS
 72
     1
 11
114.4319452568723
 21
18.6715626933981
 31
0.0
100
AcDbText
  0
TEXT
  5
7D
330
1E
100
AcDbEntity
  8
TEXT
100
AcDbText
 10
129.0122744386592
 20
18.59324216966408
 30
0.0
 40
4.0
  1
Name
 41
0.8
  7
GREEKS
 72
     1
 11
135.3360839624688
 21
18.59324216966408
 31
0.0
100
AcDbText
  0
TEXT
  5
7E
330
1E
100
AcDbEntity
  8
TEXT
100
AcDbText
 10
172.331167315365
 20
73.31880501229926
 30
0.0
 40
4.0
  1
Tag
 41
0.8
  7
GREEKS
100
AcDbText
  0
TEXT
  5
7F
330
1E
100
AcDbEntity
  8
TEXT
100
AcDbText
 10
202.4626584226295
 20
73.30961091915225
 30
0.0
 40
4.0
  1
Name
 41
0.8
  7
GREEKS
100
AcDbText
  0
TEXT
  5
80
330
1E
100
AcDbEntity
  8
TEXT
100
AcDbText
 10
147.5836127167615
 20
63.62990369617964
 30
0.0
 40
4.0
  1
Gez.
 41
0.8
  7
GREEKS
100
AcDbText
  0
TEXT
  5
81
330
1E
100
AcDbEntity
  8
TEXT
100
AcDbText
 10
147.5515086571672
 20
53.68926291428377
 30
0.0
 40
4.0
  1
Gepr.
 41
0.8
  7
GREEKS
100
AcDbText
  0
TEXT
  5
82
330
1E
100
AcDbEntity
  8
TEXT
100
AcDbText
 10
147.6006777387303
 20
43.52946389649807
 30
0.0
 40
4.0
  1
Norm.
 41
0.8
  7
GREEKS
100
AcDbText
  0
LINE
  5
83
330
1E
100
AcDbEntity
  8
STEMPEL
100
AcDbLine
 10
49.99999999999989
 20
10.0
 30
0.0
 11
410.0
 21
10.0
 31
0.0
  0
TEXT
  5
84
330
1E
100
AcDbEntity
  8
TEXT
100
AcDbText
 10
337.2400861497006
 20
52.07416177878602
 30
0.0
 40
5.0
  1
ersetzt durch:
 41
0.8
  7
GREEKS
100
AcDbText
  0
LINE
  5
85
330
1E
100
AcDbEntity
  8
STEMPEL
100
AcDbLine
 10
410.0
 20
10.0
 30
0.0
 11
39.99999999999989
 21
10.0
 31
0.0
  0
LINE
  5
86
330
1E
100
AcDbEntity
  8
STEMPEL
100
AcDbLine
 10
410.0
 20
10.0
 30
0.0
 11
410.0
 21
584.0
 31
0.0
  0
LINE
  5
87
330
1E
100
AcDbEntity
  8
STEMPEL
100
AcDbLine
 10
40.0
 20
10.0
 30
0.0
 11
39.99999999999989
 21
584.0
 31
0.0
  0
LINE
  5
88
330
1E
100
AcDbEntity
  8
STEMPEL
100
AcDbLine
 10
410.0
 20
584.0
 30
0.0
 11
39.99999999999989
 21
584.0
 31
0.0
  0
LINE
  5
89
330
1E
100
AcDbEntity
  8
HILF
100
AcDbLine
 10
0.0
 20
0.0
 30
0.0
 11
-0.0000000000001137
 21
594.0
 31
0.0
  0
LINE
  5
8A
330
1E
100
AcDbEntity
  8
HILF
100
AcDbLine
 10
419.9999999999999
 20
594.0000000000002
 30
0.0
 11
0.0
 21
594.0
 31
0.0
  0
LINE
  5
8B
330
1E
100
AcDbEntity
  8
HILF
100
AcDbLine
 10
420.0
 20
0.0
 30
0.0
 11
0.0
 21
0.0
 31
0.0
  0
LINE
  5
8C
330
1E
100
AcDbEntity
  8
HILF
100
AcDbLine
 10
31.08767135713856
 20
297.0
 30
0.0
 11
0.0000000000001137
 21
297.0
 31
0.0
  0
TEXT
  5
8D
330
1E
100
AcDbEntity
  8
TEXT
100
AcDbText
 10
148.622109822104
 20
73.14025471151666
 30
0.0
 40
4.0
  1
2007
 41
0.8
  7
GREEKS
100
AcDbText
  0
LINE
  5
8E
330
1E
100
AcDbEntity
  8
HILF
100
AcDbLine
 10
420.0
 20
-0.0000000000001137
 30
0.0
 11
419.9999999999999
 21
594.0
 31
0.0
  0
TEXT
  5
8F
330
1E
100
AcDbEntity
  8
VOLL
100
AcDbText
 10
78.07675471698113
 20
31.02594776470585
 30
0.0
 40
1.8
  1

  7
GREEKS
100
AcDbText
  0
TEXT
  5
90
330
1E
100
AcDbEntity
  8
TEXT
100
AcDbText
 10
41.85509950977674
 20
111.6719999999999
 30
0.0
 40
5.0
  1
Erstellt mit AUTOCAD 2004
 41
0.8
  7
GREEKS
100
AcDbText
  0
TEXT
  5
91
330
1E
100
AcDbEntity
  8
TEXT
100
AcDbText
 10
204.4216048581257
 20
63.0896391972351
 30
0.0
 40
4.0
  1
Koeh
 41
0.8
  7
GREEKS
 72
     1
 11
209.6787477152686
 21
63.0896391972351
 31
0.0
100
AcDbText
  0
TEXT
  5
92
330
1E
100
AcDbEntity
  8
TEXT
 62
     1
100
AcDbText
 10
347.3097540684081
 20
88.14901428913959
 30
0.0
 40
7.0
  1
58033100W
 41
0.8
  7
GREEKS
 72
     1
 11
370.7764207350748
 21
88.14901428913959
 31
0.0
100
AcDbText
  0
TEXT
  5
93
330
1E
100
AcDbEntity
  8
TEXT
 62
     1
100
AcDbText
 10
160.5006306481887
 20
88.14901428913959
 30
0.0
 40
7.0
  1
1:2
 41
0.8
  7
GREEKS
100
AcDbText
  0
TEXT
  5
94
330
1E
100
AcDbEntity
  8
TEXT
100
AcDbText
 10
170.398997108236
 20
63.10765040825732
 30
0.0
 40
4.0
  1
28.09.
 41
0.8
  7
GREEKS
 72
     1
 11
177.4085209177598
 21
63.10765040825732
 31
0.0
100
AcDbText
  0
TEXT
  5
95
330
1E
100
AcDbEntity
  8
TEXT
 62
     1
100
AcDbText
 10
236.8935731057402
 20
87.41748789253779
 30
0.0
 40
7.0
  1
Verbundrohr DN100
 41
0.8
  7
GREEKS
100
AcDbText
  0
TEXT
  5
98
330
1E
100
AcDbEntity
  8
TEXT
100
AcDbText
 10
235.1296391125315
 20
51.64011943042158
 30
0.0
 40
5.0
  1
EDV-Art.Nr. 58033.100X
 41
0.8
  7
GREEKS
100
AcDbText
  0
TEXT
  5
99
330
1E
100
AcDbEntity
  8
TEXT
100
AcDbText
 10
234.9837501577827
 20
42.62974153022632
 30
0.0
 40
4.0
  1
58033100W.DWG
 41
0.8
  7
GREEKS
100
AcDbText
  0
TEXT
  5
9A
330
1E
100
AcDbEntity
  8
TEXT
100
AcDbText
 10
192.626132208084
 20
90.76363841023022
 30
0.0
 40
4.0
  1
DIN EN1123-2
 41
0.8
  7
GREEKS
 72
     1
 11
209.6166083985602
 21
90.76363841023022
 31
0.0
100
AcDbText
  0
INSERT
  5
9B
330
1E
100
AcDbEntity
  8
STEMPEL
100
AcDbBlockReference
  2
LOGO
 10
150.9955485457794
 20
45.02105276448322
 30
0.0
 41
2.0
 42
2.0
 43
2.0
  0
TEXT
  5
2C0
330
1E
100
AcDbEntity
  8
BEM
100
AcDbText
 10
417.3022923857165
 20
10.16790107998861
 30
0.0
 40
4.0
  1
Diese Zeichnung ist urheberrechtlich geschützt und bleibt unser Eigentum. Sie darf weder ganz noch teilweise verfielfältigt und nicht an Dritte weitergegeben werden.
 50
90.0
 41
0.8
  7
GREEKS
100
AcDbText
  0
TEXT
  5
77A
330
1E
100
AcDbEntity
  8
TEXT
100
AcDbText
 10
235.1296391125315
 20
71.64011943042154
 30
0.0
 40
5.0
  1
Bogen 30°
 41
0.8
  7
GREEKS
100
AcDbText
  0
TEXT
  5
78C
330
1E
100
AcDbEntity
  8
TEXT
 62
     1
100
AcDbText
 10
255.030129115258
 20
129.7422179729062
 30
0.0
 40
7.0
  1
und innenbeschichtet
 41
0.8
  7
GREEKS
100
AcDbText
  0
TEXT
  5
78D
330
1E
100
AcDbEntity
  8
TEXT
 62
     1
100
AcDbText
 10
203.0317247605451
 20
117.1473825875242
 30
0.0
 40
7.0
  1
Dämmung: 2 K-PU-Schaum
 41
0.8
  7
GREEKS
100
AcDbText
  0
TEXT
  5
78E
330
1E
100
AcDbEntity
  8
TEXT
 62
     1
100
AcDbText
 10
207.3756002392443
 20
141.011271812132
 30
0.0
 40
7.0
  1
Innenrohr: E195 EN10305 feuerverzinkt
 41
0.8
  7
GREEKS
100
AcDbText
  0
TEXT
  5
78F
330
1E
100
AcDbEntity
  8
TEXT
 62
     1
100
AcDbText
 10
203.6033828683802
 20
152.364339848487
 30
0.0
 40
7.0
  1
Außenrohr: E195 EN10305 feuerverzinkt
 41
0.8
  7
GREEKS
100
AcDbText
  0
TEXT
  5
1E90
330
1E
100
AcDbEntity
  8
TEXT
 62
     1
100
AcDbText
 10
269.3968606696117
 20
207.5698074149157
 30
0.0
 40
7.0
  1
Rohrende leicht eingezogen
 41
0.8
  7
GREEKS
100
AcDbText
  0
HATCH
  5
22F8
330
1E
100
AcDbEntity
  8
SCHRAFF
100
AcDbHatch
 10
0.0
 20
0.0
 30
0.0
210
0.0
220
0.0
230
1.0
  2
_USER
 70
     0
 71
     0
 91
        1
 92
        7
 72
     1
 73
     1
 93
        3
 10
279.3426831225747
 20
353.0517625561182
 42
0.0
 10
277.8426831225747
 20
350.4536863447648
 42
0.0396603450432839
 10
276.5490889852072
 20
347.7364416530583
 42
0.4668457183924206
 97
        0
 75
     0
 76
     0
 52
57.00000000000001
 41
0.1
 77
     0
 78
     1
 53
57.00000000000001
 43
456.2235097142595
 44
-46.85139311700925
 45
-0.0838670567945425
 46
0.0544639035015027
 79
     0
 47
0.0375630882859892
 98
        1
 10
278.3229849151259
 20
350.6565610841325
  0
ARC
  5
22F9
102
{ACAD_REACTORS
330
2679
102
}
330
1E
100
AcDbEntity
  8
SCHRAFF
100
AcDbCircle
 10
275.7198435280175
 20
351.5640520404862
 30
0.0
 40
3.916407704288974
100
AcDbArc
 50
282.2241200089062
 51
22.3253887528222
  0
HATCH
  5
22FA
330
1E
100
AcDbEntity
  8
SCHRAFF
100
AcDbHatch
 10
0.0
 20
0.0
 30
0.0
210
0.0
220
0.0
230
1.0
  2
_USER
 70
     0
 71
     0
 91
        1
 92
        7
 72
     1
 73
     1
 93
        3
 10
188.0403044440168
 20
398.8370122335613
 42
-0.0061990617211105
 10
189.5080919365622
 20
401.4536863447648
 42
0.0
 10
191.0080919365621
 20
404.0517625561181
 42
0.517914794332429
 97
        0
 75
     0
 76
     0
 52
57.00000000000001
 41
0.1
 77
     0
 78
     1
 53
57.00000000000001
 43
456.2235097142595
 44
-46.85139311700925
 45
-0.0838670567945425
 46
0.0544639035015027
 79
     0
 47
0.0369692041059943
 98
        1
 10
189.6563975746426
 20
402.60280058693
  0
ARC
  5
22FB
102
{ACAD_REACTORS
330
2679
102
}
330
1E
100
AcDbEntity
  8
SCHRAFF
100
AcDbCircle
 10
191.3661845473771
 20
400.3960871438464
 30
0.0
 40
3.673172067547026
100
AcDbArc
 50
95.59457440321876
 51
205.115803942769
  0
LINE
  5
2305
102
{ACAD_REACTORS
330
25EB
330
2621
102
}
330
1E
100
AcDbEntity
  8
STEMPEL
100
AcDbLine
 10
189.5080919365622
 20
401.4536863447649
 30
0.0
 11
277.8426831225748
 21
350.4536863447649
 31
0.0
  0
ARC
  5
2306
102
{ACAD_REACTORS
330
25EB
330
2679
102
}
330
1E
100
AcDbEntity
  8
STEMPEL
100
AcDbCircle
 10
294.2971657944793
 20
340.9536863447649
 30
0.0
 40
19.0
100
AcDbArc
 50
149.9999999999994
 51
180.0
  0
ARC
  5
2307
102
{ACAD_REACTORS
330
25EB
330
2679
102
}
330
1E
100
AcDbEntity
  8
STEMPEL
100
AcDbCircle
 10
294.2971657944793
 20
340.9536863447649
 30
0.0
 40
121.0
100
AcDbArc
 50
149.9999999999994
 51
180.0
  0
ARC
  5
2308
330
1E
100
AcDbEntity
  8
MITTEL
100
AcDbCircle
 10
294.2971657944793
 20
340.9536863447649
 30
0.0
 40
70.0
100
AcDbArc
 50
149.9999999999994
 51
180.0
  0
TEXT
  5
2323
330
1E
100
AcDbEntity
  8
VOLL
100
AcDbText
 10
281.0711621142053
 20
417.2280992731118
 30
0.0
 40
7.0
  1
DN100
 50
60.00000000000028
 41
0.8
  7
GREEKS
100
AcDbText
  0
LINE
  5
2324
330
1E
100
AcDbEntity
  8
MITTEL
100
AcDbLine
 10
224.2971657944793
 20
359.7101298149433
 30
0.0
 11
224.2971657944793
 21
240.7112060148066
 31
0.0
  0
LINE
  5
2325
330
1E
100
AcDbEntity
  8
MITTEL
100
AcDbLine
 10
283.4616276945478
 20
462.185983828335
 30
0.0
 11
224.2971657944793
 21
359.7101298149433
 31
0.0
  0
LINE
  5
23B5
102
{ACAD_REACTORS
330
25EB
330
2679
102
}
330
1E
100
AcDbEntity
  8
STEMPEL
100
AcDbLine
 10
275.2971657944794
 20
340.9536863447649
 30
0.0
 11
275.2971657944793
 21
253.6238841289871
 31
0.0
  0
LINE
  5
23B6
102
{ACAD_REACTORS
330
25EB
102
}
330
1E
100
AcDbEntity
  8
STEMPEL
100
AcDbLine
 10
273.2971657944792
 20
340.9536863447648
 30
0.0
 11
273.2971657944793
 21
253.7112060148065
 31
0.0
  0
LINE
  5
23B7
102
{ACAD_REACTORS
330
25EB
102
}
330
1E
100
AcDbEntity
  8
STEMPEL
100
AcDbLine
 10
273.2971657944793
 20
253.7112060148065
 30
0.0
 11
272.5972564862719
 21
245.7112060148064
 31
0.0
  0
LINE
  5
23B8
102
{ACAD_REACTORS
330
25EB
102
}
330
1E
100
AcDbEntity
  8
STEMPEL
100
AcDbLine
 10
275.2971657944793
 20
253.6238841289871
 30
0.0
 11
274.6048961613587
 21
245.7112060148065
 31
0.0
  0
DIMENSION
  5
23B9
330
1E
100
AcDbEntity
  8
BEM
100
AcDbDimension
  2
*D1
 10
275.2971657944793
 20
225.5677101122618
 30
0.0
 11
224.2971657944793
 21
232.0677101122618
 31
0.0
 70
    32
  1
%%c<>
 71
     5
 42
101.9999999999999
  3
Standard
100
AcDbAlignedDimension
 13
173.2971657944793
 23
253.6238841289871
 33
0.0
 14
275.2971657944793
 24
253.6238841289871
 34
0.0
100
AcDbRotatedDimension
1001
ACAD
1000
DSTYLE
1002
{
1070
    40
1040
2.0
1070
    41
1040
3.5
1070
    42
1040
1.0
1070
    43
1040
7.0
1070
    44
1040
1.0
1070
    73
1070
     0
1070
    74
1070
     0
1070
    77
1070
     1
1070
    78
1070
     8
1070
    79
1070
     2
1070
   140
1040
3.5
1070
   141
1040
1.5
1070
   146
1040
0.5142857142857144
1070
   147
1040
1.5
1070
   172
1070
     1
1070
   178
1070
     1
1070
   179
1070
     2
1070
   271
1070
     2
1070
   272
1070
     2
1070
   284
1070
     8
1070
   285
1070
     8
1070
   286
1070
     8
1070
   289
1070
     0
1070
   340
1005
24
1002
}
  0
LINE
  5
23BA
102
{ACAD_REACTORS
330
25EB
102
}
330
1E
100
AcDbEntity
  8
STEMPEL
100
AcDbLine
 10
173.9894354275999
 20
245.7112060148066
 30
0.0
 11
274.6048961613586
 21
245.7112060148066
 31
0.0
  0
LINE
  5
23BB
330
1E
100
AcDbEntity
  8
HILF
100
AcDbLine
 10
177.3048054695659
 20
253.7112060148066
 30
0.0
 11
271.2895261193926
 21
253.7112060148065
 31
0.0
  0
LINE
  5
23BC
102
{ACAD_REACTORS
330
25EB
330
2679
102
}
330
1E
100
AcDbEntity
  8
STEMPEL
100
AcDbLine
 10
173.2971657944793
 20
340.9536863447649
 30
0.0
 11
173.2971657944793
 21
253.6238841289871
 31
0.0
  0
LINE
  5
23BD
102
{ACAD_REACTORS
330
25EB
102
}
330
1E
100
AcDbEntity
  8
STEMPEL
100
AcDbLine
 10
175.2971657944795
 20
340.953686344765
 30
0.0
 11
175.2971657944792
 21
253.7112060148066
 31
0.0
  0
LINE
  5
23BE
102
{ACAD_REACTORS
330
25EB
102
}
330
1E
100
AcDbEntity
  8
STEMPEL
100
AcDbLine
 10
173.2971657944793
 20
253.6238841289871
 30
0.0
 11
173.9894354275999
 21
245.7112060148066
 31
0.0
  0
LINE
  5
23BF
102
{ACAD_REACTORS
330
25EB
102
}
330
1E
100
AcDbEntity
  8
STEMPEL
100
AcDbLine
 10
175.2971657944792
 20
253.7112060148066
 30
0.0
 11
175.9970751026867
 21
245.7112060148066
 31
0.0
  0
LINE
  5
23C0
102
{ACAD_REACTORS
330
2637
330
2679
102
}
330
1E
100
AcDbEntity
  8
STEMPEL
100
AcDbLine
 10
160.2971657944793
 20
376.8588781305357
 30
0.0
 11
160.2971657944793
 21
305.7112060148065
 31
0.0
  0
LINE
  5
23C1
102
{ACAD_REACTORS
330
25CD
330
2637
102
}
330
1E
100
AcDbEntity
  8
STEMPEL
100
AcDbLine
 10
157.7971657944793
 20
377.5287511116137
 30
0.0
 11
157.7971657944792
 21
303.7112060148066
 31
0.0
  0
LINE
  5
23C2
102
{ACAD_REACTORS
330
2679
102
}
330
1E
100
AcDbEntity
  8
STEMPEL
100
AcDbLine
 10
160.2971657944793
 20
321.7112060148065
 30
0.0
 11
161.7971657944794
 21
323.2112060148065
 31
0.0
  0
LINE
  5
23C3
102
{ACAD_REACTORS
330
2679
102
}
330
1E
100
AcDbEntity
  8
STEMPEL
100
AcDbLine
 10
173.2971657944792
 20
323.2112060148064
 30
0.0
 11
161.7971657944794
 21
323.2112060148065
 31
0.0
  0
LINE
  5
23C4
330
1E
100
AcDbEntity
  8
STEMPEL
100
AcDbLine
 10
173.2971657944792
 20
311.7112060148065
 30
0.0
 11
168.2971657944792
 21
311.7112060148065
 31
0.0
  0
LINE
  5
23C6
102
{ACAD_REACTORS
330
2637
102
}
330
1E
100
AcDbEntity
  8
STEMPEL
100
AcDbLine
 10
157.7971657944793
 20
305.7112060148065
 30
0.0
 11
160.2971657944793
 21
305.7112060148065
 31
0.0
  0
LINE
  5
23C8
102
{ACAD_REACTORS
330
2637
330
2679
102
}
330
1E
100
AcDbEntity
  8
STEMPEL
100
AcDbLine
 10
288.2971657944793
 20
342.5613814993519
 30
0.0
 11
288.2971657944794
 21
305.7112060148064
 31
0.0
  0
LINE
  5
23C9
102
{ACAD_REACTORS
330
25CD
330
2637
102
}
330
1E
100
AcDbEntity
  8
STEMPEL
100
AcDbLine
 10
290.7971657944797
 20
341.8915085182746
 30
0.0
 11
290.7971657944794
 21
303.711206014806
 31
0.0
  0
LINE
  5
23CA
102
{ACAD_REACTORS
330
2679
102
}
330
1E
100
AcDbEntity
  8
STEMPEL
100
AcDbLine
 10
288.2971657944793
 20
321.7112060148065
 30
0.0
 11
286.7971657944792
 21
323.2112060148065
 31
0.0
  0
LINE
  5
23CB
102
{ACAD_REACTORS
330
2679
102
}
330
1E
100
AcDbEntity
  8
STEMPEL
100
AcDbLine
 10
286.7971657944792
 20
323.2112060148065
 30
0.0
 11
275.2971657944793
 21
323.2112060148065
 31
0.0
  0
LINE
  5
23CC
330
1E
100
AcDbEntity
  8
STEMPEL
100
AcDbLine
 10
280.2971657944793
 20
311.7112060148065
 30
0.0
 11
275.2971657944793
 21
311.7112060148065
 31
0.0
  0
LINE
  5
23CE
102
{ACAD_REACTORS
330
2637
102
}
330
1E
100
AcDbEntity
  8
STEMPEL
100
AcDbLine
 10
290.7971657944793
 20
305.7112060148064
 30
0.0
 11
288.2971657944793
 21
305.7112060148064
 31
0.0
  0
ARC
  5
23F9
102
{ACAD_REACTORS
330
25EB
102
}
330
1E
100
AcDbEntity
  8
STEMPEL
100
AcDbCircle
 10
294.2971657944793
 20
340.9536863447649
 30
0.0
 40
21.0
100
AcDbArc
 50
149.9999999999994
 51
180.0
  0
ARC
  5
23FA
102
{ACAD_REACTORS
330
25EB
102
}
330
1E
100
AcDbEntity
  8
STEMPEL
100
AcDbCircle
 10
294.2971657944793
 20
340.9536863447649
 30
0.0
 40
119.0
100
AcDbArc
 50
149.9999999999994
 51
179.9999999999999
  0
LINE
  5
23FB
102
{ACAD_REACTORS
330
2621
330
26AF
102
}
330
1E
100
AcDbEntity
  8
STEMPEL
100
AcDbLine
 10
329.4188532476284
 20
430.3727217853237
 30
0.0
 11
329.2227429792474
 21
428.1311711606189
 31
0.0
  0
LINE
  5
23FC
102
{ACAD_REACTORS
330
2621
102
}
330
1E
100
AcDbEntity
  8
STEMPEL
100
AcDbLine
 10
327.507746632036
 20
431.4760997042863
 30
0.0
 11
327.2303535830639
 21
428.3054826461144
 31
0.0
  0
ARC
  5
23FD
102
{ACAD_REACTORS
330
2621
102
}
330
1E
100
AcDbEntity
  8
STEMPEL
100
AcDbCircle
 10
304.3178755269539
 20
430.3100647293105
 30
0.0
 40
23.0
100
AcDbArc
 50
330.0
 51
354.9999999999934
  0
ARC
  5
23FE
102
{ACAD_REACTORS
330
2621
330
26AF
102
}
330
1E
100
AcDbEntity
  8
STEMPEL
100
AcDbCircle
 10
304.3178755269539
 20
430.3100647293105
 30
0.0
 40
25.0
100
AcDbArc
 50
330.0
 51
354.9999999999934
  0
DIMENSION
  5
23FF
330
1E
100
AcDbEntity
  8
BEM
100
AcDbDimension
  2
*D2
 10
347.2374575468724
 20
439.6489614274288
 30
0.0
 11
292.8967681952073
 21
478.528126552028
 31
0.0
 70
    32
  1
%%c<>
 71
     5
 42
133.0000000000003
  3
Standard
100
AcDbAlignedDimension
 13
223.5846981779032
 23
491.4760997042865
 33
0.0
 14
338.7660768812338
 24
424.9760997042862
 34
0.0
 50
329.9999999999997
100
AcDbRotatedDimension
1001
ACAD
1000
DSTYLE
1002
{
1070
    40
1040
2.0
1070
    41
1040
3.5
1070
    42
1040
1.0
1070
    43
1040
7.0
1070
    44
1040
1.0
1070
    73
1070
     0
1070
    74
1070
     0
1070
    77
1070
     1
1070
    78
1070
     8
1070
    79
1070
     2
1070
   140
1040
3.5
1070
   141
1040
1.5
1070
   146
1040
0.5142857142857144
1070
   147
1040
1.5
1070
   172
1070
     1
1070
   178
1070
     1
1070
   179
1070
     2
1070
   271
1070
     2
1070
   272
1070
     2
1070
   284
1070
     8
1070
   285
1070
     8
1070
   286
1070
     8
1070
   289
1070
     0
1070
   340
1005
24
1002
}
  0
LINE
  5
2400
102
{ACAD_REACTORS
330
2621
330
264D
330
26AF
102
}
330
1E
100
AcDbEntity
  8
STEMPEL
100
AcDbLine
 10
223.5846981779032
 20
491.4760997042865
 30
0.0
 11
338.7660768812338
 21
424.9760997042862
 31
0.0
  0
LINE
  5
2402
102
{ACAD_REACTORS
330
264D
330
2679
330
26AF
102
}
330
1E
100
AcDbEntity
  8
STEMPEL
100
AcDbLine
 10
336.6010133717724
 20
426.2260997042862
 30
0.0
 11
288.2971657944793
 21
342.5613814993519
 31
0.0
  0
LINE
  5
2403
102
{ACAD_REACTORS
330
25CD
330
264D
102
}
330
1E
100
AcDbEntity
  8
STEMPEL
100
AcDbLine
 10
338.7660768812338
 20
424.9760997042862
 30
0.0
 11
290.7971657944797
 21
341.8915085182746
 31
0.0
  0
LINE
  5
2404
102
{ACAD_REACTORS
330
2679
330
26AF
102
}
330
1E
100
AcDbEntity
  8
STEMPEL
100
AcDbLine
 10
325.2708863528505
 20
416.6017440513041
 30
0.0
 11
329.6010133717724
 21
414.101744051304
 31
0.0
  0
LINE
  5
2405
102
{ACAD_REACTORS
330
2621
330
2679
330
26AF
102
}
330
1E
100
AcDbEntity
  8
STEMPEL
100
AcDbLine
 10
325.9685106215647
 20
417.8100647293105
 30
0.0
 11
316.8874866181911
 21
402.0812697707148
 31
0.0
  0
LINE
  5
2406
102
{ACAD_REACTORS
330
2621
102
}
330
1E
100
AcDbEntity
  8
STEMPEL
100
AcDbLine
 10
324.236459813996
 20
418.8100647293104
 30
0.0
 11
315.1553355452815
 21
403.0810961060501
 31
0.0
  0
ARC
  5
2407
102
{ACAD_REACTORS
330
2621
102
}
330
1E
100
AcDbEntity
  8
STEMPEL
100
AcDbCircle
 10
315.4490895831259
 20
383.5898930245254
 30
0.0
 40
14.0
100
AcDbArc
 50
122.949631436622
 51
150.0
  0
ARC
  5
2408
102
{ACAD_REACTORS
330
2621
330
2679
102
}
330
1E
100
AcDbEntity
  8
STEMPEL
100
AcDbCircle
 10
315.4490895831259
 20
383.5898930245254
 30
0.0
 40
12.0
100
AcDbArc
 50
123.1119523822753
 51
150.0
  0
ARC
  5
2409
102
{ACAD_REACTORS
330
2621
102
}
330
1E
100
AcDbEntity
  8
STEMPEL
100
AcDbCircle
 10
284.2801481194199
 20
383.6037027912464
 30
0.0
 40
13.0
100
AcDbArc
 50
295.6988472432076
 51
330.0
  0
ARC
  5
240A
102
{ACAD_REACTORS
330
2621
330
2679
102
}
330
1E
100
AcDbEntity
  8
STEMPEL
100
AcDbCircle
 10
284.2801481194199
 20
383.6037027912464
 30
0.0
 40
15.0
100
AcDbArc
 50
295.6988472432076
 51
330.0
  0
LINE
  5
240B
102
{ACAD_REACTORS
330
2621
330
2679
102
}
330
1E
100
AcDbEntity
  8
STEMPEL
100
AcDbLine
 10
305.0567847377128
 20
389.5898930245254
 30
0.0
 11
297.2705291761861
 21
376.1037027912463
 31
0.0
  0
LINE
  5
240C
102
{ACAD_REACTORS
330
2621
102
}
330
1E
100
AcDbEntity
  8
STEMPEL
100
AcDbLine
 10
303.3247339301437
 20
390.5898930245252
 30
0.0
 11
295.5384783686177
 21
377.1037027912463
 31
0.0
  0
ARC
  5
240D
102
{ACAD_REACTORS
330
2621
330
2679
102
}
330
1E
100
AcDbEntity
  8
STEMPEL
100
AcDbCircle
 10
295.2368515235802
 20
414.5812697707147
 30
0.0
 40
25.0
100
AcDbArc
 50
303.1119523822754
 51
330.0
  0
ARC
  5
240E
102
{ACAD_REACTORS
330
2621
102
}
330
1E
100
AcDbEntity
  8
STEMPEL
100
AcDbCircle
 10
295.2367512582394
 20
414.5810961060504
 30
0.0
 40
23.0
100
AcDbArc
 50
303.2112018947927
 51
330.0
  0
LINE
  5
240F
330
1E
100
AcDbEntity
  8
HILF
100
AcDbLine
 10
214.6019661591509
 20
445.594748666875
 30
0.0
 11
303.5230273322601
 21
394.256150061953
 31
0.0
  0
LINE
  5
2410
330
1E
100
AcDbEntity
  8
HILF
100
AcDbLine
 10
291.2924709985614
 20
375.1286023293838
 30
0.0
 11
204.1523020774953
 21
425.4390023131906
 31
0.0
  0
LINE
  5
2411
330
1E
100
AcDbEntity
  8
HILF
100
AcDbLine
 10
203.6109538950029
 20
418.6164803679629
 30
0.0
 11
285.6546677673639
 21
371.2485200784387
 31
0.0
  0
ARC
  5
2412
102
{ACAD_REACTORS
330
2621
330
2679
102
}
330
1E
100
AcDbEntity
  8
STEMPEL
100
AcDbCircle
 10
294.2538900929161
 20
362.8787306309245
 30
0.0
 40
8.0
100
AcDbArc
 50
115.6988472432076
 51
150.0
  0
ARC
  5
2413
102
{ACAD_REACTORS
330
2621
102
}
330
1E
100
AcDbEntity
  8
STEMPEL
100
AcDbCircle
 10
294.2538900929161
 20
362.8787306309245
 30
0.0
 40
10.0
100
AcDbArc
 50
115.6988472432076
 51
150.0
  0
LINE
  5
2414
102
{ACAD_REACTORS
330
2621
330
2679
102
}
330
1E
100
AcDbEntity
  8
STEMPEL
100
AcDbLine
 10
287.3256868626406
 20
366.8787306309244
 30
0.0
 11
277.8426831225748
 21
350.4536863447649
 31
0.0
  0
LINE
  5
2415
102
{ACAD_REACTORS
330
2621
102
}
330
1E
100
AcDbEntity
  8
STEMPEL
100
AcDbLine
 10
285.5936360550718
 20
367.8787306309243
 30
0.0
 11
276.110632315006
 21
351.4536863447647
 31
0.0
  0
LINE
  5
2416
102
{ACAD_REACTORS
330
2621
102
}
330
1E
100
AcDbEntity
  8
STEMPEL
100
AcDbLine
 10
234.843028427101
 20
484.9760997042864
 30
0.0
 11
232.2358900335379
 21
483.1505617479575
 31
0.0
  0
LINE
  5
2417
102
{ACAD_REACTORS
330
2679
330
26AF
102
}
330
1E
100
AcDbEntity
  8
STEMPEL
100
AcDbLine
 10
218.7497616873642
 20
478.1017440513044
 30
0.0
 11
223.0798887062867
 21
475.6017440513041
 31
0.0
  0
ARC
  5
2418
102
{ACAD_REACTORS
330
2621
330
26AF
102
}
330
1E
100
AcDbEntity
  8
STEMPEL
100
AcDbCircle
 10
245.4281480696118
 20
464.3100647293108
 30
0.0
 40
25.0
100
AcDbArc
 50
125.0000000000065
 51
150.0
  0
ARC
  5
2419
102
{ACAD_REACTORS
330
2621
102
}
330
1E
100
AcDbEntity
  8
STEMPEL
100
AcDbCircle
 10
245.4281480696118
 20
464.3100647293108
 30
0.0
 40
23.0
100
AcDbArc
 50
125.0000000000065
 51
150.0
  0
LINE
  5
241A
102
{ACAD_REACTORS
330
2621
330
26AF
102
}
330
1E
100
AcDbEntity
  8
STEMPEL
100
AcDbLine
 10
232.9319218115082
 20
486.0794776232488
 30
0.0
 11
231.0887371608355
 21
484.7888658365353
 31
0.0
  0
LINE
  5
241B
102
{ACAD_REACTORS
330
2621
330
2679
330
26AF
102
}
330
1E
100
AcDbEntity
  8
STEMPEL
100
AcDbLine
 10
223.7775129750009
 20
476.8100647293107
 30
0.0
 11
214.6964889716272
 21
461.081269770715
 31
0.0
  0
LINE
  5
241C
102
{ACAD_REACTORS
330
2621
102
}
330
1E
100
AcDbEntity
  8
STEMPEL
100
AcDbLine
 10
225.5095637825698
 20
475.8100647293106
 30
0.0
 11
216.4284395138555
 21
460.0810961060505
 31
0.0
  0
LINE
  5
241E
102
{ACAD_REACTORS
330
264D
330
2679
330
26AF
102
}
330
1E
100
AcDbEntity
  8
STEMPEL
100
AcDbLine
 10
225.7497616873641
 20
490.2260997042864
 30
0.0
 11
160.2971657944793
 21
376.8588781305357
 31
0.0
  0
LINE
  5
241F
102
{ACAD_REACTORS
330
25CD
330
264D
102
}
330
1E
100
AcDbEntity
  8
STEMPEL
100
AcDbLine
 10
223.5846981779032
 20
491.4760997042865
 30
0.0
 11
157.7971657944793
 21
377.5287511116137
 31
0.0
  0
ARC
  5
2420
102
{ACAD_REACTORS
330
2621
102
}
330
1E
100
AcDbEntity
  8
STEMPEL
100
AcDbCircle
 10
199.4016854760111
 20
450.5898930245255
 30
0.0
 40
14.0
100
AcDbArc
 50
330.0
 51
357.0503685633779
  0
ARC
  5
2421
102
{ACAD_REACTORS
330
2621
330
2679
102
}
330
1E
100
AcDbEntity
  8
STEMPEL
100
AcDbCircle
 10
199.4016854760111
 20
450.5898930245255
 30
0.0
 40
12.0
100
AcDbArc
 50
330.0
 51
356.8880476177246
  0
ARC
  5
2422
102
{ACAD_REACTORS
330
2621
330
2679
102
}
330
1E
100
AcDbEntity
  8
STEMPEL
100
AcDbCircle
 10
214.9981158166647
 20
423.6037027912463
 30
0.0
 40
15.0
100
AcDbArc
 50
150.0
 51
184.3011527567925
  0
ARC
  5
2423
102
{ACAD_REACTORS
330
2621
102
}
330
1E
100
AcDbEntity
  8
STEMPEL
100
AcDbCircle
 10
214.9981158166647
 20
423.6037027912463
 30
0.0
 40
13.0
100
AcDbArc
 50
150.0
 51
184.3011527567925
  0
ARC
  5
2424
102
{ACAD_REACTORS
330
2621
330
2679
102
}
330
1E
100
AcDbEntity
  8
STEMPEL
100
AcDbCircle
 10
192.0628924463525
 20
421.8787306309247
 30
0.0
 40
8.0
100
AcDbArc
 50
330.0
 51
4.301152756792374
  0
ARC
  5
2425
102
{ACAD_REACTORS
330
2621
102
}
330
1E
100
AcDbEntity
  8
STEMPEL
100
AcDbCircle
 10
192.0628924463525
 20
421.8787306309247
 30
0.0
 40
10.0
100
AcDbArc
 50
330.0
 51
4.301152756792374
  0
LINE
  5
2426
102
{ACAD_REACTORS
330
2621
330
2679
102
}
330
1E
100
AcDbEntity
  8
STEMPEL
100
AcDbLine
 10
209.7939903214242
 20
444.5898930245256
 30
0.0
 11
202.0077347598981
 21
431.1037027912463
 31
0.0
  0
LINE
  5
2427
102
{ACAD_REACTORS
330
2621
102
}
330
1E
100
AcDbEntity
  8
STEMPEL
100
AcDbLine
 10
211.5260411289932
 20
443.5898930245254
 30
0.0
 11
203.7397855674671
 21
430.1037027912463
 31
0.0
  0
LINE
  5
2428
102
{ACAD_REACTORS
330
2621
330
2679
102
}
330
1E
100
AcDbEntity
  8
STEMPEL
100
AcDbLine
 10
198.991095676628
 20
417.8787306309247
 30
0.0
 11
189.5080919365622
 21
401.4536863447649
 31
0.0
  0
LINE
  5
2429
102
{ACAD_REACTORS
330
2621
102
}
330
1E
100
AcDbEntity
  8
STEMPEL
100
AcDbLine
 10
200.7231464841968
 20
416.8787306309246
 30
0.0
 11
191.2401427441309
 21
400.4536863447649
 31
0.0
  0
ARC
  5
242A
102
{ACAD_REACTORS
330
2621
102
}
330
1E
100
AcDbEntity
  8
STEMPEL
100
AcDbCircle
 10
236.3470238008976
 20
448.5810961060506
 30
0.0
 40
23.0
100
AcDbArc
 50
150.0
 51
176.7887981052073
  0
ARC
  5
242B
102
{ACAD_REACTORS
330
2621
330
2679
102
}
330
1E
100
AcDbEntity
  8
STEMPEL
100
AcDbCircle
 10
236.3471240662383
 20
448.5812697707152
 30
0.0
 40
25.0
100
AcDbArc
 50
150.0
 51
176.8880476177246
  0
LINE
  5
24AA
102
{ACAD_REACTORS
330
2637
330
264D
102
}
330
1E
100
AcDbEntity
  8
STEMPEL
100
AcDbLine
 10
157.7971657944793
 20
377.5287511116137
 30
0.0
 11
160.2971657944793
 21
376.8588781305358
 31
0.0
  0
LINE
  5
24AB
102
{ACAD_REACTORS
330
2637
330
264D
102
}
330
1E
100
AcDbEntity
  8
STEMPEL
100
AcDbLine
 10
288.2971657944791
 20
342.5613814993524
 30
0.0
 11
290.7971657944797
 21
341.8915085182746
 31
0.0
  0
DIMENSION
  5
24F8
330
1E
100
AcDbEntity
  8
BEM
100
AcDbDimension
  2
*D3
 10
128.1582621446326
 20
245.7112060148066
 30
0.0
 11
121.6582621446325
 21
302.710667914875
 31
0.0
 70
    32
 71
     5
 42
113.9989238001367
  3
Standard
100
AcDbAlignedDimension
 13
224.2971657944793
 23
359.7101298149433
 33
0.0
 14
173.9894354275999
 24
245.7112060148066
 34
0.0
 50
90.0
100
AcDbRotatedDimension
1001
ACAD
1000
DSTYLE
1002
{
1070
    40
1040
2.0
1070
    41
1040
3.5
1070
    42
1040
1.0
1070
    43
1040
7.0
1070
    44
1040
1.0
1070
    73
1070
     0
1070
    74
1070
     0
1070
    77
1070
     1
1070
    78
1070
     8
1070
    79
1070
     2
1070
   140
1040
3.5
1070
   141
1040
1.5
1070
   146
1040
0.5142857142857144
1070
   147
1040
1.5
1070
   172
1070
     1
1070
   178
1070
     1
1070
   179
1070
     2
1070
   271
1070
     2
1070
   272
1070
     2
1070
   284
1070
     8
1070
   285
1070
     8
1070
   286
1070
     8
1002
}
  0
DIMENSION
  5
2512
330
1E
100
AcDbEntity
  8
BEM
100
AcDbDimension
  2
*D4
 10
143.5263213987355
 20
245.7112060148066
 30
0.0
 11
137.0263213987354
 21
275.7112060148066
 31
0.0
 70
    32
 71
     5
 42
60.0
  3
Standard
100
AcDbAlignedDimension
 13
157.7971657944792
 23
305.7112060148065
 33
0.0
 14
173.9894354275999
 24
245.7112060148066
 34
0.0
 50
90.0
100
AcDbRotatedDimension
1001
ACAD
1000
DSTYLE
1002
{
1070
   279
1070
     1
1070
    40
1040
2.0
1070
    41
1040
3.5
1070
    42
1040
1.0
1070
    43
1040
7.0
1070
    44
1040
1.0
1070
    73
1070
     0
1070
    74
1070
     0
1070
    77
1070
     1
1070
    78
1070
     8
1070
    79
1070
     2
1070
   140
1040
3.5
1070
   141
1040
1.5
1070
   146
1040
0.5142857142857144
1070
   147
1040
1.5
1070
   172
1070
     1
1070
   178
1070
     1
1070
   179
1070
     2
1070
   271
1070
     2
1070
   272
1070
     2
1070
   284
1070
     8
1070
   285
1070
     8
1070
   286
1070
     8
1002
}
  0
DIMENSION
  5
251F
330
1E
100
AcDbEntity
  8
BEM
100
AcDbDimension
  2
*D5
 10
195.6749121153543
 20
507.5898222005239
 30
0.0
 11
161.6066361232108
 21
461.5818372558522
 31
0.0
 70
    32
  1
114
 71
     5
 42
113.7564434701787
 51
300.0
  3
Standard
100
AcDbAlignedDimension
 13
224.2971657944793
 23
359.7101298149433
 33
0.0
 14
223.584698177903
 24
491.4760997042866
 34
0.0
 50
60.0
100
AcDbRotatedDimension
1001
ACAD
1000
DSTYLE
1002
{
1070
    40
1040
2.0
1070
    41
1040
3.5
1070
    42
1040
1.0
1070
    43
1040
7.0
1070
    44
1040
1.0
1070
    73
1070
     0
1070
    74
1070
     0
1070
    77
1070
     1
1070
    78
1070
     8
1070
    79
1070
     2
1070
   140
1040
3.5
1070
   141
1040
1.5
1070
   146
1040
0.5142857142857144
1070
   147
1040
1.5
1070
   172
1070
     1
1070
   178
1070
     1
1070
   179
1070
     2
1070
   271
1070
     2
1070
   272
1070
     2
1070
   284
1070
     8
1070
   285
1070
     8
1070
   286
1070
     8
1002
}
  0
DIMENSION
  5
2535
330
1E
100
AcDbEntity
  8
BEM
100
AcDbDimension
  2
*D6
 10
224.2971657944793
 20
240.7112060148066
 30
0.0
 11
249.9638801818124
 21
455.4996119718297
 31
0.0
 70
    34
 71
     5
 42
0.5235987755982976
  3
Standard
100
AcDb2LineAngularDimension
 13
283.4616276945478
 23
462.185983828335
 33
0.0
 14
224.2971657944793
 24
359.7101298149433
 34
0.0
 15
224.2971657944793
 25
359.7101298149433
 35
0.0
 16
255.9916831177558
 26
446.7901004811589
 36
0.0
1001
ACAD
1000
DSTYLE
1002
{
1070
    40
1040
2.0
1070
    41
1040
3.5
1070
    42
1040
1.0
1070
    43
1040
7.0
1070
    44
1040
1.0
1070
    73
1070
     0
1070
    74
1070
     0
1070
    77
1070
     1
1070
    78
1070
     8
1070
    79
1070
     2
1070
   140
1040
3.5
1070
   141
1040
1.5
1070
   146
1040
0.5142857142857144
1070
   147
1040
1.5
1070
   172
1070
     1
1070
   178
1070
     1
1070
   179
1070
     2
1070
   271
1070
     2
1070
   272
1070
     2
1070
   284
1070
     8
1070
   285
1070
     8
1070
   286
1070
     8
1002
}
  0
ARC
  5
25BD
102
{ACAD_REACTORS
330
25CD
102
}
330
1E
100
AcDbEntity
  8
SCHRAFF
100
AcDbCircle
 10
286.6894593909913
 20
342.9921651318335
 30
0.0
 40
6.549041898377349
100
AcDbArc
 50
308.8454992861819
 51
21.1545007138175
  0
ARC
  5
25BE
102
{ACAD_REACTORS
330
25CD
102
}
330
1E
100
AcDbEntity
  8
SCHRAFF
100
AcDbCircle
 10
159.5971811096322
 20
377.0464384615548
 30
0.0
 40
3.951478131879404
100
AcDbArc
 50
87.09901581704995
 51
242.9009841829504
  0
HATCH
  5
25CD
330
1E
100
AcDbEntity
  8
SCHRAFF
100
AcDbHatch
 10
0.0
 20
0.0
 30
0.0
210
0.0
220
0.0
230
1.0
  2
_USER
 70
     0
 71
     1
 91
        2
 92
        7
 72
     1
 73
     1
 93
        3
 10
292.7971657944797
 20
345.3556101334123
 42
0.0
 10
290.7971657944797
 20
341.8915085182746
 42
0.0
 10
290.7971657944797
 20
337.8915085182745
 42
0.3264109644844239
 97
        3
330
2403
330
23C9
330
25BD
 92
        7
 72
     1
 73
     1
 93
        3
 10
157.7971657944793
 20
377.5287511116137
 42
0.0
 10
159.7971657944794
 20
380.9928527267514
 42
0.8083543392087722
 10
157.7971657944793
 20
373.5287511116136
 42
0.0
 97
        3
330
241F
330
25BE
330
23C1
 75
     0
 76
     0
 52
0.0
 41
0.1
 77
     0
 78
     1
 53
0.0
 43
0.0
 44
0.0
 45
0.0
 46
0.1
 79
     0
 47
0.2270928647053201
 98
        2
 10
291.5403082737553
 20
340.5517725584582
 10
156.7789932651353
 20
377.1137250736733
  0
HATCH
  5
25EB
330
1E
100
AcDbEntity
  8
SCHRAFF
100
AcDbHatch
 10
0.0
 20
0.0
 30
0.0
210
0.0
220
0.0
230
1.0
  2
_USER
 70
     0
 71
     1
 91
        2
 92
        7
 72
     1
 73
     1
 93
        8
 10
275.2971657944794
 20
340.9536863447649
 42
-0.1316524975873957
 10
277.8426831225748
 20
350.4536863447649
 42
0.0
 10
276.110632315006
 20
351.4536863447649
 42
0.1316524975873947
 10
273.2971657944792
 20
340.9536863447649
 42
0.0
 10
273.2971657944793
 20
253.7112060148072
 42
0.0
 10
272.5972564862719
 20
245.7112060148066
 42
0.0
 10
274.6048961613588
 20
245.7112060148066
 42
0.0
 10
275.2971657944792
 20
253.6238841289868
 42
0.0
 97
        8
330
2306
330
2305
330
23F9
330
23B6
330
23B7
330
23BA
330
23B8
330
23B5
 92
        7
 72
     1
 73
     1
 93
        8
 10
175.2971657944795
 20
340.953686344765
 42
-0.1316524975873954
 10
191.240142744131
 20
400.4536863447649
 42
0.0
 10
189.5080919365622
 20
401.4536863447649
 42
0.1316524975873959
 10
173.2971657944793
 20
340.9536863447649
 42
0.0
 10
173.2971657944793
 20
253.6238841289871
 42
0.0
 10
173.9894354275999
 20
245.7112060148065
 42
0.0
 10
175.9970751026867
 20
245.7112060148066
 42
0.0
 10
175.2971657944792
 20
253.7112060148064
 42
0.0
 97
        8
330
23FA
330
2305
330
2307
330
23BC
330
23BE
330
23BA
330
23BF
330
23BD
 75
     0
 76
     0
 52
135.0
 41
2.0
 77
     0
 78
     1
 53
135.0
 43
0.0
 44
0.0
 45
-1.414213562373095
 46
-1.414213562373094
 79
     0
 47
0.5403925514225833
 98
        2
 10
274.9177946424274
 20
320.2206545336735
 10
174.3336910592188
 20
331.5688982650647
  0
HATCH
  5
2621
330
1E
100
AcDbEntity
  8
SCHRAFF
100
AcDbHatch
 10
0.0
 20
0.0
 30
0.0
210
0.0
220
0.0
230
1.0
  2
_USER
 70
     0
 71
     1
 91
        2
 92
        7
 72
     1
 73
     1
 93
       20
 10
305.0567847377128
 20
389.5898930245254
 42
-0.1178625008509365
 10
308.8937691313814
 20
393.6411503476139
 42
0.1178625008509345
 10
316.8874866181911
 20
402.0812697707148
 42
0.0
 10
325.9685106215647
 20
417.8100647293105
 42
0.1095178116832402
 10
329.2227429792474
 20
428.1311711606189
 42
0.0
 10
329.4188532476284
 20
430.372721785324
 42
0.0
 10
327.507746632036
 20
431.4760997042863
 42
0.0
 10
327.2303535830639
 20
428.3054826461144
 42
-0.1095178116832471
 10
324.2364598139958
 20
418.8100647293101
 42
0.0
 10
315.1553355452815
 20
403.0810961060501
 42
-0.1182991460895123
 10
307.7679118104827
 20
395.2945719190979
 42
0.1171420130217923
 10
303.3247339301437
 20
390.5898930245253
 42
0.0
 10
295.5384783686177
 20
377.1037027912463
 42
-0.1507946423587078
 10
289.9174805392221
 20
371.889588091934
 42
0.1507946423587065
 10
285.5936360550718
 20
367.8787306309244
 42
0.0
 10
276.1106323150061
 20
351.4536863447648
 42
0.0
 10
277.8426831225748
 20
350.453686344765
 42
0.0
 10
287.3256868626406
 20
366.8787306309244
 42
-0.1507946423587089
 10
290.7847624499609
 20
370.0874165997321
 42
0.1507946423586997
 10
297.2705291761861
 20
376.1037027912463
 42
0.0
 97
       20
330
2408
330
240D
330
2405
330
23FE
330
23FB
330
2400
330
23FC
330
23FD
330
2406
330
240E
330
2407
330
240C
330
2409
330
2413
330
2415
330
2305
330
2414
330
2412
330
240A
330
240B
 92
        7
 72
     1
 73
     1
 93
       20
 10
211.5260411289932
 20
443.5898930245254
 42
0.1171420130218709
 10
213.3788236281723
 20
449.7901373897227
 42
-0.1182991460894678
 10
216.4284395138555
 20
460.0810961060505
 42
0.0
 10
225.5095637825698
 20
475.8100647293106
 42
-0.1095178116832433
 10
232.2358900335379
 20
483.1505617479575
 42
0.0
 10
234.8430284271011
 20
484.9760997042864
 42
0.0
 10
232.9319218115084
 20
486.079477623249
 42
0.0
 10
231.0887371608355
 20
484.7888658365353
 42
0.1095178116832413
 10
223.7775129750008
 20
476.8100647293104
 42
0.0
 10
214.6964889716272
 20
461.081269770715
 42
0.1178625008509352
 10
211.3839898836523
 20
449.9384476449113
 42
-0.1178625008509367
 10
209.7939903214242
 20
444.5898930245256
 42
0.0
 10
202.0077347598981
 20
431.1037027912463
 42
0.1507946423587009
 10
200.040361444722
 20
422.4787209475583
 42
-0.1507946423587007
 10
198.9910956766279
 20
417.8787306309247
 42
0.0
 10
189.5080919365622
 20
401.4536863447649
 42
0.0
 10
191.2401427441309
 20
400.4536863447649
 42
0.0
 10
200.7231464841968
 20
416.8787306309246
 42
0.1507946423587054
 10
202.0347286943144
 20
422.6287185267167
 42
-0.150794642358699
 10
203.7397855674671
 20
430.1037027912463
 42
0.0
 97
       20
330
2420
330
242A
330
241C
330
2419
330
2416
330
2400
330
241A
330
2418
330
241B
330
242B
330
2421
330
2426
330
2422
330
2424
330
2428
330
2305
330
2429
330
2425
330
2423
330
2427
 75
     0
 76
     0
 52
15.0
 41
2.0
 77
     0
 78
     1
 53
15.0
 43
0.0
 44
0.0
 45
-0.5176380902050415
 46
1.931851652578136
 79
     0
 47
0.5403925514225833
 98
        2
 10
301.4157592683123
 20
385.0677607704999
 10
206.2394025233089
 20
435.3242685238804
  0
HATCH
  5
2637
330
1E
100
AcDbEntity
  8
SCHRAFF
100
AcDbHatch
 10
0.0
 20
0.0
 30
0.0
210
0.0
220
0.0
230
1.0
  2
_USER
 70
     0
 71
     1
 91
        2
 92
        7
 72
     0
 73
     1
 93
        4
 10
290.7971657944798
 20
341.8915085182746
 10
288.2971657944792
 20
342.5613814993524
 10
288.2971657944794
 20
305.7112060148064
 10
290.7971657944794
 20
305.7112060148064
 97
        4
330
24AB
330
23C8
330
23CE
330
23C9
 92
        7
 72
     0
 73
     1
 93
        4
 10
160.2971657944792
 20
376.8588781305358
 10
157.7971657944793
 20
377.5287511116137
 10
157.7971657944793
 20
305.7112060148065
 10
160.2971657944792
 20
305.7112060148065
 97
        4
330
24AA
330
23C1
330
23C6
330
23C0
 75
     0
 76
     0
 52
45.0
 41
2.0
 77
     0
 78
     1
 53
45.0
 43
0.0
 44
0.0
 45
-1.414213562373094
 46
1.414213562373095
 79
     0
 47
0.5403925514225833
 98
        2
 10
289.5187156854522
 20
316.4379070896985
 10
159.191997757011
 20
333.7304690327455
  0
HATCH
  5
264D
330
1E
100
AcDbEntity
  8
SCHRAFF
100
AcDbHatch
 10
0.0
 20
0.0
 30
0.0
210
0.0
220
0.0
230
1.0
  2
_USER
 70
     0
 71
     1
 91
        2
 92
        7
 72
     0
 73
     1
 93
        4
 10
338.7660768812338
 20
424.9760997042863
 10
336.6010133717725
 20
426.2260997042865
 10
288.2971657944795
 20
342.5613814993523
 10
290.7971657944798
 20
341.8915085182746
 97
        4
330
2400
330
2402
330
24AB
330
2403
 92
        7
 72
     0
 73
     1
 93
        4
 10
225.7497616873642
 20
490.2260997042866
 10
223.5846981779032
 20
491.4760997042864
 10
157.7971657944793
 20
377.5287511116136
 10
160.2971657944793
 20
376.8588781305358
 97
        4
330
2400
330
241F
330
24AA
330
241E
 75
     0
 76
     0
 52
105.0
 41
2.0
 77
     0
 78
     1
 53
105.0
 43
0.0
 44
0.0
 45
-1.931851652578136
 46
-0.5176380902050417
 79
     0
 47
0.5403925514225833
 98
        2
 10
324.1282992216238
 20
400.7391460372527
 10
185.1491847356296
 20
422.3548481161949
  0
HATCH
  5
2679
330
1E
100
AcDbEntity
  8
SCHRAFF
100
AcDbHatch
 10
0.0
 20
0.0
 30
0.0
210
0.0
220
0.0
230
1.0
  2
HONEY
 70
     0
 71
     1
 91
        2
 92
        7
 72
     1
 73
     1
 93
       15
 10
329.6010133717724
 20
414.1017440513041
 42
0.0
 10
325.2708863528504
 20
416.6017440513041
 42
0.0
 10
316.8874866181911
 20
402.0812697707148
 42
-0.1178625008509391
 10
308.8937691313812
 20
393.6411503476136
 42
0.1178625008509278
 10
305.0567847377128
 20
389.5898930245254
 42
0.0
 10
297.2705291761861
 20
376.1037027912463
 42
-0.1507946423587012
 10
290.7847624499609
 20
370.0874165997321
 42
0.1507946423587062
 10
287.3256868626406
 20
366.8787306309244
 42
0.0
 10
279.3426831225748
 20
353.0517625561181
 42
-0.4668457183923899
 10
276.5490889852074
 20
347.7364416530584
 42
0.091514321179311
 10
275.2971657944794
 20
340.9536863447649
 42
0.0
 10
275.2971657944794
 20
323.2112060148065
 42
0.0
 10
286.7971657944792
 20
323.2112060148065
 42
0.0
 10
288.2971657944793
 20
321.7112060148064
 42
0.0
 10
288.2971657944793
 20
342.5613814993519
 42
0.0
 97
       15
330
2404
330
2405
330
240D
330
2408
330
240B
330
240A
330
2412
330
2414
330
22F9
330
2306
330
23B5
330
23CB
330
23CA
330
23C8
330
2402
 92
        7
 72
     1
 73
     1
 93
       15
 10
188.0403044440169
 20
398.8370122335613
 42
-0.5179147943324258
 10
191.0080919365621
 20
404.051762556118
 42
0.0
 10
198.991095676628
 20
417.8787306309247
 42
0.1507946423587023
 10
200.040361444722
 20
422.4787209475584
 42
-0.150794642358699
 10
202.0077347598981
 20
431.1037027912463
 42
0.0
 10
209.7939903214242
 20
444.5898930245256
 42
0.1178625008509452
 10
211.3839898836523
 20
449.9384476449117
 42
-0.1178625008509311
 10
214.6964889716272
 20
461.081269770715
 42
0.0
 10
223.0798887062864
 20
475.6017440513041
 42
0.0
 10
218.7497616873642
 20
478.1017440513045
 42
0.0
 10
160.2971657944793
 20
376.8588781305357
 42
0.0
 10
160.2971657944793
 20
321.7112060148066
 42
0.0
 10
161.7971657944793
 20
323.2112060148065
 42
0.0
 10
173.2971657944793
 20
323.2112060148064
 42
0.0
 10
173.2971657944793
 20
340.9536863447649
 42
-0.1253511340532887
 97
       15
330
22FB
330
2428
330
2424
330
2422
330
2426
330
2421
330
242B
330
241B
330
2417
330
241E
330
23C0
330
23C2
330
23C3
330
23BC
330
2307
 75
     0
 76
     1
 52
0.0
 41
25.0
 77
     0
 78
     3
 53
0.0
 43
0.0
 44
0.0
 45
4.6875
 46
2.706329374999999
 79
     2
 49
3.125
 49
-6.25
 53
120.0
 43
0.0
 44
0.0
 45
-4.687499989758061
 46
2.706329392739557
 79
     2
 49
3.125
 49
-6.25
 53
60.0
 43
0.0
 44
0.0
 45
0.0000000102419385
 46
5.412658767739556
 79
     2
 49
-6.25
 49
3.125
 47
0.5403925514225833
 98
        2
 10
284.1109661532055
 20
345.0787127641368
 10
172.1705912463203
 20
379.1234439583104
  0
HATCH
  5
26AF
330
1E
100
AcDbEntity
  8
SCHRAFF
100
AcDbHatch
 10
0.0
 20
0.0
 30
0.0
210
0.0
220
0.0
230
1.0
  2
NET
 70
     0
 71
     1
 91
        2
 92
        7
 72
     1
 73
     1
 93
        6
 10
336.6010133717725
 20
426.2260997042864
 42
0.0
 10
329.4188532476283
 20
430.372721785324
 42
0.0
 10
329.2227429792474
 20
428.1311711606189
 42
-0.1095178116832415
 10
325.9685106215647
 20
417.8100647293104
 42
0.0
 10
325.2708863528504
 20
416.6017440513042
 42
0.0
 10
329.6010133717724
 20
414.1017440513041
 42
0.0
 97
        6
330
2400
330
23FB
330
23FE
330
2405
330
2404
330
2402
 92
        7
 72
     1
 73
     1
 93
        6
 10
231.0887371608355
 20
484.7888658365353
 42
0.0
 10
232.9319218115084
 20
486.079477623249
 42
0.0
 10
225.7497616873642
 20
490.2260997042865
 42
0.0
 10
218.7497616873642
 20
478.1017440513044
 42
0.0
 10
223.0798887062865
 20
475.6017440513042
 42
0.0
 10
223.7775129750009
 20
476.8100647293107
 42
-0.1095178116832386
 97
        6
330
241A
330
2400
330
241E
330
2417
330
241B
330
2418
 75
     0
 76
     1
 52
15.0
 41
20.0
 77
     0
 78
     2
 53
15.0
 43
0.0
 44
0.0
 45
-0.6470476127563019
 46
2.41481456572267
 79
     0
 53
105.0
 43
0.0
 44
0.0
 45
-2.41481456572267
 46
-0.6470476127563018
 79
     0
 47
0.5403925514225833
 98
        2
 10
331.699145872728
 20
423.4356335000352
 10
226.2480677104973
 20
483.9595982015002
  0
HATCH
  5
26C5
330
1E
100
AcDbEntity
  8
SCHRAFF
100
AcDbHatch
 10
0.0
 20
0.0
 30
0.0
210
0.0
220
0.0
230
1.0
  2
NET
 70
     0
 71
     0
 91
        2
 92
        7
 72
     0
 73
     1
 93
        9
 10
288.2971657944794
 20
321.7112060148064
 10
286.7971657944791
 20
323.2112060148066
 10
275.2971657944793
 20
323.2112060148066
 10
275.2971657944793
 20
311.7112060148065
 10
280.2971657944793
 20
311.7112060148065
 10
284.9159679479964
 20
303.7112060148061
 10
290.7971657944795
 20
303.7112060148061
 10
290.7971657944795
 20
305.7112060148065
 10
288.2971657944795
 20
305.7112060148065
 97
        0
 92
        7
 72
     0
 73
     1
 93
        9
 10
173.2971657944794
 20
323.2112060148065
 10
161.7971657944794
 20
323.2112060148066
 10
160.2971657944793
 20
321.7112060148066
 10
160.2971657944793
 20
305.7112060148064
 10
157.7971657944792
 20
305.7112060148065
 10
157.7971657944792
 20
303.7112060148065
 10
163.6783636409621
 20
303.7112060148065
 10
168.2971657944792
 20
311.7112060148065
 10
173.2971657944793
 20
311.7112060148065
 97
        0
 75
     0
 76
     1
 52
45.0
 41
20.0
 77
     0
 78
     2
 53
45.0
 43
-0.7028342055204462
 44
-6.163788044379145
 45
-1.767766952966368
 46
1.767766952966368
 79
     0
 53
135.0
 43
-0.7028342055204462
 44
-6.163788044379145
 45
-1.767766952966368
 46
-1.767766952966368
 79
     0
 47
0.1961114262777251
 98
        2
 10
284.0785311947093
 20
316.9091164043607
 10
171.6388945496474
 20
318.0857849430494
  0
LINE
  5
26C6
330
1E
100
AcDbEntity
  8
STEMPEL
100
AcDbLine
 10
275.2971657944793
 20
303.7112060148062
 30
0.0
 11
290.7971657944795
 21
303.7112060148061
 31
0.0
  0
LINE
  5
26C7
330
1E
100
AcDbEntity
  8
STEMPEL
100
AcDbLine
 10
280.2971657944793
 20
311.7112060148065
 30
0.0
 11
284.9159679479964
 21
303.7112060148062
 31
0.0
  0
LINE
  5
26C8
330
1E
100
AcDbEntity
  8
STEMPEL
100
AcDbLine
 10
157.7971657944792
 20
303.7112060148065
 30
0.0
 11
173.2971657944794
 21
303.7112060148064
 31
0.0
  0
LINE
  5
26C9
330
1E
100
AcDbEntity
  8
STEMPEL
100
AcDbLine
 10
168.2971657944792
 20
311.7112060148065
 30
0.0
 11
163.6783636409622
 21
303.7112060148065
 31
0.0
  0
ENDSEC
  0
SECTION
  2
OBJECTS
  0
DICTIONARY
  5
C
330
0
100
AcDbDictionary
281
     1
  3
ACAD_COLOR
350
DF
  3
ACAD_GROUP
350
D
  3
ACAD_LAYOUT
350
19
  3
ACAD_MATERIAL
350
DE
  3
ACAD_MLINESTYLE
350
16
  3
ACAD_PLOTSETTINGS
350
18
  3
ACAD_PLOTSTYLENAME
350
E
  3
AcDbVariableDictionary
350
25E
  0
DICTIONARY
  5
A0
330
1E
100
AcDbDictionary
280
     1
281
     1
  3
ACAD_LAYOUTSELFREF
360
D4
  0
DICTIONARY
  5
A2
330
1A
100
AcDbDictionary
280
     1
281
     1
  3
ACAD_LAYOUTSELFREF
360
D3
  0
DICTIONARY
  5
DF
102
{ACAD_REACTORS
330
C
102
}
330
C
100
AcDbDictionary
281
     1
  0
DICTIONARY
  5
D
102
{ACAD_REACTORS
330
C
102
}
330
C
100
AcDbDictionary
281
     1
  0
DICTIONARY
  5
19
102
{ACAD_REACTORS
330
C
102
}
330
C
100
AcDbDictionary
281
     1
  3
Layout1
350
1D
  3
Model
350
21
  0
DICTIONARY
  5
DE
102
{ACAD_REACTORS
330
C
102
}
330
C
100
AcDbDictionary
281
     1
  0
DICTIONARY
  5
16
102
{ACAD_REACTORS
330
C
102
}
330
C
100
AcDbDictionary
281
     1
  3
Standard
350
17
  0
DICTIONARY
  5
18
102
{ACAD_REACTORS
330
C
102
}
330
C
100
AcDbDictionary
281
     1
  0
ACDBDICTIONARYWDFLT
  5
E
102
{ACAD_REACTORS
330
C
102
}
330
C
100
AcDbDictionary
281
     1
  3
Normal
350
F
100
AcDbDictionaryWithDefault
340
F
  0
DICTIONARY
  5
25E
102
{ACAD_REACTORS
330
C
102
}
330
C
100
AcDbDictionary
281
     1
  3
DIMASSOC
350
25F
  3
PROJECTNAME
350
260
  0
XRECORD
  5
D4
102
{ACAD_REACTORS
330
A0
102
}
330
A0
100
AcDbXrecord
280
     1
340
1E
  0
XRECORD
  5
D3
102
{ACAD_REACTORS
330
A2
102
}
330
A2
100
AcDbXrecord
280
     1
340
1A
  0
LAYOUT
  5
1D
102
{ACAD_REACTORS
330
19
102
}
330
19
100
AcDbPlotSettings
  1

  2
\\NT_WORK01\HP LaserJet 5000 PCL 6
  4

  6

 40
0.0
 41
0.0
 42
0.0
 43
0.0
 44
0.0
 45
0.0
 46
0.0
 47
0.0
 48
0.0
 49
0.0
140
0.0
141
0.0
142
1.0
143
1.0
 70
   688
 72
     0
 73
     0
 74
     5
  7

 75
    16
147
1.0
 76
     0
 77
     2
 78
   300
148
0.0
149
0.0
100
AcDbLayout
  1
Layout1
 70
     0
 71
     1
 10
0.0
 20
0.0
 11
12.0
 21
9.0
 12
0.0
 22
0.0
 32
0.0
 14
1.000000000000000E+20
 24
1.000000000000000E+20
 34
1.000000000000000E+20
 15
-1.000000000000000E+20
 25
-1.000000000000000E+20
 35
-1.000000000000000E+20
146
0.0
 13
0.0
 23
0.0
 33
0.0
 16
1.0
 26
0.0
 36
0.0
 17
0.0
 27
1.0
 37
0.0
 76
     0
330
1A
  0
LAYOUT
  5
21
102
{ACAD_REACTORS
330
19
102
}
330
19
100
AcDbPlotSettings
  1

  2
RICOH Aficio 2027 PCL 6
  4
A4
  6

 40
5.027083
 41
5.027084999999999
 42
5.027084
 43
5.027069
 44
209.973328
 45
296.925995
 46
0.0
 47
2.06
 48
0.0
 49
0.0
140
0.0
141
0.0
142
1.0
143
2.100849152723284
 70
 11956
 72
     1
 73
     0
 74
     2
  7
monochrome1.ctb
 75
     0
147
0.4759980023809526
 76
     1
 77
     2
 78
   300
148
0.0
149
0.0
100
AcDbLayout
  1
Model
 70
     1
 71
     0
 10
0.0
 20
0.0
 11
12.0
 21
9.0
 12
0.0
 22
0.0
 32
0.0
 14
0.0
 24
0.0
 34
0.0
 15
0.0
 25
0.0
 35
0.0
146
0.0
 13
0.0
 23
0.0
 33
0.0
 16
1.0
 26
0.0
 36
0.0
 17
0.0
 27
1.0
 37
0.0
 76
     0
330
1E
  0
MLINESTYLE
  5
17
102
{ACAD_REACTORS
330
16
102
}
330
16
100
AcDbMlineStyle
  2
STANDARD
 70
     0
  3

 62
   256
 51
90.0
 52
90.0
 71
     2
 49
0.5
 62
   256
  6
BYLAYER
 49
-0.5
 62
   256
  6
BYLAYER
  0
ACDBPLACEHOLDER
  5
F
102
{ACAD_REACTORS
330
E
102
}
330
E
  0
DICTIONARYVAR
  5
25F
102
{ACAD_REACTORS
330
25E
102
}
330
25E
100
DictionaryVariables
280
     0
  1
1
  0
DICTIONARYVAR
  5
260
102
{ACAD_REACTORS
330
25E
102
}
330
25E
100
DictionaryVariables
280
     0
  1

  0
ENDSEC
  0
EOF
