  0
SECTION
  2
HEADER
  9
$ACADVER
  1
AC1018
  9
$ACADMAINTVER
 70
     2
  9
$DWGCODEPAGE
  3
ANSI_1252
  9
$INSBASE
 10
0.0
 20
0.0
 30
0.0
  9
$EXTMIN
 10
-0.0063847315290104
 20
-0.0090298345912743
 30
-0.0000000000000053
  9
$EXTMAX
 10
420.0032109473064
 20
594.0045411969058
 30
0.0000000000000099
  9
$LIMMIN
 10
0.0
 20
0.0
  9
$LIMMAX
 10
419.9999999999999
 20
594.0000000000002
  9
$ORTHOMODE
 70
     0
  9
$REGENMODE
 70
     1
  9
$FILLMODE
 70
     1
  9
$QTEXTMODE
 70
     0
  9
$MIRRTEXT
 70
     1
  9
$LTSCALE
 40
20.0
  9
$ATTMODE
 70
     1
  9
$TEXTSIZE
 40
3.5
  9
$TRACEWID
 40
0.5
  9
$TEXTSTYLE
  7
STANDARD
  9
$CLAYER
  8
BEM
  9
$CELTYPE
  6
ByLayer
  9
$CECOLOR
 62
   256
  9
$CELTSCALE
 40
1.0
  9
$DISPSILH
 70
     0
  9
$DIMSCALE
 40
2.0
  9
$DIMASZ
 40
3.5
  9
$DIMEXO
 40
1.0
  9
$DIMDLI
 40
7.0
  9
$DIMRND
 40
0.0
  9
$DIMDLE
 40
0.0
  9
$DIMEXE
 40
1.0
  9
$DIMTP
 40
0.0
  9
$DIMTM
 40
0.0
  9
$DIMTXT
 40
3.5
  9
$DIMCEN
 40
1.5
  9
$DIMTSZ
 40
0.0
  9
$DIMTOL
 70
     0
  9
$DIMLIM
 70
     0
  9
$DIMTIH
 70
     0
  9
$DIMTOH
 70
     0
  9
$DIMSE1
 70
     0
  9
$DIMSE2
 70
     0
  9
$DIMTAD
 70
     1
  9
$DIMZIN
 70
     8
  9
$DIMBLK
  1

  9
$DIMASO
 70
     1
  9
$DIMSHO
 70
     0
  9
$DIMPOST
  1

  9
$DIMAPOST
  1

  9
$DIMALT
 70
     0
  9
$DIMALTD
 70
     2
  9
$DIMALTF
 40
25.4
  9
$DIMLFAC
 40
1.0
  9
$DIMTOFL
 70
     1
  9
$DIMTVP
 40
0.0
  9
$DIMTIX
 70
     0
  9
$DIMSOXD
 70
     0
  9
$DIMSAH
 70
     0
  9
$DIMBLK1
  1

  9
$DIMBLK2
  1

  9
$DIMSTYLE
  2
Standard
  9
$DIMCLRD
 70
     0
  9
$DIMCLRE
 70
     0
  9
$DIMCLRT
 70
     1
  9
$DIMTFAC
 40
0.5142857142857144
  9
$DIMGAP
 40
1.5
  9
$DIMJUST
 70
     0
  9
$DIMSD1
 70
     0
  9
$DIMSD2
 70
     0
  9
$DIMTOLJ
 70
     1
  9
$DIMTZIN
 70
     8
  9
$DIMALTZ
 70
     8
  9
$DIMALTTZ
 70
     8
  9
$DIMUPT
 70
     0
  9
$DIMDEC
 70
     2
  9
$DIMTDEC
 70
     2
  9
$DIMALTU
 70
     2
  9
$DIMALTTD
 70
     2
  9
$DIMTXSTY
  7
STANDARD
  9
$DIMAUNIT
 70
     0
  9
$DIMADEC
 70
     2
  9
$DIMALTRND
 40
0.0
  9
$DIMAZIN
 70
     2
  9
$DIMDSEP
 70
    46
  9
$DIMATFIT
 70
     3
  9
$DIMFRAC
 70
     0
  9
$DIMLDRBLK
  1

  9
$DIMLUNIT
 70
     2
  9
$DIMLWD
 70
    -2
  9
$DIMLWE
 70
    -2
  9
$DIMTMOVE
 70
     0
  9
$LUNITS
 70
     2
  9
$LUPREC
 70
     2
  9
$SKETCHINC
 40
1.0
  9
$FILLETRAD
 40
0.0
  9
$AUNITS
 70
     0
  9
$AUPREC
 70
     0
  9
$MENU
  1
ACAD
  9
$ELEVATION
 40
0.0
  9
$PELEVATION
 40
0.0
  9
$THICKNESS
 40
0.0
  9
$LIMCHECK
 70
     0
  9
$CHAMFERA
 40
0.0
  9
$CHAMFERB
 40
0.0
  9
$CHAMFERC
 40
0.0
  9
$CHAMFERD
 40
0.0
  9
$SKPOLY
 70
     0
  9
$TDCREATE
 40
2455397.823042361
  9
$TDUCREATE
 40
2455397.781375695
  9
$TDUPDATE
 40
2455532.538567963
  9
$TDUUPDATE
 40
2455532.496901296
  9
$TDINDWG
 40
0.4113574884
  9
$TDUSRTIMER
 40
0.4113574884
  9
$USRTIMER
 70
     1
  9
$ANGBASE
 50
0.0
  9
$ANGDIR
 70
     0
  9
$PDMODE
 70
     0
  9
$PDSIZE
 40
0.0
  9
$PLINEWID
 40
0.0
  9
$SPLFRAME
 70
     0
  9
$SPLINETYPE
 70
     6
  9
$SPLINESEGS
 70
     8
  9
$HANDSEED
  5
1827
  9
$SURFTAB1
 70
     6
  9
$SURFTAB2
 70
     6
  9
$SURFTYPE
 70
     6
  9
$SURFU
 70
     6
  9
$SURFV
 70
     6
  9
$UCSBASE
  2

  9
$UCSNAME
  2

  9
$UCSORG
 10
0.0
 20
0.0
 30
0.0
  9
$UCSXDIR
 10
1.0
 20
0.0
 30
0.0
  9
$UCSYDIR
 10
0.0
 20
1.0
 30
0.0
  9
$UCSORTHOREF
  2

  9
$UCSORTHOVIEW
 70
     0
  9
$UCSORGTOP
 10
0.0
 20
0.0
 30
0.0
  9
$UCSORGBOTTOM
 10
0.0
 20
0.0
 30
0.0
  9
$UCSORGLEFT
 10
0.0
 20
0.0
 30
0.0
  9
$UCSORGRIGHT
 10
0.0
 20
0.0
 30
0.0
  9
$UCSORGFRONT
 10
0.0
 20
0.0
 30
0.0
  9
$UCSORGBACK
 10
0.0
 20
0.0
 30
0.0
  9
$PUCSBASE
  2

  9
$PUCSNAME
  2

  9
$PUCSORG
 10
0.0
 20
0.0
 30
0.0
  9
$PUCSXDIR
 10
1.0
 20
0.0
 30
0.0
  9
$PUCSYDIR
 10
0.0
 20
1.0
 30
0.0
  9
$PUCSORTHOREF
  2

  9
$PUCSORTHOVIEW
 70
     0
  9
$PUCSORGTOP
 10
0.0
 20
0.0
 30
0.0
  9
$PUCSORGBOTTOM
 10
0.0
 20
0.0
 30
0.0
  9
$PUCSORGLEFT
 10
0.0
 20
0.0
 30
0.0
  9
$PUCSORGRIGHT
 10
0.0
 20
0.0
 30
0.0
  9
$PUCSORGFRONT
 10
0.0
 20
0.0
 30
0.0
  9
$PUCSORGBACK
 10
0.0
 20
0.0
 30
0.0
  9
$USERI1
 70
     0
  9
$USERI2
 70
     0
  9
$USERI3
 70
     0
  9
$USERI4
 70
     0
  9
$USERI5
 70
     0
  9
$USERR1
 40
0.0
  9
$USERR2
 40
0.0
  9
$USERR3
 40
0.0
  9
$USERR4
 40
0.0
  9
$USERR5
 40
0.0
  9
$WORLDVIEW
 70
     1
  9
$SHADEDGE
 70
     3
  9
$SHADEDIF
 70
    70
  9
$TILEMODE
 70
     1
  9
$MAXACTVP
 70
    16
  9
$PINSBASE
 10
0.0
 20
0.0
 30
0.0
  9
$PLIMCHECK
 70
     0
  9
$PEXTMIN
 10
1.000000000000000E+20
 20
1.000000000000000E+20
 30
1.000000000000000E+20
  9
$PEXTMAX
 10
-1.000000000000000E+20
 20
-1.000000000000000E+20
 30
-1.000000000000000E+20
  9
$PLIMMIN
 10
0.0
 20
0.0
  9
$PLIMMAX
 10
12.0
 20
9.0
  9
$UNITMODE
 70
     0
  9
$VISRETAIN
 70
     0
  9
$PLINEGEN
 70
     0
  9
$PSLTSCALE
 70
     0
  9
$TREEDEPTH
 70
  3020
  9
$CMLSTYLE
  2
Standard
  9
$CMLJUST
 70
     0
  9
$CMLSCALE
 40
1.0
  9
$PROXYGRAPHICS
 70
     1
  9
$MEASUREMENT
 70
     0
  9
$CELWEIGHT
370
    -1
  9
$ENDCAPS
280
     0
  9
$JOINSTYLE
280
     0
  9
$LWDISPLAY
290
     0
  9
$INSUNITS
 70
     0
  9
$HYPERLINKBASE
  1

  9
$STYLESHEET
  1
monochrome 1.ctb
  9
$XEDIT
290
     1
  9
$CEPSNTYPE
380
     0
  9
$PSTYLEMODE
290
     1
  9
$FINGERPRINTGUID
  2
{D68B0D02-A558-11D7-B632-000102183313}
  9
$VERSIONGUID
  2
{77460A5F-5BC3-4E95-809B-F0D8DBBE626A}
  9
$EXTNAMES
290
     1
  9
$PSVPSCALE
 40
0.0
  9
$OLESTARTUP
290
     0
  9
$SORTENTS
280
   127
  9
$INDEXCTL
280
     0
  9
$HIDETEXT
280
     0
  9
$XCLIPFRAME
290
     0
  9
$HALOGAP
280
     0
  9
$OBSCOLOR
 70
   257
  9
$OBSLTYPE
280
     0
  9
$INTERSECTIONDISPLAY
280
     0
  9
$INTERSECTIONCOLOR
 70
   257
  9
$DIMASSOC
280
     1
  9
$PROJECTNAME
  1

  0
ENDSEC
  0
SECTION
  2
CLASSES
  0
CLASS
  1
ACDBDICTIONARYWDFLT
  2
AcDbDictionaryWithDefault
  3
ObjectDBX Classes
 90
        0
 91
        1
280
     0
281
     0
  0
CLASS
  1
DICTIONARYVAR
  2
AcDbDictionaryVar
  3
ObjectDBX Classes
 90
        0
 91
        2
280
     0
281
     0
  0
ENDSEC
  0
SECTION
  2
TABLES
  0
TABLE
  2
VPORT
  5
8
330
0
100
AcDbSymbolTable
 70
     2
  0
VPORT
  5
1826
330
8
100
AcDbSymbolTableRecord
100
AcDbViewportTableRecord
  2
*Active
 70
     0
 10
0.0
 20
0.0
 11
1.0
 21
1.0
 12
209.9984131078887
 22
296.9977556811572
 13
0.0
 23
0.0
 14
1.0
 24
1.0
 15
10.0
 25
10.0
 16
0.0
 26
0.0
 36
1.0
 17
0.0
 27
0.0
 37
0.0
 40
598.8104504745508
 41
1.336927223719676
 42
50.0
 43
0.0
 44
0.0
 50
0.0
 51
0.0
 71
     0
 72
  1500
 73
     1
 74
     0
 75
     0
 76
     0
 77
     0
 78
     0
281
     0
 65
     1
110
0.0
120
0.0
130
0.0
111
1.0
121
0.0
131
0.0
112
0.0
122
1.0
132
0.0
 79
     0
146
0.0
  0
ENDTAB
  0
TABLE
  2
LTYPE
  5
5
330
0
100
AcDbSymbolTable
 70
     2
  0
LTYPE
  5
13
330
5
100
AcDbSymbolTableRecord
100
AcDbLinetypeTableRecord
  2
ByBlock
 70
     0
  3

 72
    65
 73
     0
 40
0.0
  0
LTYPE
  5
14
330
5
100
AcDbSymbolTableRecord
100
AcDbLinetypeTableRecord
  2
ByLayer
 70
     0
  3

 72
    65
 73
     0
 40
0.0
  0
LTYPE
  5
15
330
5
100
AcDbSymbolTableRecord
100
AcDbLinetypeTableRecord
  2
Continuous
 70
     0
  3
Solid line
 72
    65
 73
     0
 40
0.0
  0
LTYPE
  5
25
330
5
100
AcDbSymbolTableRecord
100
AcDbLinetypeTableRecord
  2
STRICHPUNKT
 70
     0
  3
__ . __ . __ . __ . __ . __ . __ . __ . __ . __
 72
    65
 73
     4
 40
1.0
 49
0.5
 74
     0
 49
-0.25
 74
     0
 49
0.0
 74
     0
 49
-0.25
 74
     0
  0
ENDTAB
  0
TABLE
  2
LAYER
  5
2
330
0
100
AcDbSymbolTable
 70
     9
  0
LAYER
  5
10
330
2
100
AcDbSymbolTableRecord
100
AcDbLayerTableRecord
  2
0
 70
     0
 62
     7
  6
Continuous
370
    -3
390
F
  0
LAYER
  5
2A
330
2
100
AcDbSymbolTableRecord
100
AcDbLayerTableRecord
  2
VOLL
 70
     0
 62
     1
  6
Continuous
370
    -3
390
F
  0
LAYER
  5
2B
330
2
100
AcDbSymbolTableRecord
100
AcDbLayerTableRecord
  2
HILF
 70
     0
 62
     2
  6
Continuous
370
    -3
390
F
  0
LAYER
  5
2C
330
2
100
AcDbSymbolTableRecord
100
AcDbLayerTableRecord
  2
MITTEL
 70
     0
 62
     2
  6
STRICHPUNKT
370
    -3
390
F
  0
LAYER
  5
2F
330
2
100
AcDbSymbolTableRecord
100
AcDbLayerTableRecord
  2
BEM
 70
     0
 62
     7
  6
Continuous
370
    -3
390
F
  0
LAYER
  5
30
330
2
100
AcDbSymbolTableRecord
100
AcDbLayerTableRecord
  2
STEMPEL
 70
     0
 62
     3
  6
Continuous
370
    -3
390
F
  0
LAYER
  5
31
330
2
100
AcDbSymbolTableRecord
100
AcDbLayerTableRecord
  2
TEXT
 70
     0
 62
     7
  6
Continuous
370
    -3
390
F
  0
LAYER
  5
171
330
2
100
AcDbSymbolTableRecord
100
AcDbLayerTableRecord
  2
Defpoints
 70
     0
 62
     7
  6
Continuous
290
     0
370
    -3
390
F
  0
LAYER
  5
19C
330
2
100
AcDbSymbolTableRecord
100
AcDbLayerTableRecord
  2
SCHRAFF
 70
     0
 62
     7
  6
Continuous
370
    -3
390
F
  0
ENDTAB
  0
TABLE
  2
STYLE
  5
3
330
0
100
AcDbSymbolTable
 70
     2
  0
STYLE
  5
11
330
3
100
AcDbSymbolTableRecord
100
AcDbTextStyleTableRecord
  2
STANDARD
 70
     0
 40
0.0
 41
0.8
 50
0.0
 71
     0
 42
3.5
  3
simplex.shx
  4

  0
STYLE
  5
24
330
3
100
AcDbSymbolTableRecord
100
AcDbTextStyleTableRecord
  2
GREEKS
 70
     0
 40
0.0
 41
0.8
 50
0.0
 71
     0
 42
2.5
  3
SIMPLEX.shx
  4

  0
ENDTAB
  0
TABLE
  2
VIEW
  5
6
330
0
100
AcDbSymbolTable
 70
     0
  0
ENDTAB
  0
TABLE
  2
UCS
  5
7
330
0
100
AcDbSymbolTable
 70
     0
  0
ENDTAB
  0
TABLE
  2
APPID
  5
9
330
0
100
AcDbSymbolTable
 70
     1
  0
APPID
  5
12
330
9
100
AcDbSymbolTableRecord
100
AcDbRegAppTableRecord
  2
ACAD
 70
     0
  0
ENDTAB
  0
TABLE
  2
DIMSTYLE
  5
A
330
0
100
AcDbSymbolTable
 70
     1
100
AcDbDimStyleTable
 71
     1
340
9D
  0
DIMSTYLE
105
9D
102
{ACAD_REACTORS
330
1204
330
1203
330
12BD
330
128E
330
173E
330
174B
330
1758
102
}
330
A
100
AcDbSymbolTableRecord
100
AcDbDimStyleTableRecord
  2
Standard
 70
     0
340
11
  0
ENDTAB
  0
TABLE
  2
BLOCK_RECORD
  5
1
330
0
100
AcDbSymbolTable
 70
     8
  0
BLOCK_RECORD
  5
1E
102
{ACAD_XDICTIONARY
360
A0
102
}
330
1
100
AcDbSymbolTableRecord
100
AcDbBlockTableRecord
  2
*Model_Space
340
21
  0
BLOCK_RECORD
  5
1A
102
{ACAD_XDICTIONARY
360
A2
102
}
330
1
100
AcDbSymbolTableRecord
100
AcDbBlockTableRecord
  2
*Paper_Space
340
1D
  0
BLOCK_RECORD
  5
22
330
1
100
AcDbSymbolTableRecord
100
AcDbBlockTableRecord
  2
LOGO
340
0
102
{BLKREFS
331
9B
102
}
  0
BLOCK_RECORD
  5
124B
330
1
100
AcDbSymbolTableRecord
100
AcDbBlockTableRecord
  2
*D1
340
0
  0
BLOCK_RECORD
  5
1257
330
1
100
AcDbSymbolTableRecord
100
AcDbBlockTableRecord
  2
*D2
340
0
  0
BLOCK_RECORD
  5
130C
330
1
100
AcDbSymbolTableRecord
100
AcDbBlockTableRecord
  2
*D3
340
0
  0
BLOCK_RECORD
  5
1332
330
1
100
AcDbSymbolTableRecord
100
AcDbBlockTableRecord
  2
*D4
340
0
  0
BLOCK_RECORD
  5
173F
330
1
100
AcDbSymbolTableRecord
100
AcDbBlockTableRecord
  2
*D5
340
0
  0
BLOCK_RECORD
  5
174C
330
1
100
AcDbSymbolTableRecord
100
AcDbBlockTableRecord
  2
*D6
340
0
  0
BLOCK_RECORD
  5
1759
330
1
100
AcDbSymbolTableRecord
100
AcDbBlockTableRecord
  2
*D7
340
0
  0
ENDTAB
  0
ENDSEC
  0
SECTION
  2
BLOCKS
  0
BLOCK
  5
35
330
1E
100
AcDbEntity
  8
0
100
AcDbBlockBegin
  2
*Model_Space
 70
     0
 10
0.0
 20
0.0
 30
0.0
  3
*Model_Space
  1

  0
ENDBLK
  5
36
330
1E
100
AcDbEntity
  8
0
100
AcDbBlockEnd
  0
BLOCK
  5
33
330
1A
100
AcDbEntity
 67
     1
  8
0
100
AcDbBlockBegin
  2
*Paper_Space
 70
     0
 10
0.0
 20
0.0
 30
0.0
  3
*Paper_Space
  1

  0
ENDBLK
  5
34
330
1A
100
AcDbEntity
 67
     1
  8
0
100
AcDbBlockEnd
  0
BLOCK
  5
37
330
22
100
AcDbEntity
  8
0
100
AcDbBlockBegin
  2
LOGO
 70
     0
 10
0.0
 20
0.0
 30
0.0
  3
LOGO
  1

  0
ARC
  5
38
330
22
100
AcDbEntity
  8
0
100
AcDbCircle
 10
11.59973089678112
 20
-9.271599258481501
 30
0.0
 40
4.5
100
AcDbArc
 50
270.0
 51
231.0575587310159
  0
LINE
  5
39
330
22
100
AcDbEntity
  8
0
100
AcDbLine
 10
3.599730896781125
 20
-4.771599258481529
 30
0.0
 11
3.599730896781153
 21
-11.77159925848133
 31
0.0
  0
LINE
  5
3A
330
22
100
AcDbEntity
  8
0
100
AcDbLine
 10
2.599730896781125
 20
-4.771599258481529
 30
0.0
 11
2.599730896781153
 21
-11.77159925848133
 31
0.0
  0
CIRCLE
  5
3B
330
22
100
AcDbEntity
  8
0
100
AcDbCircle
 10
11.59973089678112
 20
-9.271599258481501
 30
0.0
 40
3.5
  0
ARC
  5
3C
330
22
100
AcDbEntity
  8
0
100
AcDbCircle
 10
31.59973089678115
 20
-9.271599258481472
 30
0.0
 40
4.5
100
AcDbArc
 50
270.0
 51
231.0575587310182
  0
LINE
  5
3D
330
22
100
AcDbEntity
  8
0
100
AcDbLine
 10
17.59973089678112
 20
-4.771599258481472
 30
0.0
 11
17.59973089678115
 21
-13.77159925848147
 31
0.0
  0
ARC
  5
3E
330
22
100
AcDbEntity
  8
0
100
AcDbCircle
 10
22.59973089678116
 20
-7.271599258481472
 30
0.0
 40
2.5
100
AcDbArc
 50
293.1161887722295
 51
90.0
  0
CIRCLE
  5
3F
330
22
100
AcDbEntity
  8
0
100
AcDbCircle
 10
31.59973089678115
 20
-9.271599258481472
 30
0.0
 40
3.5
  0
ARC
  5
40
330
22
100
AcDbEntity
  8
0
100
AcDbCircle
 10
4.599730896781153
 20
-11.77159925848133
 30
0.0
 40
1.0
100
AcDbArc
 50
180.0
 51
270.0
  0
ARC
  5
41
330
22
100
AcDbEntity
  8
0
100
AcDbCircle
 10
4.599730896781153
 20
-11.77159925848133
 30
0.0
 40
2.0
100
AcDbArc
 50
179.9999999999992
 51
270.0
  0
LINE
  5
42
330
22
100
AcDbEntity
  8
0
100
AcDbLine
 10
11.59973089678115
 20
-13.77159925848144
 30
0.0
 11
4.599730896781153
 21
-13.77159925848147
 31
0.0
  0
LINE
  5
43
330
22
100
AcDbEntity
  8
0
100
AcDbLine
 10
8.771303772034769
 20
-12.77159925848136
 30
0.0
 11
4.599730896781153
 21
-12.77159925848133
 31
0.0
  0
LINE
  5
44
330
22
100
AcDbEntity
  8
0
100
AcDbLine
 10
31.59973089678115
 20
-13.77159925848147
 30
0.0
 11
23.6715276665056
 21
-13.77159925848144
 31
0.0
  0
LINE
  5
45
330
22
100
AcDbEntity
  8
0
100
AcDbLine
 10
23.56565672307022
 20
-9.51278021337896
 30
0.0
 11
24.4388546544846
 21
-12.77159925848144
 31
0.0
  0
LINE
  5
46
330
22
100
AcDbEntity
  8
0
100
AcDbLine
 10
22.59973089678116
 20
-9.771599258481472
 30
0.0
 11
18.59973089678112
 21
-9.771599258481472
 31
0.0
  0
LINE
  5
47
330
22
100
AcDbEntity
  8
0
100
AcDbLine
 10
18.59973089678115
 20
-13.77159925848144
 30
0.0
 11
17.59973089678115
 21
-13.77159925848144
 31
0.0
  0
LINE
  5
48
330
22
100
AcDbEntity
  8
0
100
AcDbLine
 10
18.59973089678115
 20
-9.771599258481472
 30
0.0
 11
18.59973089678115
 21
-13.77159925848144
 31
0.0
  0
LINE
  5
49
330
22
100
AcDbEntity
  8
0
100
AcDbLine
 10
22.59973089678116
 20
-9.771599258481472
 30
0.0
 11
23.67152766650562
 21
-13.77159925848147
 31
0.0
  0
ARC
  5
4A
330
22
100
AcDbEntity
  8
0
100
AcDbCircle
 10
22.59973089678116
 20
-7.271599258481472
 30
0.0
 40
2.5
100
AcDbArc
 50
270.0
 51
270.0000000000007
  0
LINE
  5
4B
330
22
100
AcDbEntity
  8
0
100
AcDbLine
 10
28.77130377203494
 20
-12.77159925848147
 30
0.0
 11
24.43885465448463
 21
-12.77159925848144
 31
0.0
  0
LINE
  5
4C
330
22
100
AcDbEntity
  8
0
100
AcDbLine
 10
3.599730896781125
 20
-4.771599258481472
 30
0.0
 11
2.599730896781125
 21
-4.771599258481472
 31
0.0
  0
LINE
  5
4D
330
22
100
AcDbEntity
  8
0
100
AcDbLine
 10
22.59973089678116
 20
-8.771599258481472
 30
0.0
 11
18.59973089678115
 21
-8.771599258481472
 31
0.0
  0
LINE
  5
4E
330
22
100
AcDbEntity
  8
0
100
AcDbLine
 10
22.59973089678116
 20
-5.771599258481472
 30
0.0
 11
18.59973089678115
 21
-5.771599258481472
 31
0.0
  0
LINE
  5
4F
330
22
100
AcDbEntity
  8
0
100
AcDbLine
 10
22.59973089678116
 20
-4.771599258481472
 30
0.0
 11
17.59973089678115
 21
-4.771599258481472
 31
0.0
  0
LINE
  5
50
330
22
100
AcDbEntity
  8
0
100
AcDbLine
 10
18.59973089678115
 20
-5.771599258481472
 30
0.0
 11
18.59973089678115
 21
-8.771599258481472
 31
0.0
  0
ARC
  5
51
330
22
100
AcDbEntity
  8
0
100
AcDbCircle
 10
22.59973089678116
 20
-7.271599258481472
 30
0.0
 40
1.5
100
AcDbArc
 50
270.0
 51
90.0
  0
ENDBLK
  5
52
330
22
100
AcDbEntity
  8
0
100
AcDbBlockEnd
  0
BLOCK
  5
1255
330
124B
100
AcDbEntity
  8
0
100
AcDbBlockBegin
  2
*D1
 70
     1
 10
0.0
 20
0.0
 30
0.0
  3
*D1
  1

  0
LINE
  5
148F
330
124B
100
AcDbEntity
  8
BEM
 62
     0
370
    -2
100
AcDbLine
 10
183.5893405031461
 20
252.0445990237886
 30
0.0
 11
183.5893405031461
 21
226.8234963310388
 31
0.0
  0
LINE
  5
1490
330
124B
100
AcDbEntity
  8
BEM
 62
     0
370
    -2
100
AcDbLine
 10
236.589340503138
 20
252.044599023876
 30
0.0
 11
236.589340503138
 21
226.8234963310388
 31
0.0
  0
LINE
  5
1491
330
124B
100
AcDbEntity
  8
BEM
 62
     0
370
    -2
100
AcDbLine
 10
190.5893405031461
 20
228.8234963310388
 30
0.0
 11
229.589340503138
 21
228.8234963310388
 31
0.0
  0
SOLID
  5
1492
330
124B
100
AcDbEntity
  8
BEM
 62
     0
100
AcDbTrace
 10
190.5893405031461
 20
229.9901629977055
 30
0.0
 11
190.5893405031461
 21
227.6568296643721
 31
0.0
 12
183.5893405031461
 22
228.8234963310388
 32
0.0
 13
183.5893405031461
 23
228.8234963310388
 33
0.0
  0
SOLID
  5
1493
330
124B
100
AcDbEntity
  8
BEM
 62
     0
100
AcDbTrace
 10
229.589340503138
 20
229.9901629977055
 30
0.0
 11
229.589340503138
 21
227.6568296643721
 31
0.0
 12
236.589340503138
 22
228.8234963310388
 32
0.0
 13
236.589340503138
 23
228.8234963310388
 33
0.0
  0
MTEXT
  5
1494
330
124B
100
AcDbEntity
  8
BEM
 62
     1
100
AcDbMText
 10
210.089340503142
 20
235.3234963310388
 30
0.0
 40
7.0
 41
0.0
 71
     5
 72
     1
  1
\A1;%%c53
  7
GREEKS
 73
     1
 44
1.0
  0
POINT
  5
1495
330
124B
100
AcDbEntity
  8
Defpoints
 62
     0
100
AcDbPoint
 10
183.5893405031461
 20
254.0445990237886
 30
0.0
  0
POINT
  5
1496
330
124B
100
AcDbEntity
  8
Defpoints
 62
     0
100
AcDbPoint
 10
236.589340503138
 20
254.044599023876
 30
0.0
  0
POINT
  5
1497
330
124B
100
AcDbEntity
  8
Defpoints
 62
     0
100
AcDbPoint
 10
236.589340503138
 20
228.8234963310388
 30
0.0
  0
ENDBLK
  5
1256
330
124B
100
AcDbEntity
  8
0
100
AcDbBlockEnd
  0
BLOCK
  5
1261
330
1257
100
AcDbEntity
  8
0
100
AcDbBlockBegin
  2
*D2
 70
     1
 10
0.0
 20
0.0
 30
0.0
  3
*D2
  1

  0
LINE
  5
1498
330
1257
100
AcDbEntity
  8
BEM
 62
     0
370
    -2
100
AcDbLine
 10
183.5893405031461
 20
252.0445990237886
 30
0.0
 11
183.5893405031461
 21
226.8234963310388
 31
0.0
  0
LINE
  5
1499
330
1257
100
AcDbEntity
  8
BEM
 62
     0
370
    -2
100
AcDbLine
 10
236.589340503138
 20
252.044599023876
 30
0.0
 11
236.589340503138
 21
226.8234963310388
 31
0.0
  0
LINE
  5
149A
330
1257
100
AcDbEntity
  8
BEM
 62
     0
370
    -2
100
AcDbLine
 10
190.5893405031461
 20
228.8234963310388
 30
0.0
 11
229.589340503138
 21
228.8234963310388
 31
0.0
  0
SOLID
  5
149B
330
1257
100
AcDbEntity
  8
BEM
 62
     0
100
AcDbTrace
 10
190.5893405031461
 20
229.9901629977055
 30
0.0
 11
190.5893405031461
 21
227.6568296643721
 31
0.0
 12
183.5893405031461
 22
228.8234963310388
 32
0.0
 13
183.5893405031461
 23
228.8234963310388
 33
0.0
  0
SOLID
  5
149C
330
1257
100
AcDbEntity
  8
BEM
 62
     0
100
AcDbTrace
 10
229.589340503138
 20
229.9901629977055
 30
0.0
 11
229.589340503138
 21
227.6568296643721
 31
0.0
 12
236.589340503138
 22
228.8234963310388
 32
0.0
 13
236.589340503138
 23
228.8234963310388
 33
0.0
  0
MTEXT
  5
149D
330
1257
100
AcDbEntity
  8
BEM
 62
     1
100
AcDbMText
 10
210.089340503142
 20
235.3234963310388
 30
0.0
 40
7.0
 41
0.0
 71
     5
 72
     1
  1
\A1;%%c53
  7
GREEKS
 73
     1
 44
1.0
  0
POINT
  5
149E
330
1257
100
AcDbEntity
  8
Defpoints
 62
     0
100
AcDbPoint
 10
183.5893405031461
 20
254.0445990237886
 30
0.0
  0
POINT
  5
149F
330
1257
100
AcDbEntity
  8
Defpoints
 62
     0
100
AcDbPoint
 10
236.589340503138
 20
254.044599023876
 30
0.0
  0
POINT
  5
14A0
330
1257
100
AcDbEntity
  8
Defpoints
 62
     0
100
AcDbPoint
 10
236.589340503138
 20
228.8234963310388
 30
0.0
  0
ENDBLK
  5
1262
330
1257
100
AcDbEntity
  8
0
100
AcDbBlockEnd
  0
BLOCK
  5
1316
330
130C
100
AcDbEntity
  8
0
100
AcDbBlockBegin
  2
*D3
 70
     1
 10
0.0
 20
0.0
 30
0.0
  3
*D3
  1

  0
LINE
  5
17E9
330
130C
100
AcDbEntity
  8
BEM
 62
     0
370
    -2
100
AcDbLine
 10
223.5381980149078
 20
453.4084467507552
 30
0.0
 11
229.1676797827721
 21
463.1589951929801
 31
0.0
  0
LINE
  5
17EA
330
130C
100
AcDbEntity
  8
BEM
 62
     0
370
    -2
100
AcDbLine
 10
300.6144589517227
 20
408.9084467507552
 30
0.0
 11
306.2439407195891
 21
418.6589951929836
 31
0.0
  0
LINE
  5
17EB
330
130C
100
AcDbEntity
  8
BEM
 62
     0
370
    -2
100
AcDbLine
 10
234.2298576092634
 20
457.9269443854114
 30
0.0
 11
299.181762893098
 21
420.4269443854143
 31
0.0
  0
SOLID
  5
17EC
330
130C
100
AcDbEntity
  8
BEM
 62
     0
100
AcDbTrace
 10
234.8131909425967
 20
458.9373073564932
 30
0.0
 11
233.6465242759302
 21
456.9165814143296
 31
0.0
 12
228.1676797827723
 22
461.4269443854111
 32
0.0
 13
228.1676797827723
 23
461.4269443854111
 33
0.0
  0
SOLID
  5
17ED
330
130C
100
AcDbEntity
  8
BEM
 62
     0
100
AcDbTrace
 10
299.7650962264312
 20
421.4373073564962
 30
0.0
 11
298.5984295597647
 21
419.4165814143326
 31
0.0
 12
305.2439407195892
 22
416.9269443854147
 32
0.0
 13
305.2439407195892
 23
416.9269443854147
 33
0.0
  0
MTEXT
  5
17EE
330
130C
100
AcDbEntity
  8
BEM
 62
     1
100
AcDbMText
 10
269.9558102511804
 20
444.8061095100119
 30
0.0
 40
7.0
 41
0.0
 71
     5
 72
     1
  1
\A1;%%c89
  7
GREEKS
 11
0.8660254037844611
 21
-0.499999999999961
 31
0.0
 73
     1
 44
1.0
  0
POINT
  5
17EF
330
130C
100
AcDbEntity
  8
Defpoints
 62
     0
100
AcDbPoint
 10
222.5381980149078
 20
451.6763959431863
 30
0.0
  0
POINT
  5
17F0
330
130C
100
AcDbEntity
  8
Defpoints
 62
     0
100
AcDbPoint
 10
299.6144589517227
 20
407.1763959431863
 30
0.0
  0
POINT
  5
17F1
330
130C
100
AcDbEntity
  8
Defpoints
 62
     0
100
AcDbPoint
 10
305.2439407195892
 20
416.9269443854147
 30
0.0
  0
ENDBLK
  5
1317
330
130C
100
AcDbEntity
  8
0
100
AcDbBlockEnd
  0
BLOCK
  5
133C
330
1332
100
AcDbEntity
  8
0
100
AcDbBlockBegin
  2
*D4
 70
     1
 10
0.0
 20
0.0
 30
0.0
  3
*D4
  1

  0
LINE
  5
17F2
330
1332
100
AcDbEntity
  8
BEM
 62
     0
370
    -2
100
AcDbLine
 10
223.5381980149078
 20
453.4084467507552
 30
0.0
 11
229.1676797827721
 21
463.1589951929801
 31
0.0
  0
LINE
  5
17F3
330
1332
100
AcDbEntity
  8
BEM
 62
     0
370
    -2
100
AcDbLine
 10
300.6144589517227
 20
408.9084467507552
 30
0.0
 11
306.2439407195891
 21
418.6589951929836
 31
0.0
  0
LINE
  5
17F4
330
1332
100
AcDbEntity
  8
BEM
 62
     0
370
    -2
100
AcDbLine
 10
234.2298576092634
 20
457.9269443854114
 30
0.0
 11
299.181762893098
 21
420.4269443854143
 31
0.0
  0
SOLID
  5
17F5
330
1332
100
AcDbEntity
  8
BEM
 62
     0
100
AcDbTrace
 10
234.8131909425967
 20
458.9373073564932
 30
0.0
 11
233.6465242759302
 21
456.9165814143296
 31
0.0
 12
228.1676797827723
 22
461.4269443854111
 32
0.0
 13
228.1676797827723
 23
461.4269443854111
 33
0.0
  0
SOLID
  5
17F6
330
1332
100
AcDbEntity
  8
BEM
 62
     0
100
AcDbTrace
 10
299.7650962264312
 20
421.4373073564962
 30
0.0
 11
298.5984295597647
 21
419.4165814143326
 31
0.0
 12
305.2439407195892
 22
416.9269443854147
 32
0.0
 13
305.2439407195892
 23
416.9269443854147
 33
0.0
  0
MTEXT
  5
17F7
330
1332
100
AcDbEntity
  8
BEM
 62
     1
100
AcDbMText
 10
269.9558102511804
 20
444.8061095100119
 30
0.0
 40
7.0
 41
0.0
 71
     5
 72
     1
  1
\A1;%%c89
  7
GREEKS
 11
0.8660254037844611
 21
-0.499999999999961
 31
0.0
 73
     1
 44
1.0
  0
POINT
  5
17F8
330
1332
100
AcDbEntity
  8
Defpoints
 62
     0
100
AcDbPoint
 10
222.5381980149078
 20
451.6763959431863
 30
0.0
  0
POINT
  5
17F9
330
1332
100
AcDbEntity
  8
Defpoints
 62
     0
100
AcDbPoint
 10
299.6144589517227
 20
407.1763959431863
 30
0.0
  0
POINT
  5
17FA
330
1332
100
AcDbEntity
  8
Defpoints
 62
     0
100
AcDbPoint
 10
305.2439407195892
 20
416.9269443854147
 30
0.0
  0
ENDBLK
  5
133D
330
1332
100
AcDbEntity
  8
0
100
AcDbBlockEnd
  0
BLOCK
  5
1749
330
173F
100
AcDbEntity
  8
0
100
AcDbBlockBegin
  2
*D5
 70
     1
 10
0.0
 20
0.0
 30
0.0
  3
*D5
  1

  0
LINE
  5
17E0
330
173F
100
AcDbEntity
  8
BEM
 62
     0
370
    -2
100
AcDbLine
 10
163.5893405031383
 20
279.1100904382446
 30
0.0
 11
148.7246646234507
 21
279.1100904382446
 31
0.0
  0
LINE
  5
17E1
330
173F
100
AcDbEntity
  8
BEM
 62
     0
370
    -2
100
AcDbLine
 10
182.0210540644527
 20
249.1100904382445
 30
0.0
 11
148.7246646234507
 21
249.1100904382445
 31
0.0
  0
LINE
  5
17E2
330
173F
100
AcDbEntity
  8
BEM
 62
     0
370
    -2
100
AcDbLine
 10
150.7246646234507
 20
272.1100904382446
 30
0.0
 11
150.7246646234507
 21
256.1100904382444
 31
0.0
  0
SOLID
  5
17E3
330
173F
100
AcDbEntity
  8
BEM
 62
     0
100
AcDbTrace
 10
149.5579979567841
 20
272.1100904382446
 30
0.0
 11
151.8913312901174
 21
272.1100904382446
 31
0.0
 12
150.7246646234507
 22
279.1100904382446
 32
0.0
 13
150.7246646234507
 23
279.1100904382446
 33
0.0
  0
SOLID
  5
17E4
330
173F
100
AcDbEntity
  8
BEM
 62
     0
100
AcDbTrace
 10
149.5579979567841
 20
256.1100904382444
 30
0.0
 11
151.8913312901174
 21
256.1100904382444
 31
0.0
 12
150.7246646234507
 22
249.1100904382445
 32
0.0
 13
150.7246646234507
 23
249.1100904382445
 33
0.0
  0
MTEXT
  5
17E5
330
173F
100
AcDbEntity
  8
BEM
 62
     1
100
AcDbMText
 10
144.2246646234507
 20
264.1100904382446
 30
0.0
 40
7.0
 41
0.0
 71
     5
 72
     1
  1
\A1;30
 11
0.0000000000000001
 21
1.0
 31
0.0
 73
     1
 44
1.0
  0
POINT
  5
17E6
330
173F
100
AcDbEntity
  8
Defpoints
 62
     0
100
AcDbPoint
 10
165.5893405031384
 20
279.1100904382446
 30
0.0
  0
POINT
  5
17E7
330
173F
100
AcDbEntity
  8
Defpoints
 62
     0
100
AcDbPoint
 10
184.0210540644527
 20
249.1100904382445
 30
0.0
  0
POINT
  5
17E8
330
173F
100
AcDbEntity
  8
Defpoints
 62
     0
100
AcDbPoint
 10
150.7246646234507
 20
249.1100904382445
 30
0.0
  0
ENDBLK
  5
174A
330
173F
100
AcDbEntity
  8
0
100
AcDbBlockEnd
  0
BLOCK
  5
1756
330
174C
100
AcDbEntity
  8
0
100
AcDbBlockBegin
  2
*D6
 70
     1
 10
0.0
 20
0.0
 30
0.0
  3
*D6
  1

  0
LINE
  5
17D7
330
174C
100
AcDbEntity
  8
BEM
 62
     0
370
    -2
100
AcDbLine
 10
182.0210540644527
 20
249.1100904382445
 30
0.0
 11
133.90856554537
 21
249.1100904382445
 31
0.0
  0
LINE
  5
17D8
330
174C
100
AcDbEntity
  8
BEM
 62
     0
370
    -2
100
AcDbLine
 10
208.0893405031379
 20
341.106322059834
 30
0.0
 11
133.90856554537
 21
341.106322059834
 31
0.0
  0
LINE
  5
17D9
330
174C
100
AcDbEntity
  8
BEM
 62
     0
370
    -2
100
AcDbLine
 10
135.90856554537
 20
256.1100904382444
 30
0.0
 11
135.90856554537
 21
334.1063220598341
 31
0.0
  0
SOLID
  5
17DA
330
174C
100
AcDbEntity
  8
BEM
 62
     0
100
AcDbTrace
 10
134.7418988787033
 20
256.1100904382444
 30
0.0
 11
137.0752322120367
 21
256.1100904382444
 31
0.0
 12
135.90856554537
 22
249.1100904382445
 32
0.0
 13
135.90856554537
 23
249.1100904382445
 33
0.0
  0
SOLID
  5
17DB
330
174C
100
AcDbEntity
  8
BEM
 62
     0
100
AcDbTrace
 10
134.7418988787034
 20
334.1063220598341
 30
0.0
 11
137.0752322120367
 21
334.1063220598341
 31
0.0
 12
135.90856554537
 22
341.106322059834
 32
0.0
 13
135.90856554537
 23
341.106322059834
 33
0.0
  0
MTEXT
  5
17DC
330
174C
100
AcDbEntity
  8
BEM
 62
     1
100
AcDbMText
 10
129.40856554537
 20
295.1082062490393
 30
0.0
 40
7.0
 41
0.0
 71
     5
 72
     1
  1
\A1;92
 11
0.0000000000000001
 21
1.0
 31
0.0
 73
     1
 44
1.0
  0
POINT
  5
17DD
330
174C
100
AcDbEntity
  8
Defpoints
 62
     0
100
AcDbPoint
 10
184.0210540644527
 20
249.1100904382445
 30
0.0
  0
POINT
  5
17DE
330
174C
100
AcDbEntity
  8
Defpoints
 62
     0
100
AcDbPoint
 10
210.0893405031379
 20
341.106322059834
 30
0.0
  0
POINT
  5
17DF
330
174C
100
AcDbEntity
  8
Defpoints
 62
     0
100
AcDbPoint
 10
135.90856554537
 20
341.106322059834
 30
0.0
  0
ENDBLK
  5
1757
330
174C
100
AcDbEntity
  8
0
100
AcDbBlockEnd
  0
BLOCK
  5
1763
330
1759
100
AcDbEntity
  8
0
100
AcDbBlockBegin
  2
*D7
 70
     1
 10
0.0
 20
0.0
 30
0.0
  3
*D7
  1

  0
LINE
  5
175A
330
1759
100
AcDbEntity
  8
BEM
 62
     0
370
    -2
100
AcDbLine
 10
220.8060700566379
 20
452.6762623023462
 30
0.0
 11
204.3906706469551
 21
462.1520089199977
 31
0.0
  0
LINE
  5
175B
330
1759
100
AcDbEntity
  8
BEM
 62
     0
370
    -2
100
AcDbLine
 10
208.3533556100347
 20
342.0917891160473
 30
0.0
 11
153.3981092435607
 21
373.8145621587889
 31
0.0
  0
LINE
  5
175C
330
1759
100
AcDbEntity
  8
BEM
 62
     0
370
    -2
100
AcDbLine
 10
202.6232663481652
 20
455.0896947068931
 30
0.0
 11
158.6297694588904
 21
378.8771436535736
 31
0.0
  0
SOLID
  5
175D
330
1759
100
AcDbEntity
  8
BEM
 62
     0
100
AcDbTrace
 10
201.6128583725079
 20
455.6729500830697
 30
0.0
 11
203.6336743238227
 21
454.5064393307164
 31
0.0
 12
206.122798605225
 22
461.1521425608377
 32
0.0
 13
206.122798605225
 23
461.1521425608377
 33
0.0
  0
SOLID
  5
175E
330
1759
100
AcDbEntity
  8
BEM
 62
     0
100
AcDbTrace
 10
157.6193614832329
 20
379.4603990297503
 30
0.0
 11
159.6401774345478
 21
378.293888277397
 31
0.0
 12
155.1302372018306
 22
372.814695799629
 32
0.0
 13
155.1302372018306
 23
372.814695799629
 33
0.0
  0
MTEXT
  5
175F
330
1759
100
AcDbEntity
  8
BEM
 62
     1
100
AcDbMText
 10
174.9971020391506
 20
420.2329848475032
 30
0.0
 40
7.0
 41
0.0
 71
     5
 72
     1
  1
\A1;102
 11
0.4999331795799661
 21
0.8660639791349513
 31
0.0
 73
     1
 44
1.0
  0
POINT
  5
1760
330
1759
100
AcDbEntity
  8
Defpoints
 62
     0
100
AcDbPoint
 10
222.5381980149078
 20
451.6763959431862
 30
0.0
  0
POINT
  5
1761
330
1759
100
AcDbEntity
  8
Defpoints
 62
     0
100
AcDbPoint
 10
210.0854835683046
 20
341.0919227568874
 30
0.0
  0
POINT
  5
1762
330
1759
100
AcDbEntity
  8
Defpoints
 62
     0
100
AcDbPoint
 10
155.1302372018306
 20
372.814695799629
 30
0.0
  0
ENDBLK
  5
1764
330
1759
100
AcDbEntity
  8
0
100
AcDbBlockEnd
  0
ENDSEC
  0
SECTION
  2
ENTITIES
  0
LINE
  5
57
330
1E
100
AcDbEntity
  8
STEMPEL
100
AcDbLine
 10
410.0
 20
110.0
 30
0.0
 11
39.99999999999997
 21
110.0
 31
0.0
  0
LINE
  5
58
330
1E
100
AcDbEntity
  8
STEMPEL
100
AcDbLine
 10
146.0000000000001
 20
109.9999999999999
 30
0.0
 11
146.0
 21
9.999999999999971
 31
0.0
  0
LINE
  5
59
330
1E
100
AcDbEntity
  8
STEMPEL
100
AcDbLine
 10
230.0
 20
110.0
 30
0.0
 11
230.0
 21
9.999999999999971
 31
0.0
  0
LINE
  5
5A
330
1E
100
AcDbEntity
  8
STEMPEL
100
AcDbLine
 10
332.0
 20
109.9999999999997
 30
0.0
 11
332.0
 21
40.0
 31
0.0
  0
LINE
  5
5B
330
1E
100
AcDbEntity
  8
STEMPEL
100
AcDbLine
 10
145.9999999999999
 20
29.99999999999997
 30
0.0
 11
39.99999999999997
 21
29.99999999999997
 31
0.0
  0
LINE
  5
5C
330
1E
100
AcDbEntity
  8
STEMPEL
100
AcDbLine
 10
410.0
 20
40.0
 30
0.0
 11
146.0000000000001
 21
39.99999999999997
 31
0.0
  0
LINE
  5
5D
330
1E
100
AcDbEntity
  8
STEMPEL
100
AcDbLine
 10
410.0
 20
80.0
 30
0.0
 11
146.0000000000001
 21
79.99999999999994
 31
0.0
  0
LINE
  5
5E
330
1E
100
AcDbEntity
  8
VOLL
100
AcDbLine
 10
54.00000000000009
 20
110.0
 30
0.0
 11
53.99999999999997
 21
9.999999999999971
 31
0.0
  0
LINE
  5
5F
330
1E
100
AcDbEntity
  8
VOLL
100
AcDbLine
 10
104.0000000000001
 20
109.9999999999999
 30
0.0
 11
104.0
 21
9.999999999999971
 31
0.0
  0
LINE
  5
60
330
1E
100
AcDbEntity
  8
VOLL
100
AcDbLine
 10
124.0000000000001
 20
109.9999999999999
 30
0.0
 11
124.0
 21
9.999999999999971
 31
0.0
  0
LINE
  5
61
330
1E
100
AcDbEntity
  8
VOLL
100
AcDbLine
 10
164.0000000000001
 20
79.99999999999994
 30
0.0
 11
164.0000000000001
 21
39.99999999999997
 31
0.0
  0
LINE
  5
62
330
1E
100
AcDbEntity
  8
VOLL
100
AcDbLine
 10
190.0000000000001
 20
109.9999999999998
 30
0.0
 11
190.0
 21
39.99999999999997
 31
0.0
  0
LINE
  5
63
330
1E
100
AcDbEntity
  8
HILF
100
AcDbLine
 10
40.00000000000008
 20
100.0
 30
0.0
 11
146.0000000000001
 21
100.0
 31
0.0
  0
LINE
  5
64
330
1E
100
AcDbEntity
  8
HILF
100
AcDbLine
 10
40.00000000000008
 20
90.00000000000005
 30
0.0
 11
146.0000000000001
 21
90.00000000000005
 31
0.0
  0
LINE
  5
65
330
1E
100
AcDbEntity
  8
HILF
100
AcDbLine
 10
40.00000000000008
 20
79.99999999999994
 30
0.0
 11
146.0000000000001
 21
79.99999999999994
 31
0.0
  0
LINE
  5
66
330
1E
100
AcDbEntity
  8
HILF
100
AcDbLine
 10
40.00000000000008
 20
69.99999999999994
 30
0.0
 11
146.0000000000001
 21
69.99999999999994
 31
0.0
  0
LINE
  5
67
330
1E
100
AcDbEntity
  8
HILF
100
AcDbLine
 10
40.00000000000008
 20
59.99999999999997
 30
0.0
 11
146.0000000000001
 21
59.99999999999997
 31
0.0
  0
LINE
  5
68
330
1E
100
AcDbEntity
  8
HILF
100
AcDbLine
 10
40.00000000000008
 20
49.99999999999997
 30
0.0
 11
146.0000000000001
 21
49.99999999999997
 31
0.0
  0
LINE
  5
69
330
1E
100
AcDbEntity
  8
HILF
100
AcDbLine
 10
40.00000000000008
 20
39.99999999999997
 30
0.0
 11
146.0000000000001
 21
39.99999999999997
 31
0.0
  0
LINE
  5
6A
330
1E
100
AcDbEntity
  8
HILF
100
AcDbLine
 10
146.0000000000001
 20
69.99999999999994
 30
0.0
 11
230.0
 21
69.99999999999994
 31
0.0
  0
LINE
  5
6B
330
1E
100
AcDbEntity
  8
HILF
100
AcDbLine
 10
146.0000000000001
 20
59.99999999999997
 30
0.0
 11
230.0
 21
59.99999999999997
 31
0.0
  0
LINE
  5
6C
330
1E
100
AcDbEntity
  8
HILF
100
AcDbLine
 10
146.0000000000001
 20
49.99999999999997
 30
0.0
 11
230.0
 21
49.99999999999997
 31
0.0
  0
LINE
  5
6D
330
1E
100
AcDbEntity
  8
HILF
100
AcDbLine
 10
234.7736801096947
 20
84.03758247564139
 30
0.0
 11
324.8353916556311
 21
84.03758247564139
 31
0.0
  0
LINE
  5
6E
330
1E
100
AcDbEntity
  8
HILF
100
AcDbLine
 10
234.7736801096947
 20
69.99999999999994
 30
0.0
 11
324.835391655631
 21
69.99999999999994
 31
0.0
  0
LINE
  5
6F
330
1E
100
AcDbEntity
  8
HILF
100
AcDbLine
 10
234.7736801096947
 20
59.99999999999997
 30
0.0
 11
324.835391655631
 21
59.99999999999997
 31
0.0
  0
LINE
  5
70
330
1E
100
AcDbEntity
  8
HILF
100
AcDbLine
 10
234.7736801096947
 20
49.99999999999997
 30
0.0
 11
324.835391655631
 21
49.99999999999997
 31
0.0
  0
LINE
  5
71
330
1E
100
AcDbEntity
  8
VOLL
100
AcDbLine
 10
332.0
 20
60.0
 30
0.0
 11
410.0
 21
60.0
 31
0.0
  0
LINE
  5
72
330
1E
100
AcDbEntity
  8
HILF
100
AcDbLine
 10
336.7238616296993
 20
83.77983636955827
 30
0.0
 11
404.8588839326728
 21
83.77983636955827
 31
0.0
  0
LINE
  5
73
330
1E
100
AcDbEntity
  8
HILF
100
AcDbLine
 10
233.4909699289885
 20
14.89398258028314
 30
0.0
 11
404.8588839326728
 21
14.89398258028314
 31
0.0
  0
TEXT
  5
74
330
1E
100
AcDbEntity
  8
TEXT
100
AcDbText
 10
67.79509897490102
 20
18.67381894984132
 30
0.0
 40
4.0
  1
Änderung
 41
0.8
  7
GREEKS
 72
     1
 11
78.53795611775817
 21
18.67381894984132
 31
0.0
100
AcDbText
  0
TEXT
  5
75
330
1E
100
AcDbEntity
  8
TEXT
100
AcDbText
 10
153.5163572150377
 20
102.4620895087088
 30
0.0
 40
5.0
  1
Maßstab
 41
0.8
  7
GREEKS
100
AcDbText
  0
TEXT
  5
76
330
1E
100
AcDbEntity
  8
TEXT
100
AcDbText
 10
194.2858954734051
 20
102.4184168434819
 30
0.0
 40
5.0
  1
Zul. Abw.
 41
0.8
  7
GREEKS
100
AcDbText
  0
TEXT
  5
77
330
1E
100
AcDbEntity
  8
TEXT
100
AcDbText
 10
234.877940380901
 20
102.5489328011779
 30
0.0
 40
5.0
  1
Benennung
 41
0.8
  7
GREEKS
100
AcDbText
  0
TEXT
  5
78
330
1E
100
AcDbEntity
  8
TEXT
100
AcDbText
 10
336.178754957634
 20
102.3132034537136
 30
0.0
 40
5.0
  1
Zeichnungs Nr.
 41
0.8
  7
GREEKS
100
AcDbText
  0
TEXT
  5
79
330
1E
100
AcDbEntity
  8
TEXT
100
AcDbText
 10
234.742238391136
 20
30.84560570193057
 30
0.0
 40
5.0
  1
Bauvorhaben
 41
0.8
  7
GREEKS
100
AcDbText
  0
TEXT
  5
7A
330
1E
100
AcDbEntity
  8
TEXT
100
AcDbText
 10
336.7238616296993
 20
73.1811823709997
 30
0.0
 40
5.0
  1
Ersatz für:
 41
0.8
  7
GREEKS
100
AcDbText
  0
TEXT
  5
7B
330
1E
100
AcDbEntity
  8
TEXT
100
AcDbText
 10
48.26641107045756
 20
13.65465846027192
 30
0.0
 40
4.0
  1
Index
 50
90.0
 41
0.8
  7
GREEKS
100
AcDbText
  0
TEXT
  5
7C
330
1E
100
AcDbEntity
  8
TEXT
100
AcDbText
 10
110.6986119235389
 20
18.6715626933981
 30
0.0
 40
4.0
  1
Tag
 41
0.8
  7
GREEKS
 72
     1
 11
114.4319452568723
 21
18.6715626933981
 31
0.0
100
AcDbText
  0
TEXT
  5
7D
330
1E
100
AcDbEntity
  8
TEXT
100
AcDbText
 10
129.0122744386592
 20
18.59324216966408
 30
0.0
 40
4.0
  1
Name
 41
0.8
  7
GREEKS
 72
     1
 11
135.3360839624688
 21
18.59324216966408
 31
0.0
100
AcDbText
  0
TEXT
  5
7E
330
1E
100
AcDbEntity
  8
TEXT
100
AcDbText
 10
172.331167315365
 20
73.31880501229926
 30
0.0
 40
4.0
  1
Tag
 41
0.8
  7
GREEKS
100
AcDbText
  0
TEXT
  5
7F
330
1E
100
AcDbEntity
  8
TEXT
100
AcDbText
 10
202.4626584226295
 20
73.30961091915225
 30
0.0
 40
4.0
  1
Name
 41
0.8
  7
GREEKS
100
AcDbText
  0
TEXT
  5
80
330
1E
100
AcDbEntity
  8
TEXT
100
AcDbText
 10
147.5836127167615
 20
63.62990369617964
 30
0.0
 40
4.0
  1
Gez.
 41
0.8
  7
GREEKS
100
AcDbText
  0
TEXT
  5
81
330
1E
100
AcDbEntity
  8
TEXT
100
AcDbText
 10
147.5515086571672
 20
53.68926291428377
 30
0.0
 40
4.0
  1
Gepr.
 41
0.8
  7
GREEKS
100
AcDbText
  0
TEXT
  5
82
330
1E
100
AcDbEntity
  8
TEXT
100
AcDbText
 10
147.6006777387303
 20
43.52946389649807
 30
0.0
 40
4.0
  1
Norm.
 41
0.8
  7
GREEKS
100
AcDbText
  0
LINE
  5
83
330
1E
100
AcDbEntity
  8
STEMPEL
100
AcDbLine
 10
49.99999999999989
 20
10.0
 30
0.0
 11
410.0
 21
10.0
 31
0.0
  0
TEXT
  5
84
330
1E
100
AcDbEntity
  8
TEXT
100
AcDbText
 10
337.2400861497006
 20
52.07416177878602
 30
0.0
 40
5.0
  1
ersetzt durch:
 41
0.8
  7
GREEKS
100
AcDbText
  0
LINE
  5
85
330
1E
100
AcDbEntity
  8
STEMPEL
100
AcDbLine
 10
410.0
 20
10.0
 30
0.0
 11
39.99999999999989
 21
10.0
 31
0.0
  0
LINE
  5
86
330
1E
100
AcDbEntity
  8
STEMPEL
100
AcDbLine
 10
410.0
 20
10.0
 30
0.0
 11
410.0
 21
584.0
 31
0.0
  0
LINE
  5
87
330
1E
100
AcDbEntity
  8
STEMPEL
100
AcDbLine
 10
40.0
 20
10.0
 30
0.0
 11
39.99999999999989
 21
584.0
 31
0.0
  0
LINE
  5
88
330
1E
100
AcDbEntity
  8
STEMPEL
100
AcDbLine
 10
410.0
 20
584.0
 30
0.0
 11
39.99999999999989
 21
584.0
 31
0.0
  0
LINE
  5
89
330
1E
100
AcDbEntity
  8
HILF
100
AcDbLine
 10
0.0
 20
0.0
 30
0.0
 11
-0.0000000000001137
 21
594.0
 31
0.0
  0
LINE
  5
8A
330
1E
100
AcDbEntity
  8
HILF
100
AcDbLine
 10
419.9999999999999
 20
594.0000000000002
 30
0.0
 11
0.0
 21
594.0
 31
0.0
  0
LINE
  5
8B
330
1E
100
AcDbEntity
  8
HILF
100
AcDbLine
 10
420.0
 20
0.0
 30
0.0
 11
0.0
 21
0.0
 31
0.0
  0
LINE
  5
8C
330
1E
100
AcDbEntity
  8
HILF
100
AcDbLine
 10
31.08767135713856
 20
297.0
 30
0.0
 11
0.0000000000001137
 21
297.0
 31
0.0
  0
LINE
  5
8E
330
1E
100
AcDbEntity
  8
HILF
100
AcDbLine
 10
420.0
 20
-0.0000000000001137
 30
0.0
 11
419.9999999999999
 21
594.0
 31
0.0
  0
TEXT
  5
8F
330
1E
100
AcDbEntity
  8
VOLL
100
AcDbText
 10
78.07675471698113
 20
31.02594776470585
 30
0.0
 40
1.8
  1

  7
GREEKS
100
AcDbText
  0
TEXT
  5
90
330
1E
100
AcDbEntity
  8
TEXT
100
AcDbText
 10
41.85509950977674
 20
111.6719999999999
 30
0.0
 40
5.0
  1
Erstellt mit AUTOCAD 2004
 41
0.8
  7
GREEKS
100
AcDbText
  0
TEXT
  5
91
330
1E
100
AcDbEntity
  8
TEXT
100
AcDbText
 10
204.4216048581257
 20
63.0896391972351
 30
0.0
 40
4.0
  1
Koeh
 41
0.8
  7
GREEKS
 72
     1
 11
209.6787477152686
 21
63.0896391972351
 31
0.0
100
AcDbText
  0
TEXT
  5
92
330
1E
100
AcDbEntity
  8
TEXT
 62
     1
100
AcDbText
 10
346.7764207350748
 20
88.14901428913959
 30
0.0
 40
7.0
  1
58033050W
 41
0.8
  7
GREEKS
 72
     1
 11
370.7764207350748
 21
88.14901428913959
 31
0.0
100
AcDbText
  0
TEXT
  5
93
330
1E
100
AcDbEntity
  8
TEXT
 62
     1
100
AcDbText
 10
160.5006306481887
 20
88.14901428913959
 30
0.0
 40
7.0
  1
1:2
 41
0.8
  7
GREEKS
100
AcDbText
  0
TEXT
  5
95
330
1E
100
AcDbEntity
  8
TEXT
 62
     1
100
AcDbText
 10
236.8935731057402
 20
87.41748789253779
 30
0.0
 40
7.0
  1
Verbundrohr DN50
 41
0.8
  7
GREEKS
100
AcDbText
  0
TEXT
  5
98
330
1E
100
AcDbEntity
  8
TEXT
100
AcDbText
 10
235.1296391125315
 20
51.64011943042158
 30
0.0
 40
5.0
  1
EDV-Art.Nr. 58033.050X
 41
0.8
  7
GREEKS
100
AcDbText
  0
TEXT
  5
99
330
1E
100
AcDbEntity
  8
TEXT
100
AcDbText
 10
234.9837501577827
 20
42.62974153022632
 30
0.0
 40
4.0
  1
58033050W.DWG
 41
0.8
  7
GREEKS
100
AcDbText
  0
TEXT
  5
9A
330
1E
100
AcDbEntity
  8
TEXT
100
AcDbText
 10
192.626132208084
 20
90.76363841023022
 30
0.0
 40
4.0
  1
DIN EN1123-2
 41
0.8
  7
GREEKS
 72
     1
 11
209.6166083985602
 21
90.76363841023022
 31
0.0
100
AcDbText
  0
INSERT
  5
9B
330
1E
100
AcDbEntity
  8
STEMPEL
100
AcDbBlockReference
  2
LOGO
 10
150.9955485457794
 20
45.02105276448322
 30
0.0
 41
2.0
 42
2.0
 43
2.0
  0
TEXT
  5
210
330
1E
100
AcDbEntity
  8
TEXT
 62
     1
100
AcDbText
 10
239.2340373785028
 20
213.5366850842379
 30
0.0
 40
7.0
  1
Rohrende leicht eingezogen
 41
0.8
  7
GREEKS
100
AcDbText
  0
TEXT
  5
2C0
330
1E
100
AcDbEntity
  8
BEM
100
AcDbText
 10
417.3022923857165
 20
10.16790107998861
 30
0.0
 40
4.0
  1
Diese Zeichnung ist urheberrechtlich geschützt und bleibt unser Eigentum. Sie darf weder ganz noch teilweise verfielfältigt und nicht an Dritte weitergegeben werden.
 50
90.0
 41
0.8
  7
GREEKS
100
AcDbText
  0
TEXT
  5
77A
330
1E
100
AcDbEntity
  8
TEXT
100
AcDbText
 10
235.1296391125315
 20
71.64011943042154
 30
0.0
 40
5.0
  1
Bogen 30°
 41
0.8
  7
GREEKS
100
AcDbText
  0
TEXT
  5
78C
330
1E
100
AcDbEntity
  8
TEXT
 62
     1
100
AcDbText
 10
255.030129115258
 20
129.7422179729062
 30
0.0
 40
7.0
  1
und innenbeschichtet
 41
0.8
  7
GREEKS
100
AcDbText
  0
TEXT
  5
78D
330
1E
100
AcDbEntity
  8
TEXT
 62
     1
100
AcDbText
 10
203.5552044830163
 20
117.4297988529122
 30
0.0
 40
7.0
  1
Dämmung: 2 K-PU-Schaum
 41
0.8
  7
GREEKS
100
AcDbText
  0
TEXT
  5
78E
330
1E
100
AcDbEntity
  8
TEXT
 62
     1
100
AcDbText
 10
207.3756002392443
 20
141.011271812132
 30
0.0
 40
7.0
  1
Innenrohr: E195 EN10305 feuerverzinkt
 41
0.8
  7
GREEKS
100
AcDbText
  0
TEXT
  5
78F
330
1E
100
AcDbEntity
  8
TEXT
 62
     1
100
AcDbText
 10
203.6033828683802
 20
152.364339848487
 30
0.0
 40
7.0
  1
Außenrohr: E195 EN10305 feuerverzinkt
 41
0.8
  7
GREEKS
100
AcDbText
  0
TEXT
  5
1177
330
1E
100
AcDbEntity
  8
VOLL
100
AcDbText
 10
223.639857072
 20
375.7152854421769
 30
0.0
 40
7.0
  1
DN50
 50
60.00999999999945
 41
0.8
  7
GREEKS
100
AcDbText
  0
ARC
  5
1180
102
{ACAD_REACTORS
330
1583
102
}
330
1E
100
AcDbEntity
  8
STEMPEL
100
AcDbCircle
 10
292.5893405031382
 20
319.0005136842671
 30
0.0
 40
56.0
100
AcDbArc
 50
149.9999999999994
 51
180.0
  0
ARC
  5
1181
102
{ACAD_REACTORS
330
15A7
102
}
330
1E
100
AcDbEntity
  8
STEMPEL
100
AcDbCircle
 10
292.5893405031382
 20
319.0005136842671
 30
0.0
 40
109.0
100
AcDbArc
 50
150.0000000000025
 51
180.000000000002
  0
ARC
  5
1182
330
1E
100
AcDbEntity
  8
MITTEL
100
AcDbCircle
 10
292.5893405031382
 20
319.0005136842671
 30
0.0
 40
82.5
100
AcDbArc
 50
149.9999999999994
 51
180.0
  0
LINE
  5
1184
330
1E
100
AcDbEntity
  8
MITTEL
100
AcDbLine
 10
210.0893405031379
 20
341.106322059834
 30
0.0
 11
210.0893405031384
 21
244.1100904382444
 31
0.0
  0
LINE
  5
118F
330
1E
100
AcDbEntity
  8
MITTEL
100
AcDbLine
 10
263.5759943930667
 20
433.7567158593915
 30
0.0
 11
210.0854835683047
 21
341.0919227568875
 31
0.0
  0
LINE
  5
11FF
102
{ACAD_REACTORS
330
1583
102
}
330
1E
100
AcDbEntity
  8
STEMPEL
100
AcDbLine
 10
235.0893405031381
 20
319.0005136842671
 30
0.0
 11
235.0893405031381
 21
254.1100904382382
 31
0.0
  0
LINE
  5
1201
102
{ACAD_REACTORS
330
1583
102
}
330
1E
100
AcDbEntity
  8
STEMPEL
100
AcDbLine
 10
236.589340503138
 20
319.0005136842672
 30
0.0
 11
236.589340503138
 21
254.044599023876
 31
0.0
  0
DIMENSION
  5
1203
330
1E
100
AcDbEntity
  8
BEM
100
AcDbDimension
  2
*D2
 10
236.589340503138
 20
228.8234963310388
 30
0.0
 11
210.089340503142
 21
235.3234963310388
 31
0.0
 70
    32
  1
%%c<>
 71
     5
 42
52.99999999999193
  3
Standard
100
AcDbAlignedDimension
 13
183.5893405031461
 23
254.0445990237886
 33
0.0
 14
236.589340503138
 24
254.044599023876
 34
0.0
100
AcDbRotatedDimension
1001
ACAD
1000
DSTYLE
1002
{
1070
    40
1040
2.0
1070
    41
1040
3.5
1070
    42
1040
1.0
1070
    43
1040
7.0
1070
    44
1040
1.0
1070
    73
1070
     0
1070
    74
1070
     0
1070
    77
1070
     1
1070
    78
1070
     8
1070
    79
1070
     2
1070
   140
1040
3.5
1070
   141
1040
1.5
1070
   146
1040
0.5142857142857144
1070
   147
1040
1.5
1070
   172
1070
     1
1070
   178
1070
     1
1070
   179
1070
     2
1070
   271
1070
     2
1070
   272
1070
     2
1070
   284
1070
     8
1070
   285
1070
     8
1070
   286
1070
     8
1070
   289
1070
     0
1070
   340
1005
24
1002
}
  0
DIMENSION
  5
1204
330
1E
100
AcDbEntity
  8
BEM
100
AcDbDimension
  2
*D1
 10
236.589340503138
 20
228.8234963310388
 30
0.0
 11
210.089340503142
 21
235.3234963310388
 31
0.0
 70
    32
  1
%%c<>
 71
     5
 42
52.99999999999193
  3
Standard
100
AcDbAlignedDimension
 13
183.5893405031461
 23
254.0445990237886
 33
0.0
 14
236.589340503138
 24
254.044599023876
 34
0.0
100
AcDbRotatedDimension
1001
ACAD
1000
DSTYLE
1002
{
1070
    40
1040
2.0
1070
    41
1040
3.5
1070
    42
1040
1.0
1070
    43
1040
7.0
1070
    44
1040
1.0
1070
    73
1070
     0
1070
    74
1070
     0
1070
    77
1070
     1
1070
    78
1070
     8
1070
    79
1070
     2
1070
   140
1040
3.5
1070
   141
1040
1.5
1070
   146
1040
0.5142857142857144
1070
   147
1040
1.5
1070
   172
1070
     1
1070
   178
1070
     1
1070
   179
1070
     2
1070
   271
1070
     2
1070
   272
1070
     2
1070
   284
1070
     8
1070
   285
1070
     8
1070
   286
1070
     8
1070
   289
1070
     0
1070
   340
1005
24
1002
}
  0
LINE
  5
1205
330
1E
100
AcDbEntity
  8
HILF
100
AcDbLine
 10
233.5836107468236
 20
254.1100904382445
 30
0.0
 11
186.5950702594528
 21
254.1100904382444
 31
0.0
  0
LINE
  5
1206
330
1E
100
AcDbEntity
  8
STEMPEL
100
AcDbLine
 10
236.157626941824
 20
249.1100904382445
 30
0.0
 11
184.0210540644527
 21
249.1100904382445
 31
0.0
  0
LINE
  5
1207
102
{ACAD_REACTORS
330
1583
102
}
330
1E
100
AcDbEntity
  8
STEMPEL
100
AcDbLine
 10
235.0893405031381
 20
254.1100904382382
 30
0.0
 11
234.6518971855092
 21
249.1100904382445
 31
0.0
  0
LINE
  5
1208
102
{ACAD_REACTORS
330
1583
102
}
330
1E
100
AcDbEntity
  8
STEMPEL
100
AcDbLine
 10
236.589340503138
 20
254.044599023876
 30
0.0
 11
236.157626941824
 21
249.1100904382445
 31
0.0
  0
LINE
  5
1209
330
1E
100
AcDbEntity
  8
HILF
100
AcDbLine
 10
233.5836107468236
 20
254.1100904382445
 30
0.0
 11
186.5950702594528
 21
254.1100904382444
 31
0.0
  0
LINE
  5
120A
330
1E
100
AcDbEntity
  8
STEMPEL
100
AcDbLine
 10
236.157626941824
 20
249.1100904382445
 30
0.0
 11
184.0210540644527
 21
249.1100904382445
 31
0.0
  0
LINE
  5
120B
102
{ACAD_REACTORS
330
1583
102
}
330
1E
100
AcDbEntity
  8
STEMPEL
100
AcDbLine
 10
235.0893405031381
 20
254.1100904382382
 30
0.0
 11
234.6518971855092
 21
249.1100904382445
 31
0.0
  0
LINE
  5
120C
102
{ACAD_REACTORS
330
1583
102
}
330
1E
100
AcDbEntity
  8
STEMPEL
100
AcDbLine
 10
236.589340503138
 20
254.044599023876
 30
0.0
 11
236.157626941824
 21
249.1100904382445
 31
0.0
  0
LINE
  5
120D
102
{ACAD_REACTORS
330
15BA
102
}
330
1E
100
AcDbEntity
  8
STEMPEL
100
AcDbLine
 10
252.9893405031379
 20
329.6193218813205
 30
0.0
 11
252.9893405031383
 21
279.1100904382442
 31
0.0
  0
LINE
  5
120E
102
{ACAD_REACTORS
330
14B5
330
15BA
102
}
330
1E
100
AcDbEntity
  8
STEMPEL
100
AcDbLine
 10
254.5893405031383
 20
329.1906031734313
 30
0.0
 11
254.5893405031383
 21
277.1100904382441
 31
0.0
  0
LINE
  5
120F
330
1E
100
AcDbEntity
  8
STEMPEL
100
AcDbLine
 10
252.4306081912704
 20
295.1100904382445
 30
0.0
 11
236.5893405031385
 21
295.1100904382445
 31
0.0
  0
LINE
  5
1210
330
1E
100
AcDbEntity
  8
STEMPEL
100
AcDbLine
 10
254.5893405031375
 20
279.1100904382442
 30
0.0
 11
252.9893405031383
 21
279.1100904382443
 31
0.0
  0
LINE
  5
1211
330
1E
100
AcDbEntity
  8
STEMPEL
100
AcDbLine
 10
240.5893405031384
 20
285.1100904382445
 30
0.0
 11
236.5893405031385
 21
285.1100904382445
 31
0.0
  0
LINE
  5
1213
330
1E
100
AcDbEntity
  8
STEMPEL
100
AcDbLine
 10
252.9893405031383
 20
279.1100904382445
 30
0.0
 11
252.4306081912704
 21
295.1100904382445
 31
0.0
  0
LINE
  5
1214
330
1E
100
AcDbEntity
  8
STEMPEL
100
AcDbLine
 10
252.4306081912704
 20
295.1100904382445
 30
0.0
 11
236.5893405031385
 21
295.1100904382445
 31
0.0
  0
LINE
  5
1215
102
{ACAD_REACTORS
330
15BA
102
}
330
1E
100
AcDbEntity
  8
STEMPEL
100
AcDbLine
 10
254.5893405031375
 20
279.1100904382442
 30
0.0
 11
252.9893405031383
 21
279.1100904382443
 31
0.0
  0
LINE
  5
1216
330
1E
100
AcDbEntity
  8
STEMPEL
100
AcDbLine
 10
240.5893405031384
 20
285.1100904382445
 30
0.0
 11
236.5893405031385
 21
285.1100904382445
 31
0.0
  0
LINE
  5
1218
330
1E
100
AcDbEntity
  8
STEMPEL
100
AcDbLine
 10
252.9893405031383
 20
279.1100904382445
 30
0.0
 11
252.4306081912704
 21
295.1100904382445
 31
0.0
  0
LINE
  5
1219
102
{ACAD_REACTORS
330
15A7
102
}
330
1E
100
AcDbEntity
  8
STEMPEL
100
AcDbLine
 10
183.5893405031461
 20
254.0445990237886
 30
0.0
 11
184.0210540644527
 21
249.1100904382445
 31
0.0
  0
LINE
  5
121A
102
{ACAD_REACTORS
330
15A7
102
}
330
1E
100
AcDbEntity
  8
STEMPEL
100
AcDbLine
 10
185.0893405031379
 20
254.1100904382445
 30
0.0
 11
185.5267838207676
 21
249.1100904382443
 31
0.0
  0
LINE
  5
121B
102
{ACAD_REACTORS
330
15A7
102
}
330
1E
100
AcDbEntity
  8
STEMPEL
100
AcDbLine
 10
183.5893405031461
 20
254.0445990237886
 30
0.0
 11
184.0210540644527
 21
249.1100904382445
 31
0.0
  0
LINE
  5
121C
102
{ACAD_REACTORS
330
15A7
102
}
330
1E
100
AcDbEntity
  8
STEMPEL
100
AcDbLine
 10
185.0893405031379
 20
254.1100904382445
 30
0.0
 11
185.5267838207676
 21
249.1100904382443
 31
0.0
  0
LINE
  5
121E
102
{ACAD_REACTORS
330
15A7
102
}
330
1E
100
AcDbEntity
  8
STEMPEL
100
AcDbLine
 10
185.0893405031379
 20
319.0005136842671
 30
0.0
 11
185.0893405031379
 21
254.1100904382445
 31
0.0
  0
LINE
  5
121F
102
{ACAD_REACTORS
330
15A7
102
}
330
1E
100
AcDbEntity
  8
STEMPEL
100
AcDbLine
 10
183.5893405031438
 20
319.0005136842633
 30
0.0
 11
183.5893405031461
 21
254.0445990237886
 31
0.0
  0
LINE
  5
1223
102
{ACAD_REACTORS
330
15BA
102
}
330
1E
100
AcDbEntity
  8
STEMPEL
100
AcDbLine
 10
167.1893405031381
 20
352.6093625919109
 30
0.0
 11
167.1893405031384
 21
279.1100904382446
 31
0.0
  0
LINE
  5
1224
102
{ACAD_REACTORS
330
14B5
330
15BA
102
}
330
1E
100
AcDbEntity
  8
STEMPEL
100
AcDbLine
 10
165.5893405031384
 20
353.0380812998011
 30
0.0
 11
165.5893405031384
 21
277.1100904382446
 31
0.0
  0
LINE
  5
1225
330
1E
100
AcDbEntity
  8
STEMPEL
100
AcDbLine
 10
167.7480728150063
 20
295.1100904382445
 30
0.0
 11
183.5893405031383
 21
295.1100904382445
 31
0.0
  0
LINE
  5
1227
330
1E
100
AcDbEntity
  8
STEMPEL
100
AcDbLine
 10
167.1893405031384
 20
279.1100904382446
 30
0.0
 11
165.5893405031376
 21
279.1100904382446
 31
0.0
  0
LINE
  5
1228
330
1E
100
AcDbEntity
  8
STEMPEL
100
AcDbLine
 10
167.1893405031384
 20
279.1100904382445
 30
0.0
 11
167.7480728150063
 21
295.1100904382445
 31
0.0
  0
LINE
  5
1229
330
1E
100
AcDbEntity
  8
STEMPEL
100
AcDbLine
 10
179.5893405031383
 20
285.1100904382445
 30
0.0
 11
183.5893405031383
 21
285.1100904382445
 31
0.0
  0
LINE
  5
122A
330
1E
100
AcDbEntity
  8
STEMPEL
100
AcDbLine
 10
167.7480728150063
 20
295.1100904382445
 30
0.0
 11
183.5893405031383
 21
295.1100904382445
 31
0.0
  0
LINE
  5
122C
102
{ACAD_REACTORS
330
15BA
102
}
330
1E
100
AcDbEntity
  8
STEMPEL
100
AcDbLine
 10
167.1893405031384
 20
279.1100904382446
 30
0.0
 11
165.5893405031376
 21
279.1100904382446
 31
0.0
  0
LINE
  5
122D
330
1E
100
AcDbEntity
  8
STEMPEL
100
AcDbLine
 10
167.1893405031384
 20
279.1100904382445
 30
0.0
 11
167.7480728150063
 21
295.1100904382445
 31
0.0
  0
LINE
  5
122E
330
1E
100
AcDbEntity
  8
STEMPEL
100
AcDbLine
 10
179.5893405031383
 20
285.1100904382445
 30
0.0
 11
183.5893405031383
 21
285.1100904382445
 31
0.0
  0
ARC
  5
128B
102
{ACAD_REACTORS
330
1583
102
}
330
1E
100
AcDbEntity
  8
STEMPEL
100
AcDbCircle
 10
292.5893405031382
 20
319.0005136842671
 30
0.0
 40
57.5
100
AcDbArc
 50
149.9999999999994
 51
180.0
  0
ARC
  5
128C
102
{ACAD_REACTORS
330
15A7
102
}
330
1E
100
AcDbEntity
  8
STEMPEL
100
AcDbCircle
 10
292.5893405031382
 20
319.0005136842671
 30
0.0
 40
107.5
100
AcDbArc
 50
150.0000000000025
 51
180.0
  0
DIMENSION
  5
128E
330
1E
100
AcDbEntity
  8
BEM
100
AcDbDimension
  2
*D4
 10
305.2439407195892
 20
416.9269443854147
 30
0.0
 11
269.9558102511804
 21
444.8061095100119
 31
0.0
 70
    32
  1
%%c<>
 71
     5
 42
88.99999999999991
  3
Standard
100
AcDbAlignedDimension
 13
222.5381980149078
 23
451.6763959431863
 33
0.0
 14
299.6144589517228
 24
407.1763959431863
 34
0.0
 50
330.0000000000026
100
AcDbRotatedDimension
1001
ACAD
1000
DSTYLE
1002
{
1070
    40
1040
2.0
1070
    41
1040
3.5
1070
    42
1040
1.0
1070
    43
1040
7.0
1070
    44
1040
1.0
1070
    73
1070
     0
1070
    74
1070
     0
1070
    77
1070
     1
1070
    78
1070
     8
1070
    79
1070
     2
1070
   140
1040
3.5
1070
   141
1040
1.5
1070
   146
1040
0.5142857142857144
1070
   147
1040
1.5
1070
   172
1070
     1
1070
   178
1070
     1
1070
   179
1070
     2
1070
   271
1070
     2
1070
   272
1070
     2
1070
   284
1070
     8
1070
   285
1070
     8
1070
   286
1070
     8
1070
   289
1070
     0
1070
   340
1005
24
1002
}
  0
LINE
  5
1291
330
1E
100
AcDbEntity
  8
STEMPEL
100
AcDbLine
 10
299.6144589517228
 20
407.1763959431863
 30
0.0
 11
222.5381980149078
 21
451.6763959431863
 31
0.0
  0
LINE
  5
1292
330
1E
100
AcDbEntity
  8
HILF
100
AcDbLine
 10
220.1916243861241
 20
406.2362071159882
 30
0.0
 11
261.4353878889994
 21
382.4241091552098
 31
0.0
  0
LINE
  5
1293
330
1E
100
AcDbEntity
  8
HILF
100
AcDbLine
 10
220.8015842572584
 20
411.7250163604537
 30
0.0
 11
265.8838561956663
 21
385.6967545211339
 31
0.0
  0
LINE
  5
1294
330
1E
100
AcDbEntity
  8
HILF
100
AcDbLine
 10
226.7220174309075
 20
423.2152906152258
 30
0.0
 11
272.8745090099246
 21
396.5691371783083
 31
0.0
  0
ARC
  5
1295
102
{ACAD_REACTORS
330
15A7
102
}
330
1E
100
AcDbEntity
  8
STEMPEL
100
AcDbCircle
 10
229.6250473736857
 20
409.9511790981763
 30
0.0
 40
10.5
100
AcDbArc
 50
150.0
 51
181.7883306170488
  0
ARC
  5
1296
102
{ACAD_REACTORS
330
15A7
102
}
330
1E
100
AcDbEntity
  8
STEMPEL
100
AcDbCircle
 10
229.6250473736857
 20
409.9511790981763
 30
0.0
 40
12.0
100
AcDbArc
 50
150.0
 51
181.7883306170488
  0
ARC
  5
1297
102
{ACAD_REACTORS
330
15A7
102
}
330
1E
100
AcDbEntity
  8
STEMPEL
100
AcDbCircle
 10
209.634788632924
 20
409.327035302729
 30
0.0
 40
8.0
100
AcDbArc
 50
330.0
 51
1.788330617048821
  0
LINE
  5
1298
102
{ACAD_REACTORS
330
15A7
102
}
330
1E
100
AcDbEntity
  8
STEMPEL
100
AcDbLine
 10
219.1266552830277
 20
409.7674305993776
 30
0.0
 11
219.1247295546892
 21
409.7640951400537
 31
0.0
  0
ARC
  5
1299
102
{ACAD_REACTORS
330
15A7
102
}
330
1E
100
AcDbEntity
  8
STEMPEL
100
AcDbCircle
 10
209.6347886329238
 20
409.3270353027289
 30
0.0
 40
9.5
100
AcDbArc
 50
330.0
 51
1.788330617048821
  0
ARC
  5
129A
102
{ACAD_REACTORS
330
15A7
330
15FD
102
}
330
1E
100
AcDbEntity
  8
STEMPEL
100
AcDbCircle
 10
249.0281633587167
 20
421.5583618094016
 30
0.0
 40
25.00003205712822
100
AcDbArc
 50
149.9082450082427
 51
169.4630994446845
  0
ARC
  5
129B
102
{ACAD_REACTORS
330
15A7
330
15FD
102
}
330
1E
100
AcDbEntity
  8
STEMPEL
100
AcDbCircle
 10
246.4927729665717
 20
428.1669368331848
 30
0.0
 40
19.5
100
AcDbArc
 50
124.5405714311903
 51
150.0
  0
LINE
  5
129C
102
{ACAD_REACTORS
330
15A7
330
15FD
102
}
330
1E
100
AcDbEntity
  8
STEMPEL
100
AcDbLine
 10
229.6052775927752
 20
437.9169368331849
 30
0.0
 11
227.3975461151098
 21
434.0930337443992
 31
0.0
  0
LINE
  5
129D
330
1E
100
AcDbEntity
  8
STEMPEL
100
AcDbLine
 10
226.8199000287648
 20
433.0385465955869
 30
0.0
 11
216.9238386609631
 21
438.752040290204
 31
0.0
  0
LINE
  5
129E
102
{ACAD_REACTORS
330
15A7
102
}
330
1E
100
AcDbEntity
  8
STEMPEL
100
AcDbLine
 10
230.9043156984518
 20
437.1669368331848
 30
0.0
 11
228.6959743968148
 21
433.3419774982965
 31
0.0
  0
ARC
  5
129F
102
{ACAD_REACTORS
330
15A7
102
}
330
1E
100
AcDbEntity
  8
STEMPEL
100
AcDbCircle
 10
214.6183250338302
 20
427.9587735504675
 30
0.0
 40
10.0
100
AcDbArc
 50
330.0
 51
349.4630994446845
  0
ARC
  5
12A0
102
{ACAD_REACTORS
330
15A7
102
}
330
1E
100
AcDbEntity
  8
STEMPEL
100
AcDbCircle
 10
214.6183250338302
 20
427.9587735504675
 30
0.0
 40
11.5
100
AcDbArc
 50
330.0
 51
349.4630994446845
  0
LINE
  5
12A1
102
{ACAD_REACTORS
330
15A7
102
}
330
1E
100
AcDbEntity
  8
STEMPEL
100
AcDbLine
 10
224.5776171773512
 20
422.2087735504675
 30
0.0
 11
220.5317806339492
 21
415.2011790981764
 31
0.0
  0
LINE
  5
12A2
102
{ACAD_REACTORS
330
15A7
102
}
330
1E
100
AcDbEntity
  8
STEMPEL
100
AcDbLine
 10
223.2785790716746
 20
422.9587735504677
 30
0.0
 11
219.2327425282725
 21
415.9511790981763
 31
0.0
  0
LINE
  5
12A3
102
{ACAD_REACTORS
330
15A7
102
}
330
1E
100
AcDbEntity
  8
STEMPEL
100
AcDbLine
 10
228.6765663697822
 20
433.3083618094017
 30
0.0
 11
228.6765386074949
 21
433.3083778379657
 31
0.0
  0
ARC
  5
12A4
102
{ACAD_REACTORS
330
15A7
102
}
330
1E
100
AcDbEntity
  8
STEMPEL
100
AcDbCircle
 10
249.0281633587167
 20
421.5583618094016
 30
0.0
 40
23.5000320571282
100
AcDbArc
 50
149.9053619552029
 51
169.4630994446845
  0
ARC
  5
12A5
102
{ACAD_REACTORS
330
15A7
102
}
330
1E
100
AcDbEntity
  8
STEMPEL
100
AcDbCircle
 10
246.4927729665717
 20
428.1669368331848
 30
0.0
 40
18.0
100
AcDbArc
 50
125.0000000000006
 51
150.0
  0
LINE
  5
12A6
102
{ACAD_REACTORS
330
15A7
330
15FD
102
}
330
1E
100
AcDbEntity
  8
STEMPEL
100
AcDbLine
 10
235.4358755129306
 20
444.2299183677818
 30
0.0
 11
235.3080324577263
 21
444.1404016968201
 31
0.0
  0
LINE
  5
12A7
102
{ACAD_REACTORS
330
15A7
102
}
330
1E
100
AcDbEntity
  8
STEMPEL
100
AcDbLine
 10
236.8692054746251
 20
443.40238492856
 30
0.0
 11
236.1683971122535
 21
442.9116736303869
 31
0.0
  0
LINE
  5
12A8
102
{ACAD_REACTORS
330
1583
102
}
330
1E
100
AcDbEntity
  8
STEMPEL
100
AcDbLine
 10
261.1633001580979
 20
379.5770353027291
 30
0.0
 11
242.8717519549151
 21
347.8951444657216
 31
0.0
  0
LINE
  5
12A9
102
{ACAD_REACTORS
330
14B5
330
15CD
102
}
330
1E
100
AcDbEntity
  8
STEMPEL
100
AcDbLine
 10
299.6144589517228
 20
407.1763959431863
 30
0.0
 11
254.5893405031383
 21
329.1906031734313
 31
0.0
  0
ARC
  5
12AA
102
{ACAD_REACTORS
330
1583
102
}
330
1E
100
AcDbEntity
  8
STEMPEL
100
AcDbCircle
 10
259.9359365061413
 20
392.4511790981764
 30
0.0
 40
12.0
100
AcDbArc
 50
298.2116693829487
 51
330.0
  0
ARC
  5
12AB
102
{ACAD_REACTORS
330
1583
102
}
330
1E
100
AcDbEntity
  8
STEMPEL
100
AcDbCircle
 10
259.9359365061413
 20
392.4511790981764
 30
0.0
 40
10.5
100
AcDbArc
 50
298.211669382948
 51
330.0000000000001
  0
ARC
  5
12AC
102
{ACAD_REACTORS
330
1583
102
}
330
1E
100
AcDbEntity
  8
STEMPEL
100
AcDbCircle
 10
269.3905414940502
 20
374.827035302729
 30
0.0
 40
9.5
100
AcDbArc
 50
118.2116693829479
 51
150.0
  0
LINE
  5
12AD
102
{ACAD_REACTORS
330
1583
102
}
330
1E
100
AcDbEntity
  8
STEMPEL
100
AcDbLine
 10
265.026001683603
 20
383.2674305993776
 30
0.0
 11
265.0240759552644
 21
383.2640951400537
 31
0.0
  0
ARC
  5
12AE
102
{ACAD_REACTORS
330
1583
102
}
330
1E
100
AcDbEntity
  8
STEMPEL
100
AcDbCircle
 10
269.3905414940505
 20
374.8270353027292
 30
0.0
 40
8.0
100
AcDbArc
 50
118.2116693829492
 51
150.0
  0
LINE
  5
12AF
330
1E
100
AcDbEntity
  8
STEMPEL
100
AcDbLine
 10
291.2288183056676
 20
395.852040290204
 30
0.0
 11
281.3327569378661
 21
401.5655339848214
 31
0.0
  0
LINE
  5
12B0
102
{ACAD_REACTORS
330
1583
330
15FD
102
}
330
1E
100
AcDbEntity
  8
STEMPEL
100
AcDbLine
 10
284.1648780311948
 20
406.4169368331849
 30
0.0
 11
281.9571465535666
 21
402.5930337444637
 31
0.0
  0
LINE
  5
12B1
102
{ACAD_REACTORS
330
1583
102
}
330
1E
100
AcDbEntity
  8
STEMPEL
100
AcDbLine
 10
282.8658399255182
 20
407.1669368331849
 30
0.0
 11
280.6574986239859
 21
403.3419774984779
 31
0.0
  0
ARC
  5
12B2
102
{ACAD_REACTORS
330
1583
102
}
330
1E
100
AcDbEntity
  8
STEMPEL
100
AcDbCircle
 10
283.034331932801
 20
388.4587735504677
 30
0.0
 40
11.5
100
AcDbArc
 50
130.5369005553112
 51
150.0000000000004
  0
ARC
  5
12B3
102
{ACAD_REACTORS
330
1583
102
}
330
1E
100
AcDbEntity
  8
STEMPEL
100
AcDbCircle
 10
283.034331932801
 20
388.4587735504677
 30
0.0
 40
10.0
100
AcDbArc
 50
130.5369005553114
 51
149.9999999999999
  0
LINE
  5
12B4
102
{ACAD_REACTORS
330
1583
102
}
330
1E
100
AcDbEntity
  8
STEMPEL
100
AcDbLine
 10
273.0750397892798
 20
394.2087735504676
 30
0.0
 11
269.0292032458777
 21
387.2011790981765
 31
0.0
  0
LINE
  5
12B5
102
{ACAD_REACTORS
330
1583
102
}
330
1E
100
AcDbEntity
  8
STEMPEL
100
AcDbLine
 10
274.3740778949565
 20
393.4587735504678
 30
0.0
 11
270.3282413515543
 21
386.4511790981765
 31
0.0
  0
ARC
  5
12B6
102
{ACAD_REACTORS
330
1583
102
}
330
1E
100
AcDbEntity
  8
STEMPEL
100
AcDbCircle
 10
260.2864936079145
 20
415.0583618094016
 30
0.0
 40
23.5000320571282
100
AcDbArc
 50
310.5369005553113
 51
330.0946380453073
  0
ARC
  5
12B7
102
{ACAD_REACTORS
330
1583
330
15FD
102
}
330
1E
100
AcDbEntity
  8
STEMPEL
100
AcDbCircle
 10
260.2864936079145
 20
415.0583618094016
 30
0.0
 40
25.00003205712822
100
AcDbArc
 50
310.5369005553112
 51
330.0917549919296
  0
LINE
  5
12B8
102
{ACAD_REACTORS
330
1583
102
}
330
1E
100
AcDbEntity
  8
STEMPEL
100
AcDbLine
 10
280.6380905968485
 20
403.3083618094016
 30
0.0
 11
280.6381183591361
 21
403.3083457808375
 31
0.0
  0
ARC
  5
12B9
102
{ACAD_REACTORS
330
1583
102
}
330
1E
100
AcDbEntity
  8
STEMPEL
100
AcDbCircle
 10
267.2773826573985
 20
416.1669368331848
 30
0.0
 40
18.0
100
AcDbArc
 50
330.0
 51
354.9999999999934
  0
ARC
  5
12BA
102
{ACAD_REACTORS
330
1583
330
15FD
102
}
330
1E
100
AcDbEntity
  8
STEMPEL
100
AcDbCircle
 10
267.2773826573985
 20
416.1669368331848
 30
0.0
 40
19.5
100
AcDbArc
 50
330.0
 51
355.4594285688009
  0
LINE
  5
12BB
102
{ACAD_REACTORS
330
1583
330
15FD
102
}
330
1E
100
AcDbEntity
  8
STEMPEL
100
AcDbLine
 10
286.7167814537002
 20
414.6228735185906
 30
0.0
 11
286.7031792701873
 21
414.4673998496056
 31
0.0
  0
LINE
  5
12BC
102
{ACAD_REACTORS
330
1583
102
}
330
1E
100
AcDbEntity
  8
STEMPEL
100
AcDbLine
 10
285.2834514920057
 20
415.4504069578124
 30
0.0
 11
285.2088872230497
 21
414.5981334637276
 31
0.0
  0
DIMENSION
  5
12BD
330
1E
100
AcDbEntity
  8
BEM
100
AcDbDimension
  2
*D3
 10
305.2439407195892
 20
416.9269443854147
 30
0.0
 11
269.9558102511804
 21
444.8061095100119
 31
0.0
 70
    32
  1
%%c<>
 71
     5
 42
88.99999999999991
  3
Standard
100
AcDbAlignedDimension
 13
222.5381980149078
 23
451.6763959431863
 33
0.0
 14
299.6144589517228
 24
407.1763959431863
 34
0.0
 50
330.0000000000026
100
AcDbRotatedDimension
1001
ACAD
1000
DSTYLE
1002
{
1070
    40
1040
2.0
1070
    41
1040
3.5
1070
    42
1040
1.0
1070
    43
1040
7.0
1070
    44
1040
1.0
1070
    73
1070
     0
1070
    74
1070
     0
1070
    77
1070
     1
1070
    78
1070
     8
1070
    79
1070
     2
1070
   140
1040
3.5
1070
   141
1040
1.5
1070
   146
1040
0.5142857142857144
1070
   147
1040
1.5
1070
   172
1070
     1
1070
   178
1070
     1
1070
   179
1070
     2
1070
   271
1070
     2
1070
   272
1070
     2
1070
   284
1070
     8
1070
   285
1070
     8
1070
   286
1070
     8
1070
   289
1070
     0
1070
   340
1005
24
1002
}
  0
LINE
  5
12C0
102
{ACAD_REACTORS
330
15CD
330
15FD
102
}
330
1E
100
AcDbEntity
  8
STEMPEL
100
AcDbLine
 10
299.6144589517228
 20
407.1763959431863
 30
0.0
 11
222.5381980149078
 21
451.6763959431863
 31
0.0
  0
LINE
  5
12C1
330
1E
100
AcDbEntity
  8
HILF
100
AcDbLine
 10
220.1916243861241
 20
406.2362071159882
 30
0.0
 11
261.4353878889994
 21
382.4241091552098
 31
0.0
  0
LINE
  5
12C2
330
1E
100
AcDbEntity
  8
HILF
100
AcDbLine
 10
220.8015842572584
 20
411.7250163604537
 30
0.0
 11
265.8838561956663
 21
385.6967545211339
 31
0.0
  0
LINE
  5
12C3
330
1E
100
AcDbEntity
  8
HILF
100
AcDbLine
 10
226.7220174309075
 20
423.2152906152258
 30
0.0
 11
272.8745090099246
 21
396.5691371783083
 31
0.0
  0
LINE
  5
12C4
102
{ACAD_REACTORS
330
15A7
102
}
330
1E
100
AcDbEntity
  8
STEMPEL
100
AcDbLine
 10
217.862029968876
 20
404.5770353027291
 30
0.0
 11
199.5704817656933
 21
372.8951444657216
 31
0.0
  0
LINE
  5
12C5
102
{ACAD_REACTORS
330
15A7
102
}
330
1E
100
AcDbEntity
  8
STEMPEL
100
AcDbLine
 10
216.5629918631994
 20
405.327035302729
 30
0.0
 11
198.2714436600161
 21
373.6451444657177
 31
0.0
  0
LINE
  5
12C6
102
{ACAD_REACTORS
330
15CD
330
15FD
102
}
330
1E
100
AcDbEntity
  8
STEMPEL
100
AcDbLine
 10
223.9238386609629
 20
450.8763959431862
 30
0.0
 11
167.1893405031381
 21
352.6093625919109
 31
0.0
  0
LINE
  5
12C7
102
{ACAD_REACTORS
330
14B5
330
15CD
102
}
330
1E
100
AcDbEntity
  8
STEMPEL
100
AcDbLine
 10
222.5381980149078
 20
451.6763959431863
 30
0.0
 11
165.5893405031384
 21
353.0380812998011
 31
0.0
  0
LINE
  5
12CB
102
{ACAD_REACTORS
330
15A7
102
}
330
1E
100
AcDbEntity
  8
STEMPEL
100
AcDbLine
 10
219.1266552830277
 20
409.7674305993776
 30
0.0
 11
219.1247295546892
 21
409.7640951400537
 31
0.0
  0
LINE
  5
12D0
102
{ACAD_REACTORS
330
15FD
102
}
330
1E
100
AcDbEntity
  8
STEMPEL
100
AcDbLine
 10
226.8199000287648
 20
433.0385465955869
 30
0.0
 11
216.9238386609631
 21
438.752040290204
 31
0.0
  0
LINE
  5
12D6
102
{ACAD_REACTORS
330
15A7
102
}
330
1E
100
AcDbEntity
  8
STEMPEL
100
AcDbLine
 10
228.6765663697822
 20
433.3083618094017
 30
0.0
 11
228.6765386074949
 21
433.3083778379657
 31
0.0
  0
LINE
  5
12DB
102
{ACAD_REACTORS
330
1583
102
}
330
1E
100
AcDbEntity
  8
STEMPEL
100
AcDbLine
 10
262.4623382637748
 20
378.8270353027292
 30
0.0
 11
244.1707900605919
 21
347.1451444657215
 31
0.0
  0
LINE
  5
12DC
102
{ACAD_REACTORS
330
15CD
330
15FD
102
}
330
1E
100
AcDbEntity
  8
STEMPEL
100
AcDbLine
 10
298.2288183056677
 20
407.976395943186
 30
0.0
 11
252.9893405031379
 21
329.6193218813205
 31
0.0
  0
LINE
  5
12E0
102
{ACAD_REACTORS
330
1583
102
}
330
1E
100
AcDbEntity
  8
STEMPEL
100
AcDbLine
 10
265.026001683603
 20
383.2674305993776
 30
0.0
 11
265.0240759552644
 21
383.2640951400537
 31
0.0
  0
LINE
  5
12E2
102
{ACAD_REACTORS
330
15FD
102
}
330
1E
100
AcDbEntity
  8
STEMPEL
100
AcDbLine
 10
291.2288183056676
 20
395.852040290204
 30
0.0
 11
281.3327569378661
 21
401.5655339848214
 31
0.0
  0
LINE
  5
12EB
102
{ACAD_REACTORS
330
1583
102
}
330
1E
100
AcDbEntity
  8
STEMPEL
100
AcDbLine
 10
280.6380905968485
 20
403.3083618094016
 30
0.0
 11
280.6381183591361
 21
403.3083457808375
 31
0.0
  0
LINE
  5
143D
102
{ACAD_REACTORS
330
15BA
330
15CD
102
}
330
1E
100
AcDbEntity
  8
STEMPEL
100
AcDbLine
 10
165.5893405031384
 20
353.0380812998011
 30
0.0
 11
167.1893405031381
 21
352.6093625919113
 31
0.0
  0
LINE
  5
143E
102
{ACAD_REACTORS
330
15BA
330
15CD
102
}
330
1E
100
AcDbEntity
  8
STEMPEL
100
AcDbLine
 10
252.9893405031378
 20
329.6193218813212
 30
0.0
 11
254.5893405031383
 21
329.1906031734313
 31
0.0
  0
ARC
  5
14A3
102
{ACAD_REACTORS
330
14B5
102
}
330
1E
100
AcDbEntity
  8
SCHRAFF
100
AcDbCircle
 10
252.2250774398378
 20
329.8241055519373
 30
0.0
 40
5.201834688271835
100
AcDbArc
 50
297.033129006643
 51
32.96687099335686
  0
ARC
  5
14A4
102
{ACAD_REACTORS
330
14B5
102
}
330
1E
100
AcDbEntity
  8
SCHRAFF
100
AcDbCircle
 10
167.9134463824043
 20
352.4153390063273
 30
0.0
 40
4.099675323038371
100
AcDbArc
 50
94.53433395451408
 51
235.4656660454857
  0
HATCH
  5
14B5
330
1E
100
AcDbEntity
  8
SCHRAFF
100
AcDbHatch
 10
0.0
 20
0.0
 30
0.0
210
0.0
220
0.0
230
1.0
  2
_USER
 70
     0
 71
     1
 91
        2
 92
        7
 72
     1
 73
     1
 93
        3
 10
256.5893405031383
 20
332.654704788569
 42
0.0
 10
254.5893405031383
 20
329.1906031734312
 42
0.0
 10
254.5893405031383
 20
325.1906031734313
 42
0.4448823158624823
 97
        3
330
12A9
330
120E
330
14A3
 92
        7
 72
     1
 73
     1
 93
        3
 10
165.5893405031384
 20
353.038081299801
 42
0.0
 10
167.5893405031384
 20
356.5021829149388
 42
0.7062809512965418
 10
165.5893405031384
 20
349.038081299801
 42
0.0
 97
        3
330
12C7
330
14A4
330
1224
 75
     0
 76
     0
 52
0.0
 41
0.1
 77
     0
 78
     1
 53
0.0
 43
0.0
 44
0.0
 45
0.0
 46
0.1
 79
     0
 47
0.4541538162556433
 98
        2
 10
255.7687031312935
 20
327.8417792534788
 10
164.4192243333014
 20
352.3660856233071
  0
HATCH
  5
1583
330
1E
100
AcDbEntity
  8
SCHRAFF
100
AcDbHatch
 10
0.0
 20
0.0
 30
0.0
210
0.0
220
0.0
230
1.0
  2
_USER
 70
     0
 71
     1
 91
        5
 92
       17
 93
        2
 72
     1
 10
280.6380905968485
 20
403.3083618094016
 11
280.6381183591361
 21
403.3083457808375
 72
     1
 10
280.6381183591361
 20
403.3083457808375
 11
280.6380905968485
 21
403.3083618094016
 97
        2
330
12EB
330
12B8
 92
       17
 93
        2
 72
     1
 10
265.026001683603
 20
383.2674305993776
 11
265.0240759552644
 21
383.2640951400537
 72
     1
 10
265.0240759552644
 20
383.2640951400537
 11
265.026001683603
 21
383.2674305993776
 97
        2
330
12E0
330
12AD
 92
        1
 93
        2
 72
     1
 10
236.589340503138
 20
254.044599023876
 11
236.157626941824
 21
249.1100904382445
 72
     1
 10
236.157626941824
 20
249.1100904382445
 11
236.589340503138
 21
254.044599023876
 97
        2
330
120C
330
1208
 92
        1
 93
        2
 72
     1
 10
235.0893405031381
 20
254.1100904382382
 11
234.6518971855092
 21
249.1100904382445
 72
     1
 10
234.6518971855092
 20
249.1100904382445
 11
235.0893405031381
 21
254.1100904382382
 97
        2
330
120B
330
1207
 92
       33
 93
       22
 72
     1
 10
285.2834514920057
 20
415.4504069578124
 11
285.2088872230497
 21
414.5981334637276
 72
     1
 10
286.7167814537002
 20
414.6228735185906
 11
286.7031792701873
 21
414.4673998496056
 72
     2
 10
267.2773826573985
 20
416.1669368331848
 40
19.5
 50
330.0
 51
355.4594285688009
 73
     1
 72
     2
 10
267.2773826573985
 20
416.1669368331848
 40
18.0
 50
330.0
 51
354.9999999999934
 73
     1
 72
     2
 10
260.2864936079145
 20
415.0583618094016
 40
25.00003205712822
 50
310.5369005553112
 51
330.0917549919296
 73
     1
 72
     2
 10
260.2864936079145
 20
415.0583618094016
 40
23.5000320571282
 50
310.5369005553113
 51
330.0946380453073
 73
     1
 72
     2
 10
283.034331932801
 20
388.4587735504677
 40
10.0
 50
130.5369005553114
 51
149.9999999999999
 73
     1
 72
     2
 10
283.034331932801
 20
388.4587735504677
 40
11.5
 50
130.5369005553112
 51
150.0000000000004
 73
     1
 72
     1
 10
282.8658399255182
 20
407.1669368331849
 11
280.6574986239859
 21
403.3419774984779
 72
     1
 10
284.1648780311948
 20
406.4169368331849
 11
281.9571465535666
 21
402.5930337444637
 72
     1
 10
274.3740778949565
 20
393.4587735504678
 11
270.3282413515543
 21
386.4511790981765
 72
     1
 10
273.0750397892798
 20
394.2087735504676
 11
269.0292032458777
 21
387.2011790981765
 72
     2
 10
269.3905414940505
 20
374.8270353027292
 40
8.0
 50
118.2116693829492
 51
150.0
 73
     1
 72
     2
 10
269.3905414940502
 20
374.827035302729
 40
9.5
 50
118.2116693829479
 51
150.0
 73
     1
 72
     2
 10
259.9359365061413
 20
392.4511790981764
 40
10.5
 50
298.211669382948
 51
330.0000000000001
 73
     1
 72
     2
 10
259.9359365061413
 20
392.4511790981764
 40
12.0
 50
298.2116693829487
 51
330.0
 73
     1
 72
     1
 10
262.4623382637748
 20
378.8270353027292
 11
244.1707900605919
 21
347.1451444657215
 72
     1
 10
261.1633001580979
 20
379.5770353027291
 11
242.8717519549151
 21
347.8951444657216
 72
     2
 10
292.5893405031382
 20
319.0005136842671
 40
57.5
 50
149.9999999999994
 51
180.0
 73
     1
 72
     2
 10
292.5893405031382
 20
319.0005136842671
 40
56.0
 50
149.9999999999994
 51
180.0
 73
     1
 72
     1
 10
236.589340503138
 20
319.0005136842672
 11
236.589340503138
 21
254.044599023876
 72
     1
 10
235.0893405031381
 20
319.0005136842671
 11
235.0893405031381
 21
254.1100904382382
 97
       24
330
120B
330
1207
330
12BC
330
12BB
330
12BA
330
12B9
330
12B7
330
12B6
330
12B3
330
12B2
330
12B1
330
12B0
330
12B5
330
12B4
330
12AE
330
12AC
330
12AB
330
12AA
330
12DB
330
12A8
330
128B
330
1180
330
1201
330
11FF
 75
     0
 76
     0
 52
45.0
 41
2.0
 77
     0
 78
     1
 53
45.0
 43
0.0
 44
0.0
 45
-1.414213562373094
 46
1.414213562373095
 79
     0
 98
        1
 10
0.0
 20
0.0
  0
HATCH
  5
15A7
330
1E
100
AcDbEntity
  8
SCHRAFF
100
AcDbHatch
 10
0.0
 20
0.0
 30
0.0
210
0.0
220
0.0
230
1.0
  2
_USER
 70
     0
 71
     1
 91
        5
 92
       17
 93
        2
 72
     1
 10
228.6765663697822
 20
433.3083618094017
 11
228.6765386074949
 21
433.3083778379657
 72
     1
 10
228.6765386074949
 20
433.3083778379657
 11
228.6765663697822
 21
433.3083618094017
 97
        2
330
12D6
330
12A3
 92
       17
 93
        2
 72
     1
 10
219.1266552830277
 20
409.7674305993776
 11
219.1247295546892
 21
409.7640951400537
 72
     1
 10
219.1247295546892
 20
409.7640951400537
 11
219.1266552830277
 21
409.7674305993776
 97
        2
330
12CB
330
1298
 92
        1
 93
        2
 72
     1
 10
185.0893405031379
 20
254.1100904382445
 11
185.5267838207676
 21
249.1100904382443
 72
     1
 10
185.5267838207676
 20
249.1100904382443
 11
185.0893405031379
 21
254.1100904382445
 97
        2
330
121C
330
121A
 92
        1
 93
        2
 72
     1
 10
183.5893405031461
 20
254.0445990237886
 11
184.0210540644527
 21
249.1100904382445
 72
     1
 10
184.0210540644527
 20
249.1100904382445
 11
183.5893405031461
 21
254.0445990237886
 97
        2
330
121B
330
1219
 92
       33
 93
       22
 72
     1
 10
236.8692054746251
 20
443.40238492856
 11
236.1683971122535
 21
442.9116736303869
 72
     1
 10
235.4358755129306
 20
444.2299183677818
 11
235.3080324577263
 21
444.1404016968201
 72
     2
 10
246.4927729665717
 20
428.1669368331848
 40
18.0
 50
125.0000000000006
 51
150.0
 73
     1
 72
     1
 10
230.9043156984518
 20
437.1669368331848
 11
228.6959743968148
 21
433.3419774982965
 72
     1
 10
229.6052775927752
 20
437.9169368331849
 11
227.3975461151098
 21
434.0930337443992
 72
     2
 10
246.4927729665717
 20
428.1669368331848
 40
19.5
 50
124.5405714311903
 51
150.0
 73
     1
 72
     2
 10
249.0281633587167
 20
421.5583618094016
 40
23.5000320571282
 50
149.9053619552029
 51
169.4630994446845
 73
     1
 72
     1
 10
223.2785790716746
 20
422.9587735504677
 11
219.2327425282725
 21
415.9511790981763
 72
     2
 10
214.6183250338302
 20
427.9587735504675
 40
11.5
 50
330.0
 51
349.4630994446845
 73
     1
 72
     2
 10
214.6183250338302
 20
427.9587735504675
 40
10.0
 50
330.0
 51
349.4630994446845
 73
     1
 72
     2
 10
249.0281633587167
 20
421.5583618094016
 40
25.00003205712822
 50
149.9082450082427
 51
169.4630994446845
 73
     1
 72
     1
 10
224.5776171773512
 20
422.2087735504675
 11
220.5317806339492
 21
415.2011790981764
 72
     2
 10
209.6347886329238
 20
409.3270353027289
 40
9.5
 50
330.0
 51
361.7883306170488
 73
     1
 72
     2
 10
209.634788632924
 20
409.327035302729
 40
8.0
 50
330.0
 51
361.7883306170488
 73
     1
 72
     2
 10
229.6250473736857
 20
409.9511790981763
 40
12.0
 50
150.0
 51
181.7883306170488
 73
     1
 72
     2
 10
229.6250473736857
 20
409.9511790981763
 40
10.5
 50
150.0
 51
181.7883306170488
 73
     1
 72
     1
 10
216.5629918631994
 20
405.327035302729
 11
198.2714436600161
 21
373.6451444657177
 72
     1
 10
217.862029968876
 20
404.5770353027291
 11
199.5704817656933
 21
372.8951444657216
 72
     2
 10
292.5893405031382
 20
319.0005136842671
 40
107.5
 50
150.0000000000025
 51
180.0
 73
     1
 72
     2
 10
292.5893405031382
 20
319.0005136842671
 40
109.0
 50
150.0000000000025
 51
180.000000000002
 73
     1
 72
     1
 10
183.5893405031438
 20
319.0005136842633
 11
183.5893405031461
 21
254.0445990237886
 72
     1
 10
185.0893405031379
 20
319.0005136842671
 11
185.0893405031379
 21
254.1100904382445
 97
       24
330
121B
330
1219
330
12A7
330
12A6
330
12A5
330
129E
330
129C
330
129B
330
12A4
330
12A2
330
12A0
330
129F
330
129A
330
12A1
330
1299
330
1297
330
1296
330
1295
330
12C5
330
12C4
330
128C
330
1181
330
121F
330
121E
 75
     0
 76
     0
 52
45.0
 41
2.0
 77
     0
 78
     1
 53
45.0
 43
0.0
 44
0.0
 45
-1.414213562373094
 46
1.414213562373095
 79
     0
 98
        1
 10
0.0
 20
0.0
  0
HATCH
  5
15BA
330
1E
100
AcDbEntity
  8
SCHRAFF
100
AcDbHatch
 10
0.0
 20
0.0
 30
0.0
210
0.0
220
0.0
230
1.0
  2
_USER
 70
     0
 71
     1
 91
        2
 92
        7
 72
     0
 73
     1
 93
        4
 10
254.5893405031383
 20
329.1906031734313
 10
252.9893405031379
 20
329.6193218813211
 10
252.9893405031383
 20
279.1100904382443
 10
254.5893405031383
 20
279.1100904382442
 97
        4
330
143E
330
120D
330
1215
330
120E
 92
        7
 72
     0
 73
     1
 93
        4
 10
167.1893405031381
 20
352.6093625919113
 10
165.5893405031384
 20
353.038081299801
 10
165.5893405031384
 20
279.1100904382446
 10
167.1893405031384
 20
279.1100904382446
 97
        4
330
143D
330
1224
330
122C
330
1223
 75
     0
 76
     0
 52
135.0
 41
2.0
 77
     0
 78
     1
 53
135.0
 43
0.0
 44
0.0
 45
-1.414213562373095
 46
-1.414213562373094
 79
     0
 47
0.447194124717722
 98
        2
 10
253.8963856698997
 20
300.393629935362
 10
166.6318548531299
 20
312.4678714824276
  0
HATCH
  5
15CD
330
1E
100
AcDbEntity
  8
SCHRAFF
100
AcDbHatch
 10
0.0
 20
0.0
 30
0.0
210
0.0
220
0.0
230
1.0
  2
_USER
 70
     0
 71
     1
 91
        2
 92
        7
 72
     0
 73
     1
 93
        4
 10
299.6144589517228
 20
407.1763959431864
 10
298.2288183056679
 20
407.9763959431863
 10
252.9893405031383
 20
329.6193218813211
 10
254.5893405031382
 20
329.1906031734312
 97
        4
330
12C0
330
12DC
330
143E
330
12A9
 92
        7
 72
     0
 73
     1
 93
        4
 10
223.923838660963
 20
450.8763959431864
 10
222.5381980149078
 20
451.6763959431862
 10
165.5893405031384
 20
353.0380812998012
 10
167.1893405031384
 20
352.6093625919113
 97
        4
330
12C0
330
12C7
330
143D
330
12C6
 75
     0
 76
     0
 52
15.0
 41
2.0
 77
     0
 78
     1
 53
15.0
 43
0.0
 44
0.0
 45
-0.5176380902050415
 46
1.931851652578136
 79
     0
 47
0.447194124717722
 98
        2
 10
284.3270929447881
 20
382.2301555155689
 10
194.8250113283238
 20
401.9066974496436
  0
HATCH
  5
15FD
330
1E
100
AcDbEntity
  8
SCHRAFF
100
AcDbHatch
 10
0.0
 20
0.0
 30
0.0
210
0.0
220
0.0
230
1.0
  2
NET
 70
     0
 71
     1
 91
        2
 92
        7
 72
     1
 73
     1
 93
        7
 10
284.1648780311951
 20
406.4169368331854
 42
0.0
 10
281.9571465535666
 20
402.5930337444637
 42
-0.0120251093642141
 10
281.3327569378661
 20
401.5655339848214
 42
0.0
 10
291.2288183056677
 20
395.852040290204
 42
0.0
 10
298.2288183056679
 20
407.9763959431862
 42
0.0
 10
286.7167814537002
 20
414.6228735185908
 42
0.0
 10
286.703179270189
 20
414.4673998496245
 42
-0.1095178116834811
 97
        7
330
12C0
330
12BB
330
12BA
330
12B0
330
12B7
330
12E2
330
12DC
 92
        7
 72
     1
 73
     1
 93
        7
 10
229.6052775927751
 20
437.9169368331848
 42
-0.1095178116832819
 10
235.3080324577289
 20
444.1404016968219
 42
0.0
 10
235.4358755129307
 20
444.2299183677819
 42
0.0
 10
223.923838660963
 20
450.8763959431864
 42
0.0
 10
216.923838660963
 20
438.7520402902043
 42
0.0
 10
226.8199000287649
 20
433.0385465955867
 42
-0.0120251093634679
 10
227.3975461151098
 20
434.0930337443992
 42
0.0
 97
        7
330
12A6
330
12C0
330
12C6
330
12D0
330
129A
330
129C
330
129B
 75
     0
 76
     1
 52
15.0
 41
15.0
 77
     0
 78
     2
 53
15.0
 43
0.0
 44
0.0
 45
-0.4852857095672264
 46
1.811110924292003
 79
     0
 53
105.0
 43
0.0
 44
0.0
 45
-1.811110924292003
 46
-0.4852857095672264
 79
     0
 47
0.447194124717722
 98
        2
 10
288.3546861104532
 20
405.9314446319988
 10
227.0457609691835
 20
439.4710040239433
  0
HATCH
  5
16C5
330
1E
100
AcDbEntity
  8
SCHRAFF
100
AcDbHatch
 10
0.0
 20
0.0
 30
0.0
210
0.0
220
0.0
230
1.0
  2
HONEY
 70
     0
 71
     0
 91
        1
 92
        7
 72
     1
 73
     1
 93
       13
 10
216.5629918631994
 20
405.3270353027289
 42
0.1395991324168626
 10
217.6308921292286
 20
409.5766928209079
 42
-0.1395991324168616
 10
219.2327425282726
 20
415.9511790981763
 42
0.0
 10
223.2785790716746
 20
422.9587735504676
 42
0.0851285408962497
 10
224.449698407638
 20
426.1300861565191
 42
-0.0734311771838537
 10
226.8199000287649
 20
433.0385465955867
 42
0.0
 10
216.923838660963
 20
438.7520402902041
 42
0.0
 10
167.1893405031383
 20
352.6093625919111
 42
0.0
 10
167.1893405031384
 20
279.1100904382428
 42
0.0
 10
167.7480728150064
 20
295.1100904382444
 42
0.0
 10
183.5893405031447
 20
295.1100904382444
 42
0.0
 10
183.5893405031439
 20
319.0005136842632
 42
-0.1313041458805379
 10
198.2766644517201
 20
373.6541871422046
 42
0.0
 97
        0
 75
     0
 76
     1
 52
0.0
 41
25.0
 77
     0
 78
     3
 53
0.0
 43
-306.3795757646726
 44
12.16068189965511
 45
4.6875
 46
2.706329374999999
 79
     2
 49
3.125
 49
-6.25
 53
120.0
 43
-306.3795757646726
 44
12.16068189965511
 45
-4.687499989758061
 46
2.706329392739557
 79
     2
 49
3.124999999999999
 49
-6.249999999999999
 53
60.0
 43
-306.3795757646726
 44
12.16068189965511
 45
0.0000000102419385
 46
5.412658767739556
 79
     2
 49
-6.25
 49
3.125
 47
0.521726481559873
 98
        1
 10
189.4038098279398
 20
377.1738637415505
  0
HATCH
  5
16D3
330
1E
100
AcDbEntity
  8
SCHRAFF
100
AcDbHatch
 10
0.0
 20
0.0
 30
0.0
210
0.0
220
0.0
230
1.0
  2
HONEY
 70
     0
 71
     0
 91
        1
 92
        7
 72
     1
 73
     1
 93
       13
 10
291.2288183056677
 20
395.8520402902039
 42
0.0
 10
281.3327569378661
 20
401.5655339848214
 42
-0.0734311771838514
 10
276.5349555071576
 20
396.0586489493008
 42
0.0851285408962512
 10
274.3740778949564
 20
393.4587735504676
 42
0.0
 10
270.3282413515544
 20
386.4511790981764
 42
-0.1395991324168578
 10
265.6086994988869
 20
381.8766928209079
 42
0.1395991324168657
 10
262.4623382637748
 20
378.827035302729
 42
0.0
 10
244.170790060592
 20
347.1451444657214
 42
0.1309291826826628
 10
236.5893405031381
 20
319.0005136842273
 42
0.0
 10
236.5893405031381
 20
295.1100904382443
 42
0.0
 10
252.4306081912704
 20
295.1100904382445
 42
0.0
 10
252.9893405031383
 20
279.1100904382466
 42
0.0
 10
252.9893405031379
 20
329.6193218813204
 42
0.0
 97
        0
 75
     0
 76
     1
 52
0.0
 41
25.0
 77
     0
 78
     3
 53
0.0
 43
-306.3795757646726
 44
12.16068189965511
 45
4.6875
 46
2.706329374999999
 79
     2
 49
3.125
 49
-6.25
 53
120.0
 43
-306.3795757646726
 44
12.16068189965511
 45
-4.687499989758061
 46
2.706329392739557
 79
     2
 49
3.124999999999999
 49
-6.249999999999999
 53
60.0
 43
-306.3795757646726
 44
12.16068189965511
 45
0.0000000102419385
 46
5.412658767739556
 79
     2
 49
-6.25
 49
3.125
 47
0.4355484475344577
 98
        1
 10
274.4925559950262
 20
373.1898762972941
  0
DIMENSION
  5
173E
330
1E
100
AcDbEntity
  8
BEM
100
AcDbDimension
  2
*D5
 10
150.7246646234507
 20
249.1100904382445
 30
0.0
 11
144.2246646234507
 21
264.1100904382446
 31
0.0
 70
    32
 71
     5
 42
30.00000000000014
  3
Standard
100
AcDbAlignedDimension
 13
165.5893405031384
 23
279.1100904382446
 33
0.0
 14
184.0210540644527
 24
249.1100904382445
 34
0.0
 50
90.0
100
AcDbRotatedDimension
1001
ACAD
1000
DSTYLE
1002
{
1070
   279
1070
     1
1070
    40
1040
2.0
1070
    41
1040
3.5
1070
    42
1040
1.0
1070
    43
1040
7.0
1070
    44
1040
1.0
1070
    73
1070
     0
1070
    74
1070
     0
1070
    77
1070
     1
1070
    78
1070
     8
1070
    79
1070
     2
1070
   140
1040
3.5
1070
   141
1040
1.5
1070
   146
1040
0.5142857142857144
1070
   147
1040
1.5
1070
   172
1070
     1
1070
   178
1070
     1
1070
   179
1070
     2
1070
   271
1070
     2
1070
   272
1070
     2
1070
   284
1070
     8
1070
   285
1070
     8
1070
   286
1070
     8
1002
}
  0
DIMENSION
  5
174B
330
1E
100
AcDbEntity
  8
BEM
100
AcDbDimension
  2
*D6
 10
135.90856554537
 20
341.106322059834
 30
0.0
 11
129.40856554537
 21
295.1082062490393
 31
0.0
 70
    32
 71
     5
 42
91.9962316215896
  3
Standard
100
AcDbAlignedDimension
 13
184.0210540644527
 23
249.1100904382445
 33
0.0
 14
210.0893405031379
 24
341.106322059834
 34
0.0
 50
90.0
100
AcDbRotatedDimension
1001
ACAD
1000
DSTYLE
1002
{
1070
    40
1040
2.0
1070
    41
1040
3.5
1070
    42
1040
1.0
1070
    43
1040
7.0
1070
    44
1040
1.0
1070
    73
1070
     0
1070
    74
1070
     0
1070
    77
1070
     1
1070
    78
1070
     8
1070
    79
1070
     2
1070
   140
1040
3.5
1070
   141
1040
1.5
1070
   146
1040
0.5142857142857144
1070
   147
1040
1.5
1070
   172
1070
     1
1070
   178
1070
     1
1070
   179
1070
     2
1070
   271
1070
     2
1070
   272
1070
     2
1070
   284
1070
     8
1070
   285
1070
     8
1070
   286
1070
     8
1002
}
  0
DIMENSION
  5
1758
330
1E
100
AcDbEntity
  8
BEM
100
AcDbDimension
  2
*D7
 10
155.1302372018306
 20
372.814695799629
 30
0.0
 11
174.9971020391506
 21
420.2329848475031
 31
0.0
 70
    32
 71
     5
 42
101.99875400596
 51
299.9955792950536
  3
Standard
100
AcDbAlignedDimension
 13
222.5381980149078
 23
451.6763959431862
 33
0.0
 14
210.0854835683047
 24
341.0919227568875
 34
0.0
 50
60.00442070494638
100
AcDbRotatedDimension
1001
ACAD
1000
DSTYLE
1002
{
1070
    40
1040
2.0
1070
    41
1040
3.5
1070
    42
1040
1.0
1070
    43
1040
7.0
1070
    44
1040
1.0
1070
    73
1070
     0
1070
    74
1070
     0
1070
    77
1070
     1
1070
    78
1070
     8
1070
    79
1070
     2
1070
   140
1040
3.5
1070
   141
1040
1.5
1070
   146
1040
0.5142857142857144
1070
   147
1040
1.5
1070
   172
1070
     1
1070
   178
1070
     1
1070
   179
1070
     2
1070
   271
1070
     2
1070
   272
1070
     2
1070
   284
1070
     8
1070
   285
1070
     8
1070
   286
1070
     8
1002
}
  0
TEXT
  5
17AA
330
1E
100
AcDbEntity
  8
TEXT
100
AcDbText
 10
170.398997108236
 20
63.10765040825732
 30
0.0
 40
4.0
  1
28.09.
 41
0.8
  7
GREEKS
 72
     1
 11
177.4085209177598
 21
63.10765040825732
 31
0.0
100
AcDbText
  0
TEXT
  5
17AB
330
1E
100
AcDbEntity
  8
TEXT
100
AcDbText
 10
148.622109822104
 20
73.14025471151666
 30
0.0
 40
4.0
  1
2007
 41
0.8
  7
GREEKS
100
AcDbText
  0
HATCH
  5
17BF
330
1E
100
AcDbEntity
  8
SCHRAFF
100
AcDbHatch
 10
0.0
 20
0.0
 30
0.0
210
0.0
220
0.0
230
1.0
  2
NET
 70
     0
 71
     0
 91
        2
 92
        7
 72
     0
 73
     1
 93
       10
 10
252.4306081912704
 20
295.1100904382444
 10
236.589340503138
 20
295.1100904382445
 10
236.589340503138
 20
285.1100904382444
 10
240.5893405031383
 20
285.1100904382445
 10
244.0534421182763
 20
279.1100904382443
 10
248.5893405031374
 20
279.1100904382443
 10
248.5893405031374
 20
277.1100904382441
 10
254.5893405031382
 20
277.1100904382441
 10
254.5893405031382
 20
279.1100904382442
 10
252.9893405031384
 20
279.1100904382443
 97
        0
 92
        7
 72
     0
 73
     1
 93
       10
 10
183.5893405031436
 20
295.1100904382445
 10
167.7480728150064
 20
295.1100904382446
 10
167.1893405031384
 20
279.1100904382446
 10
165.5893405031384
 20
279.1100904382446
 10
165.5893405031384
 20
277.1100904382446
 10
171.5893405031374
 20
277.1100904382445
 10
171.5893405031374
 20
279.1100904382446
 10
176.1252388880006
 20
279.1100904382445
 10
179.5893405031384
 20
285.1100904382445
 10
183.5893405031442
 20
285.1100904382445
 97
        0
 75
     0
 76
     1
 52
45.0
 41
20.0
 77
     0
 78
     2
 53
45.0
 43
-14.91065949686191
 44
-42.76490362094136
 45
-1.767766952966368
 46
1.767766952966368
 79
     0
 53
135.0
 43
-14.91065949686191
 44
-42.76490362094136
 45
-1.767766952966368
 46
-1.767766952966368
 79
     0
 47
0.1255994509103582
 98
        2
 10
244.1677211077874
 20
290.3934164593877
 10
178.313903184319
 20
291.3982123716201
  0
LINE
  5
17C0
330
1E
100
AcDbEntity
  8
STEMPEL
100
AcDbLine
 10
248.5893405031374
 20
279.1100904382443
 30
0.0
 11
236.589340503138
 21
279.1100904382443
 31
0.0
  0
POINT
  5
17C1
330
1E
100
AcDbEntity
  8
STEMPEL
100
AcDbPoint
 10
248.5893405031374
 20
277.1100904382444
 30
0.0
  0
LINE
  5
17C2
330
1E
100
AcDbEntity
  8
STEMPEL
100
AcDbLine
 10
248.5893405031374
 20
279.1100904382444
 30
0.0
 11
248.5893405031374
 21
277.1100904382444
 31
0.0
  0
LINE
  5
17C3
330
1E
100
AcDbEntity
  8
STEMPEL
100
AcDbLine
 10
254.5893405031382
 20
277.1100904382441
 30
0.0
 11
236.589340503138
 21
277.1100904382442
 31
0.0
  0
LINE
  5
17C4
330
1E
100
AcDbEntity
  8
STEMPEL
100
AcDbLine
 10
240.5893405031384
 20
285.1100904382445
 30
0.0
 11
244.0534421182761
 21
279.1100904382445
 31
0.0
  0
LINE
  5
17C5
330
1E
100
AcDbEntity
  8
STEMPEL
100
AcDbLine
 10
240.5893405031384
 20
285.1100904382445
 30
0.0
 11
244.0534421182761
 21
279.1100904382445
 31
0.0
  0
LINE
  5
17C6
330
1E
100
AcDbEntity
  8
STEMPEL
100
AcDbLine
 10
183.5893405031447
 20
277.1100904382445
 30
0.0
 11
165.5893405031384
 21
277.1100904382446
 31
0.0
  0
POINT
  5
17C7
330
1E
100
AcDbEntity
  8
STEMPEL
100
AcDbPoint
 10
171.5893405031373
 20
277.1100904382444
 30
0.0
  0
LINE
  5
17C8
330
1E
100
AcDbEntity
  8
STEMPEL
100
AcDbLine
 10
171.5893405031373
 20
279.1100904382444
 30
0.0
 11
171.5893405031373
 21
277.1100904382444
 31
0.0
  0
LINE
  5
17C9
330
1E
100
AcDbEntity
  8
STEMPEL
100
AcDbLine
 10
183.5893405031445
 20
279.1100904382445
 30
0.0
 11
171.5893405031373
 21
279.1100904382446
 31
0.0
  0
LINE
  5
17CA
330
1E
100
AcDbEntity
  8
STEMPEL
100
AcDbLine
 10
179.5893405031383
 20
285.1100904382445
 30
0.0
 11
176.1252388880006
 21
279.1100904382445
 31
0.0
  0
LINE
  5
17CB
330
1E
100
AcDbEntity
  8
STEMPEL
100
AcDbLine
 10
183.5893405031445
 20
279.1100904382445
 30
0.0
 11
171.5893405031373
 21
279.1100904382446
 31
0.0
  0
LINE
  5
17CC
330
1E
100
AcDbEntity
  8
STEMPEL
100
AcDbLine
 10
179.5893405031383
 20
285.1100904382445
 30
0.0
 11
176.1252388880006
 21
279.1100904382445
 31
0.0
  0
LINE
  5
1815
330
1E
100
AcDbEntity
  8
BEM
100
AcDbLine
 10
264.5758607522266
 20
435.4888438176614
 30
0.0
 11
265.7792405795475
 21
437.5735302602293
 31
0.0
  0
LINE
  5
1816
330
1E
100
AcDbEntity
  8
BEM
100
AcDbLine
 10
210.0893405031379
 20
343.106322059834
 30
0.0
 11
210.0893405031373
 21
479.7622966833859
 31
0.0
  0
ARC
  5
1817
330
1E
100
AcDbEntity
  8
BEM
100
AcDbCircle
 10
210.0893405031379
 20
341.0986043544797
 30
0.0
 40
136.6636923289063
100
AcDbArc
 50
62.93946735556069
 51
87.06495334938601
  0
SOLID
  5
1818
330
1E
100
AcDbEntity
  8
BEM
100
AcDbTrace
 10
272.819158444882
 20
463.8262426811599
 30
0.0
 11
271.7047840355407
 21
461.7762148471416
 31
0.0
 12
278.4120547422663
 22
459.458105536127
 32
0.0
 13
278.4120547422663
 23
459.458105536127
 33
0.0
  0
SOLID
  5
1819
330
1E
100
AcDbEntity
  8
BEM
100
AcDbTrace
 10
217.0571658190087
 20
476.4167404866362
 30
0.0
 11
217.1169232170967
 21
478.7493084916079
 31
0.0
 12
210.0893405031373
 22
477.7622966833859
 32
0.0
 13
210.0893405031373
 23
477.7622966833859
 33
0.0
  0
MTEXT
  5
181A
330
1E
100
AcDbEntity
  8
BEM
 62
     1
100
AcDbMText
 10
247.1374958490816
 20
479.3855415058555
 30
0.0
 40
7.0
 41
0.0
 71
     5
 72
     1
  1
\A1;30°
 11
0.9659358102728548
 21
-0.2587817814926763
 31
0.0
 73
     1
 44
1.0
  0
LINE
  5
181B
330
1E
100
AcDbEntity
  8
BEM
100
AcDbLine
 10
272.5646375009549
 20
449.3282768899722
 30
0.0
 11
279.4119211014262
 21
461.190233494397
 31
0.0
  0
ENDSEC
  0
SECTION
  2
OBJECTS
  0
DICTIONARY
  5
C
330
0
100
AcDbDictionary
281
     1
  3
ACAD_COLOR
350
DF
  3
ACAD_GROUP
350
D
  3
ACAD_LAYOUT
350
19
  3
ACAD_MATERIAL
350
DE
  3
ACAD_MLINESTYLE
350
16
  3
ACAD_PLOTSETTINGS
350
18
  3
ACAD_PLOTSTYLENAME
350
E
  3
AcDbVariableDictionary
350
25E
  0
DICTIONARY
  5
A0
330
1E
100
AcDbDictionary
280
     1
281
     1
  3
ACAD_LAYOUTSELFREF
360
D4
  0
DICTIONARY
  5
A2
330
1A
100
AcDbDictionary
280
     1
281
     1
  3
ACAD_LAYOUTSELFREF
360
D3
  0
DICTIONARY
  5
DF
102
{ACAD_REACTORS
330
C
102
}
330
C
100
AcDbDictionary
281
     1
  0
DICTIONARY
  5
D
102
{ACAD_REACTORS
330
C
102
}
330
C
100
AcDbDictionary
281
     1
  0
DICTIONARY
  5
19
102
{ACAD_REACTORS
330
C
102
}
330
C
100
AcDbDictionary
281
     1
  3
Layout1
350
1D
  3
Model
350
21
  0
DICTIONARY
  5
DE
102
{ACAD_REACTORS
330
C
102
}
330
C
100
AcDbDictionary
281
     1
  0
DICTIONARY
  5
16
102
{ACAD_REACTORS
330
C
102
}
330
C
100
AcDbDictionary
281
     1
  3
Standard
350
17
  0
DICTIONARY
  5
18
102
{ACAD_REACTORS
330
C
102
}
330
C
100
AcDbDictionary
281
     1
  0
ACDBDICTIONARYWDFLT
  5
E
102
{ACAD_REACTORS
330
C
102
}
330
C
100
AcDbDictionary
281
     1
  3
Normal
350
F
100
AcDbDictionaryWithDefault
340
F
  0
DICTIONARY
  5
25E
102
{ACAD_REACTORS
330
C
102
}
330
C
100
AcDbDictionary
281
     1
  3
DIMASSOC
350
25F
  3
PROJECTNAME
350
260
  0
XRECORD
  5
D4
102
{ACAD_REACTORS
330
A0
102
}
330
A0
100
AcDbXrecord
280
     1
340
1E
  0
XRECORD
  5
D3
102
{ACAD_REACTORS
330
A2
102
}
330
A2
100
AcDbXrecord
280
     1
340
1A
  0
LAYOUT
  5
1D
102
{ACAD_REACTORS
330
19
102
}
330
19
100
AcDbPlotSettings
  1

  2
\\NT_WORK01\HP LaserJet 5000 PCL 6
  4

  6

 40
0.0
 41
0.0
 42
0.0
 43
0.0
 44
0.0
 45
0.0
 46
0.0
 47
0.0
 48
0.0
 49
0.0
140
0.0
141
0.0
142
1.0
143
1.0
 70
   688
 72
     0
 73
     0
 74
     5
  7

 75
    16
147
1.0
 76
     0
 77
     2
 78
   300
148
0.0
149
0.0
100
AcDbLayout
  1
Layout1
 70
     0
 71
     1
 10
0.0
 20
0.0
 11
12.0
 21
9.0
 12
0.0
 22
0.0
 32
0.0
 14
1.000000000000000E+20
 24
1.000000000000000E+20
 34
1.000000000000000E+20
 15
-1.000000000000000E+20
 25
-1.000000000000000E+20
 35
-1.000000000000000E+20
146
0.0
 13
0.0
 23
0.0
 33
0.0
 16
1.0
 26
0.0
 36
0.0
 17
0.0
 27
1.0
 37
0.0
 76
     0
330
1A
  0
LAYOUT
  5
21
102
{ACAD_REACTORS
330
19
102
}
330
19
100
AcDbPlotSettings
  1

  2
RICOH Aficio 2027 PCL 6
  4
A4
  6

 40
5.027083
 41
5.027084999999999
 42
5.027084
 43
5.027069
 44
209.973328
 45
296.925995
 46
0.0
 47
2.06
 48
0.0
 49
0.0
140
0.0
141
0.0
142
1.0
143
2.100849152723284
 70
 11956
 72
     1
 73
     0
 74
     2
  7
monochrome1.ctb
 75
     0
147
0.4759980023809526
 76
     1
 77
     2
 78
   300
148
0.0
149
0.0
100
AcDbLayout
  1
Model
 70
     1
 71
     0
 10
0.0
 20
0.0
 11
12.0
 21
9.0
 12
0.0
 22
0.0
 32
0.0
 14
0.0
 24
0.0
 34
0.0
 15
0.0
 25
0.0
 35
0.0
146
0.0
 13
0.0
 23
0.0
 33
0.0
 16
1.0
 26
0.0
 36
0.0
 17
0.0
 27
1.0
 37
0.0
 76
     0
330
1E
  0
MLINESTYLE
  5
17
102
{ACAD_REACTORS
330
16
102
}
330
16
100
AcDbMlineStyle
  2
STANDARD
 70
     0
  3

 62
   256
 51
90.0
 52
90.0
 71
     2
 49
0.5
 62
   256
  6
BYLAYER
 49
-0.5
 62
   256
  6
BYLAYER
  0
ACDBPLACEHOLDER
  5
F
102
{ACAD_REACTORS
330
E
102
}
330
E
  0
DICTIONARYVAR
  5
25F
102
{ACAD_REACTORS
330
25E
102
}
330
25E
100
DictionaryVariables
280
     0
  1
1
  0
DICTIONARYVAR
  5
260
102
{ACAD_REACTORS
330
25E
102
}
330
25E
100
DictionaryVariables
280
     0
  1

  0
ENDSEC
  0
EOF
