  0
SECTION
  2
HEADER
  9
$ACADVER
  1
AC1018
  9
$ACADMAINTVER
 70
     2
  9
$DWGCODEPAGE
  3
ANSI_1252
  9
$INSBASE
 10
0.0
 20
0.0
 30
0.0
  9
$EXTMIN
 10
-0.0128399922799645
 20
-0.0271563071280525
 30
-0.0000000000000129
  9
$EXTMAX
 10
420.009415494768
 20
594.0226704355338
 30
0.0000000000000023
  9
$LIMMIN
 10
0.0
 20
0.0
  9
$LIMMAX
 10
419.9999999999999
 20
594.0000000000002
  9
$ORTHOMODE
 70
     0
  9
$REGENMODE
 70
     1
  9
$FILLMODE
 70
     1
  9
$QTEXTMODE
 70
     0
  9
$MIRRTEXT
 70
     1
  9
$LTSCALE
 40
20.0
  9
$ATTMODE
 70
     1
  9
$TEXTSIZE
 40
3.5
  9
$TRACEWID
 40
0.5
  9
$TEXTSTYLE
  7
STANDARD
  9
$CLAYER
  8
BEM
  9
$CELTYPE
  6
ByLayer
  9
$CECOLOR
 62
   256
  9
$CELTSCALE
 40
1.0
  9
$DISPSILH
 70
     0
  9
$DIMSCALE
 40
2.0
  9
$DIMASZ
 40
3.5
  9
$DIMEXO
 40
1.0
  9
$DIMDLI
 40
7.0
  9
$DIMRND
 40
0.0
  9
$DIMDLE
 40
0.0
  9
$DIMEXE
 40
1.0
  9
$DIMTP
 40
0.0
  9
$DIMTM
 40
0.0
  9
$DIMTXT
 40
3.5
  9
$DIMCEN
 40
1.5
  9
$DIMTSZ
 40
0.0
  9
$DIMTOL
 70
     0
  9
$DIMLIM
 70
     0
  9
$DIMTIH
 70
     0
  9
$DIMTOH
 70
     0
  9
$DIMSE1
 70
     0
  9
$DIMSE2
 70
     0
  9
$DIMTAD
 70
     1
  9
$DIMZIN
 70
     8
  9
$DIMBLK
  1

  9
$DIMASO
 70
     1
  9
$DIMSHO
 70
     0
  9
$DIMPOST
  1

  9
$DIMAPOST
  1

  9
$DIMALT
 70
     0
  9
$DIMALTD
 70
     2
  9
$DIMALTF
 40
25.4
  9
$DIMLFAC
 40
1.0
  9
$DIMTOFL
 70
     1
  9
$DIMTVP
 40
0.0
  9
$DIMTIX
 70
     0
  9
$DIMSOXD
 70
     0
  9
$DIMSAH
 70
     0
  9
$DIMBLK1
  1

  9
$DIMBLK2
  1

  9
$DIMSTYLE
  2
Standard
  9
$DIMCLRD
 70
     0
  9
$DIMCLRE
 70
     0
  9
$DIMCLRT
 70
     1
  9
$DIMTFAC
 40
0.5142857142857144
  9
$DIMGAP
 40
1.5
  9
$DIMJUST
 70
     0
  9
$DIMSD1
 70
     0
  9
$DIMSD2
 70
     0
  9
$DIMTOLJ
 70
     1
  9
$DIMTZIN
 70
     8
  9
$DIMALTZ
 70
     8
  9
$DIMALTTZ
 70
     8
  9
$DIMUPT
 70
     0
  9
$DIMDEC
 70
     2
  9
$DIMTDEC
 70
     2
  9
$DIMALTU
 70
     2
  9
$DIMALTTD
 70
     2
  9
$DIMTXSTY
  7
STANDARD
  9
$DIMAUNIT
 70
     0
  9
$DIMADEC
 70
     2
  9
$DIMALTRND
 40
0.0
  9
$DIMAZIN
 70
     2
  9
$DIMDSEP
 70
    46
  9
$DIMATFIT
 70
     3
  9
$DIMFRAC
 70
     0
  9
$DIMLDRBLK
  1

  9
$DIMLUNIT
 70
     2
  9
$DIMLWD
 70
    -2
  9
$DIMLWE
 70
    -2
  9
$DIMTMOVE
 70
     0
  9
$LUNITS
 70
     2
  9
$LUPREC
 70
     2
  9
$SKETCHINC
 40
1.0
  9
$FILLETRAD
 40
90.0
  9
$AUNITS
 70
     0
  9
$AUPREC
 70
     0
  9
$MENU
  1
ACAD
  9
$ELEVATION
 40
0.0
  9
$PELEVATION
 40
0.0
  9
$THICKNESS
 40
0.0
  9
$LIMCHECK
 70
     0
  9
$CHAMFERA
 40
0.0
  9
$CHAMFERB
 40
0.0
  9
$CHAMFERC
 40
0.0
  9
$CHAMFERD
 40
0.0
  9
$SKPOLY
 70
     0
  9
$TDCREATE
 40
2455397.823042361
  9
$TDUCREATE
 40
2455397.781375695
  9
$TDUPDATE
 40
2455532.536795428
  9
$TDUUPDATE
 40
2455532.495128762
  9
$TDINDWG
 40
0.4559473727
  9
$TDUSRTIMER
 40
0.4559473727
  9
$USRTIMER
 70
     1
  9
$ANGBASE
 50
0.0
  9
$ANGDIR
 70
     0
  9
$PDMODE
 70
     0
  9
$PDSIZE
 40
0.0
  9
$PLINEWID
 40
0.0
  9
$SPLFRAME
 70
     0
  9
$SPLINETYPE
 70
     6
  9
$SPLINESEGS
 70
     8
  9
$HANDSEED
  5
2C61
  9
$SURFTAB1
 70
     6
  9
$SURFTAB2
 70
     6
  9
$SURFTYPE
 70
     6
  9
$SURFU
 70
     6
  9
$SURFV
 70
     6
  9
$UCSBASE
  2

  9
$UCSNAME
  2

  9
$UCSORG
 10
0.0
 20
0.0
 30
0.0
  9
$UCSXDIR
 10
1.0
 20
0.0
 30
0.0
  9
$UCSYDIR
 10
0.0
 20
1.0
 30
0.0
  9
$UCSORTHOREF
  2

  9
$UCSORTHOVIEW
 70
     0
  9
$UCSORGTOP
 10
0.0
 20
0.0
 30
0.0
  9
$UCSORGBOTTOM
 10
0.0
 20
0.0
 30
0.0
  9
$UCSORGLEFT
 10
0.0
 20
0.0
 30
0.0
  9
$UCSORGRIGHT
 10
0.0
 20
0.0
 30
0.0
  9
$UCSORGFRONT
 10
0.0
 20
0.0
 30
0.0
  9
$UCSORGBACK
 10
0.0
 20
0.0
 30
0.0
  9
$PUCSBASE
  2

  9
$PUCSNAME
  2

  9
$PUCSORG
 10
0.0
 20
0.0
 30
0.0
  9
$PUCSXDIR
 10
1.0
 20
0.0
 30
0.0
  9
$PUCSYDIR
 10
0.0
 20
1.0
 30
0.0
  9
$PUCSORTHOREF
  2

  9
$PUCSORTHOVIEW
 70
     0
  9
$PUCSORGTOP
 10
0.0
 20
0.0
 30
0.0
  9
$PUCSORGBOTTOM
 10
0.0
 20
0.0
 30
0.0
  9
$PUCSORGLEFT
 10
0.0
 20
0.0
 30
0.0
  9
$PUCSORGRIGHT
 10
0.0
 20
0.0
 30
0.0
  9
$PUCSORGFRONT
 10
0.0
 20
0.0
 30
0.0
  9
$PUCSORGBACK
 10
0.0
 20
0.0
 30
0.0
  9
$USERI1
 70
     0
  9
$USERI2
 70
     0
  9
$USERI3
 70
     0
  9
$USERI4
 70
     0
  9
$USERI5
 70
     0
  9
$USERR1
 40
0.0
  9
$USERR2
 40
0.0
  9
$USERR3
 40
0.0
  9
$USERR4
 40
0.0
  9
$USERR5
 40
0.0
  9
$WORLDVIEW
 70
     1
  9
$SHADEDGE
 70
     3
  9
$SHADEDIF
 70
    70
  9
$TILEMODE
 70
     1
  9
$MAXACTVP
 70
    16
  9
$PINSBASE
 10
0.0
 20
0.0
 30
0.0
  9
$PLIMCHECK
 70
     0
  9
$PEXTMIN
 10
1.000000000000000E+20
 20
1.000000000000000E+20
 30
1.000000000000000E+20
  9
$PEXTMAX
 10
-1.000000000000000E+20
 20
-1.000000000000000E+20
 30
-1.000000000000000E+20
  9
$PLIMMIN
 10
0.0
 20
0.0
  9
$PLIMMAX
 10
12.0
 20
9.0
  9
$UNITMODE
 70
     0
  9
$VISRETAIN
 70
     0
  9
$PLINEGEN
 70
     0
  9
$PSLTSCALE
 70
     0
  9
$TREEDEPTH
 70
  3020
  9
$CMLSTYLE
  2
Standard
  9
$CMLJUST
 70
     0
  9
$CMLSCALE
 40
1.0
  9
$PROXYGRAPHICS
 70
     1
  9
$MEASUREMENT
 70
     0
  9
$CELWEIGHT
370
    -1
  9
$ENDCAPS
280
     0
  9
$JOINSTYLE
280
     0
  9
$LWDISPLAY
290
     0
  9
$INSUNITS
 70
     0
  9
$HYPERLINKBASE
  1

  9
$STYLESHEET
  1
monochrome 1.ctb
  9
$XEDIT
290
     1
  9
$CEPSNTYPE
380
     0
  9
$PSTYLEMODE
290
     1
  9
$FINGERPRINTGUID
  2
{D68B0D02-A558-11D7-B632-000102183313}
  9
$VERSIONGUID
  2
{D4E23046-01F1-4832-9857-5DF1E862CF31}
  9
$EXTNAMES
290
     1
  9
$PSVPSCALE
 40
0.0
  9
$OLESTARTUP
290
     0
  9
$SORTENTS
280
   127
  9
$INDEXCTL
280
     0
  9
$HIDETEXT
280
     0
  9
$XCLIPFRAME
290
     0
  9
$HALOGAP
280
     0
  9
$OBSCOLOR
 70
   257
  9
$OBSLTYPE
280
     0
  9
$INTERSECTIONDISPLAY
280
     0
  9
$INTERSECTIONCOLOR
 70
   257
  9
$DIMASSOC
280
     1
  9
$PROJECTNAME
  1

  0
ENDSEC
  0
SECTION
  2
CLASSES
  0
CLASS
  1
ACDBDICTIONARYWDFLT
  2
AcDbDictionaryWithDefault
  3
ObjectDBX Classes
 90
        0
 91
        1
280
     0
281
     0
  0
CLASS
  1
DICTIONARYVAR
  2
AcDbDictionaryVar
  3
ObjectDBX Classes
 90
        0
 91
        2
280
     0
281
     0
  0
ENDSEC
  0
SECTION
  2
TABLES
  0
TABLE
  2
VPORT
  5
8
330
0
100
AcDbSymbolTable
 70
     2
  0
VPORT
  5
2C60
330
8
100
AcDbSymbolTableRecord
100
AcDbViewportTableRecord
  2
*Active
 70
     0
 10
0.0
 20
0.0
 11
1.0
 21
1.0
 12
209.9982877512441
 22
296.9977570642029
 13
0.0
 23
0.0
 14
1.0
 24
1.0
 15
10.0
 25
10.0
 16
0.0
 26
0.0
 36
1.0
 17
0.0
 27
0.0
 37
0.0
 40
598.8469989640023
 41
1.336927223719676
 42
50.0
 43
0.0
 44
0.0
 50
0.0
 51
0.0
 71
     0
 72
  1500
 73
     1
 74
     0
 75
     0
 76
     0
 77
     0
 78
     0
281
     0
 65
     1
110
0.0
120
0.0
130
0.0
111
1.0
121
0.0
131
0.0
112
0.0
122
1.0
132
0.0
 79
     0
146
0.0
  0
ENDTAB
  0
TABLE
  2
LTYPE
  5
5
330
0
100
AcDbSymbolTable
 70
     2
  0
LTYPE
  5
13
330
5
100
AcDbSymbolTableRecord
100
AcDbLinetypeTableRecord
  2
ByBlock
 70
     0
  3

 72
    65
 73
     0
 40
0.0
  0
LTYPE
  5
14
330
5
100
AcDbSymbolTableRecord
100
AcDbLinetypeTableRecord
  2
ByLayer
 70
     0
  3

 72
    65
 73
     0
 40
0.0
  0
LTYPE
  5
15
330
5
100
AcDbSymbolTableRecord
100
AcDbLinetypeTableRecord
  2
Continuous
 70
     0
  3
Solid line
 72
    65
 73
     0
 40
0.0
  0
LTYPE
  5
25
330
5
100
AcDbSymbolTableRecord
100
AcDbLinetypeTableRecord
  2
STRICHPUNKT
 70
     0
  3
__ . __ . __ . __ . __ . __ . __ . __ . __ . __
 72
    65
 73
     4
 40
1.0
 49
0.5
 74
     0
 49
-0.25
 74
     0
 49
0.0
 74
     0
 49
-0.25
 74
     0
  0
ENDTAB
  0
TABLE
  2
LAYER
  5
2
330
0
100
AcDbSymbolTable
 70
     9
  0
LAYER
  5
10
330
2
100
AcDbSymbolTableRecord
100
AcDbLayerTableRecord
  2
0
 70
     0
 62
     7
  6
Continuous
370
    -3
390
F
  0
LAYER
  5
2A
330
2
100
AcDbSymbolTableRecord
100
AcDbLayerTableRecord
  2
VOLL
 70
     0
 62
     1
  6
Continuous
370
    -3
390
F
  0
LAYER
  5
2B
330
2
100
AcDbSymbolTableRecord
100
AcDbLayerTableRecord
  2
HILF
 70
     0
 62
     2
  6
Continuous
370
    -3
390
F
  0
LAYER
  5
2C
330
2
100
AcDbSymbolTableRecord
100
AcDbLayerTableRecord
  2
MITTEL
 70
     0
 62
     2
  6
STRICHPUNKT
370
    -3
390
F
  0
LAYER
  5
2F
330
2
100
AcDbSymbolTableRecord
100
AcDbLayerTableRecord
  2
BEM
 70
     0
 62
     7
  6
Continuous
370
    -3
390
F
  0
LAYER
  5
30
330
2
100
AcDbSymbolTableRecord
100
AcDbLayerTableRecord
  2
STEMPEL
 70
     0
 62
     3
  6
Continuous
370
    -3
390
F
  0
LAYER
  5
31
330
2
100
AcDbSymbolTableRecord
100
AcDbLayerTableRecord
  2
TEXT
 70
     0
 62
     7
  6
Continuous
370
    -3
390
F
  0
LAYER
  5
171
330
2
100
AcDbSymbolTableRecord
100
AcDbLayerTableRecord
  2
Defpoints
 70
     0
 62
     7
  6
Continuous
290
     0
370
    -3
390
F
  0
LAYER
  5
19C
330
2
100
AcDbSymbolTableRecord
100
AcDbLayerTableRecord
  2
SCHRAFF
 70
     0
 62
     7
  6
Continuous
370
    -3
390
F
  0
ENDTAB
  0
TABLE
  2
STYLE
  5
3
330
0
100
AcDbSymbolTable
 70
     2
  0
STYLE
  5
11
330
3
100
AcDbSymbolTableRecord
100
AcDbTextStyleTableRecord
  2
STANDARD
 70
     0
 40
0.0
 41
0.8
 50
0.0
 71
     0
 42
3.5
  3
simplex.shx
  4

  0
STYLE
  5
24
330
3
100
AcDbSymbolTableRecord
100
AcDbTextStyleTableRecord
  2
GREEKS
 70
     0
 40
0.0
 41
0.8
 50
0.0
 71
     0
 42
2.5
  3
SIMPLEX.shx
  4

  0
ENDTAB
  0
TABLE
  2
VIEW
  5
6
330
0
100
AcDbSymbolTable
 70
     0
  0
ENDTAB
  0
TABLE
  2
UCS
  5
7
330
0
100
AcDbSymbolTable
 70
     0
  0
ENDTAB
  0
TABLE
  2
APPID
  5
9
330
0
100
AcDbSymbolTable
 70
     1
  0
APPID
  5
12
330
9
100
AcDbSymbolTableRecord
100
AcDbRegAppTableRecord
  2
ACAD
 70
     0
  0
ENDTAB
  0
TABLE
  2
DIMSTYLE
  5
A
330
0
100
AcDbSymbolTable
 70
     1
100
AcDbDimStyleTable
 71
     1
340
9D
  0
DIMSTYLE
105
9D
102
{ACAD_REACTORS
330
293D
330
2A25
330
2A32
330
2A3F
330
2A55
102
}
330
A
100
AcDbSymbolTableRecord
100
AcDbDimStyleTableRecord
  2
Standard
 70
     0
340
11
  0
ENDTAB
  0
TABLE
  2
BLOCK_RECORD
  5
1
330
0
100
AcDbSymbolTable
 70
     6
  0
BLOCK_RECORD
  5
1E
102
{ACAD_XDICTIONARY
360
A0
102
}
330
1
100
AcDbSymbolTableRecord
100
AcDbBlockTableRecord
  2
*Model_Space
340
21
  0
BLOCK_RECORD
  5
1A
102
{ACAD_XDICTIONARY
360
A2
102
}
330
1
100
AcDbSymbolTableRecord
100
AcDbBlockTableRecord
  2
*Paper_Space
340
1D
  0
BLOCK_RECORD
  5
22
330
1
100
AcDbSymbolTableRecord
100
AcDbBlockTableRecord
  2
LOGO
340
0
102
{BLKREFS
331
9B
102
}
  0
BLOCK_RECORD
  5
2955
330
1
100
AcDbSymbolTableRecord
100
AcDbBlockTableRecord
  2
*D1
340
0
  0
BLOCK_RECORD
  5
2A26
330
1
100
AcDbSymbolTableRecord
100
AcDbBlockTableRecord
  2
*D2
340
0
  0
BLOCK_RECORD
  5
2A33
330
1
100
AcDbSymbolTableRecord
100
AcDbBlockTableRecord
  2
*D3
340
0
  0
BLOCK_RECORD
  5
2A40
330
1
100
AcDbSymbolTableRecord
100
AcDbBlockTableRecord
  2
*D4
340
0
  0
BLOCK_RECORD
  5
2A56
330
1
100
AcDbSymbolTableRecord
100
AcDbBlockTableRecord
  2
*D5
340
0
  0
ENDTAB
  0
ENDSEC
  0
SECTION
  2
BLOCKS
  0
BLOCK
  5
35
330
1E
100
AcDbEntity
  8
0
100
AcDbBlockBegin
  2
*Model_Space
 70
     0
 10
0.0
 20
0.0
 30
0.0
  3
*Model_Space
  1

  0
ENDBLK
  5
36
330
1E
100
AcDbEntity
  8
0
100
AcDbBlockEnd
  0
BLOCK
  5
33
330
1A
100
AcDbEntity
 67
     1
  8
0
100
AcDbBlockBegin
  2
*Paper_Space
 70
     0
 10
0.0
 20
0.0
 30
0.0
  3
*Paper_Space
  1

  0
ENDBLK
  5
34
330
1A
100
AcDbEntity
 67
     1
  8
0
100
AcDbBlockEnd
  0
BLOCK
  5
37
330
22
100
AcDbEntity
  8
0
100
AcDbBlockBegin
  2
LOGO
 70
     0
 10
0.0
 20
0.0
 30
0.0
  3
LOGO
  1

  0
ARC
  5
38
330
22
100
AcDbEntity
  8
0
100
AcDbCircle
 10
11.59973089678112
 20
-9.271599258481501
 30
0.0
 40
4.5
100
AcDbArc
 50
270.0
 51
231.0575587310159
  0
LINE
  5
39
330
22
100
AcDbEntity
  8
0
100
AcDbLine
 10
3.599730896781125
 20
-4.771599258481529
 30
0.0
 11
3.599730896781153
 21
-11.77159925848133
 31
0.0
  0
LINE
  5
3A
330
22
100
AcDbEntity
  8
0
100
AcDbLine
 10
2.599730896781125
 20
-4.771599258481529
 30
0.0
 11
2.599730896781153
 21
-11.77159925848133
 31
0.0
  0
CIRCLE
  5
3B
330
22
100
AcDbEntity
  8
0
100
AcDbCircle
 10
11.59973089678112
 20
-9.271599258481501
 30
0.0
 40
3.5
  0
ARC
  5
3C
330
22
100
AcDbEntity
  8
0
100
AcDbCircle
 10
31.59973089678115
 20
-9.271599258481472
 30
0.0
 40
4.5
100
AcDbArc
 50
270.0
 51
231.0575587310182
  0
LINE
  5
3D
330
22
100
AcDbEntity
  8
0
100
AcDbLine
 10
17.59973089678112
 20
-4.771599258481472
 30
0.0
 11
17.59973089678115
 21
-13.77159925848147
 31
0.0
  0
ARC
  5
3E
330
22
100
AcDbEntity
  8
0
100
AcDbCircle
 10
22.59973089678116
 20
-7.271599258481472
 30
0.0
 40
2.5
100
AcDbArc
 50
293.1161887722295
 51
90.0
  0
CIRCLE
  5
3F
330
22
100
AcDbEntity
  8
0
100
AcDbCircle
 10
31.59973089678115
 20
-9.271599258481472
 30
0.0
 40
3.5
  0
ARC
  5
40
330
22
100
AcDbEntity
  8
0
100
AcDbCircle
 10
4.599730896781153
 20
-11.77159925848133
 30
0.0
 40
1.0
100
AcDbArc
 50
180.0
 51
270.0
  0
ARC
  5
41
330
22
100
AcDbEntity
  8
0
100
AcDbCircle
 10
4.599730896781153
 20
-11.77159925848133
 30
0.0
 40
2.0
100
AcDbArc
 50
179.9999999999992
 51
270.0
  0
LINE
  5
42
330
22
100
AcDbEntity
  8
0
100
AcDbLine
 10
11.59973089678115
 20
-13.77159925848144
 30
0.0
 11
4.599730896781153
 21
-13.77159925848147
 31
0.0
  0
LINE
  5
43
330
22
100
AcDbEntity
  8
0
100
AcDbLine
 10
8.771303772034769
 20
-12.77159925848136
 30
0.0
 11
4.599730896781153
 21
-12.77159925848133
 31
0.0
  0
LINE
  5
44
330
22
100
AcDbEntity
  8
0
100
AcDbLine
 10
31.59973089678115
 20
-13.77159925848147
 30
0.0
 11
23.6715276665056
 21
-13.77159925848144
 31
0.0
  0
LINE
  5
45
330
22
100
AcDbEntity
  8
0
100
AcDbLine
 10
23.56565672307022
 20
-9.51278021337896
 30
0.0
 11
24.4388546544846
 21
-12.77159925848144
 31
0.0
  0
LINE
  5
46
330
22
100
AcDbEntity
  8
0
100
AcDbLine
 10
22.59973089678116
 20
-9.771599258481472
 30
0.0
 11
18.59973089678112
 21
-9.771599258481472
 31
0.0
  0
LINE
  5
47
330
22
100
AcDbEntity
  8
0
100
AcDbLine
 10
18.59973089678115
 20
-13.77159925848144
 30
0.0
 11
17.59973089678115
 21
-13.77159925848144
 31
0.0
  0
LINE
  5
48
330
22
100
AcDbEntity
  8
0
100
AcDbLine
 10
18.59973089678115
 20
-9.771599258481472
 30
0.0
 11
18.59973089678115
 21
-13.77159925848144
 31
0.0
  0
LINE
  5
49
330
22
100
AcDbEntity
  8
0
100
AcDbLine
 10
22.59973089678116
 20
-9.771599258481472
 30
0.0
 11
23.67152766650562
 21
-13.77159925848147
 31
0.0
  0
ARC
  5
4A
330
22
100
AcDbEntity
  8
0
100
AcDbCircle
 10
22.59973089678116
 20
-7.271599258481472
 30
0.0
 40
2.5
100
AcDbArc
 50
270.0
 51
270.0000000000007
  0
LINE
  5
4B
330
22
100
AcDbEntity
  8
0
100
AcDbLine
 10
28.77130377203494
 20
-12.77159925848147
 30
0.0
 11
24.43885465448463
 21
-12.77159925848144
 31
0.0
  0
LINE
  5
4C
330
22
100
AcDbEntity
  8
0
100
AcDbLine
 10
3.599730896781125
 20
-4.771599258481472
 30
0.0
 11
2.599730896781125
 21
-4.771599258481472
 31
0.0
  0
LINE
  5
4D
330
22
100
AcDbEntity
  8
0
100
AcDbLine
 10
22.59973089678116
 20
-8.771599258481472
 30
0.0
 11
18.59973089678115
 21
-8.771599258481472
 31
0.0
  0
LINE
  5
4E
330
22
100
AcDbEntity
  8
0
100
AcDbLine
 10
22.59973089678116
 20
-5.771599258481472
 30
0.0
 11
18.59973089678115
 21
-5.771599258481472
 31
0.0
  0
LINE
  5
4F
330
22
100
AcDbEntity
  8
0
100
AcDbLine
 10
22.59973089678116
 20
-4.771599258481472
 30
0.0
 11
17.59973089678115
 21
-4.771599258481472
 31
0.0
  0
LINE
  5
50
330
22
100
AcDbEntity
  8
0
100
AcDbLine
 10
18.59973089678115
 20
-5.771599258481472
 30
0.0
 11
18.59973089678115
 21
-8.771599258481472
 31
0.0
  0
ARC
  5
51
330
22
100
AcDbEntity
  8
0
100
AcDbCircle
 10
22.59973089678116
 20
-7.271599258481472
 30
0.0
 40
1.5
100
AcDbArc
 50
270.0
 51
90.0
  0
ENDBLK
  5
52
330
22
100
AcDbEntity
  8
0
100
AcDbBlockEnd
  0
BLOCK
  5
295F
330
2955
100
AcDbEntity
  8
0
100
AcDbBlockBegin
  2
*D1
 70
     1
 10
0.0
 20
0.0
 30
0.0
  3
*D1
  1

  0
LINE
  5
2C2B
330
2955
100
AcDbEntity
  8
BEM
 62
     0
370
    -2
100
AcDbLine
 10
233.2060438882154
 20
502.750638128958
 30
0.0
 11
244.943931356173
 21
514.4885255969159
 31
0.0
  0
LINE
  5
2C2C
330
2955
100
AcDbEntity
  8
BEM
 62
     0
370
    -2
100
AcDbLine
 10
352.2121151619113
 20
383.744566855262
 30
0.0
 11
363.9500026298699
 21
395.4824543232208
 31
0.0
  0
LINE
  5
2C2D
330
2955
100
AcDbEntity
  8
BEM
 62
     0
370
    -2
100
AcDbLine
 10
248.4794652621058
 20
508.1245645662369
 30
0.0
 11
357.5860415991909
 21
399.0179882291534
 31
0.0
  0
SOLID
  5
2C2E
330
2955
100
AcDbEntity
  8
BEM
 62
     0
100
AcDbTrace
 10
249.3044231734901
 20
508.9495224776213
 30
0.0
 11
247.6545073507215
 21
507.2996066548527
 31
0.0
 12
243.5297177937999
 22
513.0743120345427
 32
0.0
 13
243.5297177937999
 23
513.0743120345427
 33
0.0
  0
SOLID
  5
2C2F
330
2955
100
AcDbEntity
  8
BEM
 62
     0
100
AcDbTrace
 10
358.4109995105752
 20
399.8429461405377
 30
0.0
 11
356.7610836878067
 21
398.1930303177692
 31
0.0
 12
362.5357890674968
 22
394.0682407608477
 32
0.0
 13
362.5357890674968
 23
394.0682407608477
 33
0.0
  0
MTEXT
  5
2C30
330
2955
100
AcDbEntity
  8
BEM
 62
     1
100
AcDbMText
 10
307.6289475083609
 20
458.1674704754078
 30
0.0
 40
7.0
 41
0.0
 71
     5
 72
     1
  1
\A1;%%c168.3
  7
GREEKS
 11
0.7071067811865529
 21
-0.7071067811865422
 31
0.0
 73
     1
 44
1.0
  0
POINT
  5
2C31
330
2955
100
AcDbEntity
  8
Defpoints
 62
     0
100
AcDbPoint
 10
231.7918303258423
 20
501.336424566585
 30
0.0
  0
POINT
  5
2C32
330
2955
100
AcDbEntity
  8
Defpoints
 62
     0
100
AcDbPoint
 10
350.7979015995382
 20
382.3303532928889
 30
0.0
  0
POINT
  5
2C33
330
2955
100
AcDbEntity
  8
Defpoints
 62
     0
100
AcDbPoint
 10
362.5357890674968
 20
394.0682407608477
 30
0.0
  0
ENDBLK
  5
2960
330
2955
100
AcDbEntity
  8
0
100
AcDbBlockEnd
  0
BLOCK
  5
2A30
330
2A26
100
AcDbEntity
  8
0
100
AcDbBlockBegin
  2
*D2
 70
     1
 10
0.0
 20
0.0
 30
0.0
  3
*D2
  1

  0
LINE
  5
2C19
330
2A26
100
AcDbEntity
  8
BEM
 62
     0
370
    -2
100
AcDbLine
 10
110.8955964000212
 20
276.5903214814543
 30
0.0
 11
95.23387372475891
 21
276.5903214814543
 31
0.0
  0
LINE
  5
2C1A
330
2A26
100
AcDbEntity
  8
BEM
 62
     0
370
    -2
100
AcDbLine
 10
129.2521345837788
 20
216.5914083692402
 30
0.0
 11
95.23387372475889
 21
216.5914083692402
 31
0.0
  0
LINE
  5
2C1B
330
2A26
100
AcDbEntity
  8
BEM
 62
     0
370
    -2
100
AcDbLine
 10
97.2338737247589
 20
269.5903214814543
 30
0.0
 11
97.2338737247589
 21
223.5914083692402
 31
0.0
  0
SOLID
  5
2C1C
330
2A26
100
AcDbEntity
  8
BEM
 62
     0
100
AcDbTrace
 10
96.06720705809223
 20
269.5903214814543
 30
0.0
 11
98.40054039142557
 21
269.5903214814543
 31
0.0
 12
97.2338737247589
 22
276.5903214814543
 32
0.0
 13
97.2338737247589
 23
276.5903214814543
 33
0.0
  0
SOLID
  5
2C1D
330
2A26
100
AcDbEntity
  8
BEM
 62
     0
100
AcDbTrace
 10
96.06720705809223
 20
223.5914083692402
 30
0.0
 11
98.40054039142557
 21
223.5914083692402
 31
0.0
 12
97.2338737247589
 22
216.5914083692402
 32
0.0
 13
97.2338737247589
 23
216.5914083692402
 33
0.0
  0
MTEXT
  5
2C1E
330
2A26
100
AcDbEntity
  8
BEM
 62
     1
100
AcDbMText
 10
90.73387372475886
 20
246.5908649253472
 30
0.0
 40
7.0
 41
0.0
 71
     5
 72
     1
  1
\A1;60
 11
0.0000000000000001
 21
1.0
 31
0.0
 73
     1
 44
1.0
  0
POINT
  5
2C1F
330
2A26
100
AcDbEntity
  8
Defpoints
 62
     0
100
AcDbPoint
 10
112.8955964000212
 20
276.5903214814543
 30
0.0
  0
POINT
  5
2C20
330
2A26
100
AcDbEntity
  8
Defpoints
 62
     0
100
AcDbPoint
 10
131.2521345837788
 20
216.5914083692402
 30
0.0
  0
POINT
  5
2C21
330
2A26
100
AcDbEntity
  8
Defpoints
 62
     0
100
AcDbPoint
 10
97.2338737247589
 20
216.5914083692402
 30
0.0
  0
ENDBLK
  5
2A31
330
2A26
100
AcDbEntity
  8
0
100
AcDbBlockEnd
  0
BLOCK
  5
2A3D
330
2A33
100
AcDbEntity
  8
0
100
AcDbBlockBegin
  2
*D3
 70
     1
 10
0.0
 20
0.0
 30
0.0
  3
*D3
  1

  0
LINE
  5
2C10
330
2A33
100
AcDbEntity
  8
BEM
 62
     0
370
    -2
100
AcDbLine
 10
129.2521345837788
 20
216.5914083692402
 30
0.0
 11
79.89344681770396
 21
216.5914083692402
 31
0.0
  0
LINE
  5
2C11
330
2A33
100
AcDbEntity
  8
BEM
 62
     0
370
    -2
100
AcDbLine
 10
195.052225275571
 20
347.5907482426172
 30
0.0
 11
79.89344681770399
 21
347.5907482426173
 31
0.0
  0
LINE
  5
2C12
330
2A33
100
AcDbEntity
  8
BEM
 62
     0
370
    -2
100
AcDbLine
 10
81.89344681770396
 20
223.5914083692402
 30
0.0
 11
81.89344681770398
 21
340.5907482426173
 31
0.0
  0
SOLID
  5
2C13
330
2A33
100
AcDbEntity
  8
BEM
 62
     0
100
AcDbTrace
 10
80.72678015103729
 20
223.5914083692402
 30
0.0
 11
83.06011348437063
 21
223.5914083692402
 31
0.0
 12
81.89344681770396
 22
216.5914083692402
 32
0.0
 13
81.89344681770396
 23
216.5914083692402
 33
0.0
  0
SOLID
  5
2C14
330
2A33
100
AcDbEntity
  8
BEM
 62
     0
100
AcDbTrace
 10
80.72678015103731
 20
340.5907482426173
 30
0.0
 11
83.06011348437065
 21
340.5907482426173
 31
0.0
 12
81.89344681770398
 22
347.5907482426173
 32
0.0
 13
81.89344681770398
 23
347.5907482426173
 33
0.0
  0
MTEXT
  5
2C15
330
2A33
100
AcDbEntity
  8
BEM
 62
     1
100
AcDbMText
 10
75.39344681770393
 20
282.0910783059288
 30
0.0
 40
7.0
 41
0.0
 71
     5
 72
     1
  1
\A1;131
 11
0.0000000000000001
 21
1.0
 31
0.0
 73
     1
 44
1.0
  0
POINT
  5
2C16
330
2A33
100
AcDbEntity
  8
Defpoints
 62
     0
100
AcDbPoint
 10
131.2521345837788
 20
216.5914083692402
 30
0.0
  0
POINT
  5
2C17
330
2A33
100
AcDbEntity
  8
Defpoints
 62
     0
100
AcDbPoint
 10
197.052225275571
 20
347.5907482426172
 30
0.0
  0
POINT
  5
2C18
330
2A33
100
AcDbEntity
  8
Defpoints
 62
     0
100
AcDbPoint
 10
81.89344681770398
 20
347.5907482426173
 30
0.0
  0
ENDBLK
  5
2A3E
330
2A33
100
AcDbEntity
  8
0
100
AcDbBlockEnd
  0
BLOCK
  5
2A4A
330
2A40
100
AcDbEntity
  8
0
100
AcDbBlockBegin
  2
*D4
 70
     1
 10
0.0
 20
0.0
 30
0.0
  3
*D4
  1

  0
LINE
  5
2AA1
330
2A40
100
AcDbEntity
  8
BEM
 62
     0
370
    -2
100
AcDbLine
 10
130.5522252755712
 20
222.4822560119704
 30
0.0
 11
130.5522252755712
 21
192.2972606445735
 31
0.0
  0
LINE
  5
2AA2
330
2A40
100
AcDbEntity
  8
BEM
 62
     0
370
    -2
100
AcDbLine
 10
263.5522252755712
 20
222.5914083692402
 30
0.0
 11
263.5522252755712
 21
192.2972606445735
 31
0.0
  0
LINE
  5
2AA3
330
2A40
100
AcDbEntity
  8
BEM
 62
     0
370
    -2
100
AcDbLine
 10
137.5522252755712
 20
194.2972606445735
 30
0.0
 11
256.5522252755712
 21
194.2972606445735
 31
0.0
  0
SOLID
  5
2AA4
330
2A40
100
AcDbEntity
  8
BEM
 62
     0
100
AcDbTrace
 10
137.5522252755712
 20
195.4639273112402
 30
0.0
 11
137.5522252755712
 21
193.1305939779069
 31
0.0
 12
130.5522252755712
 22
194.2972606445735
 32
0.0
 13
130.5522252755712
 23
194.2972606445735
 33
0.0
  0
SOLID
  5
2AA5
330
2A40
100
AcDbEntity
  8
BEM
 62
     0
100
AcDbTrace
 10
256.5522252755712
 20
195.4639273112402
 30
0.0
 11
256.5522252755712
 21
193.1305939779069
 31
0.0
 12
263.5522252755712
 22
194.2972606445735
 32
0.0
 13
263.5522252755712
 23
194.2972606445735
 33
0.0
  0
MTEXT
  5
2AA6
330
2A40
100
AcDbEntity
  8
BEM
 62
     1
100
AcDbMText
 10
197.0522252755712
 20
200.7972606445735
 30
0.0
 40
7.0
 41
0.0
 71
     5
 72
     1
  1
\A1;%%c133
  7
GREEKS
 73
     1
 44
1.0
  0
POINT
  5
2AA7
330
2A40
100
AcDbEntity
  8
Defpoints
 62
     0
100
AcDbPoint
 10
130.5522252755712
 20
224.4822560119704
 30
0.0
  0
POINT
  5
2AA8
330
2A40
100
AcDbEntity
  8
Defpoints
 62
     0
100
AcDbPoint
 10
263.5522252755712
 20
224.5914083692402
 30
0.0
  0
POINT
  5
2AA9
330
2A40
100
AcDbEntity
  8
Defpoints
 62
     0
100
AcDbPoint
 10
263.5522252755712
 20
194.2972606445735
 30
0.0
  0
ENDBLK
  5
2A4B
330
2A40
100
AcDbEntity
  8
0
100
AcDbBlockEnd
  0
BLOCK
  5
2A60
330
2A56
100
AcDbEntity
  8
0
100
AcDbBlockBegin
  2
*D5
 70
     1
 10
0.0
 20
0.0
 30
0.0
  3
*D5
  1

  0
LINE
  5
2A98
330
2A56
100
AcDbEntity
  8
BEM
 62
     0
370
    -2
100
AcDbLine
 10
230.3776167634693
 20
502.7506381289581
 30
0.0
 11
214.9858403963482
 21
518.1424144960791
 31
0.0
  0
LINE
  5
2A99
330
2A56
100
AcDbEntity
  8
BEM
 62
     0
370
    -2
100
AcDbLine
 10
195.6380117131979
 20
349.0049618049903
 30
0.0
 11
120.7431997092286
 21
423.8997738089592
 31
0.0
  0
LINE
  5
2A9A
330
2A56
100
AcDbEntity
  8
BEM
 62
     0
370
    -2
100
AcDbLine
 10
211.4503064904155
 20
511.7784534654003
 30
0.0
 11
127.1071607399075
 21
427.435307714892
 31
0.0
  0
SOLID
  5
2A9B
330
2A56
100
AcDbEntity
  8
BEM
 62
     0
100
AcDbTrace
 10
210.6253485790312
 20
512.6034113767844
 30
0.0
 11
212.2752644017998
 21
510.9534955540159
 31
0.0
 12
216.4000539587213
 22
516.728200933706
 32
0.0
 13
216.4000539587213
 23
516.728200933706
 33
0.0
  0
SOLID
  5
2A9C
330
2A56
100
AcDbEntity
  8
BEM
 62
     0
100
AcDbTrace
 10
126.2822028285233
 20
428.2602656262762
 30
0.0
 11
127.9321186512919
 21
426.6103498035077
 31
0.0
 12
122.1574132716017
 22
422.4855602465861
 32
0.0
 13
122.1574132716017
 23
422.4855602465861
 33
0.0
  0
MTEXT
  5
2A9D
330
2A56
100
AcDbEntity
  8
BEM
 62
     1
100
AcDbMText
 10
164.682539537449
 20
474.2030746678587
 30
0.0
 40
7.0
 41
0.0
 71
     5
 72
     1
  1
\A1;133
 11
0.7071067811865462
 21
0.7071067811865489
 31
0.0
 73
     1
 44
1.0
  0
POINT
  5
2A9E
330
2A56
100
AcDbEntity
  8
Defpoints
 62
     0
100
AcDbPoint
 10
231.7918303258424
 20
501.336424566585
 30
0.0
  0
POINT
  5
2A9F
330
2A56
100
AcDbEntity
  8
Defpoints
 62
     0
100
AcDbPoint
 10
197.052225275571
 20
347.5907482426172
 30
0.0
  0
POINT
  5
2AA0
330
2A56
100
AcDbEntity
  8
Defpoints
 62
     0
100
AcDbPoint
 10
122.1574132716017
 20
422.4855602465861
 30
0.0
  0
ENDBLK
  5
2A61
330
2A56
100
AcDbEntity
  8
0
100
AcDbBlockEnd
  0
ENDSEC
  0
SECTION
  2
ENTITIES
  0
LINE
  5
57
330
1E
100
AcDbEntity
  8
STEMPEL
100
AcDbLine
 10
410.0
 20
110.0
 30
0.0
 11
39.99999999999997
 21
110.0
 31
0.0
  0
LINE
  5
58
330
1E
100
AcDbEntity
  8
STEMPEL
100
AcDbLine
 10
146.0000000000001
 20
109.9999999999999
 30
0.0
 11
146.0
 21
9.999999999999971
 31
0.0
  0
LINE
  5
59
330
1E
100
AcDbEntity
  8
STEMPEL
100
AcDbLine
 10
230.0
 20
110.0
 30
0.0
 11
230.0
 21
9.999999999999971
 31
0.0
  0
LINE
  5
5A
330
1E
100
AcDbEntity
  8
STEMPEL
100
AcDbLine
 10
332.0
 20
109.9999999999997
 30
0.0
 11
332.0
 21
40.0
 31
0.0
  0
LINE
  5
5B
330
1E
100
AcDbEntity
  8
STEMPEL
100
AcDbLine
 10
145.9999999999999
 20
29.99999999999997
 30
0.0
 11
39.99999999999997
 21
29.99999999999997
 31
0.0
  0
LINE
  5
5C
330
1E
100
AcDbEntity
  8
STEMPEL
100
AcDbLine
 10
410.0
 20
40.0
 30
0.0
 11
146.0000000000001
 21
39.99999999999997
 31
0.0
  0
LINE
  5
5D
330
1E
100
AcDbEntity
  8
STEMPEL
100
AcDbLine
 10
410.0
 20
80.0
 30
0.0
 11
146.0000000000001
 21
79.99999999999994
 31
0.0
  0
LINE
  5
5E
330
1E
100
AcDbEntity
  8
VOLL
100
AcDbLine
 10
54.00000000000009
 20
110.0
 30
0.0
 11
53.99999999999997
 21
9.999999999999971
 31
0.0
  0
LINE
  5
5F
330
1E
100
AcDbEntity
  8
VOLL
100
AcDbLine
 10
104.0000000000001
 20
109.9999999999999
 30
0.0
 11
104.0
 21
9.999999999999971
 31
0.0
  0
LINE
  5
60
330
1E
100
AcDbEntity
  8
VOLL
100
AcDbLine
 10
124.0000000000001
 20
109.9999999999999
 30
0.0
 11
124.0
 21
9.999999999999971
 31
0.0
  0
LINE
  5
61
330
1E
100
AcDbEntity
  8
VOLL
100
AcDbLine
 10
164.0000000000001
 20
79.99999999999994
 30
0.0
 11
164.0000000000001
 21
39.99999999999997
 31
0.0
  0
LINE
  5
62
330
1E
100
AcDbEntity
  8
VOLL
100
AcDbLine
 10
190.0000000000001
 20
109.9999999999998
 30
0.0
 11
190.0
 21
39.99999999999997
 31
0.0
  0
LINE
  5
63
330
1E
100
AcDbEntity
  8
HILF
100
AcDbLine
 10
40.00000000000008
 20
100.0
 30
0.0
 11
146.0000000000001
 21
100.0
 31
0.0
  0
LINE
  5
64
330
1E
100
AcDbEntity
  8
HILF
100
AcDbLine
 10
40.00000000000008
 20
90.00000000000005
 30
0.0
 11
146.0000000000001
 21
90.00000000000005
 31
0.0
  0
LINE
  5
65
330
1E
100
AcDbEntity
  8
HILF
100
AcDbLine
 10
40.00000000000008
 20
79.99999999999994
 30
0.0
 11
146.0000000000001
 21
79.99999999999994
 31
0.0
  0
LINE
  5
66
330
1E
100
AcDbEntity
  8
HILF
100
AcDbLine
 10
40.00000000000008
 20
69.99999999999994
 30
0.0
 11
146.0000000000001
 21
69.99999999999994
 31
0.0
  0
LINE
  5
67
330
1E
100
AcDbEntity
  8
HILF
100
AcDbLine
 10
40.00000000000008
 20
59.99999999999997
 30
0.0
 11
146.0000000000001
 21
59.99999999999997
 31
0.0
  0
LINE
  5
68
330
1E
100
AcDbEntity
  8
HILF
100
AcDbLine
 10
40.00000000000008
 20
49.99999999999997
 30
0.0
 11
146.0000000000001
 21
49.99999999999997
 31
0.0
  0
LINE
  5
69
330
1E
100
AcDbEntity
  8
HILF
100
AcDbLine
 10
40.00000000000008
 20
39.99999999999997
 30
0.0
 11
146.0000000000001
 21
39.99999999999997
 31
0.0
  0
LINE
  5
6A
330
1E
100
AcDbEntity
  8
HILF
100
AcDbLine
 10
146.0000000000001
 20
69.99999999999994
 30
0.0
 11
230.0
 21
69.99999999999994
 31
0.0
  0
LINE
  5
6B
330
1E
100
AcDbEntity
  8
HILF
100
AcDbLine
 10
146.0000000000001
 20
59.99999999999997
 30
0.0
 11
230.0
 21
59.99999999999997
 31
0.0
  0
LINE
  5
6C
330
1E
100
AcDbEntity
  8
HILF
100
AcDbLine
 10
146.0000000000001
 20
49.99999999999997
 30
0.0
 11
230.0
 21
49.99999999999997
 31
0.0
  0
LINE
  5
6D
330
1E
100
AcDbEntity
  8
HILF
100
AcDbLine
 10
234.7736801096947
 20
84.03758247564139
 30
0.0
 11
324.8353916556311
 21
84.03758247564139
 31
0.0
  0
LINE
  5
6E
330
1E
100
AcDbEntity
  8
HILF
100
AcDbLine
 10
234.7736801096947
 20
69.99999999999994
 30
0.0
 11
324.835391655631
 21
69.99999999999994
 31
0.0
  0
LINE
  5
6F
330
1E
100
AcDbEntity
  8
HILF
100
AcDbLine
 10
234.7736801096947
 20
59.99999999999997
 30
0.0
 11
324.835391655631
 21
59.99999999999997
 31
0.0
  0
LINE
  5
70
330
1E
100
AcDbEntity
  8
HILF
100
AcDbLine
 10
234.7736801096947
 20
49.99999999999997
 30
0.0
 11
324.835391655631
 21
49.99999999999997
 31
0.0
  0
LINE
  5
71
330
1E
100
AcDbEntity
  8
VOLL
100
AcDbLine
 10
332.0
 20
60.0
 30
0.0
 11
410.0
 21
60.0
 31
0.0
  0
LINE
  5
72
330
1E
100
AcDbEntity
  8
HILF
100
AcDbLine
 10
336.7238616296993
 20
83.77983636955827
 30
0.0
 11
404.8588839326728
 21
83.77983636955827
 31
0.0
  0
LINE
  5
73
330
1E
100
AcDbEntity
  8
HILF
100
AcDbLine
 10
233.4909699289885
 20
14.89398258028314
 30
0.0
 11
404.8588839326728
 21
14.89398258028314
 31
0.0
  0
TEXT
  5
74
330
1E
100
AcDbEntity
  8
TEXT
100
AcDbText
 10
67.79509897490102
 20
18.67381894984132
 30
0.0
 40
4.0
  1
Änderung
 41
0.8
  7
GREEKS
 72
     1
 11
78.53795611775817
 21
18.67381894984132
 31
0.0
100
AcDbText
  0
TEXT
  5
75
330
1E
100
AcDbEntity
  8
TEXT
100
AcDbText
 10
153.5163572150377
 20
102.4620895087088
 30
0.0
 40
5.0
  1
Maßstab
 41
0.8
  7
GREEKS
100
AcDbText
  0
TEXT
  5
76
330
1E
100
AcDbEntity
  8
TEXT
100
AcDbText
 10
194.2858954734051
 20
102.4184168434819
 30
0.0
 40
5.0
  1
Zul. Abw.
 41
0.8
  7
GREEKS
100
AcDbText
  0
TEXT
  5
77
330
1E
100
AcDbEntity
  8
TEXT
100
AcDbText
 10
234.877940380901
 20
102.5489328011779
 30
0.0
 40
5.0
  1
Benennung
 41
0.8
  7
GREEKS
100
AcDbText
  0
TEXT
  5
78
330
1E
100
AcDbEntity
  8
TEXT
100
AcDbText
 10
336.178754957634
 20
102.3132034537136
 30
0.0
 40
5.0
  1
Zeichnungs Nr.
 41
0.8
  7
GREEKS
100
AcDbText
  0
TEXT
  5
79
330
1E
100
AcDbEntity
  8
TEXT
100
AcDbText
 10
234.742238391136
 20
30.84560570193057
 30
0.0
 40
5.0
  1
Bauvorhaben
 41
0.8
  7
GREEKS
100
AcDbText
  0
TEXT
  5
7A
330
1E
100
AcDbEntity
  8
TEXT
100
AcDbText
 10
336.7238616296993
 20
73.1811823709997
 30
0.0
 40
5.0
  1
Ersatz für:
 41
0.8
  7
GREEKS
100
AcDbText
  0
TEXT
  5
7B
330
1E
100
AcDbEntity
  8
TEXT
100
AcDbText
 10
48.26641107045756
 20
13.65465846027192
 30
0.0
 40
4.0
  1
Index
 50
90.0
 41
0.8
  7
GREEKS
100
AcDbText
  0
TEXT
  5
7C
330
1E
100
AcDbEntity
  8
TEXT
100
AcDbText
 10
110.6986119235389
 20
18.6715626933981
 30
0.0
 40
4.0
  1
Tag
 41
0.8
  7
GREEKS
 72
     1
 11
114.4319452568723
 21
18.6715626933981
 31
0.0
100
AcDbText
  0
TEXT
  5
7D
330
1E
100
AcDbEntity
  8
TEXT
100
AcDbText
 10
129.0122744386592
 20
18.59324216966408
 30
0.0
 40
4.0
  1
Name
 41
0.8
  7
GREEKS
 72
     1
 11
135.3360839624688
 21
18.59324216966408
 31
0.0
100
AcDbText
  0
TEXT
  5
7E
330
1E
100
AcDbEntity
  8
TEXT
100
AcDbText
 10
172.331167315365
 20
73.31880501229926
 30
0.0
 40
4.0
  1
Tag
 41
0.8
  7
GREEKS
100
AcDbText
  0
TEXT
  5
7F
330
1E
100
AcDbEntity
  8
TEXT
100
AcDbText
 10
202.4626584226295
 20
73.30961091915225
 30
0.0
 40
4.0
  1
Name
 41
0.8
  7
GREEKS
100
AcDbText
  0
TEXT
  5
80
330
1E
100
AcDbEntity
  8
TEXT
100
AcDbText
 10
147.5836127167615
 20
63.62990369617964
 30
0.0
 40
4.0
  1
Gez.
 41
0.8
  7
GREEKS
100
AcDbText
  0
TEXT
  5
81
330
1E
100
AcDbEntity
  8
TEXT
100
AcDbText
 10
147.5515086571672
 20
53.68926291428377
 30
0.0
 40
4.0
  1
Gepr.
 41
0.8
  7
GREEKS
100
AcDbText
  0
TEXT
  5
82
330
1E
100
AcDbEntity
  8
TEXT
100
AcDbText
 10
147.6006777387303
 20
43.52946389649807
 30
0.0
 40
4.0
  1
Norm.
 41
0.8
  7
GREEKS
100
AcDbText
  0
LINE
  5
83
330
1E
100
AcDbEntity
  8
STEMPEL
100
AcDbLine
 10
49.99999999999989
 20
10.0
 30
0.0
 11
410.0
 21
10.0
 31
0.0
  0
TEXT
  5
84
330
1E
100
AcDbEntity
  8
TEXT
100
AcDbText
 10
337.2400861497006
 20
52.07416177878602
 30
0.0
 40
5.0
  1
ersetzt durch:
 41
0.8
  7
GREEKS
100
AcDbText
  0
LINE
  5
85
330
1E
100
AcDbEntity
  8
STEMPEL
100
AcDbLine
 10
410.0
 20
10.0
 30
0.0
 11
39.99999999999989
 21
10.0
 31
0.0
  0
LINE
  5
86
330
1E
100
AcDbEntity
  8
STEMPEL
100
AcDbLine
 10
410.0
 20
10.0
 30
0.0
 11
410.0
 21
584.0
 31
0.0
  0
LINE
  5
87
330
1E
100
AcDbEntity
  8
STEMPEL
100
AcDbLine
 10
40.0
 20
10.0
 30
0.0
 11
39.99999999999989
 21
584.0
 31
0.0
  0
LINE
  5
88
330
1E
100
AcDbEntity
  8
STEMPEL
100
AcDbLine
 10
410.0
 20
584.0
 30
0.0
 11
39.99999999999989
 21
584.0
 31
0.0
  0
LINE
  5
89
330
1E
100
AcDbEntity
  8
HILF
100
AcDbLine
 10
0.0
 20
0.0
 30
0.0
 11
-0.0000000000001137
 21
594.0
 31
0.0
  0
LINE
  5
8A
330
1E
100
AcDbEntity
  8
HILF
100
AcDbLine
 10
419.9999999999999
 20
594.0000000000002
 30
0.0
 11
0.0
 21
594.0
 31
0.0
  0
LINE
  5
8B
330
1E
100
AcDbEntity
  8
HILF
100
AcDbLine
 10
420.0
 20
0.0
 30
0.0
 11
0.0
 21
0.0
 31
0.0
  0
LINE
  5
8C
330
1E
100
AcDbEntity
  8
HILF
100
AcDbLine
 10
31.08767135713856
 20
297.0
 30
0.0
 11
0.0000000000001137
 21
297.0
 31
0.0
  0
LINE
  5
8E
330
1E
100
AcDbEntity
  8
HILF
100
AcDbLine
 10
420.0
 20
-0.0000000000001137
 30
0.0
 11
419.9999999999999
 21
594.0
 31
0.0
  0
TEXT
  5
8F
330
1E
100
AcDbEntity
  8
VOLL
100
AcDbText
 10
78.07675471698113
 20
31.02594776470585
 30
0.0
 40
1.8
  1

  7
GREEKS
100
AcDbText
  0
TEXT
  5
90
330
1E
100
AcDbEntity
  8
TEXT
100
AcDbText
 10
41.85509950977674
 20
111.6719999999999
 30
0.0
 40
5.0
  1
Erstellt mit AUTOCAD 2004
 41
0.8
  7
GREEKS
100
AcDbText
  0
TEXT
  5
91
330
1E
100
AcDbEntity
  8
TEXT
100
AcDbText
 10
204.4216048581257
 20
63.0896391972351
 30
0.0
 40
4.0
  1
Koeh
 41
0.8
  7
GREEKS
 72
     1
 11
209.6787477152686
 21
63.0896391972351
 31
0.0
100
AcDbText
  0
TEXT
  5
92
330
1E
100
AcDbEntity
  8
TEXT
 62
     1
100
AcDbText
 10
347.3097540684081
 20
88.14901428913959
 30
0.0
 40
7.0
  1
58032125W
 41
0.8
  7
GREEKS
 72
     1
 11
370.7764207350748
 21
88.14901428913959
 31
0.0
100
AcDbText
  0
TEXT
  5
93
330
1E
100
AcDbEntity
  8
TEXT
 62
     1
100
AcDbText
 10
160.5006306481887
 20
88.14901428913959
 30
0.0
 40
7.0
  1
1:2
 41
0.8
  7
GREEKS
100
AcDbText
  0
TEXT
  5
95
330
1E
100
AcDbEntity
  8
TEXT
 62
     1
100
AcDbText
 10
236.8935731057402
 20
87.41748789253779
 30
0.0
 40
7.0
  1
Verbundrohr DN125
 41
0.8
  7
GREEKS
100
AcDbText
  0
TEXT
  5
98
330
1E
100
AcDbEntity
  8
TEXT
100
AcDbText
 10
235.1296391125315
 20
51.64011943042158
 30
0.0
 40
5.0
  1
EDV-Art.Nr. 58032.125X
 41
0.8
  7
GREEKS
100
AcDbText
  0
TEXT
  5
99
330
1E
100
AcDbEntity
  8
TEXT
100
AcDbText
 10
234.9837501577827
 20
42.62974153022632
 30
0.0
 40
4.0
  1
58032125W.DWG
 41
0.8
  7
GREEKS
100
AcDbText
  0
TEXT
  5
9A
330
1E
100
AcDbEntity
  8
TEXT
100
AcDbText
 10
192.626132208084
 20
90.76363841023022
 30
0.0
 40
4.0
  1
DIN EN1123-2
 41
0.8
  7
GREEKS
 72
     1
 11
209.6166083985602
 21
90.76363841023022
 31
0.0
100
AcDbText
  0
INSERT
  5
9B
330
1E
100
AcDbEntity
  8
STEMPEL
100
AcDbBlockReference
  2
LOGO
 10
150.9955485457794
 20
45.02105276448322
 30
0.0
 41
2.0
 42
2.0
 43
2.0
  0
TEXT
  5
2C0
330
1E
100
AcDbEntity
  8
BEM
100
AcDbText
 10
417.3022923857165
 20
10.16790107998861
 30
0.0
 40
4.0
  1
Diese Zeichnung ist urheberrechtlich geschützt und bleibt unser Eigentum. Sie darf weder ganz noch teilweise verfielfältigt und nicht an Dritte weitergegeben werden.
 50
90.0
 41
0.8
  7
GREEKS
100
AcDbText
  0
TEXT
  5
77A
330
1E
100
AcDbEntity
  8
TEXT
100
AcDbText
 10
235.1296391125315
 20
71.64011943042154
 30
0.0
 40
5.0
  1
Bogen 45°
 41
0.8
  7
GREEKS
100
AcDbText
  0
TEXT
  5
78C
330
1E
100
AcDbEntity
  8
TEXT
 62
     1
100
AcDbText
 10
255.030129115258
 20
129.7422179729062
 30
0.0
 40
7.0
  1
und innenbeschichtet
 41
0.8
  7
GREEKS
100
AcDbText
  0
TEXT
  5
78D
330
1E
100
AcDbEntity
  8
TEXT
 62
     1
100
AcDbText
 10
203.5978685380308
 20
117.4850225199828
 30
0.0
 40
7.0
  1
Dämmung: 2 K-PU-Schaum
 41
0.8
  7
GREEKS
100
AcDbText
  0
TEXT
  5
78E
330
1E
100
AcDbEntity
  8
TEXT
 62
     1
100
AcDbText
 10
207.3756002392443
 20
141.011271812132
 30
0.0
 40
7.0
  1
Innenrohr: E195 EN10305 feuerverzinkt
 41
0.8
  7
GREEKS
100
AcDbText
  0
TEXT
  5
78F
330
1E
100
AcDbEntity
  8
TEXT
 62
     1
100
AcDbText
 10
203.6033828683802
 20
152.364339848487
 30
0.0
 40
7.0
  1
Außenrohr: P235 TR1 EN10217-1 feuerverzinkt
 41
0.8
  7
GREEKS
100
AcDbText
  0
LINE
  5
28F3
330
1E
100
AcDbEntity
  8
MITTEL
100
AcDbLine
 10
197.052225275571
 20
347.5907482426172
 30
0.0
 11
197.0522252755713
 21
211.5914083692402
 31
0.0
  0
LINE
  5
28F4
102
{ACAD_REACTORS
330
2B23
102
}
330
1E
100
AcDbEntity
  8
STEMPEL
100
AcDbLine
 10
131.2521345837788
 20
216.5914083692402
 30
0.0
 11
262.8523159673639
 21
216.5914083692402
 31
0.0
  0
LINE
  5
28F6
330
1E
100
AcDbEntity
  8
MITTEL
100
AcDbLine
 10
197.052225275571
 20
347.5907482426172
 30
0.0
 11
294.8314867564088
 21
445.3700097234554
 31
0.0
  0
LINE
  5
28F8
102
{ACAD_REACTORS
330
2B23
330
2BAF
102
}
330
1E
100
AcDbEntity
  8
STEMPEL
100
AcDbLine
 10
130.5522252755713
 20
310.3115276290389
 30
0.0
 11
130.5522252755713
 21
224.5914083692402
 31
0.0
  0
LINE
  5
28FA
330
1E
100
AcDbEntity
  8
HILF
100
AcDbLine
 10
135.5713244632882
 20
224.5914083692401
 30
0.0
 11
258.5331260878543
 21
224.5914083692402
 31
0.0
  0
LINE
  5
28FB
102
{ACAD_REACTORS
330
2B23
102
}
330
1E
100
AcDbEntity
  8
STEMPEL
100
AcDbLine
 10
130.5522252755713
 20
224.5914083692402
 30
0.0
 11
131.2521345837787
 21
216.5914083692402
 31
0.0
  0
LINE
  5
28FC
102
{ACAD_REACTORS
330
2B23
102
}
330
1E
100
AcDbEntity
  8
STEMPEL
100
AcDbLine
 10
133.0522252755713
 20
310.3115276290389
 30
0.0
 11
133.0522252755713
 21
224.7005607265109
 31
0.0
  0
LINE
  5
28FD
102
{ACAD_REACTORS
330
2B23
102
}
330
1E
100
AcDbEntity
  8
STEMPEL
100
AcDbLine
 10
133.0522252755713
 20
224.7005607265109
 30
0.0
 11
133.7616841776372
 21
216.5914083692402
 31
0.0
  0
LINE
  5
28FF
102
{ACAD_REACTORS
330
2B23
102
}
330
1E
100
AcDbEntity
  8
STEMPEL
100
AcDbLine
 10
261.0522252755714
 20
310.3115276290389
 30
0.0
 11
261.0522252755714
 21
224.7005607265109
 31
0.0
  0
LINE
  5
2900
102
{ACAD_REACTORS
330
2B23
330
2BAF
102
}
330
1E
100
AcDbEntity
  8
STEMPEL
100
AcDbLine
 10
263.5522252755714
 20
310.3115276290389
 30
0.0
 11
263.5522252755714
 21
224.5914083692402
 31
0.0
  0
LINE
  5
2902
102
{ACAD_REACTORS
330
2B23
102
}
330
1E
100
AcDbEntity
  8
STEMPEL
100
AcDbLine
 10
261.0522252755714
 20
224.7005607265109
 30
0.0
 11
260.3427663735055
 21
216.5914083692402
 31
0.0
  0
LINE
  5
2903
102
{ACAD_REACTORS
330
2B23
102
}
330
1E
100
AcDbEntity
  8
STEMPEL
100
AcDbLine
 10
263.5522252755714
 20
224.5914083692402
 30
0.0
 11
262.852315967364
 21
216.5914083692402
 31
0.0
  0
ARC
  5
2905
330
1E
100
AcDbEntity
  8
MITTEL
100
AcDbCircle
 10
287.0522252755712
 20
310.3115276290389
 30
0.0
 40
90.0
100
AcDbArc
 50
135.0000000000001
 51
180.0
  0
ARC
  5
2906
102
{ACAD_REACTORS
330
2B23
330
2BAF
102
}
330
1E
100
AcDbEntity
  8
STEMPEL
100
AcDbCircle
 10
287.0522252755712
 20
310.3115276290389
 30
0.0
 40
23.5
100
AcDbArc
 50
135.0000000000001
 51
180.0
  0
ARC
  5
2907
102
{ACAD_REACTORS
330
29A0
330
2B23
330
2BAF
102
}
330
1E
100
AcDbEntity
  8
STEMPEL
100
AcDbCircle
 10
287.0522252755712
 20
310.3115276290389
 30
0.0
 40
156.5
100
AcDbArc
 50
135.0000000000001
 51
180.0
  0
ARC
  5
2908
102
{ACAD_REACTORS
330
2B23
102
}
330
1E
100
AcDbEntity
  8
STEMPEL
100
AcDbCircle
 10
287.0522252755712
 20
310.3115276290389
 30
0.0
 40
26.0
100
AcDbArc
 50
135.0000000000001
 51
180.0
  0
ARC
  5
2909
102
{ACAD_REACTORS
330
2B23
102
}
330
1E
100
AcDbEntity
  8
STEMPEL
100
AcDbCircle
 10
287.0522252755712
 20
310.3115276290389
 30
0.0
 40
154.0
100
AcDbArc
 50
135.0000000000001
 51
180.0
  0
LINE
  5
290A
102
{ACAD_REACTORS
330
2B23
330
2B58
102
}
330
1E
100
AcDbEntity
  8
STEMPEL
100
AcDbLine
 10
176.3900140198763
 20
420.9737388847332
 30
0.0
 11
270.4352159176873
 21
326.9285369869227
 31
0.0
  0
LINE
  5
290B
102
{ACAD_REACTORS
330
2B58
330
2BE3
102
}
330
1E
100
AcDbEntity
  8
STEMPEL
100
AcDbLine
 10
342.7428556675236
 20
390.3853992249042
 30
0.0
 11
342.3942231896094
 21
389.4275393641465
 31
0.0
  0
LINE
  5
290C
102
{ACAD_REACTORS
330
2B58
102
}
330
1E
100
AcDbEntity
  8
STEMPEL
100
AcDbLine
 10
340.7923406457489
 20
392.3359142466787
 30
0.0
 11
340.0449916376447
 21
390.2825897224603
 31
0.0
  0
ARC
  5
290D
102
{ACAD_REACTORS
330
2B58
102
}
330
1E
100
AcDbEntity
  8
STEMPEL
100
AcDbCircle
 10
314.2034445660324
 20
399.6881436639159
 30
0.0
 40
27.5
100
AcDbArc
 50
315.0
 51
339.9999999999935
  0
ARC
  5
290E
102
{ACAD_REACTORS
330
2B58
330
2BE3
102
}
330
1E
100
AcDbEntity
  8
STEMPEL
100
AcDbCircle
 10
314.2034445660324
 20
399.6881436639159
 30
0.0
 40
30.0
100
AcDbArc
 50
315.0
 51
339.9999999999935
  0
LINE
  5
290F
102
{ACAD_REACTORS
330
2BAF
330
2BE3
102
}
330
1E
100
AcDbEntity
  8
STEMPEL
100
AcDbLine
 10
337.4335834351127
 20
373.0672544593454
 30
0.0
 11
333.7212728338836
 21
376.7795650605747
 31
0.0
  0
LINE
  5
2910
102
{ACAD_REACTORS
330
2B58
330
2BAF
102
}
330
1E
100
AcDbEntity
  8
STEMPEL
100
AcDbLine
 10
321.9060391344769
 20
364.9647043462888
 30
0.0
 11
321.9062256270377
 21
364.9645178537286
 31
0.0
  0
LINE
  5
2911
102
{ACAD_REACTORS
330
2B58
330
2BAF
330
2BE3
102
}
330
1E
100
AcDbEntity
  8
STEMPEL
100
AcDbLine
 10
335.4166480016288
 20
378.4749402283196
 30
0.0
 11
321.9062256270377
 21
364.9645178537286
 31
0.0
  0
LINE
  5
2912
102
{ACAD_REACTORS
330
2B58
102
}
330
1E
100
AcDbEntity
  8
STEMPEL
100
AcDbLine
 10
333.6488810486621
 20
380.2427071812861
 30
0.0
 11
320.138458674071
 21
366.7322848066949
 31
0.0
  0
ARC
  5
2913
102
{ACAD_REACTORS
330
2B58
102
}
330
1E
100
AcDbEntity
  8
STEMPEL
100
AcDbCircle
 10
317.1042634760001
 20
341.0706726106538
 30
0.0
 40
20.5
100
AcDbArc
 50
109.772855634097
 51
135.0
  0
ARC
  5
2914
102
{ACAD_REACTORS
330
2B58
330
2BAF
102
}
330
1E
100
AcDbEntity
  8
STEMPEL
100
AcDbCircle
 10
317.1042634760001
 20
341.0706726106538
 30
0.0
 40
18.0
100
AcDbArc
 50
109.9928416634576
 51
135.0
  0
ARC
  5
2915
102
{ACAD_REACTORS
330
2B58
330
2BAF
102
}
330
1E
100
AcDbEntity
  8
STEMPEL
100
AcDbCircle
 10
282.0803590989171
 20
356.9584564790023
 30
0.0
 40
18.0
100
AcDbArc
 50
280.2280559680509
 51
315.0
  0
LINE
  5
2916
102
{ACAD_REACTORS
330
2B58
330
2BAF
102
}
330
1E
100
AcDbEntity
  8
STEMPEL
100
AcDbLine
 10
304.3763414146417
 20
353.7985946720117
 30
0.0
 11
294.8082811602747
 21
344.2305344176446
 31
0.0
  0
LINE
  5
2917
102
{ACAD_REACTORS
330
2B58
102
}
330
1E
100
AcDbEntity
  8
STEMPEL
100
AcDbLine
 10
302.6085744616753
 20
355.5663616249782
 30
0.0
 11
293.0405142073086
 21
345.9983013706111
 31
0.0
  0
ARC
  5
2918
102
{ACAD_REACTORS
330
2B58
102
}
330
1E
100
AcDbEntity
  8
STEMPEL
100
AcDbCircle
 10
282.0803590989172
 20
356.9584564790025
 30
0.0
 40
15.5
100
AcDbArc
 50
280.2280559680509
 51
315.0
  0
ARC
  5
2919
102
{ACAD_REACTORS
330
2B58
330
2BAF
102
}
330
1E
100
AcDbEntity
  8
STEMPEL
100
AcDbCircle
 10
300.6930221914414
 20
386.1777212893248
 30
0.0
 40
29.99973625969209
100
AcDbArc
 50
289.9928416634577
 51
315.0
  0
ARC
  5
291A
102
{ACAD_REACTORS
330
2B58
102
}
330
1E
100
AcDbEntity
  8
STEMPEL
100
AcDbCircle
 10
300.6930221914414
 20
386.1777212893248
 30
0.0
 40
27.5
100
AcDbArc
 50
290.1568310699678
 51
315.0
  0
ARC
  5
291B
102
{ACAD_REACTORS
330
2B58
102
}
330
1E
100
AcDbEntity
  8
STEMPEL
100
AcDbCircle
 10
287.0522252755716
 20
329.4034107210756
 30
0.0
 40
12.5
100
AcDbArc
 50
100.2280559680509
 51
135.0
  0
ARC
  5
291C
102
{ACAD_REACTORS
330
2B58
330
2BAF
102
}
330
1E
100
AcDbEntity
  8
STEMPEL
100
AcDbCircle
 10
287.0522252755716
 20
329.4034107210756
 30
0.0
 40
10.0
100
AcDbArc
 50
100.2280559680509
 51
135.0
  0
TEXT
  5
291D
330
1E
100
AcDbEntity
  8
TEXT
 62
     1
100
AcDbText
 10
258.612914645813
 20
422.0334393183779
 30
0.0
 40
7.0
  1
DN125
 50
45.00000000000001
 41
0.8
  7
GREEKS
100
AcDbText
  0
LINE
  5
291E
330
1E
100
AcDbEntity
  8
HILF
100
AcDbLine
 10
209.2894519734187
 20
455.2164591775968
 30
0.0
 11
304.6779362105504
 21
359.8279749404655
 31
0.0
  0
LINE
  5
291F
330
1E
100
AcDbEntity
  8
HILF
100
AcDbLine
 10
191.4130404530966
 20
430.3248096356038
 30
0.0
 11
279.7862866685574
 21
341.9515634201431
 31
0.0
  0
LINE
  5
2920
330
1E
100
AcDbEntity
  8
HILF
100
AcDbLine
 10
194.1783809602922
 20
438.3104891434811
 30
0.0
 11
287.7719661764351
 21
344.7169039273386
 31
0.0
  0
LINE
  5
2921
102
{ACAD_REACTORS
330
2B58
330
2B82
330
2BE3
102
}
330
1E
100
AcDbEntity
  8
STEMPEL
100
AcDbLine
 10
350.7979015995384
 20
382.3303532928889
 30
0.0
 11
231.7918303258424
 21
501.336424566585
 31
0.0
  0
LINE
  5
2924
102
{ACAD_REACTORS
330
2B58
102
}
330
1E
100
AcDbEntity
  8
STEMPEL
100
AcDbLine
 10
241.7973912796323
 20
491.3308636127951
 30
0.0
 11
239.7440667554139
 21
490.5835146046911
 31
0.0
  0
LINE
  5
2925
102
{ACAD_REACTORS
330
2B58
330
2BE3
102
}
330
1E
100
AcDbEntity
  8
STEMPEL
100
AcDbLine
 10
239.8468762578576
 20
493.2813786345702
 30
0.0
 11
238.8890163970999
 21
492.932746156656
 31
0.0
  0
ARC
  5
2926
102
{ACAD_REACTORS
330
2B58
330
2BE3
102
}
330
1E
100
AcDbEntity
  8
STEMPEL
100
AcDbCircle
 10
249.1496206968701
 20
464.7419675330784
 30
0.0
 40
30.0
100
AcDbArc
 50
110.0000000000065
 51
135.0
  0
ARC
  5
2927
102
{ACAD_REACTORS
330
2B58
102
}
330
1E
100
AcDbEntity
  8
STEMPEL
100
AcDbCircle
 10
249.1496206968701
 20
464.7419675330784
 30
0.0
 40
27.5
100
AcDbArc
 50
110.0000000000065
 51
135.0
  0
LINE
  5
2928
102
{ACAD_REACTORS
330
2B58
330
2BAF
102
}
330
1E
100
AcDbEntity
  8
STEMPEL
100
AcDbLine
 10
214.4261813792425
 20
472.4445621015235
 30
0.0
 11
214.4259948866824
 21
472.4447485940839
 31
0.0
  0
LINE
  5
2929
102
{ACAD_REACTORS
330
2B58
102
}
330
1E
100
AcDbEntity
  8
STEMPEL
100
AcDbLine
 10
229.7041842142397
 20
484.1874040157086
 30
0.0
 11
216.1937618396486
 21
470.6769816411175
 31
0.0
  0
LINE
  5
292A
102
{ACAD_REACTORS
330
2B58
330
2BAF
330
2BE3
102
}
330
1E
100
AcDbEntity
  8
STEMPEL
100
AcDbLine
 10
227.9364172612736
 20
485.9551709686749
 30
0.0
 11
214.4259948866824
 21
472.4447485940839
 31
0.0
  0
LINE
  5
292B
102
{ACAD_REACTORS
330
2BAF
330
2BE3
102
}
330
1E
100
AcDbEntity
  8
STEMPEL
100
AcDbLine
 10
226.2410420935283
 20
484.2597958009299
 30
0.0
 11
222.528731492299
 21
487.9721064021594
 31
0.0
  0
ARC
  5
292C
102
{ACAD_REACTORS
330
2B58
102
}
330
1E
100
AcDbEntity
  8
STEMPEL
100
AcDbCircle
 10
190.532149643608
 20
467.6427864430457
 30
0.0
 40
20.5
100
AcDbArc
 50
315.0
 51
340.2271443659088
  0
ARC
  5
292D
102
{ACAD_REACTORS
330
2B58
330
2BAF
102
}
330
1E
100
AcDbEntity
  8
STEMPEL
100
AcDbCircle
 10
190.532149643608
 20
467.6427864430457
 30
0.0
 40
18.0
100
AcDbArc
 50
315.0
 51
340.007158336551
  0
ARC
  5
292E
102
{ACAD_REACTORS
330
2B58
330
2BAF
102
}
330
1E
100
AcDbEntity
  8
STEMPEL
100
AcDbCircle
 10
178.8648877540297
 20
437.5907482426176
 30
0.0
 40
10.0
100
AcDbArc
 50
315.0
 51
349.771944031949
  0
ARC
  5
292F
102
{ACAD_REACTORS
330
2B58
102
}
330
1E
100
AcDbEntity
  8
STEMPEL
100
AcDbCircle
 10
206.4199335119566
 20
432.6188820659631
 30
0.0
 40
15.5
100
AcDbArc
 50
135.0
 51
169.771944031949
  0
ARC
  5
2930
102
{ACAD_REACTORS
330
2B58
330
2BAF
102
}
330
1E
100
AcDbEntity
  8
STEMPEL
100
AcDbCircle
 10
206.4199335119566
 20
432.6188820659631
 30
0.0
 40
18.0
100
AcDbArc
 50
135.0
 51
169.771944031949
  0
LINE
  5
2931
102
{ACAD_REACTORS
330
2B58
102
}
330
1E
100
AcDbEntity
  8
STEMPEL
100
AcDbLine
 10
205.0278386579318
 20
453.1470974287218
 30
0.0
 11
195.4597784035648
 21
443.5790371743548
 31
0.0
  0
LINE
  5
2932
102
{ACAD_REACTORS
330
2B58
330
2BAF
102
}
330
1E
100
AcDbEntity
  8
STEMPEL
100
AcDbLine
 10
203.2600717049653
 20
454.9148643816879
 30
0.0
 11
193.6920114505985
 21
445.346804127321
 31
0.0
  0
ARC
  5
2933
102
{ACAD_REACTORS
330
2B58
102
}
330
1E
100
AcDbEntity
  8
STEMPEL
100
AcDbCircle
 10
178.8648877540297
 20
437.5907482426176
 30
0.0
 40
12.5
100
AcDbArc
 50
315.0
 51
349.771944031949
  0
ARC
  5
2934
102
{ACAD_REACTORS
330
2B58
102
}
330
1E
100
AcDbEntity
  8
STEMPEL
100
AcDbCircle
 10
235.639198322279
 20
451.2315451584871
 30
0.0
 40
27.5
100
AcDbArc
 50
135.0
 51
159.8431689300322
  0
ARC
  5
2935
102
{ACAD_REACTORS
330
2B58
330
2BAF
102
}
330
1E
100
AcDbEntity
  8
STEMPEL
100
AcDbCircle
 10
235.639198322279
 20
451.2315451584871
 30
0.0
 40
29.99973625969209
100
AcDbArc
 50
135.0
 51
160.007158336551
  0
LINE
  5
2936
102
{ACAD_REACTORS
330
2B58
102
}
330
1E
100
AcDbEntity
  8
STEMPEL
100
AcDbLine
 10
187.7037225188614
 20
428.7519134777858
 30
0.0
 11
178.1577809728428
 21
419.2059719317671
 31
0.0
  0
LINE
  5
2937
102
{ACAD_REACTORS
330
29A0
330
2B58
330
2BAF
102
}
330
1E
100
AcDbEntity
  8
STEMPEL
100
AcDbLine
 10
185.9359555658949
 20
430.5196804307525
 30
0.0
 11
176.3900140198764
 21
420.9737388847339
 31
0.0
  0
LINE
  5
293A
330
1E
100
AcDbEntity
  8
MITTEL
100
AcDbLine
 10
197.0511383877856
 20
347.5896613548317
 30
0.0
 11
294.8303998686231
 21
445.3689228356696
 31
0.0
  0
LINE
  5
293B
102
{ACAD_REACTORS
330
2949
330
2B82
102
}
330
1E
100
AcDbEntity
  8
STEMPEL
100
AcDbLine
 10
350.7979015995384
 20
382.3303532928889
 30
0.0
 11
281.1955964000215
 21
312.7280480933716
 31
0.0
  0
LINE
  5
293C
102
{ACAD_REACTORS
330
2B82
330
2BAF
330
2BE3
102
}
330
1E
100
AcDbEntity
  8
STEMPEL
100
AcDbLine
 10
348.7472919340976
 20
384.38096295833
 30
0.0
 11
278.2955964000213
 21
313.9292674242536
 31
0.0
  0
DIMENSION
  5
293D
330
1E
100
AcDbEntity
  8
BEM
100
AcDbDimension
  2
*D1
 10
362.5357890674968
 20
394.0682407608477
 30
0.0
 11
307.6289475083609
 21
458.1674704754078
 31
0.0
 70
    32
  1
%%c<>
 71
     5
 42
168.3000000000001
  3
Standard
100
AcDbAlignedDimension
 13
231.7918303258424
 23
501.336424566585
 33
0.0
 14
350.7979015995384
 24
382.3303532928889
 34
0.0
 50
315.0000000000005
100
AcDbRotatedDimension
1001
ACAD
1000
DSTYLE
1002
{
1070
    40
1040
2.0
1070
    41
1040
3.5
1070
    42
1040
1.0
1070
    43
1040
7.0
1070
    44
1040
1.0
1070
    73
1070
     0
1070
    74
1070
     0
1070
    77
1070
     1
1070
    78
1070
     8
1070
    79
1070
     2
1070
   140
1040
3.5
1070
   141
1040
1.5
1070
   146
1040
0.5142857142857144
1070
   147
1040
1.5
1070
   172
1070
     1
1070
   178
1070
     1
1070
   179
1070
     2
1070
   271
1070
     2
1070
   272
1070
     2
1070
   284
1070
     8
1070
   285
1070
     8
1070
   286
1070
     8
1070
   289
1070
     0
1070
   340
1005
24
1002
}
  0
LINE
  5
293E
102
{ACAD_REACTORS
330
2B58
330
2BAF
102
}
330
1E
100
AcDbEntity
  8
STEMPEL
100
AcDbLine
 10
279.9811574637061
 20
336.4744785329414
 30
0.0
 11
270.4352159176875
 21
326.9285369869229
 31
0.0
  0
LINE
  5
293F
102
{ACAD_REACTORS
330
2B58
102
}
330
1E
100
AcDbEntity
  8
STEMPEL
100
AcDbLine
 10
278.2133905107396
 20
338.2422454859077
 30
0.0
 11
268.6674489647211
 21
328.6963039398894
 31
0.0
  0
ARC
  5
2940
102
{ACAD_REACTORS
330
2949
102
}
330
1E
100
AcDbEntity
  8
SCHRAFF
100
AcDbCircle
 10
281.1955964000215
 20
312.7280480933716
 30
0.0
 40
4.0
100
AcDbArc
 50
270.0
 51
45.0
  0
LINE
  5
2941
102
{ACAD_REACTORS
330
2B6D
330
2B82
102
}
330
1E
100
AcDbEntity
  8
STEMPEL
100
AcDbLine
 10
281.1955964000215
 20
312.7280480933716
 30
0.0
 11
278.2955964000214
 21
313.9292674242537
 31
0.0
  0
LINE
  5
2942
102
{ACAD_REACTORS
330
2BAF
102
}
330
1E
100
AcDbEntity
  8
STEMPEL
100
AcDbLine
 10
278.1955964000212
 20
290.5903214814545
 30
0.0
 11
276.1955964000212
 21
292.5903214814545
 31
0.0
  0
LINE
  5
2944
102
{ACAD_REACTORS
330
2BAF
102
}
330
1E
100
AcDbEntity
  8
STEMPEL
100
AcDbLine
 10
276.1955964000212
 20
292.5903214814545
 30
0.0
 11
263.5455964000211
 21
292.5903214814545
 31
0.0
  0
LINE
  5
2945
330
1E
100
AcDbEntity
  8
STEMPEL
100
AcDbLine
 10
270.9020028605723
 20
282.5903214814545
 30
0.0
 11
263.5455964000211
 21
282.5903214814545
 31
0.0
  0
LINE
  5
2946
102
{ACAD_REACTORS
330
2B6D
102
}
330
1E
100
AcDbEntity
  8
STEMPEL
100
AcDbLine
 10
281.195596400021
 20
276.5903214814542
 30
0.0
 11
278.2955964000214
 21
276.5903214814542
 31
0.0
  0
LINE
  5
2947
102
{ACAD_REACTORS
330
2949
330
2B6D
102
}
330
1E
100
AcDbEntity
  8
STEMPEL
100
AcDbLine
 10
281.1955964000215
 20
312.7280480933716
 30
0.0
 11
281.1955964000213
 21
274.5903214814533
 31
0.0
  0
LINE
  5
2948
102
{ACAD_REACTORS
330
2B6D
330
2BAF
102
}
330
1E
100
AcDbEntity
  8
STEMPEL
100
AcDbLine
 10
278.2955964000213
 20
313.9292674242536
 30
0.0
 11
278.2955964000214
 21
276.5903214814542
 31
0.0
  0
HATCH
  5
2949
330
1E
100
AcDbEntity
  8
SCHRAFF
100
AcDbHatch
 10
0.0
 20
0.0
 30
0.0
210
0.0
220
0.0
230
1.0
  2
_USER
 70
     0
 71
     1
 91
        2
 92
        7
 72
     1
 73
     1
 93
        3
 10
284.0240235247678
 20
315.5564752181178
 42
0.0
 10
281.1955964000216
 20
312.7280480933716
 42
0.0
 10
281.1955964000216
 20
308.7280480933716
 42
0.668178637919299
 97
        3
330
293B
330
2947
330
2940
 92
        7
 72
     1
 73
     1
 93
        3
 10
112.8955964000213
 20
382.4401906407633
 42
0.0
 10
115.7240235247674
 20
385.2686177655094
 42
0.9407015495954073
 10
112.8955964000212
 20
378.4401906407634
 42
0.0
 97
        3
330
294C
330
294A
330
294E
 75
     0
 76
     0
 52
0.0
 41
0.1
 77
     0
 78
     1
 53
0.0
 43
-407.6333672683412
 44
11.83056324829383
 45
0.0
 46
0.1
 79
     0
 47
0.2734078568715316
 98
        2
 10
282.5347233638458
 20
312.5282845120667
 10
111.8075527231954
 20
381.7004733439262
  0
ARC
  5
294A
102
{ACAD_REACTORS
330
2949
102
}
330
1E
100
AcDbEntity
  8
SCHRAFF
100
AcDbCircle
 10
114.5186486354987
 20
381.7679003923885
 30
0.0
 40
3.702424982379835
100
AcDbArc
 50
71.00027462417482
 51
243.9997253758249
  0
LINE
  5
294B
102
{ACAD_REACTORS
330
2B6D
330
2B82
102
}
330
1E
100
AcDbEntity
  8
STEMPEL
100
AcDbLine
 10
115.7955964000213
 20
381.2389713098812
 30
0.0
 11
112.8955964000212
 21
382.4401906407633
 31
0.0
  0
LINE
  5
294C
102
{ACAD_REACTORS
330
2949
330
2B82
102
}
330
1E
100
AcDbEntity
  8
STEMPEL
100
AcDbLine
 10
231.7918303258424
 20
501.336424566585
 30
0.0
 11
112.8955964000212
 21
382.4401906407633
 31
0.0
  0
LINE
  5
294D
102
{ACAD_REACTORS
330
2B82
330
2BAF
330
2BE3
102
}
330
1E
100
AcDbEntity
  8
STEMPEL
100
AcDbLine
 10
233.8424399912838
 20
499.285814901144
 30
0.0
 11
115.7955964000213
 21
381.2389713098814
 31
0.0
  0
LINE
  5
294E
102
{ACAD_REACTORS
330
2949
330
2B6D
102
}
330
1E
100
AcDbEntity
  8
STEMPEL
100
AcDbLine
 10
112.8955964000212
 20
382.4401906407633
 30
0.0
 11
112.8955964000212
 21
274.5903214814544
 31
0.0
  0
LINE
  5
294F
102
{ACAD_REACTORS
330
2B6D
330
2BAF
102
}
330
1E
100
AcDbEntity
  8
STEMPEL
100
AcDbLine
 10
115.7955964000213
 20
381.2389713098814
 30
0.0
 11
115.7955964000213
 21
276.5903214814543
 31
0.0
  0
LINE
  5
2950
102
{ACAD_REACTORS
330
2BAF
102
}
330
1E
100
AcDbEntity
  8
STEMPEL
100
AcDbLine
 10
115.7955964000213
 20
290.4903214814544
 30
0.0
 11
117.8955964000214
 21
292.5903214814545
 31
0.0
  0
LINE
  5
2952
102
{ACAD_REACTORS
330
2BAF
102
}
330
1E
100
AcDbEntity
  8
STEMPEL
100
AcDbLine
 10
130.5455964000215
 20
292.5903214814545
 30
0.0
 11
117.8955964000214
 21
292.5903214814545
 31
0.0
  0
LINE
  5
2953
330
1E
100
AcDbEntity
  8
STEMPEL
100
AcDbLine
 10
130.5455964000215
 20
282.5903214814545
 30
0.0
 11
123.1891899394703
 21
282.5903214814545
 31
0.0
  0
LINE
  5
2954
102
{ACAD_REACTORS
330
2B6D
102
}
330
1E
100
AcDbEntity
  8
STEMPEL
100
AcDbLine
 10
115.7955964000213
 20
276.5903214814543
 30
0.0
 11
112.8955964000209
 21
276.5903214814543
 31
0.0
  0
ARC
  5
299C
102
{ACAD_REACTORS
330
29A0
330
2BAF
102
}
330
1E
100
AcDbEntity
  8
SCHRAFF
100
AcDbCircle
 10
177.970615957698
 20
419.4132088969825
 30
0.0
 40
4.562895159047871
100
AcDbArc
 50
74.12900933451338
 51
196.6032250321374
  0
HATCH
  5
29A0
330
1E
100
AcDbEntity
  8
SCHRAFF
100
AcDbHatch
 10
0.0
 20
0.0
 30
0.0
210
0.0
220
0.0
230
1.0
  2
_USER
 70
     0
 71
     1
 91
        1
 92
        7
 72
     1
 73
     1
 93
        3
 10
176.3900140198765
 20
420.973738884734
 42
0.0
 10
179.2184411446222
 20
423.8021660094798
 42
0.5918355213762501
 10
173.5979639031747
 20
418.1093967009453
 42
-0.0063900372688592
 97
        3
330
299C
330
2907
330
2937
 75
     0
 76
     0
 52
0.0
 41
0.1
 77
     0
 78
     1
 53
0.0
 43
-723.0439769415438
 44
11.83165013607956
 45
0.0
 46
0.1
 79
     0
 47
0.1657450563999427
 98
        1
 10
175.6426261239508
 20
421.9227797538037
  0
ARC
  5
29A2
102
{ACAD_REACTORS
330
2BAF
102
}
330
1E
100
AcDbEntity
  8
SCHRAFF
100
AcDbCircle
 10
268.1712137144481
 20
329.0074005385465
 30
0.0
 40
5.14729851579258
100
AcDbArc
 50
266.5088015730486
 51
8.373340759422536
  0
HATCH
  5
29A6
330
1E
100
AcDbEntity
  8
SCHRAFF
100
AcDbHatch
 10
0.0
 20
0.0
 30
0.0
210
0.0
220
0.0
230
1.0
  2
_USER
 70
     0
 71
     0
 91
        1
 92
        7
 72
     1
 73
     1
 93
        3
 10
273.2636430424337
 20
329.7569641116691
 42
0.0
 10
270.4352159176875
 20
326.9285369869229
 42
0.042630526031906
 10
267.857767895998
 20
323.8696545610212
 42
0.4762502084606818
 97
        0
 75
     0
 76
     0
 52
0.0
 41
0.1
 77
     0
 78
     1
 53
0.0
 43
-723.0439769415438
 44
11.83165013607956
 45
0.0
 46
0.1
 79
     0
 47
0.1657450563999423
 98
        1
 10
271.1793009795319
 20
325.4591592322363
  0
DIMENSION
  5
2A25
330
1E
100
AcDbEntity
  8
BEM
100
AcDbDimension
  2
*D2
 10
97.2338737247589
 20
216.5914083692402
 30
0.0
 11
90.73387372475886
 21
246.5908649253472
 31
0.0
 70
    32
 71
     5
 42
59.99891311221412
  3
Standard
100
AcDbAlignedDimension
 13
112.8955964000212
 23
276.5903214814543
 33
0.0
 14
131.2521345837788
 24
216.5914083692402
 34
0.0
 50
90.0
100
AcDbRotatedDimension
1001
ACAD
1000
DSTYLE
1002
{
1070
   279
1070
     1
1070
    40
1040
2.0
1070
    41
1040
3.5
1070
    42
1040
1.0
1070
    43
1040
7.0
1070
    44
1040
1.0
1070
    73
1070
     0
1070
    74
1070
     0
1070
    77
1070
     1
1070
    78
1070
     8
1070
    79
1070
     2
1070
   140
1040
3.5
1070
   141
1040
1.5
1070
   146
1040
0.5142857142857144
1070
   147
1040
1.5
1070
   172
1070
     1
1070
   178
1070
     1
1070
   179
1070
     2
1070
   271
1070
     2
1070
   272
1070
     2
1070
   284
1070
     8
1070
   285
1070
     8
1070
   286
1070
     8
1002
}
  0
DIMENSION
  5
2A32
330
1E
100
AcDbEntity
  8
BEM
100
AcDbDimension
  2
*D3
 10
81.89344681770398
 20
347.5907482426173
 30
0.0
 11
75.39344681770393
 21
282.0910783059288
 31
0.0
 70
    32
 71
     5
 42
130.999339873377
  3
Standard
100
AcDbAlignedDimension
 13
131.2521345837788
 23
216.5914083692402
 33
0.0
 14
197.052225275571
 24
347.5907482426172
 34
0.0
 50
90.0
100
AcDbRotatedDimension
1001
ACAD
1000
DSTYLE
1002
{
1070
    40
1040
2.0
1070
    41
1040
3.5
1070
    42
1040
1.0
1070
    43
1040
7.0
1070
    44
1040
1.0
1070
    73
1070
     0
1070
    74
1070
     0
1070
    77
1070
     1
1070
    78
1070
     8
1070
    79
1070
     2
1070
   140
1040
3.5
1070
   141
1040
1.5
1070
   146
1040
0.5142857142857144
1070
   147
1040
1.5
1070
   172
1070
     1
1070
   178
1070
     1
1070
   179
1070
     2
1070
   271
1070
     2
1070
   272
1070
     2
1070
   284
1070
     8
1070
   285
1070
     8
1070
   286
1070
     8
1002
}
  0
DIMENSION
  5
2A3F
330
1E
100
AcDbEntity
  8
BEM
100
AcDbDimension
  2
*D4
 10
263.5522252755712
 20
194.2972606445735
 30
0.0
 11
197.0522252755712
 21
200.7972606445735
 31
0.0
 70
    32
  1
%%c<>
 71
     5
 42
133.0
  3
Standard
100
AcDbAlignedDimension
 13
130.5522252755712
 23
224.4822560119704
 33
0.0
 14
263.5522252755712
 24
224.5914083692402
 34
0.0
100
AcDbRotatedDimension
1001
ACAD
1000
DSTYLE
1002
{
1070
    40
1040
2.0
1070
    41
1040
3.5
1070
    42
1040
1.0
1070
    43
1040
7.0
1070
    44
1040
1.0
1070
    73
1070
     0
1070
    74
1070
     0
1070
    77
1070
     1
1070
    78
1070
     8
1070
    79
1070
     2
1070
   140
1040
3.5
1070
   141
1040
1.5
1070
   146
1040
0.5142857142857144
1070
   147
1040
1.5
1070
   172
1070
     1
1070
   178
1070
     1
1070
   179
1070
     2
1070
   271
1070
     2
1070
   272
1070
     2
1070
   284
1070
     8
1070
   285
1070
     8
1070
   286
1070
     8
1070
   289
1070
     0
1070
   340
1005
24
1002
}
  0
DIMENSION
  5
2A55
330
1E
100
AcDbEntity
  8
BEM
100
AcDbDimension
  2
*D5
 10
122.1574132716017
 20
422.4855602465861
 30
0.0
 11
164.682539537449
 21
474.2030746678587
 31
0.0
 70
    32
  1
133
 71
     5
 42
133.2792206135792
 51
314.9999999999999
  3
Standard
100
AcDbAlignedDimension
 13
231.7918303258424
 23
501.336424566585
 33
0.0
 14
197.052225275571
 24
347.5907482426172
 34
0.0
 50
44.99999999999985
100
AcDbRotatedDimension
1001
ACAD
1000
DSTYLE
1002
{
1070
    40
1040
2.0
1070
    41
1040
3.5
1070
    42
1040
1.0
1070
    43
1040
7.0
1070
    44
1040
1.0
1070
    73
1070
     0
1070
    74
1070
     0
1070
    77
1070
     1
1070
    78
1070
     8
1070
    79
1070
     2
1070
   140
1040
3.5
1070
   141
1040
1.5
1070
   146
1040
0.5142857142857144
1070
   147
1040
1.5
1070
   172
1070
     1
1070
   178
1070
     1
1070
   179
1070
     2
1070
   271
1070
     2
1070
   272
1070
     2
1070
   284
1070
     8
1070
   285
1070
     8
1070
   286
1070
     8
1002
}
  0
TEXT
  5
2A8D
330
1E
100
AcDbEntity
  8
TEXT
 62
     1
100
AcDbText
 10
274.7548514361692
 20
215.9035572431343
 30
0.0
 40
7.0
  1
Rohrende leicht eingezogen
 41
0.8
  7
GREEKS
100
AcDbText
  0
HATCH
  5
2B23
330
1E
100
AcDbEntity
  8
SCHRAFF
100
AcDbHatch
 10
0.0
 20
0.0
 30
0.0
210
0.0
220
0.0
230
1.0
  2
_USER
 70
     0
 71
     1
 91
        2
 92
        7
 72
     1
 73
     1
 93
        8
 10
263.5522252755714
 20
310.3115276290389
 42
-0.1989123673796566
 10
270.4352159176873
 20
326.9285369869227
 42
0.0
 10
268.6674489647209
 20
328.696303939889
 42
0.1989123673796568
 10
261.0522252755714
 20
310.3115276290389
 42
0.0
 10
261.0522252755714
 20
224.7005607265113
 42
0.0
 10
260.3427663735055
 20
216.5914083692402
 42
0.0
 10
262.852315967364
 20
216.5914083692402
 42
0.0
 10
263.5522252755714
 20
224.5914083692404
 42
0.0
 97
        8
330
2906
330
290A
330
2908
330
28FF
330
2902
330
28F4
330
2903
330
2900
 92
        7
 72
     1
 73
     1
 93
        8
 10
133.0522252755713
 20
310.3115276290389
 42
-0.1989123673796573
 10
178.1577809728426
 20
419.2059719317669
 42
0.0
 10
176.3900140198763
 20
420.9737388847332
 42
0.1989123673796572
 10
130.5522252755713
 20
310.3115276290389
 42
0.0
 10
130.5522252755713
 20
224.5914083692399
 42
0.0
 10
131.2521345837787
 20
216.5914083692402
 42
0.0
 10
133.7616841776372
 20
216.5914083692402
 42
0.0
 10
133.0522252755713
 20
224.7005607265109
 42
0.0
 97
        8
330
2909
330
290A
330
2907
330
28F8
330
28FB
330
28F4
330
28FD
330
28FC
 75
     0
 76
     0
 52
135.0
 41
2.0
 77
     0
 78
     1
 53
135.0
 43
0.0
 44
0.0
 45
-1.414213562373095
 46
-1.414213562373094
 79
     0
 47
0.7546170548211795
 98
        2
 10
262.1290348287098
 20
290.2061997023259
 10
131.4879503464467
 20
300.0162212662301
  0
HATCH
  5
2B58
330
1E
100
AcDbEntity
  8
SCHRAFF
100
AcDbHatch
 10
0.0
 20
0.0
 30
0.0
210
0.0
220
0.0
230
1.0
  2
_USER
 70
     0
 71
     1
 91
        2
 92
        7
 72
     1
 73
     1
 93
       21
 10
205.0278386579318
 20
453.1470974287218
 42
0.1085781327851319
 10
209.7696713293569
 20
460.5598661843995
 42
-0.1102736034492988
 10
216.1937618396486
 20
470.6769816411175
 42
0.0
 10
229.7041842142397
 20
484.1874040157086
 42
-0.1095178116832421
 10
239.7440667554139
 20
490.5835146046911
 42
0.0
 10
241.7973912796322
 20
491.330863612795
 42
0.0
 10
239.8468762578572
 20
493.28137863457
 42
0.0
 10
238.8890163970999
 20
492.932746156656
 42
0.1095178116832331
 10
227.9364172612744
 20
485.9551709686757
 42
0.0
 10
214.4259948866823
 20
472.4447485940837
 42
0.0
 10
214.4261813792425
 20
472.4445621015235
 42
0.1095494205537649
 10
207.4473858403931
 20
461.4885371462614
 42
-0.10954942055377
 10
203.2600717049655
 20
454.9148643816881
 42
0.0
 10
193.6920114505985
 20
445.346804127321
 42
0.1528962216020371
 10
188.7059755247179
 20
435.8150817509554
 42
-0.1528962216020379
 10
185.9359555658949
 20
430.5196804307525
 42
0.0
 10
176.3900140198759
 20
420.9737388847335
 42
0.0
 10
178.1577809728426
 20
419.2059719317669
 42
0.0
 10
187.7037225188614
 20
428.7519134777858
 42
0.152896221602041
 10
191.16624746739
 20
435.3711651280398
 42
-0.1528962216020398
 10
195.4597784035648
 20
443.5790371743548
 42
0.0
 97
       21
330
292C
330
2934
330
2929
330
2927
330
2924
330
2921
330
2925
330
2926
330
292A
330
2928
330
2935
330
292D
330
2932
330
2930
330
292E
330
2937
330
290A
330
2936
330
2933
330
292F
330
2931
 92
        7
 72
     1
 73
     1
 93
       21
 10
302.6085744616752
 20
355.5663616249781
 42
0.0
 10
293.0405142073086
 20
345.9983013706111
 42
-0.1528962216020395
 10
284.8326421609936
 20
341.7047704344359
 42
0.1528962216020346
 10
278.2133905107398
 20
338.2422454859078
 42
0.0
 10
268.6674489647208
 20
328.6963039398891
 42
0.0
 10
270.4352159176873
 20
326.9285369869226
 42
0.0
 10
279.9811574637061
 20
336.4744785329414
 42
-0.1528962216020396
 10
285.2765587839094
 20
339.2444984917637
 42
0.1528962216020346
 10
294.8082811602747
 20
344.2305344176446
 42
0.0
 10
304.3763414146417
 20
353.7985946720117
 42
-0.1095494205537282
 10
310.9500141792126
 20
357.9859088074377
 42
0.1095494205537896
 10
321.9060391344774
 20
364.9647043462884
 42
0.0
 10
321.9062256270377
 20
364.9645178537286
 42
0.0
 10
335.4166480016288
 20
378.4749402283196
 42
0.109517811683244
 10
342.3942231896094
 20
389.4275393641465
 42
0.0
 10
342.7428556675235
 20
390.3853992249038
 42
0.0
 10
340.7923406457488
 20
392.3359142466785
 42
0.0
 10
340.0449916376447
 20
390.2825897224603
 42
-0.1095178116832497
 10
333.6488810486616
 20
380.2427071812855
 42
0.0
 10
320.138458674071
 20
366.7322848066949
 42
-0.1102736034490648
 10
310.0213432173773
 20
360.3081942964113
 42
0.1085781327854469
 97
       21
330
2919
330
2910
330
2911
330
290E
330
290B
330
2921
330
290C
330
290D
330
2912
330
291A
330
2913
330
2917
330
2918
330
291B
330
293F
330
290A
330
293E
330
291C
330
2915
330
2916
330
2914
 75
     0
 76
     0
 52
0.0
 41
2.0
 77
     0
 78
     1
 53
0.0
 43
0.0
 44
0.0
 45
0.0
 46
2.0
 79
     0
 47
0.4634655939613255
 98
        2
 10
196.4576732958553
 20
445.8058600195386
 10
305.9129151245061
 20
357.2839309805956
  0
HATCH
  5
2B6D
330
1E
100
AcDbEntity
  8
SCHRAFF
100
AcDbHatch
 10
0.0
 20
0.0
 30
0.0
210
0.0
220
0.0
230
1.0
  2
_USER
 70
     0
 71
     1
 91
        2
 92
        7
 72
     0
 73
     1
 93
        4
 10
281.1955964000214
 20
312.7280480933715
 10
278.2955964000213
 20
313.9292674242538
 10
278.2955964000214
 20
276.5903214814542
 10
281.1955964000213
 20
276.5903214814542
 97
        4
330
2941
330
2948
330
2946
330
2947
 92
        7
 72
     0
 73
     1
 93
        4
 10
115.7955964000212
 20
381.2389713098812
 10
112.8955964000212
 20
382.4401906407634
 10
112.8955964000212
 20
276.5903214814543
 10
115.7955964000212
 20
276.5903214814543
 97
        4
330
294B
330
294E
330
2954
330
294F
 75
     0
 76
     0
 52
45.0
 41
2.0
 77
     0
 78
     1
 53
45.0
 43
0.0
 44
0.0
 45
-1.414213562373094
 46
1.414213562373095
 79
     0
 47
0.558975594225117
 98
        2
 10
279.5907331817125
 20
293.0243677034455
 10
114.5763037735528
 20
304.7628552841088
  0
HATCH
  5
2B82
330
1E
100
AcDbEntity
  8
SCHRAFF
100
AcDbHatch
 10
0.0
 20
0.0
 30
0.0
210
0.0
220
0.0
230
1.0
  2
_USER
 70
     0
 71
     1
 91
        2
 92
        7
 72
     0
 73
     1
 93
        4
 10
350.7979015995383
 20
382.3303532928889
 10
348.7472919340974
 20
384.3809629583299
 10
278.2955964000213
 20
313.9292674242537
 10
281.1955964000215
 20
312.7280480933716
 97
        4
330
2921
330
293C
330
2941
330
293B
 92
        7
 72
     0
 73
     1
 93
        4
 10
233.8424399912836
 20
499.2858149011437
 10
231.7918303258424
 20
501.336424566585
 10
112.8955964000212
 20
382.4401906407633
 10
115.7955964000211
 20
381.2389713098813
 97
        4
330
2921
330
294C
330
294B
330
294D
 75
     0
 76
     0
 52
90.0
 41
2.0
 77
     0
 78
     1
 53
90.0
 43
0.0
 44
0.0
 45
-2.0
 46
0.0000000000000001
 79
     0
 47
0.558975594225117
 98
        2
 10
314.8311032172455
 20
347.8039754801732
 10
167.7165443460899
 20
436.6810967334465
  0
HATCH
  5
2BAF
330
1E
100
AcDbEntity
  8
SCHRAFF
100
AcDbHatch
 10
0.0
 20
0.0
 30
0.0
210
0.0
220
0.0
230
1.0
  2
HONEY
 70
     0
 71
     1
 91
        2
 92
        7
 72
     1
 73
     1
 93
       16
 10
337.4335834351129
 20
373.0672544593453
 42
0.0
 10
333.7212728338837
 20
376.7795650605745
 42
0.0
 10
321.9062256270376
 20
364.9645178537286
 42
0.0
 10
321.9060391344769
 20
364.9647043462888
 42
-0.1095494205537182
 10
310.9500141792204
 20
357.9859088074406
 42
0.1095494205538407
 10
304.376341414642
 20
353.798594672012
 42
0.0
 10
294.8082811602747
 20
344.2305344176446
 42
-0.1528962216020395
 10
285.2765587839091
 20
339.2444984917636
 42
0.1528962216020389
 10
279.9811574637058
 20
336.4744785329411
 42
0.0
 10
273.2636430424337
 20
329.7569641116691
 42
-0.4762502084606895
 10
267.857767895998
 20
323.8696545610212
 42
0.1549677552521686
 10
263.5522252755714
 20
310.3115276290389
 42
0.0
 10
263.5522252755714
 20
292.5903214814545
 42
0.0
 10
276.1955964000213
 20
292.5903214814545
 42
0.0
 10
278.2955964000213
 20
290.4903214814543
 42
0.0
 10
278.2955964000213
 20
313.9292674242536
 42
0.0
 97
       16
330
290F
330
2911
330
2910
330
2919
330
2914
330
2916
330
2915
330
291C
330
293E
330
29A2
330
2906
330
2900
330
2944
330
2942
330
2948
330
293C
 92
        7
 72
     1
 73
     1
 93
       16
 10
173.5979639031746
 20
418.1093967009454
 42
-0.5918355213762437
 10
179.2184411446221
 20
423.8021660094797
 42
0.0
 10
185.9359555658949
 20
430.5196804307525
 42
0.1528962216020471
 10
188.705975524718
 20
435.8150817509558
 42
-0.1528962216020322
 10
193.6920114505985
 20
445.346804127321
 42
0.0
 10
203.2600717049653
 20
454.9148643816879
 42
0.1095494205537802
 10
207.4473858403932
 20
461.4885371462619
 42
-0.1095494205537602
 10
214.4261813792427
 20
472.4445621015234
 42
0.0
 10
214.4259948866824
 20
472.4447485940839
 42
0.0
 10
226.2410420935284
 20
484.2597958009298
 42
0.0
 10
222.5287314922991
 20
487.9721064021593
 42
0.0
 10
115.7955964000213
 20
381.2389713098814
 42
0.0
 10
115.7955964000213
 20
290.4903214814544
 42
0.0
 10
117.8955964000214
 20
292.5903214814545
 42
0.0
 10
130.5522252755713
 20
292.5903214814544
 42
0.0
 10
130.5522252755713
 20
310.3115276290389
 42
-0.1922779338123266
 97
       16
330
299C
330
2937
330
292E
330
2930
330
2932
330
292D
330
2935
330
2928
330
292A
330
292B
330
294D
330
294F
330
2950
330
2952
330
28F8
330
2907
 75
     0
 76
     1
 52
0.0
 41
30.0
 77
     0
 78
     3
 53
0.0
 43
0.0
 44
0.0
 45
5.625
 46
3.247595249999999
 79
     2
 49
3.75
 49
-7.5
 53
120.0
 43
0.0
 44
0.0
 45
-5.624999987709673
 46
3.247595271287468
 79
     2
 49
3.75
 49
-7.5
 53
60.0
 43
0.0
 44
0.0
 45
0.0000000122903263
 46
6.495190521287468
 79
     2
 49
-7.5
 49
3.75
 47
0.5403430765297973
 98
        2
 10
278.052462825905
 20
320.8054554441992
 10
129.8937455809978
 20
373.7590765749462
  0
HATCH
  5
2BE3
330
1E
100
AcDbEntity
  8
SCHRAFF
100
AcDbHatch
 10
0.0
 20
0.0
 30
0.0
210
0.0
220
0.0
230
1.0
  2
NET
 70
     0
 71
     1
 91
        2
 92
        7
 72
     1
 73
     1
 93
        6
 10
238.8890163970999
 20
492.932746156656
 42
0.0
 10
239.8468762578572
 20
493.28137863457
 42
0.0
 10
233.8424399912836
 20
499.2858149011437
 42
0.0
 10
222.5287314922991
 20
487.9721064021594
 42
0.0
 10
226.2410420935284
 20
484.2597958009297
 42
0.0
 10
227.9364172612736
 20
485.9551709686749
 42
-0.1095178116832421
 97
        6
330
2925
330
2921
330
294D
330
292B
330
292A
330
2926
 92
        7
 72
     1
 73
     1
 93
        6
 10
342.7428556675236
 20
390.3853992249038
 42
0.0
 10
342.3942231896094
 20
389.4275393641465
 42
-0.1095178116832555
 10
335.4166480016278
 20
378.4749402283186
 42
0.0
 10
333.7212728338837
 20
376.7795650605746
 42
0.0
 10
337.4335834351128
 20
373.0672544593452
 42
0.0
 10
348.7472919340975
 20
384.3809629583299
 42
0.0
 97
        6
330
290B
330
290E
330
2911
330
290F
330
293C
330
2921
 75
     0
 76
     1
 52
0.0
 41
20.0
 77
     0
 78
     2
 53
0.0
 43
0.0
 44
0.0
 45
0.0
 46
2.5
 79
     0
 53
90.0
 43
0.0
 44
0.0
 45
-2.5
 46
0.0000000000000002
 79
     0
 47
0.5403430765297973
 98
        2
 10
233.7129914625752
 20
492.094211566467
 10
341.8580409397641
 20
384.5659386014463
  0
HATCH
  5
2BF8
330
1E
100
AcDbEntity
  8
SCHRAFF
100
AcDbHatch
 10
0.0
 20
0.0
 30
0.0
210
0.0
220
0.0
230
1.0
  2
NET
 70
     0
 71
     0
 91
        2
 92
        7
 72
     0
 73
     1
 93
        9
 10
270.9020028605723
 20
282.5903214814545
 10
273.0455964000216
 20
274.5903214814534
 10
281.1955964000213
 20
274.5903214814533
 10
281.1955964000212
 20
276.5903214814543
 10
278.2955964000212
 20
276.5903214814542
 10
278.2955964000212
 20
290.4903214814546
 10
276.1955964000212
 20
292.5903214814544
 10
263.5455964000211
 20
292.5903214814545
 10
263.5455964000211
 20
282.5903214814545
 97
        0
 92
        7
 72
     0
 73
     1
 93
        9
 10
123.1891899394703
 20
282.5903214814545
 10
130.545596400021
 20
282.5903214814545
 10
130.545596400021
 20
292.5903214814545
 10
117.8955964000213
 20
292.5903214814544
 10
115.7955964000211
 20
290.4903214814543
 10
115.7955964000211
 20
276.5903214814543
 10
112.8955964000211
 20
276.5903214814543
 10
112.8955964000212
 20
274.5903214814544
 10
121.0455964000212
 20
274.5903214814543
 97
        0
 75
     0
 76
     1
 52
45.0
 41
20.0
 77
     0
 78
     2
 53
45.0
 43
-27.95440359997883
 44
-36.99528897017263
 45
-1.767766952966368
 46
1.767766952966368
 79
     0
 53
135.0
 43
-27.95440359997883
 44
-36.99528897017263
 45
-1.767766952966368
 46
-1.767766952966368
 79
     0
 47
0.2115359210124944
 98
        2
 10
273.2053599353349
 20
284.983579170246
 10
121.8659332946095
 20
286.6758666521914
  0
LINE
  5
2BF9
330
1E
100
AcDbEntity
  8
STEMPEL
100
AcDbLine
 10
281.1955964000213
 20
274.5903214814533
 30
0.0
 11
263.5455964000211
 21
274.5903214814534
 31
0.0
  0
LINE
  5
2BFA
330
1E
100
AcDbEntity
  8
STEMPEL
100
AcDbLine
 10
273.0455964000216
 20
274.5903214814534
 30
0.0
 11
270.9020028605723
 21
282.5903214814545
 31
0.0
  0
LINE
  5
2BFB
330
1E
100
AcDbEntity
  8
STEMPEL
100
AcDbLine
 10
130.545596400021
 20
274.5903214814543
 30
0.0
 11
112.8955964000212
 21
274.5903214814544
 31
0.0
  0
LINE
  5
2BFC
330
1E
100
AcDbEntity
  8
STEMPEL
100
AcDbLine
 10
121.0455964000212
 20
274.5903214814544
 30
0.0
 11
123.1891899394703
 21
282.5903214814545
 31
0.0
  0
TEXT
  5
2C04
330
1E
100
AcDbEntity
  8
TEXT
100
AcDbText
 10
148.622109822104
 20
73.14025471151666
 30
0.0
 40
4.0
  1
2007
 41
0.8
  7
GREEKS
100
AcDbText
  0
TEXT
  5
2C05
330
1E
100
AcDbEntity
  8
TEXT
100
AcDbText
 10
170.398997108236
 20
63.10765040825732
 30
0.0
 40
4.0
  1
28.09.
 41
0.8
  7
GREEKS
 72
     1
 11
177.4085209177598
 21
63.10765040825732
 31
0.0
100
AcDbText
  0
LINE
  5
2C4E
330
1E
100
AcDbEntity
  8
BEM
100
AcDbLine
 10
296.2446134309961
 20
446.7831363980427
 30
0.0
 11
300.5284418995398
 21
451.0669648665864
 31
0.0
  0
LINE
  5
2C4F
330
1E
100
AcDbEntity
  8
BEM
100
AcDbLine
 10
197.052225275571
 20
349.5907482426172
 30
0.0
 11
197.0522252755706
 21
491.7828668205411
 31
0.0
  0
ARC
  5
2C50
330
1E
100
AcDbEntity
  8
BEM
100
AcDbCircle
 10
197.052225275571
 20
347.5907482426171
 30
0.0
 40
188.1009558463066
100
AcDbArc
 50
47.13233155354592
 51
87.86766844645431
  0
SOLID
  5
2C51
330
1E
100
AcDbEntity
  8
BEM
100
AcDbTrace
 10
325.8281611402582
 20
486.2951652184538
 30
0.0
 11
324.2092309924991
 21
484.6148350065247
 31
0.0
 12
330.0596867021655
 22
480.5982096692121
 32
0.0
 13
330.0596867021655
 23
480.5982096692121
 33
0.0
  0
SOLID
  5
2C52
330
1E
100
AcDbEntity
  8
BEM
100
AcDbTrace
 10
204.0293051944067
 20
534.3949901970865
 30
0.0
 11
204.0727215961466
 21
536.7279195703219
 31
0.0
 12
197.0522252755705
 22
535.6917040889237
 32
0.0
 13
197.0522252755705
 23
535.6917040889237
 33
0.0
  0
MTEXT
  5
2C53
330
1E
100
AcDbEntity
  8
BEM
 62
     1
100
AcDbMText
 10
271.5227870003626
 20
527.3785883561526
 30
0.0
 40
7.0
 41
0.0
 71
     5
 72
     1
  1
\A1;45°
 11
0.9238795325112878
 21
-0.3826834323650871
 31
0.0
 73
     1
 44
1.0
  0
LINE
  5
2C54
330
1E
100
AcDbEntity
  8
BEM
100
AcDbLine
 10
313.7035119453256
 20
464.2420349123721
 30
0.0
 11
331.4739002645386
 21
482.0124232315852
 31
0.0
  0
LINE
  5
2C55
330
1E
100
AcDbEntity
  8
BEM
100
AcDbLine
 10
197.0522252755706
 20
502.1132137667532
 30
0.0
 11
197.0522252755705
 21
537.6917040889237
 31
0.0
  0
ENDSEC
  0
SECTION
  2
OBJECTS
  0
DICTIONARY
  5
C
330
0
100
AcDbDictionary
281
     1
  3
ACAD_COLOR
350
DF
  3
ACAD_GROUP
350
D
  3
ACAD_LAYOUT
350
19
  3
ACAD_MATERIAL
350
DE
  3
ACAD_MLINESTYLE
350
16
  3
ACAD_PLOTSETTINGS
350
18
  3
ACAD_PLOTSTYLENAME
350
E
  3
AcDbVariableDictionary
350
25E
  0
DICTIONARY
  5
A0
330
1E
100
AcDbDictionary
280
     1
281
     1
  3
ACAD_LAYOUTSELFREF
360
D4
  0
DICTIONARY
  5
A2
330
1A
100
AcDbDictionary
280
     1
281
     1
  3
ACAD_LAYOUTSELFREF
360
D3
  0
DICTIONARY
  5
DF
102
{ACAD_REACTORS
330
C
102
}
330
C
100
AcDbDictionary
281
     1
  0
DICTIONARY
  5
D
102
{ACAD_REACTORS
330
C
102
}
330
C
100
AcDbDictionary
281
     1
  0
DICTIONARY
  5
19
102
{ACAD_REACTORS
330
C
102
}
330
C
100
AcDbDictionary
281
     1
  3
Layout1
350
1D
  3
Model
350
21
  0
DICTIONARY
  5
DE
102
{ACAD_REACTORS
330
C
102
}
330
C
100
AcDbDictionary
281
     1
  0
DICTIONARY
  5
16
102
{ACAD_REACTORS
330
C
102
}
330
C
100
AcDbDictionary
281
     1
  3
Standard
350
17
  0
DICTIONARY
  5
18
102
{ACAD_REACTORS
330
C
102
}
330
C
100
AcDbDictionary
281
     1
  0
ACDBDICTIONARYWDFLT
  5
E
102
{ACAD_REACTORS
330
C
102
}
330
C
100
AcDbDictionary
281
     1
  3
Normal
350
F
100
AcDbDictionaryWithDefault
340
F
  0
DICTIONARY
  5
25E
102
{ACAD_REACTORS
330
C
102
}
330
C
100
AcDbDictionary
281
     1
  3
DIMASSOC
350
25F
  3
PROJECTNAME
350
260
  0
XRECORD
  5
D4
102
{ACAD_REACTORS
330
A0
102
}
330
A0
100
AcDbXrecord
280
     1
340
1E
  0
XRECORD
  5
D3
102
{ACAD_REACTORS
330
A2
102
}
330
A2
100
AcDbXrecord
280
     1
340
1A
  0
LAYOUT
  5
1D
102
{ACAD_REACTORS
330
19
102
}
330
19
100
AcDbPlotSettings
  1

  2
\\NT_WORK01\HP LaserJet 5000 PCL 6
  4

  6

 40
0.0
 41
0.0
 42
0.0
 43
0.0
 44
0.0
 45
0.0
 46
0.0
 47
0.0
 48
0.0
 49
0.0
140
0.0
141
0.0
142
1.0
143
1.0
 70
   688
 72
     0
 73
     0
 74
     5
  7

 75
    16
147
1.0
 76
     0
 77
     2
 78
   300
148
0.0
149
0.0
100
AcDbLayout
  1
Layout1
 70
     0
 71
     1
 10
0.0
 20
0.0
 11
12.0
 21
9.0
 12
0.0
 22
0.0
 32
0.0
 14
1.000000000000000E+20
 24
1.000000000000000E+20
 34
1.000000000000000E+20
 15
-1.000000000000000E+20
 25
-1.000000000000000E+20
 35
-1.000000000000000E+20
146
0.0
 13
0.0
 23
0.0
 33
0.0
 16
1.0
 26
0.0
 36
0.0
 17
0.0
 27
1.0
 37
0.0
 76
     0
330
1A
  0
LAYOUT
  5
21
102
{ACAD_REACTORS
330
19
102
}
330
19
100
AcDbPlotSettings
  1

  2
RICOH Aficio 2027 PCL 6
  4
A4
  6

 40
5.027083
 41
5.027084999999999
 42
5.027084
 43
5.027069
 44
209.973328
 45
296.925995
 46
0.0
 47
2.06
 48
0.0
 49
0.0
140
0.0
141
0.0
142
1.0
143
2.100849152723284
 70
 11956
 72
     1
 73
     0
 74
     2
  7
monochrome1.ctb
 75
     0
147
0.4759980023809526
 76
     1
 77
     2
 78
   300
148
0.0
149
0.0
100
AcDbLayout
  1
Model
 70
     1
 71
     0
 10
0.0
 20
0.0
 11
12.0
 21
9.0
 12
0.0
 22
0.0
 32
0.0
 14
0.0
 24
0.0
 34
0.0
 15
0.0
 25
0.0
 35
0.0
146
0.0
 13
0.0
 23
0.0
 33
0.0
 16
1.0
 26
0.0
 36
0.0
 17
0.0
 27
1.0
 37
0.0
 76
     0
330
1E
  0
MLINESTYLE
  5
17
102
{ACAD_REACTORS
330
16
102
}
330
16
100
AcDbMlineStyle
  2
STANDARD
 70
     0
  3

 62
   256
 51
90.0
 52
90.0
 71
     2
 49
0.5
 62
   256
  6
BYLAYER
 49
-0.5
 62
   256
  6
BYLAYER
  0
ACDBPLACEHOLDER
  5
F
102
{ACAD_REACTORS
330
E
102
}
330
E
  0
DICTIONARYVAR
  5
25F
102
{ACAD_REACTORS
330
25E
102
}
330
25E
100
DictionaryVariables
280
     0
  1
1
  0
DICTIONARYVAR
  5
260
102
{ACAD_REACTORS
330
25E
102
}
330
25E
100
DictionaryVariables
280
     0
  1

  0
ENDSEC
  0
EOF
