  0
SECTION
  2
HEADER
  9
$ACADVER
  1
AC1018
  9
$ACADMAINTVER
 70
     2
  9
$DWGCODEPAGE
  3
ANSI_1252
  9
$INSBASE
 10
0.0
 20
0.0
 30
0.0
  9
$EXTMIN
 10
-0.0268711015330609
 20
-0.0294261274589189
 30
-0.0000000000000129
  9
$EXTMAX
 10
525.0354356007271
 20
742.5555337188191
 30
0.0000000000000023
  9
$LIMMIN
 10
0.0
 20
0.0
  9
$LIMMAX
 10
524.9999999999999
 20
742.4999999999999
  9
$ORTHOMODE
 70
     0
  9
$REGENMODE
 70
     1
  9
$FILLMODE
 70
     1
  9
$QTEXTMODE
 70
     0
  9
$MIRRTEXT
 70
     1
  9
$LTSCALE
 40
25.0
  9
$ATTMODE
 70
     1
  9
$TEXTSIZE
 40
3.5
  9
$TRACEWID
 40
0.5
  9
$TEXTSTYLE
  7
STANDARD
  9
$CLAYER
  8
SCHRAFF
  9
$CELTYPE
  6
ByLayer
  9
$CECOLOR
 62
   256
  9
$CELTSCALE
 40
1.0
  9
$DISPSILH
 70
     0
  9
$DIMSCALE
 40
2.5
  9
$DIMASZ
 40
3.5
  9
$DIMEXO
 40
1.0
  9
$DIMDLI
 40
7.0
  9
$DIMRND
 40
0.0
  9
$DIMDLE
 40
0.0
  9
$DIMEXE
 40
1.0
  9
$DIMTP
 40
0.0
  9
$DIMTM
 40
0.0
  9
$DIMTXT
 40
3.5
  9
$DIMCEN
 40
1.5
  9
$DIMTSZ
 40
0.0
  9
$DIMTOL
 70
     0
  9
$DIMLIM
 70
     0
  9
$DIMTIH
 70
     0
  9
$DIMTOH
 70
     0
  9
$DIMSE1
 70
     0
  9
$DIMSE2
 70
     0
  9
$DIMTAD
 70
     1
  9
$DIMZIN
 70
     8
  9
$DIMBLK
  1

  9
$DIMASO
 70
     1
  9
$DIMSHO
 70
     0
  9
$DIMPOST
  1

  9
$DIMAPOST
  1

  9
$DIMALT
 70
     0
  9
$DIMALTD
 70
     2
  9
$DIMALTF
 40
25.4
  9
$DIMLFAC
 40
1.0
  9
$DIMTOFL
 70
     1
  9
$DIMTVP
 40
0.0
  9
$DIMTIX
 70
     0
  9
$DIMSOXD
 70
     0
  9
$DIMSAH
 70
     0
  9
$DIMBLK1
  1

  9
$DIMBLK2
  1

  9
$DIMSTYLE
  2
Standard
  9
$DIMCLRD
 70
     0
  9
$DIMCLRE
 70
     0
  9
$DIMCLRT
 70
     1
  9
$DIMTFAC
 40
0.5142857142857144
  9
$DIMGAP
 40
1.5
  9
$DIMJUST
 70
     0
  9
$DIMSD1
 70
     0
  9
$DIMSD2
 70
     0
  9
$DIMTOLJ
 70
     1
  9
$DIMTZIN
 70
     8
  9
$DIMALTZ
 70
     8
  9
$DIMALTTZ
 70
     8
  9
$DIMUPT
 70
     0
  9
$DIMDEC
 70
     2
  9
$DIMTDEC
 70
     2
  9
$DIMALTU
 70
     2
  9
$DIMALTTD
 70
     2
  9
$DIMTXSTY
  7
STANDARD
  9
$DIMAUNIT
 70
     0
  9
$DIMADEC
 70
     2
  9
$DIMALTRND
 40
0.0
  9
$DIMAZIN
 70
     2
  9
$DIMDSEP
 70
    46
  9
$DIMATFIT
 70
     3
  9
$DIMFRAC
 70
     0
  9
$DIMLDRBLK
  1

  9
$DIMLUNIT
 70
     2
  9
$DIMLWD
 70
    -2
  9
$DIMLWE
 70
    -2
  9
$DIMTMOVE
 70
     0
  9
$LUNITS
 70
     2
  9
$LUPREC
 70
     2
  9
$SKETCHINC
 40
1.0
  9
$FILLETRAD
 40
0.0
  9
$AUNITS
 70
     0
  9
$AUPREC
 70
     0
  9
$MENU
  1
ACAD
  9
$ELEVATION
 40
0.0
  9
$PELEVATION
 40
0.0
  9
$THICKNESS
 40
0.0
  9
$LIMCHECK
 70
     0
  9
$CHAMFERA
 40
0.0
  9
$CHAMFERB
 40
0.0
  9
$CHAMFERC
 40
0.0
  9
$CHAMFERD
 40
0.0
  9
$SKPOLY
 70
     0
  9
$TDCREATE
 40
2455397.823042361
  9
$TDUCREATE
 40
2455397.781375695
  9
$TDUPDATE
 40
2455532.536245625
  9
$TDUUPDATE
 40
2455532.494578959
  9
$TDINDWG
 40
0.3685071875
  9
$TDUSRTIMER
 40
0.3685071875
  9
$USRTIMER
 70
     1
  9
$ANGBASE
 50
0.0
  9
$ANGDIR
 70
     0
  9
$PDMODE
 70
     0
  9
$PDSIZE
 40
0.0
  9
$PLINEWID
 40
0.0
  9
$SPLFRAME
 70
     0
  9
$SPLINETYPE
 70
     6
  9
$SPLINESEGS
 70
     8
  9
$HANDSEED
  5
25D6
  9
$SURFTAB1
 70
     6
  9
$SURFTAB2
 70
     6
  9
$SURFTYPE
 70
     6
  9
$SURFU
 70
     6
  9
$SURFV
 70
     6
  9
$UCSBASE
  2

  9
$UCSNAME
  2

  9
$UCSORG
 10
0.0
 20
0.0
 30
0.0
  9
$UCSXDIR
 10
1.0
 20
0.0
 30
0.0
  9
$UCSYDIR
 10
0.0
 20
1.0
 30
0.0
  9
$UCSORTHOREF
  2

  9
$UCSORTHOVIEW
 70
     0
  9
$UCSORGTOP
 10
0.0
 20
0.0
 30
0.0
  9
$UCSORGBOTTOM
 10
0.0
 20
0.0
 30
0.0
  9
$UCSORGLEFT
 10
0.0
 20
0.0
 30
0.0
  9
$UCSORGRIGHT
 10
0.0
 20
0.0
 30
0.0
  9
$UCSORGFRONT
 10
0.0
 20
0.0
 30
0.0
  9
$UCSORGBACK
 10
0.0
 20
0.0
 30
0.0
  9
$PUCSBASE
  2

  9
$PUCSNAME
  2

  9
$PUCSORG
 10
0.0
 20
0.0
 30
0.0
  9
$PUCSXDIR
 10
1.0
 20
0.0
 30
0.0
  9
$PUCSYDIR
 10
0.0
 20
1.0
 30
0.0
  9
$PUCSORTHOREF
  2

  9
$PUCSORTHOVIEW
 70
     0
  9
$PUCSORGTOP
 10
0.0
 20
0.0
 30
0.0
  9
$PUCSORGBOTTOM
 10
0.0
 20
0.0
 30
0.0
  9
$PUCSORGLEFT
 10
0.0
 20
0.0
 30
0.0
  9
$PUCSORGRIGHT
 10
0.0
 20
0.0
 30
0.0
  9
$PUCSORGFRONT
 10
0.0
 20
0.0
 30
0.0
  9
$PUCSORGBACK
 10
0.0
 20
0.0
 30
0.0
  9
$USERI1
 70
     0
  9
$USERI2
 70
     0
  9
$USERI3
 70
     0
  9
$USERI4
 70
     0
  9
$USERI5
 70
     0
  9
$USERR1
 40
0.0
  9
$USERR2
 40
0.0
  9
$USERR3
 40
0.0
  9
$USERR4
 40
0.0
  9
$USERR5
 40
0.0
  9
$WORLDVIEW
 70
     1
  9
$SHADEDGE
 70
     3
  9
$SHADEDIF
 70
    70
  9
$TILEMODE
 70
     1
  9
$MAXACTVP
 70
    16
  9
$PINSBASE
 10
0.0
 20
0.0
 30
0.0
  9
$PLIMCHECK
 70
     0
  9
$PEXTMIN
 10
1.000000000000000E+20
 20
1.000000000000000E+20
 30
1.000000000000000E+20
  9
$PEXTMAX
 10
-1.000000000000000E+20
 20
-1.000000000000000E+20
 30
-1.000000000000000E+20
  9
$PLIMMIN
 10
0.0
 20
0.0
  9
$PLIMMAX
 10
12.0
 20
9.0
  9
$UNITMODE
 70
     0
  9
$VISRETAIN
 70
     0
  9
$PLINEGEN
 70
     0
  9
$PSLTSCALE
 70
     0
  9
$TREEDEPTH
 70
  3020
  9
$CMLSTYLE
  2
Standard
  9
$CMLJUST
 70
     0
  9
$CMLSCALE
 40
1.0
  9
$PROXYGRAPHICS
 70
     1
  9
$MEASUREMENT
 70
     0
  9
$CELWEIGHT
370
    -1
  9
$ENDCAPS
280
     0
  9
$JOINSTYLE
280
     0
  9
$LWDISPLAY
290
     0
  9
$INSUNITS
 70
     0
  9
$HYPERLINKBASE
  1

  9
$STYLESHEET
  1
monochrome 1.ctb
  9
$XEDIT
290
     1
  9
$CEPSNTYPE
380
     0
  9
$PSTYLEMODE
290
     1
  9
$FINGERPRINTGUID
  2
{D68B0D02-A558-11D7-B632-000102183313}
  9
$VERSIONGUID
  2
{4EA65A83-FD3F-4242-B749-FAF848C02D37}
  9
$EXTNAMES
290
     1
  9
$PSVPSCALE
 40
0.0
  9
$OLESTARTUP
290
     0
  9
$SORTENTS
280
   127
  9
$INDEXCTL
280
     0
  9
$HIDETEXT
280
     0
  9
$XCLIPFRAME
290
     0
  9
$HALOGAP
280
     0
  9
$OBSCOLOR
 70
   257
  9
$OBSLTYPE
280
     0
  9
$INTERSECTIONDISPLAY
280
     0
  9
$INTERSECTIONCOLOR
 70
   257
  9
$DIMASSOC
280
     1
  9
$PROJECTNAME
  1

  0
ENDSEC
  0
SECTION
  2
CLASSES
  0
CLASS
  1
ACDBDICTIONARYWDFLT
  2
AcDbDictionaryWithDefault
  3
ObjectDBX Classes
 90
        0
 91
        1
280
     0
281
     0
  0
CLASS
  1
DICTIONARYVAR
  2
AcDbDictionaryVar
  3
ObjectDBX Classes
 90
        0
 91
        2
280
     0
281
     0
  0
ENDSEC
  0
SECTION
  2
TABLES
  0
TABLE
  2
VPORT
  5
8
330
0
100
AcDbSymbolTable
 70
     2
  0
VPORT
  5
25D5
330
8
100
AcDbSymbolTableRecord
100
AcDbViewportTableRecord
  2
*Active
 70
     0
 10
0.0
 20
0.0
 11
1.0
 21
1.0
 12
262.5042822495971
 22
371.2630537956802
 13
0.0
 23
0.0
 14
1.0
 24
1.0
 15
10.0
 25
10.0
 16
0.0
 26
0.0
 36
1.0
 17
0.0
 27
0.0
 37
0.0
 40
748.5816082434216
 41
1.336927223719676
 42
50.0
 43
0.0
 44
0.0
 50
0.0
 51
0.0
 71
     0
 72
  1500
 73
     1
 74
     0
 75
     0
 76
     0
 77
     0
 78
     0
281
     0
 65
     1
110
0.0
120
0.0
130
0.0
111
1.0
121
0.0
131
0.0
112
0.0
122
1.0
132
0.0
 79
     0
146
0.0
  0
ENDTAB
  0
TABLE
  2
LTYPE
  5
5
330
0
100
AcDbSymbolTable
 70
     2
  0
LTYPE
  5
13
330
5
100
AcDbSymbolTableRecord
100
AcDbLinetypeTableRecord
  2
ByBlock
 70
     0
  3

 72
    65
 73
     0
 40
0.0
  0
LTYPE
  5
14
330
5
100
AcDbSymbolTableRecord
100
AcDbLinetypeTableRecord
  2
ByLayer
 70
     0
  3

 72
    65
 73
     0
 40
0.0
  0
LTYPE
  5
15
330
5
100
AcDbSymbolTableRecord
100
AcDbLinetypeTableRecord
  2
Continuous
 70
     0
  3
Solid line
 72
    65
 73
     0
 40
0.0
  0
LTYPE
  5
25
330
5
100
AcDbSymbolTableRecord
100
AcDbLinetypeTableRecord
  2
STRICHPUNKT
 70
     0
  3
__ . __ . __ . __ . __ . __ . __ . __ . __ . __
 72
    65
 73
     4
 40
1.0
 49
0.5
 74
     0
 49
-0.25
 74
     0
 49
0.0
 74
     0
 49
-0.25
 74
     0
  0
ENDTAB
  0
TABLE
  2
LAYER
  5
2
330
0
100
AcDbSymbolTable
 70
     9
  0
LAYER
  5
10
330
2
100
AcDbSymbolTableRecord
100
AcDbLayerTableRecord
  2
0
 70
     0
 62
     7
  6
Continuous
370
    -3
390
F
  0
LAYER
  5
2A
330
2
100
AcDbSymbolTableRecord
100
AcDbLayerTableRecord
  2
VOLL
 70
     0
 62
     1
  6
Continuous
370
    -3
390
F
  0
LAYER
  5
2B
330
2
100
AcDbSymbolTableRecord
100
AcDbLayerTableRecord
  2
HILF
 70
     0
 62
     2
  6
Continuous
370
    -3
390
F
  0
LAYER
  5
2C
330
2
100
AcDbSymbolTableRecord
100
AcDbLayerTableRecord
  2
MITTEL
 70
     0
 62
     2
  6
STRICHPUNKT
370
    -3
390
F
  0
LAYER
  5
2F
330
2
100
AcDbSymbolTableRecord
100
AcDbLayerTableRecord
  2
BEM
 70
     0
 62
     7
  6
Continuous
370
    -3
390
F
  0
LAYER
  5
30
330
2
100
AcDbSymbolTableRecord
100
AcDbLayerTableRecord
  2
STEMPEL
 70
     0
 62
     3
  6
Continuous
370
    -3
390
F
  0
LAYER
  5
31
330
2
100
AcDbSymbolTableRecord
100
AcDbLayerTableRecord
  2
TEXT
 70
     0
 62
     7
  6
Continuous
370
    -3
390
F
  0
LAYER
  5
171
330
2
100
AcDbSymbolTableRecord
100
AcDbLayerTableRecord
  2
Defpoints
 70
     0
 62
     7
  6
Continuous
290
     0
370
    -3
390
F
  0
LAYER
  5
19C
330
2
100
AcDbSymbolTableRecord
100
AcDbLayerTableRecord
  2
SCHRAFF
 70
     0
 62
     7
  6
Continuous
370
    -3
390
F
  0
ENDTAB
  0
TABLE
  2
STYLE
  5
3
330
0
100
AcDbSymbolTable
 70
     2
  0
STYLE
  5
11
330
3
100
AcDbSymbolTableRecord
100
AcDbTextStyleTableRecord
  2
STANDARD
 70
     0
 40
0.0
 41
0.8
 50
0.0
 71
     0
 42
3.5
  3
simplex.shx
  4

  0
STYLE
  5
24
330
3
100
AcDbSymbolTableRecord
100
AcDbTextStyleTableRecord
  2
GREEKS
 70
     0
 40
0.0
 41
0.8
 50
0.0
 71
     0
 42
2.5
  3
SIMPLEX.shx
  4

  0
ENDTAB
  0
TABLE
  2
VIEW
  5
6
330
0
100
AcDbSymbolTable
 70
     0
  0
ENDTAB
  0
TABLE
  2
UCS
  5
7
330
0
100
AcDbSymbolTable
 70
     0
  0
ENDTAB
  0
TABLE
  2
APPID
  5
9
330
0
100
AcDbSymbolTable
 70
     1
  0
APPID
  5
12
330
9
100
AcDbSymbolTableRecord
100
AcDbRegAppTableRecord
  2
ACAD
 70
     0
  0
ENDTAB
  0
TABLE
  2
DIMSTYLE
  5
A
330
0
100
AcDbSymbolTable
 70
     1
100
AcDbDimStyleTable
 71
     1
340
9D
  0
DIMSTYLE
105
9D
102
{ACAD_REACTORS
330
2237
330
22AC
330
23A8
330
23C2
330
23D0
102
}
330
A
100
AcDbSymbolTableRecord
100
AcDbDimStyleTableRecord
  2
Standard
 70
     0
340
11
  0
ENDTAB
  0
TABLE
  2
BLOCK_RECORD
  5
1
330
0
100
AcDbSymbolTable
 70
     6
  0
BLOCK_RECORD
  5
1E
102
{ACAD_XDICTIONARY
360
A0
102
}
330
1
100
AcDbSymbolTableRecord
100
AcDbBlockTableRecord
  2
*Model_Space
340
21
  0
BLOCK_RECORD
  5
1A
102
{ACAD_XDICTIONARY
360
A2
102
}
330
1
100
AcDbSymbolTableRecord
100
AcDbBlockTableRecord
  2
*Paper_Space
340
1D
  0
BLOCK_RECORD
  5
22
330
1
100
AcDbSymbolTableRecord
100
AcDbBlockTableRecord
  2
LOGO
340
0
102
{BLKREFS
331
9B
102
}
  0
BLOCK_RECORD
  5
2256
330
1
100
AcDbSymbolTableRecord
100
AcDbBlockTableRecord
  2
*D1
340
0
  0
BLOCK_RECORD
  5
22C3
330
1
100
AcDbSymbolTableRecord
100
AcDbBlockTableRecord
  2
*D2
340
0
  0
BLOCK_RECORD
  5
23A9
330
1
100
AcDbSymbolTableRecord
100
AcDbBlockTableRecord
  2
*D3
340
0
  0
BLOCK_RECORD
  5
23C3
330
1
100
AcDbSymbolTableRecord
100
AcDbBlockTableRecord
  2
*D4
340
0
  0
BLOCK_RECORD
  5
23D1
330
1
100
AcDbSymbolTableRecord
100
AcDbBlockTableRecord
  2
*D5
340
0
  0
ENDTAB
  0
ENDSEC
  0
SECTION
  2
BLOCKS
  0
BLOCK
  5
35
330
1E
100
AcDbEntity
  8
0
100
AcDbBlockBegin
  2
*Model_Space
 70
     0
 10
0.0
 20
0.0
 30
0.0
  3
*Model_Space
  1

  0
ENDBLK
  5
36
330
1E
100
AcDbEntity
  8
0
100
AcDbBlockEnd
  0
BLOCK
  5
33
330
1A
100
AcDbEntity
 67
     1
  8
0
100
AcDbBlockBegin
  2
*Paper_Space
 70
     0
 10
0.0
 20
0.0
 30
0.0
  3
*Paper_Space
  1

  0
ENDBLK
  5
34
330
1A
100
AcDbEntity
 67
     1
  8
0
100
AcDbBlockEnd
  0
BLOCK
  5
37
330
22
100
AcDbEntity
  8
0
100
AcDbBlockBegin
  2
LOGO
 70
     0
 10
0.0
 20
0.0
 30
0.0
  3
LOGO
  1

  0
ARC
  5
38
330
22
100
AcDbEntity
  8
0
100
AcDbCircle
 10
11.59973089678112
 20
-9.271599258481501
 30
0.0
 40
4.5
100
AcDbArc
 50
270.0
 51
231.0575587310159
  0
LINE
  5
39
330
22
100
AcDbEntity
  8
0
100
AcDbLine
 10
3.599730896781125
 20
-4.771599258481529
 30
0.0
 11
3.599730896781153
 21
-11.77159925848133
 31
0.0
  0
LINE
  5
3A
330
22
100
AcDbEntity
  8
0
100
AcDbLine
 10
2.599730896781125
 20
-4.771599258481529
 30
0.0
 11
2.599730896781153
 21
-11.77159925848133
 31
0.0
  0
CIRCLE
  5
3B
330
22
100
AcDbEntity
  8
0
100
AcDbCircle
 10
11.59973089678112
 20
-9.271599258481501
 30
0.0
 40
3.5
  0
ARC
  5
3C
330
22
100
AcDbEntity
  8
0
100
AcDbCircle
 10
31.59973089678115
 20
-9.271599258481472
 30
0.0
 40
4.5
100
AcDbArc
 50
270.0
 51
231.0575587310182
  0
LINE
  5
3D
330
22
100
AcDbEntity
  8
0
100
AcDbLine
 10
17.59973089678112
 20
-4.771599258481472
 30
0.0
 11
17.59973089678115
 21
-13.77159925848147
 31
0.0
  0
ARC
  5
3E
330
22
100
AcDbEntity
  8
0
100
AcDbCircle
 10
22.59973089678116
 20
-7.271599258481472
 30
0.0
 40
2.5
100
AcDbArc
 50
293.1161887722295
 51
90.0
  0
CIRCLE
  5
3F
330
22
100
AcDbEntity
  8
0
100
AcDbCircle
 10
31.59973089678115
 20
-9.271599258481472
 30
0.0
 40
3.5
  0
ARC
  5
40
330
22
100
AcDbEntity
  8
0
100
AcDbCircle
 10
4.599730896781153
 20
-11.77159925848133
 30
0.0
 40
1.0
100
AcDbArc
 50
180.0
 51
270.0
  0
ARC
  5
41
330
22
100
AcDbEntity
  8
0
100
AcDbCircle
 10
4.599730896781153
 20
-11.77159925848133
 30
0.0
 40
2.0
100
AcDbArc
 50
179.9999999999992
 51
270.0
  0
LINE
  5
42
330
22
100
AcDbEntity
  8
0
100
AcDbLine
 10
11.59973089678115
 20
-13.77159925848144
 30
0.0
 11
4.599730896781153
 21
-13.77159925848147
 31
0.0
  0
LINE
  5
43
330
22
100
AcDbEntity
  8
0
100
AcDbLine
 10
8.771303772034769
 20
-12.77159925848136
 30
0.0
 11
4.599730896781153
 21
-12.77159925848133
 31
0.0
  0
LINE
  5
44
330
22
100
AcDbEntity
  8
0
100
AcDbLine
 10
31.59973089678115
 20
-13.77159925848147
 30
0.0
 11
23.6715276665056
 21
-13.77159925848144
 31
0.0
  0
LINE
  5
45
330
22
100
AcDbEntity
  8
0
100
AcDbLine
 10
23.56565672307022
 20
-9.51278021337896
 30
0.0
 11
24.4388546544846
 21
-12.77159925848144
 31
0.0
  0
LINE
  5
46
330
22
100
AcDbEntity
  8
0
100
AcDbLine
 10
22.59973089678116
 20
-9.771599258481472
 30
0.0
 11
18.59973089678112
 21
-9.771599258481472
 31
0.0
  0
LINE
  5
47
330
22
100
AcDbEntity
  8
0
100
AcDbLine
 10
18.59973089678115
 20
-13.77159925848144
 30
0.0
 11
17.59973089678115
 21
-13.77159925848144
 31
0.0
  0
LINE
  5
48
330
22
100
AcDbEntity
  8
0
100
AcDbLine
 10
18.59973089678115
 20
-9.771599258481472
 30
0.0
 11
18.59973089678115
 21
-13.77159925848144
 31
0.0
  0
LINE
  5
49
330
22
100
AcDbEntity
  8
0
100
AcDbLine
 10
22.59973089678116
 20
-9.771599258481472
 30
0.0
 11
23.67152766650562
 21
-13.77159925848147
 31
0.0
  0
ARC
  5
4A
330
22
100
AcDbEntity
  8
0
100
AcDbCircle
 10
22.59973089678116
 20
-7.271599258481472
 30
0.0
 40
2.5
100
AcDbArc
 50
270.0
 51
270.0000000000007
  0
LINE
  5
4B
330
22
100
AcDbEntity
  8
0
100
AcDbLine
 10
28.77130377203494
 20
-12.77159925848147
 30
0.0
 11
24.43885465448463
 21
-12.77159925848144
 31
0.0
  0
LINE
  5
4C
330
22
100
AcDbEntity
  8
0
100
AcDbLine
 10
3.599730896781125
 20
-4.771599258481472
 30
0.0
 11
2.599730896781125
 21
-4.771599258481472
 31
0.0
  0
LINE
  5
4D
330
22
100
AcDbEntity
  8
0
100
AcDbLine
 10
22.59973089678116
 20
-8.771599258481472
 30
0.0
 11
18.59973089678115
 21
-8.771599258481472
 31
0.0
  0
LINE
  5
4E
330
22
100
AcDbEntity
  8
0
100
AcDbLine
 10
22.59973089678116
 20
-5.771599258481472
 30
0.0
 11
18.59973089678115
 21
-5.771599258481472
 31
0.0
  0
LINE
  5
4F
330
22
100
AcDbEntity
  8
0
100
AcDbLine
 10
22.59973089678116
 20
-4.771599258481472
 30
0.0
 11
17.59973089678115
 21
-4.771599258481472
 31
0.0
  0
LINE
  5
50
330
22
100
AcDbEntity
  8
0
100
AcDbLine
 10
18.59973089678115
 20
-5.771599258481472
 30
0.0
 11
18.59973089678115
 21
-8.771599258481472
 31
0.0
  0
ARC
  5
51
330
22
100
AcDbEntity
  8
0
100
AcDbCircle
 10
22.59973089678116
 20
-7.271599258481472
 30
0.0
 40
1.5
100
AcDbArc
 50
270.0
 51
90.0
  0
ENDBLK
  5
52
330
22
100
AcDbEntity
  8
0
100
AcDbBlockEnd
  0
BLOCK
  5
2260
330
2256
100
AcDbEntity
  8
0
100
AcDbBlockBegin
  2
*D1
 70
     1
 10
0.0
 20
0.0
 30
0.0
  3
*D1
  1

  0
LINE
  5
2531
330
2256
100
AcDbEntity
  8
BEM
 62
     0
370
    -2
100
AcDbLine
 10
214.7722550213506
 20
311.4783120291866
 30
0.0
 11
214.7722550213506
 21
282.5052001869248
 31
0.0
  0
LINE
  5
2532
330
2256
100
AcDbEntity
  8
BEM
 62
     0
370
    -2
100
AcDbLine
 10
303.7722550213505
 20
311.4783120291873
 30
0.0
 11
303.7722550213505
 21
282.5052001869248
 31
0.0
  0
LINE
  5
2533
330
2256
100
AcDbEntity
  8
BEM
 62
     0
370
    -2
100
AcDbLine
 10
223.5222550213506
 20
285.0052001869248
 30
0.0
 11
295.0222550213505
 21
285.0052001869248
 31
0.0
  0
SOLID
  5
2534
330
2256
100
AcDbEntity
  8
BEM
 62
     0
100
AcDbTrace
 10
223.5222550213506
 20
286.4635335202581
 30
0.0
 11
223.5222550213506
 21
283.5468668535915
 31
0.0
 12
214.7722550213506
 22
285.0052001869248
 32
0.0
 13
214.7722550213506
 23
285.0052001869248
 33
0.0
  0
SOLID
  5
2535
330
2256
100
AcDbEntity
  8
BEM
 62
     0
100
AcDbTrace
 10
295.0222550213505
 20
286.4635335202581
 30
0.0
 11
295.0222550213505
 21
283.5468668535915
 31
0.0
 12
303.7722550213505
 22
285.0052001869248
 32
0.0
 13
303.7722550213505
 23
285.0052001869248
 33
0.0
  0
MTEXT
  5
2536
330
2256
100
AcDbEntity
  8
BEM
 62
     1
100
AcDbMText
 10
259.2722550213505
 20
293.1302001869248
 30
0.0
 40
8.75
 41
0.0
 71
     5
 72
     1
  1
\A1;%%C89
 73
     1
 44
1.0
  0
POINT
  5
2537
330
2256
100
AcDbEntity
  8
Defpoints
 62
     0
100
AcDbPoint
 10
214.7722550213506
 20
313.9783120291866
 30
0.0
  0
POINT
  5
2538
330
2256
100
AcDbEntity
  8
Defpoints
 62
     0
100
AcDbPoint
 10
303.7722550213505
 20
313.9783120291873
 30
0.0
  0
POINT
  5
2539
330
2256
100
AcDbEntity
  8
Defpoints
 62
     0
100
AcDbPoint
 10
303.7722550213505
 20
285.0052001869248
 30
0.0
  0
ENDBLK
  5
2261
330
2256
100
AcDbEntity
  8
0
100
AcDbBlockEnd
  0
BLOCK
  5
22CD
330
22C3
100
AcDbEntity
  8
0
100
AcDbBlockBegin
  2
*D2
 70
     1
 10
0.0
 20
0.0
 30
0.0
  3
*D2
  1

  0
LINE
  5
25A0
330
22C3
100
AcDbEntity
  8
BEM
 62
     0
370
    -2
100
AcDbLine
 10
329.9834570498248
 20
607.1067873432921
 30
0.0
 11
342.6334315876509
 21
619.7567618811182
 31
0.0
  0
LINE
  5
25A1
330
22C3
100
AcDbEntity
  8
BEM
 62
     0
370
    -2
100
AcDbLine
 10
424.0286589476354
 20
513.0615854454809
 30
0.0
 11
436.6786334854621
 21
525.7115599833077
 31
0.0
  0
LINE
  5
25A2
330
22C3
100
AcDbEntity
  8
BEM
 62
     0
370
    -2
100
AcDbLine
 10
347.0528489700668
 20
611.8018105927697
 30
0.0
 11
428.7236821971133
 21
530.1309773657236
 31
0.0
  0
SOLID
  5
25A3
330
22C3
100
AcDbEntity
  8
BEM
 62
     0
100
AcDbTrace
 10
348.0840463592973
 20
612.833007982
 30
0.0
 11
346.0216515808364
 21
610.7706132035391
 31
0.0
 12
340.8656646346845
 22
617.9889949281519
 32
0.0
 13
340.8656646346845
 23
617.9889949281519
 33
0.0
  0
SOLID
  5
25A4
330
22C3
100
AcDbEntity
  8
BEM
 62
     0
100
AcDbTrace
 10
429.7548795863438
 20
531.1621747549541
 30
0.0
 11
427.692484807883
 21
529.0997799764932
 31
0.0
 12
434.9108665324957
 22
523.9437930303413
 32
0.0
 13
434.9108665324957
 23
523.9437930303413
 33
0.0
  0
MTEXT
  5
25A5
330
22C3
100
AcDbEntity
  8
BEM
 62
     1
100
AcDbMText
 10
393.6335081807309
 20
576.7116365763873
 30
0.0
 40
8.75
 41
0.0
 71
     5
 72
     1
  1
\A1;%%c133
 11
0.7071067811865501
 21
-0.7071067811865451
 31
0.0
 73
     1
 44
1.0
  0
POINT
  5
25A6
330
22C3
100
AcDbEntity
  8
Defpoints
 62
     0
100
AcDbPoint
 10
328.2156900968585
 20
605.3390203903257
 30
0.0
  0
POINT
  5
25A7
330
22C3
100
AcDbEntity
  8
Defpoints
 62
     0
100
AcDbPoint
 10
422.2608919946691
 20
511.2938184925146
 30
0.0
  0
POINT
  5
25A8
330
22C3
100
AcDbEntity
  8
Defpoints
 62
     0
100
AcDbPoint
 10
434.9108665324957
 20
523.9437930303413
 30
0.0
  0
ENDBLK
  5
22CE
330
22C3
100
AcDbEntity
  8
0
100
AcDbBlockEnd
  0
BLOCK
  5
23B3
330
23A9
100
AcDbEntity
  8
0
100
AcDbBlockBegin
  2
*D3
 70
     1
 10
0.0
 20
0.0
 30
0.0
  3
*D3
  1

  0
LINE
  5
258E
330
23A9
100
AcDbEntity
  8
BEM
 62
     0
370
    -2
100
AcDbLine
 10
256.7722550213505
 20
442.3503834170068
 30
0.0
 11
150.6335870051803
 21
442.3503834170068
 31
0.0
  0
LINE
  5
258F
330
23A9
100
AcDbEntity
  8
BEM
 62
     0
370
    -2
100
AcDbLine
 10
213.3221189836616
 20
307.3496424966352
 30
0.0
 11
150.6335870051803
 21
307.3496424966352
 31
0.0
  0
LINE
  5
2590
330
23A9
100
AcDbEntity
  8
BEM
 62
     0
370
    -2
100
AcDbLine
 10
153.1335870051803
 20
433.6003834170067
 30
0.0
 11
153.1335870051803
 21
316.0996424966352
 31
0.0
  0
SOLID
  5
2591
330
23A9
100
AcDbEntity
  8
BEM
 62
     0
100
AcDbTrace
 10
151.6752536718469
 20
433.6003834170067
 30
0.0
 11
154.5919203385136
 21
433.6003834170067
 31
0.0
 12
153.1335870051803
 22
442.3503834170068
 32
0.0
 13
153.1335870051803
 23
442.3503834170068
 33
0.0
  0
SOLID
  5
2592
330
23A9
100
AcDbEntity
  8
BEM
 62
     0
100
AcDbTrace
 10
151.6752536718469
 20
316.0996424966352
 30
0.0
 11
154.5919203385136
 21
316.0996424966352
 31
0.0
 12
153.1335870051803
 22
307.3496424966352
 32
0.0
 13
153.1335870051803
 23
307.3496424966352
 33
0.0
  0
MTEXT
  5
2593
330
23A9
100
AcDbEntity
  8
BEM
 62
     1
100
AcDbMText
 10
145.0085870051802
 20
374.850012956821
 30
0.0
 40
8.75
 41
0.0
 71
     5
 72
     1
  1
\A1;135
 11
0.0000000000000001
 21
1.0
 31
0.0
 73
     1
 44
1.0
  0
POINT
  5
2594
330
23A9
100
AcDbEntity
  8
Defpoints
 62
     0
100
AcDbPoint
 10
259.2722550213505
 20
442.3503834170068
 30
0.0
  0
POINT
  5
2595
330
23A9
100
AcDbEntity
  8
Defpoints
 62
     0
100
AcDbPoint
 10
215.8221189836616
 20
307.3496424966352
 30
0.0
  0
POINT
  5
2596
330
23A9
100
AcDbEntity
  8
Defpoints
 62
     0
100
AcDbPoint
 10
153.1335870051803
 20
307.3496424966352
 30
0.0
  0
ENDBLK
  5
23B4
330
23A9
100
AcDbEntity
  8
0
100
AcDbBlockEnd
  0
BLOCK
  5
23CD
330
23C3
100
AcDbEntity
  8
0
100
AcDbBlockBegin
  2
*D4
 70
     1
 10
0.0
 20
0.0
 30
0.0
  3
*D4
  1

  0
LINE
  5
2585
330
23C3
100
AcDbEntity
  8
BEM
 62
     0
370
    -2
100
AcDbLine
 10
190.2722550213504
 20
357.3496424966352
 30
0.0
 11
171.4831477143252
 21
357.3496424966352
 31
0.0
  0
LINE
  5
2586
330
23C3
100
AcDbEntity
  8
BEM
 62
     0
370
    -2
100
AcDbLine
 10
213.3221189836616
 20
307.3496424966352
 30
0.0
 11
171.4831477143252
 21
307.3496424966352
 31
0.0
  0
LINE
  5
2587
330
23C3
100
AcDbEntity
  8
BEM
 62
     0
370
    -2
100
AcDbLine
 10
173.9831477143253
 20
348.5996424966352
 30
0.0
 11
173.9831477143252
 21
316.0996424966352
 31
0.0
  0
SOLID
  5
2588
330
23C3
100
AcDbEntity
  8
BEM
 62
     0
100
AcDbTrace
 10
172.5248143809919
 20
348.5996424966352
 30
0.0
 11
175.4414810476586
 21
348.5996424966352
 31
0.0
 12
173.9831477143253
 22
357.3496424966352
 32
0.0
 13
173.9831477143253
 23
357.3496424966352
 33
0.0
  0
SOLID
  5
2589
330
23C3
100
AcDbEntity
  8
BEM
 62
     0
100
AcDbTrace
 10
172.5248143809919
 20
316.0996424966352
 30
0.0
 11
175.4414810476586
 21
316.0996424966352
 31
0.0
 12
173.9831477143252
 22
307.3496424966352
 32
0.0
 13
173.9831477143252
 23
307.3496424966352
 33
0.0
  0
MTEXT
  5
258A
330
23C3
100
AcDbEntity
  8
BEM
 62
     1
100
AcDbMText
 10
165.8581477143252
 20
332.3496424966353
 30
0.0
 40
8.75
 41
0.0
 71
     5
 72
     1
  1
\A1;50
 11
0.0000000000000001
 21
1.0
 31
0.0
 73
     1
 44
1.0
  0
POINT
  5
258B
330
23C3
100
AcDbEntity
  8
Defpoints
 62
     0
100
AcDbPoint
 10
192.7722550213504
 20
357.3496424966352
 30
0.0
  0
POINT
  5
258C
330
23C3
100
AcDbEntity
  8
Defpoints
 62
     0
100
AcDbPoint
 10
215.8221189836616
 20
307.3496424966352
 30
0.0
  0
POINT
  5
258D
330
23C3
100
AcDbEntity
  8
Defpoints
 62
     0
100
AcDbPoint
 10
173.9831477143252
 20
307.3496424966352
 30
0.0
  0
ENDBLK
  5
23CE
330
23C3
100
AcDbEntity
  8
0
100
AcDbBlockEnd
  0
BLOCK
  5
23DB
330
23D1
100
AcDbEntity
  8
0
100
AcDbBlockBegin
  2
*D5
 70
     1
 10
0.0
 20
0.0
 30
0.0
  3
*D5
  1

  0
LINE
  5
2597
330
23D1
100
AcDbEntity
  8
BEM
 62
     0
370
    -2
100
AcDbLine
 10
257.504488068384
 20
444.1181503699731
 30
0.0
 11
188.7769151688387
 21
512.8457232695184
 31
0.0
  0
LINE
  5
2598
330
23D1
100
AcDbEntity
  8
BEM
 62
     0
370
    -2
100
AcDbLine
 10
326.447923143892
 20
607.1067873432919
 30
0.0
 11
304.742951193252
 21
628.811759293932
 31
0.0
  0
LINE
  5
2599
330
23D1
100
AcDbEntity
  8
BEM
 62
     0
370
    -2
100
AcDbLine
 10
196.7318664571873
 20
517.2651406519342
 30
0.0
 11
300.3235338108361
 21
620.8568080055832
 31
0.0
  0
SOLID
  5
259A
330
23D1
100
AcDbEntity
  8
BEM
 62
     0
100
AcDbTrace
 10
195.7006690679569
 20
518.2963380411647
 30
0.0
 11
197.7630638464177
 21
516.2339432627038
 31
0.0
 12
190.544682121805
 22
511.077956316552
 32
0.0
 13
190.544682121805
 23
511.077956316552
 33
0.0
  0
SOLID
  5
259B
330
23D1
100
AcDbEntity
  8
BEM
 62
     0
100
AcDbTrace
 10
299.2923364216057
 20
621.8880053948137
 30
0.0
 11
301.3547312000666
 21
619.8256106163528
 31
0.0
 12
306.5107181462184
 22
627.0439923409655
 32
0.0
 13
306.5107181462184
 23
627.0439923409655
 33
0.0
  0
MTEXT
  5
259C
330
23D1
100
AcDbEntity
  8
BEM
 62
     1
100
AcDbMText
 10
242.782457536871
 20
574.8062169258995
 30
0.0
 40
8.75
 41
0.0
 71
     5
 72
     1
  1
\A1;164
 11
0.7071067811865469
 21
0.7071067811865484
 31
0.0
 73
     1
 44
1.0
  0
POINT
  5
259D
330
23D1
100
AcDbEntity
  8
Defpoints
 62
     0
100
AcDbPoint
 10
259.2722550213504
 20
442.3503834170067
 30
0.0
  0
POINT
  5
259E
330
23D1
100
AcDbEntity
  8
Defpoints
 62
     0
100
AcDbPoint
 10
328.2156900968583
 20
605.3390203903257
 30
0.0
  0
POINT
  5
259F
330
23D1
100
AcDbEntity
  8
Defpoints
 62
     0
100
AcDbPoint
 10
306.5107181462184
 20
627.0439923409655
 30
0.0
  0
ENDBLK
  5
23DC
330
23D1
100
AcDbEntity
  8
0
100
AcDbBlockEnd
  0
ENDSEC
  0
SECTION
  2
ENTITIES
  0
LINE
  5
57
330
1E
100
AcDbEntity
  8
STEMPEL
100
AcDbLine
 10
512.5
 20
137.5
 30
0.0
 11
49.99999999999996
 21
137.5
 31
0.0
  0
LINE
  5
58
330
1E
100
AcDbEntity
  8
STEMPEL
100
AcDbLine
 10
182.5000000000001
 20
137.4999999999999
 30
0.0
 11
182.5
 21
12.49999999999996
 31
0.0
  0
LINE
  5
59
330
1E
100
AcDbEntity
  8
STEMPEL
100
AcDbLine
 10
287.5
 20
137.5
 30
0.0
 11
287.5
 21
12.49999999999996
 31
0.0
  0
LINE
  5
5A
330
1E
100
AcDbEntity
  8
STEMPEL
100
AcDbLine
 10
415.0
 20
137.4999999999997
 30
0.0
 11
415.0
 21
50.0
 31
0.0
  0
LINE
  5
5B
330
1E
100
AcDbEntity
  8
STEMPEL
100
AcDbLine
 10
182.4999999999998
 20
37.49999999999996
 30
0.0
 11
49.99999999999996
 21
37.49999999999996
 31
0.0
  0
LINE
  5
5C
330
1E
100
AcDbEntity
  8
STEMPEL
100
AcDbLine
 10
512.5
 20
50.0
 30
0.0
 11
182.5000000000001
 21
49.99999999999996
 31
0.0
  0
LINE
  5
5D
330
1E
100
AcDbEntity
  8
STEMPEL
100
AcDbLine
 10
512.5
 20
100.0
 30
0.0
 11
182.5000000000001
 21
99.99999999999992
 31
0.0
  0
LINE
  5
5E
330
1E
100
AcDbEntity
  8
VOLL
100
AcDbLine
 10
67.50000000000011
 20
137.5
 30
0.0
 11
67.49999999999997
 21
12.49999999999996
 31
0.0
  0
LINE
  5
5F
330
1E
100
AcDbEntity
  8
VOLL
100
AcDbLine
 10
130.0000000000001
 20
137.4999999999999
 30
0.0
 11
130.0
 21
12.49999999999996
 31
0.0
  0
LINE
  5
60
330
1E
100
AcDbEntity
  8
VOLL
100
AcDbLine
 10
155.0000000000001
 20
137.4999999999999
 30
0.0
 11
155.0
 21
12.49999999999996
 31
0.0
  0
LINE
  5
61
330
1E
100
AcDbEntity
  8
VOLL
100
AcDbLine
 10
205.0000000000002
 20
99.99999999999992
 30
0.0
 11
205.0000000000002
 21
49.99999999999996
 31
0.0
  0
LINE
  5
62
330
1E
100
AcDbEntity
  8
VOLL
100
AcDbLine
 10
237.5000000000001
 20
137.4999999999998
 30
0.0
 11
237.5
 21
49.99999999999996
 31
0.0
  0
LINE
  5
63
330
1E
100
AcDbEntity
  8
HILF
100
AcDbLine
 10
50.0000000000001
 20
125.0
 30
0.0
 11
182.5000000000001
 21
125.0
 31
0.0
  0
LINE
  5
64
330
1E
100
AcDbEntity
  8
HILF
100
AcDbLine
 10
50.0000000000001
 20
112.5
 30
0.0
 11
182.5000000000001
 21
112.5
 31
0.0
  0
LINE
  5
65
330
1E
100
AcDbEntity
  8
HILF
100
AcDbLine
 10
50.0000000000001
 20
99.99999999999992
 30
0.0
 11
182.5000000000001
 21
99.99999999999992
 31
0.0
  0
LINE
  5
66
330
1E
100
AcDbEntity
  8
HILF
100
AcDbLine
 10
50.0000000000001
 20
87.49999999999992
 30
0.0
 11
182.5000000000001
 21
87.49999999999992
 31
0.0
  0
LINE
  5
67
330
1E
100
AcDbEntity
  8
HILF
100
AcDbLine
 10
50.0000000000001
 20
74.99999999999997
 30
0.0
 11
182.5000000000001
 21
74.99999999999997
 31
0.0
  0
LINE
  5
68
330
1E
100
AcDbEntity
  8
HILF
100
AcDbLine
 10
50.0000000000001
 20
62.49999999999996
 30
0.0
 11
182.5000000000001
 21
62.49999999999996
 31
0.0
  0
LINE
  5
69
330
1E
100
AcDbEntity
  8
HILF
100
AcDbLine
 10
50.0000000000001
 20
49.99999999999996
 30
0.0
 11
182.5000000000001
 21
49.99999999999996
 31
0.0
  0
LINE
  5
6A
330
1E
100
AcDbEntity
  8
HILF
100
AcDbLine
 10
182.5000000000001
 20
87.49999999999992
 30
0.0
 11
287.5
 21
87.49999999999992
 31
0.0
  0
LINE
  5
6B
330
1E
100
AcDbEntity
  8
HILF
100
AcDbLine
 10
182.5000000000001
 20
74.99999999999997
 30
0.0
 11
287.5
 21
74.99999999999997
 31
0.0
  0
LINE
  5
6C
330
1E
100
AcDbEntity
  8
HILF
100
AcDbLine
 10
182.5000000000001
 20
62.49999999999996
 30
0.0
 11
287.5
 21
62.49999999999996
 31
0.0
  0
LINE
  5
6D
330
1E
100
AcDbEntity
  8
HILF
100
AcDbLine
 10
293.4671001371185
 20
105.0469780945517
 30
0.0
 11
406.0442395695388
 21
105.0469780945517
 31
0.0
  0
LINE
  5
6E
330
1E
100
AcDbEntity
  8
HILF
100
AcDbLine
 10
293.4671001371185
 20
87.49999999999992
 30
0.0
 11
406.0442395695387
 21
87.49999999999992
 31
0.0
  0
LINE
  5
6F
330
1E
100
AcDbEntity
  8
HILF
100
AcDbLine
 10
293.4671001371185
 20
74.99999999999997
 30
0.0
 11
406.0442395695387
 21
74.99999999999997
 31
0.0
  0
LINE
  5
70
330
1E
100
AcDbEntity
  8
HILF
100
AcDbLine
 10
293.4671001371185
 20
62.49999999999996
 30
0.0
 11
406.0442395695387
 21
62.49999999999996
 31
0.0
  0
LINE
  5
71
330
1E
100
AcDbEntity
  8
VOLL
100
AcDbLine
 10
415.0
 20
75.0
 30
0.0
 11
512.5
 21
75.0
 31
0.0
  0
LINE
  5
72
330
1E
100
AcDbEntity
  8
HILF
100
AcDbLine
 10
420.9048270371241
 20
104.7247954619478
 30
0.0
 11
506.073604915841
 21
104.7247954619478
 31
0.0
  0
LINE
  5
73
330
1E
100
AcDbEntity
  8
HILF
100
AcDbLine
 10
291.8637124112356
 20
18.61747822535392
 30
0.0
 11
506.073604915841
 21
18.61747822535392
 31
0.0
  0
TEXT
  5
74
330
1E
100
AcDbEntity
  8
TEXT
100
AcDbText
 10
84.74387371862629
 20
23.34227368730165
 30
0.0
 40
5.0
  1
Änderung
 41
0.8
  7
GREEKS
 72
     1
 11
98.17244514719773
 21
23.34227368730165
 31
0.0
100
AcDbText
  0
TEXT
  5
75
330
1E
100
AcDbEntity
  8
TEXT
100
AcDbText
 10
191.8954465187971
 20
128.0776118858861
 30
0.0
 40
6.25
  1
Maßstab
 41
0.8
  7
GREEKS
100
AcDbText
  0
TEXT
  5
76
330
1E
100
AcDbEntity
  8
TEXT
100
AcDbText
 10
242.8573693417564
 20
128.0230210543524
 30
0.0
 40
6.25
  1
Zul. Abw.
 41
0.8
  7
GREEKS
100
AcDbText
  0
TEXT
  5
77
330
1E
100
AcDbEntity
  8
TEXT
100
AcDbText
 10
293.5974254761262
 20
128.1861660014724
 30
0.0
 40
6.25
  1
Benennung
 41
0.8
  7
GREEKS
100
AcDbText
  0
TEXT
  5
78
330
1E
100
AcDbEntity
  8
TEXT
100
AcDbText
 10
420.2234436970425
 20
127.891504317142
 30
0.0
 40
6.25
  1
Zeichnungs Nr.
 41
0.8
  7
GREEKS
100
AcDbText
  0
TEXT
  5
79
330
1E
100
AcDbEntity
  8
TEXT
100
AcDbText
 10
293.42779798892
 20
38.55700712741321
 30
0.0
 40
6.25
  1
Bauvorhaben
 41
0.8
  7
GREEKS
100
AcDbText
  0
TEXT
  5
7A
330
1E
100
AcDbEntity
  8
TEXT
100
AcDbText
 10
420.9048270371241
 20
91.47647796374961
 30
0.0
 40
6.25
  1
Ersatz für:
 41
0.8
  7
GREEKS
100
AcDbText
  0
TEXT
  5
7B
330
1E
100
AcDbEntity
  8
TEXT
100
AcDbText
 10
60.33301383807195
 20
17.06832307533989
 30
0.0
 40
5.0
  1
Index
 50
90.0
 41
0.8
  7
GREEKS
100
AcDbText
  0
TEXT
  5
7C
330
1E
100
AcDbEntity
  8
TEXT
100
AcDbText
 10
138.3732649044237
 20
23.33945336674763
 30
0.0
 40
5.0
  1
Tag
 41
0.8
  7
GREEKS
 72
     1
 11
143.0399315710903
 21
23.33945336674763
 31
0.0
100
AcDbText
  0
TEXT
  5
7D
330
1E
100
AcDbEntity
  8
TEXT
100
AcDbText
 10
161.2653430483241
 20
23.2415527120801
 30
0.0
 40
5.0
  1
Name
 41
0.8
  7
GREEKS
 72
     1
 11
169.170104953086
 21
23.2415527120801
 31
0.0
100
AcDbText
  0
TEXT
  5
7E
330
1E
100
AcDbEntity
  8
TEXT
100
AcDbText
 10
215.4139591442064
 20
91.64850626537408
 30
0.0
 40
5.0
  1
Tag
 41
0.8
  7
GREEKS
100
AcDbText
  0
TEXT
  5
7F
330
1E
100
AcDbEntity
  8
TEXT
100
AcDbText
 10
253.0783230282869
 20
91.63701364894031
 30
0.0
 40
5.0
  1
Name
 41
0.8
  7
GREEKS
100
AcDbText
  0
TEXT
  5
80
330
1E
100
AcDbEntity
  8
TEXT
100
AcDbText
 10
184.4795158959519
 20
79.53737962022455
 30
0.0
 40
5.0
  1
Gez.
 41
0.8
  7
GREEKS
100
AcDbText
  0
TEXT
  5
81
330
1E
100
AcDbEntity
  8
TEXT
100
AcDbText
 10
184.439385821459
 20
67.11157864285471
 30
0.0
 40
5.0
  1
Gepr.
 41
0.8
  7
GREEKS
100
AcDbText
  0
TEXT
  5
82
330
1E
100
AcDbEntity
  8
TEXT
100
AcDbText
 10
184.5008471734129
 20
54.41182987062259
 30
0.0
 40
5.0
  1
Norm.
 41
0.8
  7
GREEKS
100
AcDbText
  0
LINE
  5
83
330
1E
100
AcDbEntity
  8
STEMPEL
100
AcDbLine
 10
62.49999999999985
 20
12.5
 30
0.0
 11
512.5
 21
12.5
 31
0.0
  0
TEXT
  5
84
330
1E
100
AcDbEntity
  8
TEXT
100
AcDbText
 10
421.5501076871257
 20
65.09270222348252
 30
0.0
 40
6.25
  1
ersetzt durch:
 41
0.8
  7
GREEKS
100
AcDbText
  0
LINE
  5
85
330
1E
100
AcDbEntity
  8
STEMPEL
100
AcDbLine
 10
512.5
 20
12.5
 30
0.0
 11
49.99999999999985
 21
12.5
 31
0.0
  0
LINE
  5
86
330
1E
100
AcDbEntity
  8
STEMPEL
100
AcDbLine
 10
512.5
 20
12.5
 30
0.0
 11
512.5
 21
730.0
 31
0.0
  0
LINE
  5
87
330
1E
100
AcDbEntity
  8
STEMPEL
100
AcDbLine
 10
50.0
 20
12.5
 30
0.0
 11
49.99999999999985
 21
730.0
 31
0.0
  0
LINE
  5
88
330
1E
100
AcDbEntity
  8
STEMPEL
100
AcDbLine
 10
512.5
 20
730.0
 30
0.0
 11
49.99999999999985
 21
730.0
 31
0.0
  0
LINE
  5
89
330
1E
100
AcDbEntity
  8
HILF
100
AcDbLine
 10
0.0
 20
0.0
 30
0.0
 11
-0.0000000000001421
 21
742.4999999999999
 31
0.0
  0
LINE
  5
8A
330
1E
100
AcDbEntity
  8
HILF
100
AcDbLine
 10
524.9999999999999
 20
742.5000000000002
 30
0.0
 11
0.0
 21
742.4999999999999
 31
0.0
  0
LINE
  5
8B
330
1E
100
AcDbEntity
  8
HILF
100
AcDbLine
 10
525.0
 20
0.0
 30
0.0
 11
0.0
 21
0.0
 31
0.0
  0
LINE
  5
8C
330
1E
100
AcDbEntity
  8
HILF
100
AcDbLine
 10
38.8595891964232
 20
371.2500000000001
 30
0.0
 11
0.0000000000001421
 21
371.2500000000001
 31
0.0
  0
TEXT
  5
8D
330
1E
100
AcDbEntity
  8
TEXT
100
AcDbText
 10
185.77763727763
 20
91.42531838939582
 30
0.0
 40
5.0
  1
2007
 41
0.8
  7
GREEKS
100
AcDbText
  0
LINE
  5
8E
330
1E
100
AcDbEntity
  8
HILF
100
AcDbLine
 10
525.0
 20
-0.0000000000001421
 30
0.0
 11
524.9999999999999
 21
742.4999999999999
 31
0.0
  0
TEXT
  5
8F
330
1E
100
AcDbEntity
  8
VOLL
100
AcDbText
 10
78.07675471698113
 20
31.02594776470585
 30
0.0
 40
1.8
  1

  7
GREEKS
100
AcDbText
  0
TEXT
  5
90
330
1E
100
AcDbEntity
  8
TEXT
100
AcDbText
 10
52.31887438722093
 20
139.5899999999999
 30
0.0
 40
6.25
  1
Erstellt mit AUTOCAD 2004
 41
0.8
  7
GREEKS
100
AcDbText
  0
TEXT
  5
91
330
1E
100
AcDbEntity
  8
TEXT
100
AcDbText
 10
255.5270060726571
 20
78.86204899654387
 30
0.0
 40
5.0
  1
Koeh
 41
0.8
  7
GREEKS
 72
     1
 11
262.0984346440857
 21
78.86204899654387
 31
0.0
100
AcDbText
  0
TEXT
  5
92
330
1E
100
AcDbEntity
  8
TEXT
 62
     1
100
AcDbText
 10
433.4705259188434
 20
110.1862678614245
 30
0.0
 40
8.75
  1
58032080W
 41
0.8
  7
GREEKS
 72
     1
 11
463.4705259188434
 21
110.1862678614245
 31
0.0
100
AcDbText
  0
TEXT
  5
93
330
1E
100
AcDbEntity
  8
TEXT
 62
     1
100
AcDbText
 10
200.6257883102358
 20
110.1862678614245
 30
0.0
 40
8.75
  1
1:2.5
 41
0.8
  7
GREEKS
100
AcDbText
  0
TEXT
  5
94
330
1E
100
AcDbEntity
  8
TEXT
100
AcDbText
 10
212.9987463852951
 20
78.88456301032164
 30
0.0
 40
5.0
  1
28.09.
 41
0.8
  7
GREEKS
 72
     1
 11
221.7606511471998
 21
78.88456301032164
 31
0.0
100
AcDbText
  0
TEXT
  5
95
330
1E
100
AcDbEntity
  8
TEXT
 62
     1
100
AcDbText
 10
296.1169663821753
 20
109.2718598656722
 30
0.0
 40
8.75
  1
Verbundrohr DN80
 41
0.8
  7
GREEKS
100
AcDbText
  0
TEXT
  5
98
330
1E
100
AcDbEntity
  8
TEXT
100
AcDbText
 10
293.9120488906644
 20
64.55014928802699
 30
0.0
 40
6.25
  1
EDV-Art.Nr. 58032.080X
 41
0.8
  7
GREEKS
100
AcDbText
  0
TEXT
  5
99
330
1E
100
AcDbEntity
  8
TEXT
100
AcDbText
 10
293.7296876972284
 20
53.28717691278291
 30
0.0
 40
5.0
  1
58032080W.DWG
 41
0.8
  7
GREEKS
100
AcDbText
  0
TEXT
  5
9A
330
1E
100
AcDbEntity
  8
TEXT
100
AcDbText
 10
240.782665260105
 20
113.4545480127878
 30
0.0
 40
5.0
  1
DIN EN1123-2
 41
0.8
  7
GREEKS
 72
     1
 11
262.0207604982003
 21
113.4545480127878
 31
0.0
100
AcDbText
  0
INSERT
  5
9B
330
1E
100
AcDbEntity
  8
STEMPEL
100
AcDbBlockReference
  2
LOGO
 10
188.7444356822243
 20
56.27631595560402
 30
0.0
 41
2.5
 42
2.5
 43
2.5
  0
TEXT
  5
2C0
330
1E
100
AcDbEntity
  8
BEM
100
AcDbText
 10
521.6278654821457
 20
12.70987634998576
 30
0.0
 40
5.0
  1
Diese Zeichnung ist urheberrechtlich geschützt und bleibt unser Eigentum. Sie darf weder ganz noch teilweise verfielfältigt und nicht an Dritte weitergegeben werden.
 50
90.0
 41
0.8
  7
GREEKS
100
AcDbText
  0
TEXT
  5
77A
330
1E
100
AcDbEntity
  8
TEXT
100
AcDbText
 10
293.9120488906644
 20
89.55014928802695
 30
0.0
 40
6.25
  1
Bogen 45°
 41
0.8
  7
GREEKS
100
AcDbText
  0
TEXT
  5
78C
330
1E
100
AcDbEntity
  8
TEXT
 62
     1
100
AcDbText
 10
318.7876613940725
 20
162.1777724661328
 30
0.0
 40
8.75
  1
und innenbeschichtet
 41
0.8
  7
GREEKS
100
AcDbText
  0
TEXT
  5
78D
330
1E
100
AcDbEntity
  8
TEXT
 62
     1
100
AcDbText
 10
253.7590621666965
 20
146.8247093859629
 30
0.0
 40
8.75
  1
Dämmung: 2 K-PU-Schaum
 41
0.8
  7
GREEKS
100
AcDbText
  0
TEXT
  5
78E
330
1E
100
AcDbEntity
  8
TEXT
 62
     1
100
AcDbText
 10
259.2195002990553
 20
176.264089765165
 30
0.0
 40
8.75
  1
Innenrohr: E195 EN10305 feuerverzinkt
 41
0.8
  7
GREEKS
100
AcDbText
  0
TEXT
  5
78F
330
1E
100
AcDbEntity
  8
TEXT
 62
     1
100
AcDbText
 10
254.5042285854753
 20
190.4554248106087
 30
0.0
 40
8.75
  1
Außenrohr: E195 EN10305 feuerverzinkt
 41
0.8
  7
GREEKS
100
AcDbText
  0
TEXT
  5
188F
330
1E
100
AcDbEntity
  8
TEXT
 62
     1
100
AcDbText
 10
321.9436626414769
 20
309.6329695644985
 30
0.0
 40
8.75
  1
Rohrende leicht eingezogen
 41
0.8
  7
GREEKS
100
AcDbText
  0
ARC
  5
2185
102
{ACAD_REACTORS
330
2443
102
}
330
1E
100
AcDbEntity
  8
STEMPEL
100
AcDbCircle
 10
392.7722550213505
 20
387.0528728401987
 30
0.0
 40
89.0
100
AcDbArc
 50
134.9999999999997
 51
180.0
  0
ARC
  5
2186
102
{ACAD_REACTORS
330
2443
102
}
330
1E
100
AcDbEntity
  8
STEMPEL
100
AcDbCircle
 10
392.7722550213505
 20
387.0528728401987
 30
0.0
 40
178.0
100
AcDbArc
 50
135.0000000000003
 51
180.0
  0
TEXT
  5
2187
330
1E
100
AcDbEntity
  8
VOLL
100
AcDbText
 10
351.5387257005877
 20
546.3087633533668
 30
0.0
 40
7.0
  1
DN80
 50
45.0
 41
0.8
  7
GREEKS
100
AcDbText
  0
ARC
  5
2188
330
1E
100
AcDbEntity
  8
MITTEL
100
AcDbCircle
 10
392.7722550213505
 20
387.0528728401987
 30
0.0
 40
133.5
100
AcDbArc
 50
135.0
 51
180.0
  0
LINE
  5
218C
330
1E
100
AcDbEntity
  8
MITTEL
100
AcDbLine
 10
259.2722550213505
 20
442.3503834170068
 30
0.0
 11
259.2722550213505
 21
302.3496424966353
 31
0.0
  0
LINE
  5
21A4
330
1E
100
AcDbEntity
  8
MITTEL
100
AcDbLine
 10
378.7738249516963
 20
561.8519533473527
 30
0.0
 11
259.2722550213505
 21
442.3503834170068
 31
0.0
  0
LINE
  5
221F
102
{ACAD_REACTORS
330
2443
102
}
330
1E
100
AcDbEntity
  8
STEMPEL
100
AcDbLine
 10
302.1722550213506
 20
387.0528728401986
 30
0.0
 11
302.1722550213506
 21
314.1042330836444
 31
0.0
  0
LINE
  5
2220
102
{ACAD_REACTORS
330
2443
102
}
330
1E
100
AcDbEntity
  8
STEMPEL
100
AcDbLine
 10
303.7722550213505
 20
387.0528728401987
 30
0.0
 11
303.7722550213505
 21
313.9783120291873
 31
0.0
  0
LINE
  5
2221
330
1E
100
AcDbEntity
  8
STEMPEL
100
AcDbLine
 10
308.2722550213505
 20
363.3496424966352
 30
0.0
 11
303.7722550213502
 21
363.3496424966352
 31
0.0
  0
LINE
  5
2222
330
1E
100
AcDbEntity
  8
STEMPEL
100
AcDbLine
 10
323.2722550213505
 20
357.3496424966352
 30
0.0
 11
322.7833217028877
 21
371.3508608425971
 31
0.0
  0
LINE
  5
2223
330
1E
100
AcDbEntity
  8
STEMPEL
100
AcDbLine
 10
322.7833217028877
 20
371.3508608425971
 30
0.0
 11
320.7135227094825
 21
373.3496424966352
 31
0.0
  0
LINE
  5
2224
102
{ACAD_REACTORS
330
245C
102
}
330
1E
100
AcDbEntity
  8
STEMPEL
100
AcDbLine
 10
325.7722550213505
 20
357.3496424966352
 30
0.0
 11
323.2722550213505
 21
357.3496424966352
 31
0.0
  0
LINE
  5
2225
330
1E
100
AcDbEntity
  8
STEMPEL
100
AcDbLine
 10
320.7135227094825
 20
373.3496424966352
 30
0.0
 11
303.7722550213505
 21
373.3496424966352
 31
0.0
  0
LINE
  5
2227
102
{ACAD_REACTORS
330
245C
102
}
330
1E
100
AcDbEntity
  8
STEMPEL
100
AcDbLine
 10
325.7722550213505
 20
414.8051815191956
 30
0.0
 11
325.7722550213505
 21
355.3496424966354
 31
0.0
  0
LINE
  5
2228
102
{ACAD_REACTORS
330
245C
102
}
330
1E
100
AcDbEntity
  8
STEMPEL
100
AcDbLine
 10
323.2722550213505
 20
415.8407154251285
 30
0.0
 11
323.2722550213505
 21
357.3496424966352
 31
0.0
  0
LINE
  5
222A
330
1E
100
AcDbEntity
  8
STEMPEL
100
AcDbLine
 10
210.2722550213507
 20
363.3496424966352
 30
0.0
 11
214.7722550213507
 21
363.3496424966352
 31
0.0
  0
LINE
  5
222B
102
{ACAD_REACTORS
330
2443
102
}
330
1E
100
AcDbEntity
  8
STEMPEL
100
AcDbLine
 10
214.7722550213506
 20
387.0528728401986
 30
0.0
 11
214.7722550213506
 21
313.9783120291866
 31
0.0
  0
LINE
  5
222C
102
{ACAD_REACTORS
330
2443
102
}
330
1E
100
AcDbEntity
  8
STEMPEL
100
AcDbLine
 10
216.3722550213507
 20
387.0528728401987
 30
0.0
 11
216.3722550213506
 21
314.1042330836437
 31
0.0
  0
LINE
  5
222D
330
1E
100
AcDbEntity
  8
STEMPEL
100
AcDbLine
 10
197.8309873332184
 20
373.3496424966352
 30
0.0
 11
214.7722550213507
 21
373.3496424966352
 31
0.0
  0
LINE
  5
222E
102
{ACAD_REACTORS
330
245C
102
}
330
1E
100
AcDbEntity
  8
STEMPEL
100
AcDbLine
 10
195.2722550213504
 20
357.3496424966352
 30
0.0
 11
192.7722550213504
 21
357.3496424966352
 31
0.0
  0
LINE
  5
222F
330
1E
100
AcDbEntity
  8
STEMPEL
100
AcDbLine
 10
195.2722550213507
 20
357.3496424966352
 30
0.0
 11
195.7611883398135
 21
371.3508608425971
 31
0.0
  0
LINE
  5
2230
330
1E
100
AcDbEntity
  8
STEMPEL
100
AcDbLine
 10
195.7611883398135
 20
371.3508608425971
 30
0.0
 11
197.8309873332184
 21
373.3496424966352
 31
0.0
  0
LINE
  5
2231
102
{ACAD_REACTORS
330
245C
102
}
330
1E
100
AcDbEntity
  8
STEMPEL
100
AcDbLine
 10
192.7722550213503
 20
469.8955853148175
 30
0.0
 11
192.7722550213504
 21
355.3496424966352
 31
0.0
  0
LINE
  5
2232
102
{ACAD_REACTORS
330
245C
102
}
330
1E
100
AcDbEntity
  8
STEMPEL
100
AcDbLine
 10
195.2722550213504
 20
468.8600514088845
 30
0.0
 11
195.2722550213504
 21
357.3496424966352
 31
0.0
  0
LINE
  5
2234
330
1E
100
AcDbEntity
  8
HILF
100
AcDbLine
 10
300.5323676875435
 20
313.9783120291865
 30
0.0
 11
218.0121423551576
 21
313.9783120291865
 31
0.0
  0
POINT
  5
2235
330
1E
100
AcDbEntity
  8
STEMPEL
100
AcDbPoint
 10
302.7223910590394
 20
307.3496424966352
 30
0.0
  0
LINE
  5
2236
102
{ACAD_REACTORS
330
2443
102
}
330
1E
100
AcDbEntity
  8
STEMPEL
100
AcDbLine
 10
302.7223910590393
 20
307.3496424966352
 30
0.0
 11
215.8221189836616
 21
307.3496424966352
 31
0.0
  0
DIMENSION
  5
2237
330
1E
100
AcDbEntity
  8
BEM
100
AcDbDimension
  2
*D1
 10
303.7722550213505
 20
285.0052001869248
 30
0.0
 11
259.2722550213505
 21
293.1302001869248
 31
0.0
 70
    32
  1
%%C<>
 71
     5
 42
88.99999999999989
  3
Standard
100
AcDbAlignedDimension
 13
214.7722550213506
 23
313.9783120291866
 33
0.0
 14
303.7722550213505
 24
313.9783120291873
 34
0.0
 50
180.0
100
AcDbRotatedDimension
1001
ACAD
1000
DSTYLE
1002
{
1070
    40
1040
2.5
1070
    41
1040
3.5
1070
    42
1040
1.0
1070
    43
1040
7.0
1070
    44
1040
1.0
1070
    73
1070
     0
1070
    74
1070
     0
1070
    77
1070
     1
1070
    78
1070
     8
1070
    79
1070
     2
1070
   140
1040
3.5
1070
   141
1040
1.5
1070
   146
1040
0.5142857142857144
1070
   147
1040
1.5
1070
   172
1070
     1
1070
   178
1070
     1
1070
   179
1070
     2
1070
   271
1070
     2
1070
   272
1070
     2
1070
   284
1070
     8
1070
   285
1070
     8
1070
   286
1070
     8
1002
}
  0
LINE
  5
2238
102
{ACAD_REACTORS
330
2443
102
}
330
1E
100
AcDbEntity
  8
STEMPEL
100
AcDbLine
 10
303.7722550213505
 20
313.9783120291873
 30
0.0
 11
302.7223910590393
 21
307.3496424966352
 31
0.0
  0
LINE
  5
2239
102
{ACAD_REACTORS
330
2443
102
}
330
1E
100
AcDbEntity
  8
STEMPEL
100
AcDbLine
 10
302.1722550213506
 20
314.1042330836444
 30
0.0
 11
301.1024473921359
 21
307.3496424966352
 31
0.0
  0
LINE
  5
223A
102
{ACAD_REACTORS
330
2443
102
}
330
1E
100
AcDbEntity
  8
STEMPEL
100
AcDbLine
 10
214.7722550213506
 20
313.9783120291866
 30
0.0
 11
215.8221189836616
 21
307.3496424966352
 31
0.0
  0
LINE
  5
223B
102
{ACAD_REACTORS
330
2443
102
}
330
1E
100
AcDbEntity
  8
STEMPEL
100
AcDbLine
 10
216.3722550213506
 20
314.1042330836437
 30
0.0
 11
217.4420626505653
 21
307.3496424966352
 31
0.0
  0
ARC
  5
227F
102
{ACAD_REACTORS
330
2443
102
}
330
1E
100
AcDbEntity
  8
STEMPEL
100
AcDbCircle
 10
392.7722550213505
 20
387.0528728401987
 30
0.0
 40
90.6
100
AcDbArc
 50
134.9999999999998
 51
180.0000000000001
  0
ARC
  5
2280
102
{ACAD_REACTORS
330
2443
102
}
330
1E
100
AcDbEntity
  8
STEMPEL
100
AcDbCircle
 10
392.7722550213505
 20
387.0528728401987
 30
0.0
 40
176.4
100
AcDbArc
 50
135.0000000000001
 51
180.0
  0
LINE
  5
2281
102
{ACAD_REACTORS
330
24D4
102
}
330
1E
100
AcDbEntity
  8
STEMPEL
100
AcDbLine
 10
321.1116584540417
 20
594.0574142216006
 30
0.0
 11
321.1367668751658
 21
592.6189537387948
 31
0.0
  0
LINE
  5
2282
102
{ACAD_REACTORS
330
24D4
102
}
330
1E
100
AcDbEntity
  8
STEMPEL
100
AcDbLine
 10
329.9834570498248
 20
603.571253437359
 30
0.0
 11
321.1116584540417
 21
594.0574142216006
 31
0.0
  0
LINE
  5
2283
102
{ACAD_REACTORS
330
2443
330
24D4
102
}
330
1E
100
AcDbEntity
  8
STEMPEL
100
AcDbLine
 10
341.463049497247
 20
592.0916609899371
 30
0.0
 11
339.1733605841538
 21
591.2582823798418
 31
0.0
  0
LINE
  5
2284
102
{ACAD_REACTORS
330
2443
102
}
330
1E
100
AcDbEntity
  8
STEMPEL
100
AcDbLine
 10
342.7113791111826
 20
590.8433313760014
 30
0.0
 11
339.7205928134752
 21
589.7547741865842
 31
0.0
  0
ARC
  5
2285
102
{ACAD_REACTORS
330
2443
102
}
330
1E
100
AcDbEntity
  8
STEMPEL
100
AcDbCircle
 10
342.9009862655365
 20
562.8900886391302
 30
0.0
 40
25.00009324312574
100
AcDbArc
 50
134.8435140456689
 51
160.2111779316821
  0
ARC
  5
2286
102
{ACAD_REACTORS
330
2443
102
}
330
1E
100
AcDbEntity
  8
STEMPEL
100
AcDbCircle
 10
342.9009862655365
 20
562.8900886391302
 30
0.0
 40
23.40009324312573
100
AcDbArc
 50
134.8435140456689
 51
160.2111779316851
  0
LINE
  5
2287
102
{ACAD_REACTORS
330
2443
330
24D4
102
}
330
1E
100
AcDbEntity
  8
STEMPEL
100
AcDbLine
 10
330.1922292927764
 20
585.5366707256977
 30
0.0
 11
325.1750354507774
 21
580.5194768836988
 31
0.0
  0
LINE
  5
2288
102
{ACAD_REACTORS
330
2443
102
}
330
1E
100
AcDbEntity
  8
STEMPEL
100
AcDbLine
 10
331.3236001426748
 20
584.4052998757992
 30
0.0
 11
326.3064063006757
 21
579.3881060338001
 31
0.0
  0
ARC
  5
2289
102
{ACAD_REACTORS
330
2443
102
}
330
1E
100
AcDbEntity
  8
STEMPEL
100
AcDbCircle
 10
308.1054791500254
 20
575.4707358631178
 30
0.0
 40
12.0
100
AcDbArc
 50
315.0
 51
340.1220601866324
  0
ARC
  5
228A
102
{ACAD_REACTORS
330
2443
102
}
330
1E
100
AcDbEntity
  8
STEMPEL
100
AcDbCircle
 10
308.1054791500254
 20
575.4707358631178
 30
0.0
 40
13.6
100
AcDbArc
 50
315.0
 51
340.1220601866353
  0
ARC
  5
228B
102
{ACAD_REACTORS
330
2443
330
24D4
102
}
330
1E
100
AcDbEntity
  8
STEMPEL
100
AcDbCircle
 10
347.5870561099656
 20
568.1418439085087
 30
0.0
 40
24.6
100
AcDbArc
 50
110.0000000000036
 51
135.0
  0
ARC
  5
228C
102
{ACAD_REACTORS
330
2443
102
}
330
1E
100
AcDbEntity
  8
STEMPEL
100
AcDbCircle
 10
347.5870561099656
 20
568.1418439085087
 30
0.0
 40
23.0
100
AcDbArc
 50
110.0000000000065
 51
135.0
  0
ARC
  5
228D
102
{ACAD_REACTORS
330
2443
102
}
330
1E
100
AcDbEntity
  8
STEMPEL
100
AcDbCircle
 10
291.9364455544188
 20
549.2607859746623
 30
0.0
 40
8.0
100
AcDbArc
 50
315.0
 51
347.3280641221608
  0
ARC
  5
228E
102
{ACAD_REACTORS
330
2443
102
}
330
1E
100
AcDbEntity
  8
STEMPEL
100
AcDbCircle
 10
291.9364455544188
 20
549.2607859746623
 30
0.0
 40
9.599999999999999
100
AcDbArc
 50
315.0
 51
347.3280641221608
  0
ARC
  5
228F
102
{ACAD_REACTORS
330
2443
102
}
330
1E
100
AcDbEntity
  8
STEMPEL
100
AcDbCircle
 10
311.449287756045
 20
544.8734189721829
 30
0.0
 40
10.4
100
AcDbArc
 50
135.0
 51
167.3280641221609
  0
ARC
  5
2290
102
{ACAD_REACTORS
330
2443
102
}
330
1E
100
AcDbEntity
  8
STEMPEL
100
AcDbCircle
 10
311.449287756045
 20
544.8734189721829
 30
0.0
 40
12.0
100
AcDbArc
 50
135.0
 51
167.3280641221609
  0
LINE
  5
2291
102
{ACAD_REACTORS
330
2443
102
}
330
1E
100
AcDbEntity
  8
STEMPEL
100
AcDbLine
 10
316.5907605242639
 20
566.9854544888795
 30
0.0
 11
302.9640063818059
 21
553.3587003464216
 31
0.0
  0
LINE
  5
2292
102
{ACAD_REACTORS
330
2443
102
}
330
1E
100
AcDbEntity
  8
STEMPEL
100
AcDbLine
 10
317.7221313741624
 20
565.8540836389811
 30
0.0
 11
304.0953772317043
 21
552.2273294965231
 31
0.0
  0
LINE
  5
2293
102
{ACAD_REACTORS
330
2443
330
24D4
102
}
330
1E
100
AcDbEntity
  8
STEMPEL
100
AcDbLine
 10
409.0135325942807
 20
524.5411778929031
 30
0.0
 11
408.1801539841857
 21
522.2514889798102
 31
0.0
  0
LINE
  5
2294
102
{ACAD_REACTORS
330
2443
102
}
330
1E
100
AcDbEntity
  8
STEMPEL
100
AcDbLine
 10
407.7652029803449
 20
525.7895075068391
 30
0.0
 11
406.676645790928
 21
522.7987212091313
 31
0.0
  0
ARC
  5
2295
102
{ACAD_REACTORS
330
2443
102
}
330
1E
100
AcDbEntity
  8
STEMPEL
100
AcDbCircle
 10
379.8119602434741
 20
525.9791146611924
 30
0.0
 40
25.00009324312574
100
AcDbArc
 50
289.7888220683149
 51
315.1564859543311
  0
ARC
  5
2296
102
{ACAD_REACTORS
330
2443
102
}
330
1E
100
AcDbEntity
  8
STEMPEL
100
AcDbCircle
 10
379.8119602434741
 20
525.9791146611924
 30
0.0
 40
23.40009324312573
100
AcDbArc
 50
289.7888220683149
 51
315.1564859543311
  0
LINE
  5
2297
102
{ACAD_REACTORS
330
2443
330
24D4
102
}
330
1E
100
AcDbEntity
  8
STEMPEL
100
AcDbLine
 10
402.4585423300415
 20
513.2703576884327
 30
0.0
 11
397.4413484880425
 21
508.2531638464337
 31
0.0
  0
LINE
  5
2298
102
{ACAD_REACTORS
330
2443
102
}
330
1E
100
AcDbEntity
  8
STEMPEL
100
AcDbLine
 10
401.3271714801427
 20
514.4017285383309
 30
0.0
 11
396.3099776381438
 21
509.3845346963319
 31
0.0
  0
ARC
  5
2299
102
{ACAD_REACTORS
330
2443
102
}
330
1E
100
AcDbEntity
  8
STEMPEL
100
AcDbCircle
 10
392.392607467462
 20
491.1836075456816
 30
0.0
 40
12.0
100
AcDbArc
 50
109.8779398133646
 51
135.0
  0
ARC
  5
229A
102
{ACAD_REACTORS
330
2443
102
}
330
1E
100
AcDbEntity
  8
STEMPEL
100
AcDbCircle
 10
392.392607467462
 20
491.1836075456816
 30
0.0
 40
13.6
100
AcDbArc
 50
109.8779398133646
 51
135.0
  0
ARC
  5
229B
102
{ACAD_REACTORS
330
2443
102
}
330
1E
100
AcDbEntity
  8
STEMPEL
100
AcDbCircle
 10
385.0637155128526
 20
530.6651845056214
 30
0.0
 40
23.0
100
AcDbArc
 50
315.0
 51
339.9999999999935
  0
ARC
  5
229C
102
{ACAD_REACTORS
330
2443
330
24D4
102
}
330
1E
100
AcDbEntity
  8
STEMPEL
100
AcDbCircle
 10
385.0637155128526
 20
530.6651845056214
 30
0.0
 40
24.6
100
AcDbArc
 50
315.0
 51
339.9999999999935
  0
ARC
  5
229D
102
{ACAD_REACTORS
330
2443
102
}
330
1E
100
AcDbEntity
  8
STEMPEL
100
AcDbCircle
 10
361.795290576527
 20
494.5274161517009
 30
0.0
 40
12.0
100
AcDbArc
 50
282.6719358778392
 51
315.0
  0
ARC
  5
229E
102
{ACAD_REACTORS
330
2443
102
}
330
1E
100
AcDbEntity
  8
STEMPEL
100
AcDbCircle
 10
366.1826575790063
 20
475.0145739500747
 30
0.0
 40
8.0
100
AcDbArc
 50
102.6719358778391
 51
135.0
  0
ARC
  5
229F
102
{ACAD_REACTORS
330
2443
102
}
330
1E
100
AcDbEntity
  8
STEMPEL
100
AcDbCircle
 10
361.795290576527
 20
494.5274161517009
 30
0.0
 40
10.4
100
AcDbArc
 50
282.6719358778392
 51
315.0
  0
POINT
  5
22A0
330
1E
100
AcDbEntity
  8
STEMPEL
100
AcDbPoint
 10
365.5664958226915
 20
483.1354009221067
 30
0.0
  0
ARC
  5
22A1
102
{ACAD_REACTORS
330
2443
102
}
330
1E
100
AcDbEntity
  8
STEMPEL
100
AcDbCircle
 10
366.1826575790063
 20
475.0145739500747
 30
0.0
 40
9.599999999999999
100
AcDbArc
 50
102.6719358778391
 51
135.0
  0
LINE
  5
22A2
102
{ACAD_REACTORS
330
2443
102
}
330
1E
100
AcDbEntity
  8
STEMPEL
100
AcDbLine
 10
383.9073260932233
 20
499.6688889199202
 30
0.0
 11
370.2805719507652
 21
486.0421347774622
 31
0.0
  0
LINE
  5
22A3
102
{ACAD_REACTORS
330
2443
102
}
330
1E
100
AcDbEntity
  8
STEMPEL
100
AcDbLine
 10
382.7759552433246
 20
500.8002597698188
 30
0.0
 11
369.1492011008669
 21
487.1735056273609
 31
0.0
  0
LINE
  5
22A4
102
{ACAD_REACTORS
330
24D4
102
}
330
1E
100
AcDbEntity
  8
STEMPEL
100
AcDbLine
 10
410.9792858259444
 20
504.1897868496979
 30
0.0
 11
409.5408253431388
 21
504.2148952708218
 31
0.0
  0
LINE
  5
22A5
102
{ACAD_REACTORS
330
24D4
102
}
330
1E
100
AcDbEntity
  8
STEMPEL
100
AcDbLine
 10
420.4931250417029
 20
513.0615854454812
 30
0.0
 11
410.9792858259444
 21
504.1897868496979
 31
0.0
  0
LINE
  5
22A6
102
{ACAD_REACTORS
330
24D4
102
}
330
1E
100
AcDbEntity
  8
STEMPEL
100
AcDbLine
 10
409.5408253431388
 20
504.2148952708218
 30
0.0
 11
401.4719526277846
 21
512.2837679861759
 31
0.0
  0
LINE
  5
22A7
330
1E
100
AcDbEntity
  8
HILF
100
AcDbLine
 10
383.6495635773662
 20
503.6173995471532
 30
0.0
 11
320.5392711514971
 21
566.7276919730226
 31
0.0
  0
LINE
  5
22A8
330
1E
100
AcDbEntity
  8
HILF
100
AcDbLine
 10
365.189823400173
 20
486.4084786036474
 30
0.0
 11
303.3303502079916
 21
548.2679517958287
 31
0.0
  0
LINE
  5
22A9
330
1E
100
AcDbEntity
  8
HILF
100
AcDbLine
 10
359.9960159890355
 20
484.35081868965
 30
0.0
 11
301.2726902939934
 21
543.0741443846921
 31
0.0
  0
LINE
  5
22AB
102
{ACAD_REACTORS
330
2443
330
246F
330
24D4
102
}
330
1E
100
AcDbEntity
  8
STEMPEL
100
AcDbLine
 10
422.2608919946691
 20
511.2938184925146
 30
0.0
 11
328.2156900968585
 21
605.3390203903257
 31
0.0
  0
DIMENSION
  5
22AC
330
1E
100
AcDbEntity
  8
BEM
100
AcDbDimension
  2
*D2
 10
434.9108665324957
 20
523.9437930303413
 30
0.0
 11
393.6335081807309
 21
576.7116365763873
 31
0.0
 70
    32
  1
%%c<>
 71
     5
 42
133.0
  3
Standard
100
AcDbAlignedDimension
 13
328.2156900968585
 23
605.3390203903257
 33
0.0
 14
422.2608919946691
 24
511.2938184925146
 34
0.0
 50
135.0000000000002
100
AcDbRotatedDimension
1001
ACAD
1000
DSTYLE
1002
{
1070
    40
1040
2.5
1070
    41
1040
3.5
1070
    42
1040
1.0
1070
    43
1040
7.0
1070
    44
1040
1.0
1070
    73
1070
     0
1070
    74
1070
     0
1070
    77
1070
     1
1070
    78
1070
     8
1070
    79
1070
     2
1070
   140
1040
3.5
1070
   141
1040
1.5
1070
   146
1040
0.5142857142857144
1070
   147
1040
1.5
1070
   172
1070
     1
1070
   178
1070
     1
1070
   179
1070
     2
1070
   271
1070
     2
1070
   272
1070
     2
1070
   284
1070
     8
1070
   285
1070
     8
1070
   286
1070
     8
1002
}
  0
LINE
  5
22AD
102
{ACAD_REACTORS
330
24D4
102
}
330
1E
100
AcDbEntity
  8
STEMPEL
100
AcDbLine
 10
329.2056395905195
 20
584.550081023441
 30
0.0
 11
321.1367668751658
 21
592.6189537387948
 31
0.0
  0
LINE
  5
22AE
102
{ACAD_REACTORS
330
2443
102
}
330
1E
100
AcDbEntity
  8
STEMPEL
100
AcDbLine
 10
297.5932998039108
 20
543.60393172517
 30
0.0
 11
266.9072479701446
 21
512.9178798914033
 31
0.0
  0
LINE
  5
22AF
102
{ACAD_REACTORS
330
2443
102
}
330
1E
100
AcDbEntity
  8
STEMPEL
100
AcDbLine
 10
298.7246706538095
 20
542.4725608752716
 30
0.0
 11
268.0386188200431
 21
511.7865090415049
 31
0.0
  0
LINE
  5
22B0
102
{ACAD_REACTORS
330
246F
102
}
330
1E
100
AcDbEntity
  8
STEMPEL
100
AcDbLine
 10
328.2156900968585
 20
605.3390203903257
 30
0.0
 11
192.7722550213503
 21
469.8955853148175
 31
0.0
  0
LINE
  5
22B1
102
{ACAD_REACTORS
330
246F
102
}
330
1E
100
AcDbEntity
  8
STEMPEL
100
AcDbLine
 10
329.9834570498247
 20
603.5712534373591
 30
0.0
 11
195.2722550213504
 21
468.8600514088845
 31
0.0
  0
LINE
  5
22B2
102
{ACAD_REACTORS
330
246F
102
}
330
1E
100
AcDbEntity
  8
STEMPEL
100
AcDbLine
 10
422.2608919946691
 20
511.2938184925146
 30
0.0
 11
325.7722550213505
 21
414.8051815191956
 31
0.0
  0
LINE
  5
22B3
102
{ACAD_REACTORS
330
246F
102
}
330
1E
100
AcDbEntity
  8
STEMPEL
100
AcDbLine
 10
420.4931250417029
 20
513.0615854454812
 30
0.0
 11
323.2722550213505
 21
415.8407154251285
 31
0.0
  0
LINE
  5
2332
102
{ACAD_REACTORS
330
2443
102
}
330
1E
100
AcDbEntity
  8
STEMPEL
100
AcDbLine
 10
359.3944324796151
 20
481.802799049466
 30
0.0
 11
328.7083806458491
 21
451.1167472157002
 31
0.0
  0
LINE
  5
2333
102
{ACAD_REACTORS
330
2443
102
}
330
1E
100
AcDbEntity
  8
STEMPEL
100
AcDbLine
 10
360.5258033295136
 20
480.6714281995672
 30
0.0
 11
329.839751495748
 21
449.985376365802
 31
0.0
  0
LINE
  5
2334
102
{ACAD_REACTORS
330
245C
330
246F
102
}
330
1E
100
AcDbEntity
  8
STEMPEL
100
AcDbLine
 10
325.7722550213505
 20
414.8051815191956
 30
0.0
 11
323.2722550213505
 21
415.8407154251284
 31
0.0
  0
LINE
  5
2335
102
{ACAD_REACTORS
330
245C
330
246F
102
}
330
1E
100
AcDbEntity
  8
STEMPEL
100
AcDbLine
 10
195.2722550213506
 20
468.8600514088848
 30
0.0
 11
192.7722550213503
 21
469.8955853148175
 31
0.0
  0
DIMENSION
  5
23A8
330
1E
100
AcDbEntity
  8
BEM
100
AcDbDimension
  2
*D3
 10
153.1335870051803
 20
307.3496424966352
 30
0.0
 11
145.0085870051802
 21
374.850012956821
 31
0.0
 70
    32
 71
     5
 42
135.0007409203715
  3
Standard
100
AcDbAlignedDimension
 13
259.2722550213505
 23
442.3503834170068
 33
0.0
 14
215.8221189836616
 24
307.3496424966352
 34
0.0
 50
90.0
100
AcDbRotatedDimension
1001
ACAD
1000
DSTYLE
1002
{
1070
    40
1040
2.5
1070
    41
1040
3.5
1070
    42
1040
1.0
1070
    43
1040
7.0
1070
    44
1040
1.0
1070
    73
1070
     0
1070
    74
1070
     0
1070
    77
1070
     1
1070
    78
1070
     8
1070
    79
1070
     2
1070
   140
1040
3.5
1070
   141
1040
1.5
1070
   146
1040
0.5142857142857144
1070
   147
1040
1.5
1070
   172
1070
     1
1070
   178
1070
     1
1070
   179
1070
     2
1070
   271
1070
     2
1070
   272
1070
     2
1070
   284
1070
     8
1070
   285
1070
     8
1070
   286
1070
     8
1002
}
  0
DIMENSION
  5
23C2
330
1E
100
AcDbEntity
  8
BEM
100
AcDbDimension
  2
*D4
 10
173.9831477143252
 20
307.3496424966352
 30
0.0
 11
165.8581477143252
 21
332.3496424966353
 31
0.0
 70
    32
 71
     5
 42
50.0
  3
Standard
100
AcDbAlignedDimension
 13
192.7722550213504
 23
357.3496424966352
 33
0.0
 14
215.8221189836616
 24
307.3496424966352
 34
0.0
 50
90.0
100
AcDbRotatedDimension
1001
ACAD
1000
DSTYLE
1002
{
1070
   279
1070
     1
1070
    40
1040
2.5
1070
    41
1040
3.5
1070
    42
1040
1.0
1070
    43
1040
7.0
1070
    44
1040
1.0
1070
    73
1070
     0
1070
    74
1070
     0
1070
    77
1070
     1
1070
    78
1070
     8
1070
    79
1070
     2
1070
   140
1040
3.5
1070
   141
1040
1.5
1070
   146
1040
0.5142857142857144
1070
   147
1040
1.5
1070
   172
1070
     1
1070
   178
1070
     1
1070
   179
1070
     2
1070
   271
1070
     2
1070
   272
1070
     2
1070
   284
1070
     8
1070
   285
1070
     8
1070
   286
1070
     8
1002
}
  0
DIMENSION
  5
23D0
330
1E
100
AcDbEntity
  8
BEM
100
AcDbDimension
  2
*D5
 10
306.5107181462184
 20
627.0439923409655
 30
0.0
 11
242.7824575368711
 21
574.8062169258994
 31
0.0
 70
    32
 71
     5
 42
164.0007409203724
 51
314.9999999999999
  3
Standard
100
AcDbAlignedDimension
 13
259.2722550213505
 23
442.3503834170068
 33
0.0
 14
328.2156900968585
 24
605.3390203903257
 34
0.0
 50
44.99999999999978
100
AcDbRotatedDimension
1001
ACAD
1000
DSTYLE
1002
{
1070
    40
1040
2.5
1070
    41
1040
3.5
1070
    42
1040
1.0
1070
    43
1040
7.0
1070
    44
1040
1.0
1070
    73
1070
     0
1070
    74
1070
     0
1070
    77
1070
     1
1070
    78
1070
     8
1070
    79
1070
     2
1070
   140
1040
3.5
1070
   141
1040
1.5
1070
   146
1040
0.5142857142857144
1070
   147
1040
1.5
1070
   172
1070
     1
1070
   178
1070
     1
1070
   179
1070
     2
1070
   271
1070
     2
1070
   272
1070
     2
1070
   284
1070
     8
1070
   285
1070
     8
1070
   286
1070
     8
1002
}
  0
ARC
  5
23EE
330
1E
100
AcDbEntity
  8
SCHRAFF
100
AcDbCircle
 10
195.2722550213504
 20
468.8600514088845
 30
0.0
 40
4.0
100
AcDbArc
 50
83.68218745349544
 51
231.3178125465087
  0
ARC
  5
23F0
330
1E
100
AcDbEntity
  8
SCHRAFF
100
AcDbCircle
 10
322.4871044909429
 20
416.1659354233275
 30
0.0
 40
6.287280527231362
100
AcDbArc
 50
301.500592957705
 51
13.49940704229637
  0
HATCH
  5
23FE
330
1E
100
AcDbEntity
  8
SCHRAFF
100
AcDbHatch
 10
0.0
 20
0.0
 30
0.0
210
0.0
220
0.0
230
1.0
  2
_USER
 70
     0
 71
     0
 91
        2
 92
        7
 72
     1
 73
     1
 93
        3
 10
328.6006821460966
 20
417.6336086439417
 42
0.0
 10
325.7722550213504
 20
414.8051815191957
 42
0.0
 10
325.7722550213504
 20
410.8051815191955
 42
0.324913975420502
 97
        0
 92
        7
 72
     1
 73
     1
 93
        3
 10
192.7722550213503
 20
469.8955853148175
 42
0.0
 10
195.7124282849657
 20
472.8357585784329
 42
0.7510643389280838
 10
192.7722550213503
 20
465.7375524096853
 42
0.0
 97
        0
 75
     0
 76
     0
 52
0.0
 41
0.1
 77
     0
 78
     1
 53
0.0
 43
-464.7419984990624
 44
-5.916095236630098
 45
0.0
 46
0.1
 79
     0
 47
0.2409016351745504
 98
        2
 10
327.8948694773885
 20
413.5633800936745
 10
191.9302498338097
 20
468.729855740567
  0
HATCH
  5
2443
330
1E
100
AcDbEntity
  8
SCHRAFF
100
AcDbHatch
 10
0.0
 20
0.0
 30
0.0
210
0.0
220
0.0
230
1.0
  2
_USER
 70
     0
 71
     1
 91
        2
 92
        7
 72
     1
 73
     1
 93
       26
 10
302.1722550213506
 20
314.1042330836447
 42
0.0
 10
301.1024473921359
 20
307.3496424966352
 42
0.0
 10
302.7223910590393
 20
307.3496424966352
 42
0.0
 10
303.7722550213505
 20
313.9783120291873
 42
0.0
 10
303.7722550213505
 20
387.0528728401987
 42
-0.19891236737966
 10
329.839751495748
 20
449.985376365802
 42
0.0
 10
360.5258033295136
 20
480.6714281995672
 42
-0.1420008527982328
 10
364.4277107780144
 20
482.8197108307251
 42
0.1420008527982277
 10
370.2805719507652
 20
486.0421347774622
 42
0.0
 10
383.9073260932233
 20
499.6688889199202
 42
-0.1108768121418079
 10
388.3489872523455
 20
502.4817992397494
 42
0.1089723179963844
 10
397.4413484879864
 20
508.2531638463776
 42
0.0
 10
402.4585423300415
 20
513.2703576884327
 42
0.1095178116832409
 10
408.1801539841857
 20
522.2514889798102
 42
0.0
 10
409.0135325942807
 20
524.5411778929029
 42
0.0
 10
407.7652029803448
 20
525.7895075068387
 42
0.0
 10
406.676645790928
 20
522.7987212091313
 42
-0.1095178116832475
 10
401.3271714801423
 20
514.4017285383306
 42
0.0
 10
396.4049696660475
 20
509.4795267242355
 42
-0.1112043308298199
 10
387.7307260622599
 20
503.9596343836243
 42
0.1093117521955154
 10
382.7759552433246
 20
500.8002597698189
 42
0.0
 10
369.1492011008669
 20
487.1735056273609
 42
-0.1420008527982194
 10
364.0767214178165
 20
484.3807382068554
 42
0.1420008527982302
 10
359.3944324796154
 20
481.8027990494663
 42
0.0
 10
328.7083806458491
 20
451.1167472157002
 42
0.1989123673796569
 10
302.1722550213506
 20
387.0528728401993
 42
0.0
 97
       26
330
2185
330
2333
330
229E
330
229D
330
22A2
330
2299
330
2295
330
2297
330
229C
330
2293
330
22AB
330
2294
330
229B
330
2298
330
2296
330
229A
330
22A3
330
229F
330
22A1
330
2332
330
227F
330
221F
330
2239
330
2236
330
2238
330
2220
 92
        7
 72
     1
 73
     1
 93
       26
 10
214.7722550213506
 20
313.9783120291866
 42
0.0
 10
215.8221189836616
 20
307.3496424966352
 42
0.0
 10
217.4420626505653
 20
307.3496424966352
 42
0.0
 10
216.3722550213506
 20
314.1042330836437
 42
0.0
 10
216.3722550213507
 20
387.0528728401987
 42
-0.1989123673796565
 10
268.0386188200431
 20
511.7865090415049
 42
0.0
 10
298.7246706538095
 20
542.4725608752716
 42
0.1420008527982359
 10
301.3026098111994
 20
547.1548498134723
 42
-0.1420008527982201
 10
304.0953772317043
 20
552.2273294965231
 42
0.0
 10
317.7221313741624
 20
565.8540836389811
 42
0.1093117521968674
 10
320.8815059879932
 20
570.8088544579844
 42
-0.1112043308273125
 10
326.401398328467
 20
579.4830980615914
 42
0.0
 10
331.3236001426748
 20
584.4052998757992
 42
-0.1095178116832422
 10
339.7205928134752
 20
589.7547741865842
 42
0.0
 10
342.7113791111826
 20
590.8433313760014
 42
0.0
 10
341.4630494972469
 20
592.0916609899371
 42
0.0
 10
339.1733605841538
 20
591.2582823798418
 42
0.1095178116832387
 10
330.1922292927764
 20
585.5366707256977
 42
0.0
 10
325.1750354508151
 20
580.5194768837363
 42
0.1089723179982942
 10
319.4036708440743
 20
571.4271156479485
 42
-0.1108768121406223
 10
316.5907605242638
 20
566.9854544888794
 42
0.0
 10
302.9640063818059
 20
553.3587003464216
 42
0.1420008527982205
 10
299.7415824350694
 20
547.5058391736708
 42
-0.1420008527982234
 10
297.5932998039112
 20
543.6039317251704
 42
0.0
 10
266.9072479701446
 20
512.9178798914033
 42
0.1989123673796571
 10
214.7722550213506
 20
387.0528728401983
 42
0.0
 97
       26
330
2280
330
22AF
330
228E
330
228F
330
2292
330
228A
330
2286
330
2288
330
228C
330
2284
330
22AB
330
2283
330
228B
330
2287
330
2285
330
2289
330
2291
330
2290
330
228D
330
22AE
330
2186
330
222B
330
223A
330
2236
330
223B
330
222C
 75
     0
 76
     0
 52
135.0
 41
2.0
 77
     0
 78
     1
 53
135.0
 43
-464.7419984990624
 44
-5.916095236630098
 45
-1.414213562373095
 46
-1.414213562373094
 79
     0
 47
0.6987514919930313
 98
        2
 10
302.8350564222092
 20
375.2816563922881
 10
215.4293435276459
 20
375.2816563922881
  0
HATCH
  5
245C
330
1E
100
AcDbEntity
  8
SCHRAFF
100
AcDbHatch
 10
0.0
 20
0.0
 30
0.0
210
0.0
220
0.0
230
1.0
  2
_USER
 70
     0
 71
     1
 91
        2
 92
        7
 72
     0
 73
     1
 93
        4
 10
325.7722550213504
 20
414.8051815191956
 10
323.2722550213504
 20
415.8407154251284
 10
323.2722550213503
 20
357.3496424966352
 10
325.7722550213504
 20
357.3496424966352
 97
        4
330
2334
330
2228
330
2224
330
2227
 92
        7
 72
     0
 73
     1
 93
        4
 10
192.7722550213504
 20
357.3496424966352
 10
195.2722550213504
 20
357.3496424966352
 10
195.2722550213504
 20
468.8600514088848
 10
192.7722550213504
 20
469.8955853148175
 97
        4
330
2335
330
2231
330
222E
330
2232
 75
     0
 76
     0
 52
45.0
 41
2.0
 77
     0
 78
     1
 53
45.0
 43
-464.7419984990624
 44
-5.916095236630098
 45
-1.414213562373094
 46
1.414213562373095
 79
     0
 47
0.6987514919930313
 98
        2
 10
325.2109194081595
 20
393.4491964995903
 10
193.7527268914418
 20
411.6167348575063
  0
HATCH
  5
246F
330
1E
100
AcDbEntity
  8
SCHRAFF
100
AcDbHatch
 10
0.0
 20
0.0
 30
0.0
210
0.0
220
0.0
230
1.0
  2
_USER
 70
     0
 71
     1
 91
        2
 92
        7
 72
     0
 73
     1
 93
        4
 10
422.2608919946689
 20
511.2938184925146
 10
420.4931250417025
 20
513.0615854454809
 10
323.2722550213503
 20
415.8407154251284
 10
325.7722550213505
 20
414.8051815191957
 97
        4
330
22AB
330
22B3
330
2334
330
22B2
 92
        7
 72
     0
 73
     1
 93
        4
 10
329.9834570498248
 20
603.5712534373593
 10
328.2156900968585
 20
605.3390203903257
 10
192.7722550213503
 20
469.8955853148175
 10
195.2722550213506
 20
468.8600514088847
 97
        4
330
22AB
330
22B0
330
2335
330
22B1
 75
     0
 76
     0
 52
90.0
 41
2.0
 77
     0
 78
     1
 53
90.0
 43
-464.7419984990624
 44
-5.916095236630098
 45
-2.0
 46
0.0000000000000001
 79
     0
 47
0.4594153525125855
 98
        2
 10
385.151970296271
 20
474.8138553150836
 10
262.4013103558823
 20
537.7537582718275
  0
HATCH
  5
249E
330
1E
100
AcDbEntity
  8
SCHRAFF
100
AcDbHatch
 10
0.0
 20
0.0
 30
0.0
210
0.0
220
0.0
230
1.0
  2
HONEY
 70
     0
 71
     0
 91
        2
 92
        7
 72
     1
 73
     1
 93
       17
 10
420.4931250417026
 20
513.0615854454811
 42
0.0
 10
410.9792858259441
 20
504.1897868496978
 42
0.0
 10
409.5408253431387
 20
504.2148952708218
 42
0.0
 10
401.4719526277847
 20
512.2837679861759
 42
0.0
 10
397.537911058266
 20
508.3497264166571
 42
-0.1111415761509318
 10
388.2758507053478
 20
502.4553560241381
 42
0.1092369723637129
 10
383.9073260932233
 20
499.6688889199202
 42
0.0
 10
370.2805719507652
 20
486.0421347774622
 42
-0.1420008527982159
 10
364.4277107780149
 20
482.8197108307254
 42
0.1420008527982336
 10
360.5258033295139
 20
480.6714281995676
 42
0.0
 10
329.839751495748
 20
449.985376365802
 42
0.1989123673796593
 10
303.7722550213505
 20
387.0528728401989
 42
0.0
 10
303.7722550213505
 20
373.3496424966352
 42
0.0
 10
320.7135227094827
 20
373.3496424966353
 42
0.0
 10
322.7833217028875
 20
371.3508608425969
 42
0.0
 10
323.2722550213503
 20
357.3496424966367
 42
0.0
 10
323.2722550213503
 20
415.8407154251285
 42
0.0
 97
        0
 92
        7
 72
     1
 73
     1
 93
       17
 10
266.9072479701446
 20
512.9178798914033
 42
0.0
 10
297.5932998039108
 20
543.60393172517
 42
0.1420008527982439
 10
299.7415824350694
 20
547.5058391736708
 42
-0.1420008527982206
 10
302.9640063818059
 20
553.3587003464216
 42
0.0
 10
316.5907605242639
 20
566.9854544888795
 42
0.1092369723642024
 10
319.37722762849
 20
571.3539791010257
 42
-0.1111415761495485
 10
325.2715980209208
 20
580.6160394538421
 42
0.0
 10
329.2056395905195
 20
584.5500810234408
 42
0.0
 10
321.1367668751658
 20
592.618953738795
 42
0.0
 10
321.111658454042
 20
594.0574142216007
 42
0.0
 10
329.9834570498284
 20
603.5712534373621
 42
0.0
 10
195.2722550213506
 20
468.8600514088846
 42
0.0
 10
195.2722550213504
 20
357.3496424966237
 42
0.0
 10
195.7611883398134
 20
371.3508608425971
 42
0.0
 10
197.8309873332184
 20
373.3496424966353
 42
0.0
 10
214.7722550213506
 20
373.3496424966352
 42
0.0
 10
214.7722550213506
 20
387.0528728401986
 42
-0.1989123673796566
 97
        0
 75
     0
 76
     1
 52
0.0
 41
25.0
 77
     0
 78
     3
 53
0.0
 43
-464.7419984990624
 44
-5.916095236630098
 45
4.6875
 46
2.706329374999999
 79
     2
 49
3.125
 49
-6.25
 53
120.0
 43
-464.7419984990624
 44
-5.916095236630098
 45
-4.687499989758061
 46
2.706329392739557
 79
     2
 49
3.124999999999999
 49
-6.249999999999999
 53
60.0
 43
-464.7419984990624
 44
-5.916095236630098
 45
0.0000000102419385
 46
5.412658767739556
 79
     2
 49
-6.25
 49
3.125
 47
0.6143190201156165
 98
        2
 10
337.9357340025635
 20
440.0806687986312
 10
242.0341860409553
 20
498.440976084975
  0
HATCH
  5
24D4
330
1E
100
AcDbEntity
  8
SCHRAFF
100
AcDbHatch
 10
0.0
 20
0.0
 30
0.0
210
0.0
220
0.0
230
1.0
  2
NET
 70
     0
 71
     1
 91
        2
 92
        7
 72
     1
 73
     1
 93
        7
 10
339.1733605841538
 20
591.2582823798418
 42
0.0
 10
341.4630494972468
 20
592.0916609899371
 42
0.0
 10
329.983457049825
 20
603.5712534373591
 42
0.0
 10
321.1116584540418
 20
594.0574142216006
 42
0.0
 10
321.1367668751658
 20
592.618953738795
 42
0.0
 10
329.2056395905196
 20
584.5500810234409
 42
0.0
 10
330.1922292927764
 20
585.5366707256977
 42
-0.1095178116832386
 97
        7
330
2282
330
2281
330
22AD
330
2287
330
228B
330
2283
330
22AB
 92
        7
 72
     1
 73
     1
 93
        7
 10
402.4585423300417
 20
513.2703576884328
 42
0.0
 10
401.4719526277846
 20
512.2837679861758
 42
0.0
 10
409.5408253431388
 20
504.2148952708217
 42
0.0
 10
410.9792858259444
 20
504.189786849698
 42
0.0
 10
420.4931250417026
 20
513.0615854454808
 42
0.0
 10
409.0135325942806
 20
524.5411778929029
 42
0.0
 10
408.1801539841857
 20
522.2514889798102
 42
-0.1095178116832373
 97
        7
330
2293
330
229C
330
2297
330
22A6
330
22A4
330
22A5
330
22AB
 75
     0
 76
     1
 52
0.0
 41
20.0
 77
     0
 78
     2
 53
0.0
 43
-464.7419984990624
 44
-5.916095236630098
 45
0.0
 46
2.5
 79
     0
 53
90.0
 43
-464.7419984990624
 44
-5.916095236630098
 45
-2.5
 46
0.0000000000000002
 79
     0
 47
0.6143190201156165
 98
        2
 10
331.1734463356838
 20
593.6604237104504
 10
408.0176350836727
 20
513.1846315208731
  0
HATCH
  5
2571
330
1E
100
AcDbEntity
  8
SCHRAFF
100
AcDbHatch
 10
0.0
 20
0.0
 30
0.0
210
0.0
220
0.0
230
1.0
  2
NET
 70
     0
 71
     0
 91
        2
 92
        7
 72
     0
 73
     1
 93
       11
 10
322.7833217028877
 20
371.3508608425972
 10
320.7135227094826
 20
373.3496424966352
 10
303.7722550213505
 20
373.3496424966353
 10
303.7722550213505
 20
363.3496424966353
 10
308.2722550213505
 20
363.3496424966352
 10
311.7363566364882
 20
357.3496424966352
 10
318.7722550213507
 20
357.3496424966351
 10
318.7722550213507
 20
355.3496424966353
 10
325.7722550213505
 20
355.3496424966352
 10
325.7722550213505
 20
357.3496424966352
 10
323.2722550213504
 20
357.3496424966352
 97
        0
 92
        7
 72
     0
 73
     1
 93
       11
 10
214.7722550213505
 20
373.3496424966352
 10
197.8309873332184
 20
373.3496424966352
 10
195.7611883398135
 20
371.3508608425971
 10
195.2722550213507
 20
357.3496424966353
 10
192.7722550213504
 20
357.3496424966352
 10
192.7722550213504
 20
355.3496424966353
 10
199.7722550213507
 20
355.3496424966353
 10
199.7722550213507
 20
357.3496424966352
 10
206.808153406213
 20
357.3496424966351
 10
210.2722550213507
 20
363.3496424966352
 10
214.7722550213505
 20
363.3496424966352
 97
        0
 75
     0
 76
     1
 52
45.0
 41
20.0
 77
     0
 78
     2
 53
45.0
 43
34.30761992024668
 44
90.38508632651161
 45
-1.767766952966368
 46
1.767766952966368
 79
     0
 53
135.0
 43
34.30761992024668
 44
90.38508632651161
 45
-1.767766952966368
 46
-1.767766952966368
 79
     0
 47
0.2159429178754844
 98
        2
 10
314.8787091710604
 20
364.4356441478749
 10
200.7920660434877
 20
364.6515870078213
  0
LINE
  5
2572
330
1E
100
AcDbEntity
  8
STEMPEL
100
AcDbLine
 10
318.7722550213507
 20
357.3496424966352
 30
0.0
 11
318.7722550213507
 21
355.3496424966352
 31
0.0
  0
POINT
  5
2573
330
1E
100
AcDbEntity
  8
STEMPEL
100
AcDbPoint
 10
318.7722550213507
 20
355.3496424966352
 30
0.0
  0
LINE
  5
2574
330
1E
100
AcDbEntity
  8
STEMPEL
100
AcDbLine
 10
325.7722550213505
 20
355.3496424966353
 30
0.0
 11
303.7722550213505
 21
355.3496424966353
 31
0.0
  0
LINE
  5
2575
330
1E
100
AcDbEntity
  8
STEMPEL
100
AcDbLine
 10
318.7722550213507
 20
357.3496424966352
 30
0.0
 11
303.7722550213505
 21
357.3496424966352
 31
0.0
  0
LINE
  5
2576
330
1E
100
AcDbEntity
  8
STEMPEL
100
AcDbLine
 10
308.2722550213505
 20
363.3496424966352
 30
0.0
 11
311.7363566364882
 21
357.3496424966352
 31
0.0
  0
LINE
  5
2577
330
1E
100
AcDbEntity
  8
STEMPEL
100
AcDbLine
 10
214.7722550213505
 20
355.3496424966352
 30
0.0
 11
192.7722550213504
 21
355.3496424966353
 31
0.0
  0
LINE
  5
2578
330
1E
100
AcDbEntity
  8
STEMPEL
100
AcDbLine
 10
214.7722550213505
 20
357.3496424966351
 30
0.0
 11
199.7722550213507
 21
357.3496424966352
 31
0.0
  0
LINE
  5
2579
330
1E
100
AcDbEntity
  8
STEMPEL
100
AcDbLine
 10
199.7722550213507
 20
357.3496424966352
 30
0.0
 11
199.7722550213507
 21
355.3496424966352
 31
0.0
  0
LINE
  5
257A
330
1E
100
AcDbEntity
  8
STEMPEL
100
AcDbLine
 10
210.2722550213507
 20
363.3496424966352
 30
0.0
 11
206.808153406213
 21
357.3496424966352
 31
0.0
  0
LINE
  5
25C3
330
1E
100
AcDbEntity
  8
BEM
100
AcDbLine
 10
380.5415919046626
 20
563.6197203003191
 30
0.0
 11
384.1178819358254
 21
567.1960103314819
 31
0.0
  0
LINE
  5
25C4
330
1E
100
AcDbEntity
  8
BEM
100
AcDbLine
 10
259.2722550213505
 20
444.8503834170067
 30
0.0
 11
259.2722550213504
 21
574.96225766066
 31
0.0
  0
ARC
  5
25C5
330
1E
100
AcDbEntity
  8
BEM
100
AcDbCircle
 10
259.2722550213504
 20
442.3503834170067
 30
0.0
 40
215.1356187903509
100
AcDbArc
 50
47.33049568914614
 51
87.66950431085392
  0
SOLID
  5
25C6
330
1E
100
AcDbEntity
  8
BEM
100
AcDbTrace
 10
406.0943961647919
 20
601.5862751161376
 30
0.0
 11
404.0743687654256
 21
599.4823659569164
 31
0.0
 12
411.3961099427714
 22
594.4742383384278
 32
0.0
 13
411.3961099427714
 23
594.4742383384278
 33
0.0
  0
SOLID
  5
25C7
330
1E
100
AcDbEntity
  8
BEM
100
AcDbTrace
 10
267.9907888580255
 20
655.8500303708446
 30
0.0
 11
268.0501022192365
 21
658.7660938766047
 31
0.0
 12
259.2722550213504
 22
657.4860022073576
 32
0.0
 13
259.2722550213504
 23
657.4860022073576
 33
0.0
  0
MTEXT
  5
25C8
330
1E
100
AcDbEntity
  8
BEM
 62
     1
100
AcDbMText
 10
344.7103949319956
 20
648.6162995332168
 30
0.0
 40
8.75
 41
0.0
 71
     5
 72
     1
  1
\A1;45°
 11
0.9238795325112871
 21
-0.3826834323650891
 31
0.0
 73
     1
 44
1.0
  0
LINE
  5
25C9
330
1E
100
AcDbEntity
  8
BEM
100
AcDbLine
 10
400.0285650745819
 20
583.1066934702384
 30
0.0
 11
413.1638768957378
 21
596.2420052913943
 31
0.0
  0
LINE
  5
25CA
330
1E
100
AcDbEntity
  8
BEM
100
AcDbLine
 10
259.2722550213504
 20
587.8091860706892
 30
0.0
 11
259.2722550213504
 21
659.9860022073576
 31
0.0
  0
ENDSEC
  0
SECTION
  2
OBJECTS
  0
DICTIONARY
  5
C
330
0
100
AcDbDictionary
281
     1
  3
ACAD_COLOR
350
DF
  3
ACAD_GROUP
350
D
  3
ACAD_LAYOUT
350
19
  3
ACAD_MATERIAL
350
DE
  3
ACAD_MLINESTYLE
350
16
  3
ACAD_PLOTSETTINGS
350
18
  3
ACAD_PLOTSTYLENAME
350
E
  3
AcDbVariableDictionary
350
25E
  0
DICTIONARY
  5
A0
330
1E
100
AcDbDictionary
280
     1
281
     1
  3
ACAD_LAYOUTSELFREF
360
D4
  0
DICTIONARY
  5
A2
330
1A
100
AcDbDictionary
280
     1
281
     1
  3
ACAD_LAYOUTSELFREF
360
D3
  0
DICTIONARY
  5
DF
102
{ACAD_REACTORS
330
C
102
}
330
C
100
AcDbDictionary
281
     1
  0
DICTIONARY
  5
D
102
{ACAD_REACTORS
330
C
102
}
330
C
100
AcDbDictionary
281
     1
  0
DICTIONARY
  5
19
102
{ACAD_REACTORS
330
C
102
}
330
C
100
AcDbDictionary
281
     1
  3
Layout1
350
1D
  3
Model
350
21
  0
DICTIONARY
  5
DE
102
{ACAD_REACTORS
330
C
102
}
330
C
100
AcDbDictionary
281
     1
  0
DICTIONARY
  5
16
102
{ACAD_REACTORS
330
C
102
}
330
C
100
AcDbDictionary
281
     1
  3
Standard
350
17
  0
DICTIONARY
  5
18
102
{ACAD_REACTORS
330
C
102
}
330
C
100
AcDbDictionary
281
     1
  0
ACDBDICTIONARYWDFLT
  5
E
102
{ACAD_REACTORS
330
C
102
}
330
C
100
AcDbDictionary
281
     1
  3
Normal
350
F
100
AcDbDictionaryWithDefault
340
F
  0
DICTIONARY
  5
25E
102
{ACAD_REACTORS
330
C
102
}
330
C
100
AcDbDictionary
281
     1
  3
DIMASSOC
350
25F
  3
PROJECTNAME
350
260
  0
XRECORD
  5
D4
102
{ACAD_REACTORS
330
A0
102
}
330
A0
100
AcDbXrecord
280
     1
340
1E
  0
XRECORD
  5
D3
102
{ACAD_REACTORS
330
A2
102
}
330
A2
100
AcDbXrecord
280
     1
340
1A
  0
LAYOUT
  5
1D
102
{ACAD_REACTORS
330
19
102
}
330
19
100
AcDbPlotSettings
  1

  2
\\NT_WORK01\HP LaserJet 5000 PCL 6
  4

  6

 40
0.0
 41
0.0
 42
0.0
 43
0.0
 44
0.0
 45
0.0
 46
0.0
 47
0.0
 48
0.0
 49
0.0
140
0.0
141
0.0
142
1.0
143
1.0
 70
   688
 72
     0
 73
     0
 74
     5
  7

 75
    16
147
1.0
 76
     0
 77
     2
 78
   300
148
0.0
149
0.0
100
AcDbLayout
  1
Layout1
 70
     0
 71
     1
 10
0.0
 20
0.0
 11
12.0
 21
9.0
 12
0.0
 22
0.0
 32
0.0
 14
1.000000000000000E+20
 24
1.000000000000000E+20
 34
1.000000000000000E+20
 15
-1.000000000000000E+20
 25
-1.000000000000000E+20
 35
-1.000000000000000E+20
146
0.0
 13
0.0
 23
0.0
 33
0.0
 16
1.0
 26
0.0
 36
0.0
 17
0.0
 27
1.0
 37
0.0
 76
     0
330
1A
  0
LAYOUT
  5
21
102
{ACAD_REACTORS
330
19
102
}
330
19
100
AcDbPlotSettings
  1

  2
RICOH Aficio 2027 PCL 6
  4
A4
  6

 40
5.027083
 41
5.027084999999999
 42
5.027084
 43
5.027069
 44
209.973328
 45
296.925995
 46
0.0
 47
2.06
 48
0.0
 49
0.0
140
0.0
141
0.0
142
1.0
143
2.100849152723284
 70
 11956
 72
     1
 73
     0
 74
     2
  7
monochrome1.ctb
 75
     0
147
0.4759980023809526
 76
     1
 77
     2
 78
   300
148
0.0
149
0.0
100
AcDbLayout
  1
Model
 70
     1
 71
     0
 10
0.0
 20
0.0
 11
12.0
 21
9.0
 12
0.0
 22
0.0
 32
0.0
 14
0.0
 24
0.0
 34
0.0
 15
0.0
 25
0.0
 35
0.0
146
0.0
 13
0.0
 23
0.0
 33
0.0
 16
1.0
 26
0.0
 36
0.0
 17
0.0
 27
1.0
 37
0.0
 76
     0
330
1E
  0
MLINESTYLE
  5
17
102
{ACAD_REACTORS
330
16
102
}
330
16
100
AcDbMlineStyle
  2
STANDARD
 70
     0
  3

 62
   256
 51
90.0
 52
90.0
 71
     2
 49
0.5
 62
   256
  6
BYLAYER
 49
-0.5
 62
   256
  6
BYLAYER
  0
ACDBPLACEHOLDER
  5
F
102
{ACAD_REACTORS
330
E
102
}
330
E
  0
DICTIONARYVAR
  5
25F
102
{ACAD_REACTORS
330
25E
102
}
330
25E
100
DictionaryVariables
280
     0
  1
1
  0
DICTIONARYVAR
  5
260
102
{ACAD_REACTORS
330
25E
102
}
330
25E
100
DictionaryVariables
280
     0
  1

  0
ENDSEC
  0
EOF
