  0
SECTION
  2
HEADER
  9
$ACADVER
  1
AC1018
  9
$ACADMAINTVER
 70
     2
  9
$DWGCODEPAGE
  3
ANSI_1252
  9
$INSBASE
 10
0.0
 20
0.0
 30
0.0
  9
$EXTMIN
 10
-0.0063847315290104
 20
-0.0090298345912743
 30
-0.0000000000000053
  9
$EXTMAX
 10
420.0032109473064
 20
594.0045411969058
 30
0.0000000000000099
  9
$LIMMIN
 10
0.0
 20
0.0
  9
$LIMMAX
 10
419.9999999999999
 20
594.0000000000002
  9
$ORTHOMODE
 70
     0
  9
$REGENMODE
 70
     1
  9
$FILLMODE
 70
     1
  9
$QTEXTMODE
 70
     0
  9
$MIRRTEXT
 70
     1
  9
$LTSCALE
 40
20.0
  9
$ATTMODE
 70
     1
  9
$TEXTSIZE
 40
3.5
  9
$TRACEWID
 40
0.5
  9
$TEXTSTYLE
  7
STANDARD
  9
$CLAYER
  8
BEM
  9
$CELTYPE
  6
ByLayer
  9
$CECOLOR
 62
   256
  9
$CELTSCALE
 40
1.0
  9
$DISPSILH
 70
     0
  9
$DIMSCALE
 40
2.0
  9
$DIMASZ
 40
3.5
  9
$DIMEXO
 40
1.0
  9
$DIMDLI
 40
7.0
  9
$DIMRND
 40
0.0
  9
$DIMDLE
 40
0.0
  9
$DIMEXE
 40
1.0
  9
$DIMTP
 40
0.0
  9
$DIMTM
 40
0.0
  9
$DIMTXT
 40
3.5
  9
$DIMCEN
 40
1.5
  9
$DIMTSZ
 40
0.0
  9
$DIMTOL
 70
     0
  9
$DIMLIM
 70
     0
  9
$DIMTIH
 70
     0
  9
$DIMTOH
 70
     0
  9
$DIMSE1
 70
     0
  9
$DIMSE2
 70
     0
  9
$DIMTAD
 70
     1
  9
$DIMZIN
 70
     8
  9
$DIMBLK
  1

  9
$DIMASO
 70
     1
  9
$DIMSHO
 70
     0
  9
$DIMPOST
  1

  9
$DIMAPOST
  1

  9
$DIMALT
 70
     0
  9
$DIMALTD
 70
     2
  9
$DIMALTF
 40
25.4
  9
$DIMLFAC
 40
1.0
  9
$DIMTOFL
 70
     1
  9
$DIMTVP
 40
0.0
  9
$DIMTIX
 70
     0
  9
$DIMSOXD
 70
     0
  9
$DIMSAH
 70
     0
  9
$DIMBLK1
  1

  9
$DIMBLK2
  1

  9
$DIMSTYLE
  2
Standard
  9
$DIMCLRD
 70
     0
  9
$DIMCLRE
 70
     0
  9
$DIMCLRT
 70
     1
  9
$DIMTFAC
 40
0.5142857142857144
  9
$DIMGAP
 40
1.5
  9
$DIMJUST
 70
     0
  9
$DIMSD1
 70
     0
  9
$DIMSD2
 70
     0
  9
$DIMTOLJ
 70
     1
  9
$DIMTZIN
 70
     8
  9
$DIMALTZ
 70
     8
  9
$DIMALTTZ
 70
     8
  9
$DIMUPT
 70
     0
  9
$DIMDEC
 70
     2
  9
$DIMTDEC
 70
     2
  9
$DIMALTU
 70
     2
  9
$DIMALTTD
 70
     2
  9
$DIMTXSTY
  7
STANDARD
  9
$DIMAUNIT
 70
     0
  9
$DIMADEC
 70
     2
  9
$DIMALTRND
 40
0.0
  9
$DIMAZIN
 70
     2
  9
$DIMDSEP
 70
    46
  9
$DIMATFIT
 70
     3
  9
$DIMFRAC
 70
     0
  9
$DIMLDRBLK
  1

  9
$DIMLUNIT
 70
     2
  9
$DIMLWD
 70
    -2
  9
$DIMLWE
 70
    -2
  9
$DIMTMOVE
 70
     0
  9
$LUNITS
 70
     2
  9
$LUPREC
 70
     2
  9
$SKETCHINC
 40
1.0
  9
$FILLETRAD
 40
0.0
  9
$AUNITS
 70
     0
  9
$AUPREC
 70
     0
  9
$MENU
  1
ACAD
  9
$ELEVATION
 40
0.0
  9
$PELEVATION
 40
0.0
  9
$THICKNESS
 40
0.0
  9
$LIMCHECK
 70
     0
  9
$CHAMFERA
 40
0.0
  9
$CHAMFERB
 40
0.0
  9
$CHAMFERC
 40
0.0
  9
$CHAMFERD
 40
0.0
  9
$SKPOLY
 70
     0
  9
$TDCREATE
 40
2455397.823042361
  9
$TDUCREATE
 40
2455397.781375695
  9
$TDUPDATE
 40
2455532.535553171
  9
$TDUUPDATE
 40
2455532.493886505
  9
$TDINDWG
 40
0.1878679051
  9
$TDUSRTIMER
 40
0.1878679051
  9
$USRTIMER
 70
     1
  9
$ANGBASE
 50
0.0
  9
$ANGDIR
 70
     0
  9
$PDMODE
 70
     0
  9
$PDSIZE
 40
0.0
  9
$PLINEWID
 40
0.0
  9
$SPLFRAME
 70
     0
  9
$SPLINETYPE
 70
     6
  9
$SPLINESEGS
 70
     8
  9
$HANDSEED
  5
E30
  9
$SURFTAB1
 70
     6
  9
$SURFTAB2
 70
     6
  9
$SURFTYPE
 70
     6
  9
$SURFU
 70
     6
  9
$SURFV
 70
     6
  9
$UCSBASE
  2

  9
$UCSNAME
  2

  9
$UCSORG
 10
0.0
 20
0.0
 30
0.0
  9
$UCSXDIR
 10
1.0
 20
0.0
 30
0.0
  9
$UCSYDIR
 10
0.0
 20
1.0
 30
0.0
  9
$UCSORTHOREF
  2

  9
$UCSORTHOVIEW
 70
     0
  9
$UCSORGTOP
 10
0.0
 20
0.0
 30
0.0
  9
$UCSORGBOTTOM
 10
0.0
 20
0.0
 30
0.0
  9
$UCSORGLEFT
 10
0.0
 20
0.0
 30
0.0
  9
$UCSORGRIGHT
 10
0.0
 20
0.0
 30
0.0
  9
$UCSORGFRONT
 10
0.0
 20
0.0
 30
0.0
  9
$UCSORGBACK
 10
0.0
 20
0.0
 30
0.0
  9
$PUCSBASE
  2

  9
$PUCSNAME
  2

  9
$PUCSORG
 10
0.0
 20
0.0
 30
0.0
  9
$PUCSXDIR
 10
1.0
 20
0.0
 30
0.0
  9
$PUCSYDIR
 10
0.0
 20
1.0
 30
0.0
  9
$PUCSORTHOREF
  2

  9
$PUCSORTHOVIEW
 70
     0
  9
$PUCSORGTOP
 10
0.0
 20
0.0
 30
0.0
  9
$PUCSORGBOTTOM
 10
0.0
 20
0.0
 30
0.0
  9
$PUCSORGLEFT
 10
0.0
 20
0.0
 30
0.0
  9
$PUCSORGRIGHT
 10
0.0
 20
0.0
 30
0.0
  9
$PUCSORGFRONT
 10
0.0
 20
0.0
 30
0.0
  9
$PUCSORGBACK
 10
0.0
 20
0.0
 30
0.0
  9
$USERI1
 70
     0
  9
$USERI2
 70
     0
  9
$USERI3
 70
     0
  9
$USERI4
 70
     0
  9
$USERI5
 70
     0
  9
$USERR1
 40
0.0
  9
$USERR2
 40
0.0
  9
$USERR3
 40
0.0
  9
$USERR4
 40
0.0
  9
$USERR5
 40
0.0
  9
$WORLDVIEW
 70
     1
  9
$SHADEDGE
 70
     3
  9
$SHADEDIF
 70
    70
  9
$TILEMODE
 70
     1
  9
$MAXACTVP
 70
    16
  9
$PINSBASE
 10
0.0
 20
0.0
 30
0.0
  9
$PLIMCHECK
 70
     0
  9
$PEXTMIN
 10
1.000000000000000E+20
 20
1.000000000000000E+20
 30
1.000000000000000E+20
  9
$PEXTMAX
 10
-1.000000000000000E+20
 20
-1.000000000000000E+20
 30
-1.000000000000000E+20
  9
$PLIMMIN
 10
0.0
 20
0.0
  9
$PLIMMAX
 10
12.0
 20
9.0
  9
$UNITMODE
 70
     0
  9
$VISRETAIN
 70
     0
  9
$PLINEGEN
 70
     0
  9
$PSLTSCALE
 70
     0
  9
$TREEDEPTH
 70
  3020
  9
$CMLSTYLE
  2
Standard
  9
$CMLJUST
 70
     0
  9
$CMLSCALE
 40
1.0
  9
$PROXYGRAPHICS
 70
     1
  9
$MEASUREMENT
 70
     0
  9
$CELWEIGHT
370
    -1
  9
$ENDCAPS
280
     0
  9
$JOINSTYLE
280
     0
  9
$LWDISPLAY
290
     0
  9
$INSUNITS
 70
     0
  9
$HYPERLINKBASE
  1

  9
$STYLESHEET
  1
monochrome 1.ctb
  9
$XEDIT
290
     1
  9
$CEPSNTYPE
380
     0
  9
$PSTYLEMODE
290
     1
  9
$FINGERPRINTGUID
  2
{D68B0D02-A558-11D7-B632-000102183313}
  9
$VERSIONGUID
  2
{A114ED80-2B77-4EE3-AC4E-2D3556A19590}
  9
$EXTNAMES
290
     1
  9
$PSVPSCALE
 40
0.0
  9
$OLESTARTUP
290
     0
  9
$SORTENTS
280
   127
  9
$INDEXCTL
280
     0
  9
$HIDETEXT
280
     0
  9
$XCLIPFRAME
290
     0
  9
$HALOGAP
280
     0
  9
$OBSCOLOR
 70
   257
  9
$OBSLTYPE
280
     0
  9
$INTERSECTIONDISPLAY
280
     0
  9
$INTERSECTIONCOLOR
 70
   257
  9
$DIMASSOC
280
     1
  9
$PROJECTNAME
  1

  0
ENDSEC
  0
SECTION
  2
CLASSES
  0
CLASS
  1
ACDBDICTIONARYWDFLT
  2
AcDbDictionaryWithDefault
  3
ObjectDBX Classes
 90
        0
 91
        1
280
     0
281
     0
  0
CLASS
  1
DICTIONARYVAR
  2
AcDbDictionaryVar
  3
ObjectDBX Classes
 90
        0
 91
        2
280
     0
281
     0
  0
ENDSEC
  0
SECTION
  2
TABLES
  0
TABLE
  2
VPORT
  5
8
330
0
100
AcDbSymbolTable
 70
     2
  0
VPORT
  5
E2F
330
8
100
AcDbSymbolTableRecord
100
AcDbViewportTableRecord
  2
*Active
 70
     0
 10
0.0
 20
0.0
 11
1.0
 21
1.0
 12
209.9984131078887
 22
296.9977556811572
 13
0.0
 23
0.0
 14
1.0
 24
1.0
 15
10.0
 25
10.0
 16
0.0
 26
0.0
 36
1.0
 17
0.0
 27
0.0
 37
0.0
 40
598.8104504745508
 41
1.336927223719676
 42
50.0
 43
0.0
 44
0.0
 50
0.0
 51
0.0
 71
     0
 72
  1500
 73
     1
 74
     0
 75
     0
 76
     0
 77
     0
 78
     0
281
     0
 65
     1
110
0.0
120
0.0
130
0.0
111
1.0
121
0.0
131
0.0
112
0.0
122
1.0
132
0.0
 79
     0
146
0.0
  0
ENDTAB
  0
TABLE
  2
LTYPE
  5
5
330
0
100
AcDbSymbolTable
 70
     2
  0
LTYPE
  5
13
330
5
100
AcDbSymbolTableRecord
100
AcDbLinetypeTableRecord
  2
ByBlock
 70
     0
  3

 72
    65
 73
     0
 40
0.0
  0
LTYPE
  5
14
330
5
100
AcDbSymbolTableRecord
100
AcDbLinetypeTableRecord
  2
ByLayer
 70
     0
  3

 72
    65
 73
     0
 40
0.0
  0
LTYPE
  5
15
330
5
100
AcDbSymbolTableRecord
100
AcDbLinetypeTableRecord
  2
Continuous
 70
     0
  3
Solid line
 72
    65
 73
     0
 40
0.0
  0
LTYPE
  5
25
330
5
100
AcDbSymbolTableRecord
100
AcDbLinetypeTableRecord
  2
STRICHPUNKT
 70
     0
  3
__ . __ . __ . __ . __ . __ . __ . __ . __ . __
 72
    65
 73
     4
 40
1.0
 49
0.5
 74
     0
 49
-0.25
 74
     0
 49
0.0
 74
     0
 49
-0.25
 74
     0
  0
ENDTAB
  0
TABLE
  2
LAYER
  5
2
330
0
100
AcDbSymbolTable
 70
     9
  0
LAYER
  5
10
330
2
100
AcDbSymbolTableRecord
100
AcDbLayerTableRecord
  2
0
 70
     0
 62
     7
  6
Continuous
370
    -3
390
F
  0
LAYER
  5
2A
330
2
100
AcDbSymbolTableRecord
100
AcDbLayerTableRecord
  2
VOLL
 70
     0
 62
     1
  6
Continuous
370
    -3
390
F
  0
LAYER
  5
2B
330
2
100
AcDbSymbolTableRecord
100
AcDbLayerTableRecord
  2
HILF
 70
     0
 62
     2
  6
Continuous
370
    -3
390
F
  0
LAYER
  5
2C
330
2
100
AcDbSymbolTableRecord
100
AcDbLayerTableRecord
  2
MITTEL
 70
     0
 62
     2
  6
STRICHPUNKT
370
    -3
390
F
  0
LAYER
  5
2F
330
2
100
AcDbSymbolTableRecord
100
AcDbLayerTableRecord
  2
BEM
 70
     0
 62
     7
  6
Continuous
370
    -3
390
F
  0
LAYER
  5
30
330
2
100
AcDbSymbolTableRecord
100
AcDbLayerTableRecord
  2
STEMPEL
 70
     0
 62
     3
  6
Continuous
370
    -3
390
F
  0
LAYER
  5
31
330
2
100
AcDbSymbolTableRecord
100
AcDbLayerTableRecord
  2
TEXT
 70
     0
 62
     7
  6
Continuous
370
    -3
390
F
  0
LAYER
  5
171
330
2
100
AcDbSymbolTableRecord
100
AcDbLayerTableRecord
  2
Defpoints
 70
     0
 62
     7
  6
Continuous
290
     0
370
    -3
390
F
  0
LAYER
  5
19C
330
2
100
AcDbSymbolTableRecord
100
AcDbLayerTableRecord
  2
SCHRAFF
 70
     0
 62
     7
  6
Continuous
370
    -3
390
F
  0
ENDTAB
  0
TABLE
  2
STYLE
  5
3
330
0
100
AcDbSymbolTable
 70
     2
  0
STYLE
  5
11
330
3
100
AcDbSymbolTableRecord
100
AcDbTextStyleTableRecord
  2
STANDARD
 70
     0
 40
0.0
 41
0.8
 50
0.0
 71
     0
 42
3.5
  3
simplex.shx
  4

  0
STYLE
  5
24
330
3
100
AcDbSymbolTableRecord
100
AcDbTextStyleTableRecord
  2
GREEKS
 70
     0
 40
0.0
 41
0.8
 50
0.0
 71
     0
 42
2.5
  3
SIMPLEX.shx
  4

  0
ENDTAB
  0
TABLE
  2
VIEW
  5
6
330
0
100
AcDbSymbolTable
 70
     0
  0
ENDTAB
  0
TABLE
  2
UCS
  5
7
330
0
100
AcDbSymbolTable
 70
     0
  0
ENDTAB
  0
TABLE
  2
APPID
  5
9
330
0
100
AcDbSymbolTable
 70
     1
  0
APPID
  5
12
330
9
100
AcDbSymbolTableRecord
100
AcDbRegAppTableRecord
  2
ACAD
 70
     0
  0
ENDTAB
  0
TABLE
  2
DIMSTYLE
  5
A
330
0
100
AcDbSymbolTable
 70
     1
100
AcDbDimStyleTable
 71
     1
340
9D
  0
DIMSTYLE
105
9D
102
{ACAD_REACTORS
330
927
330
BD6
330
BE3
330
D90
330
AD7
102
}
330
A
100
AcDbSymbolTableRecord
100
AcDbDimStyleTableRecord
  2
Standard
 70
     0
340
11
  0
ENDTAB
  0
TABLE
  2
BLOCK_RECORD
  5
1
330
0
100
AcDbSymbolTable
 70
     6
  0
BLOCK_RECORD
  5
1E
102
{ACAD_XDICTIONARY
360
A0
102
}
330
1
100
AcDbSymbolTableRecord
100
AcDbBlockTableRecord
  2
*Model_Space
340
21
  0
BLOCK_RECORD
  5
1A
102
{ACAD_XDICTIONARY
360
A2
102
}
330
1
100
AcDbSymbolTableRecord
100
AcDbBlockTableRecord
  2
*Paper_Space
340
1D
  0
BLOCK_RECORD
  5
22
330
1
100
AcDbSymbolTableRecord
100
AcDbBlockTableRecord
  2
LOGO
340
0
102
{BLKREFS
331
9B
102
}
  0
BLOCK_RECORD
  5
93B
330
1
100
AcDbSymbolTableRecord
100
AcDbBlockTableRecord
  2
*D1
340
0
  0
BLOCK_RECORD
  5
B26
330
1
100
AcDbSymbolTableRecord
100
AcDbBlockTableRecord
  2
*D2
340
0
  0
BLOCK_RECORD
  5
BD7
330
1
100
AcDbSymbolTableRecord
100
AcDbBlockTableRecord
  2
*D3
340
0
  0
BLOCK_RECORD
  5
BE4
330
1
100
AcDbSymbolTableRecord
100
AcDbBlockTableRecord
  2
*D4
340
0
  0
BLOCK_RECORD
  5
D91
330
1
100
AcDbSymbolTableRecord
100
AcDbBlockTableRecord
  2
*D5
340
0
  0
ENDTAB
  0
ENDSEC
  0
SECTION
  2
BLOCKS
  0
BLOCK
  5
35
330
1E
100
AcDbEntity
  8
0
100
AcDbBlockBegin
  2
*Model_Space
 70
     0
 10
0.0
 20
0.0
 30
0.0
  3
*Model_Space
  1

  0
ENDBLK
  5
36
330
1E
100
AcDbEntity
  8
0
100
AcDbBlockEnd
  0
BLOCK
  5
33
330
1A
100
AcDbEntity
 67
     1
  8
0
100
AcDbBlockBegin
  2
*Paper_Space
 70
     0
 10
0.0
 20
0.0
 30
0.0
  3
*Paper_Space
  1

  0
ENDBLK
  5
34
330
1A
100
AcDbEntity
 67
     1
  8
0
100
AcDbBlockEnd
  0
BLOCK
  5
37
330
22
100
AcDbEntity
  8
0
100
AcDbBlockBegin
  2
LOGO
 70
     0
 10
0.0
 20
0.0
 30
0.0
  3
LOGO
  1

  0
ARC
  5
38
330
22
100
AcDbEntity
  8
0
100
AcDbCircle
 10
11.59973089678112
 20
-9.271599258481501
 30
0.0
 40
4.5
100
AcDbArc
 50
270.0
 51
231.0575587310159
  0
LINE
  5
39
330
22
100
AcDbEntity
  8
0
100
AcDbLine
 10
3.599730896781125
 20
-4.771599258481529
 30
0.0
 11
3.599730896781153
 21
-11.77159925848133
 31
0.0
  0
LINE
  5
3A
330
22
100
AcDbEntity
  8
0
100
AcDbLine
 10
2.599730896781125
 20
-4.771599258481529
 30
0.0
 11
2.599730896781153
 21
-11.77159925848133
 31
0.0
  0
CIRCLE
  5
3B
330
22
100
AcDbEntity
  8
0
100
AcDbCircle
 10
11.59973089678112
 20
-9.271599258481501
 30
0.0
 40
3.5
  0
ARC
  5
3C
330
22
100
AcDbEntity
  8
0
100
AcDbCircle
 10
31.59973089678115
 20
-9.271599258481472
 30
0.0
 40
4.5
100
AcDbArc
 50
270.0
 51
231.0575587310182
  0
LINE
  5
3D
330
22
100
AcDbEntity
  8
0
100
AcDbLine
 10
17.59973089678112
 20
-4.771599258481472
 30
0.0
 11
17.59973089678115
 21
-13.77159925848147
 31
0.0
  0
ARC
  5
3E
330
22
100
AcDbEntity
  8
0
100
AcDbCircle
 10
22.59973089678116
 20
-7.271599258481472
 30
0.0
 40
2.5
100
AcDbArc
 50
293.1161887722295
 51
90.0
  0
CIRCLE
  5
3F
330
22
100
AcDbEntity
  8
0
100
AcDbCircle
 10
31.59973089678115
 20
-9.271599258481472
 30
0.0
 40
3.5
  0
ARC
  5
40
330
22
100
AcDbEntity
  8
0
100
AcDbCircle
 10
4.599730896781153
 20
-11.77159925848133
 30
0.0
 40
1.0
100
AcDbArc
 50
180.0
 51
270.0
  0
ARC
  5
41
330
22
100
AcDbEntity
  8
0
100
AcDbCircle
 10
4.599730896781153
 20
-11.77159925848133
 30
0.0
 40
2.0
100
AcDbArc
 50
179.9999999999992
 51
270.0
  0
LINE
  5
42
330
22
100
AcDbEntity
  8
0
100
AcDbLine
 10
11.59973089678115
 20
-13.77159925848144
 30
0.0
 11
4.599730896781153
 21
-13.77159925848147
 31
0.0
  0
LINE
  5
43
330
22
100
AcDbEntity
  8
0
100
AcDbLine
 10
8.771303772034769
 20
-12.77159925848136
 30
0.0
 11
4.599730896781153
 21
-12.77159925848133
 31
0.0
  0
LINE
  5
44
330
22
100
AcDbEntity
  8
0
100
AcDbLine
 10
31.59973089678115
 20
-13.77159925848147
 30
0.0
 11
23.6715276665056
 21
-13.77159925848144
 31
0.0
  0
LINE
  5
45
330
22
100
AcDbEntity
  8
0
100
AcDbLine
 10
23.56565672307022
 20
-9.51278021337896
 30
0.0
 11
24.4388546544846
 21
-12.77159925848144
 31
0.0
  0
LINE
  5
46
330
22
100
AcDbEntity
  8
0
100
AcDbLine
 10
22.59973089678116
 20
-9.771599258481472
 30
0.0
 11
18.59973089678112
 21
-9.771599258481472
 31
0.0
  0
LINE
  5
47
330
22
100
AcDbEntity
  8
0
100
AcDbLine
 10
18.59973089678115
 20
-13.77159925848144
 30
0.0
 11
17.59973089678115
 21
-13.77159925848144
 31
0.0
  0
LINE
  5
48
330
22
100
AcDbEntity
  8
0
100
AcDbLine
 10
18.59973089678115
 20
-9.771599258481472
 30
0.0
 11
18.59973089678115
 21
-13.77159925848144
 31
0.0
  0
LINE
  5
49
330
22
100
AcDbEntity
  8
0
100
AcDbLine
 10
22.59973089678116
 20
-9.771599258481472
 30
0.0
 11
23.67152766650562
 21
-13.77159925848147
 31
0.0
  0
ARC
  5
4A
330
22
100
AcDbEntity
  8
0
100
AcDbCircle
 10
22.59973089678116
 20
-7.271599258481472
 30
0.0
 40
2.5
100
AcDbArc
 50
270.0
 51
270.0000000000007
  0
LINE
  5
4B
330
22
100
AcDbEntity
  8
0
100
AcDbLine
 10
28.77130377203494
 20
-12.77159925848147
 30
0.0
 11
24.43885465448463
 21
-12.77159925848144
 31
0.0
  0
LINE
  5
4C
330
22
100
AcDbEntity
  8
0
100
AcDbLine
 10
3.599730896781125
 20
-4.771599258481472
 30
0.0
 11
2.599730896781125
 21
-4.771599258481472
 31
0.0
  0
LINE
  5
4D
330
22
100
AcDbEntity
  8
0
100
AcDbLine
 10
22.59973089678116
 20
-8.771599258481472
 30
0.0
 11
18.59973089678115
 21
-8.771599258481472
 31
0.0
  0
LINE
  5
4E
330
22
100
AcDbEntity
  8
0
100
AcDbLine
 10
22.59973089678116
 20
-5.771599258481472
 30
0.0
 11
18.59973089678115
 21
-5.771599258481472
 31
0.0
  0
LINE
  5
4F
330
22
100
AcDbEntity
  8
0
100
AcDbLine
 10
22.59973089678116
 20
-4.771599258481472
 30
0.0
 11
17.59973089678115
 21
-4.771599258481472
 31
0.0
  0
LINE
  5
50
330
22
100
AcDbEntity
  8
0
100
AcDbLine
 10
18.59973089678115
 20
-5.771599258481472
 30
0.0
 11
18.59973089678115
 21
-8.771599258481472
 31
0.0
  0
ARC
  5
51
330
22
100
AcDbEntity
  8
0
100
AcDbCircle
 10
22.59973089678116
 20
-7.271599258481472
 30
0.0
 40
1.5
100
AcDbArc
 50
270.0
 51
90.0
  0
ENDBLK
  5
52
330
22
100
AcDbEntity
  8
0
100
AcDbBlockEnd
  0
BLOCK
  5
945
330
93B
100
AcDbEntity
  8
0
100
AcDbBlockBegin
  2
*D1
 70
     1
 10
0.0
 20
0.0
 30
0.0
  3
*D1
  1

  0
LINE
  5
CD3
330
93B
100
AcDbEntity
  8
BEM
 62
     0
370
    -2
100
AcDbLine
 10
191.9144461472059
 20
258.1366157343235
 30
0.0
 11
191.9144461472059
 21
232.8416833569088
 31
0.0
  0
LINE
  5
CD4
330
93B
100
AcDbEntity
  8
BEM
 62
     0
370
    -2
100
AcDbLine
 10
233.9144461472059
 20
258.1366157343224
 30
0.0
 11
233.9144461472059
 21
232.8416833569088
 31
0.0
  0
LINE
  5
CD5
330
93B
100
AcDbEntity
  8
BEM
 62
     0
370
    -2
100
AcDbLine
 10
198.9144461472059
 20
234.8416833569088
 30
0.0
 11
226.9144461472059
 21
234.8416833569088
 31
0.0
  0
SOLID
  5
CD6
330
93B
100
AcDbEntity
  8
BEM
 62
     0
100
AcDbTrace
 10
198.9144461472059
 20
236.0083500235754
 30
0.0
 11
198.9144461472059
 21
233.6750166902421
 31
0.0
 12
191.9144461472059
 22
234.8416833569088
 32
0.0
 13
191.9144461472059
 23
234.8416833569088
 33
0.0
  0
SOLID
  5
CD7
330
93B
100
AcDbEntity
  8
BEM
 62
     0
100
AcDbTrace
 10
226.9144461472059
 20
236.0083500235754
 30
0.0
 11
226.9144461472059
 21
233.6750166902421
 31
0.0
 12
233.9144461472059
 22
234.8416833569088
 32
0.0
 13
233.9144461472059
 23
234.8416833569088
 33
0.0
  0
MTEXT
  5
CD8
330
93B
100
AcDbEntity
  8
BEM
 62
     1
100
AcDbMText
 10
212.9144461472059
 20
241.3416833569088
 30
0.0
 40
7.0
 41
0.0
 71
     5
 72
     1
  1
\A1;%%c42
  7
GREEKS
 73
     1
 44
1.0
  0
POINT
  5
CD9
330
93B
100
AcDbEntity
  8
Defpoints
 62
     0
100
AcDbPoint
 10
191.9144461472059
 20
260.1366157343235
 30
0.0
  0
POINT
  5
CDA
330
93B
100
AcDbEntity
  8
Defpoints
 62
     0
100
AcDbPoint
 10
233.9144461472059
 20
260.1366157343224
 30
0.0
  0
POINT
  5
CDB
330
93B
100
AcDbEntity
  8
Defpoints
 62
     0
100
AcDbPoint
 10
233.9144461472059
 20
234.8416833569088
 30
0.0
  0
ENDBLK
  5
946
330
93B
100
AcDbEntity
  8
0
100
AcDbBlockEnd
  0
BLOCK
  5
B30
330
B26
100
AcDbEntity
  8
0
100
AcDbBlockBegin
  2
*D2
 70
     1
 10
0.0
 20
0.0
 30
0.0
  3
*D2
  1

  0
LINE
  5
E05
330
B26
100
AcDbEntity
  8
BEM
 62
     0
370
    -2
100
AcDbLine
 10
243.6766367840482
 20
434.9011085180599
 30
0.0
 11
252.3292427605764
 21
443.5537144945882
 31
0.0
  0
LINE
  5
E06
330
B26
100
AcDbEntity
  8
BEM
 62
     0
370
    -2
100
AcDbLine
 10
306.6091403096511
 20
371.9686049924572
 30
0.0
 11
315.2617462861796
 21
380.6212109689858
 31
0.0
  0
LINE
  5
E07
330
B26
100
AcDbEntity
  8
BEM
 62
     0
370
    -2
100
AcDbLine
 10
255.8647766665092
 20
437.1897534639093
 30
0.0
 11
308.8977852555007
 21
384.1567448749185
 31
0.0
  0
SOLID
  5
E08
330
B26
100
AcDbEntity
  8
BEM
 62
     0
100
AcDbTrace
 10
256.6897345778936
 20
438.0147113752936
 30
0.0
 11
255.0398187551249
 21
436.364795552525
 31
0.0
 12
250.9150291982034
 22
442.1395009322151
 32
0.0
 13
250.9150291982034
 23
442.1395009322151
 33
0.0
  0
SOLID
  5
E09
330
B26
100
AcDbEntity
  8
BEM
 62
     0
100
AcDbTrace
 10
309.7227431668851
 20
384.9817027863029
 30
0.0
 11
308.0728273441164
 21
383.3317869635342
 31
0.0
 12
313.8475327238065
 22
379.2069974066127
 32
0.0
 13
313.8475327238065
 23
379.2069974066127
 33
0.0
  0
MTEXT
  5
E0A
330
B26
100
AcDbEntity
  8
BEM
 62
     1
100
AcDbMText
 10
286.9774750387175
 20
415.2694432471265
 30
0.0
 40
7.0
 41
0.0
 71
     5
 72
     1
  1
\A1;%%c89
  7
GREEKS
 11
0.7071067811865517
 21
-0.7071067811865435
 31
0.0
 73
     1
 44
1.0
  0
POINT
  5
E0B
330
B26
100
AcDbEntity
  8
Defpoints
 62
     0
100
AcDbPoint
 10
242.2624232216751
 20
433.4868949556867
 30
0.0
  0
POINT
  5
E0C
330
B26
100
AcDbEntity
  8
Defpoints
 62
     0
100
AcDbPoint
 10
305.194926747278
 20
370.5543914300841
 30
0.0
  0
POINT
  5
E0D
330
B26
100
AcDbEntity
  8
Defpoints
 62
     0
100
AcDbPoint
 10
313.8475327238065
 20
379.2069974066127
 30
0.0
  0
ENDBLK
  5
B31
330
B26
100
AcDbEntity
  8
0
100
AcDbBlockEnd
  0
BLOCK
  5
BE1
330
BD7
100
AcDbEntity
  8
0
100
AcDbBlockBegin
  2
*D3
 70
     1
 10
0.0
 20
0.0
 30
0.0
  3
*D3
  1

  0
LINE
  5
DFC
330
BD7
100
AcDbEntity
  8
BEM
 62
     0
370
    -2
100
AcDbLine
 10
166.4144461472059
 20
280.2021071486848
 30
0.0
 11
151.7140566683679
 21
280.2021071486848
 31
0.0
  0
LINE
  5
DFD
330
BD7
100
AcDbEntity
  8
BEM
 62
     0
370
    -2
100
AcDbLine
 10
190.3461597085206
 20
255.2021071486849
 30
0.0
 11
151.7140566683679
 21
255.2021071486849
 31
0.0
  0
LINE
  5
DFE
330
BD7
100
AcDbEntity
  8
BEM
 62
     0
370
    -2
100
AcDbLine
 10
153.7140566683679
 20
273.2021071486848
 30
0.0
 11
153.7140566683679
 21
262.2021071486848
 31
0.0
  0
SOLID
  5
DFF
330
BD7
100
AcDbEntity
  8
BEM
 62
     0
100
AcDbTrace
 10
152.5473900017012
 20
273.2021071486848
 30
0.0
 11
154.8807233350345
 21
273.2021071486848
 31
0.0
 12
153.7140566683679
 22
280.2021071486848
 32
0.0
 13
153.7140566683679
 23
280.2021071486848
 33
0.0
  0
SOLID
  5
E00
330
BD7
100
AcDbEntity
  8
BEM
 62
     0
100
AcDbTrace
 10
152.5473900017012
 20
262.2021071486848
 30
0.0
 11
154.8807233350345
 21
262.2021071486848
 31
0.0
 12
153.7140566683679
 22
255.2021071486849
 32
0.0
 13
153.7140566683679
 23
255.2021071486849
 33
0.0
  0
MTEXT
  5
E01
330
BD7
100
AcDbEntity
  8
BEM
 62
     1
100
AcDbMText
 10
147.2140566683679
 20
267.7021071486849
 30
0.0
 40
7.0
 41
0.0
 71
     5
 72
     1
  1
\A1;25
 11
0.0000000000000001
 21
1.0
 31
0.0
 73
     1
 44
1.0
  0
POINT
  5
E02
330
BD7
100
AcDbEntity
  8
Defpoints
 62
     0
100
AcDbPoint
 10
168.4144461472059
 20
280.2021071486848
 30
0.0
  0
POINT
  5
E03
330
BD7
100
AcDbEntity
  8
Defpoints
 62
     0
100
AcDbPoint
 10
192.3461597085206
 20
255.2021071486848
 30
0.0
  0
POINT
  5
E04
330
BD7
100
AcDbEntity
  8
Defpoints
 62
     0
100
AcDbPoint
 10
153.7140566683679
 20
255.2021071486849
 30
0.0
  0
ENDBLK
  5
BE2
330
BD7
100
AcDbEntity
  8
0
100
AcDbBlockEnd
  0
BLOCK
  5
BEE
330
BE4
100
AcDbEntity
  8
0
100
AcDbBlockBegin
  2
*D4
 70
     1
 10
0.0
 20
0.0
 30
0.0
  3
*D4
  1

  0
LINE
  5
C92
330
BE4
100
AcDbEntity
  8
BEM
 62
     0
370
    -2
100
AcDbLine
 10
211.5002325848327
 20
342.6206279179871
 30
0.0
 11
166.8763752657459
 21
387.2444852370737
 31
0.0
  0
LINE
  5
C93
330
BE4
100
AcDbEntity
  8
BEM
 62
     0
370
    -2
100
AcDbLine
 10
240.848209659302
 20
434.90110851806
 30
0.0
 11
227.6906041030169
 21
448.058714074345
 31
0.0
  0
LINE
  5
C94
330
BE4
100
AcDbEntity
  8
BEM
 62
     0
370
    -2
100
AcDbLine
 10
173.2403362964248
 20
390.7800191430066
 30
0.0
 11
224.1550701970842
 21
441.6947530436661
 31
0.0
  0
SOLID
  5
C95
330
BE4
100
AcDbEntity
  8
BEM
 62
     0
100
AcDbTrace
 10
172.4153783850405
 20
391.6049770543908
 30
0.0
 11
174.0652942078091
 21
389.9550612316222
 31
0.0
 12
168.290588828119
 22
385.8302716747007
 32
0.0
 13
168.290588828119
 23
385.8302716747007
 33
0.0
  0
SOLID
  5
C96
330
BE4
100
AcDbEntity
  8
BEM
 62
     0
100
AcDbTrace
 10
223.3301122856999
 20
442.5197109550503
 30
0.0
 11
224.9800281084685
 21
440.8697951322817
 31
0.0
 12
229.10481766539
 22
446.6445005119719
 32
0.0
 13
229.10481766539
 23
446.6445005119719
 33
0.0
  0
MTEXT
  5
C97
330
BE4
100
AcDbEntity
  8
BEM
 62
     1
100
AcDbMText
 10
194.1015091690419
 20
420.8335801710488
 30
0.0
 40
7.0
 41
0.0
 71
     5
 72
     1
  1
\A1;86
 11
0.7071067811865462
 21
0.7071067811865489
 31
0.0
 73
     1
 44
1.0
  0
POINT
  5
C98
330
BE4
100
AcDbEntity
  8
Defpoints
 62
     0
100
AcDbPoint
 10
212.9144461472058
 20
341.206414355614
 30
0.0
  0
POINT
  5
C99
330
BE4
100
AcDbEntity
  8
Defpoints
 62
     0
100
AcDbPoint
 10
242.2624232216751
 20
433.4868949556869
 30
0.0
  0
POINT
  5
C9A
330
BE4
100
AcDbEntity
  8
Defpoints
 62
     0
100
AcDbPoint
 10
229.10481766539
 20
446.6445005119719
 30
0.0
  0
ENDBLK
  5
BEF
330
BE4
100
AcDbEntity
  8
0
100
AcDbBlockEnd
  0
BLOCK
  5
D9B
330
D91
100
AcDbEntity
  8
0
100
AcDbBlockBegin
  2
*D5
 70
     1
 10
0.0
 20
0.0
 30
0.0
  3
*D5
  1

  0
LINE
  5
DF3
330
D91
100
AcDbEntity
  8
BEM
 62
     0
370
    -2
100
AcDbLine
 10
210.9144461472058
 20
341.206414355614
 30
0.0
 11
136.2338176134713
 21
341.206414355614
 31
0.0
  0
LINE
  5
DF4
330
D91
100
AcDbEntity
  8
BEM
 62
     0
370
    -2
100
AcDbLine
 10
190.3461597085206
 20
255.2021071486849
 30
0.0
 11
136.2338176134713
 21
255.2021071486849
 31
0.0
  0
LINE
  5
DF5
330
D91
100
AcDbEntity
  8
BEM
 62
     0
370
    -2
100
AcDbLine
 10
138.2338176134713
 20
334.206414355614
 30
0.0
 11
138.2338176134712
 21
262.2021071486848
 31
0.0
  0
SOLID
  5
DF6
330
D91
100
AcDbEntity
  8
BEM
 62
     0
100
AcDbTrace
 10
137.0671509468046
 20
334.206414355614
 30
0.0
 11
139.4004842801379
 21
334.206414355614
 31
0.0
 12
138.2338176134713
 22
341.206414355614
 32
0.0
 13
138.2338176134713
 23
341.206414355614
 33
0.0
  0
SOLID
  5
DF7
330
D91
100
AcDbEntity
  8
BEM
 62
     0
100
AcDbTrace
 10
137.0671509468046
 20
262.2021071486848
 30
0.0
 11
139.4004842801379
 21
262.2021071486848
 31
0.0
 12
138.2338176134712
 22
255.2021071486849
 32
0.0
 13
138.2338176134712
 23
255.2021071486849
 33
0.0
  0
MTEXT
  5
DF8
330
D91
100
AcDbEntity
  8
BEM
 62
     1
100
AcDbMText
 10
131.7338176134712
 20
298.2042607521495
 30
0.0
 40
7.0
 41
0.0
 71
     5
 72
     1
  1
\A1;86
 11
0.0000000000000001
 21
1.0
 31
0.0
 73
     1
 44
1.0
  0
POINT
  5
DF9
330
D91
100
AcDbEntity
  8
Defpoints
 62
     0
100
AcDbPoint
 10
212.9144461472058
 20
341.206414355614
 30
0.0
  0
POINT
  5
DFA
330
D91
100
AcDbEntity
  8
Defpoints
 62
     0
100
AcDbPoint
 10
192.3461597085206
 20
255.2021071486848
 30
0.0
  0
POINT
  5
DFB
330
D91
100
AcDbEntity
  8
Defpoints
 62
     0
100
AcDbPoint
 10
138.2338176134712
 20
255.2021071486849
 30
0.0
  0
ENDBLK
  5
D9C
330
D91
100
AcDbEntity
  8
0
100
AcDbBlockEnd
  0
ENDSEC
  0
SECTION
  2
ENTITIES
  0
LINE
  5
57
330
1E
100
AcDbEntity
  8
STEMPEL
100
AcDbLine
 10
410.0
 20
110.0
 30
0.0
 11
39.99999999999997
 21
110.0
 31
0.0
  0
LINE
  5
58
330
1E
100
AcDbEntity
  8
STEMPEL
100
AcDbLine
 10
146.0000000000001
 20
109.9999999999999
 30
0.0
 11
146.0
 21
9.999999999999971
 31
0.0
  0
LINE
  5
59
330
1E
100
AcDbEntity
  8
STEMPEL
100
AcDbLine
 10
230.0
 20
110.0
 30
0.0
 11
230.0
 21
9.999999999999971
 31
0.0
  0
LINE
  5
5A
330
1E
100
AcDbEntity
  8
STEMPEL
100
AcDbLine
 10
332.0
 20
109.9999999999997
 30
0.0
 11
332.0
 21
40.0
 31
0.0
  0
LINE
  5
5B
330
1E
100
AcDbEntity
  8
STEMPEL
100
AcDbLine
 10
145.9999999999999
 20
29.99999999999997
 30
0.0
 11
39.99999999999997
 21
29.99999999999997
 31
0.0
  0
LINE
  5
5C
330
1E
100
AcDbEntity
  8
STEMPEL
100
AcDbLine
 10
410.0
 20
40.0
 30
0.0
 11
146.0000000000001
 21
39.99999999999997
 31
0.0
  0
LINE
  5
5D
330
1E
100
AcDbEntity
  8
STEMPEL
100
AcDbLine
 10
410.0
 20
80.0
 30
0.0
 11
146.0000000000001
 21
79.99999999999994
 31
0.0
  0
LINE
  5
5E
330
1E
100
AcDbEntity
  8
VOLL
100
AcDbLine
 10
54.00000000000009
 20
110.0
 30
0.0
 11
53.99999999999997
 21
9.999999999999971
 31
0.0
  0
LINE
  5
5F
330
1E
100
AcDbEntity
  8
VOLL
100
AcDbLine
 10
104.0000000000001
 20
109.9999999999999
 30
0.0
 11
104.0
 21
9.999999999999971
 31
0.0
  0
LINE
  5
60
330
1E
100
AcDbEntity
  8
VOLL
100
AcDbLine
 10
124.0000000000001
 20
109.9999999999999
 30
0.0
 11
124.0
 21
9.999999999999971
 31
0.0
  0
LINE
  5
61
330
1E
100
AcDbEntity
  8
VOLL
100
AcDbLine
 10
164.0000000000001
 20
79.99999999999994
 30
0.0
 11
164.0000000000001
 21
39.99999999999997
 31
0.0
  0
LINE
  5
62
330
1E
100
AcDbEntity
  8
VOLL
100
AcDbLine
 10
190.0000000000001
 20
109.9999999999998
 30
0.0
 11
190.0
 21
39.99999999999997
 31
0.0
  0
LINE
  5
63
330
1E
100
AcDbEntity
  8
HILF
100
AcDbLine
 10
40.00000000000008
 20
100.0
 30
0.0
 11
146.0000000000001
 21
100.0
 31
0.0
  0
LINE
  5
64
330
1E
100
AcDbEntity
  8
HILF
100
AcDbLine
 10
40.00000000000008
 20
90.00000000000005
 30
0.0
 11
146.0000000000001
 21
90.00000000000005
 31
0.0
  0
LINE
  5
65
330
1E
100
AcDbEntity
  8
HILF
100
AcDbLine
 10
40.00000000000008
 20
79.99999999999994
 30
0.0
 11
146.0000000000001
 21
79.99999999999994
 31
0.0
  0
LINE
  5
66
330
1E
100
AcDbEntity
  8
HILF
100
AcDbLine
 10
40.00000000000008
 20
69.99999999999994
 30
0.0
 11
146.0000000000001
 21
69.99999999999994
 31
0.0
  0
LINE
  5
67
330
1E
100
AcDbEntity
  8
HILF
100
AcDbLine
 10
40.00000000000008
 20
59.99999999999997
 30
0.0
 11
146.0000000000001
 21
59.99999999999997
 31
0.0
  0
LINE
  5
68
330
1E
100
AcDbEntity
  8
HILF
100
AcDbLine
 10
40.00000000000008
 20
49.99999999999997
 30
0.0
 11
146.0000000000001
 21
49.99999999999997
 31
0.0
  0
LINE
  5
69
330
1E
100
AcDbEntity
  8
HILF
100
AcDbLine
 10
40.00000000000008
 20
39.99999999999997
 30
0.0
 11
146.0000000000001
 21
39.99999999999997
 31
0.0
  0
LINE
  5
6A
330
1E
100
AcDbEntity
  8
HILF
100
AcDbLine
 10
146.0000000000001
 20
69.99999999999994
 30
0.0
 11
230.0
 21
69.99999999999994
 31
0.0
  0
LINE
  5
6B
330
1E
100
AcDbEntity
  8
HILF
100
AcDbLine
 10
146.0000000000001
 20
59.99999999999997
 30
0.0
 11
230.0
 21
59.99999999999997
 31
0.0
  0
LINE
  5
6C
330
1E
100
AcDbEntity
  8
HILF
100
AcDbLine
 10
146.0000000000001
 20
49.99999999999997
 30
0.0
 11
230.0
 21
49.99999999999997
 31
0.0
  0
LINE
  5
6D
330
1E
100
AcDbEntity
  8
HILF
100
AcDbLine
 10
234.7736801096947
 20
84.03758247564139
 30
0.0
 11
324.8353916556311
 21
84.03758247564139
 31
0.0
  0
LINE
  5
6E
330
1E
100
AcDbEntity
  8
HILF
100
AcDbLine
 10
234.7736801096947
 20
69.99999999999994
 30
0.0
 11
324.835391655631
 21
69.99999999999994
 31
0.0
  0
LINE
  5
6F
330
1E
100
AcDbEntity
  8
HILF
100
AcDbLine
 10
234.7736801096947
 20
59.99999999999997
 30
0.0
 11
324.835391655631
 21
59.99999999999997
 31
0.0
  0
LINE
  5
70
330
1E
100
AcDbEntity
  8
HILF
100
AcDbLine
 10
234.7736801096947
 20
49.99999999999997
 30
0.0
 11
324.835391655631
 21
49.99999999999997
 31
0.0
  0
LINE
  5
71
330
1E
100
AcDbEntity
  8
VOLL
100
AcDbLine
 10
332.0
 20
60.0
 30
0.0
 11
410.0
 21
60.0
 31
0.0
  0
LINE
  5
72
330
1E
100
AcDbEntity
  8
HILF
100
AcDbLine
 10
336.7238616296993
 20
83.77983636955827
 30
0.0
 11
404.8588839326728
 21
83.77983636955827
 31
0.0
  0
LINE
  5
73
330
1E
100
AcDbEntity
  8
HILF
100
AcDbLine
 10
233.4909699289885
 20
14.89398258028314
 30
0.0
 11
404.8588839326728
 21
14.89398258028314
 31
0.0
  0
TEXT
  5
74
330
1E
100
AcDbEntity
  8
TEXT
100
AcDbText
 10
67.79509897490102
 20
18.67381894984132
 30
0.0
 40
4.0
  1
Änderung
 41
0.8
  7
GREEKS
 72
     1
 11
78.53795611775817
 21
18.67381894984132
 31
0.0
100
AcDbText
  0
TEXT
  5
75
330
1E
100
AcDbEntity
  8
TEXT
100
AcDbText
 10
153.5163572150377
 20
102.4620895087088
 30
0.0
 40
5.0
  1
Maßstab
 41
0.8
  7
GREEKS
100
AcDbText
  0
TEXT
  5
76
330
1E
100
AcDbEntity
  8
TEXT
100
AcDbText
 10
194.2858954734051
 20
102.4184168434819
 30
0.0
 40
5.0
  1
Zul. Abw.
 41
0.8
  7
GREEKS
100
AcDbText
  0
TEXT
  5
77
330
1E
100
AcDbEntity
  8
TEXT
100
AcDbText
 10
234.877940380901
 20
102.5489328011779
 30
0.0
 40
5.0
  1
Benennung
 41
0.8
  7
GREEKS
100
AcDbText
  0
TEXT
  5
78
330
1E
100
AcDbEntity
  8
TEXT
100
AcDbText
 10
336.178754957634
 20
102.3132034537136
 30
0.0
 40
5.0
  1
Zeichnungs Nr.
 41
0.8
  7
GREEKS
100
AcDbText
  0
TEXT
  5
79
330
1E
100
AcDbEntity
  8
TEXT
100
AcDbText
 10
234.742238391136
 20
30.84560570193057
 30
0.0
 40
5.0
  1
Bauvorhaben
 41
0.8
  7
GREEKS
100
AcDbText
  0
TEXT
  5
7A
330
1E
100
AcDbEntity
  8
TEXT
100
AcDbText
 10
336.7238616296993
 20
73.1811823709997
 30
0.0
 40
5.0
  1
Ersatz für:
 41
0.8
  7
GREEKS
100
AcDbText
  0
TEXT
  5
7B
330
1E
100
AcDbEntity
  8
TEXT
100
AcDbText
 10
48.26641107045756
 20
13.65465846027192
 30
0.0
 40
4.0
  1
Index
 50
90.0
 41
0.8
  7
GREEKS
100
AcDbText
  0
TEXT
  5
7C
330
1E
100
AcDbEntity
  8
TEXT
100
AcDbText
 10
110.6986119235389
 20
18.6715626933981
 30
0.0
 40
4.0
  1
Tag
 41
0.8
  7
GREEKS
 72
     1
 11
114.4319452568723
 21
18.6715626933981
 31
0.0
100
AcDbText
  0
TEXT
  5
7D
330
1E
100
AcDbEntity
  8
TEXT
100
AcDbText
 10
129.0122744386592
 20
18.59324216966408
 30
0.0
 40
4.0
  1
Name
 41
0.8
  7
GREEKS
 72
     1
 11
135.3360839624688
 21
18.59324216966408
 31
0.0
100
AcDbText
  0
TEXT
  5
7E
330
1E
100
AcDbEntity
  8
TEXT
100
AcDbText
 10
172.331167315365
 20
73.31880501229926
 30
0.0
 40
4.0
  1
Tag
 41
0.8
  7
GREEKS
100
AcDbText
  0
TEXT
  5
7F
330
1E
100
AcDbEntity
  8
TEXT
100
AcDbText
 10
202.4626584226295
 20
73.30961091915225
 30
0.0
 40
4.0
  1
Name
 41
0.8
  7
GREEKS
100
AcDbText
  0
TEXT
  5
80
330
1E
100
AcDbEntity
  8
TEXT
100
AcDbText
 10
147.5836127167615
 20
63.62990369617964
 30
0.0
 40
4.0
  1
Gez.
 41
0.8
  7
GREEKS
100
AcDbText
  0
TEXT
  5
81
330
1E
100
AcDbEntity
  8
TEXT
100
AcDbText
 10
147.5515086571672
 20
53.68926291428377
 30
0.0
 40
4.0
  1
Gepr.
 41
0.8
  7
GREEKS
100
AcDbText
  0
TEXT
  5
82
330
1E
100
AcDbEntity
  8
TEXT
100
AcDbText
 10
147.6006777387303
 20
43.52946389649807
 30
0.0
 40
4.0
  1
Norm.
 41
0.8
  7
GREEKS
100
AcDbText
  0
LINE
  5
83
330
1E
100
AcDbEntity
  8
STEMPEL
100
AcDbLine
 10
49.99999999999989
 20
10.0
 30
0.0
 11
410.0
 21
10.0
 31
0.0
  0
TEXT
  5
84
330
1E
100
AcDbEntity
  8
TEXT
100
AcDbText
 10
337.2400861497006
 20
52.07416177878602
 30
0.0
 40
5.0
  1
ersetzt durch:
 41
0.8
  7
GREEKS
100
AcDbText
  0
LINE
  5
85
330
1E
100
AcDbEntity
  8
STEMPEL
100
AcDbLine
 10
410.0
 20
10.0
 30
0.0
 11
39.99999999999989
 21
10.0
 31
0.0
  0
LINE
  5
86
330
1E
100
AcDbEntity
  8
STEMPEL
100
AcDbLine
 10
410.0
 20
10.0
 30
0.0
 11
410.0
 21
584.0
 31
0.0
  0
LINE
  5
87
330
1E
100
AcDbEntity
  8
STEMPEL
100
AcDbLine
 10
40.0
 20
10.0
 30
0.0
 11
39.99999999999989
 21
584.0
 31
0.0
  0
LINE
  5
88
330
1E
100
AcDbEntity
  8
STEMPEL
100
AcDbLine
 10
410.0
 20
584.0
 30
0.0
 11
39.99999999999989
 21
584.0
 31
0.0
  0
LINE
  5
89
330
1E
100
AcDbEntity
  8
HILF
100
AcDbLine
 10
0.0
 20
0.0
 30
0.0
 11
-0.0000000000001137
 21
594.0
 31
0.0
  0
LINE
  5
8A
330
1E
100
AcDbEntity
  8
HILF
100
AcDbLine
 10
419.9999999999999
 20
594.0000000000002
 30
0.0
 11
0.0
 21
594.0
 31
0.0
  0
LINE
  5
8B
330
1E
100
AcDbEntity
  8
HILF
100
AcDbLine
 10
420.0
 20
0.0
 30
0.0
 11
0.0
 21
0.0
 31
0.0
  0
LINE
  5
8C
330
1E
100
AcDbEntity
  8
HILF
100
AcDbLine
 10
31.08767135713856
 20
297.0
 30
0.0
 11
0.0000000000001137
 21
297.0
 31
0.0
  0
LINE
  5
8E
330
1E
100
AcDbEntity
  8
HILF
100
AcDbLine
 10
420.0
 20
-0.0000000000001137
 30
0.0
 11
419.9999999999999
 21
594.0
 31
0.0
  0
TEXT
  5
8F
330
1E
100
AcDbEntity
  8
VOLL
100
AcDbText
 10
78.07675471698113
 20
31.02594776470585
 30
0.0
 40
1.8
  1

  7
GREEKS
100
AcDbText
  0
TEXT
  5
90
330
1E
100
AcDbEntity
  8
TEXT
100
AcDbText
 10
41.85509950977674
 20
111.6719999999999
 30
0.0
 40
5.0
  1
Erstellt mit AUTOCAD 2004
 41
0.8
  7
GREEKS
100
AcDbText
  0
TEXT
  5
91
330
1E
100
AcDbEntity
  8
TEXT
100
AcDbText
 10
204.4216048581257
 20
63.0896391972351
 30
0.0
 40
4.0
  1
Koeh
 41
0.8
  7
GREEKS
 72
     1
 11
209.6787477152686
 21
63.0896391972351
 31
0.0
100
AcDbText
  0
TEXT
  5
92
330
1E
100
AcDbEntity
  8
TEXT
 62
     1
100
AcDbText
 10
346.7764207350748
 20
88.14901428913959
 30
0.0
 40
7.0
  1
58032040W
 41
0.8
  7
GREEKS
 72
     1
 11
370.7764207350748
 21
88.14901428913959
 31
0.0
100
AcDbText
  0
TEXT
  5
93
330
1E
100
AcDbEntity
  8
TEXT
 62
     1
100
AcDbText
 10
160.5006306481887
 20
88.14901428913959
 30
0.0
 40
7.0
  1
1:2
 41
0.8
  7
GREEKS
100
AcDbText
  0
TEXT
  5
95
330
1E
100
AcDbEntity
  8
TEXT
 62
     1
100
AcDbText
 10
236.8935731057402
 20
87.41748789253779
 30
0.0
 40
7.0
  1
Verbundrohr DN40
 41
0.8
  7
GREEKS
100
AcDbText
  0
TEXT
  5
98
330
1E
100
AcDbEntity
  8
TEXT
100
AcDbText
 10
235.1296391125315
 20
51.64011943042158
 30
0.0
 40
5.0
  1
EDV-Art.Nr. 58032.040X
 41
0.8
  7
GREEKS
100
AcDbText
  0
TEXT
  5
99
330
1E
100
AcDbEntity
  8
TEXT
100
AcDbText
 10
234.9837501577827
 20
42.62974153022632
 30
0.0
 40
4.0
  1
58032040W.DWG
 41
0.8
  7
GREEKS
100
AcDbText
  0
TEXT
  5
9A
330
1E
100
AcDbEntity
  8
TEXT
100
AcDbText
 10
192.626132208084
 20
90.76363841023022
 30
0.0
 40
4.0
  1
DIN EN1123-2
 41
0.8
  7
GREEKS
 72
     1
 11
209.6166083985602
 21
90.76363841023022
 31
0.0
100
AcDbText
  0
INSERT
  5
9B
330
1E
100
AcDbEntity
  8
STEMPEL
100
AcDbBlockReference
  2
LOGO
 10
150.9955485457794
 20
45.02105276448322
 30
0.0
 41
2.0
 42
2.0
 43
2.0
  0
TEXT
  5
210
330
1E
100
AcDbEntity
  8
TEXT
 62
     1
100
AcDbText
 10
221.4734693527589
 20
214.7198862586184
 30
0.0
 40
7.0
  1
Rohrende leicht eingezogen
 41
0.8
  7
GREEKS
100
AcDbText
  0
TEXT
  5
2C0
330
1E
100
AcDbEntity
  8
BEM
100
AcDbText
 10
417.3022923857165
 20
10.16790107998861
 30
0.0
 40
4.0
  1
Diese Zeichnung ist urheberrechtlich geschützt und bleibt unser Eigentum. Sie darf weder ganz noch teilweise verfielfältigt und nicht an Dritte weitergegeben werden.
 50
90.0
 41
0.8
  7
GREEKS
100
AcDbText
  0
TEXT
  5
77A
330
1E
100
AcDbEntity
  8
TEXT
100
AcDbText
 10
235.1296391125315
 20
71.64011943042154
 30
0.0
 40
5.0
  1
Bogen 45°
 41
0.8
  7
GREEKS
100
AcDbText
  0
TEXT
  5
78C
330
1E
100
AcDbEntity
  8
TEXT
 62
     1
100
AcDbText
 10
255.030129115258
 20
129.7422179729062
 30
0.0
 40
7.0
  1
und innenbeschichtet
 41
0.8
  7
GREEKS
100
AcDbText
  0
TEXT
  5
78D
330
1E
100
AcDbEntity
  8
TEXT
 62
     1
100
AcDbText
 10
199.8811895945471
 20
117.1473825875242
 30
0.0
 40
7.0
  1
Dämmung: 2 K-PU-Schaum
 41
0.8
  7
GREEKS
100
AcDbText
  0
TEXT
  5
78E
330
1E
100
AcDbEntity
  8
TEXT
 62
     1
100
AcDbText
 10
207.3756002392443
 20
141.011271812132
 30
0.0
 40
7.0
  1
Innenrohr: E195 EN10305 feuerverzinkt
 41
0.8
  7
GREEKS
100
AcDbText
  0
TEXT
  5
78F
330
1E
100
AcDbEntity
  8
TEXT
 62
     1
100
AcDbText
 10
203.6033828683802
 20
152.364339848487
 30
0.0
 40
7.0
  1
Außenrohr: E195 EN10305 feuerverzinkt
 41
0.8
  7
GREEKS
100
AcDbText
  0
ARC
  5
87D
102
{ACAD_REACTORS
330
D26
330
D51
102
}
330
1E
100
AcDbEntity
  8
STEMPEL
100
AcDbCircle
 10
280.4144461472059
 20
313.2469988954304
 30
0.0
 40
46.5
100
AcDbArc
 50
135.0
 51
180.0
  0
ARC
  5
87E
102
{ACAD_REACTORS
330
D26
330
D51
102
}
330
1E
100
AcDbEntity
  8
STEMPEL
100
AcDbCircle
 10
280.4144461472059
 20
313.2469988954304
 30
0.0
 40
88.49999999999999
100
AcDbArc
 50
135.0000000000002
 51
180.0000000000001
  0
ARC
  5
87F
330
1E
100
AcDbEntity
  8
MITTEL
100
AcDbCircle
 10
280.4144461472059
 20
313.2469988954304
 30
0.0
 40
67.5
100
AcDbArc
 50
135.0
 51
180.0
  0
LINE
  5
886
330
1E
100
AcDbEntity
  8
MITTEL
100
AcDbLine
 10
212.9144461472058
 20
341.206414355614
 30
0.0
 11
212.9144461472059
 21
250.2021071486848
 31
0.0
  0
LINE
  5
89D
330
1E
100
AcDbEntity
  8
MITTEL
100
AcDbLine
 10
277.2642088904096
 20
405.5561770988179
 30
0.0
 11
212.9144461472058
 21
341.206414355614
 31
0.0
  0
LINE
  5
918
102
{ACAD_REACTORS
330
D2F
102
}
330
1E
100
AcDbEntity
  8
STEMPEL
100
AcDbLine
 10
170.0144461472059
 20
280.2021071486848
 30
0.0
 11
168.4144461472061
 21
280.2021071486848
 31
0.0
  0
LINE
  5
919
102
{ACAD_REACTORS
330
D51
102
}
330
1E
100
AcDbEntity
  8
STEMPEL
100
AcDbLine
 10
170.0144461472059
 20
296.2021071486847
 30
0.0
 11
191.9144461472058
 21
296.2021071486847
 31
0.0
  0
LINE
  5
91A
330
1E
100
AcDbEntity
  8
STEMPEL
100
AcDbLine
 10
188.4144461472059
 20
286.2021071486848
 30
0.0
 11
191.9144461472058
 21
286.2021071486848
 31
0.0
  0
LINE
  5
91C
102
{ACAD_REACTORS
330
D2F
102
}
330
1E
100
AcDbEntity
  8
STEMPEL
100
AcDbLine
 10
257.4144461472063
 20
280.202107148685
 30
0.0
 11
255.8144461472058
 21
280.202107148685
 31
0.0
  0
LINE
  5
91D
102
{ACAD_REACTORS
330
D51
102
}
330
1E
100
AcDbEntity
  8
STEMPEL
100
AcDbLine
 10
233.914446147206
 20
296.2021071486847
 30
0.0
 11
255.8144461472058
 21
296.2021071486847
 31
0.0
  0
LINE
  5
91E
330
1E
100
AcDbEntity
  8
STEMPEL
100
AcDbLine
 10
233.914446147206
 20
286.2021071486848
 30
0.0
 11
237.4144461472059
 21
286.2021071486848
 31
0.0
  0
LINE
  5
91F
102
{ACAD_REACTORS
330
D26
330
D51
102
}
330
1E
100
AcDbEntity
  8
STEMPEL
100
AcDbLine
 10
233.9144461472059
 20
313.2469988954304
 30
0.0
 11
233.9144461472059
 21
260.1366157343224
 31
0.0
  0
LINE
  5
920
102
{ACAD_REACTORS
330
D2F
330
D51
102
}
330
1E
100
AcDbEntity
  8
STEMPEL
100
AcDbLine
 10
255.8144461472058
 20
323.4366525298088
 30
0.0
 11
255.8144461472058
 21
280.202107148685
 31
0.0
  0
LINE
  5
921
102
{ACAD_REACTORS
330
D2F
102
}
330
1E
100
AcDbEntity
  8
STEMPEL
100
AcDbLine
 10
257.4144461472058
 20
322.7739108300119
 30
0.0
 11
257.4144461472059
 21
278.202107148685
 31
0.0
  0
LINE
  5
922
102
{ACAD_REACTORS
330
D26
102
}
330
1E
100
AcDbEntity
  8
STEMPEL
100
AcDbLine
 10
232.4144461472057
 20
313.2469988954304
 30
0.0
 11
232.4144461472057
 21
260.2021071486837
 31
0.0
  0
LINE
  5
923
102
{ACAD_REACTORS
330
D2F
330
D51
102
}
330
1E
100
AcDbEntity
  8
STEMPEL
100
AcDbLine
 10
170.0144461472059
 20
358.9761761814205
 30
0.0
 11
170.0144461472059
 21
280.2021071486848
 31
0.0
  0
LINE
  5
924
102
{ACAD_REACTORS
330
D2F
102
}
330
1E
100
AcDbEntity
  8
STEMPEL
100
AcDbLine
 10
168.4144461472058
 20
359.6389178812172
 30
0.0
 11
168.4144461472059
 21
278.2021071486848
 31
0.0
  0
LINE
  5
925
102
{ACAD_REACTORS
330
D26
102
}
330
1E
100
AcDbEntity
  8
STEMPEL
100
AcDbLine
 10
193.4144461472058
 20
313.2469988954302
 30
0.0
 11
193.4144461472059
 21
260.2021071486849
 31
0.0
  0
LINE
  5
926
102
{ACAD_REACTORS
330
D26
330
D51
102
}
330
1E
100
AcDbEntity
  8
STEMPEL
100
AcDbLine
 10
191.9144461472058
 20
313.2469988954302
 30
0.0
 11
191.9144461472059
 21
260.1366157343235
 31
0.0
  0
DIMENSION
  5
927
330
1E
100
AcDbEntity
  8
BEM
100
AcDbDimension
  2
*D1
 10
233.9144461472059
 20
234.8416833569088
 30
0.0
 11
212.9144461472059
 21
241.3416833569088
 31
0.0
 70
    32
  1
%%c<>
 71
     5
 42
42.0
  3
Standard
100
AcDbAlignedDimension
 13
191.9144461472059
 23
260.1366157343235
 33
0.0
 14
233.9144461472059
 24
260.1366157343224
 34
0.0
100
AcDbRotatedDimension
1001
ACAD
1000
DSTYLE
1002
{
1070
    40
1040
2.0
1070
    41
1040
3.5
1070
    42
1040
1.0
1070
    43
1040
7.0
1070
    44
1040
1.0
1070
    73
1070
     0
1070
    74
1070
     0
1070
    77
1070
     1
1070
    78
1070
     8
1070
    79
1070
     2
1070
   140
1040
3.5
1070
   141
1040
1.5
1070
   146
1040
0.5142857142857144
1070
   147
1040
1.5
1070
   172
1070
     1
1070
   178
1070
     1
1070
   179
1070
     2
1070
   271
1070
     2
1070
   272
1070
     2
1070
   284
1070
     8
1070
   285
1070
     8
1070
   286
1070
     8
1070
   289
1070
     0
1070
   340
1005
24
1002
}
  0
LINE
  5
929
330
1E
100
AcDbEntity
  8
HILF
100
AcDbLine
 10
194.920175903521
 20
260.2021071486849
 30
0.0
 11
230.9087163908909
 21
260.2021071486849
 31
0.0
  0
LINE
  5
92A
102
{ACAD_REACTORS
330
D26
102
}
330
1E
100
AcDbEntity
  8
STEMPEL
100
AcDbLine
 10
192.3461597085206
 20
255.2021071486848
 30
0.0
 11
233.4827325858914
 21
255.2021071486848
 31
0.0
  0
LINE
  5
92B
102
{ACAD_REACTORS
330
D26
102
}
330
1E
100
AcDbEntity
  8
STEMPEL
100
AcDbLine
 10
191.9144461472059
 20
260.1366157343235
 30
0.0
 11
192.3461597085206
 21
255.2021071486848
 31
0.0
  0
LINE
  5
92C
102
{ACAD_REACTORS
330
D26
102
}
330
1E
100
AcDbEntity
  8
STEMPEL
100
AcDbLine
 10
193.4144461472059
 20
260.2021071486849
 30
0.0
 11
193.8518894648356
 21
255.2021071486847
 31
0.0
  0
LINE
  5
92D
102
{ACAD_REACTORS
330
D26
102
}
330
1E
100
AcDbEntity
  8
STEMPEL
100
AcDbLine
 10
232.4144461472057
 20
260.2021071486837
 30
0.0
 11
231.9770028295762
 21
255.2021071486847
 31
0.0
  0
LINE
  5
92E
102
{ACAD_REACTORS
330
D26
102
}
330
1E
100
AcDbEntity
  8
STEMPEL
100
AcDbLine
 10
233.9144461472059
 20
260.1366157343224
 30
0.0
 11
233.4827325858914
 21
255.2021071486848
 31
0.0
  0
DIMENSION
  5
AD7
330
1E
100
AcDbEntity
  8
BEM
100
AcDbDimension
  2
*D2
 10
313.8475327238065
 20
379.2069974066127
 30
0.0
 11
286.9774750387175
 21
415.2694432471265
 31
0.0
 70
    32
  1
%%c<>
 71
     5
 42
89.00000000000014
  3
Standard
100
AcDbAlignedDimension
 13
242.2624232216751
 23
433.4868949556868
 33
0.0
 14
305.194926747278
 24
370.5543914300841
 34
0.0
 50
315.0000000000003
100
AcDbRotatedDimension
1001
ACAD
1000
DSTYLE
1002
{
1070
    40
1040
2.0
1070
    41
1040
3.5
1070
    42
1040
1.0
1070
    43
1040
7.0
1070
    44
1040
1.0
1070
    73
1070
     0
1070
    74
1070
     0
1070
    77
1070
     1
1070
    78
1070
     8
1070
    79
1070
     2
1070
   140
1040
3.5
1070
   141
1040
1.5
1070
   146
1040
0.5142857142857144
1070
   147
1040
1.5
1070
   172
1070
     1
1070
   178
1070
     1
1070
   179
1070
     2
1070
   271
1070
     2
1070
   272
1070
     2
1070
   284
1070
     8
1070
   285
1070
     8
1070
   286
1070
     8
1070
   289
1070
     0
1070
   340
1005
24
1002
}
  0
LINE
  5
ADA
102
{ACAD_REACTORS
330
D26
330
D38
330
D60
102
}
330
1E
100
AcDbEntity
  8
STEMPEL
100
AcDbLine
 10
305.194926747278
 20
370.5543914300841
 30
0.0
 11
242.2624232216751
 21
433.4868949556868
 31
0.0
  0
LINE
  5
ADB
330
1E
100
AcDbEntity
  8
HILF
100
AcDbLine
 10
245.2255127198345
 20
403.3966724517228
 30
0.0
 11
275.104704243314
 21
373.5174809282432
 31
0.0
  0
LINE
  5
ADC
330
1E
100
AcDbEntity
  8
HILF
100
AcDbLine
 10
239.5902989845447
 20
396.8710952040333
 30
0.0
 11
268.5791269956246
 21
367.8822671929535
 31
0.0
  0
LINE
  5
ADD
330
1E
100
AcDbEntity
  8
HILF
100
AcDbLine
 10
238.0147931895824
 20
392.1838982709982
 30
0.0
 11
263.8919300625896
 21
366.3067613979911
 31
0.0
  0
LINE
  5
ADE
102
{ACAD_REACTORS
330
D26
102
}
330
1E
100
AcDbEntity
  8
STEMPEL
100
AcDbLine
 10
235.5409817608526
 20
391.4101144355365
 30
0.0
 11
218.8961561839766
 21
374.7652888586608
 31
0.0
  0
LINE
  5
ADF
102
{ACAD_REACTORS
330
D26
330
D51
102
}
330
1E
100
AcDbEntity
  8
STEMPEL
100
AcDbLine
 10
234.4803215890727
 20
392.4707746073165
 30
0.0
 11
217.835496012196
 21
375.8259490304397
 31
0.0
  0
ARC
  5
AE0
102
{ACAD_REACTORS
330
D26
102
}
330
1E
100
AcDbEntity
  8
STEMPEL
100
AcDbCircle
 10
234.8378020192166
 20
411.2130313483104
 30
0.0
 40
11.5
100
AcDbArc
 50
315.0
 51
333.1939705983828
  0
ARC
  5
AE1
102
{ACAD_REACTORS
330
D26
330
D51
102
}
330
1E
100
AcDbEntity
  8
STEMPEL
100
AcDbCircle
 10
234.8378020192166
 20
411.2130313483104
 30
0.0
 40
10.0
100
AcDbArc
 50
315.0
 51
333.1939705983828
  0
ARC
  5
AE2
102
{ACAD_REACTORS
330
D26
330
D51
102
}
330
1E
100
AcDbEntity
  8
STEMPEL
100
AcDbCircle
 10
246.025522036515
 20
394.1164801181471
 30
0.0
 40
10.0
100
AcDbArc
 50
135.0
 51
170.6590876961402
  0
LINE
  5
AE3
102
{ACAD_REACTORS
330
D26
330
D51
102
}
330
1E
100
AcDbEntity
  8
STEMPEL
100
AcDbLine
 10
241.9088698310819
 20
404.1419635364449
 30
0.0
 11
238.9544542246495
 21
401.1875479300124
 31
0.0
  0
ARC
  5
AE4
102
{ACAD_REACTORS
330
D26
330
D51
102
}
330
1E
100
AcDbEntity
  8
STEMPEL
100
AcDbCircle
 10
230.2376809019535
 20
396.7134152944357
 30
0.0
 40
6.0
100
AcDbArc
 50
315.0
 51
350.6590876961402
  0
ARC
  5
AE5
102
{ACAD_REACTORS
330
D26
102
}
330
1E
100
AcDbEntity
  8
STEMPEL
100
AcDbCircle
 10
230.2376809019535
 20
396.7134152944357
 30
0.0
 40
7.5
100
AcDbArc
 50
315.0
 51
350.6590876961402
  0
LINE
  5
AE6
102
{ACAD_REACTORS
330
D26
102
}
330
1E
100
AcDbEntity
  8
STEMPEL
100
AcDbLine
 10
242.9695300028617
 20
403.0813033646651
 30
0.0
 11
240.0151143964292
 21
400.1268877582326
 31
0.0
  0
ARC
  5
AE7
102
{ACAD_REACTORS
330
D26
102
}
330
1E
100
AcDbEntity
  8
STEMPEL
100
AcDbCircle
 10
246.025522036515
 20
394.1164801181471
 30
0.0
 40
8.5
100
AcDbArc
 50
135.0
 51
170.6590876961402
  0
LINE
  5
AE8
102
{ACAD_REACTORS
330
D51
330
D60
102
}
330
1E
100
AcDbEntity
  8
STEMPEL
100
AcDbLine
 10
245.8974593858569
 20
410.0528689182817
 30
0.0
 11
233.4942991349618
 21
422.4560291691767
 31
0.0
  0
ARC
  5
AE9
102
{ACAD_REACTORS
330
D26
102
}
330
1E
100
AcDbEntity
  8
STEMPEL
100
AcDbCircle
 10
262.7386938854919
 20
403.7585841552582
 30
0.0
 40
15.0
100
AcDbArc
 50
110.0000000000079
 51
135.0
  0
ARC
  5
AEA
102
{ACAD_REACTORS
330
D26
102
}
330
1E
100
AcDbEntity
  8
STEMPEL
100
AcDbCircle
 10
261.6138145024075
 20
397.6839573038682
 30
0.0
 40
18.49984481626528
100
AcDbArc
 50
135.0
 51
153.1939705983828
  0
LINE
  5
AEB
102
{ACAD_REACTORS
330
D26
102
}
330
1E
100
AcDbEntity
  8
STEMPEL
100
AcDbLine
 10
252.1320921676935
 20
414.3651858730565
 30
0.0
 11
248.5323390504565
 21
410.7654327558194
 31
0.0
  0
LINE
  5
AEC
102
{ACAD_REACTORS
330
D26
330
D60
102
}
330
1E
100
AcDbEntity
  8
STEMPEL
100
AcDbLine
 10
251.0714319959135
 20
415.425846044836
 30
0.0
 11
247.4716788786765
 21
411.8260929275991
 31
0.0
  0
LINE
  5
AED
102
{ACAD_REACTORS
330
D26
102
}
330
1E
100
AcDbEntity
  8
STEMPEL
100
AcDbLine
 10
248.5324487819275
 20
410.7653230243483
 30
0.0
 11
248.5323390504565
 21
410.7654327558194
 31
0.0
  0
LINE
  5
AEE
102
{ACAD_REACTORS
330
D26
330
D60
102
}
330
1E
100
AcDbEntity
  8
STEMPEL
100
AcDbLine
 10
247.4717886101477
 20
411.825983196128
 30
0.0
 11
247.4716788786765
 21
411.8260929275991
 31
0.0
  0
ARC
  5
AEF
102
{ACAD_REACTORS
330
D26
330
D51
330
D60
102
}
330
1E
100
AcDbEntity
  8
STEMPEL
100
AcDbCircle
 10
261.6138145024075
 20
397.6839573038682
 30
0.0
 40
19.99984481626531
100
AcDbArc
 50
135.0
 51
153.1939705983828
  0
ARC
  5
AF0
102
{ACAD_REACTORS
330
D26
330
D60
102
}
330
1E
100
AcDbEntity
  8
STEMPEL
100
AcDbCircle
 10
262.7386938854919
 20
403.7585841552582
 30
0.0
 40
16.5
100
AcDbArc
 50
111.6407054553644
 51
135.0
  0
LINE
  5
AF1
102
{ACAD_REACTORS
330
D26
102
}
330
1E
100
AcDbEntity
  8
STEMPEL
100
AcDbLine
 10
257.8187724077793
 20
417.9305457695827
 30
0.0
 11
257.6083917356067
 21
417.8539734670468
 31
0.0
  0
LINE
  5
AF2
102
{ACAD_REACTORS
330
D26
330
D51
102
}
330
1E
100
AcDbEntity
  8
STEMPEL
100
AcDbLine
 10
264.1788063989078
 20
362.7722897974815
 30
0.0
 11
247.5339808220312
 21
346.127464220605
 31
0.0
  0
LINE
  5
AF3
102
{ACAD_REACTORS
330
D26
102
}
330
1E
100
AcDbEntity
  8
STEMPEL
100
AcDbLine
 10
263.1181462271278
 20
363.8329499692612
 30
0.0
 11
246.4733206502515
 21
347.188124392385
 31
0.0
  0
ARC
  5
AF4
102
{ACAD_REACTORS
330
D26
330
D51
102
}
330
1E
100
AcDbEntity
  8
STEMPEL
100
AcDbCircle
 10
282.9210631399018
 20
363.1297702276252
 30
0.0
 40
10.0
100
AcDbArc
 50
116.8060294016172
 51
135.0
  0
ARC
  5
AF5
102
{ACAD_REACTORS
330
D26
102
}
330
1E
100
AcDbEntity
  8
STEMPEL
100
AcDbCircle
 10
282.9210631399018
 20
363.1297702276252
 30
0.0
 40
11.5
100
AcDbArc
 50
116.8060294016172
 51
135.0
  0
ARC
  5
AF6
102
{ACAD_REACTORS
330
D26
102
}
330
1E
100
AcDbEntity
  8
STEMPEL
100
AcDbCircle
 10
268.4214470860271
 20
358.529649110362
 30
0.0
 40
7.5
100
AcDbArc
 50
99.3409123038598
 51
135.0
  0
ARC
  5
AF7
102
{ACAD_REACTORS
330
D26
330
D51
102
}
330
1E
100
AcDbEntity
  8
STEMPEL
100
AcDbCircle
 10
268.4214470860271
 20
358.529649110362
 30
0.0
 40
6.0
100
AcDbArc
 50
99.3409123038598
 51
135.0
  0
ARC
  5
AF8
102
{ACAD_REACTORS
330
D26
102
}
330
1E
100
AcDbEntity
  8
STEMPEL
100
AcDbCircle
 10
265.8245119097383
 20
374.3174902449238
 30
0.0
 40
8.5
100
AcDbArc
 50
279.3409123038598
 51
315.0
  0
LINE
  5
AF9
102
{ACAD_REACTORS
330
D26
102
}
330
1E
100
AcDbEntity
  8
STEMPEL
100
AcDbLine
 10
274.7893351562565
 20
371.2614982112705
 30
0.0
 11
271.8349195498239
 21
368.3070826048379
 31
0.0
  0
LINE
  5
AFA
102
{ACAD_REACTORS
330
D26
330
D51
102
}
330
1E
100
AcDbEntity
  8
STEMPEL
100
AcDbLine
 10
275.8499953280364
 20
370.2008380394906
 30
0.0
 11
272.8955797216037
 21
367.246422433058
 31
0.0
  0
ARC
  5
AFB
102
{ACAD_REACTORS
330
D26
330
D51
102
}
330
1E
100
AcDbEntity
  8
STEMPEL
100
AcDbCircle
 10
265.8245119097383
 20
374.3174902449238
 30
0.0
 40
10.0
100
AcDbArc
 50
279.3409123038598
 51
315.0
  0
LINE
  5
AFC
102
{ACAD_REACTORS
330
D51
330
D60
102
}
330
1E
100
AcDbEntity
  8
STEMPEL
100
AcDbLine
 10
294.1640609607679
 20
361.786267343371
 30
0.0
 11
281.7609007098728
 21
374.1894275942659
 31
0.0
  0
LINE
  5
AFD
102
{ACAD_REACTORS
330
D26
330
D60
102
}
330
1E
100
AcDbEntity
  8
STEMPEL
100
AcDbLine
 10
287.1338778364276
 20
379.3634002043222
 30
0.0
 11
283.5341247191907
 21
375.7636470870852
 31
0.0
  0
LINE
  5
AFE
102
{ACAD_REACTORS
330
D26
102
}
330
1E
100
AcDbEntity
  8
STEMPEL
100
AcDbLine
 10
286.0732176646478
 20
380.4240603761022
 30
0.0
 11
282.4734645474107
 21
376.8243072588652
 31
0.0
  0
LINE
  5
AFF
102
{ACAD_REACTORS
330
D26
330
D60
102
}
330
1E
100
AcDbEntity
  8
STEMPEL
100
AcDbLine
 10
283.5340149877194
 20
375.7637568185564
 30
0.0
 11
283.5341247191907
 21
375.7636470870852
 31
0.0
  0
LINE
  5
B00
102
{ACAD_REACTORS
330
D26
102
}
330
1E
100
AcDbEntity
  8
STEMPEL
100
AcDbLine
 10
282.4733548159396
 20
376.8244169903362
 30
0.0
 11
282.4734645474107
 21
376.8243072588652
 31
0.0
  0
ARC
  5
B01
102
{ACAD_REACTORS
330
D26
330
D51
330
D60
102
}
330
1E
100
AcDbEntity
  8
STEMPEL
100
AcDbCircle
 10
269.3919890954596
 20
389.9057827108162
 30
0.0
 40
19.99984481626531
100
AcDbArc
 50
296.8060294016172
 51
315.0
  0
ARC
  5
B02
102
{ACAD_REACTORS
330
D26
102
}
330
1E
100
AcDbEntity
  8
STEMPEL
100
AcDbCircle
 10
269.3919890954596
 20
389.9057827108162
 30
0.0
 40
18.49984481626528
100
AcDbArc
 50
296.8060294016172
 51
315.0
  0
LINE
  5
B03
102
{ACAD_REACTORS
330
D26
102
}
330
1E
100
AcDbEntity
  8
STEMPEL
100
AcDbLine
 10
289.638577561174
 20
386.110740616188
 30
0.0
 11
289.5620052586381
 21
385.9003599440154
 31
0.0
  0
ARC
  5
B04
102
{ACAD_REACTORS
330
D26
330
D60
102
}
330
1E
100
AcDbEntity
  8
STEMPEL
100
AcDbCircle
 10
275.4666159468496
 20
391.0306620939004
 30
0.0
 40
16.5
100
AcDbArc
 50
315.0
 51
338.3592945446356
  0
ARC
  5
B05
102
{ACAD_REACTORS
330
D26
102
}
330
1E
100
AcDbEntity
  8
STEMPEL
100
AcDbCircle
 10
275.4666159468496
 20
391.0306620939004
 30
0.0
 40
15.0
100
AcDbArc
 50
315.0
 51
339.999999999992
  0
TEXT
  5
B06
330
1E
100
AcDbEntity
  8
TEXT
 62
     1
100
AcDbText
 10
230.532164295092
 20
365.2851727554689
 30
0.0
 40
7.0
  1
DN40
 50
45.0
 41
0.8
  7
GREEKS
100
AcDbText
  0
LINE
  5
B08
102
{ACAD_REACTORS
330
D38
330
D51
330
D60
102
}
330
1E
100
AcDbEntity
  8
STEMPEL
100
AcDbLine
 10
243.3937940715736
 20
432.3555241057883
 30
0.0
 11
170.0144461472059
 21
358.9761761814205
 31
0.0
  0
LINE
  5
B09
102
{ACAD_REACTORS
330
D38
102
}
330
1E
100
AcDbEntity
  8
STEMPEL
100
AcDbLine
 10
242.2624232216751
 20
433.4868949556868
 30
0.0
 11
168.4144461472058
 21
359.6389178812172
 31
0.0
  0
LINE
  5
B0A
102
{ACAD_REACTORS
330
D38
330
D51
330
D60
102
}
330
1E
100
AcDbEntity
  8
STEMPEL
100
AcDbLine
 10
304.0635558973795
 20
371.6857622799827
 30
0.0
 11
255.8144461472058
 21
323.4366525298088
 31
0.0
  0
LINE
  5
B0B
102
{ACAD_REACTORS
330
D38
102
}
330
1E
100
AcDbEntity
  8
STEMPEL
100
AcDbLine
 10
305.194926747278
 20
370.5543914300841
 30
0.0
 11
257.4144461472058
 21
322.7739108300119
 31
0.0
  0
ARC
  5
B89
102
{ACAD_REACTORS
330
D26
102
}
330
1E
100
AcDbEntity
  8
STEMPEL
100
AcDbCircle
 10
280.4144461472059
 20
313.2469988954304
 30
0.0
 40
48.0
100
AcDbArc
 50
134.9999999999998
 51
180.0
  0
ARC
  5
B8B
102
{ACAD_REACTORS
330
D26
102
}
330
1E
100
AcDbEntity
  8
STEMPEL
100
AcDbCircle
 10
280.4144461472059
 20
313.2469988954304
 30
0.0
 40
87.0
100
AcDbArc
 50
134.9999999999996
 51
180.0000000000001
  0
LINE
  5
BBB
102
{ACAD_REACTORS
330
D2F
330
D38
102
}
330
1E
100
AcDbEntity
  8
STEMPEL
100
AcDbLine
 10
257.4144461472058
 20
322.7739108300119
 30
0.0
 11
255.8144461472058
 21
323.4366525298089
 31
0.0
  0
LINE
  5
BBC
102
{ACAD_REACTORS
330
D2F
330
D38
102
}
330
1E
100
AcDbEntity
  8
STEMPEL
100
AcDbLine
 10
170.0144461472059
 20
358.9761761814202
 30
0.0
 11
168.4144461472058
 21
359.6389178812172
 31
0.0
  0
ARC
  5
BBE
330
1E
100
AcDbEntity
  8
SCHRAFF
100
AcDbCircle
 10
170.0930813954113
 20
358.943604395133
 30
0.0
 40
3.706584580415583
100
AcDbArc
 50
71.92856430852493
 51
243.0714356914745
  0
ARC
  5
BC0
330
1E
100
AcDbEntity
  8
SCHRAFF
100
AcDbCircle
 10
255.4214972720159
 20
323.5994172832318
 30
0.0
 40
5.220857951446993
100
AcDbArc
 50
292.440774478851
 51
22.55922552114887
  0
HATCH
  5
BC7
330
1E
100
AcDbEntity
  8
SCHRAFF
100
AcDbHatch
 10
0.0
 20
0.0
 30
0.0
210
0.0
220
0.0
230
1.0
  2
_USER
 70
     0
 71
     0
 91
        2
 92
        7
 72
     1
 73
     1
 93
        3
 10
260.242873271952
 20
325.6023379547581
 42
0.0
 10
257.4144461472058
 20
322.7739108300119
 42
0.0
 10
257.4144461472058
 20
318.7739108300119
 42
0.4148192080120729
 97
        0
 92
        7
 72
     1
 73
     1
 93
        3
 10
171.242873271952
 20
362.4673450059634
 42
0.9255472412039353
 10
168.4144461472058
 20
355.6389178812172
 42
0.0
 10
168.4144461472058
 20
359.6389178812172
 42
0.0
 97
        0
 75
     0
 76
     0
 52
0.0
 41
0.1
 77
     0
 78
     1
 53
0.0
 43
-342.1974188180607
 44
20.11503409379634
 45
0.0
 46
0.1
 79
     0
 47
0.1628445196291536
 98
        2
 10
259.3680852482726
 20
322.4634934948963
 10
167.9476947466587
 20
359.5920444781684
  0
DIMENSION
  5
BD6
330
1E
100
AcDbEntity
  8
BEM
100
AcDbDimension
  2
*D3
 10
153.7140566683679
 20
255.2021071486849
 30
0.0
 11
147.2140566683679
 21
267.7021071486849
 31
0.0
 70
    32
 71
     5
 42
25.0
  3
Standard
100
AcDbAlignedDimension
 13
168.4144461472059
 23
280.2021071486848
 33
0.0
 14
192.3461597085206
 24
255.2021071486848
 34
0.0
 50
90.0
100
AcDbRotatedDimension
1001
ACAD
1000
DSTYLE
1002
{
1070
   279
1070
     1
1070
    40
1040
2.0
1070
    41
1040
3.5
1070
    42
1040
1.0
1070
    43
1040
7.0
1070
    44
1040
1.0
1070
    73
1070
     0
1070
    74
1070
     0
1070
    77
1070
     1
1070
    78
1070
     8
1070
    79
1070
     2
1070
   140
1040
3.5
1070
   141
1040
1.5
1070
   146
1040
0.5142857142857144
1070
   147
1040
1.5
1070
   172
1070
     1
1070
   178
1070
     1
1070
   179
1070
     2
1070
   271
1070
     2
1070
   272
1070
     2
1070
   284
1070
     8
1070
   285
1070
     8
1070
   286
1070
     8
1002
}
  0
DIMENSION
  5
BE3
330
1E
100
AcDbEntity
  8
BEM
100
AcDbDimension
  2
*D4
 10
229.10481766539
 20
446.6445005119719
 30
0.0
 11
194.1015091690419
 21
420.8335801710488
 31
0.0
 70
    32
 71
     5
 42
86.00430720692981
 51
314.9999999999999
  3
Standard
100
AcDbAlignedDimension
 13
212.9144461472058
 23
341.206414355614
 33
0.0
 14
242.2624232216751
 24
433.4868949556869
 34
0.0
 50
44.99999999999985
100
AcDbRotatedDimension
1001
ACAD
1000
DSTYLE
1002
{
1070
    40
1040
2.0
1070
    41
1040
3.5
1070
    42
1040
1.0
1070
    43
1040
7.0
1070
    44
1040
1.0
1070
    73
1070
     0
1070
    74
1070
     0
1070
    77
1070
     1
1070
    78
1070
     8
1070
    79
1070
     2
1070
   140
1040
3.5
1070
   141
1040
1.5
1070
   146
1040
0.5142857142857144
1070
   147
1040
1.5
1070
   172
1070
     1
1070
   178
1070
     1
1070
   179
1070
     2
1070
   271
1070
     2
1070
   272
1070
     2
1070
   284
1070
     8
1070
   285
1070
     8
1070
   286
1070
     8
1002
}
  0
HATCH
  5
D26
330
1E
100
AcDbEntity
  8
SCHRAFF
100
AcDbHatch
 10
0.0
 20
0.0
 30
0.0
210
0.0
220
0.0
230
1.0
  2
_USER
 70
     0
 71
     1
 91
        2
 92
        7
 72
     1
 73
     1
 93
       27
 10
232.4144461472056
 20
260.2021071486829
 42
0.0
 10
231.9770028295763
 20
255.2021071486848
 42
0.0
 10
233.4827325858915
 20
255.2021071486849
 42
0.0
 10
233.9144461472059
 20
260.1366157343227
 42
0.0
 10
233.9144461472059
 20
313.2469988954304
 42
-0.1989123673796581
 10
247.5339808220312
 20
346.127464220605
 42
0.0
 10
264.1788063989078
 20
362.7722897974815
 42
-0.1568599726813032
 10
267.447596394919
 20
364.4500895358226
 42
0.1568599726812886
 10
272.8955797216037
 20
367.246422433058
 42
0.0
 10
275.8499953280364
 20
370.2008380394906
 42
-0.0795533624514926
 10
278.4113484639419
 20
372.0551538911678
 42
0.0795533624515037
 10
283.5340149877194
 20
375.7637568185564
 42
0.0
 10
283.5341247191907
 20
375.7636470870852
 42
0.0
 10
287.1338778364276
 20
379.3634002043222
 42
0.1022785704675315
 10
290.8036088154026
 20
384.9457093619595
 42
0.0
 10
289.6385775611739
 20
386.110740616188
 42
0.0
 10
289.5620052586381
 20
385.9003599440154
 42
-0.1095178116832492
 10
286.0732176646474
 20
380.4240603761018
 42
0.0
 10
282.4734645474107
 20
376.8243072588651
 42
0.0
 10
282.4733548159396
 20
376.8244169903362
 42
-0.0795533624514925
 10
277.7348912625488
 20
373.3939614406996
 42
0.0795533624515142
 10
274.7893351562565
 20
371.2614982112705
 42
0.0
 10
271.8349195498239
 20
368.3070826048379
 42
-0.1568599726812999
 10
267.2041337221415
 20
365.9301996421878
 42
0.15685997268128
 10
263.1181462271281
 20
363.8329499692615
 42
0.0
 10
246.4733206502515
 20
347.188124392385
 42
0.1989123673796571
 10
232.4144461472057
 20
313.2469988954309
 42
0.0
 97
       27
330
87D
330
AF2
330
AF7
330
AFB
330
AFA
330
AF4
330
B01
330
AFF
330
AFD
330
B04
330
ADA
330
B03
330
B05
330
AFE
330
B00
330
B02
330
AF5
330
AF9
330
AF8
330
AF6
330
AF3
330
B89
330
922
330
92D
330
92A
330
92E
330
91F
 92
        7
 72
     1
 73
     1
 93
       27
 10
193.4144461472058
 20
313.2469988954302
 42
-0.1989123673796613
 10
218.8961561839766
 20
374.7652888586608
 42
0.0
 10
235.5409817608526
 20
391.4101144355365
 42
0.1568599726812987
 10
237.6382314337791
 20
395.4961019305503
 42
-0.1568599726812973
 10
240.0151143964292
 20
400.1268877582326
 42
0.0
 10
242.9695300028617
 20
403.0813033646651
 42
0.0795533624515098
 10
245.1019932322908
 20
406.0268594709572
 42
-0.0795533624514964
 10
248.5324487819276
 20
410.7653230243482
 42
0.0
 10
248.5323390504565
 20
410.7654327558193
 42
0.0
 10
252.1320921676935
 20
414.3651858730565
 42
-0.1095178116832409
 10
257.6083917356067
 20
417.8539734670468
 42
0.0
 10
257.8187724077793
 20
417.9305457695827
 42
0.0
 10
256.6537411535509
 20
419.0955770238112
 42
0.102278570467522
 10
251.071431995914
 20
415.4258460448366
 42
0.0
 10
247.4716788786765
 20
411.8260929275992
 42
0.0
 10
247.4717886101477
 20
411.825983196128
 42
0.0795533624514983
 10
243.7631856827592
 20
406.7033166723509
 42
-0.0795533624515038
 10
241.9088698310819
 20
404.1419635364449
 42
0.0
 10
238.9544542246495
 20
401.1875479300124
 42
0.1568599726812975
 10
236.158121327414
 20
395.7395646033274
 42
-0.1568599726813005
 10
234.4803215890726
 20
392.4707746073165
 42
0.0
 10
217.835496012196
 20
375.8259490304397
 42
0.1989123673796568
 10
191.9144461472058
 20
313.2469988954306
 42
0.0
 10
191.9144461472059
 20
260.1366157343235
 42
0.0
 10
192.3461597085206
 20
255.2021071486849
 42
0.0
 10
193.8518894648355
 20
255.2021071486848
 42
0.0
 10
193.414446147206
 20
260.2021071486845
 42
0.0
 97
       27
330
B8B
330
ADE
330
AE5
330
AE7
330
AE6
330
AE0
330
AEA
330
AED
330
AEB
330
AE9
330
AF1
330
ADA
330
AF0
330
AEC
330
AEE
330
AEF
330
AE1
330
AE3
330
AE2
330
AE4
330
ADF
330
87E
330
926
330
92B
330
92A
330
92C
330
925
 75
     0
 76
     0
 52
135.0
 41
2.0
 77
     0
 78
     1
 53
135.0
 43
0.0
 44
0.0
 45
-1.414213562373095
 46
-1.414213562373094
 79
     0
 47
0.4395920024999129
 98
        2
 10
233.0412465502222
 20
302.3941463814433
 10
193.0100805337888
 20
311.1859869934149
  0
HATCH
  5
D2F
330
1E
100
AcDbEntity
  8
SCHRAFF
100
AcDbHatch
 10
0.0
 20
0.0
 30
0.0
210
0.0
220
0.0
230
1.0
  2
_USER
 70
     0
 71
     1
 91
        2
 92
        7
 72
     0
 73
     1
 93
        4
 10
257.4144461472058
 20
322.7739108300119
 10
255.8144461472058
 20
323.4366525298089
 10
255.8144461472057
 20
280.202107148685
 10
257.4144461472058
 20
280.202107148685
 97
        4
330
BBB
330
920
330
91C
330
921
 92
        7
 72
     0
 73
     1
 93
        4
 10
170.0144461472059
 20
358.9761761814202
 10
168.4144461472058
 20
359.6389178812172
 10
168.4144461472059
 20
280.2021071486848
 10
170.0144461472059
 20
280.2021071486848
 97
        4
330
BBC
330
924
330
918
330
923
 75
     0
 76
     0
 52
45.0
 41
2.0
 77
     0
 78
     1
 53
45.0
 43
0.0
 44
0.0
 45
-1.414213562373094
 46
1.414213562373095
 79
     0
 47
0.4099404628040324
 98
        2
 10
256.4476770940682
 20
300.2632959342157
 10
169.4788307726976
 20
311.3316879753873
  0
HATCH
  5
D38
330
1E
100
AcDbEntity
  8
SCHRAFF
100
AcDbHatch
 10
0.0
 20
0.0
 30
0.0
210
0.0
220
0.0
230
1.0
  2
_USER
 70
     0
 71
     1
 91
        2
 92
        7
 72
     0
 73
     1
 93
        4
 10
305.194926747278
 20
370.554391430084
 10
304.0635558973794
 20
371.6857622799826
 10
255.8144461472058
 20
323.4366525298089
 10
257.4144461472057
 20
322.7739108300119
 97
        4
330
ADA
330
B0A
330
BBB
330
B0B
 92
        7
 72
     0
 73
     1
 93
        4
 10
243.3937940715736
 20
432.3555241057883
 10
242.2624232216751
 20
433.4868949556868
 10
168.4144461472057
 20
359.6389178812172
 10
170.0144461472057
 20
358.9761761814202
 97
        4
330
ADA
330
B09
330
BBC
330
B08
 75
     0
 76
     0
 52
135.0
 41
2.0
 77
     0
 78
     1
 53
135.0
 43
0.0
 44
0.0
 45
-1.414213562373095
 46
-1.414213562373094
 79
     0
 47
0.4099404628040324
 98
        2
 10
274.4978160772421
 20
341.6672831539981
 10
205.5791060450865
 20
394.9595426849253
  0
HATCH
  5
D51
330
1E
100
AcDbEntity
  8
SCHRAFF
100
AcDbHatch
 10
0.0
 20
0.0
 30
0.0
210
0.0
220
0.0
230
1.0
  2
HONEY
 70
     0
 71
     1
 91
        2
 92
        7
 72
     1
 73
     1
 93
       12
 10
255.8144461472058
 20
323.4366525298088
 42
0.0
 10
294.1640609607678
 20
361.786267343371
 42
0.0
 10
281.7609007098729
 20
374.1894275942657
 42
-0.049769965121168
 10
278.4113484639428
 20
372.0551538911681
 42
0.0795533624515174
 10
275.8499953280363
 20
370.2008380394906
 42
0.0
 10
272.8955797216037
 20
367.246422433058
 42
-0.1568599726812987
 10
267.4475963949185
 20
364.4500895358227
 42
0.1568599726812782
 10
264.1788063989079
 20
362.7722897974817
 42
0.0
 10
247.5339808220312
 20
346.127464220605
 42
0.1989123673796564
 10
233.9144461472059
 20
313.2469988954307
 42
0.0
 10
233.9144461472059
 20
296.2021071486847
 42
0.0
 10
255.8144461472058
 20
296.2021071486847
 42
0.0
 97
       12
330
AFC
330
B01
330
AF4
330
AFA
330
AFB
330
AF7
330
AF2
330
87D
330
91F
330
91D
330
920
330
B0A
 92
        7
 72
     1
 73
     1
 93
       12
 10
217.835496012196
 20
375.8259490304397
 42
0.0
 10
234.4803215890727
 20
392.4707746073165
 42
0.1568599726813045
 10
236.1581213274141
 20
395.7395646033276
 42
-0.1568599726812931
 10
238.9544542246495
 20
401.1875479300124
 42
0.0
 10
241.9088698310819
 20
404.1419635364449
 42
0.0795533624515086
 10
243.7631856827593
 20
406.703316672351
 42
-0.0497699651211729
 10
245.897459385857
 20
410.0528689182816
 42
0.0
 10
233.4942991349618
 20
422.4560291691765
 42
0.0
 10
170.0144461472059
 20
358.9761761814204
 42
0.0
 10
170.0144461472059
 20
296.2021071486847
 42
0.0
 10
191.9144461472059
 20
296.2021071486847
 42
0.0
 10
191.9144461472058
 20
313.2469988954302
 42
-0.198912367379658
 97
       12
330
ADF
330
AE4
330
AE2
330
AE3
330
AE1
330
AEF
330
AE8
330
B08
330
923
330
919
330
926
330
87E
 75
     0
 76
     1
 52
0.0
 41
25.0
 77
     0
 78
     3
 53
0.0
 43
0.0
 44
0.0
 45
4.6875
 46
2.706329374999999
 79
     2
 49
3.125
 49
-6.25
 53
120.0
 43
0.0
 44
0.0
 45
-4.687499989758061
 46
2.706329392739557
 79
     2
 49
3.125
 49
-6.25
 53
60.0
 43
0.0
 44
0.0
 45
0.0000000102419385
 46
5.412658767739556
 79
     2
 49
-6.25
 49
3.125
 47
0.5275352901498051
 98
        2
 10
246.8967884992835
 20
324.1847746543763
 10
184.075688365986
 20
333.6804091553229
  0
HATCH
  5
D60
330
1E
100
AcDbEntity
  8
SCHRAFF
100
AcDbHatch
 10
0.0
 20
0.0
 30
0.0
210
0.0
220
0.0
230
1.0
  2
NET
 70
     0
 71
     1
 91
        2
 92
        7
 72
     1
 73
     1
 93
        7
 10
294.1640609607679
 20
361.786267343371
 42
0.0
 10
304.0635558973794
 20
371.6857622799827
 42
0.0
 10
290.8036088154026
 20
384.9457093619595
 42
-0.1022785704675261
 10
287.1338778364279
 20
379.3634002043225
 42
0.0
 10
283.5341247191906
 20
375.7636470870853
 42
0.0
 10
283.5340149877194
 20
375.7637568185564
 42
-0.0296659389587116
 10
281.760900709873
 20
374.1894275942656
 42
0.0
 97
        7
330
B04
330
AFD
330
AFF
330
B01
330
AFC
330
B0A
330
ADA
 92
        7
 72
     1
 73
     1
 93
        7
 10
251.0714319959135
 20
415.425846044836
 42
-0.1022785704675325
 10
256.6537411535509
 20
419.0955770238111
 42
0.0
 10
243.3937940715737
 20
432.3555241057884
 42
0.0
 10
233.4942991349618
 20
422.4560291691766
 42
0.0
 10
245.897459385857
 20
410.0528689182816
 42
-0.0296659389587107
 10
247.4717886101476
 20
411.825983196128
 42
0.0
 10
247.4716788786764
 20
411.8260929275991
 42
0.0
 97
        7
330
ADA
330
B08
330
AE8
330
AEF
330
AEE
330
AEC
330
AF0
 75
     0
 76
     1
 52
0.0
 41
20.0
 77
     0
 78
     2
 53
0.0
 43
0.0
 44
0.0
 45
0.0
 46
2.5
 79
     0
 53
90.0
 43
0.0
 44
0.0
 45
-2.5
 46
0.0000000000000002
 79
     0
 47
0.5275352901498051
 98
        2
 10
290.1852799985122
 20
372.1904864519406
 10
245.8409719619804
 20
417.5585213772762
  0
DIMENSION
  5
D90
330
1E
100
AcDbEntity
  8
BEM
100
AcDbDimension
  2
*D5
 10
138.2338176134712
 20
255.2021071486849
 30
0.0
 11
131.7338176134712
 21
298.2042607521495
 31
0.0
 70
    32
 71
     5
 42
86.00430720692918
  3
Standard
100
AcDbAlignedDimension
 13
212.9144461472058
 23
341.206414355614
 33
0.0
 14
192.3461597085206
 24
255.2021071486848
 34
0.0
 50
90.0
100
AcDbRotatedDimension
1001
ACAD
1000
DSTYLE
1002
{
1070
    40
1040
2.0
1070
    41
1040
3.5
1070
    42
1040
1.0
1070
    43
1040
7.0
1070
    44
1040
1.0
1070
    73
1070
     0
1070
    74
1070
     0
1070
    77
1070
     1
1070
    78
1070
     8
1070
    79
1070
     2
1070
   140
1040
3.5
1070
   141
1040
1.5
1070
   146
1040
0.5142857142857144
1070
   147
1040
1.5
1070
   172
1070
     1
1070
   178
1070
     1
1070
   179
1070
     2
1070
   271
1070
     2
1070
   272
1070
     2
1070
   284
1070
     8
1070
   285
1070
     8
1070
   286
1070
     8
1002
}
  0
HATCH
  5
DCF
330
1E
100
AcDbEntity
  8
SCHRAFF
100
AcDbHatch
 10
0.0
 20
0.0
 30
0.0
210
0.0
220
0.0
230
1.0
  2
NET
 70
     0
 71
     0
 91
        2
 92
        7
 72
     0
 73
     1
 93
       10
 10
255.8144461472057
 20
296.2021071486847
 10
233.9144461472059
 20
296.2021071486847
 10
233.9144461472059
 20
286.2021071486848
 10
237.4144461472059
 20
286.2021071486849
 10
240.8785477623436
 20
280.2021071486848
 10
251.4144461472059
 20
280.2021071486848
 10
251.4144461472059
 20
278.202107148685
 10
257.4144461472058
 20
278.202107148685
 10
257.4144461472057
 20
280.202107148685
 10
255.8144461472058
 20
280.202107148685
 97
        0
 92
        7
 72
     0
 73
     1
 93
       10
 10
191.9144461472059
 20
296.2021071486847
 10
170.0144461472059
 20
296.2021071486848
 10
170.0144461472059
 20
280.2021071486848
 10
168.4144461472059
 20
280.2021071486848
 10
168.4144461472059
 20
278.2021071486848
 10
174.4144461472059
 20
278.2021071486848
 10
174.4144461472059
 20
280.2021071486848
 10
184.9503445320681
 20
280.2021071486848
 10
188.4144461472059
 20
286.2021071486848
 10
191.9144461472059
 20
286.2021071486848
 97
        0
 75
     0
 76
     1
 52
45.0
 41
20.0
 77
     0
 78
     2
 53
45.0
 43
-12.08555385279402
 44
32.06622547185367
 45
-1.767766952966368
 46
1.767766952966368
 79
     0
 53
135.0
 43
-12.08555385279402
 44
32.06622547185367
 45
-1.767766952966368
 46
-1.767766952966368
 79
     0
 47
0.1322099502765182
 98
        2
 10
249.2869480616327
 20
286.3403777178462
 10
185.5233079403369
 20
289.2489973295495
  0
LINE
  5
DD0
330
1E
100
AcDbEntity
  8
STEMPEL
100
AcDbLine
 10
257.4144461472058
 20
278.202107148685
 30
0.0
 11
233.914446147206
 21
278.2021071486849
 31
0.0
  0
POINT
  5
DD1
330
1E
100
AcDbEntity
  8
STEMPEL
100
AcDbPoint
 10
251.4144461472059
 20
278.2021071486848
 30
0.0
  0
POINT
  5
DD2
330
1E
100
AcDbEntity
  8
STEMPEL
100
AcDbPoint
 10
240.8785477623436
 20
280.2021071486848
 30
0.0
  0
LINE
  5
DD3
330
1E
100
AcDbEntity
  8
STEMPEL
100
AcDbLine
 10
251.4144461472059
 20
280.2021071486848
 30
0.0
 11
233.9144461472059
 21
280.2021071486848
 31
0.0
  0
LINE
  5
DD4
330
1E
100
AcDbEntity
  8
STEMPEL
100
AcDbLine
 10
251.4144461472059
 20
278.2021071486848
 30
0.0
 11
251.4144461472059
 21
280.2021071486848
 31
0.0
  0
LINE
  5
DD5
330
1E
100
AcDbEntity
  8
STEMPEL
100
AcDbLine
 10
237.4144461472059
 20
286.2021071486848
 30
0.0
 11
240.8785477623436
 21
280.2021071486848
 31
0.0
  0
LINE
  5
DD6
330
1E
100
AcDbEntity
  8
STEMPEL
100
AcDbLine
 10
191.914446147206
 20
280.2021071486848
 30
0.0
 11
174.4144461472059
 21
280.2021071486848
 31
0.0
  0
LINE
  5
DD7
330
1E
100
AcDbEntity
  8
STEMPEL
100
AcDbLine
 10
191.9144461472059
 20
278.2021071486849
 30
0.0
 11
168.4144461472059
 21
278.2021071486848
 31
0.0
  0
POINT
  5
DD8
330
1E
100
AcDbEntity
  8
STEMPEL
100
AcDbPoint
 10
175.9144461472059
 20
280.2021071486848
 30
0.0
  0
POINT
  5
DD9
330
1E
100
AcDbEntity
  8
STEMPEL
100
AcDbPoint
 10
175.9144461472059
 20
280.2021071486848
 30
0.0
  0
POINT
  5
DDA
330
1E
100
AcDbEntity
  8
STEMPEL
100
AcDbPoint
 10
175.9144461472059
 20
280.2021071486848
 30
0.0
  0
POINT
  5
DDB
330
1E
100
AcDbEntity
  8
STEMPEL
100
AcDbPoint
 10
179.9144461472059
 20
280.2021071486848
 30
0.0
  0
POINT
  5
DDC
330
1E
100
AcDbEntity
  8
STEMPEL
100
AcDbPoint
 10
174.4144461472059
 20
278.2021071486848
 30
0.0
  0
LINE
  5
DDD
330
1E
100
AcDbEntity
  8
STEMPEL
100
AcDbLine
 10
174.4144461472059
 20
278.2021071486848
 30
0.0
 11
174.4144461472059
 21
280.2021071486848
 31
0.0
  0
LINE
  5
DDE
330
1E
100
AcDbEntity
  8
STEMPEL
100
AcDbLine
 10
188.4144461472059
 20
286.2021071486848
 30
0.0
 11
184.9503445320681
 21
280.2021071486848
 31
0.0
  0
TEXT
  5
DE7
330
1E
100
AcDbEntity
  8
TEXT
100
AcDbText
 10
170.398997108236
 20
63.10765040825732
 30
0.0
 40
4.0
  1
28.09.
 41
0.8
  7
GREEKS
 72
     1
 11
177.4085209177598
 21
63.10765040825732
 31
0.0
100
AcDbText
  0
TEXT
  5
DE8
330
1E
100
AcDbEntity
  8
TEXT
100
AcDbText
 10
148.622109822104
 20
73.14025471151666
 30
0.0
 40
4.0
  1
2007
 41
0.8
  7
GREEKS
100
AcDbText
  0
LINE
  5
E1D
330
1E
100
AcDbEntity
  8
BEM
100
AcDbLine
 10
278.6784224527827
 20
406.9703906611911
 30
0.0
 11
280.7039185337649
 21
408.9958867421732
 31
0.0
  0
LINE
  5
E1E
330
1E
100
AcDbEntity
  8
BEM
100
AcDbLine
 10
212.9144461472058
 20
343.206414355614
 30
0.0
 11
212.9144461472058
 21
427.8025925023348
 31
0.0
  0
ARC
  5
E1F
330
1E
100
AcDbEntity
  8
BEM
100
AcDbCircle
 10
212.9144461472058
 20
341.206414355614
 30
0.0
 40
124.2494719338112
100
AcDbArc
 50
48.22837200731583
 51
86.77162799268437
  0
SOLID
  5
E20
330
1E
100
AcDbEntity
  8
BEM
100
AcDbTrace
 10
296.4862691402426
 20
434.7202805802805
 30
0.0
 11
294.8834847511444
 21
433.024542792028
 31
0.0
 12
300.7720903104511
 22
429.0640585188596
 32
0.0
 13
300.7720903104511
 23
429.0640585188596
 33
0.0
  0
SOLID
  5
E21
330
1E
100
AcDbEntity
  8
BEM
100
AcDbTrace
 10
219.8788043562643
 20
464.0924986530466
 30
0.0
 11
219.9445323351407
 21
466.4249060525455
 31
0.0
 12
212.9144461472057
 22
465.4558862894251
 32
0.0
 13
212.9144461472057
 23
465.4558862894251
 33
0.0
  0
MTEXT
  5
E22
330
1E
100
AcDbEntity
  8
BEM
 62
     1
100
AcDbMText
 10
262.9501028467595
 20
462.0031753619211
 30
0.0
 40
7.0
 41
0.0
 71
     5
 72
     1
  1
\A1;45°
 11
0.9238795325112873
 21
-0.3826834323650885
 31
0.0
 73
     1
 44
1.0
  0
LINE
  5
E23
330
1E
100
AcDbEntity
  8
BEM
100
AcDbLine
 10
212.9144461472058
 20
434.092168233115
 30
0.0
 11
212.9144461472058
 21
467.4558862894252
 31
0.0
  0
LINE
  5
E24
330
1E
100
AcDbEntity
  8
BEM
100
AcDbLine
 10
290.867271412679
 20
419.1592396210875
 30
0.0
 11
302.1863038728242
 21
430.4782720812328
 31
0.0
  0
ENDSEC
  0
SECTION
  2
OBJECTS
  0
DICTIONARY
  5
C
330
0
100
AcDbDictionary
281
     1
  3
ACAD_COLOR
350
DF
  3
ACAD_GROUP
350
D
  3
ACAD_LAYOUT
350
19
  3
ACAD_MATERIAL
350
DE
  3
ACAD_MLINESTYLE
350
16
  3
ACAD_PLOTSETTINGS
350
18
  3
ACAD_PLOTSTYLENAME
350
E
  3
AcDbVariableDictionary
350
25E
  0
DICTIONARY
  5
A0
330
1E
100
AcDbDictionary
280
     1
281
     1
  3
ACAD_LAYOUTSELFREF
360
D4
  0
DICTIONARY
  5
A2
330
1A
100
AcDbDictionary
280
     1
281
     1
  3
ACAD_LAYOUTSELFREF
360
D3
  0
DICTIONARY
  5
DF
102
{ACAD_REACTORS
330
C
102
}
330
C
100
AcDbDictionary
281
     1
  0
DICTIONARY
  5
D
102
{ACAD_REACTORS
330
C
102
}
330
C
100
AcDbDictionary
281
     1
  0
DICTIONARY
  5
19
102
{ACAD_REACTORS
330
C
102
}
330
C
100
AcDbDictionary
281
     1
  3
Layout1
350
1D
  3
Model
350
21
  0
DICTIONARY
  5
DE
102
{ACAD_REACTORS
330
C
102
}
330
C
100
AcDbDictionary
281
     1
  0
DICTIONARY
  5
16
102
{ACAD_REACTORS
330
C
102
}
330
C
100
AcDbDictionary
281
     1
  3
Standard
350
17
  0
DICTIONARY
  5
18
102
{ACAD_REACTORS
330
C
102
}
330
C
100
AcDbDictionary
281
     1
  0
ACDBDICTIONARYWDFLT
  5
E
102
{ACAD_REACTORS
330
C
102
}
330
C
100
AcDbDictionary
281
     1
  3
Normal
350
F
100
AcDbDictionaryWithDefault
340
F
  0
DICTIONARY
  5
25E
102
{ACAD_REACTORS
330
C
102
}
330
C
100
AcDbDictionary
281
     1
  3
DIMASSOC
350
25F
  3
PROJECTNAME
350
260
  0
XRECORD
  5
D4
102
{ACAD_REACTORS
330
A0
102
}
330
A0
100
AcDbXrecord
280
     1
340
1E
  0
XRECORD
  5
D3
102
{ACAD_REACTORS
330
A2
102
}
330
A2
100
AcDbXrecord
280
     1
340
1A
  0
LAYOUT
  5
1D
102
{ACAD_REACTORS
330
19
102
}
330
19
100
AcDbPlotSettings
  1

  2
\\NT_WORK01\HP LaserJet 5000 PCL 6
  4

  6

 40
0.0
 41
0.0
 42
0.0
 43
0.0
 44
0.0
 45
0.0
 46
0.0
 47
0.0
 48
0.0
 49
0.0
140
0.0
141
0.0
142
1.0
143
1.0
 70
   688
 72
     0
 73
     0
 74
     5
  7

 75
    16
147
1.0
 76
     0
 77
     2
 78
   300
148
0.0
149
0.0
100
AcDbLayout
  1
Layout1
 70
     0
 71
     1
 10
0.0
 20
0.0
 11
12.0
 21
9.0
 12
0.0
 22
0.0
 32
0.0
 14
1.000000000000000E+20
 24
1.000000000000000E+20
 34
1.000000000000000E+20
 15
-1.000000000000000E+20
 25
-1.000000000000000E+20
 35
-1.000000000000000E+20
146
0.0
 13
0.0
 23
0.0
 33
0.0
 16
1.0
 26
0.0
 36
0.0
 17
0.0
 27
1.0
 37
0.0
 76
     0
330
1A
  0
LAYOUT
  5
21
102
{ACAD_REACTORS
330
19
102
}
330
19
100
AcDbPlotSettings
  1

  2
RICOH Aficio 2027 PCL 6
  4
A4
  6

 40
5.027083
 41
5.027084999999999
 42
5.027084
 43
5.027069
 44
209.973328
 45
296.925995
 46
0.0
 47
2.06
 48
0.0
 49
0.0
140
0.0
141
0.0
142
1.0
143
2.100849152723284
 70
 11956
 72
     1
 73
     0
 74
     2
  7
monochrome1.ctb
 75
     0
147
0.4759980023809526
 76
     1
 77
     2
 78
   300
148
0.0
149
0.0
100
AcDbLayout
  1
Model
 70
     1
 71
     0
 10
0.0
 20
0.0
 11
12.0
 21
9.0
 12
0.0
 22
0.0
 32
0.0
 14
0.0
 24
0.0
 34
0.0
 15
0.0
 25
0.0
 35
0.0
146
0.0
 13
0.0
 23
0.0
 33
0.0
 16
1.0
 26
0.0
 36
0.0
 17
0.0
 27
1.0
 37
0.0
 76
     0
330
1E
  0
MLINESTYLE
  5
17
102
{ACAD_REACTORS
330
16
102
}
330
16
100
AcDbMlineStyle
  2
STANDARD
 70
     0
  3

 62
   256
 51
90.0
 52
90.0
 71
     2
 49
0.5
 62
   256
  6
BYLAYER
 49
-0.5
 62
   256
  6
BYLAYER
  0
ACDBPLACEHOLDER
  5
F
102
{ACAD_REACTORS
330
E
102
}
330
E
  0
DICTIONARYVAR
  5
25F
102
{ACAD_REACTORS
330
25E
102
}
330
25E
100
DictionaryVariables
280
     0
  1
1
  0
DICTIONARYVAR
  5
260
102
{ACAD_REACTORS
330
25E
102
}
330
25E
100
DictionaryVariables
280
     0
  1

  0
ENDSEC
  0
EOF
