  0
SECTION
  2
HEADER
  9
$ACADVER
  1
AC1018
  9
$ACADMAINTVER
 70
     2
  9
$DWGCODEPAGE
  3
ANSI_1252
  9
$INSBASE
 10
0.0
 20
0.0
 30
0.0
  9
$EXTMIN
 10
-0.0064041928749248
 20
-0.0090573584946014
 30
-0.0000000000112498
  9
$EXTMAX
 10
420.0064100605654
 20
594.0090656570857
 30
0.0000000000002956
  9
$LIMMIN
 10
0.0
 20
0.0
  9
$LIMMAX
 10
419.9999999999999
 20
594.0000000000002
  9
$ORTHOMODE
 70
     0
  9
$REGENMODE
 70
     1
  9
$FILLMODE
 70
     1
  9
$QTEXTMODE
 70
     0
  9
$MIRRTEXT
 70
     1
  9
$LTSCALE
 40
20.0
  9
$ATTMODE
 70
     1
  9
$TEXTSIZE
 40
3.5
  9
$TRACEWID
 40
0.5
  9
$TEXTSTYLE
  7
STANDARD
  9
$CLAYER
  8
BEM
  9
$CELTYPE
  6
ByLayer
  9
$CECOLOR
 62
   256
  9
$CELTSCALE
 40
1.0
  9
$DISPSILH
 70
     0
  9
$DIMSCALE
 40
2.0
  9
$DIMASZ
 40
3.5
  9
$DIMEXO
 40
1.0
  9
$DIMDLI
 40
7.0
  9
$DIMRND
 40
0.0
  9
$DIMDLE
 40
0.0
  9
$DIMEXE
 40
1.0
  9
$DIMTP
 40
0.0
  9
$DIMTM
 40
0.0
  9
$DIMTXT
 40
3.5
  9
$DIMCEN
 40
1.5
  9
$DIMTSZ
 40
0.0
  9
$DIMTOL
 70
     0
  9
$DIMLIM
 70
     0
  9
$DIMTIH
 70
     0
  9
$DIMTOH
 70
     0
  9
$DIMSE1
 70
     0
  9
$DIMSE2
 70
     0
  9
$DIMTAD
 70
     1
  9
$DIMZIN
 70
     8
  9
$DIMBLK
  1

  9
$DIMASO
 70
     1
  9
$DIMSHO
 70
     0
  9
$DIMPOST
  1

  9
$DIMAPOST
  1

  9
$DIMALT
 70
     0
  9
$DIMALTD
 70
     2
  9
$DIMALTF
 40
25.4
  9
$DIMLFAC
 40
1.0
  9
$DIMTOFL
 70
     1
  9
$DIMTVP
 40
0.0
  9
$DIMTIX
 70
     0
  9
$DIMSOXD
 70
     0
  9
$DIMSAH
 70
     0
  9
$DIMBLK1
  1

  9
$DIMBLK2
  1

  9
$DIMSTYLE
  2
Standard
  9
$DIMCLRD
 70
     0
  9
$DIMCLRE
 70
     0
  9
$DIMCLRT
 70
     1
  9
$DIMTFAC
 40
0.5142857142857144
  9
$DIMGAP
 40
1.5
  9
$DIMJUST
 70
     0
  9
$DIMSD1
 70
     0
  9
$DIMSD2
 70
     0
  9
$DIMTOLJ
 70
     1
  9
$DIMTZIN
 70
     8
  9
$DIMALTZ
 70
     8
  9
$DIMALTTZ
 70
     8
  9
$DIMUPT
 70
     0
  9
$DIMDEC
 70
     2
  9
$DIMTDEC
 70
     2
  9
$DIMALTU
 70
     2
  9
$DIMALTTD
 70
     2
  9
$DIMTXSTY
  7
STANDARD
  9
$DIMAUNIT
 70
     0
  9
$DIMADEC
 70
     2
  9
$DIMALTRND
 40
0.0
  9
$DIMAZIN
 70
     2
  9
$DIMDSEP
 70
    46
  9
$DIMATFIT
 70
     3
  9
$DIMFRAC
 70
     0
  9
$DIMLDRBLK
  1

  9
$DIMLUNIT
 70
     2
  9
$DIMLWD
 70
    -2
  9
$DIMLWE
 70
    -2
  9
$DIMTMOVE
 70
     0
  9
$LUNITS
 70
     2
  9
$LUPREC
 70
     2
  9
$SKETCHINC
 40
1.0
  9
$FILLETRAD
 40
0.0
  9
$AUNITS
 70
     0
  9
$AUPREC
 70
     0
  9
$MENU
  1
ACAD
  9
$ELEVATION
 40
0.0
  9
$PELEVATION
 40
0.0
  9
$THICKNESS
 40
0.0
  9
$LIMCHECK
 70
     0
  9
$CHAMFERA
 40
0.0
  9
$CHAMFERB
 40
0.0
  9
$CHAMFERC
 40
0.0
  9
$CHAMFERD
 40
0.0
  9
$SKPOLY
 70
     0
  9
$TDCREATE
 40
2455397.823042361
  9
$TDUCREATE
 40
2455397.781375695
  9
$TDUPDATE
 40
2455532.533373831
  9
$TDUUPDATE
 40
2455532.491707165
  9
$TDINDWG
 40
0.4321943981
  9
$TDUSRTIMER
 40
0.4321943981
  9
$USRTIMER
 70
     1
  9
$ANGBASE
 50
0.0
  9
$ANGDIR
 70
     0
  9
$PDMODE
 70
     0
  9
$PDSIZE
 40
0.0
  9
$PLINEWID
 40
0.0
  9
$SPLFRAME
 70
     0
  9
$SPLINETYPE
 70
     6
  9
$SPLINESEGS
 70
     8
  9
$HANDSEED
  5
2B8A
  9
$SURFTAB1
 70
     6
  9
$SURFTAB2
 70
     6
  9
$SURFTYPE
 70
     6
  9
$SURFU
 70
     6
  9
$SURFV
 70
     6
  9
$UCSBASE
  2

  9
$UCSNAME
  2

  9
$UCSORG
 10
0.0
 20
0.0
 30
0.0
  9
$UCSXDIR
 10
1.0
 20
0.0
 30
0.0
  9
$UCSYDIR
 10
0.0
 20
1.0
 30
0.0
  9
$UCSORTHOREF
  2

  9
$UCSORTHOVIEW
 70
     0
  9
$UCSORGTOP
 10
0.0
 20
0.0
 30
0.0
  9
$UCSORGBOTTOM
 10
0.0
 20
0.0
 30
0.0
  9
$UCSORGLEFT
 10
0.0
 20
0.0
 30
0.0
  9
$UCSORGRIGHT
 10
0.0
 20
0.0
 30
0.0
  9
$UCSORGFRONT
 10
0.0
 20
0.0
 30
0.0
  9
$UCSORGBACK
 10
0.0
 20
0.0
 30
0.0
  9
$PUCSBASE
  2

  9
$PUCSNAME
  2

  9
$PUCSORG
 10
0.0
 20
0.0
 30
0.0
  9
$PUCSXDIR
 10
1.0
 20
0.0
 30
0.0
  9
$PUCSYDIR
 10
0.0
 20
1.0
 30
0.0
  9
$PUCSORTHOREF
  2

  9
$PUCSORTHOVIEW
 70
     0
  9
$PUCSORGTOP
 10
0.0
 20
0.0
 30
0.0
  9
$PUCSORGBOTTOM
 10
0.0
 20
0.0
 30
0.0
  9
$PUCSORGLEFT
 10
0.0
 20
0.0
 30
0.0
  9
$PUCSORGRIGHT
 10
0.0
 20
0.0
 30
0.0
  9
$PUCSORGFRONT
 10
0.0
 20
0.0
 30
0.0
  9
$PUCSORGBACK
 10
0.0
 20
0.0
 30
0.0
  9
$USERI1
 70
     0
  9
$USERI2
 70
     0
  9
$USERI3
 70
     0
  9
$USERI4
 70
     0
  9
$USERI5
 70
     0
  9
$USERR1
 40
0.0
  9
$USERR2
 40
0.0
  9
$USERR3
 40
0.0
  9
$USERR4
 40
0.0
  9
$USERR5
 40
0.0
  9
$WORLDVIEW
 70
     1
  9
$SHADEDGE
 70
     3
  9
$SHADEDIF
 70
    70
  9
$TILEMODE
 70
     1
  9
$MAXACTVP
 70
    16
  9
$PINSBASE
 10
0.0
 20
0.0
 30
0.0
  9
$PLIMCHECK
 70
     0
  9
$PEXTMIN
 10
1.000000000000000E+20
 20
1.000000000000000E+20
 30
1.000000000000000E+20
  9
$PEXTMAX
 10
-1.000000000000000E+20
 20
-1.000000000000000E+20
 30
-1.000000000000000E+20
  9
$PLIMMIN
 10
0.0
 20
0.0
  9
$PLIMMAX
 10
12.0
 20
9.0
  9
$UNITMODE
 70
     0
  9
$VISRETAIN
 70
     0
  9
$PLINEGEN
 70
     0
  9
$PSLTSCALE
 70
     0
  9
$TREEDEPTH
 70
  3020
  9
$CMLSTYLE
  2
Standard
  9
$CMLJUST
 70
     0
  9
$CMLSCALE
 40
1.0
  9
$PROXYGRAPHICS
 70
     1
  9
$MEASUREMENT
 70
     0
  9
$CELWEIGHT
370
    -1
  9
$ENDCAPS
280
     0
  9
$JOINSTYLE
280
     0
  9
$LWDISPLAY
290
     0
  9
$INSUNITS
 70
     0
  9
$HYPERLINKBASE
  1

  9
$STYLESHEET
  1
monochrome 1.ctb
  9
$XEDIT
290
     1
  9
$CEPSNTYPE
380
     0
  9
$PSTYLEMODE
290
     1
  9
$FINGERPRINTGUID
  2
{D68B0D02-A558-11D7-B632-000102183313}
  9
$VERSIONGUID
  2
{F787926B-C68F-45EF-8417-0BFCA8EBD374}
  9
$EXTNAMES
290
     1
  9
$PSVPSCALE
 40
0.0
  9
$OLESTARTUP
290
     0
  9
$SORTENTS
280
   127
  9
$INDEXCTL
280
     0
  9
$HIDETEXT
280
     0
  9
$XCLIPFRAME
290
     0
  9
$HALOGAP
280
     0
  9
$OBSCOLOR
 70
   257
  9
$OBSLTYPE
280
     0
  9
$INTERSECTIONDISPLAY
280
     0
  9
$INTERSECTIONCOLOR
 70
   257
  9
$DIMASSOC
280
     1
  9
$PROJECTNAME
  1

  0
ENDSEC
  0
SECTION
  2
CLASSES
  0
CLASS
  1
ACDBDICTIONARYWDFLT
  2
AcDbDictionaryWithDefault
  3
ObjectDBX Classes
 90
        0
 91
        1
280
     0
281
     0
  0
CLASS
  1
DICTIONARYVAR
  2
AcDbDictionaryVar
  3
ObjectDBX Classes
 90
        0
 91
        2
280
     0
281
     0
  0
ENDSEC
  0
SECTION
  2
TABLES
  0
TABLE
  2
VPORT
  5
8
330
0
100
AcDbSymbolTable
 70
     2
  0
VPORT
  5
2B89
330
8
100
AcDbSymbolTableRecord
100
AcDbViewportTableRecord
  2
*Active
 70
     0
 10
0.0
 20
0.0
 11
1.0
 21
1.0
 12
210.0000029338453
 22
297.0000041492956
 13
0.0
 23
0.0
 14
1.0
 24
1.0
 15
10.0
 25
10.0
 16
0.0
 26
0.0
 36
1.0
 17
0.0
 27
0.0
 37
0.0
 40
598.8150392175905
 41
1.336927223719676
 42
50.0
 43
0.0
 44
0.0
 50
0.0
 51
0.0
 71
     0
 72
  1500
 73
     1
 74
     0
 75
     0
 76
     0
 77
     0
 78
     0
281
     0
 65
     1
110
0.0
120
0.0
130
0.0
111
1.0
121
0.0
131
0.0
112
0.0
122
1.0
132
0.0
 79
     0
146
0.0
  0
ENDTAB
  0
TABLE
  2
LTYPE
  5
5
330
0
100
AcDbSymbolTable
 70
     2
  0
LTYPE
  5
13
330
5
100
AcDbSymbolTableRecord
100
AcDbLinetypeTableRecord
  2
ByBlock
 70
     0
  3

 72
    65
 73
     0
 40
0.0
  0
LTYPE
  5
14
330
5
100
AcDbSymbolTableRecord
100
AcDbLinetypeTableRecord
  2
ByLayer
 70
     0
  3

 72
    65
 73
     0
 40
0.0
  0
LTYPE
  5
15
330
5
100
AcDbSymbolTableRecord
100
AcDbLinetypeTableRecord
  2
Continuous
 70
     0
  3
Solid line
 72
    65
 73
     0
 40
0.0
  0
LTYPE
  5
25
330
5
100
AcDbSymbolTableRecord
100
AcDbLinetypeTableRecord
  2
STRICHPUNKT
 70
     0
  3
__ . __ . __ . __ . __ . __ . __ . __ . __ . __
 72
    65
 73
     4
 40
1.0
 49
0.5
 74
     0
 49
-0.25
 74
     0
 49
0.0
 74
     0
 49
-0.25
 74
     0
  0
ENDTAB
  0
TABLE
  2
LAYER
  5
2
330
0
100
AcDbSymbolTable
 70
     9
  0
LAYER
  5
10
330
2
100
AcDbSymbolTableRecord
100
AcDbLayerTableRecord
  2
0
 70
     0
 62
     7
  6
Continuous
370
    -3
390
F
  0
LAYER
  5
2A
330
2
100
AcDbSymbolTableRecord
100
AcDbLayerTableRecord
  2
VOLL
 70
     0
 62
     1
  6
Continuous
370
    -3
390
F
  0
LAYER
  5
2B
330
2
100
AcDbSymbolTableRecord
100
AcDbLayerTableRecord
  2
HILF
 70
     0
 62
     2
  6
Continuous
370
    -3
390
F
  0
LAYER
  5
2C
330
2
100
AcDbSymbolTableRecord
100
AcDbLayerTableRecord
  2
MITTEL
 70
     0
 62
     2
  6
STRICHPUNKT
370
    -3
390
F
  0
LAYER
  5
2F
330
2
100
AcDbSymbolTableRecord
100
AcDbLayerTableRecord
  2
BEM
 70
     0
 62
     7
  6
Continuous
370
    -3
390
F
  0
LAYER
  5
30
330
2
100
AcDbSymbolTableRecord
100
AcDbLayerTableRecord
  2
STEMPEL
 70
     0
 62
     3
  6
Continuous
370
    -3
390
F
  0
LAYER
  5
31
330
2
100
AcDbSymbolTableRecord
100
AcDbLayerTableRecord
  2
TEXT
 70
     0
 62
     7
  6
Continuous
370
    -3
390
F
  0
LAYER
  5
171
330
2
100
AcDbSymbolTableRecord
100
AcDbLayerTableRecord
  2
Defpoints
 70
     0
 62
     7
  6
Continuous
290
     0
370
    -3
390
F
  0
LAYER
  5
19C
330
2
100
AcDbSymbolTableRecord
100
AcDbLayerTableRecord
  2
SCHRAFF
 70
     0
 62
     7
  6
Continuous
370
    -3
390
F
  0
ENDTAB
  0
TABLE
  2
STYLE
  5
3
330
0
100
AcDbSymbolTable
 70
     2
  0
STYLE
  5
11
330
3
100
AcDbSymbolTableRecord
100
AcDbTextStyleTableRecord
  2
STANDARD
 70
     0
 40
0.0
 41
0.8
 50
0.0
 71
     0
 42
3.5
  3
simplex.shx
  4

  0
STYLE
  5
24
330
3
100
AcDbSymbolTableRecord
100
AcDbTextStyleTableRecord
  2
GREEKS
 70
     0
 40
0.0
 41
0.8
 50
0.0
 71
     0
 42
2.5
  3
SIMPLEX.shx
  4

  0
ENDTAB
  0
TABLE
  2
VIEW
  5
6
330
0
100
AcDbSymbolTable
 70
     0
  0
ENDTAB
  0
TABLE
  2
UCS
  5
7
330
0
100
AcDbSymbolTable
 70
     0
  0
ENDTAB
  0
TABLE
  2
APPID
  5
9
330
0
100
AcDbSymbolTable
 70
     1
  0
APPID
  5
12
330
9
100
AcDbSymbolTableRecord
100
AcDbRegAppTableRecord
  2
ACAD
 70
     0
  0
ENDTAB
  0
TABLE
  2
DIMSTYLE
  5
A
330
0
100
AcDbSymbolTable
 70
     1
100
AcDbDimStyleTable
 71
     1
340
9D
  0
DIMSTYLE
105
9D
102
{ACAD_REACTORS
330
250A
330
2603
330
2612
330
2660
330
2B31
330
2B3E
330
2B54
102
}
330
A
100
AcDbSymbolTableRecord
100
AcDbDimStyleTableRecord
  2
Standard
 70
     0
340
11
  0
ENDTAB
  0
TABLE
  2
BLOCK_RECORD
  5
1
330
0
100
AcDbSymbolTable
 70
     9
  0
BLOCK_RECORD
  5
1E
102
{ACAD_XDICTIONARY
360
A0
102
}
330
1
100
AcDbSymbolTableRecord
100
AcDbBlockTableRecord
  2
*Model_Space
340
21
  0
BLOCK_RECORD
  5
1A
102
{ACAD_XDICTIONARY
360
A2
102
}
330
1
100
AcDbSymbolTableRecord
100
AcDbBlockTableRecord
  2
*Paper_Space
340
1D
  0
BLOCK_RECORD
  5
22
330
1
100
AcDbSymbolTableRecord
100
AcDbBlockTableRecord
  2
LOGO
340
0
102
{BLKREFS
331
9B
102
}
  0
BLOCK_RECORD
  5
2401
330
1
100
AcDbSymbolTableRecord
100
AcDbBlockTableRecord
  2
*X1
340
0
102
{BLKREFS
331
2558
102
}
  0
BLOCK_RECORD
  5
257E
330
1
100
AcDbSymbolTableRecord
100
AcDbBlockTableRecord
  2
*D2
340
0
  0
BLOCK_RECORD
  5
261F
330
1
100
AcDbSymbolTableRecord
100
AcDbBlockTableRecord
  2
*D3
340
0
  0
BLOCK_RECORD
  5
262B
330
1
100
AcDbSymbolTableRecord
100
AcDbBlockTableRecord
  2
*D4
340
0
  0
BLOCK_RECORD
  5
26AD
330
1
100
AcDbSymbolTableRecord
100
AcDbBlockTableRecord
  2
*D5
340
0
  0
BLOCK_RECORD
  5
2B32
330
1
100
AcDbSymbolTableRecord
100
AcDbBlockTableRecord
  2
*D6
340
0
  0
BLOCK_RECORD
  5
2B3F
330
1
100
AcDbSymbolTableRecord
100
AcDbBlockTableRecord
  2
*D7
340
0
  0
BLOCK_RECORD
  5
2B55
330
1
100
AcDbSymbolTableRecord
100
AcDbBlockTableRecord
  2
*D8
340
0
  0
ENDTAB
  0
ENDSEC
  0
SECTION
  2
BLOCKS
  0
BLOCK
  5
35
330
1E
100
AcDbEntity
  8
0
100
AcDbBlockBegin
  2
*Model_Space
 70
     0
 10
0.0
 20
0.0
 30
0.0
  3
*Model_Space
  1

  0
ENDBLK
  5
36
330
1E
100
AcDbEntity
  8
0
100
AcDbBlockEnd
  0
BLOCK
  5
33
330
1A
100
AcDbEntity
 67
     1
  8
0
100
AcDbBlockBegin
  2
*Paper_Space
 70
     0
 10
0.0
 20
0.0
 30
0.0
  3
*Paper_Space
  1

  0
ENDBLK
  5
34
330
1A
100
AcDbEntity
 67
     1
  8
0
100
AcDbBlockEnd
  0
BLOCK
  5
37
330
22
100
AcDbEntity
  8
0
100
AcDbBlockBegin
  2
LOGO
 70
     0
 10
0.0
 20
0.0
 30
0.0
  3
LOGO
  1

  0
ARC
  5
38
330
22
100
AcDbEntity
  8
0
100
AcDbCircle
 10
11.59973089678112
 20
-9.271599258481501
 30
0.0
 40
4.5
100
AcDbArc
 50
270.0
 51
231.0575587310159
  0
LINE
  5
39
330
22
100
AcDbEntity
  8
0
100
AcDbLine
 10
3.599730896781125
 20
-4.771599258481529
 30
0.0
 11
3.599730896781153
 21
-11.77159925848133
 31
0.0
  0
LINE
  5
3A
330
22
100
AcDbEntity
  8
0
100
AcDbLine
 10
2.599730896781125
 20
-4.771599258481529
 30
0.0
 11
2.599730896781153
 21
-11.77159925848133
 31
0.0
  0
CIRCLE
  5
3B
330
22
100
AcDbEntity
  8
0
100
AcDbCircle
 10
11.59973089678112
 20
-9.271599258481501
 30
0.0
 40
3.5
  0
ARC
  5
3C
330
22
100
AcDbEntity
  8
0
100
AcDbCircle
 10
31.59973089678115
 20
-9.271599258481472
 30
0.0
 40
4.5
100
AcDbArc
 50
270.0
 51
231.0575587310182
  0
LINE
  5
3D
330
22
100
AcDbEntity
  8
0
100
AcDbLine
 10
17.59973089678112
 20
-4.771599258481472
 30
0.0
 11
17.59973089678115
 21
-13.77159925848147
 31
0.0
  0
ARC
  5
3E
330
22
100
AcDbEntity
  8
0
100
AcDbCircle
 10
22.59973089678116
 20
-7.271599258481472
 30
0.0
 40
2.5
100
AcDbArc
 50
293.1161887722295
 51
90.0
  0
CIRCLE
  5
3F
330
22
100
AcDbEntity
  8
0
100
AcDbCircle
 10
31.59973089678115
 20
-9.271599258481472
 30
0.0
 40
3.5
  0
ARC
  5
40
330
22
100
AcDbEntity
  8
0
100
AcDbCircle
 10
4.599730896781153
 20
-11.77159925848133
 30
0.0
 40
1.0
100
AcDbArc
 50
180.0
 51
270.0
  0
ARC
  5
41
330
22
100
AcDbEntity
  8
0
100
AcDbCircle
 10
4.599730896781153
 20
-11.77159925848133
 30
0.0
 40
2.0
100
AcDbArc
 50
179.9999999999992
 51
270.0
  0
LINE
  5
42
330
22
100
AcDbEntity
  8
0
100
AcDbLine
 10
11.59973089678115
 20
-13.77159925848144
 30
0.0
 11
4.599730896781153
 21
-13.77159925848147
 31
0.0
  0
LINE
  5
43
330
22
100
AcDbEntity
  8
0
100
AcDbLine
 10
8.771303772034769
 20
-12.77159925848136
 30
0.0
 11
4.599730896781153
 21
-12.77159925848133
 31
0.0
  0
LINE
  5
44
330
22
100
AcDbEntity
  8
0
100
AcDbLine
 10
31.59973089678115
 20
-13.77159925848147
 30
0.0
 11
23.6715276665056
 21
-13.77159925848144
 31
0.0
  0
LINE
  5
45
330
22
100
AcDbEntity
  8
0
100
AcDbLine
 10
23.56565672307022
 20
-9.51278021337896
 30
0.0
 11
24.4388546544846
 21
-12.77159925848144
 31
0.0
  0
LINE
  5
46
330
22
100
AcDbEntity
  8
0
100
AcDbLine
 10
22.59973089678116
 20
-9.771599258481472
 30
0.0
 11
18.59973089678112
 21
-9.771599258481472
 31
0.0
  0
LINE
  5
47
330
22
100
AcDbEntity
  8
0
100
AcDbLine
 10
18.59973089678115
 20
-13.77159925848144
 30
0.0
 11
17.59973089678115
 21
-13.77159925848144
 31
0.0
  0
LINE
  5
48
330
22
100
AcDbEntity
  8
0
100
AcDbLine
 10
18.59973089678115
 20
-9.771599258481472
 30
0.0
 11
18.59973089678115
 21
-13.77159925848144
 31
0.0
  0
LINE
  5
49
330
22
100
AcDbEntity
  8
0
100
AcDbLine
 10
22.59973089678116
 20
-9.771599258481472
 30
0.0
 11
23.67152766650562
 21
-13.77159925848147
 31
0.0
  0
ARC
  5
4A
330
22
100
AcDbEntity
  8
0
100
AcDbCircle
 10
22.59973089678116
 20
-7.271599258481472
 30
0.0
 40
2.5
100
AcDbArc
 50
270.0
 51
270.0000000000007
  0
LINE
  5
4B
330
22
100
AcDbEntity
  8
0
100
AcDbLine
 10
28.77130377203494
 20
-12.77159925848147
 30
0.0
 11
24.43885465448463
 21
-12.77159925848144
 31
0.0
  0
LINE
  5
4C
330
22
100
AcDbEntity
  8
0
100
AcDbLine
 10
3.599730896781125
 20
-4.771599258481472
 30
0.0
 11
2.599730896781125
 21
-4.771599258481472
 31
0.0
  0
LINE
  5
4D
330
22
100
AcDbEntity
  8
0
100
AcDbLine
 10
22.59973089678116
 20
-8.771599258481472
 30
0.0
 11
18.59973089678115
 21
-8.771599258481472
 31
0.0
  0
LINE
  5
4E
330
22
100
AcDbEntity
  8
0
100
AcDbLine
 10
22.59973089678116
 20
-5.771599258481472
 30
0.0
 11
18.59973089678115
 21
-5.771599258481472
 31
0.0
  0
LINE
  5
4F
330
22
100
AcDbEntity
  8
0
100
AcDbLine
 10
22.59973089678116
 20
-4.771599258481472
 30
0.0
 11
17.59973089678115
 21
-4.771599258481472
 31
0.0
  0
LINE
  5
50
330
22
100
AcDbEntity
  8
0
100
AcDbLine
 10
18.59973089678115
 20
-5.771599258481472
 30
0.0
 11
18.59973089678115
 21
-8.771599258481472
 31
0.0
  0
ARC
  5
51
330
22
100
AcDbEntity
  8
0
100
AcDbCircle
 10
22.59973089678116
 20
-7.271599258481472
 30
0.0
 40
1.5
100
AcDbArc
 50
270.0
 51
90.0
  0
ENDBLK
  5
52
330
22
100
AcDbEntity
  8
0
100
AcDbBlockEnd
  0
BLOCK
  5
2402
330
2401
100
AcDbEntity
  8
0
100
AcDbBlockBegin
  2
*X1
 70
     1
 10
0.0
 20
0.0
 30
0.0
  3
*X1
  1

  0
LINE
  5
2403
330
2401
100
AcDbEntity
  8
0
 62
     0
100
AcDbLine
 10
137.3657200036454
 20
393.9
 30
0.0
 11
137.4039930109954
 21
393.9
 31
0.0
  0
LINE
  5
2404
330
2401
100
AcDbEntity
  8
0
 62
     0
100
AcDbLine
 10
137.3241365762884
 20
394.0
 30
0.0
 11
137.4954350265017
 21
394.0
 31
0.0
  0
LINE
  5
2405
330
2401
100
AcDbEntity
  8
0
 62
     0
100
AcDbLine
 10
137.2863905070698
 20
394.1
 30
0.0
 11
137.5870362149941
 21
394.1
 31
0.0
  0
LINE
  5
2406
330
2401
100
AcDbEntity
  8
0
 62
     0
100
AcDbLine
 10
137.2523411075647
 20
394.2000000000001
 30
0.0
 11
137.6787969559582
 21
394.2000000000001
 31
0.0
  0
LINE
  5
2407
330
2401
100
AcDbEntity
  8
0
 62
     0
100
AcDbLine
 10
137.2218673154197
 20
394.3
 30
0.0
 11
137.7707176307512
 21
394.3
 31
0.0
  0
LINE
  5
2408
330
2401
100
AcDbEntity
  8
0
 62
     0
100
AcDbLine
 10
137.1948652294121
 20
394.4
 30
0.0
 11
137.8627986226145
 21
394.4
 31
0.0
  0
LINE
  5
2409
330
2401
100
AcDbEntity
  8
0
 62
     0
100
AcDbLine
 10
137.1712461267202
 20
394.5
 30
0.0
 11
137.9550403166865
 21
394.5
 31
0.0
  0
LINE
  5
240A
330
2401
100
AcDbEntity
  8
0
 62
     0
100
AcDbLine
 10
137.1509348652325
 20
394.6
 30
0.0
 11
138.0474431000157
 21
394.6
 31
0.0
  0
LINE
  5
240B
330
2401
100
AcDbEntity
  8
0
 62
     0
100
AcDbLine
 10
137.1338685980773
 20
394.7
 30
0.0
 11
138.1400073615735
 21
394.7
 31
0.0
  0
LINE
  5
240C
330
2401
100
AcDbEntity
  8
0
 62
     0
100
AcDbLine
 10
137.1199957454963
 20
394.8
 30
0.0
 11
138.232733492268
 21
394.8
 31
0.0
  0
LINE
  5
240D
330
2401
100
AcDbEntity
  8
0
 62
     0
100
AcDbLine
 10
137.1092751826579
 20
394.9
 30
0.0
 11
138.3256218849567
 21
394.9
 31
0.0
  0
LINE
  5
240E
330
2401
100
AcDbEntity
  8
0
 62
     0
100
AcDbLine
 10
137.1016756123215
 20
395.0
 30
0.0
 11
138.4186729344603
 21
395.0
 31
0.0
  0
LINE
  5
240F
330
2401
100
AcDbEntity
  8
0
 62
     0
100
AcDbLine
 10
137.0971750993414
 20
395.1
 30
0.0
 11
138.5118870375763
 21
395.1
 31
0.0
  0
LINE
  5
2410
330
2401
100
AcDbEntity
  8
0
 62
     0
100
AcDbLine
 10
137.0957607505252
 20
395.2
 30
0.0
 11
138.6052645930926
 21
395.2
 31
0.0
  0
LINE
  5
2411
330
2401
100
AcDbEntity
  8
0
 62
     0
100
AcDbLine
 10
137.0974285287958
 20
395.3
 30
0.0
 11
138.698806001801
 21
395.3
 31
0.0
  0
LINE
  5
2412
330
2401
100
AcDbEntity
  8
0
 62
     0
100
AcDbLine
 10
137.1021831953575
 20
395.4
 30
0.0
 11
138.792511666512
 21
395.4
 31
0.0
  0
LINE
  5
2413
330
2401
100
AcDbEntity
  8
0
 62
     0
100
AcDbLine
 10
137.1100383779218
 20
395.5
 30
0.0
 11
138.8863819920678
 21
395.5
 31
0.0
  0
LINE
  5
2414
330
2401
100
AcDbEntity
  8
0
 62
     0
100
AcDbLine
 10
137.1210167672863
 20
395.6
 30
0.0
 11
138.9804173853574
 21
395.6
 31
0.0
  0
LINE
  5
2415
330
2401
100
AcDbEntity
  8
0
 62
     0
100
AcDbLine
 10
137.1351504489406
 20
395.7000000000001
 30
0.0
 11
139.0746182553305
 21
395.7000000000001
 31
0.0
  0
LINE
  5
2416
330
2401
100
AcDbEntity
  8
0
 62
     0
100
AcDbLine
 10
137.1524813811634
 20
395.8
 30
0.0
 11
139.1689850130117
 21
395.8
 31
0.0
  0
LINE
  5
2417
330
2401
100
AcDbEntity
  8
0
 62
     0
100
AcDbLine
 10
137.1730620365884
 20
395.9000000000001
 30
0.0
 11
139.2635180715158
 21
395.9000000000001
 31
0.0
  0
LINE
  5
2418
330
2401
100
AcDbEntity
  8
0
 62
     0
100
AcDbLine
 10
137.196956230846
 20
396.0
 30
0.0
 11
139.3582178460619
 21
396.0
 31
0.0
  0
LINE
  5
2419
330
2401
100
AcDbEntity
  8
0
 62
     0
100
AcDbLine
 10
137.2242401701228
 20
396.1
 30
0.0
 11
139.4530847539885
 21
396.1
 31
0.0
  0
LINE
  5
241A
330
2401
100
AcDbEntity
  8
0
 62
     0
100
AcDbLine
 10
137.2550037600181
 20
396.2000000000001
 30
0.0
 11
139.5481192147686
 21
396.2000000000001
 31
0.0
  0
LINE
  5
241B
330
2401
100
AcDbEntity
  8
0
 62
     0
100
AcDbLine
 10
137.2893522318564
 20
396.3
 30
0.0
 11
139.6433216500245
 21
396.3
 31
0.0
  0
LINE
  5
241C
330
2401
100
AcDbEntity
  8
0
 62
     0
100
AcDbLine
 10
137.3274081610049
 20
396.4
 30
0.0
 11
139.7386924835436
 21
396.4
 31
0.0
  0
LINE
  5
241D
330
2401
100
AcDbEntity
  8
0
 62
     0
100
AcDbLine
 10
137.3693139767336
 20
396.5
 30
0.0
 11
139.8342321412929
 21
396.5
 31
0.0
  0
LINE
  5
241E
330
2401
100
AcDbEntity
  8
0
 62
     0
100
AcDbLine
 10
137.4152350977059
 20
396.6
 30
0.0
 11
139.9299410514358
 21
396.6
 31
0.0
  0
LINE
  5
241F
330
2401
100
AcDbEntity
  8
0
 62
     0
100
AcDbLine
 10
137.4653638758039
 20
396.7
 30
0.0
 11
140.0258196443467
 21
396.7
 31
0.0
  0
LINE
  5
2420
330
2401
100
AcDbEntity
  8
0
 62
     0
100
AcDbLine
 10
137.5199246006657
 20
396.8
 30
0.0
 11
140.1218683526275
 21
396.8
 31
0.0
  0
LINE
  5
2421
330
2401
100
AcDbEntity
  8
0
 62
     0
100
AcDbLine
 10
137.5791799191297
 20
396.9
 30
0.0
 11
140.2180876111233
 21
396.9
 31
0.0
  0
LINE
  5
2422
330
2401
100
AcDbEntity
  8
0
 62
     0
100
AcDbLine
 10
137.6434391758056
 20
397.0
 30
0.0
 11
140.3144778569385
 21
397.0
 31
0.0
  0
LINE
  5
2423
330
2401
100
AcDbEntity
  8
0
 62
     0
100
AcDbLine
 10
137.7130694133755
 20
397.1
 30
0.0
 11
140.4110395294535
 21
397.1
 31
0.0
  0
LINE
  5
2424
330
2401
100
AcDbEntity
  8
0
 62
     0
100
AcDbLine
 10
137.7885101359912
 20
397.2
 30
0.0
 11
140.5077730703406
 21
397.2
 31
0.0
  0
LINE
  5
2425
330
2401
100
AcDbEntity
  8
0
 62
     0
100
AcDbLine
 10
137.8702935290336
 20
397.3
 30
0.0
 11
140.6046789235809
 21
397.3
 31
0.0
  0
LINE
  5
2426
330
2401
100
AcDbEntity
  8
0
 62
     0
100
AcDbLine
 10
137.9590728156377
 20
397.4000000000001
 30
0.0
 11
140.7017575354811
 21
397.4000000000001
 31
0.0
  0
LINE
  5
2427
330
2401
100
AcDbEntity
  8
0
 62
     0
100
AcDbLine
 10
138.0556631487676
 20
397.5
 30
0.0
 11
140.7990093546902
 21
397.5
 31
0.0
  0
LINE
  5
2428
330
2401
100
AcDbEntity
  8
0
 62
     0
100
AcDbLine
 10
138.1611025704244
 20
397.6
 30
0.0
 11
140.896434832217
 21
397.6
 31
0.0
  0
LINE
  5
2429
330
2401
100
AcDbEntity
  8
0
 62
     0
100
AcDbLine
 10
138.2767466036951
 20
397.7000000000001
 30
0.0
 11
140.9940344214465
 21
397.7000000000001
 31
0.0
  0
LINE
  5
242A
330
2401
100
AcDbEntity
  8
0
 62
     0
100
AcDbLine
 10
138.4044224660855
 20
397.8
 30
0.0
 11
141.0918085781583
 21
397.8
 31
0.0
  0
LINE
  5
242B
330
2401
100
AcDbEntity
  8
0
 62
     0
100
AcDbLine
 10
138.5466966707664
 20
397.9
 30
0.0
 11
141.1897577605435
 21
397.9
 31
0.0
  0
LINE
  5
242C
330
2401
100
AcDbEntity
  8
0
 62
     0
100
AcDbLine
 10
138.707378827545
 20
398.0
 30
0.0
 11
141.2878824292227
 21
398.0
 31
0.0
  0
LINE
  5
242D
330
2401
100
AcDbEntity
  8
0
 62
     0
100
AcDbLine
 10
138.8925821604941
 20
398.1
 30
0.0
 11
141.3861830472639
 21
398.1
 31
0.0
  0
LINE
  5
242E
330
2401
100
AcDbEntity
  8
0
 62
     0
100
AcDbLine
 10
139.1133543553141
 20
398.2000000000001
 30
0.0
 11
141.4846600802002
 21
398.2000000000001
 31
0.0
  0
LINE
  5
242F
330
2401
100
AcDbEntity
  8
0
 62
     0
100
AcDbLine
 10
139.3942585794022
 20
398.3
 30
0.0
 11
141.287839495477
 21
398.3
 31
0.0
  0
LINE
  5
2430
330
2401
100
AcDbEntity
  8
0
 62
     0
100
AcDbLine
 10
139.8256946832893
 20
398.4
 30
0.0
 11
140.8564033915899
 21
398.4
 31
0.0
  0
LINE
  5
2431
330
2401
100
AcDbEntity
  8
0
 62
     0
100
AcDbLine
 10
238.0280282574957
 20
306.5
 30
0.0
 11
238.1174552325116
 21
306.5
 31
0.0
  0
LINE
  5
2432
330
2401
100
AcDbEntity
  8
0
 62
     0
100
AcDbLine
 10
237.9071019057846
 20
306.4
 30
0.0
 11
238.1410708539121
 21
306.4
 31
0.0
  0
LINE
  5
2433
330
2401
100
AcDbEntity
  8
0
 62
     0
100
AcDbLine
 10
237.7878001505248
 20
306.3
 30
0.0
 11
238.1616286385443
 21
306.3
 31
0.0
  0
LINE
  5
2434
330
2401
100
AcDbEntity
  8
0
 62
     0
100
AcDbLine
 10
237.670084922095
 20
306.2
 30
0.0
 11
238.1791829551469
 21
306.2
 31
0.0
  0
LINE
  5
2435
330
2401
100
AcDbEntity
  8
0
 62
     0
100
AcDbLine
 10
237.5539198142703
 20
306.1
 30
0.0
 11
238.1937792126568
 21
306.1
 31
0.0
  0
LINE
  5
2436
330
2401
100
AcDbEntity
  8
0
 62
     0
100
AcDbLine
 10
237.4392699842303
 20
306.0
 30
0.0
 11
238.2054544730869
 21
306.0
 31
0.0
  0
LINE
  5
2437
330
2401
100
AcDbEntity
  8
0
 62
     0
100
AcDbLine
 10
237.3261020602019
 20
305.9000000000001
 30
0.0
 11
238.2142379367671
 21
305.9000000000001
 31
0.0
  0
LINE
  5
2438
330
2401
100
AcDbEntity
  8
0
 62
     0
100
AcDbLine
 10
237.2143840560358
 20
305.8
 30
0.0
 11
238.2201513152462
 21
305.8
 31
0.0
  0
LINE
  5
2439
330
2401
100
AcDbEntity
  8
0
 62
     0
100
AcDbLine
 10
237.1040852920909
 20
305.7
 30
0.0
 11
238.2232091032182
 21
305.7
 31
0.0
  0
LINE
  5
243A
330
2401
100
AcDbEntity
  8
0
 62
     0
100
AcDbLine
 10
236.9951763218641
 20
305.6
 30
0.0
 11
238.2234187575349
 21
305.6
 31
0.0
  0
LINE
  5
243B
330
2401
100
AcDbEntity
  8
0
 62
     0
100
AcDbLine
 10
236.8876288638635
 20
305.5
 30
0.0
 11
238.2207807885158
 21
305.5
 31
0.0
  0
LINE
  5
243C
330
2401
100
AcDbEntity
  8
0
 62
     0
100
AcDbLine
 10
236.7814157382739
 20
305.4
 30
0.0
 11
238.2152887661776
 21
305.4
 31
0.0
  0
LINE
  5
243D
330
2401
100
AcDbEntity
  8
0
 62
     0
100
AcDbLine
 10
236.6765108080076
 20
305.3
 30
0.0
 11
238.2069292415616
 21
305.3
 31
0.0
  0
LINE
  5
243E
330
2401
100
AcDbEntity
  8
0
 62
     0
100
AcDbLine
 10
236.5728889237741
 20
305.2
 30
0.0
 11
238.1956815809013
 21
305.2
 31
0.0
  0
LINE
  5
243F
330
2401
100
AcDbEntity
  8
0
 62
     0
100
AcDbLine
 10
236.4705258728403
 20
305.1
 30
0.0
 11
238.1815177078166
 21
305.1
 31
0.0
  0
LINE
  5
2440
330
2401
100
AcDbEntity
  8
0
 62
     0
100
AcDbLine
 10
236.3693983311784
 20
305.0
 30
0.0
 11
238.1644017459128
 21
305.0
 31
0.0
  0
LINE
  5
2441
330
2401
100
AcDbEntity
  8
0
 62
     0
100
AcDbLine
 10
236.2694838187362
 20
304.9
 30
0.0
 11
238.1442895509445
 21
304.9
 31
0.0
  0
LINE
  5
2442
330
2401
100
AcDbEntity
  8
0
 62
     0
100
AcDbLine
 10
236.1707606575786
 20
304.8
 30
0.0
 11
238.1211281178745
 21
304.8
 31
0.0
  0
LINE
  5
2443
330
2401
100
AcDbEntity
  8
0
 62
     0
100
AcDbLine
 10
236.0732079326832
 20
304.7
 30
0.0
 11
238.094854843483
 21
304.7
 31
0.0
  0
LINE
  5
2444
330
2401
100
AcDbEntity
  8
0
 62
     0
100
AcDbLine
 10
235.9768054551818
 20
304.6
 30
0.0
 11
238.0653966193207
 21
304.6
 31
0.0
  0
LINE
  5
2445
330
2401
100
AcDbEntity
  8
0
 62
     0
100
AcDbLine
 10
235.8815337278676
 20
304.5
 30
0.0
 11
238.0326687223121
 21
304.5
 31
0.0
  0
LINE
  5
2446
330
2401
100
AcDbEntity
  8
0
 62
     0
100
AcDbLine
 10
235.787373912797
 20
304.4
 30
0.0
 11
237.9965734605816
 21
304.4
 31
0.0
  0
LINE
  5
2447
330
2401
100
AcDbEntity
  8
0
 62
     0
100
AcDbLine
 10
235.6943078008337
 20
304.3
 30
0.0
 11
237.956998519227
 21
304.3
 31
0.0
  0
LINE
  5
2448
330
2401
100
AcDbEntity
  8
0
 62
     0
100
AcDbLine
 10
235.6023177829935
 20
304.2
 30
0.0
 11
237.9138149335366
 21
304.2
 31
0.0
  0
LINE
  5
2449
330
2401
100
AcDbEntity
  8
0
 62
     0
100
AcDbLine
 10
235.5113868234618
 20
304.1
 30
0.0
 11
237.8668745937218
 21
304.1
 31
0.0
  0
LINE
  5
244A
330
2401
100
AcDbEntity
  8
0
 62
     0
100
AcDbLine
 10
235.4214984341658
 20
304.0
 30
0.0
 11
237.8160071528806
 21
304.0
 31
0.0
  0
LINE
  5
244B
330
2401
100
AcDbEntity
  8
0
 62
     0
100
AcDbLine
 10
235.3326366507926
 20
303.9000000000001
 30
0.0
 11
237.7610161645091
 21
303.9000000000001
 31
0.0
  0
LINE
  5
244C
330
2401
100
AcDbEntity
  8
0
 62
     0
100
AcDbLine
 10
235.2447860101545
 20
303.8
 30
0.0
 11
237.7016742110781
 21
303.8
 31
0.0
  0
LINE
  5
244D
330
2401
100
AcDbEntity
  8
0
 62
     0
100
AcDbLine
 10
235.1579315288098
 20
303.7
 30
0.0
 11
237.6377166909538
 21
303.7
 31
0.0
  0
LINE
  5
244E
330
2401
100
AcDbEntity
  8
0
 62
     0
100
AcDbLine
 10
235.0720586828543
 20
303.6
 30
0.0
 11
237.5688337910803
 21
303.6
 31
0.0
  0
LINE
  5
244F
330
2401
100
AcDbEntity
  8
0
 62
     0
100
AcDbLine
 10
234.9871533888072
 20
303.5
 30
0.0
 11
237.4946599604782
 21
303.5
 31
0.0
  0
LINE
  5
2450
330
2401
100
AcDbEntity
  8
0
 62
     0
100
AcDbLine
 10
234.903201985519
 20
303.4
 30
0.0
 11
237.4147598688872
 21
303.4
 31
0.0
  0
LINE
  5
2451
330
2401
100
AcDbEntity
  8
0
 62
     0
100
AcDbLine
 10
234.8201912170347
 20
303.3
 30
0.0
 11
237.3286093047922
 21
303.3
 31
0.0
  0
LINE
  5
2452
330
2401
100
AcDbEntity
  8
0
 62
     0
100
AcDbLine
 10
234.7381082163531
 20
303.2
 30
0.0
 11
237.2355685891673
 21
303.2
 31
0.0
  0
LINE
  5
2453
330
2401
100
AcDbEntity
  8
0
 62
     0
100
AcDbLine
 10
234.6569404900234
 20
303.1
 30
0.0
 11
237.1348445713782
 21
303.1
 31
0.0
  0
LINE
  5
2454
330
2401
100
AcDbEntity
  8
0
 62
     0
100
AcDbLine
 10
234.5766759035287
 20
303.0
 30
0.0
 11
237.0254345599132
 21
303.0
 31
0.0
  0
LINE
  5
2455
330
2401
100
AcDbEntity
  8
0
 62
     0
100
AcDbLine
 10
234.4973026674068
 20
302.9
 30
0.0
 11
236.906040402018
 21
302.9
 31
0.0
  0
LINE
  5
2456
330
2401
100
AcDbEntity
  8
0
 62
     0
100
AcDbLine
 10
234.4188093240634
 20
302.8
 30
0.0
 11
236.7749305656303
 21
302.8
 31
0.0
  0
LINE
  5
2457
330
2401
100
AcDbEntity
  8
0
 62
     0
100
AcDbLine
 10
234.3411847352359
 20
302.7
 30
0.0
 11
236.6297055077127
 21
302.7
 31
0.0
  0
LINE
  5
2458
330
2401
100
AcDbEntity
  8
0
 62
     0
100
AcDbLine
 10
234.2644180700702
 20
302.6
 30
0.0
 11
236.4668673866974
 21
302.6
 31
0.0
  0
LINE
  5
2459
330
2401
100
AcDbEntity
  8
0
 62
     0
100
AcDbLine
 10
234.1884987937713
 20
302.5
 30
0.0
 11
236.2809469210509
 21
302.5
 31
0.0
  0
LINE
  5
245A
330
2401
100
AcDbEntity
  8
0
 62
     0
100
AcDbLine
 10
234.1134166567985
 20
302.4
 30
0.0
 11
236.0624546584026
 21
302.4
 31
0.0
  0
LINE
  5
245B
330
2401
100
AcDbEntity
  8
0
 62
     0
100
AcDbLine
 10
234.0391616845689
 20
302.3
 30
0.0
 11
235.7918234651394
 21
302.3
 31
0.0
  0
LINE
  5
245C
330
2401
100
AcDbEntity
  8
0
 62
     0
100
AcDbLine
 10
234.0099477709872
 20
302.2
 30
0.0
 11
235.4110297631384
 21
302.2
 31
0.0
  0
ENDBLK
  5
245D
330
2401
100
AcDbEntity
  8
0
100
AcDbBlockEnd
  0
BLOCK
  5
2584
330
257E
100
AcDbEntity
  8
0
100
AcDbBlockBegin
  2
*D2
 70
     1
 10
0.0
 20
0.0
 30
0.0
  3
*D2
  1

  0
LINE
  5
2ACC
330
257E
100
AcDbEntity
  8
BEM
 62
     0
370
    -2
100
AcDbLine
 10
240.3684945282459
 20
330.7954038591506
 30
0.0
 11
214.3871461670372
 21
340.3040305622012
 31
0.0
  0
MTEXT
  5
2ACD
330
257E
100
AcDbEntity
  8
BEM
 62
     1
100
AcDbMText
 10
232.8985718958606
 20
340.4508703752727
 30
0.0
 40
7.0
 41
0.0
 71
     5
 72
     1
  1
\A1;R90
 11
0.9390848805256133
 21
-0.343685302519899
 31
0.0
 73
     1
 44
1.0
  0
SOLID
  5
2ACE
330
257E
100
AcDbEntity
  8
BEM
 62
     0
100
AcDbTrace
 10
214.7881123533104
 20
341.3996295894811
 30
0.0
 11
213.9861799807639
 21
339.2084315349213
 31
0.0
 12
207.8135520033579
 22
342.7098276798405
 32
0.0
 13
207.8135520033579
 23
342.7098276798405
 33
0.0
  0
POINT
  5
2ACF
330
257E
100
AcDbEntity
  8
Defpoints
 62
     0
100
AcDbPoint
 10
207.8135520033579
 20
342.7098276798405
 30
0.0
  0
POINT
  5
2AD0
330
257E
100
AcDbEntity
  8
Defpoints
 62
     0
100
AcDbPoint
 10
292.3311912506632
 20
311.7781504530495
 30
0.0
  0
ENDBLK
  5
2585
330
257E
100
AcDbEntity
  8
0
100
AcDbBlockEnd
  0
BLOCK
  5
2629
330
261F
100
AcDbEntity
  8
0
100
AcDbBlockBegin
  2
*D3
 70
     1
 10
0.0
 20
0.0
 30
0.0
  3
*D3
  1

  0
LINE
  5
2AC3
330
261F
100
AcDbEntity
  8
BEM
 62
     0
370
    -2
100
AcDbLine
 10
135.8245619714923
 20
223.6877919481961
 30
0.0
 11
135.8245619714923
 21
193.5027965807993
 31
0.0
  0
LINE
  5
2AC4
330
261F
100
AcDbEntity
  8
BEM
 62
     0
370
    -2
100
AcDbLine
 10
268.8245619714924
 20
223.7969443054659
 30
0.0
 11
268.8245619714924
 21
193.5027965807993
 31
0.0
  0
LINE
  5
2AC5
330
261F
100
AcDbEntity
  8
BEM
 62
     0
370
    -2
100
AcDbLine
 10
142.8245619714923
 20
195.5027965807993
 30
0.0
 11
261.8245619714924
 21
195.5027965807993
 31
0.0
  0
SOLID
  5
2AC6
330
261F
100
AcDbEntity
  8
BEM
 62
     0
100
AcDbTrace
 10
142.8245619714923
 20
196.6694632474659
 30
0.0
 11
142.8245619714923
 21
194.3361299141326
 31
0.0
 12
135.8245619714923
 22
195.5027965807993
 32
0.0
 13
135.8245619714923
 23
195.5027965807993
 33
0.0
  0
SOLID
  5
2AC7
330
261F
100
AcDbEntity
  8
BEM
 62
     0
100
AcDbTrace
 10
261.8245619714924
 20
196.6694632474659
 30
0.0
 11
261.8245619714924
 21
194.3361299141326
 31
0.0
 12
268.8245619714924
 22
195.5027965807993
 32
0.0
 13
268.8245619714924
 23
195.5027965807993
 33
0.0
  0
MTEXT
  5
2AC8
330
261F
100
AcDbEntity
  8
BEM
 62
     1
100
AcDbMText
 10
202.3245619714924
 20
202.0027965807993
 30
0.0
 40
7.0
 41
0.0
 71
     5
 72
     1
  1
\A1;%%c133
  7
GREEKS
 73
     1
 44
1.0
  0
POINT
  5
2AC9
330
261F
100
AcDbEntity
  8
Defpoints
 62
     0
100
AcDbPoint
 10
135.8245619714923
 20
225.6877919481961
 30
0.0
  0
POINT
  5
2ACA
330
261F
100
AcDbEntity
  8
Defpoints
 62
     0
100
AcDbPoint
 10
268.8245619714924
 20
225.7969443054659
 30
0.0
  0
POINT
  5
2ACB
330
261F
100
AcDbEntity
  8
Defpoints
 62
     0
100
AcDbPoint
 10
268.8245619714924
 20
195.5027965807993
 30
0.0
  0
ENDBLK
  5
262A
330
261F
100
AcDbEntity
  8
0
100
AcDbBlockEnd
  0
BLOCK
  5
2635
330
262B
100
AcDbEntity
  8
0
100
AcDbBlockBegin
  2
*D4
 70
     1
 10
0.0
 20
0.0
 30
0.0
  3
*D4
  1

  0
LINE
  5
2B28
330
262B
100
AcDbEntity
  8
BEM
 62
     0
370
    -2
100
AcDbLine
 10
116.1745619714921
 20
277.7969443054659
 30
0.0
 11
102.947304521689
 21
277.7969443054659
 31
0.0
  0
LINE
  5
2B29
330
262B
100
AcDbEntity
  8
BEM
 62
     0
370
    -2
100
AcDbLine
 10
134.5149216858416
 20
217.7969443054659
 30
0.0
 11
102.947304521689
 21
217.7969443054659
 31
0.0
  0
LINE
  5
2B2A
330
262B
100
AcDbEntity
  8
BEM
 62
     0
370
    -2
100
AcDbLine
 10
104.947304521689
 20
270.7969443054659
 30
0.0
 11
104.947304521689
 21
224.7969443054659
 31
0.0
  0
SOLID
  5
2B2B
330
262B
100
AcDbEntity
  8
BEM
 62
     0
100
AcDbTrace
 10
103.7806378550224
 20
270.7969443054659
 30
0.0
 11
106.1139711883557
 21
270.7969443054659
 31
0.0
 12
104.947304521689
 22
277.7969443054659
 32
0.0
 13
104.947304521689
 23
277.7969443054659
 33
0.0
  0
SOLID
  5
2B2C
330
262B
100
AcDbEntity
  8
BEM
 62
     0
100
AcDbTrace
 10
103.7806378550224
 20
224.7969443054659
 30
0.0
 11
106.1139711883557
 21
224.7969443054659
 31
0.0
 12
104.947304521689
 22
217.7969443054659
 32
0.0
 13
104.947304521689
 23
217.7969443054659
 33
0.0
  0
MTEXT
  5
2B2D
330
262B
100
AcDbEntity
  8
BEM
 62
     1
100
AcDbMText
 10
98.44730452168901
 20
247.7969443054659
 30
0.0
 40
7.0
 41
0.0
 71
     5
 72
     1
  1
\A1;60
 11
0.0000000000000001
 21
1.0
 31
0.0
 73
     1
 44
1.0
  0
POINT
  5
2B2E
330
262B
100
AcDbEntity
  8
Defpoints
 62
     0
100
AcDbPoint
 10
118.1745619714921
 20
277.7969443054659
 30
0.0
  0
POINT
  5
2B2F
330
262B
100
AcDbEntity
  8
Defpoints
 62
     0
100
AcDbPoint
 10
136.5149216858416
 20
217.7969443054659
 30
0.0
  0
POINT
  5
2B30
330
262B
100
AcDbEntity
  8
Defpoints
 62
     0
100
AcDbPoint
 10
104.947304521689
 20
217.7969443054659
 30
0.0
  0
ENDBLK
  5
2636
330
262B
100
AcDbEntity
  8
0
100
AcDbBlockEnd
  0
BLOCK
  5
26B7
330
26AD
100
AcDbEntity
  8
0
100
AcDbBlockBegin
  2
*D5
 70
     1
 10
0.0
 20
0.0
 30
0.0
  3
*D5
  1

  0
LINE
  5
2B1F
330
26AD
100
AcDbEntity
  8
BEM
 62
     0
370
    -2
100
AcDbLine
 10
316.4010265404437
 20
505.8654131189008
 30
0.0
 11
328.091943023417
 21
510.1205587299952
 31
0.0
  0
LINE
  5
2B20
330
26AD
100
AcDbEntity
  8
BEM
 62
     0
370
    -2
100
AcDbLine
 10
373.9630166621538
 20
347.7151450406325
 30
0.0
 11
385.6539331451265
 21
351.9702906517266
 31
0.0
  0
LINE
  5
2B21
330
26AD
100
AcDbEntity
  8
BEM
 62
     0
370
    -2
100
AcDbLine
 10
328.6066987851248
 20
502.8586700978426
 30
0.0
 11
381.380406900275
 21
357.8640987105767
 31
0.0
  0
SOLID
  5
2B22
330
26AD
100
AcDbEntity
  8
BEM
 62
     0
100
AcDbTrace
 10
329.7030068427084
 20
503.2576935983891
 30
0.0
 11
327.5103907275413
 21
502.4596465972959
 31
0.0
 12
326.2125577818451
 22
509.4365184433439
 32
0.0
 13
326.2125577818451
 23
509.4365184433439
 33
0.0
  0
SOLID
  5
2B23
330
26AD
100
AcDbEntity
  8
BEM
 62
     0
100
AcDbTrace
 10
382.4767149578586
 20
358.2631222111233
 30
0.0
 11
380.2840988426915
 21
357.46507521003
 31
0.0
 12
383.7745479035547
 22
351.2862503650753
 32
0.0
 13
383.7745479035547
 23
351.2862503650753
 33
0.0
  0
MTEXT
  5
2B24
330
26AD
100
AcDbEntity
  8
BEM
 62
     1
100
AcDbMText
 10
361.1015548778084
 20
432.5845153358264
 30
0.0
 40
7.0
 41
0.0
 71
     5
 72
     1
  1
\A1;%%c168.3
  7
GREEKS
 11
0.3420201433256655
 21
-0.9396926207859095
 31
0.0
 73
     1
 44
1.0
  0
POINT
  5
2B25
330
26AD
100
AcDbEntity
  8
Defpoints
 62
     0
100
AcDbPoint
 10
314.5216412988718
 20
505.1813728322495
 30
0.0
  0
POINT
  5
2B26
330
26AD
100
AcDbEntity
  8
Defpoints
 62
     0
100
AcDbPoint
 10
372.083631420582
 20
347.0311047539811
 30
0.0
  0
POINT
  5
2B27
330
26AD
100
AcDbEntity
  8
Defpoints
 62
     0
100
AcDbPoint
 10
383.7745479035547
 20
351.2862503650753
 30
0.0
  0
ENDBLK
  5
26B8
330
26AD
100
AcDbEntity
  8
0
100
AcDbBlockEnd
  0
BLOCK
  5
2B3C
330
2B32
100
AcDbEntity
  8
0
100
AcDbBlockBegin
  2
*D6
 70
     1
 10
0.0
 20
0.0
 30
0.0
  3
*D6
  1

  0
LINE
  5
2B33
330
2B32
100
AcDbEntity
  8
BEM
 62
     0
370
    -2
100
AcDbLine
 10
134.5149216858416
 20
217.796944305466
 30
0.0
 11
84.76491139097102
 21
217.796944305466
 31
0.0
  0
LINE
  5
2B34
330
2B32
100
AcDbEntity
  8
BEM
 62
     0
370
    -2
100
AcDbLine
 10
200.3311912506633
 20
374.7968288919241
 30
0.0
 11
84.76491139097106
 21
374.7968288919241
 31
0.0
  0
LINE
  5
2B35
330
2B32
100
AcDbEntity
  8
BEM
 62
     0
370
    -2
100
AcDbLine
 10
86.76491139097104
 20
224.7969443054659
 30
0.0
 11
86.76491139097107
 21
367.7968288919241
 31
0.0
  0
SOLID
  5
2B36
330
2B32
100
AcDbEntity
  8
BEM
 62
     0
100
AcDbTrace
 10
85.59824472430436
 20
224.7969443054659
 30
0.0
 11
87.93157805763771
 21
224.7969443054659
 31
0.0
 12
86.76491139097102
 22
217.796944305466
 32
0.0
 13
86.76491139097102
 23
217.796944305466
 33
0.0
  0
SOLID
  5
2B37
330
2B32
100
AcDbEntity
  8
BEM
 62
     0
100
AcDbTrace
 10
85.5982447243044
 20
367.7968288919241
 30
0.0
 11
87.93157805763774
 21
367.7968288919241
 31
0.0
 12
86.76491139097107
 22
374.7968288919241
 32
0.0
 13
86.76491139097107
 23
374.7968288919241
 33
0.0
  0
MTEXT
  5
2B38
330
2B32
100
AcDbEntity
  8
BEM
 62
     1
100
AcDbMText
 10
80.264911390971
 20
296.2968865986951
 30
0.0
 40
7.0
 41
0.0
 71
     5
 72
     1
  1
\A1;157
 11
0.0000000000000001
 21
1.0
 31
0.0
 73
     1
 44
1.0
  0
POINT
  5
2B39
330
2B32
100
AcDbEntity
  8
Defpoints
 62
     0
100
AcDbPoint
 10
136.5149216858416
 20
217.796944305466
 30
0.0
  0
POINT
  5
2B3A
330
2B32
100
AcDbEntity
  8
Defpoints
 62
     0
100
AcDbPoint
 10
202.3311912506633
 20
374.7968288919241
 30
0.0
  0
POINT
  5
2B3B
330
2B32
100
AcDbEntity
  8
Defpoints
 62
     0
100
AcDbPoint
 10
86.76491139097107
 20
374.7968288919241
 30
0.0
  0
ENDBLK
  5
2B3D
330
2B32
100
AcDbEntity
  8
0
100
AcDbBlockEnd
  0
BLOCK
  5
2B49
330
2B3F
100
AcDbEntity
  8
0
100
AcDbBlockBegin
  2
*D7
 70
     1
 10
0.0
 20
0.0
 30
0.0
  3
*D7
  1

  0
LINE
  5
2B76
330
2B3F
100
AcDbEntity
  8
BEM
 62
     0
370
    -2
100
AcDbLine
 10
201.647150964012
 20
376.6762141334959
 30
0.0
 11
155.3459512688169
 21
503.8877147897026
 31
0.0
  0
LINE
  5
2B77
330
2B3F
100
AcDbEntity
  8
BEM
 62
     0
370
    -2
100
AcDbLine
 10
313.8376010122205
 20
507.0607580738212
 30
0.0
 11
296.3173963778806
 21
555.197124690894
 31
0.0
  0
LINE
  5
2B78
330
2B3F
100
AcDbEntity
  8
BEM
 62
     0
370
    -2
100
AcDbLine
 10
162.6078399009695
 20
504.4024705514105
 30
0.0
 11
290.4235883190306
 21
550.9235984460425
 31
0.0
  0
SOLID
  5
2B79
330
2B3F
100
AcDbEntity
  8
BEM
 62
     0
100
AcDbTrace
 10
162.2088164004229
 20
505.4987786089941
 30
0.0
 11
163.0068634015162
 21
503.3061624938269
 31
0.0
 12
156.0299915554682
 22
502.0083295481308
 32
0.0
 13
156.0299915554682
 23
502.0083295481308
 33
0.0
  0
SOLID
  5
2B7A
330
2B3F
100
AcDbEntity
  8
BEM
 62
     0
100
AcDbTrace
 10
290.024564818484
 20
552.019906503626
 30
0.0
 11
290.8226118195772
 21
549.827290388459
 31
0.0
 12
297.001436664532
 22
553.3177394493223
 32
0.0
 13
297.001436664532
 23
553.3177394493223
 33
0.0
  0
MTEXT
  5
2B7B
330
2B3F
100
AcDbEntity
  8
BEM
 62
     1
100
AcDbMText
 10
224.2925831783832
 20
533.7710365338351
 30
0.0
 40
7.0
 41
0.0
 71
     5
 72
     1
  1
\A1;150
 11
0.9396926207859074
 21
0.3420201433256711
 31
0.0
 73
     1
 44
1.0
  0
POINT
  5
2B7C
330
2B3F
100
AcDbEntity
  8
Defpoints
 62
     0
100
AcDbPoint
 10
202.3311912506633
 20
374.7968288919241
 30
0.0
  0
POINT
  5
2B7D
330
2B3F
100
AcDbEntity
  8
Defpoints
 62
     0
100
AcDbPoint
 10
314.5216412988719
 20
505.1813728322494
 30
0.0
  0
POINT
  5
2B7E
330
2B3F
100
AcDbEntity
  8
Defpoints
 62
     0
100
AcDbPoint
 10
297.001436664532
 20
553.3177394493223
 30
0.0
  0
ENDBLK
  5
2B4A
330
2B3F
100
AcDbEntity
  8
0
100
AcDbBlockEnd
  0
BLOCK
  5
2B60
330
2B55
100
AcDbEntity
  8
0
100
AcDbBlockBegin
  2
*D8
 70
     1
 10
0.0
 20
0.0
 30
0.0
  3
*D8
  1

  0
LINE
  5
2B6C
330
2B55
100
AcDbEntity
  8
BEM
 62
     0
370
    -2
100
AcDbLine
 10
202.3312757001415
 20
376.7968288901412
 30
0.0
 11
202.3367503046276
 21
506.4507852748039
 31
0.0
  0
ARC
  5
2B6D
330
2B55
100
AcDbEntity
  8
BEM
 62
     0
370
    -2
100
AcDbCircle
 10
202.3311912506633
 20
374.7968288919242
 30
0.0
 40
129.6539565002445
100
AcDbArc
 50
23.09376740344588
 51
86.90381329721217
  0
SOLID
  5
2B6E
330
2B55
100
AcDbEntity
  8
BEM
 62
     0
100
AcDbTrace
 10
322.6803572576437
 20
426.0803880293349
 30
0.0
 11
320.5100834229006
 21
425.2234423328788
 31
0.0
 12
324.1660574296401
 22
419.141093676878
 32
0.0
 13
324.1660574296401
 23
419.141093676878
 33
0.0
  0
SOLID
  5
2B6F
330
2B55
100
AcDbEntity
  8
BEM
 62
     0
100
AcDbTrace
 10
209.3025635285893
 20
503.0952851053306
 30
0.0
 11
209.3656501963783
 21
505.4277654411087
 31
0.0
 12
202.3366658551494
 22
504.4507852765867
 32
0.0
 13
202.3366658551494
 23
504.4507852765867
 33
0.0
  0
MTEXT
  5
2B70
330
2B55
100
AcDbEntity
  8
BEM
 62
     1
100
AcDbMText
 10
255.9844423625455
 20
499.9336680552807
 30
0.0
 40
7.0
 41
0.0
 71
     5
 72
     1
  1
\A1;70°
 11
0.9190833845737847
 21
-0.3940631068755315
 31
0.0
 73
     1
 44
1.0
  0
POINT
  5
2B71
330
2B55
100
AcDbEntity
  8
Defpoints
 62
     0
100
AcDbPoint
 10
296.6393140257753
 20
463.7694449869998
 30
0.0
  0
POINT
  5
2B72
330
2B55
100
AcDbEntity
  8
Defpoints
 62
     0
100
AcDbPoint
 10
202.3311912506633
 20
374.7968288919241
 30
0.0
  0
POINT
  5
2B73
330
2B55
100
AcDbEntity
  8
Defpoints
 62
     0
100
AcDbPoint
 10
202.3311912506633
 20
374.7968288919241
 30
0.0
  0
POINT
  5
2B74
330
2B55
100
AcDbEntity
  8
Defpoints
 62
     0
100
AcDbPoint
 10
348.0010994636566
 20
427.8163395097436
 30
0.0
  0
POINT
  5
2B75
330
2B55
100
AcDbEntity
  8
Defpoints
 62
     0
100
AcDbPoint
 10
202.3243508477968
 20
212.7969443054659
 30
0.0
  0
ENDBLK
  5
2B61
330
2B55
100
AcDbEntity
  8
0
100
AcDbBlockEnd
  0
ENDSEC
  0
SECTION
  2
ENTITIES
  0
LINE
  5
57
330
1E
100
AcDbEntity
  8
STEMPEL
100
AcDbLine
 10
410.0
 20
110.0
 30
0.0
 11
39.99999999999997
 21
110.0
 31
0.0
  0
LINE
  5
58
330
1E
100
AcDbEntity
  8
STEMPEL
100
AcDbLine
 10
146.0000000000001
 20
109.9999999999999
 30
0.0
 11
146.0
 21
9.999999999999971
 31
0.0
  0
LINE
  5
59
330
1E
100
AcDbEntity
  8
STEMPEL
100
AcDbLine
 10
230.0
 20
110.0
 30
0.0
 11
230.0
 21
9.999999999999971
 31
0.0
  0
LINE
  5
5A
330
1E
100
AcDbEntity
  8
STEMPEL
100
AcDbLine
 10
332.0
 20
109.9999999999997
 30
0.0
 11
332.0
 21
40.0
 31
0.0
  0
LINE
  5
5B
330
1E
100
AcDbEntity
  8
STEMPEL
100
AcDbLine
 10
145.9999999999999
 20
29.99999999999997
 30
0.0
 11
39.99999999999997
 21
29.99999999999997
 31
0.0
  0
LINE
  5
5C
330
1E
100
AcDbEntity
  8
STEMPEL
100
AcDbLine
 10
410.0
 20
40.0
 30
0.0
 11
146.0000000000001
 21
39.99999999999997
 31
0.0
  0
LINE
  5
5D
330
1E
100
AcDbEntity
  8
STEMPEL
100
AcDbLine
 10
410.0
 20
80.0
 30
0.0
 11
146.0000000000001
 21
79.99999999999994
 31
0.0
  0
LINE
  5
5E
330
1E
100
AcDbEntity
  8
VOLL
100
AcDbLine
 10
54.00000000000009
 20
110.0
 30
0.0
 11
53.99999999999997
 21
9.999999999999971
 31
0.0
  0
LINE
  5
5F
330
1E
100
AcDbEntity
  8
VOLL
100
AcDbLine
 10
104.0000000000001
 20
109.9999999999999
 30
0.0
 11
104.0
 21
9.999999999999971
 31
0.0
  0
LINE
  5
60
330
1E
100
AcDbEntity
  8
VOLL
100
AcDbLine
 10
124.0000000000001
 20
109.9999999999999
 30
0.0
 11
124.0
 21
9.999999999999971
 31
0.0
  0
LINE
  5
61
330
1E
100
AcDbEntity
  8
VOLL
100
AcDbLine
 10
164.0000000000001
 20
79.99999999999994
 30
0.0
 11
164.0000000000001
 21
39.99999999999997
 31
0.0
  0
LINE
  5
62
330
1E
100
AcDbEntity
  8
VOLL
100
AcDbLine
 10
190.0000000000001
 20
109.9999999999998
 30
0.0
 11
190.0
 21
39.99999999999997
 31
0.0
  0
LINE
  5
63
330
1E
100
AcDbEntity
  8
HILF
100
AcDbLine
 10
40.00000000000008
 20
100.0
 30
0.0
 11
146.0000000000001
 21
100.0
 31
0.0
  0
LINE
  5
64
330
1E
100
AcDbEntity
  8
HILF
100
AcDbLine
 10
40.00000000000008
 20
90.00000000000005
 30
0.0
 11
146.0000000000001
 21
90.00000000000005
 31
0.0
  0
LINE
  5
65
330
1E
100
AcDbEntity
  8
HILF
100
AcDbLine
 10
40.00000000000008
 20
79.99999999999994
 30
0.0
 11
146.0000000000001
 21
79.99999999999994
 31
0.0
  0
LINE
  5
66
330
1E
100
AcDbEntity
  8
HILF
100
AcDbLine
 10
40.00000000000008
 20
69.99999999999994
 30
0.0
 11
146.0000000000001
 21
69.99999999999994
 31
0.0
  0
LINE
  5
67
330
1E
100
AcDbEntity
  8
HILF
100
AcDbLine
 10
40.00000000000008
 20
59.99999999999997
 30
0.0
 11
146.0000000000001
 21
59.99999999999997
 31
0.0
  0
LINE
  5
68
330
1E
100
AcDbEntity
  8
HILF
100
AcDbLine
 10
40.00000000000008
 20
49.99999999999997
 30
0.0
 11
146.0000000000001
 21
49.99999999999997
 31
0.0
  0
LINE
  5
69
330
1E
100
AcDbEntity
  8
HILF
100
AcDbLine
 10
40.00000000000008
 20
39.99999999999997
 30
0.0
 11
146.0000000000001
 21
39.99999999999997
 31
0.0
  0
LINE
  5
6A
330
1E
100
AcDbEntity
  8
HILF
100
AcDbLine
 10
146.0000000000001
 20
69.99999999999994
 30
0.0
 11
230.0
 21
69.99999999999994
 31
0.0
  0
LINE
  5
6B
330
1E
100
AcDbEntity
  8
HILF
100
AcDbLine
 10
146.0000000000001
 20
59.99999999999997
 30
0.0
 11
230.0
 21
59.99999999999997
 31
0.0
  0
LINE
  5
6C
330
1E
100
AcDbEntity
  8
HILF
100
AcDbLine
 10
146.0000000000001
 20
49.99999999999997
 30
0.0
 11
230.0
 21
49.99999999999997
 31
0.0
  0
LINE
  5
6D
330
1E
100
AcDbEntity
  8
HILF
100
AcDbLine
 10
234.7736801096947
 20
84.03758247564139
 30
0.0
 11
324.8353916556311
 21
84.03758247564139
 31
0.0
  0
LINE
  5
6E
330
1E
100
AcDbEntity
  8
HILF
100
AcDbLine
 10
234.7736801096947
 20
69.99999999999994
 30
0.0
 11
324.835391655631
 21
69.99999999999994
 31
0.0
  0
LINE
  5
6F
330
1E
100
AcDbEntity
  8
HILF
100
AcDbLine
 10
234.7736801096947
 20
59.99999999999997
 30
0.0
 11
324.835391655631
 21
59.99999999999997
 31
0.0
  0
LINE
  5
70
330
1E
100
AcDbEntity
  8
HILF
100
AcDbLine
 10
234.7736801096947
 20
49.99999999999997
 30
0.0
 11
324.835391655631
 21
49.99999999999997
 31
0.0
  0
LINE
  5
71
330
1E
100
AcDbEntity
  8
VOLL
100
AcDbLine
 10
332.0
 20
60.0
 30
0.0
 11
410.0
 21
60.0
 31
0.0
  0
LINE
  5
72
330
1E
100
AcDbEntity
  8
HILF
100
AcDbLine
 10
336.7238616296993
 20
83.77983636955827
 30
0.0
 11
404.8588839326728
 21
83.77983636955827
 31
0.0
  0
LINE
  5
73
330
1E
100
AcDbEntity
  8
HILF
100
AcDbLine
 10
233.4909699289885
 20
14.89398258028314
 30
0.0
 11
404.8588839326728
 21
14.89398258028314
 31
0.0
  0
TEXT
  5
74
330
1E
100
AcDbEntity
  8
TEXT
100
AcDbText
 10
67.79509897490102
 20
18.67381894984132
 30
0.0
 40
4.0
  1
Änderung
 41
0.8
  7
GREEKS
 72
     1
 11
78.53795611775817
 21
18.67381894984132
 31
0.0
100
AcDbText
  0
TEXT
  5
75
330
1E
100
AcDbEntity
  8
TEXT
100
AcDbText
 10
153.5163572150377
 20
102.4620895087088
 30
0.0
 40
5.0
  1
Maßstab
 41
0.8
  7
GREEKS
100
AcDbText
  0
TEXT
  5
76
330
1E
100
AcDbEntity
  8
TEXT
100
AcDbText
 10
194.2858954734051
 20
102.4184168434819
 30
0.0
 40
5.0
  1
Zul. Abw.
 41
0.8
  7
GREEKS
100
AcDbText
  0
TEXT
  5
77
330
1E
100
AcDbEntity
  8
TEXT
100
AcDbText
 10
234.877940380901
 20
102.5489328011779
 30
0.0
 40
5.0
  1
Benennung
 41
0.8
  7
GREEKS
100
AcDbText
  0
TEXT
  5
78
330
1E
100
AcDbEntity
  8
TEXT
100
AcDbText
 10
336.178754957634
 20
102.3132034537136
 30
0.0
 40
5.0
  1
Zeichnungs Nr.
 41
0.8
  7
GREEKS
100
AcDbText
  0
TEXT
  5
79
330
1E
100
AcDbEntity
  8
TEXT
100
AcDbText
 10
234.742238391136
 20
30.84560570193057
 30
0.0
 40
5.0
  1
Bauvorhaben
 41
0.8
  7
GREEKS
100
AcDbText
  0
TEXT
  5
7A
330
1E
100
AcDbEntity
  8
TEXT
100
AcDbText
 10
336.7238616296993
 20
73.1811823709997
 30
0.0
 40
5.0
  1
Ersatz für:
 41
0.8
  7
GREEKS
100
AcDbText
  0
TEXT
  5
7B
330
1E
100
AcDbEntity
  8
TEXT
100
AcDbText
 10
48.26641107045756
 20
13.65465846027192
 30
0.0
 40
4.0
  1
Index
 50
90.0
 41
0.8
  7
GREEKS
100
AcDbText
  0
TEXT
  5
7C
330
1E
100
AcDbEntity
  8
TEXT
100
AcDbText
 10
110.6986119235389
 20
18.6715626933981
 30
0.0
 40
4.0
  1
Tag
 41
0.8
  7
GREEKS
 72
     1
 11
114.4319452568723
 21
18.6715626933981
 31
0.0
100
AcDbText
  0
TEXT
  5
7D
330
1E
100
AcDbEntity
  8
TEXT
100
AcDbText
 10
129.0122744386592
 20
18.59324216966408
 30
0.0
 40
4.0
  1
Name
 41
0.8
  7
GREEKS
 72
     1
 11
135.3360839624688
 21
18.59324216966408
 31
0.0
100
AcDbText
  0
TEXT
  5
7E
330
1E
100
AcDbEntity
  8
TEXT
100
AcDbText
 10
172.331167315365
 20
73.31880501229926
 30
0.0
 40
4.0
  1
Tag
 41
0.8
  7
GREEKS
100
AcDbText
  0
TEXT
  5
7F
330
1E
100
AcDbEntity
  8
TEXT
100
AcDbText
 10
202.4626584226295
 20
73.30961091915225
 30
0.0
 40
4.0
  1
Name
 41
0.8
  7
GREEKS
100
AcDbText
  0
TEXT
  5
80
330
1E
100
AcDbEntity
  8
TEXT
100
AcDbText
 10
147.5836127167615
 20
63.62990369617964
 30
0.0
 40
4.0
  1
Gez.
 41
0.8
  7
GREEKS
100
AcDbText
  0
TEXT
  5
81
330
1E
100
AcDbEntity
  8
TEXT
100
AcDbText
 10
147.5515086571672
 20
53.68926291428377
 30
0.0
 40
4.0
  1
Gepr.
 41
0.8
  7
GREEKS
100
AcDbText
  0
TEXT
  5
82
330
1E
100
AcDbEntity
  8
TEXT
100
AcDbText
 10
147.6006777387303
 20
43.52946389649807
 30
0.0
 40
4.0
  1
Norm.
 41
0.8
  7
GREEKS
100
AcDbText
  0
LINE
  5
83
330
1E
100
AcDbEntity
  8
STEMPEL
100
AcDbLine
 10
49.99999999999989
 20
10.0
 30
0.0
 11
410.0
 21
10.0
 31
0.0
  0
TEXT
  5
84
330
1E
100
AcDbEntity
  8
TEXT
100
AcDbText
 10
337.2400861497006
 20
52.07416177878602
 30
0.0
 40
5.0
  1
ersetzt durch:
 41
0.8
  7
GREEKS
100
AcDbText
  0
LINE
  5
85
330
1E
100
AcDbEntity
  8
STEMPEL
100
AcDbLine
 10
410.0
 20
10.0
 30
0.0
 11
39.99999999999989
 21
10.0
 31
0.0
  0
LINE
  5
86
330
1E
100
AcDbEntity
  8
STEMPEL
100
AcDbLine
 10
410.0
 20
10.0
 30
0.0
 11
410.0
 21
584.0
 31
0.0
  0
LINE
  5
87
330
1E
100
AcDbEntity
  8
STEMPEL
100
AcDbLine
 10
40.0
 20
10.0
 30
0.0
 11
39.99999999999989
 21
584.0
 31
0.0
  0
LINE
  5
88
330
1E
100
AcDbEntity
  8
STEMPEL
100
AcDbLine
 10
410.0
 20
584.0
 30
0.0
 11
39.99999999999989
 21
584.0
 31
0.0
  0
LINE
  5
89
330
1E
100
AcDbEntity
  8
HILF
100
AcDbLine
 10
0.0
 20
0.0
 30
0.0
 11
-0.0000000000001137
 21
594.0
 31
0.0
  0
LINE
  5
8A
330
1E
100
AcDbEntity
  8
HILF
100
AcDbLine
 10
419.9999999999999
 20
594.0000000000002
 30
0.0
 11
0.0
 21
594.0
 31
0.0
  0
LINE
  5
8B
330
1E
100
AcDbEntity
  8
HILF
100
AcDbLine
 10
420.0
 20
0.0
 30
0.0
 11
0.0
 21
0.0
 31
0.0
  0
LINE
  5
8C
330
1E
100
AcDbEntity
  8
HILF
100
AcDbLine
 10
31.08767135713856
 20
297.0
 30
0.0
 11
0.0000000000001137
 21
297.0
 31
0.0
  0
LINE
  5
8E
330
1E
100
AcDbEntity
  8
HILF
100
AcDbLine
 10
420.0
 20
-0.0000000000001137
 30
0.0
 11
419.9999999999999
 21
594.0
 31
0.0
  0
TEXT
  5
8F
330
1E
100
AcDbEntity
  8
VOLL
100
AcDbText
 10
78.07675471698113
 20
31.02594776470585
 30
0.0
 40
1.8
  1

  7
GREEKS
100
AcDbText
  0
TEXT
  5
90
330
1E
100
AcDbEntity
  8
TEXT
100
AcDbText
 10
41.85509950977674
 20
111.6719999999999
 30
0.0
 40
5.0
  1
Erstellt mit AUTOCAD 2004
 41
0.8
  7
GREEKS
100
AcDbText
  0
TEXT
  5
91
330
1E
100
AcDbEntity
  8
TEXT
100
AcDbText
 10
204.4216048581257
 20
63.0896391972351
 30
0.0
 40
4.0
  1
Koeh
 41
0.8
  7
GREEKS
 72
     1
 11
209.6787477152686
 21
63.0896391972351
 31
0.0
100
AcDbText
  0
TEXT
  5
92
330
1E
100
AcDbEntity
  8
TEXT
 62
     1
100
AcDbText
 10
347.8430874017415
 20
88.14901428913959
 30
0.0
 40
7.0
  1
58031125W
 41
0.8
  7
GREEKS
 72
     1
 11
370.7764207350748
 21
88.14901428913959
 31
0.0
100
AcDbText
  0
TEXT
  5
93
330
1E
100
AcDbEntity
  8
TEXT
 62
     1
100
AcDbText
 10
160.5006306481887
 20
88.14901428913959
 30
0.0
 40
7.0
  1
1:2
 41
0.8
  7
GREEKS
100
AcDbText
  0
TEXT
  5
95
330
1E
100
AcDbEntity
  8
TEXT
 62
     1
100
AcDbText
 10
236.8935731057402
 20
87.41748789253779
 30
0.0
 40
7.0
  1
Verbundrohr DN125
 41
0.8
  7
GREEKS
100
AcDbText
  0
TEXT
  5
98
330
1E
100
AcDbEntity
  8
TEXT
100
AcDbText
 10
235.1296391125315
 20
51.64011943042158
 30
0.0
 40
5.0
  1
EDV-Art.Nr. 58031.125X
 41
0.8
  7
GREEKS
100
AcDbText
  0
TEXT
  5
99
330
1E
100
AcDbEntity
  8
TEXT
100
AcDbText
 10
234.9837501577827
 20
42.62974153022632
 30
0.0
 40
4.0
  1
58031125W.DWG
 41
0.8
  7
GREEKS
100
AcDbText
  0
TEXT
  5
9A
330
1E
100
AcDbEntity
  8
TEXT
100
AcDbText
 10
192.626132208084
 20
90.76363841023022
 30
0.0
 40
4.0
  1
DIN EN1123-2
 41
0.8
  7
GREEKS
 72
     1
 11
209.6166083985602
 21
90.76363841023022
 31
0.0
100
AcDbText
  0
INSERT
  5
9B
330
1E
100
AcDbEntity
  8
STEMPEL
100
AcDbBlockReference
  2
LOGO
 10
150.9955485457794
 20
45.02105276448322
 30
0.0
 41
2.0
 42
2.0
 43
2.0
  0
TEXT
  5
210
330
1E
100
AcDbEntity
  8
TEXT
 62
     1
100
AcDbText
 10
281.8583217806304
 20
207.6221243760645
 30
0.0
 40
7.0
  1
Rohrende leicht eingezogen
 41
0.8
  7
GREEKS
100
AcDbText
  0
TEXT
  5
2C0
330
1E
100
AcDbEntity
  8
BEM
100
AcDbText
 10
417.3022923857165
 20
10.16790107998861
 30
0.0
 40
4.0
  1
Diese Zeichnung ist urheberrechtlich geschützt und bleibt unser Eigentum. Sie darf weder ganz noch teilweise verfielfältigt und nicht an Dritte weitergegeben werden.
 50
90.0
 41
0.8
  7
GREEKS
100
AcDbText
  0
TEXT
  5
77A
330
1E
100
AcDbEntity
  8
TEXT
100
AcDbText
 10
235.1296391125315
 20
71.64011943042154
 30
0.0
 40
5.0
  1
Bogen 70°
 41
0.8
  7
GREEKS
100
AcDbText
  0
TEXT
  5
78C
330
1E
100
AcDbEntity
  8
TEXT
 62
     1
100
AcDbText
 10
255.030129115258
 20
129.7422179729062
 30
0.0
 40
7.0
  1
und innenbeschichtet
 41
0.8
  7
GREEKS
100
AcDbText
  0
TEXT
  5
78D
330
1E
100
AcDbEntity
  8
TEXT
 62
     1
100
AcDbText
 10
199.8811895945471
 20
117.1473825875242
 30
0.0
 40
7.0
  1
Dämmung: 2 K-PU-Schaum
 41
0.8
  7
GREEKS
100
AcDbText
  0
TEXT
  5
78E
330
1E
100
AcDbEntity
  8
TEXT
 62
     1
100
AcDbText
 10
207.3756002392443
 20
141.011271812132
 30
0.0
 40
7.0
  1
Innenrohr: E195 EN10305 feuerverzinkt
 41
0.8
  7
GREEKS
100
AcDbText
  0
TEXT
  5
78F
330
1E
100
AcDbEntity
  8
TEXT
 62
     1
100
AcDbText
 10
203.6033828683802
 20
152.364339848487
 30
0.0
 40
7.0
  1
Außenrohr: P235 TR1 EN10217-1 feuerverzinkt
 41
0.8
  7
GREEKS
100
AcDbText
  0
DIMENSION
  5
250A
330
1E
100
AcDbEntity
  8
BEM
100
AcDbDimension
  2
*D2
 10
292.3311912506632
 20
311.7781504530495
 30
0.0
 11
230.6646174294813
 21
334.3468186518562
 31
0.0
 70
   164
 71
     5
 42
90.00000000000012
  3
Standard
100
AcDbRadialDimension
 15
207.8135520033579
 25
342.7098276798405
 35
0.0
 40
0.0
1001
ACAD
1000
DSTYLE
1002
{
1070
    40
1040
2.0
1070
    41
1040
3.5
1070
    42
1040
1.0
1070
    43
1040
7.0
1070
    44
1040
1.0
1070
    73
1070
     0
1070
    74
1070
     0
1070
    77
1070
     1
1070
    78
1070
     8
1070
    79
1070
     2
1070
   140
1040
3.5
1070
   141
1040
1.5
1070
   146
1040
0.5142857142857144
1070
   147
1040
1.5
1070
   172
1070
     1
1070
   178
1070
     1
1070
   179
1070
     2
1070
   271
1070
     2
1070
   272
1070
     2
1070
   284
1070
     8
1070
   285
1070
     8
1070
   286
1070
     8
1070
   288
1070
     1
1002
}
  0
TEXT
  5
250B
330
1E
100
AcDbEntity
  8
VOLL
100
AcDbText
 10
227.5844297921281
 20
419.2002978882651
 30
0.0
 40
7.0
  1
DN125
 50
20.00000000000065
 41
0.8
  7
GREEKS
100
AcDbText
  0
ARC
  5
252B
330
1E
100
AcDbEntity
  8
MITTEL
100
AcDbCircle
 10
292.3311912506633
 20
311.7781504530502
 30
0.0
 40
90.0
100
AcDbArc
 50
110.0000000000031
 51
180.0
  0
LINE
  5
252C
102
{ACAD_REACTORS
330
28F6
102
}
330
1E
100
AcDbEntity
  8
STEMPEL
100
AcDbLine
 10
273.0811182098721
 20
325.2571967072999
 30
0.0
 11
164.1338963194362
 21
401.542862741989
 31
0.0
  0
LINE
  5
252D
330
1E
100
AcDbEntity
  8
MITTEL
100
AcDbLine
 10
202.3311912506633
 20
374.7968288919241
 30
0.0
 11
202.3243508477968
 21
212.7969443054659
 31
0.0
  0
POINT
  5
2531
330
1E
100
AcDbEntity
  8
Defpoints
  6
ByBlock
 62
     0
100
AcDbPoint
 10
202.3243508477968
 20
212.7969443054659
 30
0.0
  0
POINT
  5
2532
330
1E
100
AcDbEntity
  8
Defpoints
  6
ByBlock
 62
     0
100
AcDbPoint
 10
202.3243508477968
 20
212.7969443054659
 30
0.0
  0
LINE
  5
2535
102
{ACAD_REACTORS
330
28C6
330
29AC
102
}
330
1E
100
AcDbEntity
  8
STEMPEL
  6
Continuous
100
AcDbLine
 10
268.8311912506633
 20
311.7781504530502
 30
0.0
 11
268.8243508477969
 21
232.6877919481935
 31
0.0
  0
ARC
  5
2537
102
{ACAD_REACTORS
330
2A19
102
}
330
1E
100
AcDbEntity
  8
STEMPEL
100
AcDbCircle
 10
292.3311912506633
 20
311.7781504530502
 30
0.0
 40
156.5
100
AcDbArc
 50
145.0
 51
180.0
  0
ARC
  5
2538
102
{ACAD_REACTORS
330
28C6
330
29AC
102
}
330
1E
100
AcDbEntity
  8
STEMPEL
100
AcDbCircle
 10
292.3311912506633
 20
311.7781504530502
 30
0.0
 40
23.5
100
AcDbArc
 50
144.9999999999995
 51
180.0
  0
LINE
  5
2539
330
1E
100
AcDbEntity
  8
MITTEL
100
AcDbLine
 10
202.3311912506633
 20
374.7968288919241
 30
0.0
 11
348.0010994636565
 21
427.8163395097437
 31
0.0
  0
ARC
  5
253A
102
{ACAD_REACTORS
330
28F6
102
}
330
1E
100
AcDbEntity
  8
STEMPEL
100
AcDbCircle
 10
292.3311912506635
 20
311.7781504530503
 30
0.0
 40
156.5
100
AcDbArc
 50
110.0
 51
145.0000000000001
  0
ARC
  5
2555
102
{ACAD_REACTORS
330
28F6
330
29AC
102
}
330
1E
100
AcDbEntity
  8
STEMPEL
100
AcDbCircle
 10
292.3311912506635
 20
311.7781504530503
 30
0.0
 40
23.5
100
AcDbArc
 50
109.9999999999999
 51
145.0000000000003
  0
ARC
  5
2556
330
1E
100
AcDbEntity
  8
SCHRAFF
100
AcDbCircle
 10
271.7410074424406
 20
326.1955523686912
 30
0.0
 40
3.513188705310844
100
AcDbArc
 50
266.3588139395944
 51
23.64118606040837
  0
ARC
  5
2557
330
1E
100
AcDbEntity
  8
SCHRAFF
100
AcDbCircle
 10
165.1713207232251
 20
400.8164503541332
 30
0.0
 40
3.24529088985965
100
AcDbArc
 50
77.41948862384726
 51
212.5805113761497
  0
INSERT
  5
2558
330
1E
100
AcDbEntity
  8
SCHRAFF
100
AcDbBlockReference
  2
*X1
 10
84.78546868093941
 20
-10.78228150474461
 30
0.0
 50
8.499999999999197
1001
ACAD
1000
HATCH
1002
{
1070
    16
1000
_U,I
1040
0.1
1040
0.0
1070
     0
1002
}
  0
LINE
  5
25F8
102
{ACAD_REACTORS
330
29AC
102
}
330
1E
100
AcDbEntity
  8
STEMPEL
100
AcDbLine
 10
283.5745619714926
 20
314.5364486396546
 30
0.0
 11
283.5745619714926
 21
277.7969443054658
 31
0.0
  0
LINE
  5
25F9
102
{ACAD_REACTORS
330
2840
102
}
330
1E
100
AcDbEntity
  8
STEMPEL
100
AcDbLine
 10
286.4745619714927
 20
313.6220821519051
 30
0.0
 11
286.4745619714924
 21
275.7969443054649
 31
0.0
  0
LINE
  5
25FA
102
{ACAD_REACTORS
330
28C6
102
}
330
1E
100
AcDbEntity
  8
STEMPEL
100
AcDbLine
 10
266.3245619714924
 20
311.7969443054658
 30
0.0
 11
266.3245619714924
 21
225.7969443054634
 31
0.0
  0
LINE
  5
25FB
102
{ACAD_REACTORS
330
28C6
102
}
330
1E
100
AcDbEntity
  8
STEMPEL
100
AcDbLine
 10
268.8245619714924
 20
311.7969443054658
 30
0.0
 11
268.8245619714924
 21
225.6877919481922
 31
0.0
  0
LINE
  5
25FC
330
1E
100
AcDbEntity
  8
STEMPEL
100
AcDbLine
 10
286.4745619714922
 20
277.7969443054658
 30
0.0
 11
283.5745619714926
 21
277.7969443054658
 31
0.0
  0
LINE
  5
25FD
330
1E
100
AcDbEntity
  8
STEMPEL
100
AcDbLine
 10
276.1809684320435
 20
283.796944305466
 30
0.0
 11
268.8245619714924
 21
283.796944305466
 31
0.0
  0
LINE
  5
25FE
102
{ACAD_REACTORS
330
29AC
102
}
330
1E
100
AcDbEntity
  8
STEMPEL
100
AcDbLine
 10
281.4745619714924
 20
293.796944305466
 30
0.0
 11
268.8245619714924
 21
293.796944305466
 31
0.0
  0
LINE
  5
2600
102
{ACAD_REACTORS
330
29AC
102
}
330
1E
100
AcDbEntity
  8
STEMPEL
100
AcDbLine
 10
283.4745619714924
 20
291.796944305466
 30
0.0
 11
281.4745619714924
 21
293.796944305466
 31
0.0
  0
LINE
  5
2601
102
{ACAD_REACTORS
330
28C6
102
}
330
1E
100
AcDbEntity
  8
STEMPEL
100
AcDbLine
 10
266.3245619714924
 20
225.7969443054634
 30
0.0
 11
265.6246526632854
 21
217.7969443054659
 31
0.0
  0
LINE
  5
2602
102
{ACAD_REACTORS
330
28C6
102
}
330
1E
100
AcDbEntity
  8
STEMPEL
100
AcDbLine
 10
268.8245619714924
 20
225.6877919481922
 30
0.0
 11
268.1342022571437
 21
217.796944305466
 31
0.0
  0
DIMENSION
  5
2603
330
1E
100
AcDbEntity
  8
BEM
100
AcDbDimension
  2
*D3
 10
268.8245619714924
 20
195.5027965807993
 30
0.0
 11
202.3245619714924
 21
202.0027965807993
 31
0.0
 70
    32
  1
%%c<>
 71
     5
 42
133.0
  3
Standard
100
AcDbAlignedDimension
 13
135.8245619714923
 23
225.6877919481961
 33
0.0
 14
268.8245619714924
 24
225.7969443054659
 34
0.0
100
AcDbRotatedDimension
1001
ACAD
1000
DSTYLE
1002
{
1070
    40
1040
2.0
1070
    41
1040
3.5
1070
    42
1040
1.0
1070
    43
1040
7.0
1070
    44
1040
1.0
1070
    73
1070
     0
1070
    74
1070
     0
1070
    77
1070
     1
1070
    78
1070
     8
1070
    79
1070
     2
1070
   140
1040
3.5
1070
   141
1040
1.5
1070
   146
1040
0.5142857142857144
1070
   147
1040
1.5
1070
   172
1070
     1
1070
   178
1070
     1
1070
   179
1070
     2
1070
   271
1070
     2
1070
   272
1070
     2
1070
   284
1070
     8
1070
   285
1070
     8
1070
   286
1070
     8
1070
   289
1070
     0
1070
   340
1005
24
1002
}
  0
LINE
  5
2604
330
1E
100
AcDbEntity
  8
HILF
100
AcDbLine
 10
263.8150123776342
 20
225.7969443054659
 30
0.0
 11
140.8341115653508
 21
225.796944305466
 31
0.0
  0
LINE
  5
2605
330
1E
100
AcDbEntity
  8
STEMPEL
100
AcDbLine
 10
268.1342022571437
 20
217.796944305466
 30
0.0
 11
136.5149216858416
 21
217.796944305466
 31
0.0
  0
LINE
  5
2606
102
{ACAD_REACTORS
330
2A19
102
}
330
1E
100
AcDbEntity
  8
STEMPEL
100
AcDbLine
 10
135.8245619714923
 20
225.6877919481967
 30
0.0
 11
136.5149216858416
 21
217.796944305466
 31
0.0
  0
LINE
  5
2607
102
{ACAD_REACTORS
330
2A19
102
}
330
1E
100
AcDbEntity
  8
STEMPEL
100
AcDbLine
 10
138.3245619714924
 20
225.7969443054649
 30
0.0
 11
139.0244712796999
 21
217.796944305466
 31
0.0
  0
LINE
  5
2608
102
{ACAD_REACTORS
330
2A19
102
}
330
1E
100
AcDbEntity
  8
STEMPEL
100
AcDbLine
 10
135.8245619714923
 20
311.7969443054657
 30
0.0
 11
135.8245619714923
 21
225.6877919481956
 31
0.0
  0
LINE
  5
2609
102
{ACAD_REACTORS
330
2A19
102
}
330
1E
100
AcDbEntity
  8
STEMPEL
100
AcDbLine
 10
138.3245619714924
 20
311.7969443054657
 30
0.0
 11
138.3245619714924
 21
225.7969443054649
 31
0.0
  0
LINE
  5
260B
330
1E
100
AcDbEntity
  8
STEMPEL
100
AcDbLine
 10
121.0745619714926
 20
291.6969443054659
 30
0.0
 11
123.1745619714926
 21
293.796944305466
 31
0.0
  0
LINE
  5
260C
330
1E
100
AcDbEntity
  8
STEMPEL
100
AcDbLine
 10
121.0745619714926
 20
277.7969443054658
 30
0.0
 11
118.1745619714921
 21
277.7969443054659
 31
0.0
  0
LINE
  5
260D
330
1E
100
AcDbEntity
  8
STEMPEL
100
AcDbLine
 10
135.8245619714927
 20
283.796944305466
 30
0.0
 11
128.4681555109415
 21
283.796944305466
 31
0.0
  0
LINE
  5
260E
330
1E
100
AcDbEntity
  8
STEMPEL
100
AcDbLine
 10
135.8245619714923
 20
293.796944305466
 30
0.0
 11
123.1745619714926
 21
293.796944305466
 31
0.0
  0
LINE
  5
2610
330
1E
100
AcDbEntity
  8
STEMPEL
100
AcDbLine
 10
121.0745619714924
 20
365.7725018324894
 30
0.0
 11
121.0745619714926
 21
277.7969443054659
 31
0.0
  0
LINE
  5
2611
102
{ACAD_REACTORS
330
2840
102
}
330
1E
100
AcDbEntity
  8
STEMPEL
100
AcDbLine
 10
118.1745619714924
 20
366.6868683202388
 30
0.0
 11
118.1745619714923
 21
275.796944305466
 31
0.0
  0
DIMENSION
  5
2612
330
1E
100
AcDbEntity
  8
BEM
100
AcDbDimension
  2
*D4
 10
104.947304521689
 20
217.7969443054659
 30
0.0
 11
98.44730452168901
 21
247.7969443054659
 31
0.0
 70
    32
 71
     5
 42
59.99999999999994
  3
Standard
100
AcDbAlignedDimension
 13
118.1745619714921
 23
277.7969443054659
 33
0.0
 14
136.5149216858416
 24
217.7969443054659
 34
0.0
 50
90.0
100
AcDbRotatedDimension
1001
ACAD
1000
DSTYLE
1002
{
1070
   279
1070
     1
1070
    40
1040
2.0
1070
    41
1040
3.5
1070
    42
1040
1.0
1070
    43
1040
7.0
1070
    44
1040
1.0
1070
    73
1070
     0
1070
    74
1070
     0
1070
    77
1070
     1
1070
    78
1070
     8
1070
    79
1070
     2
1070
   140
1040
3.5
1070
   141
1040
1.5
1070
   146
1040
0.5142857142857144
1070
   147
1040
1.5
1070
   172
1070
     1
1070
   178
1070
     1
1070
   179
1070
     2
1070
   271
1070
     2
1070
   272
1070
     2
1070
   284
1070
     8
1070
   285
1070
     8
1070
   286
1070
     8
1002
}
  0
ARC
  5
2652
102
{ACAD_REACTORS
330
28C6
102
}
330
1E
100
AcDbEntity
  8
STEMPEL
100
AcDbCircle
 10
292.3311912506633
 20
311.7781504530502
 30
0.0
 40
26.0
100
AcDbArc
 50
144.9999999999998
 51
180.0
  0
ARC
  5
2654
102
{ACAD_REACTORS
330
2A19
102
}
330
1E
100
AcDbEntity
  8
STEMPEL
100
AcDbCircle
 10
292.3311912506633
 20
311.7781504530502
 30
0.0
 40
154.0
100
AcDbArc
 50
145.0
 51
180.0
  0
ARC
  5
2655
102
{ACAD_REACTORS
330
28F6
102
}
330
1E
100
AcDbEntity
  8
STEMPEL
100
AcDbCircle
 10
292.3311912506635
 20
311.7781504530503
 30
0.0
 40
26.0
100
AcDbArc
 50
110.0
 51
145.0000000000003
  0
ARC
  5
2656
102
{ACAD_REACTORS
330
28F6
102
}
330
1E
100
AcDbEntity
  8
STEMPEL
100
AcDbCircle
 10
292.3311912506635
 20
311.7781504530503
 30
0.0
 40
154.0
100
AcDbArc
 50
110.0000000000005
 51
145.0000000000001
  0
DIMENSION
  5
2660
330
1E
100
AcDbEntity
  8
BEM
100
AcDbDimension
  2
*D5
 10
383.7745479035547
 20
351.2862503650753
 30
0.0
 11
361.1015548778084
 21
432.5845153358264
 31
0.0
 70
    32
  1
%%c<>
 71
     5
 42
168.3
  3
Standard
100
AcDbAlignedDimension
 13
314.5216412988718
 23
505.1813728322495
 33
0.0
 14
372.083631420582
 24
347.0311047539812
 34
0.0
 50
289.9999999999998
100
AcDbRotatedDimension
1001
ACAD
1000
DSTYLE
1002
{
1070
    40
1040
2.0
1070
    41
1040
3.5
1070
    42
1040
1.0
1070
    43
1040
7.0
1070
    44
1040
1.0
1070
    73
1070
     0
1070
    74
1070
     0
1070
    77
1070
     1
1070
    78
1070
     8
1070
    79
1070
     2
1070
   140
1040
3.5
1070
   141
1040
1.5
1070
   146
1040
0.5142857142857144
1070
   147
1040
1.5
1070
   172
1070
     1
1070
   178
1070
     1
1070
   179
1070
     2
1070
   271
1070
     2
1070
   272
1070
     2
1070
   284
1070
     8
1070
   285
1070
     8
1070
   286
1070
     8
1070
   289
1070
     0
1070
   340
1005
24
1002
}
  0
LINE
  5
2661
102
{ACAD_REACTORS
330
2911
330
2940
330
29AC
102
}
330
1E
100
AcDbEntity
  8
STEMPEL
100
AcDbLine
 10
371.0917730049376
 20
349.7562133542603
 30
0.0
 11
286.7376659185016
 21
319.0538292366937
 31
0.0
  0
LINE
  5
2662
102
{ACAD_REACTORS
330
2840
330
2911
102
}
330
1E
100
AcDbEntity
  8
STEMPEL
100
AcDbLine
 10
372.083631420582
 20
347.0311047539812
 30
0.0
 11
288.5887477753783
 21
316.641452393607
 31
0.0
  0
LINE
  5
2664
102
{ACAD_REACTORS
330
28F6
330
2911
330
2940
102
}
330
1E
100
AcDbEntity
  8
STEMPEL
100
AcDbLine
 10
372.083631420582
 20
347.0311047539812
 30
0.0
 11
314.5216412988718
 21
505.1813728322495
 31
0.0
  0
ARC
  5
2665
102
{ACAD_REACTORS
330
28F6
102
}
330
1E
100
AcDbEntity
  8
STEMPEL
100
AcDbCircle
 10
328.2991570194218
 20
371.693241368924
 30
0.0
 40
27.5
100
AcDbArc
 50
265.1568310699679
 51
290.0
  0
ARC
  5
2666
102
{ACAD_REACTORS
330
28F6
330
29AC
102
}
330
1E
100
AcDbEntity
  8
STEMPEL
100
AcDbCircle
 10
328.2991570194218
 20
371.693241368924
 30
0.0
 40
29.99973625969209
100
AcDbArc
 50
264.9928416634578
 51
290.0
  0
LINE
  5
2667
102
{ACAD_REACTORS
330
28F6
102
}
330
1E
100
AcDbEntity
  8
STEMPEL
100
AcDbLine
 10
355.6590631844561
 20
352.3865440822254
 30
0.0
 11
337.7047109608774
 21
345.8516942973117
 31
0.0
  0
LINE
  5
2668
102
{ACAD_REACTORS
330
28F6
330
2940
330
29AC
102
}
330
1E
100
AcDbEntity
  8
STEMPEL
100
AcDbLine
 10
356.5141135427702
 20
350.0373125302606
 30
0.0
 11
338.5597613191918
 21
343.5024627453469
 31
0.0
  0
LINE
  5
2669
102
{ACAD_REACTORS
330
28F6
330
29AC
102
}
330
1E
100
AcDbEntity
  8
STEMPEL
100
AcDbLine
 10
338.5596711146936
 20
343.5027105801682
 30
0.0
 11
338.5597613191918
 21
343.5024627453469
 31
0.0
  0
LINE
  5
266A
102
{ACAD_REACTORS
330
2940
330
29AC
102
}
330
1E
100
AcDbEntity
  8
STEMPEL
100
AcDbLine
 10
356.0566910723634
 20
344.2838910610496
 30
0.0
 11
354.2610853199035
 21
349.2172773201757
 31
0.0
  0
ARC
  5
266B
102
{ACAD_REACTORS
330
28F6
330
2940
102
}
330
1E
100
AcDbEntity
  8
STEMPEL
100
AcDbCircle
 10
346.2535092430002
 20
378.2280911538377
 30
0.0
 40
30.0
100
AcDbArc
 50
290.0
 51
314.9999999999935
  0
ARC
  5
266C
102
{ACAD_REACTORS
330
28F6
102
}
330
1E
100
AcDbEntity
  8
STEMPEL
100
AcDbCircle
 10
346.2535092430002
 20
378.2280911538377
 30
0.0
 40
27.5
100
AcDbArc
 50
290.0
 51
314.9999999999935
  0
LINE
  5
266D
102
{ACAD_REACTORS
330
28F6
102
}
330
1E
100
AcDbEntity
  8
STEMPEL
100
AcDbLine
 10
367.2440463925239
 20
360.3277553381019
 30
0.0
 11
365.6989457256301
 21
358.782654671208
 31
0.0
  0
LINE
  5
266E
102
{ACAD_REACTORS
330
28F6
330
2940
102
}
330
1E
100
AcDbEntity
  8
STEMPEL
100
AcDbLine
 10
368.1874900774888
 20
357.7356651171339
 30
0.0
 11
367.4667126785968
 21
357.0148877182418
 31
0.0
  0
LINE
  5
266F
102
{ACAD_REACTORS
330
28F6
102
}
330
1E
100
AcDbEntity
  8
STEMPEL
100
AcDbLine
 10
287.6672843177325
 20
337.7492492384494
 30
0.0
 11
283.4386675241962
 21
336.210158593484
 31
0.0
  0
LINE
  5
2670
102
{ACAD_REACTORS
330
28F6
330
29AC
102
}
330
1E
100
AcDbEntity
  8
STEMPEL
100
AcDbLine
 10
288.5223346760467
 20
335.4000176864847
 30
0.0
 11
284.2937178825102
 21
333.8609270415192
 31
0.0
  0
LINE
  5
2671
330
1E
100
AcDbEntity
  8
HILF
100
AcDbLine
 10
253.7963679684715
 20
463.9566073619623
 30
0.0
 11
299.0666047724137
 21
339.5776539697676
 31
0.0
  0
LINE
  5
2672
330
1E
100
AcDbEntity
  8
HILF
100
AcDbLine
 10
247.9152243405547
 20
457.8878072374661
 30
0.0
 11
290.660437851373
 21
340.4462983267261
 31
0.0
  0
LINE
  5
2673
330
1E
100
AcDbEntity
  8
HILF
100
AcDbLine
 10
274.63642096699
 20
472.8924050866815
 30
0.0
 11
320.7748316263485
 21
346.1281636305702
 31
0.0
  0
ARC
  5
2674
102
{ACAD_REACTORS
330
28F6
330
29AC
102
}
330
1E
100
AcDbEntity
  8
STEMPEL
100
AcDbCircle
 10
291.9425361093034
 20
326.0030914786253
 30
0.0
 40
10.0
100
AcDbArc
 50
75.22805596805096
 51
110.0
  0
ARC
  5
2675
102
{ACAD_REACTORS
330
28F6
102
}
330
1E
100
AcDbEntity
  8
STEMPEL
100
AcDbCircle
 10
299.0817606176979
 20
353.0776454623707
 30
0.0
 40
15.5
100
AcDbArc
 50
255.228055968051
 51
290.0
  0
ARC
  5
2676
102
{ACAD_REACTORS
330
28F6
102
}
330
1E
100
AcDbEntity
  8
STEMPEL
100
AcDbCircle
 10
291.9425361093034
 20
326.0030914786253
 30
0.0
 40
12.5
100
AcDbArc
 50
75.22805596805096
 51
110.0
  0
LINE
  5
2677
102
{ACAD_REACTORS
330
28F6
102
}
330
1E
100
AcDbEntity
  8
STEMPEL
100
AcDbLine
 10
317.0983173475451
 20
343.1403803626271
 30
0.0
 11
304.3830728392456
 21
338.5124098401893
 31
0.0
  0
LINE
  5
2678
102
{ACAD_REACTORS
330
28F6
330
29AC
102
}
330
1E
100
AcDbEntity
  8
STEMPEL
100
AcDbLine
 10
317.9533677058592
 20
340.7911488106624
 30
0.0
 11
305.2381231975597
 21
336.1631782882244
 31
0.0
  0
ARC
  5
2679
102
{ACAD_REACTORS
330
28F6
330
29AC
102
}
330
1E
100
AcDbEntity
  8
STEMPEL
100
AcDbCircle
 10
299.0817606176977
 20
353.0776454623706
 30
0.0
 40
18.0
100
AcDbArc
 50
255.228055968051
 51
290.0
  0
ARC
  5
267A
102
{ACAD_REACTORS
330
28F6
330
29AC
102
}
330
1E
100
AcDbEntity
  8
STEMPEL
100
AcDbCircle
 10
324.1097302857215
 20
323.8766816365158
 30
0.0
 40
18.0
100
AcDbArc
 50
84.99284166345766
 51
110.0
  0
ARC
  5
267B
102
{ACAD_REACTORS
330
28F6
102
}
330
1E
100
AcDbEntity
  8
STEMPEL
100
AcDbCircle
 10
324.1097302857215
 20
323.8766816365158
 30
0.0
 40
20.5
100
AcDbArc
 50
84.77285563409706
 51
110.0
  0
LINE
  5
267C
102
{ACAD_REACTORS
330
28F6
102
}
330
1E
100
AcDbEntity
  8
STEMPEL
100
AcDbLine
 10
243.0336556137326
 20
460.3791362510107
 30
0.0
 11
238.8050388201961
 21
458.8400456060452
 31
0.0
  0
LINE
  5
267D
102
{ACAD_REACTORS
330
28F6
102
}
330
1E
100
AcDbEntity
  8
STEMPEL
100
AcDbLine
 10
243.8887059720469
 20
458.0299046990457
 30
0.0
 11
239.660089178509
 21
456.4908140540797
 31
0.0
  0
ARC
  5
267E
102
{ACAD_REACTORS
330
28F6
102
}
330
1E
100
AcDbEntity
  8
STEMPEL
100
AcDbCircle
 10
296.8333038334602
 20
458.1449624812274
 30
0.0
 40
29.99973625969209
100
AcDbArc
 50
110.0
 51
135.007158336551
  0
ARC
  5
267F
102
{ACAD_REACTORS
330
28F6
102
}
330
1E
100
AcDbEntity
  8
STEMPEL
100
AcDbCircle
 10
296.8333038334602
 20
458.1449624812274
 30
0.0
 40
27.5
100
AcDbArc
 50
110.0
 51
134.8431689300322
  0
ARC
  5
2680
102
{ACAD_REACTORS
330
28F6
102
}
330
1E
100
AcDbEntity
  8
STEMPEL
100
AcDbCircle
 10
239.613454180476
 20
469.7760624588695
 30
0.0
 40
12.5
100
AcDbArc
 50
290.0
 51
324.771944031949
  0
LINE
  5
2681
102
{ACAD_REACTORS
330
28F6
102
}
330
1E
100
AcDbEntity
  8
STEMPEL
100
AcDbLine
 10
269.0444872102885
 20
475.1671935830471
 30
0.0
 11
256.3292427019892
 21
470.5392230606095
 31
0.0
  0
LINE
  5
2682
102
{ACAD_REACTORS
330
28F6
102
}
330
1E
100
AcDbEntity
  8
STEMPEL
100
AcDbLine
 10
269.8995375686029
 20
472.8179620310825
 30
0.0
 11
257.1842930603034
 21
468.1899915086447
 31
0.0
  0
ARC
  5
2683
102
{ACAD_REACTORS
330
28F6
102
}
330
1E
100
AcDbEntity
  8
STEMPEL
100
AcDbCircle
 10
262.4856052818513
 20
453.6247558864628
 30
0.0
 40
18.0
100
AcDbArc
 50
110.0
 51
144.771944031949
  0
ARC
  5
2684
102
{ACAD_REACTORS
330
28F6
102
}
330
1E
100
AcDbEntity
  8
STEMPEL
100
AcDbCircle
 10
262.4856052818513
 20
453.6247558864628
 30
0.0
 40
15.5
100
AcDbArc
 50
110.0
 51
144.771944031949
  0
ARC
  5
2685
102
{ACAD_REACTORS
330
28F6
102
}
330
1E
100
AcDbEntity
  8
STEMPEL
100
AcDbCircle
 10
239.613454180476
 20
469.7760624588695
 30
0.0
 40
10.0
100
AcDbArc
 50
290.0
 51
324.771944031949
  0
ARC
  5
2686
102
{ACAD_REACTORS
330
28F6
102
}
330
1E
100
AcDbEntity
  8
STEMPEL
100
AcDbCircle
 10
262.8881246304268
 20
492.0816607571934
 30
0.0
 40
18.0
100
AcDbArc
 50
290.0
 51
315.007158336551
  0
ARC
  5
2687
102
{ACAD_REACTORS
330
28F6
102
}
330
1E
100
AcDbEntity
  8
STEMPEL
100
AcDbCircle
 10
262.8881246304268
 20
492.0816607571934
 30
0.0
 40
20.5
100
AcDbArc
 50
290.0
 51
315.2271443659088
  0
LINE
  5
2688
102
{ACAD_REACTORS
330
2940
102
}
330
1E
100
AcDbEntity
  8
STEMPEL
100
AcDbLine
 10
302.2740235344019
 20
492.0505556796335
 30
0.0
 11
300.4784177819422
 21
496.9839419387596
 31
0.0
  0
LINE
  5
2689
102
{ACAD_REACTORS
330
28F6
330
2940
102
}
330
1E
100
AcDbEntity
  8
STEMPEL
100
AcDbLine
 10
304.5270517572687
 20
492.8705908897188
 30
0.0
 11
286.5726995336902
 21
486.3357411048049
 31
0.0
  0
LINE
  5
268A
102
{ACAD_REACTORS
330
28F6
102
}
330
1E
100
AcDbEntity
  8
STEMPEL
100
AcDbLine
 10
305.3821021155827
 20
490.521359337754
 30
0.0
 11
287.4277498920042
 21
483.9865095528402
 31
0.0
  0
LINE
  5
268B
102
{ACAD_REACTORS
330
28F6
102
}
330
1E
100
AcDbEntity
  8
STEMPEL
100
AcDbLine
 10
286.5727897381879
 20
486.3354932699838
 30
0.0
 11
286.5726995336902
 21
486.3357411048049
 31
0.0
  0
ARC
  5
268C
102
{ACAD_REACTORS
330
28F6
102
}
330
1E
100
AcDbEntity
  8
STEMPEL
100
AcDbCircle
 10
314.7876560570388
 20
464.6798122661413
 30
0.0
 40
27.5
100
AcDbArc
 50
85.00000000000655
 51
110.0
  0
ARC
  5
268D
102
{ACAD_REACTORS
330
28F6
330
2940
102
}
330
1E
100
AcDbEntity
  8
STEMPEL
100
AcDbCircle
 10
314.7876560570388
 20
464.6798122661413
 30
0.0
 40
30.0
100
AcDbArc
 50
85.00000000000655
 51
110.0
  0
LINE
  5
268E
102
{ACAD_REACTORS
330
28F6
330
2940
102
}
330
1E
100
AcDbEntity
  8
STEMPEL
100
AcDbLine
 10
318.4177826419657
 20
494.4768124690969
 30
0.0
 11
317.4023283394685
 21
494.565653208894
 31
0.0
  0
LINE
  5
268F
102
{ACAD_REACTORS
330
28F6
102
}
330
1E
100
AcDbEntity
  8
STEMPEL
100
AcDbLine
 10
319.3612263269301
 20
491.8847222481288
 30
0.0
 11
317.1844389825992
 21
492.0751664636647
 31
0.0
  0
LINE
  5
2690
102
{ACAD_REACTORS
330
2911
330
2940
102
}
330
1E
100
AcDbEntity
  8
STEMPEL
100
AcDbLine
 10
315.5134997145167
 20
502.4562642319703
 30
0.0
 11
183.0132515245793
 21
454.2301178579489
 31
0.0
  0
LINE
  5
2691
102
{ACAD_REACTORS
330
2840
330
2911
102
}
330
1E
100
AcDbEntity
  8
STEMPEL
100
AcDbLine
 10
314.5216412988718
 20
505.1813728322495
 30
0.0
 11
181.1621696677027
 21
456.6424947010357
 31
0.0
  0
LINE
  5
2718
102
{ACAD_REACTORS
330
2840
330
2908
102
}
330
1E
100
AcDbEntity
  8
STEMPEL
100
AcDbLine
 10
288.5887477753783
 20
316.641452393607
 30
0.0
 11
286.4745619714927
 21
313.6220821519051
 31
0.0
  0
LINE
  5
2719
102
{ACAD_REACTORS
330
2908
330
29AC
102
}
330
1E
100
AcDbEntity
  8
STEMPEL
100
AcDbLine
 10
286.7376659185016
 20
319.0538292366937
 30
0.0
 11
283.5745619714926
 21
314.5364486396546
 31
0.0
  0
LINE
  5
271A
330
1E
100
AcDbEntity
  8
MITTEL
100
AcDbLine
 10
234.8857864241609
 20
386.6457325236635
 30
0.0
 11
202.3297285102282
 21
340.1550415139227
 31
0.0
  0
LINE
  5
271B
102
{ACAD_REACTORS
330
2840
330
2908
102
}
330
1E
100
AcDbEntity
  8
STEMPEL
100
AcDbLine
 10
181.1621696677027
 20
456.6424947010357
 30
0.0
 11
118.1745619714924
 21
366.6868683202388
 31
0.0
  0
LINE
  5
271C
102
{ACAD_REACTORS
330
2908
102
}
330
1E
100
AcDbEntity
  8
STEMPEL
100
AcDbLine
 10
183.0132515245793
 20
454.2301178579489
 30
0.0
 11
121.0745619714924
 21
365.7725018324894
 31
0.0
  0
LINE
  5
272E
102
{ACAD_REACTORS
330
2908
330
2911
102
}
330
1E
100
AcDbEntity
  8
STEMPEL
100
AcDbLine
 10
181.1621696677027
 20
456.6424947010357
 30
0.0
 11
183.0132515245791
 21
454.2301178579485
 31
0.0
  0
LINE
  5
2730
102
{ACAD_REACTORS
330
2908
102
}
330
1E
100
AcDbEntity
  8
STEMPEL
100
AcDbLine
 10
118.1745619714924
 20
366.6868683202388
 30
0.0
 11
121.0745619714927
 21
365.7725018324897
 31
0.0
  0
LINE
  5
2731
102
{ACAD_REACTORS
330
2908
330
2911
102
}
330
1E
100
AcDbEntity
  8
STEMPEL
100
AcDbLine
 10
286.737665918502
 20
319.0538292366942
 30
0.0
 11
288.5887477753783
 21
316.641452393607
 31
0.0
  0
LINE
  5
2732
102
{ACAD_REACTORS
330
2908
102
}
330
1E
100
AcDbEntity
  8
STEMPEL
100
AcDbLine
 10
283.5745619714925
 20
314.5364486396543
 30
0.0
 11
286.4745619714927
 21
313.6220821519051
 31
0.0
  0
ARC
  5
2830
102
{ACAD_REACTORS
330
2840
102
}
330
1E
100
AcDbEntity
  8
SCHRAFF
100
AcDbCircle
 10
182.4167999722779
 20
455.0074286545778
 30
0.0
 40
3.91019278983791
100
AcDbArc
 50
50.17734129996664
 51
204.8226587000331
  0
ARC
  5
2833
102
{ACAD_REACTORS
330
2840
102
}
330
1E
100
AcDbEntity
  8
SCHRAFF
100
AcDbCircle
 10
284.6702469941087
 20
317.1353466397534
 30
0.0
 40
7.72688137620693
100
AcDbArc
 50
283.5038918188102
 51
6.496108181190196
  0
ARC
  5
2834
102
{ACAD_REACTORS
330
2840
102
}
330
1E
100
AcDbEntity
  8
SCHRAFF
100
AcDbCircle
 10
120.14013030644
 20
366.0671270047702
 30
0.0
 40
3.91019278983791
100
AcDbArc
 50
85.17734129996942
 51
239.8226587000359
  0
HATCH
  5
2840
330
1E
100
AcDbEntity
  8
SCHRAFF
100
AcDbHatch
 10
0.0
 20
0.0
 30
0.0
210
0.0
220
0.0
230
1.0
  2
_USER
 70
     0
 71
     1
 91
        3
 92
        7
 72
     1
 73
     1
 93
        3
 10
181.1621696677027
 20
456.6424947010355
 42
0.0
 10
184.9209401508464
 20
458.0105752743383
 42
0.8000435398614907
 10
178.8678639222985
 20
453.3658865238797
 42
0.0
 97
        3
330
2830
330
271B
330
2691
 92
        7
 72
     1
 73
     1
 93
        3
 10
118.1745619714924
 20
366.6868683202389
 42
0.0
 10
120.4688677168958
 20
369.9634764973937
 42
0.8000435398609132
 10
118.1745619714924
 20
362.6868683202386
 42
0.0
 97
        3
330
271B
330
2834
330
2611
 92
        7
 72
     1
 73
     1
 93
        4
 10
292.3475182585219
 20
318.0095329669097
 42
0.0
 10
288.5887477753783
 20
316.641452393607
 42
0.0
 10
286.4745619714926
 20
313.6220821519051
 42
0.0
 10
286.4745619714926
 20
309.6220821519052
 42
0.3788272717039905
 97
        4
330
2662
330
2718
330
25F9
330
2833
 75
     0
 76
     0
 52
0.0
 41
0.1
 77
     0
 78
     1
 53
0.0
 43
-421.4917915787518
 44
21.29632077139718
 45
0.0
 46
0.1
 79
     0
 47
0.4076112545490146
 98
        3
 10
181.0850571444043
 20
457.5119456020554
 10
117.4527277345669
 20
366.2070240761984
 10
290.402136012277
 20
314.8480051931199
  0
HATCH
  5
28C6
330
1E
100
AcDbEntity
  8
SCHRAFF
100
AcDbHatch
 10
0.0
 20
0.0
 30
0.0
210
0.0
220
0.0
230
1.0
  2
_USER
 70
     0
 71
     1
 91
        1
 92
       33
 93
        7
 72
     2
 10
292.3311912506633
 20
311.7781504530502
 40
26.0
 50
144.9999999999998
 51
180.0
 73
     1
 72
     1
 10
268.8245619714924
 20
225.6877919481922
 11
268.1342022571437
 21
217.796944305466
 72
     1
 10
266.3245619714924
 20
225.7969443054634
 11
265.6246526632854
 21
217.7969443054659
 72
     1
 10
268.8245619714924
 20
311.7969443054658
 11
268.8245619714924
 21
225.6877919481922
 72
     1
 10
266.3245619714924
 20
311.7969443054658
 11
266.3245619714924
 21
225.7969443054634
 72
     2
 10
292.3311912506633
 20
311.7781504530502
 40
23.5
 50
144.9999999999995
 51
180.0
 73
     1
 72
     1
 10
268.8311912506633
 20
311.7781504530502
 11
268.8243508477969
 21
232.6877919481935
 97
        7
330
2652
330
2602
330
2601
330
25FB
330
25FA
330
2538
330
2535
 75
     0
 76
     0
 52
135.0
 41
2.0
 77
     0
 78
     1
 53
135.0
 43
-421.4917915787518
 44
21.29632077139718
 45
-1.414213562373095
 46
-1.414213562373094
 79
     0
 98
        1
 10
-421.4917915787518
 20
21.29632077139718
  0
HATCH
  5
28F6
330
1E
100
AcDbEntity
  8
SCHRAFF
100
AcDbHatch
 10
0.0
 20
0.0
 30
0.0
210
0.0
220
0.0
230
1.0
  2
_USER
 70
     0
 71
     1
 91
        2
 92
        7
 72
     1
 73
     1
 93
       23
 10
269.8995375686029
 20
472.8179620310825
 42
0.1085781327853844
 10
277.329868889765
 20
477.532226996807
 42
-0.1102736034491089
 10
287.4277498920042
 20
483.9865095528402
 42
0.0
 10
305.3821021155827
 20
490.521359337754
 42
-0.1095178116832416
 10
317.1844389825992
 20
492.0751664636647
 42
0.0
 10
319.3612263269301
 20
491.8847222481288
 42
0.0
 10
318.4177826419652
 20
494.476812469097
 42
0.0
 10
317.4023283394685
 20
494.565653208894
 42
0.109517811683237
 10
304.5270517572693
 20
492.870590889719
 42
0.0
 10
286.5726995336903
 20
486.3357411048049
 42
0.0
 10
286.5727897381879
 20
486.3354932699838
 42
0.109549420553764
 10
275.6176367750114
 20
479.3553289777342
 42
-0.1095494205537701
 10
269.0444872102887
 20
475.1671935830472
 42
0.0
 10
256.3292427019892
 20
470.5392230606095
 42
0.1528962216020389
 10
247.7820795738245
 20
464.0077386830101
 42
-0.1528962216020386
 10
243.0336556137327
 20
460.3791362510107
 42
0.0
 10
238.8050388201961
 20
458.8400456060452
 42
0.1539147210598292
 10
164.1338963194362
 20
401.542862741989
 42
0.0
 10
166.1817764301587
 20
400.1089216511113
 42
-0.1539147210598265
 10
239.660089178509
 20
456.4908140540797
 42
0.0
 10
243.8887059720469
 20
458.0299046990457
 42
0.1528962216020398
 10
249.8242359221615
 20
462.5656577390451
 42
-0.1528962216020395
 10
257.1842930603034
 20
468.1899915086447
 42
0.0
 97
       23
330
2687
330
267F
330
268A
330
268C
330
268F
330
2664
330
268E
330
268D
330
2689
330
268B
330
267E
330
2686
330
2681
330
2683
330
2685
330
267C
330
253A
330
252C
330
2656
330
267D
330
2680
330
2684
330
2682
 92
        7
 72
     1
 73
     1
 93
       23
 10
295.1296899076937
 20
338.0899459356545
 42
0.1528962216020391
 10
287.6672843177325
 20
337.7492492384494
 42
0.0
 10
283.4386675241962
 20
336.210158593484
 42
0.1539147210598301
 10
271.0332380991497
 20
326.6911377981775
 42
0.0
 10
273.0811182098721
 20
325.2571967072999
 42
-0.1539147210598296
 10
284.2937178825102
 20
333.8609270415192
 42
0.0
 10
288.5223346760467
 20
335.4000176864847
 42
-0.1528962216020414
 10
294.4922591480158
 20
335.6725750442486
 42
0.1528962216020359
 10
305.2381231975597
 20
336.1631782882244
 42
0.0
 10
317.9533677058592
 20
340.7911488106624
 42
-0.109549420553725
 10
325.6807739430964
 20
341.8079900613526
 42
0.1095494205537913
 10
338.5596711146938
 20
343.5027105801678
 42
0.0
 10
338.5597613191918
 20
343.5024627453469
 42
0.0
 10
356.5141135427702
 20
350.0373125302606
 42
0.1095178116832442
 10
367.4667126785968
 20
357.0148877182418
 42
0.0
 10
368.1874900774886
 20
357.7356651171338
 42
0.0
 10
367.2440463925238
 20
360.3277553381019
 42
0.0
 10
365.6989457256301
 20
358.782654671208
 42
-0.1095178116832506
 10
355.6590631844551
 20
352.386544082225
 42
0.0
 10
337.7047109608774
 20
345.8516942973117
 42
-0.110273603449059
 10
325.8205524754067
 20
344.3051687913513
 42
0.108578132785451
 10
317.0983173475452
 20
343.1403803626272
 42
0.0
 10
304.3830728392456
 20
338.5124098401893
 42
-0.15289622160204
 97
       23
330
267A
330
2666
330
2669
330
2668
330
266B
330
266E
330
2664
330
266D
330
266C
330
2667
330
2665
330
267B
330
2677
330
2675
330
2676
330
266F
330
2655
330
252C
330
2555
330
2670
330
2674
330
2679
330
2678
 75
     0
 76
     0
 52
75.0
 41
2.0
 77
     0
 78
     1
 53
75.0
 43
-421.4917915787518
 44
21.29632077139718
 45
-1.931851652578136
 46
0.5176380902050415
 79
     0
 47
0.4821458828975793
 98
        2
 10
260.264185389537
 20
470.2177709418237
 10
302.2405462857728
 20
337.1455060720309
  0
HATCH
  5
28FF
330
1E
100
AcDbEntity
  8
SCHRAFF
100
AcDbHatch
 10
0.0
 20
0.0
 30
0.0
210
0.0
220
0.0
230
1.0
  2
_USER
 70
     0
 71
     0
 91
        2
 92
        7
 72
     0
 73
     1
 93
        4
 10
121.0745619714924
 20
365.7725018324898
 10
118.1745619714925
 20
366.6868683202388
 10
118.1745619714924
 20
277.7969443054659
 10
121.0745619714926
 20
277.7969443054659
 97
        0
 92
        7
 72
     0
 73
     1
 93
        4
 10
286.4745619714927
 20
313.622082151905
 10
283.5745619714926
 20
314.5364486396543
 10
283.5745619714926
 20
277.7969443054658
 10
286.4745619714926
 20
277.7969443054658
 97
        0
 75
     0
 76
     0
 52
45.0
 41
2.0
 77
     0
 78
     1
 53
45.0
 43
-421.4917915787518
 44
21.29632077139718
 45
-1.414213562373094
 46
1.414213562373095
 79
     0
 47
0.5054379599382203
 98
        2
 10
119.2334995011374
 20
327.7576817612603
 10
285.6402019208822
 20
287.322644205886
  0
HATCH
  5
2908
330
1E
100
AcDbEntity
  8
SCHRAFF
100
AcDbHatch
 10
0.0
 20
0.0
 30
0.0
210
0.0
220
0.0
230
1.0
  2
_USER
 70
     0
 71
     1
 91
        2
 92
        7
 72
     0
 73
     1
 93
        4
 10
118.1745619714923
 20
366.6868683202388
 10
121.0745619714926
 20
365.7725018324897
 10
183.0132515245791
 20
454.2301178579485
 10
181.1621696677027
 20
456.6424947010356
 97
        4
330
272E
330
271B
330
2730
330
271C
 92
        7
 72
     0
 73
     1
 93
        4
 10
283.5745619714924
 20
314.5364486396543
 10
286.4745619714927
 20
313.6220821519051
 10
288.5887477753783
 20
316.6414523936069
 10
286.737665918502
 20
319.0538292366942
 97
        4
330
2731
330
2719
330
2732
330
2718
 75
     0
 76
     0
 52
135.0
 41
2.0
 77
     0
 78
     1
 53
135.0
 43
-421.4917915787518
 44
21.29632077139718
 45
-1.414213562373095
 46
-1.414213562373094
 79
     0
 47
0.5054379599382203
 98
        2
 10
162.7319070046605
 20
428.3398353537124
 10
285.6402019208822
 20
316.132608831439
  0
HATCH
  5
2911
330
1E
100
AcDbEntity
  8
SCHRAFF
100
AcDbHatch
 10
0.0
 20
0.0
 30
0.0
210
0.0
220
0.0
230
1.0
  2
_USER
 70
     0
 71
     1
 91
        2
 92
        7
 72
     0
 73
     1
 93
        4
 10
315.5134997145163
 20
502.45626423197
 10
314.5216412988718
 20
505.1813728322494
 10
181.1621696677027
 20
456.6424947010357
 10
183.0132515245789
 20
454.2301178579488
 97
        4
330
2664
330
2691
330
272E
330
2690
 92
        7
 72
     0
 73
     1
 93
        4
 10
372.0836314205821
 20
347.0311047539813
 10
371.0917730049376
 20
349.7562133542603
 10
286.7376659185021
 20
319.0538292366938
 10
288.5887477753783
 20
316.641452393607
 97
        4
330
2664
330
2661
330
2731
330
2662
 75
     0
 76
     0
 52
45.0
 41
2.0
 77
     0
 78
     1
 53
45.0
 43
-421.4917915787518
 44
21.29632077139718
 45
-1.414213562373094
 46
1.414213562373095
 79
     0
 47
0.5054379599382203
 98
        2
 10
265.4083815328231
 20
485.4543250085462
 10
309.4125852868865
 20
325.7359289738663
  0
HATCH
  5
2940
330
1E
100
AcDbEntity
  8
SCHRAFF
100
AcDbHatch
 10
0.0
 20
0.0
 30
0.0
210
0.0
220
0.0
230
1.0
  2
NET
 70
     0
 71
     1
 91
        2
 92
        7
 72
     1
 73
     1
 93
        6
 10
300.4784177819421
 20
496.9839419387596
 42
0.0
 10
302.2740235344018
 20
492.0505556796335
 42
0.0
 10
304.5270517572687
 20
492.8705908897188
 42
-0.1095178116832416
 10
317.4023283394685
 20
494.565653208894
 42
0.0
 10
318.4177826419652
 20
494.4768124690969
 42
0.0
 10
315.5134997145163
 20
502.4562642319702
 42
0.0
 97
        6
330
2690
330
2688
330
2689
330
268D
330
268E
330
2664
 92
        7
 72
     1
 73
     1
 93
        6
 10
356.51411354277
 20
350.0373125302605
 42
0.0
 10
354.2610853199036
 20
349.2172773201755
 42
0.0
 10
356.0566910723633
 20
344.2838910610496
 42
0.0
 10
371.0917730049376
 20
349.7562133542603
 42
0.0
 10
368.1874900774887
 20
357.7356651171339
 42
0.0
 10
367.4667126785968
 20
357.0148877182418
 42
-0.1095178116832468
 97
        6
330
266E
330
266B
330
2668
330
266A
330
2661
330
2664
 75
     0
 76
     1
 52
75.0
 41
20.0
 77
     0
 78
     2
 53
75.0
 43
-421.4917915787518
 44
21.29632077139718
 45
-2.41481456572267
 46
0.6470476127563019
 79
     0
 53
165.0
 43
-421.4917915787518
 44
21.29632077139718
 45
-0.647047612756302
 46
-2.41481456572267
 79
     0
 47
0.3570839684472513
 98
        2
 10
311.4959371765353
 20
497.7465521201918
 10
365.0964146580741
 20
352.0562925309118
  0
HATCH
  5
29AC
330
1E
100
AcDbEntity
  8
SCHRAFF
100
AcDbHatch
 10
0.0
 20
0.0
 30
0.0
210
0.0
220
0.0
230
1.0
  2
HONEY
 70
     0
 71
     1
 91
        1
 92
        7
 72
     1
 73
     1
 93
       17
 10
268.8296360839351
 20
293.7969443054659
 42
0.0
 10
281.4745619714924
 20
293.796944305466
 42
0.0
 10
283.5745619714926
 20
291.6969443054659
 42
0.0
 10
283.5745619714926
 20
314.5364486396545
 42
0.0
 10
286.7376659185017
 20
319.0538292366937
 42
0.0
 10
356.0566910723633
 20
344.2838910610496
 42
0.0
 10
354.2610853199036
 20
349.2172773201755
 42
0.0
 10
338.5597613191919
 20
343.5024627453469
 42
0.0
 10
338.5596711146936
 20
343.5027105801682
 42
-0.1095494205537191
 10
325.6807739431048
 20
341.8079900613518
 42
0.1095494205538437
 10
317.9533677058592
 20
340.7911488106624
 42
0.0
 10
305.2381231975597
 20
336.1631782882244
 42
-0.1528962216020418
 10
294.4922591480154
 20
335.6725750442486
 42
0.1528962216020401
 10
288.5223346760464
 20
335.4000176864845
 42
0.0
 10
284.2937178825102
 20
333.8609270415192
 42
0.1539147210598295
 10
273.0811182098721
 20
325.2571967072999
 42
0.1538704526803578
 10
268.8311916022352
 20
311.782215410601
 42
0.0
 97
       17
330
2719
330
2661
330
266A
330
2668
330
2669
330
2666
330
267A
330
2678
330
2679
330
2674
330
2670
330
2555
330
2538
330
2535
330
25FE
330
2600
330
25F8
 75
     0
 76
     1
 52
0.0
 41
30.0
 77
     0
 78
     3
 53
0.0
 43
-421.4917915787518
 44
21.29632077139718
 45
5.625
 46
3.247595249999999
 79
     2
 49
3.75
 49
-7.5
 53
120.0
 43
-421.4917915787518
 44
21.29632077139718
 45
-5.624999987709673
 46
3.247595271287468
 79
     2
 49
3.749999999999999
 49
-7.499999999999999
 53
60.0
 43
-421.4917915787518
 44
21.29632077139718
 45
0.0000000122903263
 46
6.495190521287468
 79
     2
 49
-7.5
 49
3.75
 47
0.6381443355854414
 98
        1
 10
276.1197422019609
 20
309.6651472785532
  0
HATCH
  5
29D4
330
1E
100
AcDbEntity
  8
SCHRAFF
100
AcDbHatch
 10
0.0
 20
0.0
 30
0.0
210
0.0
220
0.0
230
1.0
  2
HONEY
 70
     0
 71
     0
 91
        1
 92
       33
 93
       17
 72
     1
 10
135.8245619714923
 20
311.7969443054656
 11
135.8245619714923
 21
293.796944305466
 72
     1
 10
121.0745619714926
 20
291.6969443054658
 11
123.1745619714927
 21
293.796944305466
 72
     1
 10
135.8245619714923
 20
293.796944305466
 11
123.1745619714927
 21
293.796944305466
 72
     1
 10
121.0745619714924
 20
365.7725018324894
 11
121.0745619714926
 21
291.6969443054658
 72
     1
 10
183.0132515245794
 20
454.2301178579489
 11
121.0745619714924
 21
365.7725018324894
 72
     2
 10
292.3311912506633
 20
311.7781504530501
 40
156.5
 50
145.0
 51
180.0
 73
     1
 72
     2
 10
292.3311912506635
 20
311.7781504530503
 40
156.5
 50
110.0000000000003
 51
145.0000000000001
 73
     1
 72
     1
 10
243.0336556137324
 20
460.3791362510106
 11
238.8050388201953
 21
458.8400456060448
 72
     1
 10
269.0444872102885
 20
475.1671935830471
 11
256.3292427019894
 21
470.5392230606094
 72
     2
 10
262.4856052818513
 20
453.6247558864628
 40
18.0
 50
109.9999999999997
 51
144.7719440319484
 73
     1
 72
     2
 10
239.613454180476
 20
469.7760624588694
 40
10.0
 50
290.0
 51
324.7719440319485
 73
     1
 72
     2
 10
296.8333038334602
 20
458.1449624812274
 40
29.99973625969209
 50
110.0
 51
135.0071583365521
 73
     1
 72
     2
 10
262.8881246304268
 20
492.0816607571934
 40
18.0
 50
289.9999999999989
 51
315.0071583365526
 73
     1
 72
     1
 10
302.2740235344015
 20
492.0505556796333
 11
300.4784177819422
 21
496.9839419387596
 72
     1
 10
302.2740235344015
 20
492.0505556796333
 11
286.5726995336902
 21
486.3357411048049
 72
     1
 10
286.572789738188
 20
486.3354932699837
 11
286.5726995336902
 21
486.3357411048049
 72
     1
 10
300.4784177819422
 20
496.9839419387596
 11
183.0132515245794
 21
454.2301178579489
 97
        0
 75
     0
 76
     1
 52
0.0
 41
30.0
 77
     0
 78
     3
 53
0.0
 43
-770.7887665226239
 44
21.29632077139712
 45
5.625
 46
3.247595249999999
 79
     2
 49
3.75
 49
-7.5
 53
120.0
 43
-770.7887665226239
 44
21.29632077139712
 45
-5.624999987709673
 46
3.247595271287468
 79
     2
 49
3.749999999999999
 49
-7.499999999999998
 53
60.0
 43
-770.7887665226239
 44
21.29632077139712
 45
0.0000000122903263
 46
6.495190521287468
 79
     2
 49
-7.5
 49
3.75
 98
        1
 10
-770.7887665226239
 20
21.29632077139712
  0
HATCH
  5
2A19
330
1E
100
AcDbEntity
  8
SCHRAFF
100
AcDbHatch
 10
0.0
 20
0.0
 30
0.0
210
0.0
220
0.0
230
1.0
  2
_USER
 70
     0
 71
     1
 91
        1
 92
       33
 93
        6
 72
     2
 10
292.3311912506633
 20
311.7781504530502
 40
154.0
 50
145.0
 51
180.0
 73
     1
 72
     2
 10
292.3311912506633
 20
311.7781504530502
 40
156.5
 50
145.0
 51
180.0
 73
     1
 72
     1
 10
138.3245619714924
 20
311.7969443054657
 11
138.3245619714924
 21
225.7969443054649
 72
     1
 10
135.8245619714923
 20
311.7969443054657
 11
135.8245619714923
 21
225.6877919481956
 72
     1
 10
138.3245619714924
 20
225.7969443054649
 11
139.0244712796999
 21
217.796944305466
 72
     1
 10
135.8245619714923
 20
225.6877919481967
 11
136.5149216858416
 21
217.796944305466
 97
        6
330
2654
330
2537
330
2609
330
2608
330
2607
330
2606
 75
     0
 76
     0
 52
135.0
 41
2.0
 77
     0
 78
     1
 53
135.0
 43
-421.4917915787518
 44
21.29632077139718
 45
-1.414213562373095
 46
-1.414213562373094
 79
     0
 98
        1
 10
-421.4917915787518
 20
21.29632077139718
  0
HATCH
  5
2B07
330
1E
100
AcDbEntity
  8
SCHRAFF
100
AcDbHatch
 10
0.0
 20
0.0
 30
0.0
210
0.0
220
0.0
230
1.0
  2
NET
 70
     0
 71
     0
 91
        2
 92
        7
 72
     0
 73
     1
 93
        9
 10
276.1809684320435
 20
283.7969443054661
 10
278.3245619714928
 20
275.796944305465
 10
286.4745619714924
 20
275.7969443054649
 10
286.4745619714924
 20
277.7969443054658
 10
283.5745619714924
 20
277.7969443054658
 10
283.5745619714924
 20
291.6969443054662
 10
281.4745619714924
 20
293.7969443054659
 10
268.8245619714923
 20
293.7969443054661
 10
268.8245619714924
 20
283.7969443054661
 97
        0
 92
        7
 72
     0
 73
     1
 93
        9
 10
128.4681555109415
 20
283.796944305466
 10
135.8245619714922
 20
283.796944305466
 10
135.8245619714922
 20
293.796944305466
 10
123.1745619714925
 20
293.7969443054659
 10
121.0745619714923
 20
291.6969443054658
 10
121.0745619714923
 20
277.7969443054659
 10
118.1745619714923
 20
277.7969443054659
 10
118.1745619714924
 20
275.796944305466
 10
126.3245619714924
 20
275.7969443054659
 97
        0
 75
     0
 76
     1
 52
45.0
 41
20.0
 77
     0
 78
     2
 53
45.0
 43
-22.67543802850764
 44
-35.78866614616107
 45
-1.767766952966368
 46
1.767766952966368
 79
     0
 53
135.0
 43
-22.67543802850764
 44
-35.78866614616107
 45
-1.767766952966368
 46
-1.767766952966368
 79
     0
 47
0.2115359210124944
 98
        2
 10
278.484325506806
 20
286.1902019942576
 10
127.1448988660806
 20
287.8824894762029
  0
LINE
  5
2B08
330
1E
100
AcDbEntity
  8
STEMPEL
100
AcDbLine
 10
286.4745619714924
 20
275.7969443054649
 30
0.0
 11
268.8245619714923
 21
275.796944305465
 31
0.0
  0
LINE
  5
2B09
330
1E
100
AcDbEntity
  8
STEMPEL
100
AcDbLine
 10
278.3245619714928
 20
275.7969443054649
 30
0.0
 11
276.1809684320435
 21
283.796944305466
 31
0.0
  0
LINE
  5
2B0A
330
1E
100
AcDbEntity
  8
STEMPEL
100
AcDbLine
 10
135.8245619714922
 20
275.7969443054658
 30
0.0
 11
118.1745619714924
 21
275.796944305466
 31
0.0
  0
LINE
  5
2B0B
330
1E
100
AcDbEntity
  8
STEMPEL
100
AcDbLine
 10
126.3245619714924
 20
275.796944305466
 30
0.0
 11
128.4681555109415
 21
283.796944305466
 31
0.0
  0
TEXT
  5
2B13
330
1E
100
AcDbEntity
  8
TEXT
100
AcDbText
 10
148.622109822104
 20
73.14025471151666
 30
0.0
 40
4.0
  1
2007
 41
0.8
  7
GREEKS
100
AcDbText
  0
TEXT
  5
2B14
330
1E
100
AcDbEntity
  8
TEXT
100
AcDbText
 10
170.398997108236
 20
63.10765040825732
 30
0.0
 40
4.0
  1
28.09.
 41
0.8
  7
GREEKS
 72
     1
 11
177.4085209177598
 21
63.10765040825732
 31
0.0
100
AcDbText
  0
DIMENSION
  5
2B31
330
1E
100
AcDbEntity
  8
BEM
100
AcDbDimension
  2
*D6
 10
86.76491139097107
 20
374.7968288919241
 30
0.0
 11
80.264911390971
 21
296.2968865986951
 31
0.0
 70
    32
 71
     5
 42
156.9998845864581
  3
Standard
100
AcDbAlignedDimension
 13
136.5149216858416
 23
217.796944305466
 33
0.0
 14
202.3311912506633
 24
374.7968288919241
 34
0.0
 50
90.0
100
AcDbRotatedDimension
1001
ACAD
1000
DSTYLE
1002
{
1070
    40
1040
2.0
1070
    41
1040
3.5
1070
    42
1040
1.0
1070
    43
1040
7.0
1070
    44
1040
1.0
1070
    73
1070
     0
1070
    74
1070
     0
1070
    77
1070
     1
1070
    78
1070
     8
1070
    79
1070
     2
1070
   140
1040
3.5
1070
   141
1040
1.5
1070
   146
1040
0.5142857142857144
1070
   147
1040
1.5
1070
   172
1070
     1
1070
   178
1070
     1
1070
   179
1070
     2
1070
   271
1070
     2
1070
   272
1070
     2
1070
   284
1070
     8
1070
   285
1070
     8
1070
   286
1070
     8
1002
}
  0
DIMENSION
  5
2B3E
330
1E
100
AcDbEntity
  8
BEM
100
AcDbDimension
  2
*D7
 10
297.001436664532
 20
553.3177394493223
 30
0.0
 11
224.2925831783833
 21
533.7710365338349
 31
0.0
 70
    32
  1
150
 71
     5
 42
150.0186784388739
 51
339.9999999999999
  3
Standard
100
AcDbAlignedDimension
 13
202.3311912506633
 23
374.7968288919241
 33
0.0
 14
314.5216412988719
 24
505.1813728322495
 34
0.0
 50
20.00000000000012
100
AcDbRotatedDimension
1001
ACAD
1000
DSTYLE
1002
{
1070
    40
1040
2.0
1070
    41
1040
3.5
1070
    42
1040
1.0
1070
    43
1040
7.0
1070
    44
1040
1.0
1070
    73
1070
     0
1070
    74
1070
     0
1070
    77
1070
     1
1070
    78
1070
     8
1070
    79
1070
     2
1070
   140
1040
3.5
1070
   141
1040
1.5
1070
   146
1040
0.5142857142857144
1070
   147
1040
1.5
1070
   172
1070
     1
1070
   178
1070
     1
1070
   179
1070
     2
1070
   271
1070
     2
1070
   272
1070
     2
1070
   284
1070
     8
1070
   285
1070
     8
1070
   286
1070
     8
1002
}
  0
DIMENSION
  5
2B54
330
1E
100
AcDbEntity
  8
BEM
100
AcDbDimension
  2
*D8
 10
202.3243508477968
 20
212.7969443054659
 30
0.0
 11
253.4230321678546
 21
493.9596260555511
 31
0.0
 70
   162
 71
     5
 42
1.221688251656919
 51
339.9999999999999
  3
Standard
100
AcDb2LineAngularDimension
 13
202.3311912506633
 23
374.7968288919241
 33
0.0
 14
348.0010994636565
 24
427.8163395097437
 34
0.0
 15
202.3311912506633
 25
374.7968288919241
 35
0.0
 16
296.6393140257753
 26
463.7694449869998
 36
0.0
1001
ACAD
1000
DSTYLE
1002
{
1070
    40
1040
2.0
1070
    41
1040
3.5
1070
    42
1040
1.0
1070
    43
1040
7.0
1070
    44
1040
1.0
1070
    73
1070
     0
1070
    74
1070
     0
1070
    77
1070
     1
1070
    78
1070
     8
1070
    79
1070
     2
1070
   140
1040
3.5
1070
   141
1040
1.5
1070
   146
1040
0.5142857142857144
1070
   147
1040
1.5
1070
   172
1070
     1
1070
   178
1070
     1
1070
   179
1070
     2
1070
   271
1070
     2
1070
   272
1070
     2
1070
   284
1070
     8
1070
   285
1070
     8
1070
   286
1070
     8
1002
}
  0
ENDSEC
  0
SECTION
  2
OBJECTS
  0
DICTIONARY
  5
C
330
0
100
AcDbDictionary
281
     1
  3
ACAD_COLOR
350
DF
  3
ACAD_GROUP
350
D
  3
ACAD_LAYOUT
350
19
  3
ACAD_MATERIAL
350
DE
  3
ACAD_MLINESTYLE
350
16
  3
ACAD_PLOTSETTINGS
350
18
  3
ACAD_PLOTSTYLENAME
350
E
  3
AcDbVariableDictionary
350
25E
  0
DICTIONARY
  5
A0
330
1E
100
AcDbDictionary
280
     1
281
     1
  3
ACAD_LAYOUTSELFREF
360
D4
  0
DICTIONARY
  5
A2
330
1A
100
AcDbDictionary
280
     1
281
     1
  3
ACAD_LAYOUTSELFREF
360
D3
  0
DICTIONARY
  5
DF
102
{ACAD_REACTORS
330
C
102
}
330
C
100
AcDbDictionary
281
     1
  0
DICTIONARY
  5
D
102
{ACAD_REACTORS
330
C
102
}
330
C
100
AcDbDictionary
281
     1
  0
DICTIONARY
  5
19
102
{ACAD_REACTORS
330
C
102
}
330
C
100
AcDbDictionary
281
     1
  3
Layout1
350
1D
  3
Model
350
21
  0
DICTIONARY
  5
DE
102
{ACAD_REACTORS
330
C
102
}
330
C
100
AcDbDictionary
281
     1
  0
DICTIONARY
  5
16
102
{ACAD_REACTORS
330
C
102
}
330
C
100
AcDbDictionary
281
     1
  3
Standard
350
17
  0
DICTIONARY
  5
18
102
{ACAD_REACTORS
330
C
102
}
330
C
100
AcDbDictionary
281
     1
  0
ACDBDICTIONARYWDFLT
  5
E
102
{ACAD_REACTORS
330
C
102
}
330
C
100
AcDbDictionary
281
     1
  3
Normal
350
F
100
AcDbDictionaryWithDefault
340
F
  0
DICTIONARY
  5
25E
102
{ACAD_REACTORS
330
C
102
}
330
C
100
AcDbDictionary
281
     1
  3
DIMASSOC
350
25F
  3
PROJECTNAME
350
260
  0
XRECORD
  5
D4
102
{ACAD_REACTORS
330
A0
102
}
330
A0
100
AcDbXrecord
280
     1
340
1E
  0
XRECORD
  5
D3
102
{ACAD_REACTORS
330
A2
102
}
330
A2
100
AcDbXrecord
280
     1
340
1A
  0
LAYOUT
  5
1D
102
{ACAD_REACTORS
330
19
102
}
330
19
100
AcDbPlotSettings
  1

  2
\\NT_WORK01\HP LaserJet 5000 PCL 6
  4

  6

 40
0.0
 41
0.0
 42
0.0
 43
0.0
 44
0.0
 45
0.0
 46
0.0
 47
0.0
 48
0.0
 49
0.0
140
0.0
141
0.0
142
1.0
143
1.0
 70
   688
 72
     0
 73
     0
 74
     5
  7

 75
    16
147
1.0
 76
     0
 77
     2
 78
   300
148
0.0
149
0.0
100
AcDbLayout
  1
Layout1
 70
     0
 71
     1
 10
0.0
 20
0.0
 11
12.0
 21
9.0
 12
0.0
 22
0.0
 32
0.0
 14
1.000000000000000E+20
 24
1.000000000000000E+20
 34
1.000000000000000E+20
 15
-1.000000000000000E+20
 25
-1.000000000000000E+20
 35
-1.000000000000000E+20
146
0.0
 13
0.0
 23
0.0
 33
0.0
 16
1.0
 26
0.0
 36
0.0
 17
0.0
 27
1.0
 37
0.0
 76
     0
330
1A
  0
LAYOUT
  5
21
102
{ACAD_REACTORS
330
19
102
}
330
19
100
AcDbPlotSettings
  1

  2
RICOH Aficio 2027 PCL 6
  4
A4
  6

 40
5.027083
 41
5.027084999999999
 42
5.027084
 43
5.027069
 44
209.973328
 45
296.925995
 46
0.0
 47
2.06
 48
0.0
 49
0.0
140
0.0
141
0.0
142
1.0
143
2.100849152723284
 70
 11956
 72
     1
 73
     0
 74
     2
  7
monochrome1.ctb
 75
     0
147
0.4759980023809526
 76
     1
 77
     2
 78
   300
148
0.0
149
0.0
100
AcDbLayout
  1
Model
 70
     1
 71
     0
 10
0.0
 20
0.0
 11
12.0
 21
9.0
 12
0.0
 22
0.0
 32
0.0
 14
0.0
 24
0.0
 34
0.0
 15
0.0
 25
0.0
 35
0.0
146
0.0
 13
0.0
 23
0.0
 33
0.0
 16
1.0
 26
0.0
 36
0.0
 17
0.0
 27
1.0
 37
0.0
 76
     0
330
1E
  0
MLINESTYLE
  5
17
102
{ACAD_REACTORS
330
16
102
}
330
16
100
AcDbMlineStyle
  2
STANDARD
 70
     0
  3

 62
   256
 51
90.0
 52
90.0
 71
     2
 49
0.5
 62
   256
  6
BYLAYER
 49
-0.5
 62
   256
  6
BYLAYER
  0
ACDBPLACEHOLDER
  5
F
102
{ACAD_REACTORS
330
E
102
}
330
E
  0
DICTIONARYVAR
  5
25F
102
{ACAD_REACTORS
330
25E
102
}
330
25E
100
DictionaryVariables
280
     0
  1
1
  0
DICTIONARYVAR
  5
260
102
{ACAD_REACTORS
330
25E
102
}
330
25E
100
DictionaryVariables
280
     0
  1

  0
ENDSEC
  0
EOF
