  0
SECTION
  2
HEADER
  9
$ACADVER
  1
AC1018
  9
$ACADMAINTVER
 70
     2
  9
$DWGCODEPAGE
  3
ANSI_1252
  9
$INSBASE
 10
0.0
 20
0.0
 30
0.0
  9
$EXTMIN
 10
-0.0064041928749248
 20
-0.0090573584946014
 30
-0.0000000000112498
  9
$EXTMAX
 10
420.0064100605654
 20
594.0090656570857
 30
0.0000000000002956
  9
$LIMMIN
 10
0.0
 20
0.0
  9
$LIMMAX
 10
419.9999999999999
 20
594.0000000000002
  9
$ORTHOMODE
 70
     0
  9
$REGENMODE
 70
     1
  9
$FILLMODE
 70
     1
  9
$QTEXTMODE
 70
     0
  9
$MIRRTEXT
 70
     1
  9
$LTSCALE
 40
20.0
  9
$ATTMODE
 70
     1
  9
$TEXTSIZE
 40
3.5
  9
$TRACEWID
 40
0.5
  9
$TEXTSTYLE
  7
STANDARD
  9
$CLAYER
  8
BEM
  9
$CELTYPE
  6
ByLayer
  9
$CECOLOR
 62
   256
  9
$CELTSCALE
 40
1.0
  9
$DISPSILH
 70
     0
  9
$DIMSCALE
 40
2.0
  9
$DIMASZ
 40
3.5
  9
$DIMEXO
 40
1.0
  9
$DIMDLI
 40
7.0
  9
$DIMRND
 40
0.0
  9
$DIMDLE
 40
0.0
  9
$DIMEXE
 40
1.0
  9
$DIMTP
 40
0.0
  9
$DIMTM
 40
0.0
  9
$DIMTXT
 40
3.5
  9
$DIMCEN
 40
1.5
  9
$DIMTSZ
 40
0.0
  9
$DIMTOL
 70
     0
  9
$DIMLIM
 70
     0
  9
$DIMTIH
 70
     0
  9
$DIMTOH
 70
     0
  9
$DIMSE1
 70
     0
  9
$DIMSE2
 70
     0
  9
$DIMTAD
 70
     1
  9
$DIMZIN
 70
     8
  9
$DIMBLK
  1

  9
$DIMASO
 70
     1
  9
$DIMSHO
 70
     0
  9
$DIMPOST
  1

  9
$DIMAPOST
  1

  9
$DIMALT
 70
     0
  9
$DIMALTD
 70
     2
  9
$DIMALTF
 40
25.4
  9
$DIMLFAC
 40
1.0
  9
$DIMTOFL
 70
     1
  9
$DIMTVP
 40
0.0
  9
$DIMTIX
 70
     0
  9
$DIMSOXD
 70
     0
  9
$DIMSAH
 70
     0
  9
$DIMBLK1
  1

  9
$DIMBLK2
  1

  9
$DIMSTYLE
  2
Standard
  9
$DIMCLRD
 70
     0
  9
$DIMCLRE
 70
     0
  9
$DIMCLRT
 70
     1
  9
$DIMTFAC
 40
0.5142857142857144
  9
$DIMGAP
 40
1.5
  9
$DIMJUST
 70
     0
  9
$DIMSD1
 70
     0
  9
$DIMSD2
 70
     0
  9
$DIMTOLJ
 70
     1
  9
$DIMTZIN
 70
     8
  9
$DIMALTZ
 70
     8
  9
$DIMALTTZ
 70
     8
  9
$DIMUPT
 70
     0
  9
$DIMDEC
 70
     2
  9
$DIMTDEC
 70
     2
  9
$DIMALTU
 70
     2
  9
$DIMALTTD
 70
     2
  9
$DIMTXSTY
  7
STANDARD
  9
$DIMAUNIT
 70
     0
  9
$DIMADEC
 70
     2
  9
$DIMALTRND
 40
0.0
  9
$DIMAZIN
 70
     2
  9
$DIMDSEP
 70
    46
  9
$DIMATFIT
 70
     3
  9
$DIMFRAC
 70
     0
  9
$DIMLDRBLK
  1

  9
$DIMLUNIT
 70
     2
  9
$DIMLWD
 70
    -2
  9
$DIMLWE
 70
    -2
  9
$DIMTMOVE
 70
     0
  9
$LUNITS
 70
     2
  9
$LUPREC
 70
     2
  9
$SKETCHINC
 40
1.0
  9
$FILLETRAD
 40
67.5
  9
$AUNITS
 70
     0
  9
$AUPREC
 70
     0
  9
$MENU
  1
ACAD
  9
$ELEVATION
 40
0.0
  9
$PELEVATION
 40
0.0
  9
$THICKNESS
 40
0.0
  9
$LIMCHECK
 70
     0
  9
$CHAMFERA
 40
0.0
  9
$CHAMFERB
 40
0.0
  9
$CHAMFERC
 40
0.0
  9
$CHAMFERD
 40
0.0
  9
$SKPOLY
 70
     0
  9
$TDCREATE
 40
2455397.823042361
  9
$TDUCREATE
 40
2455397.781375695
  9
$TDUPDATE
 40
2455532.532142778
  9
$TDUUPDATE
 40
2455532.490476111
  9
$TDINDWG
 40
0.2567697106
  9
$TDUSRTIMER
 40
0.2567697106
  9
$USRTIMER
 70
     1
  9
$ANGBASE
 50
0.0
  9
$ANGDIR
 70
     0
  9
$PDMODE
 70
     0
  9
$PDSIZE
 40
0.0
  9
$PLINEWID
 40
0.0
  9
$SPLFRAME
 70
     0
  9
$SPLINETYPE
 70
     6
  9
$SPLINESEGS
 70
     8
  9
$HANDSEED
  5
1869
  9
$SURFTAB1
 70
     6
  9
$SURFTAB2
 70
     6
  9
$SURFTYPE
 70
     6
  9
$SURFU
 70
     6
  9
$SURFV
 70
     6
  9
$UCSBASE
  2

  9
$UCSNAME
  2

  9
$UCSORG
 10
0.0
 20
0.0
 30
0.0
  9
$UCSXDIR
 10
1.0
 20
0.0
 30
0.0
  9
$UCSYDIR
 10
0.0
 20
1.0
 30
0.0
  9
$UCSORTHOREF
  2

  9
$UCSORTHOVIEW
 70
     0
  9
$UCSORGTOP
 10
0.0
 20
0.0
 30
0.0
  9
$UCSORGBOTTOM
 10
0.0
 20
0.0
 30
0.0
  9
$UCSORGLEFT
 10
0.0
 20
0.0
 30
0.0
  9
$UCSORGRIGHT
 10
0.0
 20
0.0
 30
0.0
  9
$UCSORGFRONT
 10
0.0
 20
0.0
 30
0.0
  9
$UCSORGBACK
 10
0.0
 20
0.0
 30
0.0
  9
$PUCSBASE
  2

  9
$PUCSNAME
  2

  9
$PUCSORG
 10
0.0
 20
0.0
 30
0.0
  9
$PUCSXDIR
 10
1.0
 20
0.0
 30
0.0
  9
$PUCSYDIR
 10
0.0
 20
1.0
 30
0.0
  9
$PUCSORTHOREF
  2

  9
$PUCSORTHOVIEW
 70
     0
  9
$PUCSORGTOP
 10
0.0
 20
0.0
 30
0.0
  9
$PUCSORGBOTTOM
 10
0.0
 20
0.0
 30
0.0
  9
$PUCSORGLEFT
 10
0.0
 20
0.0
 30
0.0
  9
$PUCSORGRIGHT
 10
0.0
 20
0.0
 30
0.0
  9
$PUCSORGFRONT
 10
0.0
 20
0.0
 30
0.0
  9
$PUCSORGBACK
 10
0.0
 20
0.0
 30
0.0
  9
$USERI1
 70
     0
  9
$USERI2
 70
     0
  9
$USERI3
 70
     0
  9
$USERI4
 70
     0
  9
$USERI5
 70
     0
  9
$USERR1
 40
0.0
  9
$USERR2
 40
0.0
  9
$USERR3
 40
0.0
  9
$USERR4
 40
0.0
  9
$USERR5
 40
0.0
  9
$WORLDVIEW
 70
     1
  9
$SHADEDGE
 70
     3
  9
$SHADEDIF
 70
    70
  9
$TILEMODE
 70
     1
  9
$MAXACTVP
 70
    16
  9
$PINSBASE
 10
0.0
 20
0.0
 30
0.0
  9
$PLIMCHECK
 70
     0
  9
$PEXTMIN
 10
1.000000000000000E+20
 20
1.000000000000000E+20
 30
1.000000000000000E+20
  9
$PEXTMAX
 10
-1.000000000000000E+20
 20
-1.000000000000000E+20
 30
-1.000000000000000E+20
  9
$PLIMMIN
 10
0.0
 20
0.0
  9
$PLIMMAX
 10
12.0
 20
9.0
  9
$UNITMODE
 70
     0
  9
$VISRETAIN
 70
     0
  9
$PLINEGEN
 70
     0
  9
$PSLTSCALE
 70
     0
  9
$TREEDEPTH
 70
  3020
  9
$CMLSTYLE
  2
Standard
  9
$CMLJUST
 70
     0
  9
$CMLSCALE
 40
1.0
  9
$PROXYGRAPHICS
 70
     1
  9
$MEASUREMENT
 70
     0
  9
$CELWEIGHT
370
    -1
  9
$ENDCAPS
280
     0
  9
$JOINSTYLE
280
     0
  9
$LWDISPLAY
290
     0
  9
$INSUNITS
 70
     0
  9
$HYPERLINKBASE
  1

  9
$STYLESHEET
  1
monochrome 1.ctb
  9
$XEDIT
290
     1
  9
$CEPSNTYPE
380
     0
  9
$PSTYLEMODE
290
     1
  9
$FINGERPRINTGUID
  2
{D68B0D02-A558-11D7-B632-000102183313}
  9
$VERSIONGUID
  2
{D4AAE4F6-98F5-41D4-B725-5828DC074777}
  9
$EXTNAMES
290
     1
  9
$PSVPSCALE
 40
0.0
  9
$OLESTARTUP
290
     0
  9
$SORTENTS
280
   127
  9
$INDEXCTL
280
     0
  9
$HIDETEXT
280
     0
  9
$XCLIPFRAME
290
     0
  9
$HALOGAP
280
     0
  9
$OBSCOLOR
 70
   257
  9
$OBSLTYPE
280
     0
  9
$INTERSECTIONDISPLAY
280
     0
  9
$INTERSECTIONCOLOR
 70
   257
  9
$DIMASSOC
280
     1
  9
$PROJECTNAME
  1

  0
ENDSEC
  0
SECTION
  2
CLASSES
  0
CLASS
  1
ACDBDICTIONARYWDFLT
  2
AcDbDictionaryWithDefault
  3
ObjectDBX Classes
 90
        0
 91
        1
280
     0
281
     0
  0
CLASS
  1
DICTIONARYVAR
  2
AcDbDictionaryVar
  3
ObjectDBX Classes
 90
        0
 91
        2
280
     0
281
     0
  0
ENDSEC
  0
SECTION
  2
TABLES
  0
TABLE
  2
VPORT
  5
8
330
0
100
AcDbSymbolTable
 70
     2
  0
VPORT
  5
1868
330
8
100
AcDbSymbolTableRecord
100
AcDbViewportTableRecord
  2
*Active
 70
     0
 10
0.0
 20
0.0
 11
1.0
 21
1.0
 12
210.0000029338453
 22
297.0000041492956
 13
0.0
 23
0.0
 14
1.0
 24
1.0
 15
10.0
 25
10.0
 16
0.0
 26
0.0
 36
1.0
 17
0.0
 27
0.0
 37
0.0
 40
598.8150392175905
 41
1.336927223719676
 42
50.0
 43
0.0
 44
0.0
 50
0.0
 51
0.0
 71
     0
 72
  1500
 73
     1
 74
     0
 75
     0
 76
     0
 77
     0
 78
     0
281
     0
 65
     1
110
0.0
120
0.0
130
0.0
111
1.0
121
0.0
131
0.0
112
0.0
122
1.0
132
0.0
 79
     0
146
0.0
  0
ENDTAB
  0
TABLE
  2
LTYPE
  5
5
330
0
100
AcDbSymbolTable
 70
     2
  0
LTYPE
  5
13
330
5
100
AcDbSymbolTableRecord
100
AcDbLinetypeTableRecord
  2
ByBlock
 70
     0
  3

 72
    65
 73
     0
 40
0.0
  0
LTYPE
  5
14
330
5
100
AcDbSymbolTableRecord
100
AcDbLinetypeTableRecord
  2
ByLayer
 70
     0
  3

 72
    65
 73
     0
 40
0.0
  0
LTYPE
  5
15
330
5
100
AcDbSymbolTableRecord
100
AcDbLinetypeTableRecord
  2
Continuous
 70
     0
  3
Solid line
 72
    65
 73
     0
 40
0.0
  0
LTYPE
  5
25
330
5
100
AcDbSymbolTableRecord
100
AcDbLinetypeTableRecord
  2
STRICHPUNKT
 70
     0
  3
__ . __ . __ . __ . __ . __ . __ . __ . __ . __
 72
    65
 73
     4
 40
1.0
 49
0.5
 74
     0
 49
-0.25
 74
     0
 49
0.0
 74
     0
 49
-0.25
 74
     0
  0
ENDTAB
  0
TABLE
  2
LAYER
  5
2
330
0
100
AcDbSymbolTable
 70
     9
  0
LAYER
  5
10
330
2
100
AcDbSymbolTableRecord
100
AcDbLayerTableRecord
  2
0
 70
     0
 62
     7
  6
Continuous
370
    -3
390
F
  0
LAYER
  5
2A
330
2
100
AcDbSymbolTableRecord
100
AcDbLayerTableRecord
  2
VOLL
 70
     0
 62
     1
  6
Continuous
370
    -3
390
F
  0
LAYER
  5
2B
330
2
100
AcDbSymbolTableRecord
100
AcDbLayerTableRecord
  2
HILF
 70
     0
 62
     2
  6
Continuous
370
    -3
390
F
  0
LAYER
  5
2C
330
2
100
AcDbSymbolTableRecord
100
AcDbLayerTableRecord
  2
MITTEL
 70
     0
 62
     2
  6
STRICHPUNKT
370
    -3
390
F
  0
LAYER
  5
2F
330
2
100
AcDbSymbolTableRecord
100
AcDbLayerTableRecord
  2
BEM
 70
     0
 62
     7
  6
Continuous
370
    -3
390
F
  0
LAYER
  5
30
330
2
100
AcDbSymbolTableRecord
100
AcDbLayerTableRecord
  2
STEMPEL
 70
     0
 62
     3
  6
Continuous
370
    -3
390
F
  0
LAYER
  5
31
330
2
100
AcDbSymbolTableRecord
100
AcDbLayerTableRecord
  2
TEXT
 70
     0
 62
     7
  6
Continuous
370
    -3
390
F
  0
LAYER
  5
171
330
2
100
AcDbSymbolTableRecord
100
AcDbLayerTableRecord
  2
Defpoints
 70
     0
 62
     7
  6
Continuous
290
     0
370
    -3
390
F
  0
LAYER
  5
19C
330
2
100
AcDbSymbolTableRecord
100
AcDbLayerTableRecord
  2
SCHRAFF
 70
     0
 62
     7
  6
Continuous
370
    -3
390
F
  0
ENDTAB
  0
TABLE
  2
STYLE
  5
3
330
0
100
AcDbSymbolTable
 70
     2
  0
STYLE
  5
11
330
3
100
AcDbSymbolTableRecord
100
AcDbTextStyleTableRecord
  2
STANDARD
 70
     0
 40
0.0
 41
0.8
 50
0.0
 71
     0
 42
3.5
  3
simplex.shx
  4

  0
STYLE
  5
24
330
3
100
AcDbSymbolTableRecord
100
AcDbTextStyleTableRecord
  2
GREEKS
 70
     0
 40
0.0
 41
0.8
 50
0.0
 71
     0
 42
2.5
  3
SIMPLEX.shx
  4

  0
ENDTAB
  0
TABLE
  2
VIEW
  5
6
330
0
100
AcDbSymbolTable
 70
     0
  0
ENDTAB
  0
TABLE
  2
UCS
  5
7
330
0
100
AcDbSymbolTable
 70
     0
  0
ENDTAB
  0
TABLE
  2
APPID
  5
9
330
0
100
AcDbSymbolTable
 70
     1
  0
APPID
  5
12
330
9
100
AcDbSymbolTableRecord
100
AcDbRegAppTableRecord
  2
ACAD
 70
     0
  0
ENDTAB
  0
TABLE
  2
DIMSTYLE
  5
A
330
0
100
AcDbSymbolTable
 70
     1
100
AcDbDimStyleTable
 71
     1
340
9D
  0
DIMSTYLE
105
9D
102
{ACAD_REACTORS
330
123D
330
1230
330
122F
330
12CA
330
12AF
330
157C
330
1844
330
1851
102
}
330
A
100
AcDbSymbolTableRecord
100
AcDbDimStyleTableRecord
  2
Standard
 70
     0
340
11
  0
ENDTAB
  0
TABLE
  2
BLOCK_RECORD
  5
1
330
0
100
AcDbSymbolTable
 70
     9
  0
BLOCK_RECORD
  5
1E
102
{ACAD_XDICTIONARY
360
A0
102
}
330
1
100
AcDbSymbolTableRecord
100
AcDbBlockTableRecord
  2
*Model_Space
340
21
  0
BLOCK_RECORD
  5
1A
102
{ACAD_XDICTIONARY
360
A2
102
}
330
1
100
AcDbSymbolTableRecord
100
AcDbBlockTableRecord
  2
*Paper_Space
340
1D
  0
BLOCK_RECORD
  5
22
330
1
100
AcDbSymbolTableRecord
100
AcDbBlockTableRecord
  2
LOGO
340
0
102
{BLKREFS
331
9B
102
}
  0
BLOCK_RECORD
  5
123E
330
1
100
AcDbSymbolTableRecord
100
AcDbBlockTableRecord
  2
*D1
340
0
  0
BLOCK_RECORD
  5
1265
330
1
100
AcDbSymbolTableRecord
100
AcDbBlockTableRecord
  2
*D2
340
0
  0
BLOCK_RECORD
  5
1271
330
1
100
AcDbSymbolTableRecord
100
AcDbBlockTableRecord
  2
*D3
340
0
  0
BLOCK_RECORD
  5
132C
330
1
100
AcDbSymbolTableRecord
100
AcDbBlockTableRecord
  2
*D4
340
0
  0
BLOCK_RECORD
  5
1352
330
1
100
AcDbSymbolTableRecord
100
AcDbBlockTableRecord
  2
*D5
340
0
  0
BLOCK_RECORD
  5
157D
330
1
100
AcDbSymbolTableRecord
100
AcDbBlockTableRecord
  2
*D6
340
0
  0
BLOCK_RECORD
  5
1845
330
1
100
AcDbSymbolTableRecord
100
AcDbBlockTableRecord
  2
*D7
340
0
  0
BLOCK_RECORD
  5
1852
330
1
100
AcDbSymbolTableRecord
100
AcDbBlockTableRecord
  2
*D8
340
0
  0
ENDTAB
  0
ENDSEC
  0
SECTION
  2
BLOCKS
  0
BLOCK
  5
35
330
1E
100
AcDbEntity
  8
0
100
AcDbBlockBegin
  2
*Model_Space
 70
     0
 10
0.0
 20
0.0
 30
0.0
  3
*Model_Space
  1

  0
ENDBLK
  5
36
330
1E
100
AcDbEntity
  8
0
100
AcDbBlockEnd
  0
BLOCK
  5
33
330
1A
100
AcDbEntity
 67
     1
  8
0
100
AcDbBlockBegin
  2
*Paper_Space
 70
     0
 10
0.0
 20
0.0
 30
0.0
  3
*Paper_Space
  1

  0
ENDBLK
  5
34
330
1A
100
AcDbEntity
 67
     1
  8
0
100
AcDbBlockEnd
  0
BLOCK
  5
37
330
22
100
AcDbEntity
  8
0
100
AcDbBlockBegin
  2
LOGO
 70
     0
 10
0.0
 20
0.0
 30
0.0
  3
LOGO
  1

  0
ARC
  5
38
330
22
100
AcDbEntity
  8
0
100
AcDbCircle
 10
11.59973089678112
 20
-9.271599258481501
 30
0.0
 40
4.5
100
AcDbArc
 50
270.0
 51
231.0575587310159
  0
LINE
  5
39
330
22
100
AcDbEntity
  8
0
100
AcDbLine
 10
3.599730896781125
 20
-4.771599258481529
 30
0.0
 11
3.599730896781153
 21
-11.77159925848133
 31
0.0
  0
LINE
  5
3A
330
22
100
AcDbEntity
  8
0
100
AcDbLine
 10
2.599730896781125
 20
-4.771599258481529
 30
0.0
 11
2.599730896781153
 21
-11.77159925848133
 31
0.0
  0
CIRCLE
  5
3B
330
22
100
AcDbEntity
  8
0
100
AcDbCircle
 10
11.59973089678112
 20
-9.271599258481501
 30
0.0
 40
3.5
  0
ARC
  5
3C
330
22
100
AcDbEntity
  8
0
100
AcDbCircle
 10
31.59973089678115
 20
-9.271599258481472
 30
0.0
 40
4.5
100
AcDbArc
 50
270.0
 51
231.0575587310182
  0
LINE
  5
3D
330
22
100
AcDbEntity
  8
0
100
AcDbLine
 10
17.59973089678112
 20
-4.771599258481472
 30
0.0
 11
17.59973089678115
 21
-13.77159925848147
 31
0.0
  0
ARC
  5
3E
330
22
100
AcDbEntity
  8
0
100
AcDbCircle
 10
22.59973089678116
 20
-7.271599258481472
 30
0.0
 40
2.5
100
AcDbArc
 50
293.1161887722295
 51
90.0
  0
CIRCLE
  5
3F
330
22
100
AcDbEntity
  8
0
100
AcDbCircle
 10
31.59973089678115
 20
-9.271599258481472
 30
0.0
 40
3.5
  0
ARC
  5
40
330
22
100
AcDbEntity
  8
0
100
AcDbCircle
 10
4.599730896781153
 20
-11.77159925848133
 30
0.0
 40
1.0
100
AcDbArc
 50
180.0
 51
270.0
  0
ARC
  5
41
330
22
100
AcDbEntity
  8
0
100
AcDbCircle
 10
4.599730896781153
 20
-11.77159925848133
 30
0.0
 40
2.0
100
AcDbArc
 50
179.9999999999992
 51
270.0
  0
LINE
  5
42
330
22
100
AcDbEntity
  8
0
100
AcDbLine
 10
11.59973089678115
 20
-13.77159925848144
 30
0.0
 11
4.599730896781153
 21
-13.77159925848147
 31
0.0
  0
LINE
  5
43
330
22
100
AcDbEntity
  8
0
100
AcDbLine
 10
8.771303772034769
 20
-12.77159925848136
 30
0.0
 11
4.599730896781153
 21
-12.77159925848133
 31
0.0
  0
LINE
  5
44
330
22
100
AcDbEntity
  8
0
100
AcDbLine
 10
31.59973089678115
 20
-13.77159925848147
 30
0.0
 11
23.6715276665056
 21
-13.77159925848144
 31
0.0
  0
LINE
  5
45
330
22
100
AcDbEntity
  8
0
100
AcDbLine
 10
23.56565672307022
 20
-9.51278021337896
 30
0.0
 11
24.4388546544846
 21
-12.77159925848144
 31
0.0
  0
LINE
  5
46
330
22
100
AcDbEntity
  8
0
100
AcDbLine
 10
22.59973089678116
 20
-9.771599258481472
 30
0.0
 11
18.59973089678112
 21
-9.771599258481472
 31
0.0
  0
LINE
  5
47
330
22
100
AcDbEntity
  8
0
100
AcDbLine
 10
18.59973089678115
 20
-13.77159925848144
 30
0.0
 11
17.59973089678115
 21
-13.77159925848144
 31
0.0
  0
LINE
  5
48
330
22
100
AcDbEntity
  8
0
100
AcDbLine
 10
18.59973089678115
 20
-9.771599258481472
 30
0.0
 11
18.59973089678115
 21
-13.77159925848144
 31
0.0
  0
LINE
  5
49
330
22
100
AcDbEntity
  8
0
100
AcDbLine
 10
22.59973089678116
 20
-9.771599258481472
 30
0.0
 11
23.67152766650562
 21
-13.77159925848147
 31
0.0
  0
ARC
  5
4A
330
22
100
AcDbEntity
  8
0
100
AcDbCircle
 10
22.59973089678116
 20
-7.271599258481472
 30
0.0
 40
2.5
100
AcDbArc
 50
270.0
 51
270.0000000000007
  0
LINE
  5
4B
330
22
100
AcDbEntity
  8
0
100
AcDbLine
 10
28.77130377203494
 20
-12.77159925848147
 30
0.0
 11
24.43885465448463
 21
-12.77159925848144
 31
0.0
  0
LINE
  5
4C
330
22
100
AcDbEntity
  8
0
100
AcDbLine
 10
3.599730896781125
 20
-4.771599258481472
 30
0.0
 11
2.599730896781125
 21
-4.771599258481472
 31
0.0
  0
LINE
  5
4D
330
22
100
AcDbEntity
  8
0
100
AcDbLine
 10
22.59973089678116
 20
-8.771599258481472
 30
0.0
 11
18.59973089678115
 21
-8.771599258481472
 31
0.0
  0
LINE
  5
4E
330
22
100
AcDbEntity
  8
0
100
AcDbLine
 10
22.59973089678116
 20
-5.771599258481472
 30
0.0
 11
18.59973089678115
 21
-5.771599258481472
 31
0.0
  0
LINE
  5
4F
330
22
100
AcDbEntity
  8
0
100
AcDbLine
 10
22.59973089678116
 20
-4.771599258481472
 30
0.0
 11
17.59973089678115
 21
-4.771599258481472
 31
0.0
  0
LINE
  5
50
330
22
100
AcDbEntity
  8
0
100
AcDbLine
 10
18.59973089678115
 20
-5.771599258481472
 30
0.0
 11
18.59973089678115
 21
-8.771599258481472
 31
0.0
  0
ARC
  5
51
330
22
100
AcDbEntity
  8
0
100
AcDbCircle
 10
22.59973089678116
 20
-7.271599258481472
 30
0.0
 40
1.5
100
AcDbArc
 50
270.0
 51
90.0
  0
ENDBLK
  5
52
330
22
100
AcDbEntity
  8
0
100
AcDbBlockEnd
  0
BLOCK
  5
1248
330
123E
100
AcDbEntity
  8
0
100
AcDbBlockBegin
  2
*D1
 70
     1
 10
0.0
 20
0.0
 30
0.0
  3
*D1
  1

  0
LINE
  5
183B
330
123E
100
AcDbEntity
  8
BEM
 62
     0
370
    -2
100
AcDbLine
 10
144.9252514763307
 20
274.4152936142749
 30
0.0
 11
132.8544323848755
 21
274.4152936142749
 31
0.0
  0
LINE
  5
183C
330
123E
100
AcDbEntity
  8
BEM
 62
     0
370
    -2
100
AcDbLine
 10
163.356965037645
 20
244.4152936142748
 30
0.0
 11
132.8544323848755
 21
244.4152936142748
 31
0.0
  0
LINE
  5
183D
330
123E
100
AcDbEntity
  8
BEM
 62
     0
370
    -2
100
AcDbLine
 10
134.8544323848755
 20
267.4152936142749
 30
0.0
 11
134.8544323848755
 21
251.4152936142747
 31
0.0
  0
SOLID
  5
183E
330
123E
100
AcDbEntity
  8
BEM
 62
     0
100
AcDbTrace
 10
133.6877657182089
 20
267.4152936142749
 30
0.0
 11
136.0210990515422
 21
267.4152936142749
 31
0.0
 12
134.8544323848755
 22
274.4152936142749
 32
0.0
 13
134.8544323848755
 23
274.4152936142749
 33
0.0
  0
SOLID
  5
183F
330
123E
100
AcDbEntity
  8
BEM
 62
     0
100
AcDbTrace
 10
133.6877657182089
 20
251.4152936142747
 30
0.0
 11
136.0210990515422
 21
251.4152936142747
 31
0.0
 12
134.8544323848755
 22
244.4152936142748
 32
0.0
 13
134.8544323848755
 23
244.4152936142748
 33
0.0
  0
MTEXT
  5
1840
330
123E
100
AcDbEntity
  8
BEM
 62
     1
100
AcDbMText
 10
128.3544323848755
 20
259.4152936142749
 30
0.0
 40
7.0
 41
0.0
 71
     5
 72
     1
  1
\A1;30
 11
0.0000000000000001
 21
1.0
 31
0.0
 73
     1
 44
1.0
  0
POINT
  5
1841
330
123E
100
AcDbEntity
  8
Defpoints
 62
     0
100
AcDbPoint
 10
146.9252514763307
 20
274.4152936142749
 30
0.0
  0
POINT
  5
1842
330
123E
100
AcDbEntity
  8
Defpoints
 62
     0
100
AcDbPoint
 10
165.356965037645
 20
244.4152936142748
 30
0.0
  0
POINT
  5
1843
330
123E
100
AcDbEntity
  8
Defpoints
 62
     0
100
AcDbPoint
 10
134.8544323848755
 20
244.4152936142748
 30
0.0
  0
ENDBLK
  5
1249
330
123E
100
AcDbEntity
  8
0
100
AcDbBlockEnd
  0
BLOCK
  5
126F
330
1265
100
AcDbEntity
  8
0
100
AcDbBlockBegin
  2
*D2
 70
     1
 10
0.0
 20
0.0
 30
0.0
  3
*D2
  1

  0
LINE
  5
17BB
330
1265
100
AcDbEntity
  8
BEM
 62
     0
370
    -2
100
AcDbLine
 10
164.9252514763384
 20
247.3498021998189
 30
0.0
 11
164.9252514763384
 21
222.1286995070691
 31
0.0
  0
LINE
  5
17BC
330
1265
100
AcDbEntity
  8
BEM
 62
     0
370
    -2
100
AcDbLine
 10
217.9252514763303
 20
247.3498021999064
 30
0.0
 11
217.9252514763303
 21
222.1286995070691
 31
0.0
  0
LINE
  5
17BD
330
1265
100
AcDbEntity
  8
BEM
 62
     0
370
    -2
100
AcDbLine
 10
171.9252514763384
 20
224.1286995070691
 30
0.0
 11
210.9252514763304
 21
224.1286995070691
 31
0.0
  0
SOLID
  5
17BE
330
1265
100
AcDbEntity
  8
BEM
 62
     0
100
AcDbTrace
 10
171.9252514763384
 20
225.2953661737358
 30
0.0
 11
171.9252514763384
 21
222.9620328404025
 31
0.0
 12
164.9252514763384
 22
224.1286995070691
 32
0.0
 13
164.9252514763384
 23
224.1286995070691
 33
0.0
  0
SOLID
  5
17BF
330
1265
100
AcDbEntity
  8
BEM
 62
     0
100
AcDbTrace
 10
210.9252514763304
 20
225.2953661737358
 30
0.0
 11
210.9252514763304
 21
222.9620328404025
 31
0.0
 12
217.9252514763303
 22
224.1286995070691
 32
0.0
 13
217.9252514763303
 23
224.1286995070691
 33
0.0
  0
MTEXT
  5
17C0
330
1265
100
AcDbEntity
  8
BEM
 62
     1
100
AcDbMText
 10
191.4252514763344
 20
230.6286995070691
 30
0.0
 40
7.0
 41
0.0
 71
     5
 72
     1
  1
\A1;%%c53
  7
GREEKS
 73
     1
 44
1.0
  0
POINT
  5
17C1
330
1265
100
AcDbEntity
  8
Defpoints
 62
     0
100
AcDbPoint
 10
164.9252514763384
 20
249.3498021998189
 30
0.0
  0
POINT
  5
17C2
330
1265
100
AcDbEntity
  8
Defpoints
 62
     0
100
AcDbPoint
 10
217.9252514763303
 20
249.3498021999064
 30
0.0
  0
POINT
  5
17C3
330
1265
100
AcDbEntity
  8
Defpoints
 62
     0
100
AcDbPoint
 10
217.9252514763303
 20
224.1286995070691
 30
0.0
  0
ENDBLK
  5
1270
330
1265
100
AcDbEntity
  8
0
100
AcDbBlockEnd
  0
BLOCK
  5
127B
330
1271
100
AcDbEntity
  8
0
100
AcDbBlockBegin
  2
*D3
 70
     1
 10
0.0
 20
0.0
 30
0.0
  3
*D3
  1

  0
LINE
  5
17C4
330
1271
100
AcDbEntity
  8
BEM
 62
     0
370
    -2
100
AcDbLine
 10
164.9252514763384
 20
247.3498021998189
 30
0.0
 11
164.9252514763384
 21
222.1286995070691
 31
0.0
  0
LINE
  5
17C5
330
1271
100
AcDbEntity
  8
BEM
 62
     0
370
    -2
100
AcDbLine
 10
217.9252514763303
 20
247.3498021999064
 30
0.0
 11
217.9252514763303
 21
222.1286995070691
 31
0.0
  0
LINE
  5
17C6
330
1271
100
AcDbEntity
  8
BEM
 62
     0
370
    -2
100
AcDbLine
 10
171.9252514763384
 20
224.1286995070691
 30
0.0
 11
210.9252514763304
 21
224.1286995070691
 31
0.0
  0
SOLID
  5
17C7
330
1271
100
AcDbEntity
  8
BEM
 62
     0
100
AcDbTrace
 10
171.9252514763384
 20
225.2953661737358
 30
0.0
 11
171.9252514763384
 21
222.9620328404025
 31
0.0
 12
164.9252514763384
 22
224.1286995070691
 32
0.0
 13
164.9252514763384
 23
224.1286995070691
 33
0.0
  0
SOLID
  5
17C8
330
1271
100
AcDbEntity
  8
BEM
 62
     0
100
AcDbTrace
 10
210.9252514763304
 20
225.2953661737358
 30
0.0
 11
210.9252514763304
 21
222.9620328404025
 31
0.0
 12
217.9252514763303
 22
224.1286995070691
 32
0.0
 13
217.9252514763303
 23
224.1286995070691
 33
0.0
  0
MTEXT
  5
17C9
330
1271
100
AcDbEntity
  8
BEM
 62
     1
100
AcDbMText
 10
191.4252514763344
 20
230.6286995070691
 30
0.0
 40
7.0
 41
0.0
 71
     5
 72
     1
  1
\A1;%%c53
  7
GREEKS
 73
     1
 44
1.0
  0
POINT
  5
17CA
330
1271
100
AcDbEntity
  8
Defpoints
 62
     0
100
AcDbPoint
 10
164.9252514763384
 20
249.3498021998189
 30
0.0
  0
POINT
  5
17CB
330
1271
100
AcDbEntity
  8
Defpoints
 62
     0
100
AcDbPoint
 10
217.9252514763303
 20
249.3498021999064
 30
0.0
  0
POINT
  5
17CC
330
1271
100
AcDbEntity
  8
Defpoints
 62
     0
100
AcDbPoint
 10
217.9252514763303
 20
224.1286995070691
 30
0.0
  0
ENDBLK
  5
127C
330
1271
100
AcDbEntity
  8
0
100
AcDbBlockEnd
  0
BLOCK
  5
1336
330
132C
100
AcDbEntity
  8
0
100
AcDbBlockBegin
  2
*D4
 70
     1
 10
0.0
 20
0.0
 30
0.0
  3
*D4
  1

  0
LINE
  5
1829
330
132C
100
AcDbEntity
  8
BEM
 62
     0
370
    -2
100
AcDbLine
 10
307.7600152023594
 20
462.1111408444429
 30
0.0
 11
319.4610637787891
 21
466.3699742359672
 31
0.0
  0
LINE
  5
182A
330
132C
100
AcDbEntity
  8
BEM
 62
     0
370
    -2
100
AcDbLine
 10
338.1998079583439
 20
378.4784975944971
 30
0.0
 11
349.900856534779
 21
382.7373309860233
 31
0.0
  0
LINE
  5
182B
330
132C
100
AcDbEntity
  8
BEM
 62
     0
370
    -2
100
AcDbLine
 10
319.9758195404975
 20
459.1080856038145
 30
0.0
 11
345.6273302899272
 21
388.631139044873
 31
0.0
  0
SOLID
  5
182C
330
132C
100
AcDbEntity
  8
BEM
 62
     0
100
AcDbTrace
 10
321.0721275980811
 20
459.5071091043612
 30
0.0
 11
318.879511482914
 21
458.7090621032678
 31
0.0
 12
317.5816785372174
 22
465.6859339493157
 32
0.0
 13
317.5816785372174
 23
465.6859339493157
 33
0.0
  0
SOLID
  5
182D
330
132C
100
AcDbEntity
  8
BEM
 62
     0
100
AcDbTrace
 10
346.7236383475107
 20
389.0301625454197
 30
0.0
 11
344.5310222323436
 21
388.2321155443264
 31
0.0
 12
348.0214712932073
 22
382.0532906993718
 32
0.0
 13
348.0214712932073
 23
382.0532906993718
 33
0.0
  0
MTEXT
  5
182E
330
132C
100
AcDbEntity
  8
BEM
 62
     1
100
AcDbMText
 10
338.9095769503206
 20
426.092743255961
 30
0.0
 40
7.0
 41
0.0
 71
     5
 72
     1
  1
\A1;%%c89
  7
GREEKS
 11
0.3420201433257285
 21
-0.9396926207858866
 31
0.0
 73
     1
 44
1.0
  0
POINT
  5
182F
330
132C
100
AcDbEntity
  8
Defpoints
 62
     0
100
AcDbPoint
 10
305.8806299607876
 20
461.4271005577915
 30
0.0
  0
POINT
  5
1830
330
132C
100
AcDbEntity
  8
Defpoints
 62
     0
100
AcDbPoint
 10
336.3204227167721
 20
377.7944573078456
 30
0.0
  0
POINT
  5
1831
330
132C
100
AcDbEntity
  8
Defpoints
 62
     0
100
AcDbPoint
 10
348.0214712932073
 20
382.0532906993718
 30
0.0
  0
ENDBLK
  5
1337
330
132C
100
AcDbEntity
  8
0
100
AcDbBlockEnd
  0
BLOCK
  5
135C
330
1352
100
AcDbEntity
  8
0
100
AcDbBlockBegin
  2
*D5
 70
     1
 10
0.0
 20
0.0
 30
0.0
  3
*D5
  1

  0
LINE
  5
1832
330
1352
100
AcDbEntity
  8
BEM
 62
     0
370
    -2
100
AcDbLine
 10
307.7600152023594
 20
462.1111408444429
 30
0.0
 11
319.4610637787891
 21
466.3699742359672
 31
0.0
  0
LINE
  5
1833
330
1352
100
AcDbEntity
  8
BEM
 62
     0
370
    -2
100
AcDbLine
 10
338.1998079583439
 20
378.4784975944971
 30
0.0
 11
349.900856534779
 21
382.7373309860233
 31
0.0
  0
LINE
  5
1834
330
1352
100
AcDbEntity
  8
BEM
 62
     0
370
    -2
100
AcDbLine
 10
319.9758195404975
 20
459.1080856038145
 30
0.0
 11
345.6273302899272
 21
388.631139044873
 31
0.0
  0
SOLID
  5
1835
330
1352
100
AcDbEntity
  8
BEM
 62
     0
100
AcDbTrace
 10
321.0721275980811
 20
459.5071091043612
 30
0.0
 11
318.879511482914
 21
458.7090621032678
 31
0.0
 12
317.5816785372174
 22
465.6859339493157
 32
0.0
 13
317.5816785372174
 23
465.6859339493157
 33
0.0
  0
SOLID
  5
1836
330
1352
100
AcDbEntity
  8
BEM
 62
     0
100
AcDbTrace
 10
346.7236383475107
 20
389.0301625454197
 30
0.0
 11
344.5310222323436
 21
388.2321155443264
 31
0.0
 12
348.0214712932073
 22
382.0532906993718
 32
0.0
 13
348.0214712932073
 23
382.0532906993718
 33
0.0
  0
MTEXT
  5
1837
330
1352
100
AcDbEntity
  8
BEM
 62
     1
100
AcDbMText
 10
338.9095769503206
 20
426.092743255961
 30
0.0
 40
7.0
 41
0.0
 71
     5
 72
     1
  1
\A1;%%c89
  7
GREEKS
 11
0.3420201433257285
 21
-0.9396926207858866
 31
0.0
 73
     1
 44
1.0
  0
POINT
  5
1838
330
1352
100
AcDbEntity
  8
Defpoints
 62
     0
100
AcDbPoint
 10
305.8806299607876
 20
461.4271005577915
 30
0.0
  0
POINT
  5
1839
330
1352
100
AcDbEntity
  8
Defpoints
 62
     0
100
AcDbPoint
 10
336.3204227167721
 20
377.7944573078456
 30
0.0
  0
POINT
  5
183A
330
1352
100
AcDbEntity
  8
Defpoints
 62
     0
100
AcDbPoint
 10
348.0214712932073
 20
382.0532906993718
 30
0.0
  0
ENDBLK
  5
135D
330
1352
100
AcDbEntity
  8
0
100
AcDbBlockEnd
  0
BLOCK
  5
1588
330
157D
100
AcDbEntity
  8
0
100
AcDbBlockBegin
  2
*D6
 70
     1
 10
0.0
 20
0.0
 30
0.0
  3
*D6
  1

  0
LINE
  5
1727
330
157D
100
AcDbEntity
  8
BEM
 62
     0
370
    -2
100
AcDbLine
 10
191.42525147633
 20
374.412838762598
 30
0.0
 11
191.4252514763296
 21
447.5181462641229
 31
0.0
  0
ARC
  5
1728
330
157D
100
AcDbEntity
  8
BEM
 62
     0
370
    -2
100
AcDbCircle
 10
191.42525147633
 20
372.412838762598
 30
0.0
 40
73.10530750152492
100
AcDbArc
 50
25.48829962991465
 51
84.51170037008585
  0
SOLID
  5
1729
330
157D
100
AcDbEntity
  8
BEM
 62
     0
100
AcDbTrace
 10
258.4913990816813
 20
404.3230626073629
 30
0.0
 11
256.3395046937223
 21
403.4209567446644
 31
0.0
 12
260.1217694757976
 22
397.4163265121369
 32
0.0
 13
260.1217694757976
 23
397.4163265121369
 33
0.0
  0
SOLID
  5
172A
330
157D
100
AcDbEntity
  8
BEM
 62
     0
100
AcDbTrace
 10
198.3613689392448
 20
444.0176844512952
 30
0.0
 11
198.4730799345989
 21
446.3483421048258
 31
0.0
 12
191.4252514763296
 22
445.5181462641228
 32
0.0
 13
191.4252514763296
 23
445.5181462641228
 33
0.0
  0
MTEXT
  5
172B
330
157D
100
AcDbEntity
  8
BEM
 62
     1
100
AcDbMText
 10
228.8787072015177
 20
442.6570103119425
 30
0.0
 40
7.0
 41
0.0
 71
     5
 72
     1
  1
\A1;70°
 11
0.8824056304034622
 21
-0.470489429671134
 31
0.0
 73
     1
 44
1.0
  0
POINT
  5
172C
330
157D
100
AcDbEntity
  8
Defpoints
 62
     0
100
AcDbPoint
 10
244.6001252120315
 20
422.580744719342
 30
0.0
  0
POINT
  5
172D
330
157D
100
AcDbEntity
  8
Defpoints
 62
     0
100
AcDbPoint
 10
191.42525147633
 20
372.412838762598
 30
0.0
  0
POINT
  5
172E
330
157D
100
AcDbEntity
  8
Defpoints
 62
     0
100
AcDbPoint
 10
325.7989894427093
 20
421.3208796494468
 30
0.0
  0
POINT
  5
172F
330
157D
100
AcDbEntity
  8
Defpoints
 62
     0
100
AcDbPoint
 10
191.42525147633
 20
372.412838762598
 30
0.0
  0
POINT
  5
1730
330
157D
100
AcDbEntity
  8
Defpoints
 62
     0
100
AcDbPoint
 10
191.4252514763307
 20
239.4152936142748
 30
0.0
  0
ENDBLK
  5
1589
330
157D
100
AcDbEntity
  8
0
100
AcDbBlockEnd
  0
BLOCK
  5
184F
330
1845
100
AcDbEntity
  8
0
100
AcDbBlockBegin
  2
*D7
 70
     1
 10
0.0
 20
0.0
 30
0.0
  3
*D7
  1

  0
LINE
  5
1846
330
1845
100
AcDbEntity
  8
BEM
 62
     0
370
    -2
100
AcDbLine
 10
163.356965037645
 20
244.4152936142748
 30
0.0
 11
117.9478335753201
 21
244.4152936142748
 31
0.0
  0
LINE
  5
1847
330
1845
100
AcDbEntity
  8
BEM
 62
     0
370
    -2
100
AcDbLine
 10
189.42525147633
 20
372.412838762598
 30
0.0
 11
117.9478335753201
 21
372.4128387625981
 31
0.0
  0
LINE
  5
1848
330
1845
100
AcDbEntity
  8
BEM
 62
     0
370
    -2
100
AcDbLine
 10
119.9478335753201
 20
251.4152936142747
 30
0.0
 11
119.9478335753201
 21
365.4128387625981
 31
0.0
  0
SOLID
  5
1849
330
1845
100
AcDbEntity
  8
BEM
 62
     0
100
AcDbTrace
 10
118.7811669086534
 20
251.4152936142747
 30
0.0
 11
121.1145002419868
 21
251.4152936142747
 31
0.0
 12
119.9478335753201
 22
244.4152936142748
 32
0.0
 13
119.9478335753201
 23
244.4152936142748
 33
0.0
  0
SOLID
  5
184A
330
1845
100
AcDbEntity
  8
BEM
 62
     0
100
AcDbTrace
 10
118.7811669086535
 20
365.4128387625981
 30
0.0
 11
121.1145002419868
 21
365.4128387625981
 31
0.0
 12
119.9478335753201
 22
372.4128387625981
 32
0.0
 13
119.9478335753201
 23
372.4128387625981
 33
0.0
  0
MTEXT
  5
184B
330
1845
100
AcDbEntity
  8
BEM
 62
     1
100
AcDbMText
 10
113.44783357532
 20
308.4140661884364
 30
0.0
 40
7.0
 41
0.0
 71
     5
 72
     1
  1
\A1;128
 11
0.0000000000000001
 21
1.0
 31
0.0
 73
     1
 44
1.0
  0
POINT
  5
184C
330
1845
100
AcDbEntity
  8
Defpoints
 62
     0
100
AcDbPoint
 10
165.356965037645
 20
244.4152936142748
 30
0.0
  0
POINT
  5
184D
330
1845
100
AcDbEntity
  8
Defpoints
 62
     0
100
AcDbPoint
 10
191.42525147633
 20
372.412838762598
 30
0.0
  0
POINT
  5
184E
330
1845
100
AcDbEntity
  8
Defpoints
 62
     0
100
AcDbPoint
 10
119.9478335753201
 20
372.4128387625981
 30
0.0
  0
ENDBLK
  5
1850
330
1845
100
AcDbEntity
  8
0
100
AcDbBlockEnd
  0
BLOCK
  5
185C
330
1852
100
AcDbEntity
  8
0
100
AcDbBlockBegin
  2
*D8
 70
     1
 10
0.0
 20
0.0
 30
0.0
  3
*D8
  1

  0
LINE
  5
1853
330
1852
100
AcDbEntity
  8
BEM
 62
     0
370
    -2
100
AcDbLine
 10
190.7412111896786
 20
374.2922240041699
 30
0.0
 11
163.8573975014065
 21
448.1548950615216
 31
0.0
  0
LINE
  5
1854
330
1852
100
AcDbEntity
  8
BEM
 62
     0
370
    -2
100
AcDbLine
 10
305.1965896741364
 20
463.3064857993633
 30
0.0
 11
293.5326723638567
 21
495.3528352317422
 31
0.0
  0
LINE
  5
1855
330
1852
100
AcDbEntity
  8
BEM
 62
     0
370
    -2
100
AcDbLine
 10
171.1192861335592
 20
448.6696508232295
 30
0.0
 11
287.6388643050067
 21
491.0793089868907
 31
0.0
  0
SOLID
  5
1856
330
1852
100
AcDbEntity
  8
BEM
 62
     0
100
AcDbTrace
 10
170.7202626330126
 20
449.7659588808131
 30
0.0
 11
171.5183096341059
 21
447.5733427656459
 31
0.0
 12
164.5414377880579
 22
446.2755098199497
 32
0.0
 13
164.5414377880579
 23
446.2755098199497
 33
0.0
  0
SOLID
  5
1857
330
1852
100
AcDbEntity
  8
BEM
 62
     0
100
AcDbTrace
 10
287.23984080446
 20
492.1756170444743
 30
0.0
 11
288.0378878055533
 21
489.9830009293071
 31
0.0
 12
294.2167126505081
 22
493.4734499901704
 32
0.0
 13
294.2167126505081
 23
493.4734499901704
 33
0.0
  0
MTEXT
  5
1858
330
1852
100
AcDbEntity
  8
BEM
 62
     1
100
AcDbMText
 10
227.1559442876661
 20
475.9824819401685
 30
0.0
 40
7.0
 41
0.0
 71
     5
 72
     1
  1
\A1;138
 11
0.9396926207859072
 21
0.3420201433256719
 31
0.0
 73
     1
 44
1.0
  0
POINT
  5
1859
330
1852
100
AcDbEntity
  8
Defpoints
 62
     0
100
AcDbPoint
 10
191.4252514763299
 20
372.4128387625981
 30
0.0
  0
POINT
  5
185A
330
1852
100
AcDbEntity
  8
Defpoints
 62
     0
100
AcDbPoint
 10
305.8806299607877
 20
461.4271005577915
 30
0.0
  0
POINT
  5
185B
330
1852
100
AcDbEntity
  8
Defpoints
 62
     0
100
AcDbPoint
 10
294.2167126505081
 20
493.4734499901704
 30
0.0
  0
ENDBLK
  5
185D
330
1852
100
AcDbEntity
  8
0
100
AcDbBlockEnd
  0
ENDSEC
  0
SECTION
  2
ENTITIES
  0
LINE
  5
57
330
1E
100
AcDbEntity
  8
STEMPEL
100
AcDbLine
 10
410.0
 20
110.0
 30
0.0
 11
39.99999999999997
 21
110.0
 31
0.0
  0
LINE
  5
58
330
1E
100
AcDbEntity
  8
STEMPEL
100
AcDbLine
 10
146.0000000000001
 20
109.9999999999999
 30
0.0
 11
146.0
 21
9.999999999999971
 31
0.0
  0
LINE
  5
59
330
1E
100
AcDbEntity
  8
STEMPEL
100
AcDbLine
 10
230.0
 20
110.0
 30
0.0
 11
230.0
 21
9.999999999999971
 31
0.0
  0
LINE
  5
5A
330
1E
100
AcDbEntity
  8
STEMPEL
100
AcDbLine
 10
332.0
 20
109.9999999999997
 30
0.0
 11
332.0
 21
40.0
 31
0.0
  0
LINE
  5
5B
330
1E
100
AcDbEntity
  8
STEMPEL
100
AcDbLine
 10
145.9999999999999
 20
29.99999999999997
 30
0.0
 11
39.99999999999997
 21
29.99999999999997
 31
0.0
  0
LINE
  5
5C
330
1E
100
AcDbEntity
  8
STEMPEL
100
AcDbLine
 10
410.0
 20
40.0
 30
0.0
 11
146.0000000000001
 21
39.99999999999997
 31
0.0
  0
LINE
  5
5D
330
1E
100
AcDbEntity
  8
STEMPEL
100
AcDbLine
 10
410.0
 20
80.0
 30
0.0
 11
146.0000000000001
 21
79.99999999999994
 31
0.0
  0
LINE
  5
5E
330
1E
100
AcDbEntity
  8
VOLL
100
AcDbLine
 10
54.00000000000009
 20
110.0
 30
0.0
 11
53.99999999999997
 21
9.999999999999971
 31
0.0
  0
LINE
  5
5F
330
1E
100
AcDbEntity
  8
VOLL
100
AcDbLine
 10
104.0000000000001
 20
109.9999999999999
 30
0.0
 11
104.0
 21
9.999999999999971
 31
0.0
  0
LINE
  5
60
330
1E
100
AcDbEntity
  8
VOLL
100
AcDbLine
 10
124.0000000000001
 20
109.9999999999999
 30
0.0
 11
124.0
 21
9.999999999999971
 31
0.0
  0
LINE
  5
61
330
1E
100
AcDbEntity
  8
VOLL
100
AcDbLine
 10
164.0000000000001
 20
79.99999999999994
 30
0.0
 11
164.0000000000001
 21
39.99999999999997
 31
0.0
  0
LINE
  5
62
330
1E
100
AcDbEntity
  8
VOLL
100
AcDbLine
 10
190.0000000000001
 20
109.9999999999998
 30
0.0
 11
190.0
 21
39.99999999999997
 31
0.0
  0
LINE
  5
63
330
1E
100
AcDbEntity
  8
HILF
100
AcDbLine
 10
40.00000000000008
 20
100.0
 30
0.0
 11
146.0000000000001
 21
100.0
 31
0.0
  0
LINE
  5
64
330
1E
100
AcDbEntity
  8
HILF
100
AcDbLine
 10
40.00000000000008
 20
90.00000000000005
 30
0.0
 11
146.0000000000001
 21
90.00000000000005
 31
0.0
  0
LINE
  5
65
330
1E
100
AcDbEntity
  8
HILF
100
AcDbLine
 10
40.00000000000008
 20
79.99999999999994
 30
0.0
 11
146.0000000000001
 21
79.99999999999994
 31
0.0
  0
LINE
  5
66
330
1E
100
AcDbEntity
  8
HILF
100
AcDbLine
 10
40.00000000000008
 20
69.99999999999994
 30
0.0
 11
146.0000000000001
 21
69.99999999999994
 31
0.0
  0
LINE
  5
67
330
1E
100
AcDbEntity
  8
HILF
100
AcDbLine
 10
40.00000000000008
 20
59.99999999999997
 30
0.0
 11
146.0000000000001
 21
59.99999999999997
 31
0.0
  0
LINE
  5
68
330
1E
100
AcDbEntity
  8
HILF
100
AcDbLine
 10
40.00000000000008
 20
49.99999999999997
 30
0.0
 11
146.0000000000001
 21
49.99999999999997
 31
0.0
  0
LINE
  5
69
330
1E
100
AcDbEntity
  8
HILF
100
AcDbLine
 10
40.00000000000008
 20
39.99999999999997
 30
0.0
 11
146.0000000000001
 21
39.99999999999997
 31
0.0
  0
LINE
  5
6A
330
1E
100
AcDbEntity
  8
HILF
100
AcDbLine
 10
146.0000000000001
 20
69.99999999999994
 30
0.0
 11
230.0
 21
69.99999999999994
 31
0.0
  0
LINE
  5
6B
330
1E
100
AcDbEntity
  8
HILF
100
AcDbLine
 10
146.0000000000001
 20
59.99999999999997
 30
0.0
 11
230.0
 21
59.99999999999997
 31
0.0
  0
LINE
  5
6C
330
1E
100
AcDbEntity
  8
HILF
100
AcDbLine
 10
146.0000000000001
 20
49.99999999999997
 30
0.0
 11
230.0
 21
49.99999999999997
 31
0.0
  0
LINE
  5
6D
330
1E
100
AcDbEntity
  8
HILF
100
AcDbLine
 10
234.7736801096947
 20
84.03758247564139
 30
0.0
 11
324.8353916556311
 21
84.03758247564139
 31
0.0
  0
LINE
  5
6E
330
1E
100
AcDbEntity
  8
HILF
100
AcDbLine
 10
234.7736801096947
 20
69.99999999999994
 30
0.0
 11
324.835391655631
 21
69.99999999999994
 31
0.0
  0
LINE
  5
6F
330
1E
100
AcDbEntity
  8
HILF
100
AcDbLine
 10
234.7736801096947
 20
59.99999999999997
 30
0.0
 11
324.835391655631
 21
59.99999999999997
 31
0.0
  0
LINE
  5
70
330
1E
100
AcDbEntity
  8
HILF
100
AcDbLine
 10
234.7736801096947
 20
49.99999999999997
 30
0.0
 11
324.835391655631
 21
49.99999999999997
 31
0.0
  0
LINE
  5
71
330
1E
100
AcDbEntity
  8
VOLL
100
AcDbLine
 10
332.0
 20
60.0
 30
0.0
 11
410.0
 21
60.0
 31
0.0
  0
LINE
  5
72
330
1E
100
AcDbEntity
  8
HILF
100
AcDbLine
 10
336.7238616296993
 20
83.77983636955827
 30
0.0
 11
404.8588839326728
 21
83.77983636955827
 31
0.0
  0
LINE
  5
73
330
1E
100
AcDbEntity
  8
HILF
100
AcDbLine
 10
233.4909699289885
 20
14.89398258028314
 30
0.0
 11
404.8588839326728
 21
14.89398258028314
 31
0.0
  0
TEXT
  5
74
330
1E
100
AcDbEntity
  8
TEXT
100
AcDbText
 10
67.79509897490102
 20
18.67381894984132
 30
0.0
 40
4.0
  1
Änderung
 41
0.8
  7
GREEKS
 72
     1
 11
78.53795611775817
 21
18.67381894984132
 31
0.0
100
AcDbText
  0
TEXT
  5
75
330
1E
100
AcDbEntity
  8
TEXT
100
AcDbText
 10
153.5163572150377
 20
102.4620895087088
 30
0.0
 40
5.0
  1
Maßstab
 41
0.8
  7
GREEKS
100
AcDbText
  0
TEXT
  5
76
330
1E
100
AcDbEntity
  8
TEXT
100
AcDbText
 10
194.2858954734051
 20
102.4184168434819
 30
0.0
 40
5.0
  1
Zul. Abw.
 41
0.8
  7
GREEKS
100
AcDbText
  0
TEXT
  5
77
330
1E
100
AcDbEntity
  8
TEXT
100
AcDbText
 10
234.877940380901
 20
102.5489328011779
 30
0.0
 40
5.0
  1
Benennung
 41
0.8
  7
GREEKS
100
AcDbText
  0
TEXT
  5
78
330
1E
100
AcDbEntity
  8
TEXT
100
AcDbText
 10
336.178754957634
 20
102.3132034537136
 30
0.0
 40
5.0
  1
Zeichnungs Nr.
 41
0.8
  7
GREEKS
100
AcDbText
  0
TEXT
  5
79
330
1E
100
AcDbEntity
  8
TEXT
100
AcDbText
 10
234.742238391136
 20
30.84560570193057
 30
0.0
 40
5.0
  1
Bauvorhaben
 41
0.8
  7
GREEKS
100
AcDbText
  0
TEXT
  5
7A
330
1E
100
AcDbEntity
  8
TEXT
100
AcDbText
 10
336.7238616296993
 20
73.1811823709997
 30
0.0
 40
5.0
  1
Ersatz für:
 41
0.8
  7
GREEKS
100
AcDbText
  0
TEXT
  5
7B
330
1E
100
AcDbEntity
  8
TEXT
100
AcDbText
 10
48.26641107045756
 20
13.65465846027192
 30
0.0
 40
4.0
  1
Index
 50
90.0
 41
0.8
  7
GREEKS
100
AcDbText
  0
TEXT
  5
7C
330
1E
100
AcDbEntity
  8
TEXT
100
AcDbText
 10
110.6986119235389
 20
18.6715626933981
 30
0.0
 40
4.0
  1
Tag
 41
0.8
  7
GREEKS
 72
     1
 11
114.4319452568723
 21
18.6715626933981
 31
0.0
100
AcDbText
  0
TEXT
  5
7D
330
1E
100
AcDbEntity
  8
TEXT
100
AcDbText
 10
129.0122744386592
 20
18.59324216966408
 30
0.0
 40
4.0
  1
Name
 41
0.8
  7
GREEKS
 72
     1
 11
135.3360839624688
 21
18.59324216966408
 31
0.0
100
AcDbText
  0
TEXT
  5
7E
330
1E
100
AcDbEntity
  8
TEXT
100
AcDbText
 10
172.331167315365
 20
73.31880501229926
 30
0.0
 40
4.0
  1
Tag
 41
0.8
  7
GREEKS
100
AcDbText
  0
TEXT
  5
7F
330
1E
100
AcDbEntity
  8
TEXT
100
AcDbText
 10
202.4626584226295
 20
73.30961091915225
 30
0.0
 40
4.0
  1
Name
 41
0.8
  7
GREEKS
100
AcDbText
  0
TEXT
  5
80
330
1E
100
AcDbEntity
  8
TEXT
100
AcDbText
 10
147.5836127167615
 20
63.62990369617964
 30
0.0
 40
4.0
  1
Gez.
 41
0.8
  7
GREEKS
100
AcDbText
  0
TEXT
  5
81
330
1E
100
AcDbEntity
  8
TEXT
100
AcDbText
 10
147.5515086571672
 20
53.68926291428377
 30
0.0
 40
4.0
  1
Gepr.
 41
0.8
  7
GREEKS
100
AcDbText
  0
TEXT
  5
82
330
1E
100
AcDbEntity
  8
TEXT
100
AcDbText
 10
147.6006777387303
 20
43.52946389649807
 30
0.0
 40
4.0
  1
Norm.
 41
0.8
  7
GREEKS
100
AcDbText
  0
LINE
  5
83
330
1E
100
AcDbEntity
  8
STEMPEL
100
AcDbLine
 10
49.99999999999989
 20
10.0
 30
0.0
 11
410.0
 21
10.0
 31
0.0
  0
TEXT
  5
84
330
1E
100
AcDbEntity
  8
TEXT
100
AcDbText
 10
337.2400861497006
 20
52.07416177878602
 30
0.0
 40
5.0
  1
ersetzt durch:
 41
0.8
  7
GREEKS
100
AcDbText
  0
LINE
  5
85
330
1E
100
AcDbEntity
  8
STEMPEL
100
AcDbLine
 10
410.0
 20
10.0
 30
0.0
 11
39.99999999999989
 21
10.0
 31
0.0
  0
LINE
  5
86
330
1E
100
AcDbEntity
  8
STEMPEL
100
AcDbLine
 10
410.0
 20
10.0
 30
0.0
 11
410.0
 21
584.0
 31
0.0
  0
LINE
  5
87
330
1E
100
AcDbEntity
  8
STEMPEL
100
AcDbLine
 10
40.0
 20
10.0
 30
0.0
 11
39.99999999999989
 21
584.0
 31
0.0
  0
LINE
  5
88
330
1E
100
AcDbEntity
  8
STEMPEL
100
AcDbLine
 10
410.0
 20
584.0
 30
0.0
 11
39.99999999999989
 21
584.0
 31
0.0
  0
LINE
  5
89
330
1E
100
AcDbEntity
  8
HILF
100
AcDbLine
 10
0.0
 20
0.0
 30
0.0
 11
-0.0000000000001137
 21
594.0
 31
0.0
  0
LINE
  5
8A
330
1E
100
AcDbEntity
  8
HILF
100
AcDbLine
 10
419.9999999999999
 20
594.0000000000002
 30
0.0
 11
0.0
 21
594.0
 31
0.0
  0
LINE
  5
8B
330
1E
100
AcDbEntity
  8
HILF
100
AcDbLine
 10
420.0
 20
0.0
 30
0.0
 11
0.0
 21
0.0
 31
0.0
  0
LINE
  5
8C
330
1E
100
AcDbEntity
  8
HILF
100
AcDbLine
 10
31.08767135713856
 20
297.0
 30
0.0
 11
0.0000000000001137
 21
297.0
 31
0.0
  0
LINE
  5
8E
330
1E
100
AcDbEntity
  8
HILF
100
AcDbLine
 10
420.0
 20
-0.0000000000001137
 30
0.0
 11
419.9999999999999
 21
594.0
 31
0.0
  0
TEXT
  5
8F
330
1E
100
AcDbEntity
  8
VOLL
100
AcDbText
 10
78.07675471698113
 20
31.02594776470585
 30
0.0
 40
1.8
  1

  7
GREEKS
100
AcDbText
  0
TEXT
  5
90
330
1E
100
AcDbEntity
  8
TEXT
100
AcDbText
 10
41.85509950977674
 20
111.6719999999999
 30
0.0
 40
5.0
  1
Erstellt mit AUTOCAD 2004
 41
0.8
  7
GREEKS
100
AcDbText
  0
TEXT
  5
91
330
1E
100
AcDbEntity
  8
TEXT
100
AcDbText
 10
204.4216048581257
 20
63.0896391972351
 30
0.0
 40
4.0
  1
Koeh
 41
0.8
  7
GREEKS
 72
     1
 11
209.6787477152686
 21
63.0896391972351
 31
0.0
100
AcDbText
  0
TEXT
  5
92
330
1E
100
AcDbEntity
  8
TEXT
 62
     1
100
AcDbText
 10
347.3097540684081
 20
88.14901428913959
 30
0.0
 40
7.0
  1
58031050W
 41
0.8
  7
GREEKS
 72
     1
 11
370.7764207350748
 21
88.14901428913959
 31
0.0
100
AcDbText
  0
TEXT
  5
93
330
1E
100
AcDbEntity
  8
TEXT
 62
     1
100
AcDbText
 10
160.5006306481887
 20
88.14901428913959
 30
0.0
 40
7.0
  1
1:2
 41
0.8
  7
GREEKS
100
AcDbText
  0
TEXT
  5
95
330
1E
100
AcDbEntity
  8
TEXT
 62
     1
100
AcDbText
 10
236.8935731057402
 20
87.41748789253779
 30
0.0
 40
7.0
  1
Verbundrohr DN50
 41
0.8
  7
GREEKS
100
AcDbText
  0
TEXT
  5
98
330
1E
100
AcDbEntity
  8
TEXT
100
AcDbText
 10
235.1296391125315
 20
51.64011943042158
 30
0.0
 40
5.0
  1
EDV-Art.Nr. 58031.050X
 41
0.8
  7
GREEKS
100
AcDbText
  0
TEXT
  5
99
330
1E
100
AcDbEntity
  8
TEXT
100
AcDbText
 10
234.9837501577827
 20
42.62974153022632
 30
0.0
 40
4.0
  1
58031050W.DWG
 41
0.8
  7
GREEKS
100
AcDbText
  0
TEXT
  5
9A
330
1E
100
AcDbEntity
  8
TEXT
100
AcDbText
 10
192.626132208084
 20
90.76363841023022
 30
0.0
 40
4.0
  1
DIN EN1123-2
 41
0.8
  7
GREEKS
 72
     1
 11
209.6166083985602
 21
90.76363841023022
 31
0.0
100
AcDbText
  0
INSERT
  5
9B
330
1E
100
AcDbEntity
  8
STEMPEL
100
AcDbBlockReference
  2
LOGO
 10
150.9955485457794
 20
45.02105276448322
 30
0.0
 41
2.0
 42
2.0
 43
2.0
  0
TEXT
  5
210
330
1E
100
AcDbEntity
  8
TEXT
 62
     1
100
AcDbText
 10
234.4977404945221
 20
234.8349555721603
 30
0.0
 40
7.0
  1
Rohrende leicht eingezogen
 41
0.8
  7
GREEKS
100
AcDbText
  0
TEXT
  5
2C0
330
1E
100
AcDbEntity
  8
BEM
100
AcDbText
 10
417.3022923857165
 20
10.16790107998861
 30
0.0
 40
4.0
  1
Diese Zeichnung ist urheberrechtlich geschützt und bleibt unser Eigentum. Sie darf weder ganz noch teilweise verfielfältigt und nicht an Dritte weitergegeben werden.
 50
90.0
 41
0.8
  7
GREEKS
100
AcDbText
  0
TEXT
  5
77A
330
1E
100
AcDbEntity
  8
TEXT
100
AcDbText
 10
235.1296391125315
 20
71.64011943042154
 30
0.0
 40
5.0
  1
Bogen 70°
 41
0.8
  7
GREEKS
100
AcDbText
  0
TEXT
  5
78C
330
1E
100
AcDbEntity
  8
TEXT
 62
     1
100
AcDbText
 10
255.030129115258
 20
129.7422179729062
 30
0.0
 40
7.0
  1
und innenbeschichtet
 41
0.8
  7
GREEKS
100
AcDbText
  0
TEXT
  5
78D
330
1E
100
AcDbEntity
  8
TEXT
 62
     1
100
AcDbText
 10
199.8811895945471
 20
117.1473825875242
 30
0.0
 40
7.0
  1
Dämmung: 2 K-PU-Schaum
 41
0.8
  7
GREEKS
100
AcDbText
  0
TEXT
  5
78E
330
1E
100
AcDbEntity
  8
TEXT
 62
     1
100
AcDbText
 10
207.3756002392443
 20
141.011271812132
 30
0.0
 40
7.0
  1
Innenrohr: E195 EN10305 feuerverzinkt
 41
0.8
  7
GREEKS
100
AcDbText
  0
TEXT
  5
78F
330
1E
100
AcDbEntity
  8
TEXT
 62
     1
100
AcDbText
 10
203.6033828683802
 20
152.364339848487
 30
0.0
 40
7.0
  1
Außenrohr: E195 EN10305 feuerverzinkt
 41
0.8
  7
GREEKS
100
AcDbText
  0
HATCH
  5
116C
330
1E
100
AcDbEntity
  8
SCHRAFF
100
AcDbHatch
 10
0.0
 20
0.0
 30
0.0
210
0.0
220
0.0
230
1.0
  2
_USER
 70
     0
 71
     0
 91
        1
 92
        5
 93
        4
 72
     4
 94
        3
 73
     0
 74
     0
 95
        8
 96
        4
 40
53.151573420953
 40
53.151573420953
 40
53.151573420953
 40
53.151573420953
 40
54.66596013920078
 40
54.66596013920078
 40
54.66596013920078
 40
54.66596013920078
 10
217.9252514763302
 20
285.4025323320044
 10
217.4235963431047
 20
285.3466139449547
 10
216.9234508649467
 20
285.2850802998974
 10
216.4252514763315
 20
285.216308051055
 72
     1
 10
216.4252514763302
 20
285.2163080510548
 11
216.4252514763302
 21
255.098670598149
 72
     4
 94
        3
 73
     0
 74
     0
 95
        8
 96
        4
 40
2.539969217932992
 40
2.539969217932992
 40
2.539969217932992
 40
2.539969217932992
 40
3.942317009850173
 40
3.942317009850173
 40
3.942317009850173
 40
3.942317009850173
 10
216.4252514763303
 20
255.098670598149
 10
216.9216742830466
 20
255.0162400782415
 10
217.4221554974381
 20
254.9389107023907
 10
217.9252514763305
 20
254.8648679087319
 72
     1
 10
217.9252514763302
 20
254.8648679087319
 11
217.9252514763302
 21
285.4025323320044
 97
        0
 75
     0
 76
     0
 52
45.0
 41
2.0
 77
     0
 78
     1
 53
45.0
 43
14.6608690790822
 44
-10.10500479940356
 45
-1.414213562373094
 46
1.414213562373095
 79
     0
 47
0.107997174442033
 98
        1
 10
216.6072908276019
 20
276.8489994958847
  0
ARC
  5
1177
102
{ACAD_REACTORS
330
16BD
102
}
330
1E
100
AcDbEntity
  8
STEMPEL
100
AcDbCircle
 10
273.9252514763304
 20
314.6457168602974
 30
0.0
 40
56.0
100
AcDbArc
 50
110.0000000000001
 51
180.0
  0
ARC
  5
1178
102
{ACAD_REACTORS
330
16BD
102
}
330
1E
100
AcDbEntity
  8
STEMPEL
100
AcDbCircle
 10
273.9252514763304
 20
314.6457168602974
 30
0.0
 40
109.0
100
AcDbArc
 50
110.0000000000001
 51
180.0
  0
ARC
  5
1179
330
1E
100
AcDbEntity
  8
MITTEL
100
AcDbCircle
 10
273.9252514763304
 20
314.6457168602974
 30
0.0
 40
82.5
100
AcDbArc
 50
110.0000000000001
 51
180.0
  0
LINE
  5
117B
330
1E
100
AcDbEntity
  8
MITTEL
100
AcDbLine
 10
191.42525147633
 20
372.412838762598
 30
0.0
 11
191.4252514763307
 21
239.4152936142747
 31
0.0
  0
LINE
  5
1186
330
1E
100
AcDbEntity
  8
MITTEL
100
AcDbLine
 10
325.7989894427094
 20
421.3208796494469
 30
0.0
 11
191.42525147633
 21
372.412838762598
 31
0.0
  0
LINE
  5
120D
330
1E
100
AcDbEntity
  8
STEMPEL
100
AcDbLine
 10
216.4252514763305
 20
314.1257168602974
 30
0.0
 11
216.4252514763305
 21
249.4152936142686
 31
0.0
  0
LINE
  5
120E
102
{ACAD_REACTORS
330
16BD
102
}
330
1E
100
AcDbEntity
  8
STEMPEL
100
AcDbLine
 10
216.4252514763303
 20
314.6457168602974
 30
0.0
 11
216.4252514763305
 21
249.4152936142686
 31
0.0
  0
LINE
  5
120F
330
1E
100
AcDbEntity
  8
STEMPEL
100
AcDbLine
 10
217.9252514763303
 20
314.1257168602974
 30
0.0
 11
217.9252514763303
 21
249.3498021999064
 31
0.0
  0
LINE
  5
1210
102
{ACAD_REACTORS
330
16BD
102
}
330
1E
100
AcDbEntity
  8
STEMPEL
100
AcDbLine
 10
217.9252514763303
 20
314.6457168602974
 30
0.0
 11
217.9252514763303
 21
249.3498021999064
 31
0.0
  0
LINE
  5
1211
330
1E
100
AcDbEntity
  8
STEMPEL
100
AcDbLine
 10
234.3252514763305
 20
327.1315488999052
 30
0.0
 11
234.3252514763305
 21
274.4152936142746
 31
0.0
  0
LINE
  5
1212
102
{ACAD_REACTORS
330
1688
102
}
330
1E
100
AcDbEntity
  8
STEMPEL
100
AcDbLine
 10
235.9252514763304
 20
326.6270708376989
 30
0.0
 11
235.9252514763305
 21
272.4152936142744
 31
0.0
  0
LINE
  5
1213
330
1E
100
AcDbEntity
  8
STEMPEL
100
AcDbLine
 10
233.7665191644627
 20
290.4152936142748
 30
0.0
 11
217.9252514763308
 21
290.4152936142748
 31
0.0
  0
LINE
  5
1214
330
1E
100
AcDbEntity
  8
STEMPEL
100
AcDbLine
 10
235.9252514763298
 20
274.4152936142746
 30
0.0
 11
234.3252514763306
 21
274.4152936142746
 31
0.0
  0
LINE
  5
1215
330
1E
100
AcDbEntity
  8
STEMPEL
100
AcDbLine
 10
221.9252514763307
 20
280.4152936142748
 30
0.0
 11
217.9252514763308
 21
280.4152936142748
 31
0.0
  0
LINE
  5
1217
330
1E
100
AcDbEntity
  8
STEMPEL
100
AcDbLine
 10
234.3252514763307
 20
274.4152936142748
 30
0.0
 11
233.7665191644627
 21
290.4152936142748
 31
0.0
  0
LINE
  5
1218
330
1E
100
AcDbEntity
  8
STEMPEL
100
AcDbLine
 10
233.7665191644627
 20
290.4152936142748
 30
0.0
 11
217.9252514763308
 21
290.4152936142748
 31
0.0
  0
LINE
  5
121A
330
1E
100
AcDbEntity
  8
STEMPEL
100
AcDbLine
 10
221.9252514763307
 20
280.4152936142748
 30
0.0
 11
217.9252514763308
 21
280.4152936142748
 31
0.0
  0
LINE
  5
121C
330
1E
100
AcDbEntity
  8
STEMPEL
100
AcDbLine
 10
234.3252514763307
 20
274.4152936142748
 30
0.0
 11
233.7665191644627
 21
290.4152936142748
 31
0.0
  0
LINE
  5
121D
330
1E
100
AcDbEntity
  8
STEMPEL
100
AcDbLine
 10
166.4252514763302
 20
314.1257168602974
 30
0.0
 11
166.4252514763302
 21
249.4152936142747
 31
0.0
  0
LINE
  5
121E
330
1E
100
AcDbEntity
  8
STEMPEL
100
AcDbLine
 10
164.9252514763361
 20
314.1257168602937
 30
0.0
 11
164.9252514763384
 21
249.3498021998189
 31
0.0
  0
LINE
  5
121F
102
{ACAD_REACTORS
330
16BD
102
}
330
1E
100
AcDbEntity
  8
STEMPEL
100
AcDbLine
 10
166.4252514763302
 20
314.6457168602974
 30
0.0
 11
166.4252514763302
 21
249.4152936142747
 31
0.0
  0
LINE
  5
1220
102
{ACAD_REACTORS
330
16BD
102
}
330
1E
100
AcDbEntity
  8
STEMPEL
100
AcDbLine
 10
164.9252514763361
 20
314.6457168602935
 30
0.0
 11
164.9252514763384
 21
249.3498021998189
 31
0.0
  0
LINE
  5
1221
330
1E
100
AcDbEntity
  8
STEMPEL
100
AcDbLine
 10
148.5252514763303
 20
354.1841849857219
 30
0.0
 11
148.5252514763307
 21
274.4152936142749
 31
0.0
  0
LINE
  5
1222
102
{ACAD_REACTORS
330
1688
102
}
330
1E
100
AcDbEntity
  8
STEMPEL
100
AcDbLine
 10
146.9252514763307
 20
354.6886630479286
 30
0.0
 11
146.9252514763307
 21
272.4152936142748
 31
0.0
  0
LINE
  5
1223
330
1E
100
AcDbEntity
  8
STEMPEL
100
AcDbLine
 10
149.0839837881987
 20
290.4152936142748
 30
0.0
 11
164.9252514763307
 21
290.4152936142748
 31
0.0
  0
LINE
  5
1225
330
1E
100
AcDbEntity
  8
STEMPEL
100
AcDbLine
 10
148.5252514763307
 20
274.415293614275
 30
0.0
 11
146.9252514763299
 21
274.4152936142749
 31
0.0
  0
LINE
  5
1226
330
1E
100
AcDbEntity
  8
STEMPEL
100
AcDbLine
 10
148.5252514763307
 20
274.4152936142748
 30
0.0
 11
149.0839837881987
 21
290.4152936142748
 31
0.0
  0
LINE
  5
1227
330
1E
100
AcDbEntity
  8
STEMPEL
100
AcDbLine
 10
160.9252514763307
 20
280.4152936142748
 30
0.0
 11
164.9252514763307
 21
280.4152936142748
 31
0.0
  0
LINE
  5
1228
330
1E
100
AcDbEntity
  8
STEMPEL
100
AcDbLine
 10
149.0839837881987
 20
290.4152936142748
 30
0.0
 11
164.9252514763307
 21
290.4152936142748
 31
0.0
  0
LINE
  5
122B
330
1E
100
AcDbEntity
  8
STEMPEL
100
AcDbLine
 10
148.5252514763307
 20
274.4152936142748
 30
0.0
 11
149.0839837881987
 21
290.4152936142748
 31
0.0
  0
LINE
  5
122C
330
1E
100
AcDbEntity
  8
STEMPEL
100
AcDbLine
 10
160.9252514763307
 20
280.4152936142748
 30
0.0
 11
164.9252514763307
 21
280.4152936142748
 31
0.0
  0
DIMENSION
  5
122F
330
1E
100
AcDbEntity
  8
BEM
100
AcDbDimension
  2
*D3
 10
217.9252514763303
 20
224.1286995070691
 30
0.0
 11
191.4252514763344
 21
230.6286995070691
 31
0.0
 70
    32
  1
%%c<>
 71
     5
 42
52.99999999999193
  3
Standard
100
AcDbAlignedDimension
 13
164.9252514763384
 23
249.3498021998189
 33
0.0
 14
217.9252514763303
 24
249.3498021999064
 34
0.0
100
AcDbRotatedDimension
1001
ACAD
1000
DSTYLE
1002
{
1070
    40
1040
2.0
1070
    41
1040
3.5
1070
    42
1040
1.0
1070
    43
1040
7.0
1070
    44
1040
1.0
1070
    73
1070
     0
1070
    74
1070
     0
1070
    77
1070
     1
1070
    78
1070
     8
1070
    79
1070
     2
1070
   140
1040
3.5
1070
   141
1040
1.5
1070
   146
1040
0.5142857142857144
1070
   147
1040
1.5
1070
   172
1070
     1
1070
   178
1070
     1
1070
   179
1070
     2
1070
   271
1070
     2
1070
   272
1070
     2
1070
   284
1070
     8
1070
   285
1070
     8
1070
   286
1070
     8
1070
   289
1070
     0
1070
   340
1005
24
1002
}
  0
DIMENSION
  5
1230
330
1E
100
AcDbEntity
  8
BEM
100
AcDbDimension
  2
*D2
 10
217.9252514763303
 20
224.1286995070691
 30
0.0
 11
191.4252514763344
 21
230.6286995070691
 31
0.0
 70
    32
  1
%%c<>
 71
     5
 42
52.99999999999193
  3
Standard
100
AcDbAlignedDimension
 13
164.9252514763384
 23
249.3498021998189
 33
0.0
 14
217.9252514763303
 24
249.3498021999064
 34
0.0
100
AcDbRotatedDimension
1001
ACAD
1000
DSTYLE
1002
{
1070
    40
1040
2.0
1070
    41
1040
3.5
1070
    42
1040
1.0
1070
    43
1040
7.0
1070
    44
1040
1.0
1070
    73
1070
     0
1070
    74
1070
     0
1070
    77
1070
     1
1070
    78
1070
     8
1070
    79
1070
     2
1070
   140
1040
3.5
1070
   141
1040
1.5
1070
   146
1040
0.5142857142857144
1070
   147
1040
1.5
1070
   172
1070
     1
1070
   178
1070
     1
1070
   179
1070
     2
1070
   271
1070
     2
1070
   272
1070
     2
1070
   284
1070
     8
1070
   285
1070
     8
1070
   286
1070
     8
1070
   289
1070
     0
1070
   340
1005
24
1002
}
  0
LINE
  5
1231
330
1E
100
AcDbEntity
  8
HILF
100
AcDbLine
 10
214.9195217200159
 20
249.4152936142747
 30
0.0
 11
167.9309812326452
 21
249.4152936142747
 31
0.0
  0
LINE
  5
1232
330
1E
100
AcDbEntity
  8
STEMPEL
100
AcDbLine
 10
217.4935379150163
 20
244.4152936142748
 30
0.0
 11
165.356965037645
 21
244.4152936142748
 31
0.0
  0
LINE
  5
1233
330
1E
100
AcDbEntity
  8
STEMPEL
100
AcDbLine
 10
164.9252514763384
 20
249.3498021998189
 30
0.0
 11
165.356965037645
 21
244.4152936142748
 31
0.0
  0
LINE
  5
1234
330
1E
100
AcDbEntity
  8
STEMPEL
100
AcDbLine
 10
166.4252514763302
 20
249.4152936142748
 30
0.0
 11
166.8626947939599
 21
244.4152936142747
 31
0.0
  0
LINE
  5
1235
330
1E
100
AcDbEntity
  8
STEMPEL
100
AcDbLine
 10
216.4252514763305
 20
249.4152936142686
 30
0.0
 11
215.9878081587014
 21
244.4152936142748
 31
0.0
  0
LINE
  5
1236
330
1E
100
AcDbEntity
  8
STEMPEL
100
AcDbLine
 10
217.9252514763303
 20
249.3498021999064
 30
0.0
 11
217.4935379150163
 21
244.4152936142748
 31
0.0
  0
LINE
  5
1237
330
1E
100
AcDbEntity
  8
HILF
100
AcDbLine
 10
214.9195217200159
 20
249.4152936142747
 30
0.0
 11
167.9309812326452
 21
249.4152936142747
 31
0.0
  0
LINE
  5
1238
102
{ACAD_REACTORS
330
16BD
102
}
330
1E
100
AcDbEntity
  8
STEMPEL
100
AcDbLine
 10
217.4935379150163
 20
244.4152936142748
 30
0.0
 11
165.356965037645
 21
244.4152936142748
 31
0.0
  0
LINE
  5
1239
102
{ACAD_REACTORS
330
16BD
102
}
330
1E
100
AcDbEntity
  8
STEMPEL
100
AcDbLine
 10
164.9252514763384
 20
249.3498021998189
 30
0.0
 11
165.356965037645
 21
244.4152936142748
 31
0.0
  0
LINE
  5
123A
102
{ACAD_REACTORS
330
16BD
102
}
330
1E
100
AcDbEntity
  8
STEMPEL
100
AcDbLine
 10
166.4252514763302
 20
249.4152936142748
 30
0.0
 11
166.8626947939599
 21
244.4152936142747
 31
0.0
  0
LINE
  5
123B
102
{ACAD_REACTORS
330
16BD
102
}
330
1E
100
AcDbEntity
  8
STEMPEL
100
AcDbLine
 10
216.4252514763305
 20
249.4152936142686
 30
0.0
 11
215.9878081587014
 21
244.4152936142748
 31
0.0
  0
LINE
  5
123C
102
{ACAD_REACTORS
330
16BD
102
}
330
1E
100
AcDbEntity
  8
STEMPEL
100
AcDbLine
 10
217.9252514763303
 20
249.3498021999064
 30
0.0
 11
217.4935379150163
 21
244.4152936142748
 31
0.0
  0
DIMENSION
  5
123D
330
1E
100
AcDbEntity
  8
BEM
100
AcDbDimension
  2
*D1
 10
134.8544323848755
 20
244.4152936142748
 30
0.0
 11
128.3544323848755
 21
259.4152936142749
 31
0.0
 70
    32
 71
     5
 42
30.00000000000017
  3
Standard
100
AcDbAlignedDimension
 13
146.9252514763307
 23
274.4152936142749
 33
0.0
 14
165.356965037645
 24
244.4152936142748
 34
0.0
 50
90.0
100
AcDbRotatedDimension
1001
ACAD
1000
DSTYLE
1002
{
1070
   279
1070
     1
1070
    40
1040
2.0
1070
    41
1040
3.5
1070
    42
1040
1.0
1070
    43
1040
7.0
1070
    44
1040
1.0
1070
    73
1070
     0
1070
    74
1070
     0
1070
    77
1070
     1
1070
    78
1070
     8
1070
    79
1070
     2
1070
   140
1040
3.5
1070
   141
1040
1.5
1070
   146
1040
0.5142857142857144
1070
   147
1040
1.5
1070
   172
1070
     1
1070
   178
1070
     1
1070
   179
1070
     2
1070
   271
1070
     2
1070
   272
1070
     2
1070
   284
1070
     8
1070
   285
1070
     8
1070
   286
1070
     8
1002
}
  0
ARC
  5
12AD
102
{ACAD_REACTORS
330
16BD
102
}
330
1E
100
AcDbEntity
  8
STEMPEL
100
AcDbCircle
 10
273.9252514763304
 20
314.6457168602974
 30
0.0
 40
57.5
100
AcDbArc
 50
110.0000000000001
 51
180.0
  0
ARC
  5
12AE
102
{ACAD_REACTORS
330
16BD
102
}
330
1E
100
AcDbEntity
  8
STEMPEL
100
AcDbCircle
 10
273.9252514763304
 20
314.6457168602974
 30
0.0
 40
107.5
100
AcDbArc
 50
110.0000000000001
 51
180.0
  0
DIMENSION
  5
12AF
330
1E
100
AcDbEntity
  8
BEM
100
AcDbDimension
  2
*D5
 10
348.0214712932073
 20
382.0532906993718
 30
0.0
 11
338.9095769503206
 21
426.092743255961
 31
0.0
 70
    32
  1
%%c<>
 71
     5
 42
89.00000000000003
  3
Standard
100
AcDbAlignedDimension
 13
305.8806299607876
 23
461.4271005577915
 33
0.0
 14
336.3204227167721
 24
377.7944573078456
 34
0.0
 50
290.0000000000036
100
AcDbRotatedDimension
1001
ACAD
1000
DSTYLE
1002
{
1070
    40
1040
2.0
1070
    41
1040
3.5
1070
    42
1040
1.0
1070
    43
1040
7.0
1070
    44
1040
1.0
1070
    73
1070
     0
1070
    74
1070
     0
1070
    77
1070
     1
1070
    78
1070
     8
1070
    79
1070
     2
1070
   140
1040
3.5
1070
   141
1040
1.5
1070
   146
1040
0.5142857142857144
1070
   147
1040
1.5
1070
   172
1070
     1
1070
   178
1070
     1
1070
   179
1070
     2
1070
   271
1070
     2
1070
   272
1070
     2
1070
   284
1070
     8
1070
   285
1070
     8
1070
   286
1070
     8
1070
   289
1070
     0
1070
   340
1005
24
1002
}
  0
LINE
  5
12B1
330
1E
100
AcDbEntity
  8
STEMPEL
100
AcDbLine
 10
336.3204227167721
 20
377.7944573078456
 30
0.0
 11
305.8806299607876
 21
461.4271005577915
 31
0.0
  0
LINE
  5
12B2
330
1E
100
AcDbEntity
  8
HILF
100
AcDbLine
 10
274.8746599121485
 20
428.1262448662386
 30
0.0
 11
291.1630942270091
 21
383.3741393878895
 31
0.0
  0
LINE
  5
12B3
330
1E
100
AcDbEntity
  8
HILF
100
AcDbLine
 10
278.8700548562318
 20
431.9388420397305
 30
0.0
 11
296.6744345458364
 21
383.0217108751459
 31
0.0
  0
LINE
  5
12B4
330
1E
100
AcDbEntity
  8
HILF
100
AcDbLine
 10
290.7911757126309
 20
436.9353216945127
 30
0.0
 11
309.0182181477754
 21
386.8569341805118
 31
0.0
  0
LINE
  5
12B5
102
{ACAD_REACTORS
330
16BD
102
}
330
1E
100
AcDbEntity
  8
STEMPEL
100
AcDbLine
 10
289.1245991364741
 20
381.3680489062184
 30
0.0
 11
254.2590932351046
 21
368.6780425554874
 31
0.0
  0
LINE
  5
12B6
102
{ACAD_REACTORS
330
1688
330
16D8
102
}
330
1E
100
AcDbEntity
  8
STEMPEL
100
AcDbLine
 10
336.3204227167721
 20
377.7944573078456
 30
0.0
 11
249.6696961103671
 21
346.2561720455757
 31
0.0
  0
ARC
  5
12B7
330
1E
100
AcDbEntity
  8
STEMPEL
100
AcDbCircle
 10
296.4597241482426
 20
392.0191493686929
 30
0.0
 40
12.0
100
AcDbArc
 50
258.2116693829512
 51
290.0
  0
ARC
  5
12B8
330
1E
100
AcDbEntity
  8
STEMPEL
100
AcDbCircle
 10
296.4597241482426
 20
392.0191493686929
 30
0.0
 40
10.5
100
AcDbArc
 50
258.2116693829512
 51
290.0
  0
ARC
  5
12B9
330
1E
100
AcDbEntity
  8
STEMPEL
100
AcDbCircle
 10
292.3737904980681
 20
372.4409690087522
 30
0.0
 40
9.5
100
AcDbArc
 50
78.21166938295116
 51
110.0
  0
LINE
  5
12BA
330
1E
100
AcDbEntity
  8
STEMPEL
100
AcDbLine
 10
294.4557405470456
 20
381.7121590356164
 30
0.0
 11
294.4521213616269
 21
381.7108417598516
 31
0.0
  0
ARC
  5
12BB
330
1E
100
AcDbEntity
  8
STEMPEL
100
AcDbCircle
 10
292.3737904980679
 20
372.4409690087522
 30
0.0
 40
8.0
100
AcDbArc
 50
78.21166938295116
 51
110.0
  0
LINE
  5
12BC
330
1E
100
AcDbEntity
  8
STEMPEL
100
AcDbLine
 10
322.6174937964481
 20
374.5096834945436
 30
0.0
 11
318.7092339318015
 21
385.2475392220211
 31
0.0
  0
LINE
  5
12BD
330
1E
100
AcDbEntity
  8
STEMPEL
100
AcDbLine
 10
323.9971861981121
 20
387.1434770674179
 30
0.0
 11
319.8480082416342
 21
385.6332997945864
 31
0.0
  0
LINE
  5
12BE
330
1E
100
AcDbEntity
  8
STEMPEL
100
AcDbLine
 10
323.4841559831236
 20
388.5530159985967
 30
0.0
 11
319.3338319324733
 21
387.0424215816009
 31
0.0
  0
ARC
  5
12BF
330
1E
100
AcDbEntity
  8
STEMPEL
100
AcDbCircle
 10
311.5878527908891
 20
374.1134269002961
 30
0.0
 40
11.5
100
AcDbArc
 50
90.53690055531543
 51
110.0
  0
ARC
  5
12C0
330
1E
100
AcDbEntity
  8
STEMPEL
100
AcDbCircle
 10
311.5878527908891
 20
374.1134269002961
 30
0.0
 40
10.0
100
AcDbArc
 50
90.53690055531543
 51
110.0
  0
LINE
  5
12C1
330
1E
100
AcDbEntity
  8
STEMPEL
100
AcDbLine
 10
307.6546211426439
 20
384.9198920393343
 30
0.0
 11
300.0509356531621
 21
382.1523768504409
 31
0.0
  0
LINE
  5
12C2
330
1E
100
AcDbEntity
  8
STEMPEL
100
AcDbLine
 10
308.1676513576323
 20
383.5103531081553
 30
0.0
 11
300.5639658681507
 21
380.7428379192621
 31
0.0
  0
ARC
  5
12C3
330
1E
100
AcDbEntity
  8
STEMPEL
100
AcDbCircle
 10
311.2598834047474
 20
409.111922297695
 30
0.0
 40
23.5000320571282
100
AcDbArc
 50
270.5369005553155
 51
290.0946380447971
  0
ARC
  5
12C4
330
1E
100
AcDbEntity
  8
STEMPEL
100
AcDbCircle
 10
311.2598834047474
 20
409.111922297695
 30
0.0
 40
25.00003205712822
100
AcDbArc
 50
270.5369005553155
 51
290.0917549917638
  0
LINE
  5
12C5
330
1E
100
AcDbEntity
  8
STEMPEL
100
AcDbLine
 10
319.2973567729004
 20
387.0291457092264
 30
0.0
 11
319.297367737084
 21
387.0291155853794
 31
0.0
  0
ARC
  5
12C6
330
1E
100
AcDbEntity
  8
STEMPEL
100
AcDbCircle
 10
317.3277934032616
 20
405.467483172743
 30
0.0
 40
18.0
100
AcDbArc
 50
290.0
 51
314.9999999999935
  0
ARC
  5
12C7
330
1E
100
AcDbEntity
  8
STEMPEL
100
AcDbCircle
 10
317.3277934032616
 20
405.467483172743
 30
0.0
 40
19.5
100
AcDbArc
 50
290.0
 51
315.459428568801
  0
LINE
  5
12C8
330
1E
100
AcDbEntity
  8
STEMPEL
100
AcDbLine
 10
331.2267320615497
 20
391.7892573647561
 30
0.0
 11
331.1163756363992
 21
391.6789009396053
 31
0.0
  0
LINE
  5
12C9
330
1E
100
AcDbEntity
  8
STEMPEL
100
AcDbLine
 10
330.6606658505708
 20
393.3445114973368
 30
0.0
 11
330.0557154646199
 21
392.7395611113858
 31
0.0
  0
DIMENSION
  5
12CA
330
1E
100
AcDbEntity
  8
BEM
100
AcDbDimension
  2
*D4
 10
348.0214712932073
 20
382.0532906993718
 30
0.0
 11
338.9095769503206
 21
426.092743255961
 31
0.0
 70
    32
  1
%%c<>
 71
     5
 42
89.00000000000003
  3
Standard
100
AcDbAlignedDimension
 13
305.8806299607876
 23
461.4271005577915
 33
0.0
 14
336.3204227167721
 24
377.7944573078456
 34
0.0
 50
290.0000000000036
100
AcDbRotatedDimension
1001
ACAD
1000
DSTYLE
1002
{
1070
    40
1040
2.0
1070
    41
1040
3.5
1070
    42
1040
1.0
1070
    43
1040
7.0
1070
    44
1040
1.0
1070
    73
1070
     0
1070
    74
1070
     0
1070
    77
1070
     1
1070
    78
1070
     8
1070
    79
1070
     2
1070
   140
1040
3.5
1070
   141
1040
1.5
1070
   146
1040
0.5142857142857144
1070
   147
1040
1.5
1070
   172
1070
     1
1070
   178
1070
     1
1070
   179
1070
     2
1070
   271
1070
     2
1070
   272
1070
     2
1070
   284
1070
     8
1070
   285
1070
     8
1070
   286
1070
     8
1070
   289
1070
     0
1070
   340
1005
24
1002
}
  0
LINE
  5
12CC
102
{ACAD_REACTORS
330
16BD
330
16D8
330
16E7
102
}
330
1E
100
AcDbEntity
  8
STEMPEL
100
AcDbLine
 10
336.3204227167721
 20
377.7944573078456
 30
0.0
 11
305.8806299607876
 21
461.4271005577915
 31
0.0
  0
LINE
  5
12CD
330
1E
100
AcDbEntity
  8
HILF
100
AcDbLine
 10
274.8746599121485
 20
428.1262448662386
 30
0.0
 11
291.1630942270091
 21
383.3741393878895
 31
0.0
  0
LINE
  5
12CE
330
1E
100
AcDbEntity
  8
HILF
100
AcDbLine
 10
278.8700548562318
 20
431.9388420397305
 30
0.0
 11
296.6744345458364
 21
383.0217108751459
 31
0.0
  0
LINE
  5
12CF
330
1E
100
AcDbEntity
  8
HILF
100
AcDbLine
 10
290.7911757126309
 20
436.9353216945127
 30
0.0
 11
309.0182181477754
 21
386.8569341805118
 31
0.0
  0
LINE
  5
12D0
102
{ACAD_REACTORS
330
16BD
102
}
330
1E
100
AcDbEntity
  8
STEMPEL
100
AcDbLine
 10
289.6376293514626
 20
379.9585099750395
 30
0.0
 11
254.772123450093
 21
367.2685036243084
 31
0.0
  0
LINE
  5
12D1
102
{ACAD_REACTORS
330
16D8
330
16E7
102
}
330
1E
100
AcDbEntity
  8
STEMPEL
100
AcDbLine
 10
335.7731904874508
 20
379.297965501103
 30
0.0
 11
248.6484095686424
 21
347.5871385796927
 31
0.0
  0
ARC
  5
12D2
102
{ACAD_REACTORS
330
16BD
102
}
330
1E
100
AcDbEntity
  8
STEMPEL
100
AcDbCircle
 10
296.4597241482426
 20
392.0191493686929
 30
0.0
 40
12.0
100
AcDbArc
 50
258.2116693829512
 51
290.0
  0
ARC
  5
12D3
102
{ACAD_REACTORS
330
16BD
102
}
330
1E
100
AcDbEntity
  8
STEMPEL
100
AcDbCircle
 10
296.4597241482426
 20
392.0191493686929
 30
0.0
 40
10.5
100
AcDbArc
 50
258.2116693829512
 51
290.0
  0
ARC
  5
12D4
102
{ACAD_REACTORS
330
16BD
102
}
330
1E
100
AcDbEntity
  8
STEMPEL
100
AcDbCircle
 10
292.3737904980681
 20
372.4409690087522
 30
0.0
 40
9.5
100
AcDbArc
 50
78.21166938295116
 51
110.0
  0
LINE
  5
12D5
102
{ACAD_REACTORS
330
16BD
102
}
330
1E
100
AcDbEntity
  8
STEMPEL
100
AcDbLine
 10
294.4557405470456
 20
381.7121590356164
 30
0.0
 11
294.4521213616269
 21
381.7108417598516
 31
0.0
  0
ARC
  5
12D6
102
{ACAD_REACTORS
330
16BD
102
}
330
1E
100
AcDbEntity
  8
STEMPEL
100
AcDbCircle
 10
292.3737904980679
 20
372.4409690087522
 30
0.0
 40
8.0
100
AcDbArc
 50
78.21166938295116
 51
110.0
  0
LINE
  5
12D7
102
{ACAD_REACTORS
330
16E7
102
}
330
1E
100
AcDbEntity
  8
STEMPEL
100
AcDbLine
 10
322.6174937964481
 20
374.5096834945436
 30
0.0
 11
318.7092339318015
 21
385.2475392220211
 31
0.0
  0
LINE
  5
12D8
102
{ACAD_REACTORS
330
16BD
330
16E7
102
}
330
1E
100
AcDbEntity
  8
STEMPEL
100
AcDbLine
 10
323.9971861981121
 20
387.1434770674179
 30
0.0
 11
319.8480082416342
 21
385.6332997945864
 31
0.0
  0
LINE
  5
12D9
102
{ACAD_REACTORS
330
16BD
102
}
330
1E
100
AcDbEntity
  8
STEMPEL
100
AcDbLine
 10
323.4841559831236
 20
388.5530159985967
 30
0.0
 11
319.3338319324733
 21
387.0424215816009
 31
0.0
  0
ARC
  5
12DA
102
{ACAD_REACTORS
330
16BD
102
}
330
1E
100
AcDbEntity
  8
STEMPEL
100
AcDbCircle
 10
311.5878527908891
 20
374.1134269002961
 30
0.0
 40
11.5
100
AcDbArc
 50
90.53690055531543
 51
110.0
  0
ARC
  5
12DB
102
{ACAD_REACTORS
330
16BD
102
}
330
1E
100
AcDbEntity
  8
STEMPEL
100
AcDbCircle
 10
311.5878527908891
 20
374.1134269002961
 30
0.0
 40
10.0
100
AcDbArc
 50
90.53690055531543
 51
110.0
  0
LINE
  5
12DC
102
{ACAD_REACTORS
330
16BD
102
}
330
1E
100
AcDbEntity
  8
STEMPEL
100
AcDbLine
 10
307.6546211426439
 20
384.9198920393343
 30
0.0
 11
300.0509356531621
 21
382.1523768504409
 31
0.0
  0
LINE
  5
12DD
102
{ACAD_REACTORS
330
16BD
102
}
330
1E
100
AcDbEntity
  8
STEMPEL
100
AcDbLine
 10
308.1676513576323
 20
383.5103531081553
 30
0.0
 11
300.5639658681507
 21
380.7428379192621
 31
0.0
  0
ARC
  5
12DE
102
{ACAD_REACTORS
330
16BD
102
}
330
1E
100
AcDbEntity
  8
STEMPEL
100
AcDbCircle
 10
311.2598834047474
 20
409.111922297695
 30
0.0
 40
23.5000320571282
100
AcDbArc
 50
270.5369005553155
 51
290.0946380447971
  0
ARC
  5
12DF
102
{ACAD_REACTORS
330
16BD
330
16E7
102
}
330
1E
100
AcDbEntity
  8
STEMPEL
100
AcDbCircle
 10
311.2598834047474
 20
409.111922297695
 30
0.0
 40
25.00003205712822
100
AcDbArc
 50
270.5369005553155
 51
290.0917549917638
  0
LINE
  5
12E0
330
1E
100
AcDbEntity
  8
STEMPEL
100
AcDbLine
 10
319.2973567729004
 20
387.0291457092264
 30
0.0
 11
319.297367737084
 21
387.0291155853794
 31
0.0
  0
ARC
  5
12E1
102
{ACAD_REACTORS
330
16BD
102
}
330
1E
100
AcDbEntity
  8
STEMPEL
100
AcDbCircle
 10
317.3277934032616
 20
405.467483172743
 30
0.0
 40
18.0
100
AcDbArc
 50
290.0
 51
314.9999999999935
  0
ARC
  5
12E2
102
{ACAD_REACTORS
330
16BD
330
16E7
102
}
330
1E
100
AcDbEntity
  8
STEMPEL
100
AcDbCircle
 10
317.3277934032616
 20
405.467483172743
 30
0.0
 40
19.5
100
AcDbArc
 50
290.0
 51
315.459428568801
  0
LINE
  5
12E3
102
{ACAD_REACTORS
330
16E7
102
}
330
1E
100
AcDbEntity
  8
STEMPEL
100
AcDbLine
 10
331.2267320615497
 20
391.7892573647561
 30
0.0
 11
331.1163756363992
 21
391.6789009396053
 31
0.0
  0
LINE
  5
12E4
102
{ACAD_REACTORS
330
16BD
102
}
330
1E
100
AcDbEntity
  8
STEMPEL
100
AcDbLine
 10
330.6606658505708
 20
393.3445114973368
 30
0.0
 11
330.0557154646199
 21
392.7395611113858
 31
0.0
  0
ARC
  5
12E6
330
1E
100
AcDbEntity
  8
STEMPEL
100
AcDbCircle
 10
284.4890191318441
 20
424.9083910961998
 30
0.0
 40
10.5
100
AcDbArc
 50
110.0
 51
141.7883306170488
  0
ARC
  5
12E7
330
1E
100
AcDbEntity
  8
STEMPEL
100
AcDbCircle
 10
284.4890191318441
 20
424.9083910961998
 30
0.0
 40
12.0
100
AcDbArc
 50
110.0
 51
141.7883306170488
  0
ARC
  5
12E8
330
1E
100
AcDbEntity
  8
STEMPEL
100
AcDbCircle
 10
268.7744006085969
 20
437.2797598429799
 30
0.0
 40
8.0
100
AcDbArc
 50
290.0
 51
321.7883306170489
  0
LINE
  5
12E9
330
1E
100
AcDbEntity
  8
STEMPEL
100
AcDbLine
 10
276.3286729507852
 20
431.5158679372695
 30
0.0
 11
276.3250537653664
 21
431.5145506615047
 31
0.0
  0
ARC
  5
12EA
330
1E
100
AcDbEntity
  8
STEMPEL
100
AcDbCircle
 10
268.7744006085967
 20
437.2797598429798
 30
0.0
 40
9.5
100
AcDbArc
 50
290.0
 51
321.7883306170489
  0
ARC
  5
12EB
330
1E
100
AcDbEntity
  8
STEMPEL
100
AcDbCircle
 10
306.8136215415137
 20
421.3279263679118
 30
0.0
 40
25.00003205712822
100
AcDbArc
 50
109.9082450082428
 51
129.4630994446846
  0
ARC
  5
12EC
330
1E
100
AcDbEntity
  8
STEMPEL
100
AcDbCircle
 10
309.1193099634454
 20
428.0201060716048
 30
0.0
 40
19.5
100
AcDbArc
 50
84.54057143119042
 51
110.0
  0
LINE
  5
12ED
330
1E
100
AcDbEntity
  8
STEMPEL
100
AcDbLine
 10
302.449917168595
 20
446.3441121769301
 30
0.0
 11
298.3007392121169
 21
444.8339349040985
 31
0.0
  0
LINE
  5
12EE
330
1E
100
AcDbEntity
  8
STEMPEL
100
AcDbLine
 10
297.1804253637527
 20
444.397454630497
 30
0.0
 11
293.272165499106
 21
455.1353103579745
 31
0.0
  0
LINE
  5
12EF
330
1E
100
AcDbEntity
  8
STEMPEL
100
AcDbLine
 10
302.9629473835834
 20
444.9345732457512
 30
0.0
 11
298.8126233329331
 21
443.4239788287554
 31
0.0
  0
ARC
  5
12F0
330
1E
100
AcDbEntity
  8
STEMPEL
100
AcDbCircle
 10
284.568261468161
 20
448.3491439423828
 30
0.0
 40
10.0
100
AcDbArc
 50
290.0
 51
309.4630994446846
  0
ARC
  5
12F1
330
1E
100
AcDbEntity
  8
STEMPEL
100
AcDbCircle
 10
284.568261468161
 20
448.3491439423828
 30
0.0
 40
11.5
100
AcDbArc
 50
290.0
 51
309.4630994446846
  0
LINE
  5
12F2
330
1E
100
AcDbEntity
  8
STEMPEL
100
AcDbLine
 10
288.5014931164063
 20
437.542678803345
 30
0.0
 11
280.8978076269247
 21
434.7751636144518
 31
0.0
  0
LINE
  5
12F3
330
1E
100
AcDbEntity
  8
STEMPEL
100
AcDbLine
 10
287.9884629014179
 20
438.952217734524
 30
0.0
 11
280.3847774119361
 21
436.1847025456305
 31
0.0
  0
LINE
  5
12F4
330
1E
100
AcDbEntity
  8
STEMPEL
100
AcDbLine
 10
298.7761481733602
 20
443.4107029563807
 30
0.0
 11
298.7761372091768
 21
443.4107330802276
 31
0.0
  0
ARC
  5
12F5
330
1E
100
AcDbEntity
  8
STEMPEL
100
AcDbCircle
 10
306.8136215415137
 20
421.3279263679118
 30
0.0
 40
23.5000320571282
100
AcDbArc
 50
109.9053619552029
 51
129.4630994446846
  0
ARC
  5
12F6
330
1E
100
AcDbEntity
  8
STEMPEL
100
AcDbCircle
 10
309.1193099634454
 20
428.0201060716048
 30
0.0
 40
18.0
100
AcDbArc
 50
85.00000000000063
 51
110.0
  0
LINE
  5
12F7
330
1E
100
AcDbEntity
  8
STEMPEL
100
AcDbLine
 10
310.9743206160099
 20
447.4323005008808
 30
0.0
 11
310.8188469470248
 21
447.4459026843939
 31
0.0
  0
LINE
  5
12F8
330
1E
100
AcDbEntity
  8
STEMPEL
100
AcDbLine
 10
311.5403868269889
 20
445.8770463683002
 30
0.0
 11
310.688113332904
 21
445.951610637256
 31
0.0
  0
LINE
  5
12FA
102
{ACAD_REACTORS
330
16BD
102
}
330
1E
100
AcDbEntity
  8
STEMPEL
100
AcDbLine
 10
272.0235919701905
 20
428.3526799455138
 30
0.0
 11
237.1580860688208
 21
415.6626735947826
 31
0.0
  0
LINE
  5
12FB
102
{ACAD_REACTORS
330
16BD
102
}
330
1E
100
AcDbEntity
  8
STEMPEL
100
AcDbLine
 10
271.510561755202
 20
429.7622188766926
 30
0.0
 11
236.6450558538294
 21
417.0722125259589
 31
0.0
  0
LINE
  5
12FC
102
{ACAD_REACTORS
330
16D8
330
16E7
102
}
330
1E
100
AcDbEntity
  8
STEMPEL
100
AcDbLine
 10
306.4278621901085
 20
459.923592364534
 30
0.0
 11
193.881918768651
 21
418.9602189717152
 31
0.0
  0
LINE
  5
12FD
102
{ACAD_REACTORS
330
1688
330
16D8
102
}
330
1E
100
AcDbEntity
  8
STEMPEL
100
AcDbLine
 10
305.8806299607876
 20
461.4271005577915
 30
0.0
 11
192.8606322269264
 21
420.2911855058321
 31
0.0
  0
ARC
  5
12FE
102
{ACAD_REACTORS
330
16BD
102
}
330
1E
100
AcDbEntity
  8
STEMPEL
100
AcDbCircle
 10
284.4890191318441
 20
424.9083910961998
 30
0.0
 40
10.5
100
AcDbArc
 50
110.0
 51
141.7883306170488
  0
ARC
  5
12FF
102
{ACAD_REACTORS
330
16BD
102
}
330
1E
100
AcDbEntity
  8
STEMPEL
100
AcDbCircle
 10
284.4890191318441
 20
424.9083910961998
 30
0.0
 40
12.0
100
AcDbArc
 50
110.0
 51
141.7883306170488
  0
ARC
  5
1300
102
{ACAD_REACTORS
330
16BD
102
}
330
1E
100
AcDbEntity
  8
STEMPEL
100
AcDbCircle
 10
268.7744006085969
 20
437.2797598429799
 30
0.0
 40
8.0
100
AcDbArc
 50
290.0
 51
321.7883306170489
  0
LINE
  5
1301
102
{ACAD_REACTORS
330
16BD
102
}
330
1E
100
AcDbEntity
  8
STEMPEL
100
AcDbLine
 10
276.3286729507852
 20
431.5158679372695
 30
0.0
 11
276.3250537653664
 21
431.5145506615047
 31
0.0
  0
ARC
  5
1302
102
{ACAD_REACTORS
330
16BD
102
}
330
1E
100
AcDbEntity
  8
STEMPEL
100
AcDbCircle
 10
268.7744006085967
 20
437.2797598429798
 30
0.0
 40
9.5
100
AcDbArc
 50
290.0
 51
321.7883306170489
  0
ARC
  5
1303
102
{ACAD_REACTORS
330
16BD
330
16E7
102
}
330
1E
100
AcDbEntity
  8
STEMPEL
100
AcDbCircle
 10
306.8136215415137
 20
421.3279263679118
 30
0.0
 40
25.00003205712822
100
AcDbArc
 50
109.9082450082428
 51
129.4630994446846
  0
ARC
  5
1304
102
{ACAD_REACTORS
330
16BD
330
16E7
102
}
330
1E
100
AcDbEntity
  8
STEMPEL
100
AcDbCircle
 10
309.1193099634454
 20
428.0201060716048
 30
0.0
 40
19.5
100
AcDbArc
 50
84.54057143119042
 51
110.0
  0
LINE
  5
1305
102
{ACAD_REACTORS
330
16BD
330
16E7
102
}
330
1E
100
AcDbEntity
  8
STEMPEL
100
AcDbLine
 10
302.449917168595
 20
446.3441121769301
 30
0.0
 11
298.3007392121169
 21
444.8339349040985
 31
0.0
  0
LINE
  5
1306
102
{ACAD_REACTORS
330
16E7
102
}
330
1E
100
AcDbEntity
  8
STEMPEL
100
AcDbLine
 10
297.1804253637527
 20
444.397454630497
 30
0.0
 11
293.272165499106
 21
455.1353103579745
 31
0.0
  0
LINE
  5
1307
102
{ACAD_REACTORS
330
16BD
102
}
330
1E
100
AcDbEntity
  8
STEMPEL
100
AcDbLine
 10
302.9629473835834
 20
444.9345732457512
 30
0.0
 11
298.8126233329331
 21
443.4239788287554
 31
0.0
  0
ARC
  5
1308
102
{ACAD_REACTORS
330
16BD
102
}
330
1E
100
AcDbEntity
  8
STEMPEL
100
AcDbCircle
 10
284.568261468161
 20
448.3491439423828
 30
0.0
 40
10.0
100
AcDbArc
 50
290.0
 51
309.4630994446846
  0
ARC
  5
1309
102
{ACAD_REACTORS
330
16BD
102
}
330
1E
100
AcDbEntity
  8
STEMPEL
100
AcDbCircle
 10
284.568261468161
 20
448.3491439423828
 30
0.0
 40
11.5
100
AcDbArc
 50
290.0
 51
309.4630994446846
  0
LINE
  5
130A
102
{ACAD_REACTORS
330
16BD
102
}
330
1E
100
AcDbEntity
  8
STEMPEL
100
AcDbLine
 10
288.5014931164063
 20
437.542678803345
 30
0.0
 11
280.8978076269247
 21
434.7751636144518
 31
0.0
  0
LINE
  5
130B
102
{ACAD_REACTORS
330
16BD
102
}
330
1E
100
AcDbEntity
  8
STEMPEL
100
AcDbLine
 10
287.9884629014179
 20
438.952217734524
 30
0.0
 11
280.3847774119361
 21
436.1847025456305
 31
0.0
  0
LINE
  5
130C
330
1E
100
AcDbEntity
  8
STEMPEL
100
AcDbLine
 10
298.7761481733602
 20
443.4107029563807
 30
0.0
 11
298.7761372091768
 21
443.4107330802276
 31
0.0
  0
ARC
  5
130D
102
{ACAD_REACTORS
330
16BD
102
}
330
1E
100
AcDbEntity
  8
STEMPEL
100
AcDbCircle
 10
306.8136215415137
 20
421.3279263679118
 30
0.0
 40
23.5000320571282
100
AcDbArc
 50
109.9053619552029
 51
129.4630994446846
  0
ARC
  5
130E
102
{ACAD_REACTORS
330
16BD
102
}
330
1E
100
AcDbEntity
  8
STEMPEL
100
AcDbCircle
 10
309.1193099634454
 20
428.0201060716048
 30
0.0
 40
18.0
100
AcDbArc
 50
85.00000000000063
 51
110.0
  0
LINE
  5
130F
102
{ACAD_REACTORS
330
16E7
102
}
330
1E
100
AcDbEntity
  8
STEMPEL
100
AcDbLine
 10
310.9743206160099
 20
447.4323005008808
 30
0.0
 11
310.8188469470248
 21
447.4459026843939
 31
0.0
  0
LINE
  5
1310
102
{ACAD_REACTORS
330
16BD
102
}
330
1E
100
AcDbEntity
  8
STEMPEL
100
AcDbLine
 10
311.5403868269889
 20
445.8770463683002
 30
0.0
 11
310.688113332904
 21
445.951610637256
 31
0.0
  0
TEXT
  5
1311
330
1E
100
AcDbEntity
  8
TEXT
 62
     1
100
AcDbText
 10
257.9997958068628
 20
381.842470831725
 30
0.0
 40
7.0
  1
DN50
 50
20.00000000000001
 41
0.8
  7
GREEKS
100
AcDbText
  0
LINE
  5
1480
102
{ACAD_REACTORS
330
16C6
102
}
330
1E
100
AcDbEntity
  8
STEMPEL
100
AcDbLine
 10
248.6484095686424
 20
347.5871385796927
 30
0.0
 11
234.3252514763305
 21
327.1315488999052
 31
0.0
  0
LINE
  5
1481
102
{ACAD_REACTORS
330
1688
330
16C6
102
}
330
1E
100
AcDbEntity
  8
STEMPEL
100
AcDbLine
 10
249.6696961103671
 20
346.2561720455757
 30
0.0
 11
235.9252514763304
 21
326.6270708376989
 31
0.0
  0
LINE
  5
1482
102
{ACAD_REACTORS
330
1688
330
16C6
102
}
330
1E
100
AcDbEntity
  8
STEMPEL
100
AcDbLine
 10
192.8606322269264
 20
420.2911855058321
 30
0.0
 11
146.9252514763307
 21
354.6886630479286
 31
0.0
  0
LINE
  5
1483
102
{ACAD_REACTORS
330
16C6
102
}
330
1E
100
AcDbEntity
  8
STEMPEL
100
AcDbLine
 10
193.881918768651
 20
418.9602189717152
 30
0.0
 11
148.5252514763303
 21
354.1841849857219
 31
0.0
  0
LINE
  5
1484
330
1E
100
AcDbEntity
  8
MITTEL
100
AcDbLine
 10
221.2651641686467
 20
383.2736787757036
 30
0.0
 11
191.4252514763302
 21
340.657866942813
 31
0.0
  0
LINE
  5
148D
102
{ACAD_REACTORS
330
16C6
330
16D8
102
}
330
1E
100
AcDbEntity
  8
STEMPEL
100
AcDbLine
 10
192.8606322269264
 20
420.2911855058321
 30
0.0
 11
193.8819187686512
 21
418.9602189717153
 31
0.0
  0
LINE
  5
148F
102
{ACAD_REACTORS
330
16C6
102
}
330
1E
100
AcDbEntity
  8
STEMPEL
100
AcDbLine
 10
146.9252514763307
 20
354.6886630479286
 30
0.0
 11
148.5252514763306
 21
354.1841849857222
 31
0.0
  0
LINE
  5
1490
102
{ACAD_REACTORS
330
16C6
330
16D8
102
}
330
1E
100
AcDbEntity
  8
STEMPEL
100
AcDbLine
 10
248.6484095686425
 20
347.5871385796926
 30
0.0
 11
249.6696961103671
 21
346.2561720455757
 31
0.0
  0
LINE
  5
1491
102
{ACAD_REACTORS
330
16C6
102
}
330
1E
100
AcDbEntity
  8
STEMPEL
100
AcDbLine
 10
234.3252514763304
 20
327.1315488999052
 30
0.0
 11
235.9252514763304
 21
326.6270708376989
 31
0.0
  0
DIMENSION
  5
157C
330
1E
100
AcDbEntity
  8
BEM
100
AcDbDimension
  2
*D6
 10
191.4252514763307
 20
239.4152936142747
 30
0.0
 11
225.8205259086553
 21
436.92137371432
 31
0.0
 70
   162
 71
     5
 42
1.221730476396032
  3
Standard
100
AcDb2LineAngularDimension
 13
325.7989894427094
 23
421.3208796494469
 33
0.0
 14
191.42525147633
 24
372.412838762598
 34
0.0
 15
191.42525147633
 25
372.412838762598
 35
0.0
 16
244.6001252120315
 26
422.580744719342
 36
0.0
1001
ACAD
1000
DSTYLE
1002
{
1070
    40
1040
2.0
1070
    41
1040
3.5
1070
    42
1040
1.0
1070
    43
1040
7.0
1070
    44
1040
1.0
1070
    73
1070
     0
1070
    74
1070
     0
1070
    77
1070
     1
1070
    78
1070
     8
1070
    79
1070
     2
1070
   140
1040
3.5
1070
   141
1040
1.5
1070
   146
1040
0.5142857142857144
1070
   147
1040
1.5
1070
   172
1070
     1
1070
   178
1070
     1
1070
   179
1070
     2
1070
   271
1070
     2
1070
   272
1070
     2
1070
   284
1070
     8
1070
   285
1070
     8
1070
   286
1070
     8
1002
}
  0
ARC
  5
1677
102
{ACAD_REACTORS
330
1688
102
}
330
1E
100
AcDbEntity
  8
SCHRAFF
100
AcDbCircle
 10
193.833767287341
 20
419.0229712038983
 30
0.0
 40
3.8353377136258
100
AcDbArc
 50
43.42225559018498
 51
211.5777444098149
  0
ARC
  5
1679
102
{ACAD_REACTORS
330
1688
102
}
330
1E
100
AcDbEntity
  8
SCHRAFF
100
AcDbCircle
 10
247.597900072493
 20
348.9561892094852
 30
0.0
 40
5.980765923977562
100
AcDbArc
 50
267.8678633802241
 51
347.1321366197753
  0
ARC
  5
167A
102
{ACAD_REACTORS
330
1688
102
}
330
1E
100
AcDbEntity
  8
SCHRAFF
100
AcDbCircle
 10
148.449814890271
 20
354.2079700499441
 30
0.0
 40
3.8353377136258
100
AcDbArc
 50
78.42225559018503
 51
246.5777444098149
  0
ARC
  5
167B
102
{ACAD_REACTORS
330
1688
102
}
330
1E
100
AcDbEntity
  8
SCHRAFF
100
AcDbCircle
 10
232.679469293594
 20
327.6504620288806
 30
0.0
 40
5.980765923977562
100
AcDbArc
 50
302.8678633802246
 51
22.13213661977577
  0
HATCH
  5
1688
330
1E
100
AcDbEntity
  8
SCHRAFF
100
AcDbHatch
 10
0.0
 20
0.0
 30
0.0
210
0.0
220
0.0
230
1.0
  2
_USER
 70
     0
 71
     1
 91
        4
 92
        7
 72
     1
 73
     1
 93
        3
 10
190.5663264815222
 20
417.0145773286761
 42
0.0
 10
192.8606322269264
 20
420.291185505832
 42
0.0
 10
196.6194027100701
 20
421.6592660791347
 42
0.9016332797439282
 97
        3
330
1482
330
12FD
330
1677
 92
        7
 72
     1
 73
     1
 93
        3
 10
253.4284665935107
 20
347.6242526188784
 42
0.0
 10
249.6696961103671
 20
346.2561720455757
 42
0.0
 10
247.375390364963
 20
342.9795638684197
 42
0.3603389801397126
 97
        3
330
12B6
330
1481
330
1679
 92
        7
 72
     1
 73
     1
 93
        3
 10
235.9252514763304
 20
322.627070837699
 42
0.3603389801397019
 10
238.2195572217346
 20
329.9036790148548
 42
0.0
 10
235.9252514763304
 20
326.6270708376989
 42
0.0
 97
        3
330
1481
330
1212
330
167B
 92
        7
 72
     1
 73
     1
 93
        3
 10
146.9252514763306
 20
354.6886630479286
 42
0.0
 10
149.2195572217349
 20
357.9652712250847
 42
0.9016332797439659
 10
146.9252514763307
 20
350.6886630479287
 42
0.0
 97
        3
330
167A
330
1222
330
1482
 75
     0
 76
     0
 52
0.0
 41
0.1
 77
     0
 78
     1
 53
0.0
 43
-4.736296883980685
 44
21.29827048792231
 45
0.0
 46
0.1
 79
     0
 47
0.2841632748832323
 98
        4
 10
193.3957295149735
 20
421.9154586413919
 10
251.1216746634186
 20
345.4755372350009
 10
236.9034612285
 20
325.8682699788253
 10
146.4756277997271
 20
355.13708739097
  0
HATCH
  5
16BD
330
1E
100
AcDbEntity
  8
SCHRAFF
100
AcDbHatch
 10
0.0
 20
0.0
 30
0.0
210
0.0
220
0.0
230
1.0
  2
_USER
 70
     0
 71
     1
 91
        2
 92
        7
 72
     1
 73
     1
 93
       26
 10
164.9252514763384
 20
249.3498021998188
 42
0.0
 10
165.3569650376451
 20
244.4152936142748
 42
0.0
 10
166.8626947939599
 20
244.4152936142748
 42
0.0
 10
166.4252514763302
 20
249.415293614275
 42
0.0
 10
166.4252514763302
 20
314.6457168602974
 42
-0.3152987888789839
 10
237.1580860688208
 20
415.6626735947826
 42
0.0
 10
272.0235919701905
 20
428.3526799455138
 42
0.1433758286905674
 10
276.3250537653664
 20
431.5145506615047
 42
0.0
 10
276.3286729507848
 20
431.5158679372693
 42
-0.1361061113099591
 10
280.8978076269247
 20
434.7751636144518
 42
0.0
 10
288.5014931164063
 20
437.542678803345
 42
0.0851285408962545
 10
291.8774445119367
 20
439.4707520140782
 42
-0.0855444844068129
 10
298.8126233329331
 20
443.4239788287554
 42
0.0
 10
302.9629473835834
 20
444.9345732457512
 42
-0.109517811683251
 10
310.688113332904
 20
445.951610637256
 42
0.0
 10
311.5403868269889
 20
445.8770463683002
 42
0.0
 10
310.9745571910882
 20
447.4316505161956
 42
0.111546939082133
 10
302.4499171685945
 20
446.3441121769299
 42
0.0
 10
298.2254967046007
 20
444.8065488710111
 42
0.0847252966076891
 10
290.9240728105745
 20
440.6288031351611
 42
-0.085128540896239
 10
287.9884629014181
 20
438.952217734524
 42
0.0
 10
280.3847774119361
 20
436.1847025456305
 42
0.1395991324168574
 10
275.0602480178957
 20
432.3312123442678
 42
-0.1395991324168502
 10
271.5105617552024
 20
429.7622188766927
 42
0.0
 10
236.6450558538294
 20
417.0722125259589
 42
0.3152987888789746
 10
164.9252514763361
 20
314.6457168602922
 42
0.0
 97
       26
330
12AE
330
12FA
330
1302
330
1301
330
12FE
330
130A
330
1309
330
130D
330
1307
330
130E
330
1310
330
12CC
330
1304
330
1305
330
1303
330
1308
330
130B
330
12FF
330
1300
330
12FB
330
1178
330
1220
330
1239
330
1238
330
123A
330
121F
 92
        7
 72
     1
 73
     1
 93
       26
 10
217.9252514763303
 20
314.6457168602974
 42
-0.3152987888789844
 10
254.772123450093
 20
367.2685036243084
 42
0.0
 10
289.6376293514626
 20
379.9585099750395
 42
-0.1395991324168485
 10
294.0081639581375
 20
380.2722411527286
 42
0.1395991324168699
 10
300.5639658681507
 20
380.7428379192621
 42
0.0
 10
308.1676513576323
 20
383.5103531081553
 42
-0.0851285408962339
 10
311.4941473378172
 20
384.1129878550613
 42
0.0847252966073947
 10
319.7727657340899
 20
385.6059137614887
 42
0.0
 10
323.9971861981121
 20
387.1434770674179
 42
0.1115469390821248
 10
331.2264954864716
 20
391.7899073494411
 42
0.0
 10
330.6606658505709
 20
393.3445114973368
 42
0.0
 10
330.0557154646199
 20
392.7395611113858
 42
-0.1095178116832598
 10
323.4841559831231
 20
388.5530159985965
 42
0.0
 10
319.3338319324733
 20
387.0424215816009
 42
-0.0855444844067963
 10
311.4800915198591
 20
385.6129219982761
 42
0.0851285408962994
 10
307.6546211426435
 20
384.9198920393341
 42
0.0
 10
300.0509356531621
 20
382.1523768504409
 42
-0.1361061113099571
 10
294.4557405470454
 20
381.7121590356164
 42
0.0
 10
294.4521213616272
 20
381.7108417598518
 42
0.1433758286905712
 10
289.1245991364743
 20
381.3680489062185
 42
0.0
 10
254.2590932351046
 20
368.6780425554874
 42
0.3152987888789852
 10
216.4252514763303
 20
314.6457168602975
 42
0.0
 10
216.4252514763305
 20
249.415293614269
 42
0.0
 10
215.9878081587014
 20
244.4152936142748
 42
0.0
 10
217.4935379150163
 20
244.4152936142748
 42
0.0
 10
217.9252514763303
 20
249.3498021999064
 42
0.0
 97
       26
330
1177
330
12D0
330
12D6
330
12D2
330
12DD
330
12DB
330
12DF
330
12D8
330
12E2
330
12CC
330
12E4
330
12E1
330
12D9
330
12DE
330
12DA
330
12DC
330
12D3
330
12D5
330
12D4
330
12B5
330
12AD
330
120E
330
123B
330
1238
330
123C
330
1210
 75
     0
 76
     0
 52
135.0
 41
2.0
 77
     0
 78
     1
 53
135.0
 43
-4.736296883980685
 44
21.29827048792231
 45
-1.414213562373095
 46
-1.414213562373094
 79
     0
 47
0.4681706416317816
 98
        2
 10
165.533858991721
 20
307.8739796954433
 10
217.5375563650446
 20
312.0875152304643
  0
HATCH
  5
16C6
330
1E
100
AcDbEntity
  8
SCHRAFF
100
AcDbHatch
 10
0.0
 20
0.0
 30
0.0
210
0.0
220
0.0
230
1.0
  2
_USER
 70
     0
 71
     1
 91
        2
 92
        7
 72
     0
 73
     1
 93
        4
 10
193.8819187686512
 20
418.9602189717153
 10
192.8606322269264
 20
420.2911855058321
 10
146.9252514763306
 20
354.6886630479286
 10
148.5252514763305
 20
354.1841849857221
 97
        4
330
148D
330
1482
330
148F
330
1483
 92
        7
 72
     0
 73
     1
 93
        4
 10
249.6696961103671
 20
346.2561720455757
 10
248.6484095686424
 20
347.5871385796926
 10
234.3252514763306
 20
327.1315488999052
 10
235.9252514763304
 20
326.6270708376989
 97
        4
330
1490
330
1480
330
1491
330
1481
 75
     0
 76
     0
 52
135.0
 41
2.0
 77
     0
 78
     1
 53
135.0
 43
-4.736296883980685
 44
21.29827048792231
 45
-1.414213562373095
 46
-1.414213562373094
 79
     0
 47
0.4681706416317816
 98
        2
 10
184.273930018895
 20
406.189814443627
 10
243.3051521170028
 20
338.305071536493
  0
HATCH
  5
16CF
330
1E
100
AcDbEntity
  8
SCHRAFF
100
AcDbHatch
 10
0.0
 20
0.0
 30
0.0
210
0.0
220
0.0
230
1.0
  2
_USER
 70
     0
 71
     0
 91
        2
 92
        7
 72
     0
 73
     1
 93
        4
 10
235.9252514763304
 20
326.6270708376989
 10
234.3252514763306
 20
327.1315488999052
 10
234.3252514763306
 20
274.4152936142746
 10
235.9252514763305
 20
274.4152936142746
 97
        0
 92
        7
 72
     0
 73
     1
 93
        4
 10
148.5252514763303
 20
354.1841849857223
 10
146.9252514763306
 20
354.6886630479286
 10
146.9252514763307
 20
274.4152936142749
 10
148.5252514763307
 20
274.4152936142749
 97
        0
 75
     0
 76
     0
 52
45.0
 41
2.0
 77
     0
 78
     1
 53
45.0
 43
-4.736296883980685
 44
21.29827048792231
 45
-1.414213562373094
 46
1.414213562373095
 79
     0
 47
0.4681706416317816
 98
        2
 10
234.8721207006047
 20
304.5967844574779
 10
147.7307931533964
 20
315.8328806169575
  0
HATCH
  5
16D8
330
1E
100
AcDbEntity
  8
SCHRAFF
100
AcDbHatch
 10
0.0
 20
0.0
 30
0.0
210
0.0
220
0.0
230
1.0
  2
_USER
 70
     0
 71
     1
 91
        2
 92
        7
 72
     0
 73
     1
 93
        4
 10
192.8606322269264
 20
420.2911855058322
 10
193.8819187686513
 20
418.9602189717152
 10
306.4278621901086
 20
459.9235923645341
 10
305.8806299607876
 20
461.4271005577915
 97
        4
330
12CC
330
12FD
330
148D
330
12FC
 92
        7
 72
     0
 73
     1
 93
        4
 10
336.3204227167722
 20
377.7944573078457
 10
335.7731904874511
 20
379.2979655011031
 10
248.6484095686424
 20
347.5871385796927
 10
249.6696961103672
 20
346.2561720455757
 97
        4
330
12CC
330
12D1
330
1490
330
12B6
 75
     0
 76
     0
 52
45.0
 41
2.0
 77
     0
 78
     1
 53
45.0
 43
-4.736296883980685
 44
21.29827048792231
 45
-1.414213562373094
 46
1.414213562373095
 79
     0
 47
0.4681706416317816
 98
        2
 10
260.6397186358845
 20
444.111637057663
 10
281.2537956741157
 20
358.4364089145422
  0
HATCH
  5
16E7
330
1E
100
AcDbEntity
  8
SCHRAFF
100
AcDbHatch
 10
0.0
 20
0.0
 30
0.0
210
0.0
220
0.0
230
1.0
  2
NET
 70
     0
 71
     1
 91
        2
 92
        7
 72
     1
 73
     1
 93
        7
 10
293.2721654991058
 20
455.1353103579748
 42
0.0
 10
297.1804253637527
 20
444.3974546304969
 42
-0.0120251093634678
 10
298.3007392121169
 20
444.8339349040985
 42
0.0
 10
302.449917168595
 20
446.3441121769301
 42
-0.109517811683366
 10
310.8188469470344
 20
447.445902684393
 42
0.0
 10
310.97432061601
 20
447.4323005008808
 42
0.0
 10
306.4278621901087
 20
459.9235923645341
 42
0.0
 97
        7
330
12FC
330
1306
330
1303
330
1305
330
1304
330
130F
330
12CC
 92
        7
 72
     1
 73
     1
 93
        7
 10
319.8480082416342
 20
385.6332997945864
 42
-0.0120251093634709
 10
318.7092339318015
 20
385.2475392220211
 42
0.0
 10
322.6174937964481
 20
374.5096834945436
 42
0.0
 10
335.773190487451
 20
379.297965501103
 42
0.0
 10
331.2267320615497
 20
391.789257364756
 42
0.0
 10
331.1163756364099
 20
391.678900939616
 42
-0.1095178116834366
 10
323.9971861981121
 20
387.1434770674179
 42
0.0
 97
        7
330
12E3
330
12E2
330
12D8
330
12DF
330
12D7
330
12D1
330
12CC
 75
     0
 76
     1
 52
45.0
 41
15.0
 77
     0
 78
     2
 53
45.0
 43
-4.736296883980685
 44
21.29827048792231
 45
-1.325825214724776
 46
1.325825214724776
 79
     0
 53
135.0
 43
-4.736296883980685
 44
21.29827048792231
 45
-1.325825214724776
 46
-1.325825214724776
 79
     0
 47
0.4611830196214974
 98
        2
 10
298.9228405030094
 20
453.8488876306594
 10
322.9213170107077
 20
383.7490685710582
  0
HATCH
  5
1711
330
1E
100
AcDbEntity
  8
SCHRAFF
100
AcDbHatch
 10
0.0
 20
0.0
 30
0.0
210
0.0
220
0.0
230
1.0
  2
HONEY
 70
     0
 71
     0
 91
        2
 92
        7
 72
     1
 73
     1
 93
       14
 10
322.6174937964481
 20
374.5096834945436
 42
0.0
 10
318.7092339318015
 20
385.2475392220211
 42
-0.0734311771838327
 10
311.4941473378199
 20
384.1129878550613
 42
0.085128540896307
 10
308.167651357632
 20
383.5103531081553
 42
0.0
 10
300.5639658681507
 20
380.7428379192621
 42
-0.1395991324168516
 10
294.0081639581383
 20
380.2722411527282
 42
0.1395991324168818
 10
289.6376293514624
 20
379.9585099750395
 42
0.0
 10
254.772123450093
 20
367.2685036243084
 42
0.3152987888789837
 10
217.9252514763303
 20
314.6457168602975
 42
0.0
 10
217.9252514763303
 20
290.4152936142748
 42
0.0
 10
233.7665191644627
 20
290.4152936142748
 42
0.0
 10
234.3252514763305
 20
274.4152936142792
 42
0.0
 10
234.3252514763305
 20
327.1315488999052
 42
0.0
 10
248.6484095686424
 20
347.5871385796927
 42
0.0
 97
        0
 92
        7
 72
     1
 73
     1
 93
       14
 10
271.510561755202
 20
429.7622188766926
 42
0.1395991324168642
 10
275.0602480178957
 20
432.3312123442678
 42
-0.1395991324168567
 10
280.3847774119361
 20
436.1847025456305
 42
0.0
 10
287.9884629014179
 20
438.952217734524
 42
0.0851285408962515
 10
290.9240728105747
 20
440.6288031351614
 42
-0.0734311771838525
 10
297.1804253637527
 20
444.3974546304969
 42
0.0
 10
293.2721654991059
 20
455.1353103579747
 42
0.0
 10
193.881918768651
 20
418.9602189717152
 42
0.0
 10
148.5252514763303
 20
354.1841849857217
 42
0.0
 10
148.5252514763307
 20
274.4152936142746
 42
0.0
 10
149.0839837881987
 20
290.4152936142748
 42
0.0
 10
164.925251476337
 20
290.4152936142748
 42
0.0
 10
164.9252514763361
 20
314.6457168602935
 42
-0.3152987888789713
 10
236.6450558538294
 20
417.0722125259589
 42
0.0
 97
        0
 75
     0
 76
     1
 52
0.0
 41
30.0
 77
     0
 78
     3
 53
0.0
 43
-4.736296883980685
 44
21.29827048792231
 45
5.625
 46
3.247595249999999
 79
     2
 49
3.75
 49
-7.5
 53
120.0
 43
-4.736296883980685
 44
21.29827048792231
 45
-5.624999987709673
 46
3.247595271287468
 79
     2
 49
3.749999999999999
 49
-7.499999999999999
 53
60.0
 43
-4.736296883980685
 44
21.29827048792231
 45
0.0000000122903263
 46
6.495190521287468
 79
     2
 49
-7.5
 49
3.75
 47
0.4611830196214974
 98
        2
 10
253.2334291069651
 20
359.7675503827174
 10
236.1575883739324
 20
426.6390896548059
  0
TEXT
  5
17F3
330
1E
100
AcDbEntity
  8
TEXT
100
AcDbText
 10
170.398997108236
 20
63.10765040825732
 30
0.0
 40
4.0
  1
28.09.
 41
0.8
  7
GREEKS
 72
     1
 11
177.4085209177598
 21
63.10765040825732
 31
0.0
100
AcDbText
  0
TEXT
  5
17F4
330
1E
100
AcDbEntity
  8
TEXT
100
AcDbText
 10
148.622109822104
 20
73.14025471151666
 30
0.0
 40
4.0
  1
2007
 41
0.8
  7
GREEKS
100
AcDbText
  0
HATCH
  5
1808
330
1E
100
AcDbEntity
  8
SCHRAFF
100
AcDbHatch
 10
0.0
 20
0.0
 30
0.0
210
0.0
220
0.0
230
1.0
  2
NET
 70
     0
 71
     0
 91
        2
 92
        7
 72
     0
 73
     1
 93
       10
 10
233.7665191644627
 20
290.4152936142747
 10
217.9252514763303
 20
290.4152936142748
 10
217.9252514763303
 20
280.4152936142747
 10
221.9252514763307
 20
280.4152936142748
 10
225.3893530914686
 20
274.4152936142746
 10
229.9252514763297
 20
274.4152936142746
 10
229.9252514763297
 20
272.4152936142744
 10
235.9252514763305
 20
272.4152936142744
 10
235.9252514763304
 20
274.4152936142746
 10
234.3252514763307
 20
274.4152936142746
 97
        0
 92
        7
 72
     0
 73
     1
 93
       10
 10
164.9252514763359
 20
290.4152936142748
 10
149.0839837881987
 20
290.4152936142749
 10
148.5252514763307
 20
274.4152936142749
 10
146.9252514763307
 20
274.415293614275
 10
146.9252514763307
 20
272.4152936142749
 10
152.9252514763297
 20
272.4152936142748
 10
152.9252514763297
 20
274.4152936142749
 10
157.4611498611929
 20
274.4152936142748
 10
160.9252514763307
 20
280.4152936142748
 10
164.9252514763365
 20
280.4152936142748
 97
        0
 75
     0
 76
     1
 52
45.0
 41
20.0
 77
     0
 78
     2
 53
45.0
 43
-33.5747485236696
 44
-47.45970044491104
 45
-1.767766952966368
 46
1.767766952966368
 79
     0
 53
135.0
 43
-33.5747485236696
 44
-47.45970044491104
 45
-1.767766952966368
 46
-1.767766952966368
 79
     0
 47
0.1255994509103582
 98
        2
 10
225.5036320809797
 20
285.698619635418
 10
159.6498141575113
 20
286.7034155476503
  0
LINE
  5
1809
330
1E
100
AcDbEntity
  8
STEMPEL
100
AcDbLine
 10
229.9252514763297
 20
274.4152936142746
 30
0.0
 11
217.9252514763303
 21
274.4152936142746
 31
0.0
  0
POINT
  5
180A
330
1E
100
AcDbEntity
  8
STEMPEL
100
AcDbPoint
 10
229.9252514763297
 20
272.4152936142747
 30
0.0
  0
LINE
  5
180B
330
1E
100
AcDbEntity
  8
STEMPEL
100
AcDbLine
 10
229.9252514763297
 20
274.4152936142747
 30
0.0
 11
229.9252514763297
 21
272.4152936142747
 31
0.0
  0
LINE
  5
180C
330
1E
100
AcDbEntity
  8
STEMPEL
100
AcDbLine
 10
235.9252514763305
 20
272.4152936142744
 30
0.0
 11
217.9252514763303
 21
272.4152936142745
 31
0.0
  0
LINE
  5
180D
330
1E
100
AcDbEntity
  8
STEMPEL
100
AcDbLine
 10
221.9252514763307
 20
280.4152936142748
 30
0.0
 11
225.3893530914685
 21
274.4152936142748
 31
0.0
  0
LINE
  5
180E
330
1E
100
AcDbEntity
  8
STEMPEL
100
AcDbLine
 10
221.9252514763307
 20
280.4152936142748
 30
0.0
 11
225.3893530914685
 21
274.4152936142748
 31
0.0
  0
LINE
  5
180F
330
1E
100
AcDbEntity
  8
STEMPEL
100
AcDbLine
 10
164.9252514763371
 20
272.4152936142748
 30
0.0
 11
146.9252514763307
 21
272.4152936142749
 31
0.0
  0
POINT
  5
1810
330
1E
100
AcDbEntity
  8
STEMPEL
100
AcDbPoint
 10
152.9252514763296
 20
272.4152936142747
 30
0.0
  0
LINE
  5
1811
330
1E
100
AcDbEntity
  8
STEMPEL
100
AcDbLine
 10
152.9252514763296
 20
274.4152936142747
 30
0.0
 11
152.9252514763296
 21
272.4152936142747
 31
0.0
  0
LINE
  5
1812
330
1E
100
AcDbEntity
  8
STEMPEL
100
AcDbLine
 10
164.9252514763368
 20
274.4152936142748
 30
0.0
 11
152.9252514763296
 21
274.4152936142749
 31
0.0
  0
LINE
  5
1813
330
1E
100
AcDbEntity
  8
STEMPEL
100
AcDbLine
 10
160.9252514763307
 20
280.4152936142748
 30
0.0
 11
157.4611498611929
 21
274.4152936142748
 31
0.0
  0
LINE
  5
1814
330
1E
100
AcDbEntity
  8
STEMPEL
100
AcDbLine
 10
164.9252514763368
 20
274.4152936142748
 30
0.0
 11
152.9252514763296
 21
274.4152936142749
 31
0.0
  0
LINE
  5
1815
330
1E
100
AcDbEntity
  8
STEMPEL
100
AcDbLine
 10
160.9252514763307
 20
280.4152936142748
 30
0.0
 11
157.4611498611929
 21
274.4152936142748
 31
0.0
  0
DIMENSION
  5
1844
330
1E
100
AcDbEntity
  8
BEM
100
AcDbDimension
  2
*D7
 10
119.9478335753201
 20
372.4128387625981
 30
0.0
 11
113.44783357532
 21
308.4140661884364
 31
0.0
 70
    32
 71
     5
 42
127.9975451483233
  3
Standard
100
AcDbAlignedDimension
 13
165.356965037645
 23
244.4152936142748
 33
0.0
 14
191.42525147633
 24
372.412838762598
 34
0.0
 50
90.0
100
AcDbRotatedDimension
1001
ACAD
1000
DSTYLE
1002
{
1070
    40
1040
2.0
1070
    41
1040
3.5
1070
    42
1040
1.0
1070
    43
1040
7.0
1070
    44
1040
1.0
1070
    73
1070
     0
1070
    74
1070
     0
1070
    77
1070
     1
1070
    78
1070
     8
1070
    79
1070
     2
1070
   140
1040
3.5
1070
   141
1040
1.5
1070
   146
1040
0.5142857142857144
1070
   147
1040
1.5
1070
   172
1070
     1
1070
   178
1070
     1
1070
   179
1070
     2
1070
   271
1070
     2
1070
   272
1070
     2
1070
   284
1070
     8
1070
   285
1070
     8
1070
   286
1070
     8
1002
}
  0
DIMENSION
  5
1851
330
1E
100
AcDbEntity
  8
BEM
100
AcDbDimension
  2
*D8
 10
294.2167126505081
 20
493.4734499901704
 30
0.0
 11
227.1559442876661
 21
475.9824819401685
 31
0.0
 70
    32
 71
     5
 42
137.997545148324
 51
339.9999999999999
  3
Standard
100
AcDbAlignedDimension
 13
191.42525147633
 23
372.412838762598
 33
0.0
 14
305.8806299607877
 24
461.4271005577915
 34
0.0
 50
20.00000000000018
100
AcDbRotatedDimension
1001
ACAD
1000
DSTYLE
1002
{
1070
    40
1040
2.0
1070
    41
1040
3.5
1070
    42
1040
1.0
1070
    43
1040
7.0
1070
    44
1040
1.0
1070
    73
1070
     0
1070
    74
1070
     0
1070
    77
1070
     1
1070
    78
1070
     8
1070
    79
1070
     2
1070
   140
1040
3.5
1070
   141
1040
1.5
1070
   146
1040
0.5142857142857144
1070
   147
1040
1.5
1070
   172
1070
     1
1070
   178
1070
     1
1070
   179
1070
     2
1070
   271
1070
     2
1070
   272
1070
     2
1070
   284
1070
     8
1070
   285
1070
     8
1070
   286
1070
     8
1002
}
  0
ENDSEC
  0
SECTION
  2
OBJECTS
  0
DICTIONARY
  5
C
330
0
100
AcDbDictionary
281
     1
  3
ACAD_COLOR
350
DF
  3
ACAD_GROUP
350
D
  3
ACAD_LAYOUT
350
19
  3
ACAD_MATERIAL
350
DE
  3
ACAD_MLINESTYLE
350
16
  3
ACAD_PLOTSETTINGS
350
18
  3
ACAD_PLOTSTYLENAME
350
E
  3
AcDbVariableDictionary
350
25E
  0
DICTIONARY
  5
A0
330
1E
100
AcDbDictionary
280
     1
281
     1
  3
ACAD_LAYOUTSELFREF
360
D4
  0
DICTIONARY
  5
A2
330
1A
100
AcDbDictionary
280
     1
281
     1
  3
ACAD_LAYOUTSELFREF
360
D3
  0
DICTIONARY
  5
DF
102
{ACAD_REACTORS
330
C
102
}
330
C
100
AcDbDictionary
281
     1
  0
DICTIONARY
  5
D
102
{ACAD_REACTORS
330
C
102
}
330
C
100
AcDbDictionary
281
     1
  0
DICTIONARY
  5
19
102
{ACAD_REACTORS
330
C
102
}
330
C
100
AcDbDictionary
281
     1
  3
Layout1
350
1D
  3
Model
350
21
  0
DICTIONARY
  5
DE
102
{ACAD_REACTORS
330
C
102
}
330
C
100
AcDbDictionary
281
     1
  0
DICTIONARY
  5
16
102
{ACAD_REACTORS
330
C
102
}
330
C
100
AcDbDictionary
281
     1
  3
Standard
350
17
  0
DICTIONARY
  5
18
102
{ACAD_REACTORS
330
C
102
}
330
C
100
AcDbDictionary
281
     1
  0
ACDBDICTIONARYWDFLT
  5
E
102
{ACAD_REACTORS
330
C
102
}
330
C
100
AcDbDictionary
281
     1
  3
Normal
350
F
100
AcDbDictionaryWithDefault
340
F
  0
DICTIONARY
  5
25E
102
{ACAD_REACTORS
330
C
102
}
330
C
100
AcDbDictionary
281
     1
  3
DIMASSOC
350
25F
  3
PROJECTNAME
350
260
  0
XRECORD
  5
D4
102
{ACAD_REACTORS
330
A0
102
}
330
A0
100
AcDbXrecord
280
     1
340
1E
  0
XRECORD
  5
D3
102
{ACAD_REACTORS
330
A2
102
}
330
A2
100
AcDbXrecord
280
     1
340
1A
  0
LAYOUT
  5
1D
102
{ACAD_REACTORS
330
19
102
}
330
19
100
AcDbPlotSettings
  1

  2
\\NT_WORK01\HP LaserJet 5000 PCL 6
  4

  6

 40
0.0
 41
0.0
 42
0.0
 43
0.0
 44
0.0
 45
0.0
 46
0.0
 47
0.0
 48
0.0
 49
0.0
140
0.0
141
0.0
142
1.0
143
1.0
 70
   688
 72
     0
 73
     0
 74
     5
  7

 75
    16
147
1.0
 76
     0
 77
     2
 78
   300
148
0.0
149
0.0
100
AcDbLayout
  1
Layout1
 70
     0
 71
     1
 10
0.0
 20
0.0
 11
12.0
 21
9.0
 12
0.0
 22
0.0
 32
0.0
 14
1.000000000000000E+20
 24
1.000000000000000E+20
 34
1.000000000000000E+20
 15
-1.000000000000000E+20
 25
-1.000000000000000E+20
 35
-1.000000000000000E+20
146
0.0
 13
0.0
 23
0.0
 33
0.0
 16
1.0
 26
0.0
 36
0.0
 17
0.0
 27
1.0
 37
0.0
 76
     0
330
1A
  0
LAYOUT
  5
21
102
{ACAD_REACTORS
330
19
102
}
330
19
100
AcDbPlotSettings
  1

  2
RICOH Aficio 2027 PCL 6
  4
A4
  6

 40
5.027083
 41
5.027084999999999
 42
5.027084
 43
5.027069
 44
209.973328
 45
296.925995
 46
0.0
 47
2.06
 48
0.0
 49
0.0
140
0.0
141
0.0
142
1.0
143
2.100849152723284
 70
 11956
 72
     1
 73
     0
 74
     2
  7
monochrome1.ctb
 75
     0
147
0.4759980023809526
 76
     1
 77
     2
 78
   300
148
0.0
149
0.0
100
AcDbLayout
  1
Model
 70
     1
 71
     0
 10
0.0
 20
0.0
 11
12.0
 21
9.0
 12
0.0
 22
0.0
 32
0.0
 14
0.0
 24
0.0
 34
0.0
 15
0.0
 25
0.0
 35
0.0
146
0.0
 13
0.0
 23
0.0
 33
0.0
 16
1.0
 26
0.0
 36
0.0
 17
0.0
 27
1.0
 37
0.0
 76
     0
330
1E
  0
MLINESTYLE
  5
17
102
{ACAD_REACTORS
330
16
102
}
330
16
100
AcDbMlineStyle
  2
STANDARD
 70
     0
  3

 62
   256
 51
90.0
 52
90.0
 71
     2
 49
0.5
 62
   256
  6
BYLAYER
 49
-0.5
 62
   256
  6
BYLAYER
  0
ACDBPLACEHOLDER
  5
F
102
{ACAD_REACTORS
330
E
102
}
330
E
  0
DICTIONARYVAR
  5
25F
102
{ACAD_REACTORS
330
25E
102
}
330
25E
100
DictionaryVariables
280
     0
  1
1
  0
DICTIONARYVAR
  5
260
102
{ACAD_REACTORS
330
25E
102
}
330
25E
100
DictionaryVariables
280
     0
  1

  0
ENDSEC
  0
EOF
