  0
SECTION
  2
HEADER
  9
$ACADVER
  1
AC1018
  9
$ACADMAINTVER
 70
     2
  9
$DWGCODEPAGE
  3
ANSI_1252
  9
$INSBASE
 10
0.0
 20
0.0
 30
0.0
  9
$EXTMIN
 10
-0.0127986059028444
 20
-0.0181008854913216
 30
-0.0000000000000053
  9
$EXTMAX
 10
525.0312517955476
 20
742.5441989679902
 30
0.0000000000000099
  9
$LIMMIN
 10
0.0
 20
0.0
  9
$LIMMAX
 10
524.9999999999999
 20
742.4999999999999
  9
$ORTHOMODE
 70
     0
  9
$REGENMODE
 70
     1
  9
$FILLMODE
 70
     1
  9
$QTEXTMODE
 70
     0
  9
$MIRRTEXT
 70
     1
  9
$LTSCALE
 40
25.0
  9
$ATTMODE
 70
     1
  9
$TEXTSIZE
 40
3.5
  9
$TRACEWID
 40
0.5
  9
$TEXTSTYLE
  7
STANDARD
  9
$CLAYER
  8
BEM
  9
$CELTYPE
  6
ByLayer
  9
$CECOLOR
 62
   256
  9
$CELTSCALE
 40
1.0
  9
$DISPSILH
 70
     0
  9
$DIMSCALE
 40
2.5
  9
$DIMASZ
 40
3.5
  9
$DIMEXO
 40
1.0
  9
$DIMDLI
 40
7.0
  9
$DIMRND
 40
0.0
  9
$DIMDLE
 40
0.0
  9
$DIMEXE
 40
1.0
  9
$DIMTP
 40
0.0
  9
$DIMTM
 40
0.0
  9
$DIMTXT
 40
3.5
  9
$DIMCEN
 40
1.5
  9
$DIMTSZ
 40
0.0
  9
$DIMTOL
 70
     0
  9
$DIMLIM
 70
     0
  9
$DIMTIH
 70
     0
  9
$DIMTOH
 70
     0
  9
$DIMSE1
 70
     0
  9
$DIMSE2
 70
     0
  9
$DIMTAD
 70
     1
  9
$DIMZIN
 70
     8
  9
$DIMBLK
  1

  9
$DIMASO
 70
     1
  9
$DIMSHO
 70
     0
  9
$DIMPOST
  1

  9
$DIMAPOST
  1

  9
$DIMALT
 70
     0
  9
$DIMALTD
 70
     2
  9
$DIMALTF
 40
25.4
  9
$DIMLFAC
 40
1.0
  9
$DIMTOFL
 70
     1
  9
$DIMTVP
 40
0.0
  9
$DIMTIX
 70
     0
  9
$DIMSOXD
 70
     0
  9
$DIMSAH
 70
     0
  9
$DIMBLK1
  1

  9
$DIMBLK2
  1

  9
$DIMSTYLE
  2
Standard
  9
$DIMCLRD
 70
     0
  9
$DIMCLRE
 70
     0
  9
$DIMCLRT
 70
     1
  9
$DIMTFAC
 40
0.5142857142857144
  9
$DIMGAP
 40
1.5
  9
$DIMJUST
 70
     0
  9
$DIMSD1
 70
     0
  9
$DIMSD2
 70
     0
  9
$DIMTOLJ
 70
     1
  9
$DIMTZIN
 70
     8
  9
$DIMALTZ
 70
     8
  9
$DIMALTTZ
 70
     8
  9
$DIMUPT
 70
     0
  9
$DIMDEC
 70
     2
  9
$DIMTDEC
 70
     2
  9
$DIMALTU
 70
     2
  9
$DIMALTTD
 70
     2
  9
$DIMTXSTY
  7
STANDARD
  9
$DIMAUNIT
 70
     0
  9
$DIMADEC
 70
     2
  9
$DIMALTRND
 40
0.0
  9
$DIMAZIN
 70
     2
  9
$DIMDSEP
 70
    46
  9
$DIMATFIT
 70
     3
  9
$DIMFRAC
 70
     0
  9
$DIMLDRBLK
  1

  9
$DIMLUNIT
 70
     2
  9
$DIMLWD
 70
    -2
  9
$DIMLWE
 70
    -2
  9
$DIMTMOVE
 70
     0
  9
$LUNITS
 70
     2
  9
$LUPREC
 70
     2
  9
$SKETCHINC
 40
1.0
  9
$FILLETRAD
 40
67.5
  9
$AUNITS
 70
     0
  9
$AUPREC
 70
     0
  9
$MENU
  1
ACAD
  9
$ELEVATION
 40
0.0
  9
$PELEVATION
 40
0.0
  9
$THICKNESS
 40
0.0
  9
$LIMCHECK
 70
     0
  9
$CHAMFERA
 40
0.0
  9
$CHAMFERB
 40
0.0
  9
$CHAMFERC
 40
0.0
  9
$CHAMFERD
 40
0.0
  9
$SKPOLY
 70
     0
  9
$TDCREATE
 40
2455397.823042361
  9
$TDUCREATE
 40
2455397.781375695
  9
$TDUPDATE
 40
2455532.530013148
  9
$TDUUPDATE
 40
2455532.488346482
  9
$TDINDWG
 40
0.4571498843
  9
$TDUSRTIMER
 40
0.4571498843
  9
$USRTIMER
 70
     1
  9
$ANGBASE
 50
0.0
  9
$ANGDIR
 70
     0
  9
$PDMODE
 70
     0
  9
$PDSIZE
 40
0.0
  9
$PLINEWID
 40
0.0
  9
$SPLFRAME
 70
     0
  9
$SPLINETYPE
 70
     6
  9
$SPLINESEGS
 70
     8
  9
$HANDSEED
  5
2D0C
  9
$SURFTAB1
 70
     6
  9
$SURFTAB2
 70
     6
  9
$SURFTYPE
 70
     6
  9
$SURFU
 70
     6
  9
$SURFV
 70
     6
  9
$UCSBASE
  2

  9
$UCSNAME
  2

  9
$UCSORG
 10
0.0
 20
0.0
 30
0.0
  9
$UCSXDIR
 10
1.0
 20
0.0
 30
0.0
  9
$UCSYDIR
 10
0.0
 20
1.0
 30
0.0
  9
$UCSORTHOREF
  2

  9
$UCSORTHOVIEW
 70
     0
  9
$UCSORGTOP
 10
0.0
 20
0.0
 30
0.0
  9
$UCSORGBOTTOM
 10
0.0
 20
0.0
 30
0.0
  9
$UCSORGLEFT
 10
0.0
 20
0.0
 30
0.0
  9
$UCSORGRIGHT
 10
0.0
 20
0.0
 30
0.0
  9
$UCSORGFRONT
 10
0.0
 20
0.0
 30
0.0
  9
$UCSORGBACK
 10
0.0
 20
0.0
 30
0.0
  9
$PUCSBASE
  2

  9
$PUCSNAME
  2

  9
$PUCSORG
 10
0.0
 20
0.0
 30
0.0
  9
$PUCSXDIR
 10
1.0
 20
0.0
 30
0.0
  9
$PUCSYDIR
 10
0.0
 20
1.0
 30
0.0
  9
$PUCSORTHOREF
  2

  9
$PUCSORTHOVIEW
 70
     0
  9
$PUCSORGTOP
 10
0.0
 20
0.0
 30
0.0
  9
$PUCSORGBOTTOM
 10
0.0
 20
0.0
 30
0.0
  9
$PUCSORGLEFT
 10
0.0
 20
0.0
 30
0.0
  9
$PUCSORGRIGHT
 10
0.0
 20
0.0
 30
0.0
  9
$PUCSORGFRONT
 10
0.0
 20
0.0
 30
0.0
  9
$PUCSORGBACK
 10
0.0
 20
0.0
 30
0.0
  9
$USERI1
 70
     0
  9
$USERI2
 70
     0
  9
$USERI3
 70
     0
  9
$USERI4
 70
     0
  9
$USERI5
 70
     0
  9
$USERR1
 40
0.0
  9
$USERR2
 40
0.0
  9
$USERR3
 40
0.0
  9
$USERR4
 40
0.0
  9
$USERR5
 40
0.0
  9
$WORLDVIEW
 70
     1
  9
$SHADEDGE
 70
     3
  9
$SHADEDIF
 70
    70
  9
$TILEMODE
 70
     1
  9
$MAXACTVP
 70
    16
  9
$PINSBASE
 10
0.0
 20
0.0
 30
0.0
  9
$PLIMCHECK
 70
     0
  9
$PEXTMIN
 10
1.000000000000000E+20
 20
1.000000000000000E+20
 30
1.000000000000000E+20
  9
$PEXTMAX
 10
-1.000000000000000E+20
 20
-1.000000000000000E+20
 30
-1.000000000000000E+20
  9
$PLIMMIN
 10
0.0
 20
0.0
  9
$PLIMMAX
 10
12.0
 20
9.0
  9
$UNITMODE
 70
     0
  9
$VISRETAIN
 70
     0
  9
$PLINEGEN
 70
     0
  9
$PSLTSCALE
 70
     0
  9
$TREEDEPTH
 70
  3020
  9
$CMLSTYLE
  2
Standard
  9
$CMLJUST
 70
     0
  9
$CMLSCALE
 40
1.0
  9
$PROXYGRAPHICS
 70
     1
  9
$MEASUREMENT
 70
     0
  9
$CELWEIGHT
370
    -1
  9
$ENDCAPS
280
     0
  9
$JOINSTYLE
280
     0
  9
$LWDISPLAY
290
     0
  9
$INSUNITS
 70
     0
  9
$HYPERLINKBASE
  1

  9
$STYLESHEET
  1
monochrome 1.ctb
  9
$XEDIT
290
     1
  9
$CEPSNTYPE
380
     0
  9
$PSTYLEMODE
290
     1
  9
$FINGERPRINTGUID
  2
{D68B0D02-A558-11D7-B632-000102183313}
  9
$VERSIONGUID
  2
{5E12013A-542C-4131-976C-460522980808}
  9
$EXTNAMES
290
     1
  9
$PSVPSCALE
 40
0.0
  9
$OLESTARTUP
290
     0
  9
$SORTENTS
280
   127
  9
$INDEXCTL
280
     0
  9
$HIDETEXT
280
     0
  9
$XCLIPFRAME
290
     0
  9
$HALOGAP
280
     0
  9
$OBSCOLOR
 70
   257
  9
$OBSLTYPE
280
     0
  9
$INTERSECTIONDISPLAY
280
     0
  9
$INTERSECTIONCOLOR
 70
   257
  9
$DIMASSOC
280
     1
  9
$PROJECTNAME
  1

  0
ENDSEC
  0
SECTION
  2
CLASSES
  0
CLASS
  1
ACDBDICTIONARYWDFLT
  2
AcDbDictionaryWithDefault
  3
ObjectDBX Classes
 90
        0
 91
        1
280
     0
281
     0
  0
CLASS
  1
DICTIONARYVAR
  2
AcDbDictionaryVar
  3
ObjectDBX Classes
 90
        0
 91
        2
280
     0
281
     0
  0
ENDSEC
  0
SECTION
  2
TABLES
  0
TABLE
  2
VPORT
  5
8
330
0
100
AcDbSymbolTable
 70
     2
  0
VPORT
  5
2D0B
330
8
100
AcDbSymbolTableRecord
100
AcDbViewportTableRecord
  2
*Active
 70
     0
 10
0.0
 20
0.0
 11
1.0
 21
1.0
 12
262.5092265948225
 22
371.2630490412495
 13
0.0
 23
0.0
 14
1.0
 24
1.0
 15
10.0
 25
10.0
 16
0.0
 26
0.0
 36
1.0
 17
0.0
 27
0.0
 37
0.0
 40
748.5587652627964
 41
1.336927223719676
 42
50.0
 43
0.0
 44
0.0
 50
0.0
 51
0.0
 71
     0
 72
  1500
 73
     1
 74
     0
 75
     0
 76
     0
 77
     0
 78
     0
281
     0
 65
     1
110
0.0
120
0.0
130
0.0
111
1.0
121
0.0
131
0.0
112
0.0
122
1.0
132
0.0
 79
     0
146
0.0
  0
ENDTAB
  0
TABLE
  2
LTYPE
  5
5
330
0
100
AcDbSymbolTable
 70
     2
  0
LTYPE
  5
13
330
5
100
AcDbSymbolTableRecord
100
AcDbLinetypeTableRecord
  2
ByBlock
 70
     0
  3

 72
    65
 73
     0
 40
0.0
  0
LTYPE
  5
14
330
5
100
AcDbSymbolTableRecord
100
AcDbLinetypeTableRecord
  2
ByLayer
 70
     0
  3

 72
    65
 73
     0
 40
0.0
  0
LTYPE
  5
15
330
5
100
AcDbSymbolTableRecord
100
AcDbLinetypeTableRecord
  2
Continuous
 70
     0
  3
Solid line
 72
    65
 73
     0
 40
0.0
  0
LTYPE
  5
25
330
5
100
AcDbSymbolTableRecord
100
AcDbLinetypeTableRecord
  2
STRICHPUNKT
 70
     0
  3
__ . __ . __ . __ . __ . __ . __ . __ . __ . __
 72
    65
 73
     4
 40
1.0
 49
0.5
 74
     0
 49
-0.25
 74
     0
 49
0.0
 74
     0
 49
-0.25
 74
     0
  0
ENDTAB
  0
TABLE
  2
LAYER
  5
2
330
0
100
AcDbSymbolTable
 70
     9
  0
LAYER
  5
10
330
2
100
AcDbSymbolTableRecord
100
AcDbLayerTableRecord
  2
0
 70
     0
 62
     7
  6
Continuous
370
    -3
390
F
  0
LAYER
  5
2A
330
2
100
AcDbSymbolTableRecord
100
AcDbLayerTableRecord
  2
VOLL
 70
     0
 62
     1
  6
Continuous
370
    -3
390
F
  0
LAYER
  5
2B
330
2
100
AcDbSymbolTableRecord
100
AcDbLayerTableRecord
  2
HILF
 70
     0
 62
     2
  6
Continuous
370
    -3
390
F
  0
LAYER
  5
2C
330
2
100
AcDbSymbolTableRecord
100
AcDbLayerTableRecord
  2
MITTEL
 70
     0
 62
     2
  6
STRICHPUNKT
370
    -3
390
F
  0
LAYER
  5
2F
330
2
100
AcDbSymbolTableRecord
100
AcDbLayerTableRecord
  2
BEM
 70
     0
 62
     7
  6
Continuous
370
    -3
390
F
  0
LAYER
  5
30
330
2
100
AcDbSymbolTableRecord
100
AcDbLayerTableRecord
  2
STEMPEL
 70
     0
 62
     3
  6
Continuous
370
    -3
390
F
  0
LAYER
  5
31
330
2
100
AcDbSymbolTableRecord
100
AcDbLayerTableRecord
  2
TEXT
 70
     0
 62
     7
  6
Continuous
370
    -3
390
F
  0
LAYER
  5
171
330
2
100
AcDbSymbolTableRecord
100
AcDbLayerTableRecord
  2
Defpoints
 70
     0
 62
     7
  6
Continuous
290
     0
370
    -3
390
F
  0
LAYER
  5
19C
330
2
100
AcDbSymbolTableRecord
100
AcDbLayerTableRecord
  2
SCHRAFF
 70
     0
 62
     7
  6
Continuous
370
    -3
390
F
  0
ENDTAB
  0
TABLE
  2
STYLE
  5
3
330
0
100
AcDbSymbolTable
 70
     2
  0
STYLE
  5
11
330
3
100
AcDbSymbolTableRecord
100
AcDbTextStyleTableRecord
  2
STANDARD
 70
     0
 40
0.0
 41
0.8
 50
0.0
 71
     0
 42
3.5
  3
simplex.shx
  4

  0
STYLE
  5
24
330
3
100
AcDbSymbolTableRecord
100
AcDbTextStyleTableRecord
  2
GREEKS
 70
     0
 40
0.0
 41
0.8
 50
0.0
 71
     0
 42
2.5
  3
SIMPLEX.shx
  4

  0
ENDTAB
  0
TABLE
  2
VIEW
  5
6
330
0
100
AcDbSymbolTable
 70
     0
  0
ENDTAB
  0
TABLE
  2
UCS
  5
7
330
0
100
AcDbSymbolTable
 70
     0
  0
ENDTAB
  0
TABLE
  2
APPID
  5
9
330
0
100
AcDbSymbolTable
 70
     1
  0
APPID
  5
12
330
9
100
AcDbSymbolTableRecord
100
AcDbRegAppTableRecord
  2
ACAD
 70
     0
  0
ENDTAB
  0
TABLE
  2
DIMSTYLE
  5
A
330
0
100
AcDbSymbolTable
 70
     1
100
AcDbDimStyleTable
 71
     1
340
9D
  0
DIMSTYLE
105
9D
102
{ACAD_REACTORS
330
26DD
330
2939
330
2624
330
2CBC
330
2CC9
330
2CD6
102
}
330
A
100
AcDbSymbolTableRecord
100
AcDbDimStyleTableRecord
  2
Standard
 70
     0
340
11
  0
ENDTAB
  0
TABLE
  2
BLOCK_RECORD
  5
1
330
0
100
AcDbSymbolTable
 70
     9
  0
BLOCK_RECORD
  5
1E
102
{ACAD_XDICTIONARY
360
A0
102
}
330
1
100
AcDbSymbolTableRecord
100
AcDbBlockTableRecord
  2
*Model_Space
340
21
  0
BLOCK_RECORD
  5
1A
102
{ACAD_XDICTIONARY
360
A2
102
}
330
1
100
AcDbSymbolTableRecord
100
AcDbBlockTableRecord
  2
*Paper_Space
340
1D
  0
BLOCK_RECORD
  5
22
330
1
100
AcDbSymbolTableRecord
100
AcDbBlockTableRecord
  2
LOGO
340
0
102
{BLKREFS
331
9B
102
}
  0
BLOCK_RECORD
  5
23F7
330
1
100
AcDbSymbolTableRecord
100
AcDbBlockTableRecord
  2
*X1
340
0
102
{BLKREFS
331
2545
102
}
  0
BLOCK_RECORD
  5
2436
330
1
100
AcDbSymbolTableRecord
100
AcDbBlockTableRecord
  2
*X2
340
0
102
{BLKREFS
331
254B
102
}
  0
BLOCK_RECORD
  5
2639
330
1
100
AcDbSymbolTableRecord
100
AcDbBlockTableRecord
  2
*D3
340
0
  0
BLOCK_RECORD
  5
2702
330
1
100
AcDbSymbolTableRecord
100
AcDbBlockTableRecord
  2
*D4
340
0
  0
BLOCK_RECORD
  5
293A
330
1
100
AcDbSymbolTableRecord
100
AcDbBlockTableRecord
  2
*D5
340
0
  0
BLOCK_RECORD
  5
2CBD
330
1
100
AcDbSymbolTableRecord
100
AcDbBlockTableRecord
  2
*D6
340
0
  0
BLOCK_RECORD
  5
2CCA
330
1
100
AcDbSymbolTableRecord
100
AcDbBlockTableRecord
  2
*D7
340
0
  0
BLOCK_RECORD
  5
2CD7
330
1
100
AcDbSymbolTableRecord
100
AcDbBlockTableRecord
  2
*D8
340
0
  0
ENDTAB
  0
ENDSEC
  0
SECTION
  2
BLOCKS
  0
BLOCK
  5
35
330
1E
100
AcDbEntity
  8
0
100
AcDbBlockBegin
  2
*Model_Space
 70
     0
 10
0.0
 20
0.0
 30
0.0
  3
*Model_Space
  1

  0
ENDBLK
  5
36
330
1E
100
AcDbEntity
  8
0
100
AcDbBlockEnd
  0
BLOCK
  5
33
330
1A
100
AcDbEntity
 67
     1
  8
0
100
AcDbBlockBegin
  2
*Paper_Space
 70
     0
 10
0.0
 20
0.0
 30
0.0
  3
*Paper_Space
  1

  0
ENDBLK
  5
34
330
1A
100
AcDbEntity
 67
     1
  8
0
100
AcDbBlockEnd
  0
BLOCK
  5
37
330
22
100
AcDbEntity
  8
0
100
AcDbBlockBegin
  2
LOGO
 70
     0
 10
0.0
 20
0.0
 30
0.0
  3
LOGO
  1

  0
ARC
  5
38
330
22
100
AcDbEntity
  8
0
100
AcDbCircle
 10
11.59973089678112
 20
-9.271599258481501
 30
0.0
 40
4.5
100
AcDbArc
 50
270.0
 51
231.0575587310159
  0
LINE
  5
39
330
22
100
AcDbEntity
  8
0
100
AcDbLine
 10
3.599730896781125
 20
-4.771599258481529
 30
0.0
 11
3.599730896781153
 21
-11.77159925848133
 31
0.0
  0
LINE
  5
3A
330
22
100
AcDbEntity
  8
0
100
AcDbLine
 10
2.599730896781125
 20
-4.771599258481529
 30
0.0
 11
2.599730896781153
 21
-11.77159925848133
 31
0.0
  0
CIRCLE
  5
3B
330
22
100
AcDbEntity
  8
0
100
AcDbCircle
 10
11.59973089678112
 20
-9.271599258481501
 30
0.0
 40
3.5
  0
ARC
  5
3C
330
22
100
AcDbEntity
  8
0
100
AcDbCircle
 10
31.59973089678115
 20
-9.271599258481472
 30
0.0
 40
4.5
100
AcDbArc
 50
270.0
 51
231.0575587310182
  0
LINE
  5
3D
330
22
100
AcDbEntity
  8
0
100
AcDbLine
 10
17.59973089678112
 20
-4.771599258481472
 30
0.0
 11
17.59973089678115
 21
-13.77159925848147
 31
0.0
  0
ARC
  5
3E
330
22
100
AcDbEntity
  8
0
100
AcDbCircle
 10
22.59973089678116
 20
-7.271599258481472
 30
0.0
 40
2.5
100
AcDbArc
 50
293.1161887722295
 51
90.0
  0
CIRCLE
  5
3F
330
22
100
AcDbEntity
  8
0
100
AcDbCircle
 10
31.59973089678115
 20
-9.271599258481472
 30
0.0
 40
3.5
  0
ARC
  5
40
330
22
100
AcDbEntity
  8
0
100
AcDbCircle
 10
4.599730896781153
 20
-11.77159925848133
 30
0.0
 40
1.0
100
AcDbArc
 50
180.0
 51
270.0
  0
ARC
  5
41
330
22
100
AcDbEntity
  8
0
100
AcDbCircle
 10
4.599730896781153
 20
-11.77159925848133
 30
0.0
 40
2.0
100
AcDbArc
 50
179.9999999999992
 51
270.0
  0
LINE
  5
42
330
22
100
AcDbEntity
  8
0
100
AcDbLine
 10
11.59973089678115
 20
-13.77159925848144
 30
0.0
 11
4.599730896781153
 21
-13.77159925848147
 31
0.0
  0
LINE
  5
43
330
22
100
AcDbEntity
  8
0
100
AcDbLine
 10
8.771303772034769
 20
-12.77159925848136
 30
0.0
 11
4.599730896781153
 21
-12.77159925848133
 31
0.0
  0
LINE
  5
44
330
22
100
AcDbEntity
  8
0
100
AcDbLine
 10
31.59973089678115
 20
-13.77159925848147
 30
0.0
 11
23.6715276665056
 21
-13.77159925848144
 31
0.0
  0
LINE
  5
45
330
22
100
AcDbEntity
  8
0
100
AcDbLine
 10
23.56565672307022
 20
-9.51278021337896
 30
0.0
 11
24.4388546544846
 21
-12.77159925848144
 31
0.0
  0
LINE
  5
46
330
22
100
AcDbEntity
  8
0
100
AcDbLine
 10
22.59973089678116
 20
-9.771599258481472
 30
0.0
 11
18.59973089678112
 21
-9.771599258481472
 31
0.0
  0
LINE
  5
47
330
22
100
AcDbEntity
  8
0
100
AcDbLine
 10
18.59973089678115
 20
-13.77159925848144
 30
0.0
 11
17.59973089678115
 21
-13.77159925848144
 31
0.0
  0
LINE
  5
48
330
22
100
AcDbEntity
  8
0
100
AcDbLine
 10
18.59973089678115
 20
-9.771599258481472
 30
0.0
 11
18.59973089678115
 21
-13.77159925848144
 31
0.0
  0
LINE
  5
49
330
22
100
AcDbEntity
  8
0
100
AcDbLine
 10
22.59973089678116
 20
-9.771599258481472
 30
0.0
 11
23.67152766650562
 21
-13.77159925848147
 31
0.0
  0
ARC
  5
4A
330
22
100
AcDbEntity
  8
0
100
AcDbCircle
 10
22.59973089678116
 20
-7.271599258481472
 30
0.0
 40
2.5
100
AcDbArc
 50
270.0
 51
270.0000000000007
  0
LINE
  5
4B
330
22
100
AcDbEntity
  8
0
100
AcDbLine
 10
28.77130377203494
 20
-12.77159925848147
 30
0.0
 11
24.43885465448463
 21
-12.77159925848144
 31
0.0
  0
LINE
  5
4C
330
22
100
AcDbEntity
  8
0
100
AcDbLine
 10
3.599730896781125
 20
-4.771599258481472
 30
0.0
 11
2.599730896781125
 21
-4.771599258481472
 31
0.0
  0
LINE
  5
4D
330
22
100
AcDbEntity
  8
0
100
AcDbLine
 10
22.59973089678116
 20
-8.771599258481472
 30
0.0
 11
18.59973089678115
 21
-8.771599258481472
 31
0.0
  0
LINE
  5
4E
330
22
100
AcDbEntity
  8
0
100
AcDbLine
 10
22.59973089678116
 20
-5.771599258481472
 30
0.0
 11
18.59973089678115
 21
-5.771599258481472
 31
0.0
  0
LINE
  5
4F
330
22
100
AcDbEntity
  8
0
100
AcDbLine
 10
22.59973089678116
 20
-4.771599258481472
 30
0.0
 11
17.59973089678115
 21
-4.771599258481472
 31
0.0
  0
LINE
  5
50
330
22
100
AcDbEntity
  8
0
100
AcDbLine
 10
18.59973089678115
 20
-5.771599258481472
 30
0.0
 11
18.59973089678115
 21
-8.771599258481472
 31
0.0
  0
ARC
  5
51
330
22
100
AcDbEntity
  8
0
100
AcDbCircle
 10
22.59973089678116
 20
-7.271599258481472
 30
0.0
 40
1.5
100
AcDbArc
 50
270.0
 51
90.0
  0
ENDBLK
  5
52
330
22
100
AcDbEntity
  8
0
100
AcDbBlockEnd
  0
BLOCK
  5
23F8
330
23F7
100
AcDbEntity
  8
0
100
AcDbBlockBegin
  2
*X1
 70
     1
 10
0.0
 20
0.0
 30
0.0
  3
*X1
  1

  0
LINE
  5
23F9
330
23F7
100
AcDbEntity
  8
0
 62
     0
100
AcDbLine
 10
120.3406386725543
 20
417.3433577416965
 30
0.0
 11
118.9260136662703
 21
418.7579827479805
 31
0.0
  0
LINE
  5
23FA
330
23F7
100
AcDbEntity
  8
0
 62
     0
100
AcDbLine
 10
120.2718296260509
 20
417.2707454319625
 30
0.0
 11
118.8588635386228
 21
418.6837115193906
 31
0.0
  0
LINE
  5
23FB
330
23F7
100
AcDbEntity
  8
0
 62
     0
100
AcDbLine
 10
120.2030589475501
 20
417.1980947542259
 30
0.0
 11
118.7939139401704
 21
418.6072397616056
 31
0.0
  0
LINE
  5
23FC
330
23F7
100
AcDbEntity
  8
0
 62
     0
100
AcDbLine
 10
120.134326638764
 20
417.1254057067748
 30
0.0
 11
118.7311816335508
 21
418.528550711988
 31
0.0
  0
LINE
  5
23FD
330
23F7
100
AcDbEntity
  8
0
 62
     0
100
AcDbLine
 10
120.065632701439
 20
417.0526782878624
 30
0.0
 11
118.6706901155418
 21
418.4476208737596
 31
0.0
  0
LINE
  5
23FE
330
23F7
100
AcDbEntity
  8
0
 62
     0
100
AcDbLine
 10
119.9969771373554
 20
416.9799124957087
 30
0.0
 11
118.6124699701909
 21
418.3644196628732
 31
0.0
  0
LINE
  5
23FF
330
23F7
100
AcDbEntity
  8
0
 62
     0
100
AcDbLine
 10
119.9283599483273
 20
416.9071083284995
 30
0.0
 11
118.5565593408212
 21
418.2789089360055
 31
0.0
  0
LINE
  5
2400
330
23F7
100
AcDbEntity
  8
0
 62
     0
100
AcDbLine
 10
119.8597811362031
 20
416.8342657843864
 30
0.0
 11
118.5030045384648
 21
418.1910423821247
 31
0.0
  0
LINE
  5
2401
330
23F7
100
AcDbEntity
  8
0
 62
     0
100
AcDbLine
 10
119.791240702865
 20
416.7613848614872
 30
0.0
 11
118.4518608103684
 21
418.1007647539838
 31
0.0
  0
LINE
  5
2402
330
23F7
100
AcDbEntity
  8
0
 62
     0
100
AcDbLine
 10
119.7227386502292
 20
416.6884655578857
 30
0.0
 11
118.4031933000483
 21
418.0080109080666
 31
0.0
  0
LINE
  5
2403
330
23F7
100
AcDbEntity
  8
0
 62
     0
100
AcDbLine
 10
119.6542749802461
 20
416.6155078716315
 30
0.0
 11
118.3570782406364
 21
417.9127046112411
 31
0.0
  0
LINE
  5
2404
330
23F7
100
AcDbEntity
  8
0
 62
     0
100
AcDbLine
 10
119.5858496949
 20
416.5425118007403
 30
0.0
 11
118.3136044370099
 21
417.8147570586303
 31
0.0
  0
LINE
  5
2405
330
23F7
100
AcDbEntity
  8
0
 62
     0
100
AcDbLine
 10
119.5174627962091
 20
416.4694773431937
 30
0.0
 11
118.2728751109271
 21
417.7140650284758
 31
0.0
  0
LINE
  5
2406
330
23F7
100
AcDbEntity
  8
0
 62
     0
100
AcDbLine
 10
119.449114286226
 20
416.3964044969397
 30
0.0
 11
118.2350102093771
 21
417.6105085737885
 31
0.0
  0
LINE
  5
2407
330
23F7
100
AcDbEntity
  8
0
 62
     0
100
AcDbLine
 10
119.380804167037
 20
416.3232932598914
 30
0.0
 11
118.200149313026
 21
417.5039481139023
 31
0.0
  0
LINE
  5
2408
330
23F7
100
AcDbEntity
  8
0
 62
     0
100
AcDbLine
 10
119.3125324407627
 20
416.2501436299284
 30
0.0
 11
118.1684553343929
 21
417.3942207362982
 31
0.0
  0
LINE
  5
2409
330
23F7
100
AcDbEntity
  8
0
 62
     0
100
AcDbLine
 10
119.2442991095576
 20
416.1769556048961
 30
0.0
 11
118.1401192727674
 21
417.2811354416863
 31
0.0
  0
LINE
  5
240A
330
23F7
100
AcDbEntity
  8
0
 62
     0
100
AcDbLine
 10
119.1761041756105
 20
416.1037291826058
 30
0.0
 11
118.1153664089025
 21
417.1644669493138
 31
0.0
  0
LINE
  5
240B
330
23F7
100
AcDbEntity
  8
0
 62
     0
100
AcDbLine
 10
119.1079476411441
 20
416.030464360835
 30
0.0
 11
118.0944645007068
 21
417.0439475012724
 31
0.0
  0
LINE
  5
240C
330
23F7
100
AcDbEntity
  8
0
 62
     0
100
AcDbLine
 10
119.0398295084152
 20
415.9571611373265
 30
0.0
 11
118.0777348223461
 21
416.9192558233957
 31
0.0
  0
LINE
  5
240D
330
23F7
100
AcDbEntity
  8
0
 62
     0
100
AcDbLine
 10
118.971749779715
 20
415.8838195097896
 30
0.0
 11
118.065567346661
 21
416.7900019428435
 31
0.0
  0
LINE
  5
240E
330
23F7
100
AcDbEntity
  8
0
 62
     0
100
AcDbLine
 10
118.9037084573683
 20
415.8104394758988
 30
0.0
 11
118.0584421417225
 21
416.6557057915446
 31
0.0
  0
LINE
  5
240F
330
23F7
100
AcDbEntity
  8
0
 62
     0
100
AcDbLine
 10
118.8357055437346
 20
415.7370210332953
 30
0.0
 11
118.0569604052607
 21
416.5157661717691
 31
0.0
  0
LINE
  5
2410
330
23F7
100
AcDbEntity
  8
0
 62
     0
100
AcDbLine
 10
118.7677410412072
 20
415.6635641795854
 30
0.0
 11
118.0618910509235
 21
416.369414169869
 31
0.0
  0
LINE
  5
2411
330
23F7
100
AcDbEntity
  8
0
 62
     0
100
AcDbLine
 10
118.6998149522136
 20
415.5900689123417
 30
0.0
 11
118.0742436122491
 21
416.2156402523061
 31
0.0
  0
LINE
  5
2412
330
23F7
100
AcDbEntity
  8
0
 62
     0
100
AcDbLine
 10
118.6319272792155
 20
415.5165352291025
 30
0.0
 11
118.0953883610785
 21
416.0530741472395
 31
0.0
  0
LINE
  5
2413
330
23F7
100
AcDbEntity
  8
0
 62
     0
100
AcDbLine
 10
118.5640780247088
 20
415.4429631273719
 30
0.0
 11
118.1272675973868
 21
415.8797735546938
 31
0.0
  0
LINE
  5
2414
330
23F7
100
AcDbEntity
  8
0
 62
     0
100
AcDbLine
 10
118.4962671912236
 20
415.3693526046197
 30
0.0
 11
118.1728007376567
 21
415.6928190581866
 31
0.0
  0
LINE
  5
2415
330
23F7
100
AcDbEntity
  8
0
 62
     0
100
AcDbLine
 10
118.4284947813242
 20
415.2957036582818
 30
0.0
 11
118.236759327279
 21
415.487439112327
 31
0.0
  0
LINE
  5
2416
330
23F7
100
AcDbEntity
  8
0
 62
     0
100
AcDbLine
 10
118.360760797609
 20
415.2220162857597
 30
0.0
 11
118.3280266400322
 21
415.2547504433364
 31
0.0
  0
LINE
  5
2417
330
23F7
100
AcDbEntity
  8
0
 62
     0
100
AcDbLine
 10
120.4094860853817
 20
417.4159316851063
 30
0.0
 11
118.9953540477055
 21
418.8300637227825
 31
0.0
  0
LINE
  5
2418
330
23F7
100
AcDbEntity
  8
0
 62
     0
100
AcDbLine
 10
120.4783718628889
 20
417.4884672638364
 30
0.0
 11
119.0668807454503
 21
418.899958381275
 31
0.0
  0
LINE
  5
2419
330
23F7
100
AcDbEntity
  8
0
 62
     0
100
AcDbLine
 10
120.5472960034653
 20
417.5609644794972
 30
0.0
 11
119.1405961031566
 21
418.967664379806
 31
0.0
  0
LINE
  5
241A
330
23F7
100
AcDbEntity
  8
0
 62
     0
100
AcDbLine
 10
120.6162585055345
 20
417.6334233336653
 30
0.0
 11
119.2165087793872
 21
419.0331730598128
 31
0.0
  0
LINE
  5
241B
330
23F7
100
AcDbEntity
  8
0
 62
     0
100
AcDbLine
 10
120.685259367554
 20
417.7058438278832
 30
0.0
 11
119.2946338731164
 21
419.0964693223208
 31
0.0
  0
LINE
  5
241C
330
23F7
100
AcDbEntity
  8
0
 62
     0
100
AcDbLine
 10
120.754298588015
 20
417.7782259636595
 30
0.0
 11
119.3749931452321
 21
419.1575314064425
 31
0.0
  0
LINE
  5
241D
330
23F7
100
AcDbEntity
  8
0
 62
     0
100
AcDbLine
 10
120.8233761654428
 20
417.850569742469
 30
0.0
 11
119.4576153437158
 21
419.216330564196
 31
0.0
  0
LINE
  5
241E
330
23F7
100
AcDbEntity
  8
0
 62
     0
100
AcDbLine
 10
120.8924920983967
 20
417.9228751657524
 30
0.0
 11
119.5425366440689
 21
419.2728306200802
 31
0.0
  0
LINE
  5
241F
330
23F7
100
AcDbEntity
  8
0
 62
     0
100
AcDbLine
 10
120.9616463854697
 20
417.9951422349168
 30
0.0
 11
119.6298012211954
 21
419.3269873991911
 31
0.0
  0
LINE
  5
2420
330
23F7
100
AcDbEntity
  8
0
 62
     0
100
AcDbLine
 10
121.0308390252889
 20
418.0673709513349
 30
0.0
 11
119.719461974702
 21
419.3787480019217
 31
0.0
  0
LINE
  5
2421
330
23F7
100
AcDbEntity
  8
0
 62
     0
100
AcDbLine
 10
121.1000700165151
 20
418.1395613163459
 30
0.0
 11
119.8115814369097
 21
419.4280498959514
 31
0.0
  0
LINE
  5
2422
330
23F7
100
AcDbEntity
  8
0
 62
     0
100
AcDbLine
 10
121.1693393578432
 20
418.2117133312551
 30
0.0
 11
119.9062329024341
 21
419.4748197866642
 31
0.0
  0
LINE
  5
2423
330
23F7
100
AcDbEntity
  8
0
 62
     0
100
AcDbLine
 10
121.2386470480018
 20
418.2838269973339
 30
0.0
 11
120.0035018309416
 21
419.5189722143941
 31
0.0
  0
LINE
  5
2424
330
23F7
100
AcDbEntity
  8
0
 62
     0
100
AcDbLine
 10
121.3079930857535
 20
418.3559023158195
 30
0.0
 11
120.1034875919746
 21
419.5604078095984
 31
0.0
  0
LINE
  5
2425
330
23F7
100
AcDbEntity
  8
0
 62
     0
100
AcDbLine
 10
121.3773774698948
 20
418.4279392879156
 30
0.0
 11
120.2063056446195
 21
419.5990111131908
 31
0.0
  0
LINE
  5
2426
330
23F7
100
AcDbEntity
  8
0
 62
     0
100
AcDbLine
 10
121.4468001992558
 20
418.4999379147918
 30
0.0
 11
120.3120902783377
 21
419.6346478357098
 31
0.0
  0
LINE
  5
2427
330
23F7
100
AcDbEntity
  8
0
 62
     0
100
AcDbLine
 10
121.5162612727008
 20
418.5718981975841
 30
0.0
 11
120.4209980893029
 21
419.6671613809821
 31
0.0
  0
LINE
  5
2428
330
23F7
100
AcDbEntity
  8
0
 62
     0
100
AcDbLine
 10
121.5857606891278
 20
418.6438201373944
 30
0.0
 11
120.5332124366648
 21
419.6963683898574
 31
0.0
  0
LINE
  5
2429
330
23F7
100
AcDbEntity
  8
0
 62
     0
100
AcDbLine
 10
121.6552984474688
 20
418.7157037352908
 30
0.0
 11
120.6489492276352
 21
419.7220529551243
 31
0.0
  0
LINE
  5
242A
330
23F7
100
AcDbEntity
  8
0
 62
     0
100
AcDbLine
 10
121.7248745466894
 20
418.7875489923075
 30
0.0
 11
120.7684645397272
 21
419.7439589992698
 31
0.0
  0
LINE
  5
242B
330
23F7
100
AcDbEntity
  8
0
 62
     0
100
AcDbLine
 10
121.7944889857891
 20
418.8593559094451
 30
0.0
 11
120.8920648382836
 21
419.7617800569505
 31
0.0
  0
LINE
  5
242C
330
23F7
100
AcDbEntity
  8
0
 62
     0
100
AcDbLine
 10
121.8641417638014
 20
418.9311244876702
 30
0.0
 11
121.0201209505589
 21
419.7751453009126
 31
0.0
  0
LINE
  5
242D
330
23F7
100
AcDbEntity
  8
0
 62
     0
100
AcDbLine
 10
121.9338328797935
 20
419.0028547279153
 30
0.0
 11
121.1530876306017
 21
419.783599977107
 31
0.0
  0
LINE
  5
242E
330
23F7
100
AcDbEntity
  8
0
 62
     0
100
AcDbLine
 10
122.0035623328666
 20
419.0745466310795
 30
0.0
 11
121.2915317174349
 21
419.7865772465112
 31
0.0
  0
LINE
  5
242F
330
23F7
100
AcDbEntity
  8
0
 62
     0
100
AcDbLine
 10
122.0733301221555
 20
419.1462001980279
 30
0.0
 11
121.4361740118627
 21
419.7833563083206
 31
0.0
  0
LINE
  5
2430
330
23F7
100
AcDbEntity
  8
0
 62
     0
100
AcDbLine
 10
122.1431362468289
 20
419.2178154295918
 30
0.0
 11
121.58795407
 21
419.7729976064207
 31
0.0
  0
LINE
  5
2431
330
23F7
100
AcDbEntity
  8
0
 62
     0
100
AcDbLine
 10
122.2129807060894
 20
419.2893923265686
 30
0.0
 11
121.7481354560629
 21
419.7542375765952
 31
0.0
  0
LINE
  5
2432
330
23F7
100
AcDbEntity
  8
0
 62
     0
100
AcDbLine
 10
122.2828634991734
 20
419.3609308897219
 30
0.0
 11
121.9184875431728
 21
419.7253068457225
 31
0.0
  0
LINE
  5
2433
330
23F7
100
AcDbEntity
  8
0
 62
     0
100
AcDbLine
 10
122.352784625351
 20
419.4324311197816
 30
0.0
 11
122.1016256872558
 21
419.6835900578768
 31
0.0
  0
LINE
  5
2434
330
23F7
100
AcDbEntity
  8
0
 62
     0
100
AcDbLine
 10
122.4227440839262
 20
419.5038930174438
 30
0.0
 11
122.3017211541468
 21
419.6249159472231
 31
0.0
  0
ENDBLK
  5
2435
330
23F7
100
AcDbEntity
  8
0
100
AcDbBlockEnd
  0
BLOCK
  5
2437
330
2436
100
AcDbEntity
  8
0
100
AcDbBlockBegin
  2
*X2
 70
     1
 10
0.0
 20
0.0
 30
0.0
  3
*X2
  1

  0
LINE
  5
2438
330
2436
100
AcDbEntity
  8
0
 62
     0
100
AcDbLine
 10
237.1149821284446
 20
306.5087112477732
 30
0.0
 11
235.7012499561857
 21
307.9224434200321
 31
0.0
  0
LINE
  5
2439
330
2436
100
AcDbEntity
  8
0
 62
     0
100
AcDbLine
 10
237.0430922622805
 20
306.4391797576999
 30
0.0
 11
235.6326476448273
 21
307.8496243751532
 31
0.0
  0
LINE
  5
243A
330
2436
100
AcDbEntity
  8
0
 62
     0
100
AcDbLine
 10
236.9691068117699
 20
306.3717438519733
 30
0.0
 11
235.5643230515262
 21
307.776527612217
 31
0.0
  0
LINE
  5
243B
330
2436
100
AcDbEntity
  8
0
 62
     0
100
AcDbLine
 10
236.8930171273891
 20
306.3064121801167
 30
0.0
 11
235.4962762866209
 21
307.7031530208849
 31
0.0
  0
LINE
  5
243C
330
2436
100
AcDbEntity
  8
0
 62
     0
100
AcDbLine
 10
236.8148088980846
 20
306.2431990531838
 30
0.0
 11
235.4285074733664
 21
307.629500477902
 31
0.0
  0
LINE
  5
243D
330
2436
100
AcDbEntity
  8
0
 62
     0
100
AcDbLine
 10
236.7344619587965
 20
306.1821246362347
 30
0.0
 11
235.3610167479629
 21
307.5555698470682
 31
0.0
  0
LINE
  5
243E
330
2436
100
AcDbEntity
  8
0
 62
     0
100
AcDbLine
 10
236.6519500143175
 20
306.1232152244763
 30
0.0
 11
235.2938042595872
 21
307.4813609792067
 31
0.0
  0
LINE
  5
243F
330
2436
100
AcDbEntity
  8
0
 62
     0
100
AcDbLine
 10
236.5672402704869
 20
306.0665036120696
 30
0.0
 11
235.2268701704275
 21
307.4068737121291
 31
0.0
  0
LINE
  5
2440
330
2436
100
AcDbEntity
  8
0
 62
     0
100
AcDbLine
 10
236.4802929602998
 20
306.0120295660194
 30
0.0
 11
235.1602146557211
 21
307.3321078705982
 31
0.0
  0
LINE
  5
2441
330
2436
100
AcDbEntity
  8
0
 62
     0
100
AcDbLine
 10
236.3910607483151
 20
305.9598404217668
 30
0.0
 11
235.0938379037952
 21
307.2570632662868
 31
0.0
  0
LINE
  5
2442
330
2436
100
AcDbEntity
  8
0
 62
     0
100
AcDbLine
 10
236.2994879914603
 20
305.9099918223843
 30
0.0
 11
235.0277401161108
 21
307.1817396977339
 31
0.0
  0
LINE
  5
2443
330
2436
100
AcDbEntity
  8
0
 62
     0
100
AcDbLine
 10
236.2055098275252
 20
305.8625486300821
 30
0.0
 11
234.9619215073099
 21
307.1061369502975
 31
0.0
  0
LINE
  5
2444
330
2436
100
AcDbEntity
  8
0
 62
     0
100
AcDbLine
 10
236.1090510537047
 20
305.8175860476654
 30
0.0
 11
234.8963823052654
 21
307.0302547961046
 31
0.0
  0
LINE
  5
2445
330
2436
100
AcDbEntity
  8
0
 62
     0
100
AcDbLine
 10
236.0100247456304
 20
305.7751909995023
 30
0.0
 11
234.831122751135
 21
306.9540929939977
 31
0.0
  0
LINE
  5
2446
330
2436
100
AcDbEntity
  8
0
 62
     0
100
AcDbLine
 10
235.9083305511626
 20
305.7354638377328
 30
0.0
 11
234.7661430994172
 21
306.8776512894782
 31
0.0
  0
LINE
  5
2447
330
2436
100
AcDbEntity
  8
0
 62
     0
100
AcDbLine
 10
235.8038525709247
 20
305.6985204617334
 30
0.0
 11
234.7014436180119
 21
306.8009294146462
 31
0.0
  0
LINE
  5
2448
330
2436
100
AcDbEntity
  8
0
 62
     0
100
AcDbLine
 10
235.6964567063399
 20
305.6644949700808
 30
0.0
 11
234.637024588283
 21
306.7239270881378
 31
0.0
  0
LINE
  5
2449
330
2436
100
AcDbEntity
  8
0
 62
     0
100
AcDbLine
 10
235.5859873114031
 20
305.6335430087804
 30
0.0
 11
234.5728863051251
 21
306.6466440150585
 31
0.0
  0
LINE
  5
244A
330
2436
100
AcDbEntity
  8
0
 62
     0
100
AcDbLine
 10
235.4722629197413
 20
305.6058460442049
 30
0.0
 11
234.5090290770332
 21
306.5690798869129
 31
0.0
  0
LINE
  5
244B
330
2436
100
AcDbEntity
  8
0
 62
     0
100
AcDbLine
 10
235.3550707226031
 20
305.5816168851057
 30
0.0
 11
234.4454532261763
 21
306.4912343815326
 31
0.0
  0
LINE
  5
244C
330
2436
100
AcDbEntity
  8
0
 62
     0
100
AcDbLine
 10
235.2341593279183
 20
305.5611069235533
 30
0.0
 11
234.3821590884737
 21
306.4131071629978
 31
0.0
  0
LINE
  5
244D
330
2436
100
AcDbEntity
  8
0
 62
     0
100
AcDbLine
 10
235.1092291041954
 20
305.5446157910388
 30
0.0
 11
234.3191470136752
 21
306.334697881559
 31
0.0
  0
LINE
  5
244E
330
2436
100
AcDbEntity
  8
0
 62
     0
100
AcDbLine
 10
234.9799190505705
 20
305.5325044884265
 30
0.0
 11
234.256417365445
 21
306.256006173552
 31
0.0
  0
LINE
  5
244F
330
2436
100
AcDbEntity
  8
0
 62
     0
100
AcDbLine
 10
234.8457885347401
 20
305.5252136480195
 30
0.0
 11
234.1939705214485
 21
306.1770316613112
 31
0.0
  0
LINE
  5
2450
330
2436
100
AcDbEntity
  8
0
 62
     0
100
AcDbLine
 10
234.706291210694
 20
305.5232896158283
 30
0.0
 11
234.1318068734435
 21
306.0977739530787
 31
0.0
  0
LINE
  5
2451
330
2436
100
AcDbEntity
  8
0
 62
     0
100
AcDbLine
 10
234.5607365800977
 20
305.5274228901873
 30
0.0
 11
234.0699268273751
 21
306.0182326429099
 31
0.0
  0
LINE
  5
2452
330
2436
100
AcDbEntity
  8
0
 62
     0
100
AcDbLine
 10
234.4082311682633
 20
305.5385069457845
 30
0.0
 11
234.0083308034729
 21
305.9384073105748
 31
0.0
  0
LINE
  5
2453
330
2436
100
AcDbEntity
  8
0
 62
     0
100
AcDbLine
 10
234.247584258681
 20
305.5577324991294
 30
0.0
 11
233.947019236354
 21
305.8582975214565
 31
0.0
  0
LINE
  5
2454
330
2436
100
AcDbEntity
  8
0
 62
     0
100
AcDbLine
 10
234.0771478649028
 20
305.5867475366703
 30
0.0
 11
233.8859925751285
 21
305.7779028264446
 31
0.0
  0
LINE
  5
2455
330
2436
100
AcDbEntity
  8
0
 62
     0
100
AcDbLine
 10
233.8945240707012
 20
305.6279499746345
 30
0.0
 11
233.8252512835093
 21
305.6972227618264
 31
0.0
  0
LINE
  5
2456
330
2436
100
AcDbEntity
  8
0
 62
     0
100
AcDbLine
 10
237.184779513183
 20
306.580335219272
 30
0.0
 11
235.7701298881541
 21
307.9949848443009
 31
0.0
  0
LINE
  5
2457
330
2436
100
AcDbEntity
  8
0
 62
     0
100
AcDbLine
 10
237.2524820137873
 20
306.6540540749051
 30
0.0
 11
235.8392873561532
 21
308.0672487325392
 31
0.0
  0
LINE
  5
2458
330
2436
100
AcDbEntity
  8
0
 62
     0
100
AcDbLine
 10
237.3180816902042
 20
306.7298757547255
 30
0.0
 11
235.9087222884529
 21
308.1392351564768
 31
0.0
  0
LINE
  5
2459
330
2436
100
AcDbEntity
  8
0
 62
     0
100
AcDbLine
 10
237.3815649596531
 20
306.8078138415138
 30
0.0
 11
235.9784346261553
 21
308.2109441750116
 31
0.0
  0
LINE
  5
245A
330
2436
100
AcDbEntity
  8
0
 62
     0
100
AcDbLine
 10
237.4429124142857
 20
306.8878877431186
 30
0.0
 11
236.0484243231814
 21
308.2823758342229
 31
0.0
  0
LINE
  5
245B
330
2436
100
AcDbEntity
  8
0
 62
     0
100
AcDbLine
 10
237.5020985561085
 20
306.9701229575331
 30
0.0
 11
236.1186913462601
 21
308.3535301673815
 31
0.0
  0
LINE
  5
245C
330
2436
100
AcDbEntity
  8
0
 62
     0
100
AcDbLine
 10
237.5590914405607
 20
307.0545514293182
 30
0.0
 11
236.1892356749207
 21
308.4244071949582
 31
0.0
  0
LINE
  5
245D
330
2436
100
AcDbEntity
  8
0
 62
     0
100
AcDbLine
 10
237.6138522167984
 20
307.1412120093179
 30
0.0
 11
236.2600573014882
 21
308.4950069246281
 31
0.0
  0
LINE
  5
245E
330
2436
100
AcDbEntity
  8
0
 62
     0
100
AcDbLine
 10
237.6663345486554
 20
307.2301510336981
 30
0.0
 11
236.3311562310814
 21
308.5653293512721
 31
0.0
  0
LINE
  5
245F
330
2436
100
AcDbEntity
  8
0
 62
     0
100
AcDbLine
 10
237.7164838951249
 20
307.3214230434659
 30
0.0
 11
236.4025324816144
 21
308.6353744569764
 31
0.0
  0
LINE
  5
2460
330
2436
100
AcDbEntity
  8
0
 62
     0
100
AcDbLine
 10
237.76423662262
 20
307.4150916722081
 30
0.0
 11
236.4741860838003
 21
308.7051422110278
 31
0.0
  0
LINE
  5
2461
330
2436
100
AcDbEntity
  8
0
 62
     0
100
AcDbLine
 10
237.8095189126543
 20
307.5112307384111
 30
0.0
 11
236.5461170811588
 21
308.7746325699067
 31
0.0
  0
LINE
  5
2462
330
2436
100
AcDbEntity
  8
0
 62
     0
100
AcDbLine
 10
237.8522454171006
 20
307.6099255902022
 30
0.0
 11
236.6183255300254
 21
308.8438454772774
 31
0.0
  0
LINE
  5
2463
330
2436
100
AcDbEntity
  8
0
 62
     0
100
AcDbLine
 10
237.8923175976456
 20
307.7112747658945
 30
0.0
 11
236.6908114995655
 21
308.9127808639745
 31
0.0
  0
LINE
  5
2464
330
2436
100
AcDbEntity
  8
0
 62
     0
100
AcDbLine
 10
237.9296216646805
 20
307.8153920550969
 30
0.0
 11
236.7635750717895
 21
308.9814386479878
 31
0.0
  0
LINE
  5
2465
330
2436
100
AcDbEntity
  8
0
 62
     0
100
AcDbLine
 10
237.9640260009803
 20
307.9224090750344
 30
0.0
 11
236.8366163415724
 21
309.0498187344423
 31
0.0
  0
LINE
  5
2466
330
2436
100
AcDbEntity
  8
0
 62
     0
100
AcDbLine
 10
237.9953779130041
 20
308.0324785192478
 30
0.0
 11
236.9099354166751
 21
309.1179210155769
 31
0.0
  0
LINE
  5
2467
330
2436
100
AcDbEntity
  8
0
 62
     0
100
AcDbLine
 10
238.0234994910357
 20
308.1457782974536
 30
0.0
 11
236.9835324177699
 21
309.1857453707194
 31
0.0
  0
LINE
  5
2468
330
2436
100
AcDbEntity
  8
0
 62
     0
100
AcDbLine
 10
238.0481822682579
 20
308.2625168764686
 30
0.0
 11
237.0574074784682
 21
309.2532916662583
 31
0.0
  0
LINE
  5
2469
330
2436
100
AcDbEntity
  8
0
 62
     0
100
AcDbLine
 10
238.0691802310509
 20
308.3829402699131
 30
0.0
 11
237.1315607453517
 21
309.3205597556123
 31
0.0
  0
LINE
  5
246A
330
2436
100
AcDbEntity
  8
0
 62
     0
100
AcDbLine
 10
238.0862005191102
 20
308.507341338091
 30
0.0
 11
237.2059923780061
 21
309.3875494791951
 31
0.0
  0
LINE
  5
246B
330
2436
100
AcDbEntity
  8
0
 62
     0
100
AcDbLine
 10
238.0988908131552
 20
308.6360724002834
 30
0.0
 11
237.2807025490584
 21
309.4542606643801
 31
0.0
  0
LINE
  5
246C
330
2436
100
AcDbEntity
  8
0
 62
     0
100
AcDbLine
 10
238.1068218466647
 20
308.7695627230112
 30
0.0
 11
237.3556914442173
 21
309.5206931254586
 31
0.0
  0
LINE
  5
246D
330
2436
100
AcDbEntity
  8
0
 62
     0
100
AcDbLine
 10
238.1094625188447
 20
308.9083434070685
 30
0.0
 11
237.4309592623161
 21
309.5868466635971
 31
0.0
  0
LINE
  5
246E
330
2436
100
AcDbEntity
  8
0
 62
     0
100
AcDbLine
 10
238.1061433748904
 20
309.0530839072601
 30
0.0
 11
237.5065062153595
 21
309.6527210667909
 31
0.0
  0
LINE
  5
246F
330
2436
100
AcDbEntity
  8
0
 62
     0
100
AcDbLine
 10
238.0960010083887
 20
309.204647629999
 30
0.0
 11
237.5823325285729
 21
309.7183161098148
 31
0.0
  0
LINE
  5
2470
330
2436
100
AcDbEntity
  8
0
 62
     0
100
AcDbLine
 10
238.0778895359783
 20
309.3641804586468
 30
0.0
 11
237.6584384404553
 21
309.7836315541698
 31
0.0
  0
LINE
  5
2471
330
2436
100
AcDbEntity
  8
0
 62
     0
100
AcDbLine
 10
238.0502315294801
 20
309.5332598213823
 30
0.0
 11
237.7348242028354
 21
309.848667148027
 31
0.0
  0
LINE
  5
2472
330
2436
100
AcDbEntity
  8
0
 62
     0
100
AcDbLine
 10
238.010748285896
 20
309.7141644212037
 30
0.0
 11
237.8114900809305
 21
309.9134226261692
 31
0.0
  0
LINE
  5
2473
330
2436
100
AcDbEntity
  8
0
 62
     0
100
AcDbLine
 10
237.9559224888284
 20
309.9104115745086
 30
0.0
 11
237.8884363534095
 21
309.9778977099275
 31
0.0
  0
ENDBLK
  5
2474
330
2436
100
AcDbEntity
  8
0
100
AcDbBlockEnd
  0
BLOCK
  5
2643
330
2639
100
AcDbEntity
  8
0
100
AcDbBlockBegin
  2
*D3
 70
     1
 10
0.0
 20
0.0
 30
0.0
  3
*D3
  1

  0
LINE
  5
2C29
330
2639
100
AcDbEntity
  8
BEM
 62
     0
370
    -2
100
AcDbLine
 10
159.9922680529544
 20
262.6579287714993
 30
0.0
 11
159.9922680529544
 21
225.3406264453997
 31
0.0
  0
LINE
  5
2C2A
330
2639
100
AcDbEntity
  8
BEM
 62
     0
370
    -2
100
AcDbLine
 10
318.9922680529546
 20
262.6579287714994
 30
0.0
 11
318.9922680529546
 21
225.3406264453997
 31
0.0
  0
LINE
  5
2C2B
330
2639
100
AcDbEntity
  8
BEM
 62
     0
370
    -2
100
AcDbLine
 10
168.7422680529544
 20
227.8406264453997
 30
0.0
 11
310.2422680529546
 21
227.8406264453997
 31
0.0
  0
SOLID
  5
2C2C
330
2639
100
AcDbEntity
  8
BEM
 62
     0
100
AcDbTrace
 10
168.7422680529544
 20
229.2989597787331
 30
0.0
 11
168.7422680529544
 21
226.3822931120664
 31
0.0
 12
159.9922680529544
 22
227.8406264453997
 32
0.0
 13
159.9922680529544
 23
227.8406264453997
 33
0.0
  0
SOLID
  5
2C2D
330
2639
100
AcDbEntity
  8
BEM
 62
     0
100
AcDbTrace
 10
310.2422680529546
 20
229.2989597787331
 30
0.0
 11
310.2422680529546
 21
226.3822931120664
 31
0.0
 12
318.9922680529546
 22
227.8406264453997
 32
0.0
 13
318.9922680529546
 23
227.8406264453997
 33
0.0
  0
MTEXT
  5
2C2E
330
2639
100
AcDbEntity
  8
BEM
 62
     1
100
AcDbMText
 10
239.4922680529545
 20
235.9656264453997
 30
0.0
 40
8.75
 41
0.0
 71
     5
 72
     1
  1
\A1;%%c159
 73
     1
 44
1.0
  0
POINT
  5
2C2F
330
2639
100
AcDbEntity
  8
Defpoints
 62
     0
100
AcDbPoint
 10
159.9922680529544
 20
265.1579287714993
 30
0.0
  0
POINT
  5
2C30
330
2639
100
AcDbEntity
  8
Defpoints
 62
     0
100
AcDbPoint
 10
318.9922680529546
 20
265.1579287714994
 30
0.0
  0
POINT
  5
2C31
330
2639
100
AcDbEntity
  8
Defpoints
 62
     0
100
AcDbPoint
 10
318.9922680529546
 20
227.8406264453997
 30
0.0
  0
ENDBLK
  5
2644
330
2639
100
AcDbEntity
  8
0
100
AcDbBlockEnd
  0
BLOCK
  5
270C
330
2702
100
AcDbEntity
  8
0
100
AcDbBlockBegin
  2
*D4
 70
     1
 10
0.0
 20
0.0
 30
0.0
  3
*D4
  1

  0
LINE
  5
2CB3
330
2702
100
AcDbEntity
  8
BEM
 62
     0
370
    -2
100
AcDbLine
 10
448.9661455839628
 20
595.7875409025422
 30
0.0
 11
465.3526083022986
 21
596.6463190239143
 31
0.0
  0
LINE
  5
2CB4
330
2702
100
AcDbEntity
  8
BEM
 62
     0
370
    -2
100
AcDbLine
 10
460.4277200011674
 20
377.0876727912908
 30
0.0
 11
476.8141827194999
 21
377.9464509126627
 31
0.0
  0
LINE
  5
2CB5
330
2702
100
AcDbEntity
  8
BEM
 62
     0
370
    -2
100
AcDbLine
 10
463.3139740825378
 20
587.7774707042044
 30
0.0
 11
473.8596692654878
 21
386.5536194511579
 31
0.0
  0
SOLID
  5
2CB6
330
2702
100
AcDbEntity
  8
BEM
 62
     0
100
AcDbTrace
 10
464.7703088207215
 20
587.8537939737254
 30
0.0
 11
461.857639344354
 21
587.7011474346836
 31
0.0
 12
462.8560344654123
 22
596.5154791333069
 32
0.0
 13
462.8560344654123
 23
596.5154791333069
 33
0.0
  0
SOLID
  5
2CB7
330
2702
100
AcDbEntity
  8
BEM
 62
     0
100
AcDbTrace
 10
475.3160040036716
 20
386.6299427206788
 30
0.0
 11
472.403334527304
 21
386.4772961816369
 31
0.0
 12
474.3176088826134
 22
377.8156110220554
 32
0.0
 13
474.3176088826134
 23
377.8156110220554
 33
0.0
  0
MTEXT
  5
2CB8
330
2702
100
AcDbEntity
  8
BEM
 62
     1
100
AcDbMText
 10
476.7006866438936
 20
487.590774722155
 30
0.0
 40
8.75
 41
0.0
 71
     5
 72
     1
  1
\A1;%%c219
 11
0.0523359562429282
 21
-0.9986295347545746
 31
0.0
 73
     1
 44
1.0
  0
POINT
  5
2CB9
330
2702
100
AcDbEntity
  8
Defpoints
 62
     0
100
AcDbPoint
 10
446.4695717470763
 20
595.6567010119349
 30
0.0
  0
POINT
  5
2CBA
330
2702
100
AcDbEntity
  8
Defpoints
 62
     0
100
AcDbPoint
 10
457.9311461642809
 20
376.9568329006834
 30
0.0
  0
POINT
  5
2CBB
330
2702
100
AcDbEntity
  8
Defpoints
 62
     0
100
AcDbPoint
 10
474.3176088826134
 20
377.8156110220554
 30
0.0
  0
ENDBLK
  5
270D
330
2702
100
AcDbEntity
  8
0
100
AcDbBlockEnd
  0
BLOCK
  5
2944
330
293A
100
AcDbEntity
  8
0
100
AcDbBlockBegin
  2
*D5
 70
     1
 10
0.0
 20
0.0
 30
0.0
  3
*D5
  1

  0
LINE
  5
2C09
330
293A
100
AcDbEntity
  8
BEM
 62
     0
370
    -2
100
AcDbLine
 10
127.4922680529545
 20
320.1579287714994
 30
0.0
 11
106.0128999131308
 21
320.1579287714994
 31
0.0
  0
LINE
  5
2C0A
330
293A
100
AcDbEntity
  8
BEM
 62
     0
370
    -2
100
AcDbLine
 10
158.3576050943545
 20
255.1579287714993
 30
0.0
 11
106.0128999131308
 21
255.1579287714993
 31
0.0
  0
LINE
  5
2C0B
330
293A
100
AcDbEntity
  8
BEM
 62
     0
370
    -2
100
AcDbLine
 10
108.5128999131309
 20
311.4079287714994
 30
0.0
 11
108.5128999131308
 21
263.9079287714993
 31
0.0
  0
SOLID
  5
2C0C
330
293A
100
AcDbEntity
  8
BEM
 62
     0
100
AcDbTrace
 10
107.0545665797975
 20
311.4079287714994
 30
0.0
 11
109.9712332464642
 21
311.4079287714994
 31
0.0
 12
108.5128999131309
 22
320.1579287714994
 32
0.0
 13
108.5128999131309
 23
320.1579287714994
 33
0.0
  0
SOLID
  5
2C0D
330
293A
100
AcDbEntity
  8
BEM
 62
     0
100
AcDbTrace
 10
107.0545665797975
 20
263.9079287714993
 30
0.0
 11
109.9712332464642
 21
263.9079287714993
 31
0.0
 12
108.5128999131308
 22
255.1579287714993
 32
0.0
 13
108.5128999131308
 23
255.1579287714993
 33
0.0
  0
MTEXT
  5
2C0E
330
293A
100
AcDbEntity
  8
BEM
 62
     1
100
AcDbMText
 10
100.3878999131308
 20
287.6579287714993
 30
0.0
 40
8.75
 41
0.0
 71
     5
 72
     1
  1
\A1;65
 11
0.0000000000000001
 21
1.0
 31
0.0
 73
     1
 44
1.0
  0
POINT
  5
2C0F
330
293A
100
AcDbEntity
  8
Defpoints
 62
     0
100
AcDbPoint
 10
129.9922680529545
 20
320.1579287714993
 30
0.0
  0
POINT
  5
2C10
330
293A
100
AcDbEntity
  8
Defpoints
 62
     0
100
AcDbPoint
 10
160.8576050943545
 20
255.1579287714993
 30
0.0
  0
POINT
  5
2C11
330
293A
100
AcDbEntity
  8
Defpoints
 62
     0
100
AcDbPoint
 10
108.5128999131308
 20
255.1579287714993
 30
0.0
  0
ENDBLK
  5
2945
330
293A
100
AcDbEntity
  8
0
100
AcDbBlockEnd
  0
BLOCK
  5
2CC7
330
2CBD
100
AcDbEntity
  8
0
100
AcDbBlockBegin
  2
*D6
 70
     1
 10
0.0
 20
0.0
 30
0.0
  3
*D6
  1

  0
LINE
  5
2CBE
330
2CBD
100
AcDbEntity
  8
BEM
 62
     0
370
    -2
100
AcDbLine
 10
158.3576050943545
 20
255.1579287714993
 30
0.0
 11
84.03026312429888
 21
255.1579287714993
 31
0.0
  0
LINE
  5
2CBF
330
2CBD
100
AcDbEntity
  8
BEM
 62
     0
370
    -2
100
AcDbLine
 10
236.9922680529545
 20
475.1592082765617
 30
0.0
 11
84.03026312429892
 21
475.1592082765617
 31
0.0
  0
LINE
  5
2CC0
330
2CBD
100
AcDbEntity
  8
BEM
 62
     0
370
    -2
100
AcDbLine
 10
86.53026312429888
 20
263.9079287714993
 30
0.0
 11
86.53026312429892
 21
466.4092082765618
 31
0.0
  0
SOLID
  5
2CC1
330
2CBD
100
AcDbEntity
  8
BEM
 62
     0
100
AcDbTrace
 10
85.07192979096556
 20
263.9079287714993
 30
0.0
 11
87.9885964576322
 21
263.9079287714993
 31
0.0
 12
86.53026312429888
 22
255.1579287714993
 32
0.0
 13
86.53026312429888
 23
255.1579287714993
 33
0.0
  0
SOLID
  5
2CC2
330
2CBD
100
AcDbEntity
  8
BEM
 62
     0
100
AcDbTrace
 10
85.0719297909656
 20
466.4092082765618
 30
0.0
 11
87.98859645763226
 21
466.4092082765618
 31
0.0
 12
86.53026312429892
 22
475.1592082765617
 32
0.0
 13
86.53026312429892
 23
475.1592082765617
 33
0.0
  0
MTEXT
  5
2CC3
330
2CBD
100
AcDbEntity
  8
BEM
 62
     1
100
AcDbMText
 10
78.40526312429886
 20
365.1585685240306
 30
0.0
 40
8.75
 41
0.0
 71
     5
 72
     1
  1
\A1;220
 11
0.0000000000000001
 21
1.0
 31
0.0
 73
     1
 44
1.0
  0
POINT
  5
2CC4
330
2CBD
100
AcDbEntity
  8
Defpoints
 62
     0
100
AcDbPoint
 10
160.8576050943545
 20
255.1579287714993
 30
0.0
  0
POINT
  5
2CC5
330
2CBD
100
AcDbEntity
  8
Defpoints
 62
     0
100
AcDbPoint
 10
239.4922680529545
 20
475.1592082765617
 30
0.0
  0
POINT
  5
2CC6
330
2CBD
100
AcDbEntity
  8
Defpoints
 62
     0
100
AcDbPoint
 10
86.53026312429892
 20
475.1592082765617
 30
0.0
  0
ENDBLK
  5
2CC8
330
2CBD
100
AcDbEntity
  8
0
100
AcDbBlockEnd
  0
BLOCK
  5
2CD4
330
2CCA
100
AcDbEntity
  8
0
100
AcDbBlockBegin
  2
*D7
 70
     1
 10
0.0
 20
0.0
 30
0.0
  3
*D7
  1

  0
LINE
  5
2CF8
330
2CCA
100
AcDbEntity
  8
BEM
 62
     0
370
    -2
100
AcDbLine
 10
239.361428162347
 20
477.6557821134483
 30
0.0
 11
230.0975205520007
 21
654.4216694889509
 31
0.0
  0
LINE
  5
2CF9
330
2CCA
100
AcDbEntity
  8
BEM
 62
     0
370
    -2
100
AcDbLine
 10
446.3387318564691
 20
598.1532748488212
 30
0.0
 11
442.8056114547251
 21
665.569228168698
 31
0.0
  0
LINE
  5
2CFA
330
2CCA
100
AcDbEntity
  8
BEM
 62
     0
370
    -2
100
AcDbLine
 10
238.9663688717106
 20
652.3830352691902
 30
0.0
 11
434.1984429162299
 21
662.6147147146858
 31
0.0
  0
SOLID
  5
2CFB
330
2CCA
100
AcDbEntity
  8
BEM
 62
     0
100
AcDbTrace
 10
238.8900456021896
 20
653.8393700073741
 30
0.0
 11
239.0426921412315
 21
650.9267005310065
 31
0.0
 12
230.228360442608
 22
651.9250956520644
 32
0.0
 13
230.228360442608
 23
651.9250956520644
 33
0.0
  0
SOLID
  5
2CFC
330
2CCA
100
AcDbEntity
  8
BEM
 62
     0
100
AcDbTrace
 10
434.1221196467089
 20
664.0710494528697
 30
0.0
 11
434.2747661857509
 21
661.1583799765021
 31
0.0
 12
442.9364513453324
 22
663.0726543318115
 32
0.0
 13
442.9364513453324
 23
663.0726543318115
 33
0.0
  0
MTEXT
  5
2CFD
330
2CCA
100
AcDbEntity
  8
BEM
 62
     1
100
AcDbMText
 10
336.1571762494963
 20
665.6127399618189
 30
0.0
 40
8.75
 41
0.0
 71
     5
 72
     1
  1
\A1;213
 11
0.9986295347545739
 21
0.0523359562429444
 31
0.0
 73
     1
 44
1.0
  0
POINT
  5
2CFE
330
2CCA
100
AcDbEntity
  8
Defpoints
 62
     0
100
AcDbPoint
 10
239.4922680529544
 20
475.1592082765618
 30
0.0
  0
POINT
  5
2CFF
330
2CCA
100
AcDbEntity
  8
Defpoints
 62
     0
100
AcDbPoint
 10
446.4695717470764
 20
595.6567010119347
 30
0.0
  0
POINT
  5
2D00
330
2CCA
100
AcDbEntity
  8
Defpoints
 62
     0
100
AcDbPoint
 10
442.9364513453324
 20
663.0726543318115
 30
0.0
  0
ENDBLK
  5
2CD5
330
2CCA
100
AcDbEntity
  8
0
100
AcDbBlockEnd
  0
BLOCK
  5
2CE2
330
2CD7
100
AcDbEntity
  8
0
100
AcDbBlockBegin
  2
*D8
 70
     1
 10
0.0
 20
0.0
 30
0.0
  3
*D8
  1

  0
LINE
  5
2CEE
330
2CD7
100
AcDbEntity
  8
BEM
 62
     0
370
    -2
100
AcDbLine
 10
239.4922680529548
 20
477.6592082765616
 30
0.0
 11
239.4922680529549
 21
633.5142366734827
 31
0.0
  0
ARC
  5
2CEF
330
2CD7
100
AcDbEntity
  8
BEM
 62
     0
370
    -2
100
AcDbCircle
 10
239.4922680529548
 20
475.1592082765617
 30
0.0
 40
155.855028396921
100
AcDbArc
 50
6.217117470474208
 51
86.78288252952576
  0
SOLID
  5
2CF0
330
2CD7
100
AcDbEntity
  8
BEM
 62
     0
100
AcDbTrace
 10
395.8842774992407
 20
492.1549143922054
 30
0.0
 11
392.9770407444069
 21
491.920566582769
 31
0.0
 12
395.1337025501329
 22
483.3160302229857
 32
0.0
 13
395.1337025501329
 23
483.3160302229857
 33
0.0
  0
SOLID
  5
2CF1
330
2CD7
100
AcDbEntity
  8
BEM
 62
     0
100
AcDbTrace
 10
248.1978831525994
 20
629.310857136224
 30
0.0
 11
248.2797567809187
 21
632.2263744408254
 31
0.0
 12
239.4922680529549
 22
631.0142366734827
 32
0.0
 13
239.4922680529549
 23
631.0142366734827
 33
0.0
  0
MTEXT
  5
2CF2
330
2CD7
100
AcDbEntity
  8
BEM
 62
     1
100
AcDbMText
 10
325.8724409475695
 20
614.5432656280088
 30
0.0
 40
8.75
 41
0.0
 71
     5
 72
     1
  1
\A1;87°
 11
0.8500063008530622
 21
-0.5267725206482334
 31
0.0
 73
     1
 44
1.0
  0
POINT
  5
2CF3
330
2CD7
100
AcDbEntity
  8
Defpoints
 62
     0
100
AcDbPoint
 10
371.6648281613692
 20
557.7497902517036
 30
0.0
  0
POINT
  5
2CF4
330
2CD7
100
AcDbEntity
  8
Defpoints
 62
     0
100
AcDbPoint
 10
239.4922680529545
 20
475.1592082765617
 30
0.0
  0
POINT
  5
2CF5
330
2CD7
100
AcDbEntity
  8
Defpoints
 62
     0
100
AcDbPoint
 10
239.4922680529544
 20
475.1592082765618
 30
0.0
  0
POINT
  5
2CF6
330
2CD7
100
AcDbEntity
  8
Defpoints
 62
     0
100
AcDbPoint
 10
457.1935066294513
 20
486.5684467375237
 30
0.0
  0
POINT
  5
2CF7
330
2CD7
100
AcDbEntity
  8
Defpoints
 62
     0
100
AcDbPoint
 10
239.4922680529546
 20
250.1579287714994
 30
0.0
  0
ENDBLK
  5
2CE3
330
2CD7
100
AcDbEntity
  8
0
100
AcDbBlockEnd
  0
ENDSEC
  0
SECTION
  2
ENTITIES
  0
LINE
  5
57
330
1E
100
AcDbEntity
  8
STEMPEL
100
AcDbLine
 10
512.5
 20
137.5
 30
0.0
 11
49.99999999999996
 21
137.5
 31
0.0
  0
LINE
  5
58
330
1E
100
AcDbEntity
  8
STEMPEL
100
AcDbLine
 10
182.5000000000001
 20
137.4999999999999
 30
0.0
 11
182.5
 21
12.49999999999996
 31
0.0
  0
LINE
  5
59
330
1E
100
AcDbEntity
  8
STEMPEL
100
AcDbLine
 10
287.5
 20
137.5
 30
0.0
 11
287.5
 21
12.49999999999996
 31
0.0
  0
LINE
  5
5A
330
1E
100
AcDbEntity
  8
STEMPEL
100
AcDbLine
 10
415.0
 20
137.4999999999997
 30
0.0
 11
415.0
 21
50.0
 31
0.0
  0
LINE
  5
5B
330
1E
100
AcDbEntity
  8
STEMPEL
100
AcDbLine
 10
182.4999999999998
 20
37.49999999999996
 30
0.0
 11
49.99999999999996
 21
37.49999999999996
 31
0.0
  0
LINE
  5
5C
330
1E
100
AcDbEntity
  8
STEMPEL
100
AcDbLine
 10
512.5
 20
50.0
 30
0.0
 11
182.5000000000001
 21
49.99999999999996
 31
0.0
  0
LINE
  5
5D
330
1E
100
AcDbEntity
  8
STEMPEL
100
AcDbLine
 10
512.5
 20
100.0
 30
0.0
 11
182.5000000000001
 21
99.99999999999992
 31
0.0
  0
LINE
  5
5E
330
1E
100
AcDbEntity
  8
VOLL
100
AcDbLine
 10
67.50000000000011
 20
137.5
 30
0.0
 11
67.49999999999997
 21
12.49999999999996
 31
0.0
  0
LINE
  5
5F
330
1E
100
AcDbEntity
  8
VOLL
100
AcDbLine
 10
130.0000000000001
 20
137.4999999999999
 30
0.0
 11
130.0
 21
12.49999999999996
 31
0.0
  0
LINE
  5
60
330
1E
100
AcDbEntity
  8
VOLL
100
AcDbLine
 10
155.0000000000001
 20
137.4999999999999
 30
0.0
 11
155.0
 21
12.49999999999996
 31
0.0
  0
LINE
  5
61
330
1E
100
AcDbEntity
  8
VOLL
100
AcDbLine
 10
205.0000000000002
 20
99.99999999999992
 30
0.0
 11
205.0000000000002
 21
49.99999999999996
 31
0.0
  0
LINE
  5
62
330
1E
100
AcDbEntity
  8
VOLL
100
AcDbLine
 10
237.5000000000001
 20
137.4999999999998
 30
0.0
 11
237.5
 21
49.99999999999996
 31
0.0
  0
LINE
  5
63
330
1E
100
AcDbEntity
  8
HILF
100
AcDbLine
 10
50.0000000000001
 20
125.0
 30
0.0
 11
182.5000000000001
 21
125.0
 31
0.0
  0
LINE
  5
64
330
1E
100
AcDbEntity
  8
HILF
100
AcDbLine
 10
50.0000000000001
 20
112.5
 30
0.0
 11
182.5000000000001
 21
112.5
 31
0.0
  0
LINE
  5
65
330
1E
100
AcDbEntity
  8
HILF
100
AcDbLine
 10
50.0000000000001
 20
99.99999999999992
 30
0.0
 11
182.5000000000001
 21
99.99999999999992
 31
0.0
  0
LINE
  5
66
330
1E
100
AcDbEntity
  8
HILF
100
AcDbLine
 10
50.0000000000001
 20
87.49999999999992
 30
0.0
 11
182.5000000000001
 21
87.49999999999992
 31
0.0
  0
LINE
  5
67
330
1E
100
AcDbEntity
  8
HILF
100
AcDbLine
 10
50.0000000000001
 20
74.99999999999997
 30
0.0
 11
182.5000000000001
 21
74.99999999999997
 31
0.0
  0
LINE
  5
68
330
1E
100
AcDbEntity
  8
HILF
100
AcDbLine
 10
50.0000000000001
 20
62.49999999999996
 30
0.0
 11
182.5000000000001
 21
62.49999999999996
 31
0.0
  0
LINE
  5
69
330
1E
100
AcDbEntity
  8
HILF
100
AcDbLine
 10
50.0000000000001
 20
49.99999999999996
 30
0.0
 11
182.5000000000001
 21
49.99999999999996
 31
0.0
  0
LINE
  5
6A
330
1E
100
AcDbEntity
  8
HILF
100
AcDbLine
 10
182.5000000000001
 20
87.49999999999992
 30
0.0
 11
287.5
 21
87.49999999999992
 31
0.0
  0
LINE
  5
6B
330
1E
100
AcDbEntity
  8
HILF
100
AcDbLine
 10
182.5000000000001
 20
74.99999999999997
 30
0.0
 11
287.5
 21
74.99999999999997
 31
0.0
  0
LINE
  5
6C
330
1E
100
AcDbEntity
  8
HILF
100
AcDbLine
 10
182.5000000000001
 20
62.49999999999996
 30
0.0
 11
287.5
 21
62.49999999999996
 31
0.0
  0
LINE
  5
6D
330
1E
100
AcDbEntity
  8
HILF
100
AcDbLine
 10
293.4671001371185
 20
105.0469780945517
 30
0.0
 11
406.0442395695388
 21
105.0469780945517
 31
0.0
  0
LINE
  5
6E
330
1E
100
AcDbEntity
  8
HILF
100
AcDbLine
 10
293.4671001371185
 20
87.49999999999992
 30
0.0
 11
406.0442395695387
 21
87.49999999999992
 31
0.0
  0
LINE
  5
6F
330
1E
100
AcDbEntity
  8
HILF
100
AcDbLine
 10
293.4671001371185
 20
74.99999999999997
 30
0.0
 11
406.0442395695387
 21
74.99999999999997
 31
0.0
  0
LINE
  5
70
330
1E
100
AcDbEntity
  8
HILF
100
AcDbLine
 10
293.4671001371185
 20
62.49999999999996
 30
0.0
 11
406.0442395695387
 21
62.49999999999996
 31
0.0
  0
LINE
  5
71
330
1E
100
AcDbEntity
  8
VOLL
100
AcDbLine
 10
415.0
 20
75.0
 30
0.0
 11
512.5
 21
75.0
 31
0.0
  0
LINE
  5
72
330
1E
100
AcDbEntity
  8
HILF
100
AcDbLine
 10
420.9048270371241
 20
104.7247954619478
 30
0.0
 11
506.073604915841
 21
104.7247954619478
 31
0.0
  0
LINE
  5
73
330
1E
100
AcDbEntity
  8
HILF
100
AcDbLine
 10
291.8637124112356
 20
18.61747822535392
 30
0.0
 11
506.073604915841
 21
18.61747822535392
 31
0.0
  0
TEXT
  5
74
330
1E
100
AcDbEntity
  8
TEXT
100
AcDbText
 10
84.74387371862629
 20
23.34227368730165
 30
0.0
 40
5.0
  1
Änderung
 41
0.8
  7
GREEKS
 72
     1
 11
98.17244514719773
 21
23.34227368730165
 31
0.0
100
AcDbText
  0
TEXT
  5
75
330
1E
100
AcDbEntity
  8
TEXT
100
AcDbText
 10
191.8954465187971
 20
128.0776118858861
 30
0.0
 40
6.25
  1
Maßstab
 41
0.8
  7
GREEKS
100
AcDbText
  0
TEXT
  5
76
330
1E
100
AcDbEntity
  8
TEXT
100
AcDbText
 10
242.8573693417564
 20
128.0230210543524
 30
0.0
 40
6.25
  1
Zul. Abw.
 41
0.8
  7
GREEKS
100
AcDbText
  0
TEXT
  5
77
330
1E
100
AcDbEntity
  8
TEXT
100
AcDbText
 10
293.5974254761262
 20
128.1861660014724
 30
0.0
 40
6.25
  1
Benennung
 41
0.8
  7
GREEKS
100
AcDbText
  0
TEXT
  5
78
330
1E
100
AcDbEntity
  8
TEXT
100
AcDbText
 10
420.2234436970425
 20
127.891504317142
 30
0.0
 40
6.25
  1
Zeichnungs Nr.
 41
0.8
  7
GREEKS
100
AcDbText
  0
TEXT
  5
79
330
1E
100
AcDbEntity
  8
TEXT
100
AcDbText
 10
293.42779798892
 20
38.55700712741321
 30
0.0
 40
6.25
  1
Bauvorhaben
 41
0.8
  7
GREEKS
100
AcDbText
  0
TEXT
  5
7A
330
1E
100
AcDbEntity
  8
TEXT
100
AcDbText
 10
420.9048270371241
 20
91.47647796374961
 30
0.0
 40
6.25
  1
Ersatz für:
 41
0.8
  7
GREEKS
100
AcDbText
  0
TEXT
  5
7B
330
1E
100
AcDbEntity
  8
TEXT
100
AcDbText
 10
60.33301383807195
 20
17.06832307533989
 30
0.0
 40
5.0
  1
Index
 50
90.0
 41
0.8
  7
GREEKS
100
AcDbText
  0
TEXT
  5
7C
330
1E
100
AcDbEntity
  8
TEXT
100
AcDbText
 10
138.3732649044237
 20
23.33945336674763
 30
0.0
 40
5.0
  1
Tag
 41
0.8
  7
GREEKS
 72
     1
 11
143.0399315710903
 21
23.33945336674763
 31
0.0
100
AcDbText
  0
TEXT
  5
7D
330
1E
100
AcDbEntity
  8
TEXT
100
AcDbText
 10
161.2653430483241
 20
23.2415527120801
 30
0.0
 40
5.0
  1
Name
 41
0.8
  7
GREEKS
 72
     1
 11
169.170104953086
 21
23.2415527120801
 31
0.0
100
AcDbText
  0
TEXT
  5
7E
330
1E
100
AcDbEntity
  8
TEXT
100
AcDbText
 10
215.4139591442064
 20
91.64850626537408
 30
0.0
 40
5.0
  1
Tag
 41
0.8
  7
GREEKS
100
AcDbText
  0
TEXT
  5
7F
330
1E
100
AcDbEntity
  8
TEXT
100
AcDbText
 10
253.0783230282869
 20
91.63701364894031
 30
0.0
 40
5.0
  1
Name
 41
0.8
  7
GREEKS
100
AcDbText
  0
TEXT
  5
80
330
1E
100
AcDbEntity
  8
TEXT
100
AcDbText
 10
184.4795158959519
 20
79.53737962022455
 30
0.0
 40
5.0
  1
Gez.
 41
0.8
  7
GREEKS
100
AcDbText
  0
TEXT
  5
81
330
1E
100
AcDbEntity
  8
TEXT
100
AcDbText
 10
184.439385821459
 20
67.11157864285471
 30
0.0
 40
5.0
  1
Gepr.
 41
0.8
  7
GREEKS
100
AcDbText
  0
TEXT
  5
82
330
1E
100
AcDbEntity
  8
TEXT
100
AcDbText
 10
184.5008471734129
 20
54.41182987062259
 30
0.0
 40
5.0
  1
Norm.
 41
0.8
  7
GREEKS
100
AcDbText
  0
LINE
  5
83
330
1E
100
AcDbEntity
  8
STEMPEL
100
AcDbLine
 10
62.49999999999985
 20
12.5
 30
0.0
 11
512.5
 21
12.5
 31
0.0
  0
TEXT
  5
84
330
1E
100
AcDbEntity
  8
TEXT
100
AcDbText
 10
421.5501076871257
 20
65.09270222348252
 30
0.0
 40
6.25
  1
ersetzt durch:
 41
0.8
  7
GREEKS
100
AcDbText
  0
LINE
  5
85
330
1E
100
AcDbEntity
  8
STEMPEL
100
AcDbLine
 10
512.5
 20
12.5
 30
0.0
 11
49.99999999999985
 21
12.5
 31
0.0
  0
LINE
  5
86
330
1E
100
AcDbEntity
  8
STEMPEL
100
AcDbLine
 10
512.5
 20
12.5
 30
0.0
 11
512.5
 21
730.0
 31
0.0
  0
LINE
  5
87
330
1E
100
AcDbEntity
  8
STEMPEL
100
AcDbLine
 10
50.0
 20
12.5
 30
0.0
 11
49.99999999999985
 21
730.0
 31
0.0
  0
LINE
  5
88
330
1E
100
AcDbEntity
  8
STEMPEL
100
AcDbLine
 10
512.5
 20
730.0
 30
0.0
 11
49.99999999999985
 21
730.0
 31
0.0
  0
LINE
  5
89
330
1E
100
AcDbEntity
  8
HILF
100
AcDbLine
 10
0.0
 20
0.0
 30
0.0
 11
-0.0000000000001421
 21
742.4999999999999
 31
0.0
  0
LINE
  5
8A
330
1E
100
AcDbEntity
  8
HILF
100
AcDbLine
 10
524.9999999999999
 20
742.5000000000002
 30
0.0
 11
0.0
 21
742.4999999999999
 31
0.0
  0
LINE
  5
8B
330
1E
100
AcDbEntity
  8
HILF
100
AcDbLine
 10
525.0
 20
0.0
 30
0.0
 11
0.0
 21
0.0
 31
0.0
  0
LINE
  5
8C
330
1E
100
AcDbEntity
  8
HILF
100
AcDbLine
 10
38.8595891964232
 20
371.2500000000001
 30
0.0
 11
0.0000000000001421
 21
371.2500000000001
 31
0.0
  0
LINE
  5
8E
330
1E
100
AcDbEntity
  8
HILF
100
AcDbLine
 10
525.0
 20
-0.0000000000001421
 30
0.0
 11
524.9999999999999
 21
742.4999999999999
 31
0.0
  0
TEXT
  5
8F
330
1E
100
AcDbEntity
  8
VOLL
100
AcDbText
 10
78.07675471698113
 20
31.02594776470585
 30
0.0
 40
1.8
  1

  7
GREEKS
100
AcDbText
  0
TEXT
  5
90
330
1E
100
AcDbEntity
  8
TEXT
100
AcDbText
 10
52.31887438722093
 20
139.5899999999999
 30
0.0
 40
6.25
  1
Erstellt mit AUTOCAD 2004
 41
0.8
  7
GREEKS
100
AcDbText
  0
TEXT
  5
91
330
1E
100
AcDbEntity
  8
TEXT
100
AcDbText
 10
255.5270060726571
 20
78.86204899654387
 30
0.0
 40
5.0
  1
Koeh
 41
0.8
  7
GREEKS
 72
     1
 11
262.0984346440857
 21
78.86204899654387
 31
0.0
100
AcDbText
  0
TEXT
  5
92
330
1E
100
AcDbEntity
  8
TEXT
 62
     1
100
AcDbText
 10
434.1371925855101
 20
110.1862678614245
 30
0.0
 40
8.75
  1
58030150W
 41
0.8
  7
GREEKS
 72
     1
 11
463.4705259188434
 21
110.1862678614245
 31
0.0
100
AcDbText
  0
TEXT
  5
93
330
1E
100
AcDbEntity
  8
TEXT
 62
     1
100
AcDbText
 10
200.6257883102358
 20
110.1862678614245
 30
0.0
 40
8.75
  1
1:2.5
 41
0.8
  7
GREEKS
100
AcDbText
  0
TEXT
  5
95
330
1E
100
AcDbEntity
  8
TEXT
 62
     1
100
AcDbText
 10
296.1169663821753
 20
109.2718598656722
 30
0.0
 40
8.75
  1
Verbundrohr DN150
 41
0.8
  7
GREEKS
100
AcDbText
  0
TEXT
  5
98
330
1E
100
AcDbEntity
  8
TEXT
100
AcDbText
 10
293.9120488906644
 20
64.55014928802699
 30
0.0
 40
6.25
  1
EDV-Art.Nr. 58030.150X
 41
0.8
  7
GREEKS
100
AcDbText
  0
TEXT
  5
99
330
1E
100
AcDbEntity
  8
TEXT
100
AcDbText
 10
293.7296876972284
 20
53.28717691278291
 30
0.0
 40
5.0
  1
58030150W.DWG
 41
0.8
  7
GREEKS
100
AcDbText
  0
TEXT
  5
9A
330
1E
100
AcDbEntity
  8
TEXT
100
AcDbText
 10
240.782665260105
 20
113.4545480127878
 30
0.0
 40
5.0
  1
DIN EN1123-2
 41
0.8
  7
GREEKS
 72
     1
 11
262.0207604982003
 21
113.4545480127878
 31
0.0
100
AcDbText
  0
INSERT
  5
9B
330
1E
100
AcDbEntity
  8
STEMPEL
100
AcDbBlockReference
  2
LOGO
 10
188.7444356822243
 20
56.27631595560402
 30
0.0
 41
2.5
 42
2.5
 43
2.5
  0
TEXT
  5
210
330
1E
100
AcDbEntity
  8
TEXT
 62
     1
100
AcDbText
 10
340.0978051938011
 20
262.5266566454992
 30
0.0
 40
8.75
  1
Rohrende leicht eingezogen
 41
0.8
  7
GREEKS
100
AcDbText
  0
TEXT
  5
2C0
330
1E
100
AcDbEntity
  8
BEM
100
AcDbText
 10
521.6278654821457
 20
12.70987634998576
 30
0.0
 40
5.0
  1
Diese Zeichnung ist urheberrechtlich geschützt und bleibt unser Eigentum. Sie darf weder ganz noch teilweise verfielfältigt und nicht an Dritte weitergegeben werden.
 50
90.0
 41
0.8
  7
GREEKS
100
AcDbText
  0
TEXT
  5
77A
330
1E
100
AcDbEntity
  8
TEXT
100
AcDbText
 10
293.9120488906644
 20
89.55014928802695
 30
0.0
 40
6.25
  1
Bogen 87°
 41
0.8
  7
GREEKS
100
AcDbText
  0
TEXT
  5
78C
330
1E
100
AcDbEntity
  8
TEXT
 62
     1
100
AcDbText
 10
303.429998258723
 20
162.1777724661328
 30
0.0
 40
8.75
  1
und innenbeschichtet
 41
0.8
  7
GREEKS
100
AcDbText
  0
TEXT
  5
78D
330
1E
100
AcDbEntity
  8
TEXT
 62
     1
100
AcDbText
 10
238.91803933723
 20
146.4342282344052
 30
0.0
 40
8.75
  1
Dämmung: 2 K-PU-Schaum
 41
0.8
  7
GREEKS
100
AcDbText
  0
TEXT
  5
78E
330
1E
100
AcDbEntity
  8
TEXT
 62
     1
100
AcDbText
 10
243.8618371637059
 20
176.264089765165
 30
0.0
 40
8.75
  1
Innenrohr: E195 EN10305 feuerverzinkt
 41
0.8
  7
GREEKS
100
AcDbText
  0
TEXT
  5
78F
330
1E
100
AcDbEntity
  8
TEXT
 62
     1
100
AcDbText
 10
239.1465654501259
 20
190.4554248106087
 30
0.0
 40
8.75
  1
Außenrohr: P235 TR1 EN10217-1 feuerverzinkt
 41
0.8
  7
GREEKS
100
AcDbText
  0
TEXT
  5
2534
330
1E
100
AcDbEntity
  8
VOLL
100
AcDbText
 10
410.8395079276706
 20
492.4127775781288
 30
0.0
 40
8.75
  1
DN150
 50
3.000000000000545
 41
0.8
  7
GREEKS
100
AcDbText
  0
ARC
  5
2539
102
{ACAD_REACTORS
330
2A24
102
}
330
1E
100
AcDbEntity
  8
STEMPEL
100
AcDbCircle
 10
344.4922680529545
 20
375.5179287714994
 30
0.0
 40
25.5
100
AcDbArc
 50
92.9999999999991
 51
180.0
  0
ARC
  5
253A
102
{ACAD_REACTORS
330
2A24
102
}
330
1E
100
AcDbEntity
  8
STEMPEL
100
AcDbCircle
 10
344.4922680529545
 20
375.5179287714994
 30
0.0
 40
184.5
100
AcDbArc
 50
92.9999999999991
 51
180.0
  0
LINE
  5
253B
330
1E
100
AcDbEntity
  8
MITTEL
100
AcDbLine
 10
239.4922680529545
 20
475.1592082765617
 30
0.0
 11
239.4922680529545
 21
250.1579287714994
 31
0.0
  0
ARC
  5
253C
330
1E
100
AcDbEntity
  8
MITTEL
100
AcDbCircle
 10
344.4922680529545
 20
375.5179287714994
 30
0.0
 40
105.0
100
AcDbArc
 50
92.9999999999991
 51
180.0
  0
LINE
  5
2543
330
1E
100
AcDbEntity
  8
STEMPEL
100
AcDbLine
 10
325.9952215921412
 20
393.0709704516901
 30
0.0
 11
210.6606966011874
 21
502.5193479869969
 31
0.0
  0
ARC
  5
2544
102
{ACAD_REACTORS
330
2A24
102
}
330
1E
100
AcDbEntity
  8
SCHRAFF
100
AcDbCircle
 10
211.556596131333
 20
501.6691710775523
 30
0.0
 40
3.235085723934897
100
AcDbArc
 50
68.47725987481068
 51
204.5227401251892
  0
INSERT
  5
2545
330
1E
100
AcDbEntity
  8
SCHRAFF
100
AcDbBlockReference
  2
*X1
 10
90.26474726750121
 20
85.11767953942893
 30
0.0
1001
ACAD
1000
HATCH
1002
{
1070
    16
1000
_U,I
1040
0.1
1040
2.356194490192344
1070
     0
1002
}
  0
INSERT
  5
254B
330
1E
100
AcDbEntity
  8
SCHRAFF
100
AcDbBlockReference
  2
*X2
 10
90.26474726750121
 20
85.11767953942893
 30
0.0
1001
ACAD
1000
HATCH
1002
{
1070
    16
1000
_U,I
1040
0.1
1040
2.356194490192344
1070
     0
1002
}
  0
ARC
  5
254C
102
{ACAD_REACTORS
330
2A24
102
}
330
1E
100
AcDbEntity
  8
SCHRAFF
100
AcDbCircle
 10
324.9941820441345
 20
394.0209215126288
 30
0.0
 40
3.380031591976047
100
AcDbArc
 50
253.9310739394179
 51
19.06892606058272
  0
ARC
  5
25DA
330
1E
100
AcDbEntity
  8
STEMPEL
100
AcDbCircle
 10
344.4922680529545
 20
375.5179287714994
 30
0.0
 40
182.0
100
AcDbArc
 50
92.9999999999991
 51
180.0
  0
ARC
  5
25DB
330
1E
100
AcDbEntity
  8
STEMPEL
100
AcDbCircle
 10
344.4922680529545
 20
375.5179287714994
 30
0.0
 40
28.0
100
AcDbArc
 50
92.9999999999991
 51
180.0
  0
LINE
  5
2613
102
{ACAD_REACTORS
330
2A24
102
}
330
1E
100
AcDbEntity
  8
STEMPEL
100
AcDbLine
 10
346.0922680529545
 20
334.3079287714993
 30
0.0
 11
344.2422680529544
 21
336.1579287714994
 31
0.0
  0
LINE
  5
2615
330
1E
100
AcDbEntity
  8
STEMPEL
100
AcDbLine
 10
318.9922680529543
 20
327.1579287714994
 30
0.0
 11
326.2922680529545
 21
327.1579287714994
 31
0.0
  0
LINE
  5
2616
330
1E
100
AcDbEntity
  8
STEMPEL
  6
Continuous
100
AcDbLine
 10
348.9922680529545
 20
320.1579287714995
 30
0.0
 11
346.0922680529545
 21
320.1579287714994
 31
0.0
  0
LINE
  5
2617
102
{ACAD_REACTORS
330
2A24
102
}
330
1E
100
AcDbEntity
  8
STEMPEL
100
AcDbLine
 10
318.9922680529543
 20
336.1579287714994
 30
0.0
 11
344.2422680529546
 21
336.1579287714994
 31
0.0
  0
LINE
  5
2618
330
1E
100
AcDbEntity
  8
STEMPEL
100
AcDbLine
 10
318.9827547981846
 20
264.9400394146302
 30
0.0
 11
318.1269310115545
 21
255.1579287714994
 31
0.0
  0
LINE
  5
2619
330
1E
100
AcDbEntity
  8
STEMPEL
100
AcDbLine
 10
316.4922680529553
 20
265.1579287714993
 30
0.0
 11
315.617381417696
 21
255.1579287714994
 31
0.0
  0
LINE
  5
261A
330
1E
100
AcDbEntity
  8
STEMPEL
100
AcDbLine
 10
152.6922680529544
 20
327.1579287714994
 30
0.0
 11
159.9922680529546
 21
327.1579287714994
 31
0.0
  0
LINE
  5
261C
102
{ACAD_REACTORS
330
2A24
102
}
330
1E
100
AcDbEntity
  8
STEMPEL
100
AcDbLine
 10
132.8922680529545
 20
334.3079287714993
 30
0.0
 11
134.7422680529544
 21
336.1579287714994
 31
0.0
  0
LINE
  5
261D
330
1E
100
AcDbEntity
  8
STEMPEL
  6
Continuous
100
AcDbLine
 10
132.8922680529545
 20
320.1579287714994
 30
0.0
 11
129.9922680529545
 21
320.1579287714993
 31
0.0
  0
LINE
  5
261E
102
{ACAD_REACTORS
330
2A24
102
}
330
1E
100
AcDbEntity
  8
STEMPEL
100
AcDbLine
 10
134.7422680529544
 20
336.1579287714994
 30
0.0
 11
159.9922680529547
 21
336.1579287714994
 31
0.0
  0
LINE
  5
261F
330
1E
100
AcDbEntity
  8
STEMPEL
100
AcDbLine
 10
162.4922680529537
 20
265.1579287714993
 30
0.0
 11
163.3671546882131
 21
255.1579287714993
 31
0.0
  0
LINE
  5
2620
330
1E
100
AcDbEntity
  8
STEMPEL
100
AcDbLine
 10
160.0017813077243
 20
264.9400394146302
 30
0.0
 11
160.8576050943545
 21
255.1579287714993
 31
0.0
  0
LINE
  5
2622
330
1E
100
AcDbEntity
  8
STEMPEL
  6
Continuous
100
AcDbLine
 10
318.1269310115543
 20
255.1579287714994
 30
0.0
 11
160.8576050943545
 21
255.1579287714993
 31
0.0
  0
LINE
  5
2623
330
1E
100
AcDbEntity
  8
HILF
  6
Continuous
100
AcDbLine
 10
313.9827184590969
 20
265.1579287714994
 30
0.0
 11
165.0018176468121
 21
265.1579287714993
 31
0.0
  0
DIMENSION
  5
2624
330
1E
100
AcDbEntity
  8
BEM
100
AcDbDimension
  2
*D3
 10
318.9922680529546
 20
227.8406264453997
 30
0.0
 11
239.4922680529545
 21
235.9656264453997
 31
0.0
 70
    32
  1
%%c<>
 71
     5
 42
159.0000000000002
  3
Standard
100
AcDbAlignedDimension
 13
159.9922680529544
 23
265.1579287714993
 33
0.0
 14
318.9922680529546
 24
265.1579287714994
 34
0.0
100
AcDbRotatedDimension
1001
ACAD
1000
DSTYLE
1002
{
1070
    40
1040
2.5
1070
    41
1040
3.5
1070
    42
1040
1.0
1070
    43
1040
7.0
1070
    44
1040
1.0
1070
    73
1070
     0
1070
    74
1070
     0
1070
    77
1070
     1
1070
    78
1070
     8
1070
    79
1070
     2
1070
   140
1040
3.5
1070
   141
1040
1.5
1070
   146
1040
0.5142857142857144
1070
   147
1040
1.5
1070
   172
1070
     1
1070
   178
1070
     1
1070
   179
1070
     2
1070
   271
1070
     2
1070
   272
1070
     2
1070
   284
1070
     8
1070
   285
1070
     8
1070
   286
1070
     8
1002
}
  0
LINE
  5
2625
330
1E
100
AcDbEntity
  8
STEMPEL
100
AcDbLine
 10
348.9922680529545
 20
364.3545958578741
 30
0.0
 11
348.9922680529545
 21
318.1579287714994
 31
0.0
  0
LINE
  5
2626
330
1E
100
AcDbEntity
  8
STEMPEL
  6
Continuous
100
AcDbLine
 10
316.4922680529552
 20
375.5179287714992
 30
0.0
 11
316.492268052956
 21
265.1579287714994
 31
0.0
  0
LINE
  5
2627
102
{ACAD_REACTORS
330
2A24
102
}
330
1E
100
AcDbEntity
  8
STEMPEL
  6
Continuous
100
AcDbLine
 10
318.9922680529545
 20
375.5179287714994
 30
0.0
 11
318.9922680529546
 21
265.1579287714994
 31
0.0
  0
LINE
  5
2628
102
{ACAD_REACTORS
330
2A24
102
}
330
1E
100
AcDbEntity
  8
STEMPEL
100
AcDbLine
 10
346.0922680529544
 20
365.5115785411978
 30
0.0
 11
346.0922680529545
 21
320.1579287714996
 31
0.0
  0
LINE
  5
2629
102
{ACAD_REACTORS
330
2A24
102
}
330
1E
100
AcDbEntity
  8
STEMPEL
  6
Continuous
100
AcDbLine
 10
159.9922680529544
 20
375.5179287714994
 30
0.0
 11
159.9922680529544
 21
265.1579287714993
 31
0.0
  0
LINE
  5
262A
330
1E
100
AcDbEntity
  8
STEMPEL
  6
Continuous
100
AcDbLine
 10
162.4922680529541
 20
375.5179287714999
 30
0.0
 11
162.4922680529537
 21
265.1579287714993
 31
0.0
  0
LINE
  5
262B
330
1E
100
AcDbEntity
  8
STEMPEL
100
AcDbLine
 10
129.9922680529545
 20
451.7267364261186
 30
0.0
 11
129.9922680529545
 21
318.1579287714995
 31
0.0
  0
LINE
  5
262C
102
{ACAD_REACTORS
330
2A24
102
}
330
1E
100
AcDbEntity
  8
STEMPEL
100
AcDbLine
 10
132.8922680529543
 20
450.5697537427948
 30
0.0
 11
132.8922680529545
 21
320.1579287714993
 31
0.0
  0
LINE
  5
26B5
102
{ACAD_REACTORS
330
2A31
102
}
330
1E
100
AcDbEntity
  8
STEMPEL
  6
Continuous
100
AcDbLine
 10
456.7409451263014
 20
399.6672215922449
 30
0.0
 11
455.7750352025294
 21
399.1536381756402
 31
0.0
  0
ARC
  5
26B6
330
1E
100
AcDbEntity
  8
STEMPEL
  6
Continuous
100
AcDbCircle
 10
439.3435305050239
 20
430.0568039257024
 30
0.0
 40
32.5
100
AcDbArc
 50
273.0
 51
297.9999999999935
  0
ARC
  5
26B7
102
{ACAD_REACTORS
330
2A31
102
}
330
1E
100
AcDbEntity
  8
STEMPEL
  6
Continuous
100
AcDbCircle
 10
439.3435305050239
 20
430.0568039257024
 30
0.0
 40
35.0
100
AcDbArc
 50
273.0
 51
297.9999999999935
  0
LINE
  5
26B8
330
1E
100
AcDbEntity
  8
STEMPEL
  6
Continuous
100
AcDbLine
 10
456.5965792800859
 20
402.421886036925
 30
0.0
 11
454.6013562955651
 21
401.3610071577872
 31
0.0
  0
LINE
  5
26B9
330
1E
100
AcDbEntity
  8
STEMPEL
  6
Continuous
100
AcDbLine
 10
441.0444490829194
 20
397.601344046179
 30
0.0
 11
425.2046385034303
 21
396.7712147494442
 31
0.0
  0
LINE
  5
26BA
102
{ACAD_REACTORS
330
2A24
330
2A31
102
}
330
1E
100
AcDbEntity
  8
STEMPEL
  6
Continuous
100
AcDbLine
 10
441.1752889735265
 20
395.1047702092925
 30
0.0
 11
425.0331513186459
 21
394.2587966219191
 31
0.0
  0
LINE
  5
26BB
102
{ACAD_REACTORS
330
2A24
330
2A31
102
}
330
1E
100
AcDbEntity
  8
STEMPEL
  6
Continuous
100
AcDbLine
 10
439.8040402655941
 20
378.9108113390982
 30
0.0
 11
438.9614313700825
 21
394.9887468486472
 31
0.0
  0
ARC
  5
26BC
330
1E
100
AcDbEntity
  8
STEMPEL
  6
Continuous
100
AcDbCircle
 10
401.1422257569471
 20
380.9902581162388
 30
0.0
 40
20.5
100
AcDbArc
 50
65.11568631262601
 51
93.0
  0
ARC
  5
26BD
102
{ACAD_REACTORS
330
2A24
102
}
330
1E
100
AcDbEntity
  8
STEMPEL
  6
Continuous
100
AcDbCircle
 10
401.1422257569471
 20
380.9902581162388
 30
0.0
 40
18.0
100
AcDbArc
 50
65.47281637945395
 51
93.0
  0
ARC
  5
26BE
330
1E
100
AcDbEntity
  8
STEMPEL
  6
Continuous
100
AcDbCircle
 10
384.2197407154462
 20
416.1527927111883
 30
0.0
 40
15.5
100
AcDbArc
 50
238.228055968051
 51
273.0
  0
ARC
  5
26BF
102
{ACAD_REACTORS
330
2A24
102
}
330
1E
100
AcDbEntity
  8
STEMPEL
  6
Continuous
100
AcDbCircle
 10
384.2197407154462
 20
416.1527927111883
 30
0.0
 40
18.0
100
AcDbArc
 50
238.228055968051
 51
273.0
  0
LINE
  5
26C0
330
1E
100
AcDbEntity
  8
STEMPEL
  6
Continuous
100
AcDbLine
 10
400.0693386539664
 20
401.4621635787077
 30
0.0
 11
385.0309480372115
 21
400.6740349224926
 31
0.0
  0
LINE
  5
26C1
102
{ACAD_REACTORS
330
2A24
102
}
330
1E
100
AcDbEntity
  8
STEMPEL
  6
Continuous
100
AcDbLine
 10
400.200178544574
 20
398.9655897418213
 30
0.0
 11
385.1617879278191
 21
398.1774610856061
 31
0.0
  0
ARC
  5
26C2
330
1E
100
AcDbEntity
  8
STEMPEL
  6
Continuous
100
AcDbCircle
 10
369.4766328613451
 20
392.3485752108724
 30
0.0
 40
12.5
100
AcDbArc
 50
58.22805596805097
 51
93.0
  0
ARC
  5
26C3
102
{ACAD_REACTORS
330
2A24
102
}
330
1E
100
AcDbEntity
  8
STEMPEL
  6
Continuous
100
AcDbCircle
 10
369.4766328613451
 20
392.3485752108724
 30
0.0
 40
10.0
100
AcDbArc
 50
58.22805596805097
 51
93.0
  0
ARC
  5
26C4
102
{ACAD_REACTORS
330
2A24
102
}
330
1E
100
AcDbEntity
  8
STEMPEL
  6
Continuous
100
AcDbCircle
 10
423.1438662673419
 20
429.2078154978746
 30
0.0
 40
35.00004740563918
100
AcDbArc
 50
245.4728163794539
 51
273.0943014490886
  0
ARC
  5
26C5
330
1E
100
AcDbEntity
  8
STEMPEL
  6
Continuous
100
AcDbCircle
 10
423.1462678557376
 20
429.2059663328414
 30
0.0
 40
32.5
100
AcDbArc
 50
245.6928769931978
 51
273.6312288822649
  0
LINE
  5
26C6
330
1E
100
AcDbEntity
  8
STEMPEL
  6
Continuous
100
AcDbLine
 10
447.8041386312712
 20
570.1916478756929
 30
0.0
 11
445.7089536480737
 21
571.0381575568808
 31
0.0
  0
LINE
  5
26C7
102
{ACAD_REACTORS
330
2A31
102
}
330
1E
100
AcDbEntity
  8
STEMPEL
  6
Continuous
100
AcDbLine
 10
447.6597727850556
 20
572.9463123203729
 30
0.0
 11
446.6454701316134
 21
573.3561171932977
 31
0.0
  0
LINE
  5
26C8
330
1E
100
AcDbEntity
  8
STEMPEL
  6
Continuous
100
AcDbLine
 10
431.8333207841611
 20
573.3601421629836
 30
0.0
 11
415.9935102046723
 21
572.5300128662486
 31
0.0
  0
LINE
  5
26C9
102
{ACAD_REACTORS
330
2A24
330
2A31
102
}
330
1E
100
AcDbEntity
  8
STEMPEL
  6
Continuous
100
AcDbLine
 10
431.7024808935538
 20
575.8567159998701
 30
0.0
 11
415.5603432386731
 21
575.0107424124967
 31
0.0
  0
ARC
  5
26CA
102
{ACAD_REACTORS
330
2A31
102
}
330
1E
100
AcDbEntity
  8
STEMPEL
  6
Continuous
100
AcDbCircle
 10
433.5342393620573
 20
540.9046822834599
 30
0.0
 40
35.0
100
AcDbArc
 50
68.00000000000655
 51
93.0
  0
ARC
  5
26CB
330
1E
100
AcDbEntity
  8
STEMPEL
  6
Continuous
100
AcDbCircle
 10
433.5342393620573
 20
540.9046822834599
 30
0.0
 40
32.5
100
AcDbArc
 50
68.00000000000655
 51
93.0
  0
LINE
  5
26CC
102
{ACAD_REACTORS
330
2A24
330
2A31
102
}
330
1E
100
AcDbEntity
  8
STEMPEL
  6
Continuous
100
AcDbLine
 10
429.4886232901098
 20
575.7406926392247
 30
0.0
 11
428.6460143945982
 21
591.8186281487737
 31
0.0
  0
ARC
  5
26CE
102
{ACAD_REACTORS
330
2A24
102
}
330
1E
100
AcDbEntity
  8
STEMPEL
  6
Continuous
100
AcDbCircle
 10
390.4133547271436
 20
585.7093127409261
 30
0.0
 40
18.0
100
AcDbArc
 50
273.0
 51
300.527183620546
  0
ARC
  5
26CF
330
1E
100
AcDbEntity
  8
STEMPEL
  6
Continuous
100
AcDbCircle
 10
390.4133547271436
 20
585.7093127409261
 30
0.0
 40
20.5
100
AcDbArc
 50
273.0
 51
300.884313687374
  0
ARC
  5
26D0
102
{ACAD_REACTORS
330
2A24
102
}
330
1E
100
AcDbEntity
  8
STEMPEL
  6
Continuous
100
AcDbCircle
 10
377.2590585351346
 20
548.9705208335465
 30
0.0
 40
18.0
100
AcDbArc
 50
93.0
 51
127.771944031949
  0
ARC
  5
26D1
330
1E
100
AcDbEntity
  8
STEMPEL
  6
Continuous
100
AcDbCircle
 10
377.2590585351346
 20
548.9705208335465
 30
0.0
 40
15.5
100
AcDbArc
 50
93.0
 51
127.771944031949
  0
LINE
  5
26D2
102
{ACAD_REACTORS
330
2A24
102
}
330
1E
100
AcDbEntity
  8
STEMPEL
  6
Continuous
100
AcDbLine
 10
391.3554019395164
 20
567.7339811153442
 30
0.0
 11
376.3170113227614
 21
566.945852459129
 31
0.0
  0
LINE
  5
26D3
330
1E
100
AcDbEntity
  8
STEMPEL
  6
Continuous
100
AcDbLine
 10
391.4862418301235
 20
565.2374072784578
 30
0.0
 11
376.4478512133686
 21
564.4492786222427
 31
0.0
  0
ARC
  5
26D4
102
{ACAD_REACTORS
330
2A24
102
}
330
1E
100
AcDbEntity
  8
STEMPEL
  6
Continuous
100
AcDbCircle
 10
360.1084966938582
 20
571.1032619319409
 30
0.0
 40
10.0
100
AcDbArc
 50
273.0
 51
307.771944031949
  0
ARC
  5
26D5
330
1E
100
AcDbEntity
  8
STEMPEL
  6
Continuous
100
AcDbCircle
 10
360.1084966938582
 20
571.1032619319409
 30
0.0
 40
12.5
100
AcDbArc
 50
273.0
 51
307.771944031949
  0
ARC
  5
26D6
102
{ACAD_REACTORS
330
2A24
102
}
330
1E
100
AcDbEntity
  8
STEMPEL
  6
Continuous
100
AcDbCircle
 10
417.3345751243751
 20
540.0556938556321
 30
0.0
 40
35.00004740563918
100
AcDbArc
 50
92.9056985509049
 51
120.5271836205461
  0
ARC
  5
26D7
330
1E
100
AcDbEntity
  8
STEMPEL
  6
Continuous
100
AcDbCircle
 10
417.3367702662391
 20
540.0577839250902
 30
0.0
 40
32.5
100
AcDbArc
 50
92.36877111773516
 51
120.3071230068022
  0
LINE
  5
26D8
330
1E
100
AcDbEntity
  8
HILF
  6
Continuous
100
AcDbLine
 10
364.5987794248184
 20
556.791121595987
 30
0.0
 11
372.446291318291
 21
407.0516744980667
 31
0.0
  0
LINE
  5
26D9
330
1E
100
AcDbEntity
  8
HILF
  6
Continuous
100
AcDbLine
 10
371.9981712192888
 20
560.8584586130766
 30
0.0
 11
380.230300958288
 21
403.7800658321208
 31
0.0
  0
LINE
  5
26DA
102
{ACAD_REACTORS
330
2A31
102
}
330
1E
100
AcDbEntity
  8
STEMPEL
  6
Continuous
100
AcDbLine
 10
457.9311461642809
 20
376.9568329006833
 30
0.0
 11
446.4695717470761
 21
595.6567010119347
 31
0.0
  0
LINE
  5
26DB
330
1E
100
AcDbEntity
  8
HILF
  6
Continuous
100
AcDbLine
 10
396.5215429620797
 20
563.5352279461356
 30
0.0
 11
404.8991296896558
 21
403.6813504839584
 31
0.0
  0
DIMENSION
  5
26DD
330
1E
100
AcDbEntity
  8
BEM
100
AcDbDimension
  2
*D4
 10
474.3176088826134
 20
377.8156110220554
 30
0.0
 11
476.7006866438936
 21
487.590774722155
 31
0.0
 70
    32
  1
%%c<>
 71
     5
 42
218.9999999999998
  3
Standard
100
AcDbAlignedDimension
 13
446.4695717470761
 23
595.6567010119347
 33
0.0
 14
457.9311461642809
 24
376.9568329006833
 34
0.0
 50
272.9999999999991
100
AcDbRotatedDimension
1001
ACAD
1000
DSTYLE
1002
{
1070
    40
1040
2.5
1070
    41
1040
3.5
1070
    42
1040
1.0
1070
    43
1040
7.0
1070
    44
1040
1.0
1070
    73
1070
     0
1070
    74
1070
     0
1070
    77
1070
     1
1070
    78
1070
     8
1070
    79
1070
     2
1070
   140
1040
3.5
1070
   141
1040
1.5
1070
   146
1040
0.5142857142857144
1070
   147
1040
1.5
1070
   172
1070
     1
1070
   178
1070
     1
1070
   179
1070
     2
1070
   271
1070
     2
1070
   272
1070
     2
1070
   284
1070
     8
1070
   285
1070
     8
1070
   286
1070
     8
1002
}
  0
LINE
  5
26DE
330
1E
100
AcDbEntity
  8
STEMPEL
  6
Continuous
100
AcDbLine
 10
368.8224334083082
 20
404.8314443953047
 30
0.0
 11
343.0268612781518
 21
403.4795557446275
 31
0.0
  0
LINE
  5
26DF
102
{ACAD_REACTORS
330
2A24
102
}
330
1E
100
AcDbEntity
  8
STEMPEL
  6
Continuous
100
AcDbLine
 10
368.9532732989156
 20
402.3348705584182
 30
0.0
 11
343.1577011687593
 21
400.9829819077411
 31
0.0
  0
LINE
  5
26E0
330
1E
100
AcDbEntity
  8
STEMPEL
100
AcDbLine
 10
457.9311461642809
 20
376.9568329006831
 30
0.0
 11
355.8758138098919
 21
371.6083395679968
 31
0.0
  0
LINE
  5
26E1
102
{ACAD_REACTORS
330
2A24
330
2A31
102
}
330
1E
100
AcDbEntity
  8
STEMPEL
100
AcDbLine
 10
457.7793718911765
 20
379.8528585514713
 30
0.0
 11
354.5686424580208
 21
374.4438134236968
 31
0.0
  0
LINE
  5
26E2
102
{ACAD_REACTORS
330
2A24
102
}
330
1E
100
AcDbEntity
  8
STEMPEL
  6
Continuous
100
AcDbLine
 10
360.6318562562877
 20
561.1169665843954
 30
0.0
 11
334.8362841261313
 21
559.7650779337184
 31
0.0
  0
LINE
  5
26E3
330
1E
100
AcDbEntity
  8
STEMPEL
  6
Continuous
100
AcDbLine
 10
360.7626961468949
 20
558.6203927475089
 30
0.0
 11
334.9671240167392
 21
557.2685040968321
 31
0.0
  0
LINE
  5
26E4
330
1E
100
AcDbEntity
  8
STEMPEL
100
AcDbLine
 10
446.4695717470761
 20
595.6567010119347
 30
0.0
 11
257.16183930651
 21
585.7355031536164
 31
0.0
  0
LINE
  5
26E5
102
{ACAD_REACTORS
330
2A24
330
2A31
102
}
330
1E
100
AcDbEntity
  8
STEMPEL
100
AcDbLine
 10
446.6213460201806
 20
592.7606753611464
 30
0.0
 11
258.4690106583814
 21
582.9000292979165
 31
0.0
  0
LINE
  5
27F6
330
1E
100
AcDbEntity
  8
MITTEL
100
AcDbLine
 10
239.4922680529544
 20
475.1592082765618
 30
0.0
 11
457.1935066294513
 21
486.5684467375236
 31
0.0
  0
LINE
  5
2869
330
1E
100
AcDbEntity
  8
MITTEL
100
AcDbLine
 10
239.4922680529545
 20
408.0406661419964
 30
0.0
 11
306.518826558201
 21
478.6719213608066
 31
0.0
  0
LINE
  5
286A
330
1E
100
AcDbEntity
  8
STEMPEL
100
AcDbLine
 10
129.9922680529545
 20
451.7267364261186
 30
0.0
 11
257.1618393065102
 21
585.7355031536164
 31
0.0
  0
LINE
  5
286B
330
1E
100
AcDbEntity
  8
STEMPEL
100
AcDbLine
 10
348.9922680529546
 20
364.354595857874
 30
0.0
 11
355.8758138098922
 21
371.6083395679969
 31
0.0
  0
LINE
  5
286C
330
1E
100
AcDbEntity
  8
STEMPEL
100
AcDbLine
 10
355.8758138098919
 20
371.6083395679969
 30
0.0
 11
354.5686424580208
 21
374.4438134236968
 31
0.0
  0
LINE
  5
286D
330
1E
100
AcDbEntity
  8
STEMPEL
100
AcDbLine
 10
129.9922680529545
 20
451.7267364261186
 30
0.0
 11
132.8922680529545
 21
450.5697537427948
 31
0.0
  0
LINE
  5
286E
102
{ACAD_REACTORS
330
2A24
102
}
330
1E
100
AcDbEntity
  8
STEMPEL
100
AcDbLine
 10
346.0922680529544
 20
365.5115785411979
 30
0.0
 11
354.5686424580208
 21
374.4438134236969
 31
0.0
  0
LINE
  5
286F
102
{ACAD_REACTORS
330
2A24
102
}
330
1E
100
AcDbEntity
  8
STEMPEL
100
AcDbLine
 10
132.8922680529546
 20
450.5697537427948
 30
0.0
 11
258.4690106583815
 21
582.9000292979166
 31
0.0
  0
LINE
  5
2870
330
1E
100
AcDbEntity
  8
STEMPEL
100
AcDbLine
 10
258.4690106583815
 20
582.9000292979165
 30
0.0
 11
257.1618393065102
 21
585.7355031536164
 31
0.0
  0
LINE
  5
2871
330
1E
100
AcDbEntity
  8
STEMPEL
100
AcDbLine
 10
346.0922680529544
 20
365.5115785411979
 30
0.0
 11
348.9922680529545
 21
364.354595857874
 31
0.0
  0
ARC
  5
2873
330
1E
100
AcDbEntity
  8
SCHRAFF
100
AcDbCircle
 10
258.0549536258837
 20
583.7981884327043
 30
0.0
 40
3.771849488662471
100
AcDbArc
 50
34.68931878999208
 51
194.8106812100074
  0
ARC
  5
2875
330
1E
100
AcDbEntity
  8
SCHRAFF
100
AcDbCircle
 10
354.5743932186979
 20
374.4313390594697
 30
0.0
 40
5.90577369844112
100
AcDbArc
 50
255.7672953209822
 51
333.732704679019
  0
ARC
  5
2876
330
1E
100
AcDbEntity
  8
SCHRAFF
100
AcDbCircle
 10
131.973669743311
 20
450.9362373073424
 30
0.0
 40
3.771849488662471
100
AcDbArc
 50
78.18931878999241
 51
238.3106812100078
  0
ARC
  5
2877
330
1E
100
AcDbEntity
  8
SCHRAFF
100
AcDbCircle
 10
346.105026293058
 20
365.5064885195184
 30
0.0
 40
5.90577369844112
100
AcDbArc
 50
299.2672953209808
 51
17.23270467901767
  0
HATCH
  5
288A
330
1E
100
AcDbEntity
  8
SCHRAFF
100
AcDbHatch
 10
0.0
 20
0.0
 30
0.0
210
0.0
220
0.0
230
1.0
  2
_USER
 70
     0
 71
     0
 91
        4
 92
        7
 72
     1
 73
     1
 93
        3
 10
254.4084210037353
 20
582.8340056695674
 42
0.0
 10
257.1618393065102
 20
585.7355031536164
 42
0.0
 10
261.1563574455284
 20
585.9448469785883
 42
0.8400024211543344
 97
        0
 92
        7
 72
     1
 73
     1
 93
        3
 10
359.8703319489104
 20
371.8176833929685
 42
0.0
 10
355.8758138098922
 20
371.6083395679968
 42
0.0
 10
353.1223955071169
 20
368.7068420839475
 42
0.3539487248240702
 97
        0
 92
        7
 72
     1
 73
     1
 93
        3
 10
351.7456863557295
 20
367.256093341923
 42
0.0
 10
348.9922680529544
 20
364.3545958578739
 42
0.0
 10
348.9922680529544
 20
360.3545958578735
 42
0.3539487248240781
 97
        0
 92
        7
 72
     1
 73
     1
 93
        3
 10
132.7456863557295
 20
454.6282339101678
 42
0.8400024211543271
 10
129.9922680529545
 20
447.7267364261187
 42
0.0
 10
129.9922680529545
 20
451.7267364261186
 42
0.0
 97
        0
 75
     0
 76
     0
 52
0.0
 41
0.1
 77
     0
 78
     1
 53
0.0
 43
-382.3829165763555
 44
91.4762523011284
 45
0.0
 46
0.1
 79
     0
 47
0.6078859685551294
 98
        4
 10
258.6007927309106
 20
586.4363734233079
 10
357.1479692986772
 20
370.6368528891426
 10
349.8481798388016
 20
363.3422216191241
 10
129.0295028760533
 20
452.093573402856
  0
DIMENSION
  5
2939
330
1E
100
AcDbEntity
  8
BEM
100
AcDbDimension
  2
*D5
 10
108.5128999131308
 20
255.1579287714993
 30
0.0
 11
100.3878999131308
 21
287.6579287714993
 31
0.0
 70
    32
 71
     5
 42
65.00000000000003
  3
Standard
100
AcDbAlignedDimension
 13
129.9922680529545
 23
320.1579287714993
 33
0.0
 14
160.8576050943545
 24
255.1579287714993
 34
0.0
 50
90.0
100
AcDbRotatedDimension
1001
ACAD
1000
DSTYLE
1002
{
1070
    40
1040
2.5
1070
    41
1040
3.5
1070
    42
1040
1.0
1070
    43
1040
7.0
1070
    44
1040
1.0
1070
    73
1070
     0
1070
    74
1070
     0
1070
    77
1070
     1
1070
    78
1070
     8
1070
    79
1070
     2
1070
   140
1040
3.5
1070
   141
1040
1.5
1070
   146
1040
0.5142857142857144
1070
   147
1040
1.5
1070
   172
1070
     1
1070
   178
1070
     1
1070
   179
1070
     2
1070
   271
1070
     2
1070
   272
1070
     2
1070
   284
1070
     8
1070
   285
1070
     8
1070
   286
1070
     8
1002
}
  0
HATCH
  5
29B9
330
1E
100
AcDbEntity
  8
SCHRAFF
100
AcDbHatch
 10
0.0
 20
0.0
 30
0.0
210
0.0
220
0.0
230
1.0
  2
_USER
 70
     0
 71
     0
 91
        2
 92
        7
 72
     1
 73
     1
 93
        8
 10
318.9922680529545
 20
375.5179287714994
 42
-0.1921171724590909
 10
325.9952215921412
 20
393.0709704516901
 42
0.0
 10
324.1817856646105
 20
394.7918568909245
 42
0.1921171724590908
 10
316.4922680529552
 20
375.5179287714991
 42
0.0
 10
316.4922680529561
 20
265.1579287715071
 42
0.0
 10
315.6173814176959
 20
255.1579287714994
 42
0.0
 10
318.1269310115546
 20
255.1579287714995
 42
0.0
 10
318.9922680529546
 20
265.0487764142213
 42
0.0
 97
        0
 92
        7
 72
     1
 73
     1
 93
        8
 10
162.4922680529541
 20
375.5179287714999
 42
-0.1921171724590898
 10
212.474132528718
 20
500.7984615477627
 42
0.0
 10
210.6606966011874
 20
502.519347986997
 42
0.1921171724590902
 10
159.9922680529544
 20
375.5179287714994
 42
0.0
 10
159.9922680529544
 20
265.0487764142188
 42
0.0
 10
160.8576050943545
 20
255.1579287714993
 42
0.0
 10
163.3671546882131
 20
255.1579287714993
 42
0.0
 10
162.4922680529538
 20
265.1579287714989
 42
0.0
 97
        0
 75
     0
 76
     0
 52
135.0
 41
2.0
 77
     0
 78
     1
 53
135.0
 43
-382.3829165763555
 44
91.4762523011284
 45
-1.414213562373095
 46
-1.414213562373094
 79
     0
 47
0.7220101561859178
 98
        2
 10
318.1563183755297
 20
354.36484079367
 10
162.0918234027349
 20
352.1988106502051
  0
HATCH
  5
29E6
330
1E
100
AcDbEntity
  8
SCHRAFF
100
AcDbHatch
 10
0.0
 20
0.0
 30
0.0
210
0.0
220
0.0
230
1.0
  2
_USER
 70
     0
 71
     0
 91
        2
 92
        7
 72
     1
 73
     1
 93
       22
 10
367.7649975158565
 20
561.2225739415862
 42
-0.152896221602038
 10
376.4478512133686
 20
564.4492786222427
 42
0.0
 10
391.4862418301235
 20
565.2374072784578
 42
0.1191385083147754
 10
400.7179764355872
 20
567.9874400564192
 42
-0.1244894853099569
 10
415.9935102046723
 20
572.5300128662486
 42
0.0
 10
431.8333207841611
 20
573.3601421629836
 42
-0.1095178116832402
 10
445.7089536480737
 20
571.0381575568808
 42
0.0
 10
447.8041386312712
 20
570.1916478756929
 42
0.0
 10
447.6597727850556
 20
572.946312320373
 42
0.0
 10
446.6454701316134
 20
573.3561171932977
 42
0.1095178116832367
 10
431.7024808935541
 20
575.8567159998701
 42
0.0
 10
415.4452900732259
 20
575.0047127315962
 42
0.1202734944257929
 10
399.5564025331464
 20
570.2043239690131
 42
-0.1206909349745668
 10
391.3554019395167
 20
567.7339811153442
 42
0.0
 10
376.3170113227614
 20
566.945852459129
 42
0.1528962216020392
 10
366.233697351457
 20
563.1987115396573
 42
-0.1528962216020448
 10
360.6318562562874
 20
561.1169665843954
 42
0.0
 10
334.8362841261313
 20
559.7650779337184
 42
0.1921171724590905
 10
210.6606966011873
 20
502.519347986997
 42
0.0
 10
212.4741325287182
 20
500.7984615477625
 42
-0.1921171724590911
 10
334.9671240167392
 20
557.2685040968321
 42
0.0
 10
360.7626961468949
 20
558.6203927475089
 42
0.1528962216020388
 97
        0
 92
        7
 72
     1
 73
     1
 93
       22
 10
368.8224334083082
 20
404.8314443953047
 42
0.0
 10
343.0268612781518
 20
403.4795557446275
 42
0.1921171724590885
 10
324.1817856646104
 20
394.7918568909246
 42
0.0
 10
325.9952215921412
 20
393.0709704516901
 42
-0.1921171724590898
 10
343.1577011687593
 20
400.9829819077411
 42
0.0
 10
368.9532732989156
 20
402.3348705584182
 42
-0.1528962216020455
 10
374.7420285235242
 20
400.8500814609851
 42
0.1528962216020377
 10
385.1617879278191
 20
398.1774610856061
 42
0.0
 10
400.200178544574
 20
398.9655897418213
 42
-0.1206909349745444
 10
408.6144743411036
 20
397.3660176740904
 42
0.1202734944237048
 10
424.9180981529089
 20
394.2527669410033
 42
0.0
 10
441.1752889735265
 20
395.1047702092925
 42
0.1095178116832398
 10
455.7750352025294
 20
399.1536381756402
 42
0.0
 10
456.7409451263014
 20
399.6672215922449
 42
0.0
 10
456.5965792800859
 20
402.4218860369249
 42
0.0
 10
454.6013562955651
 20
401.3610071577872
 42
-0.1095178116832419
 10
441.0444490829191
 20
397.601344046179
 42
0.0
 10
425.2046385034303
 20
396.7712147494442
 42
-0.1244894853099654
 10
409.5379575515437
 20
399.6921747996485
 42
0.1191385083147555
 10
400.0693386539666
 20
401.4621635787077
 42
0.0
 10
385.0309480372115
 20
400.6740349224926
 42
-0.1528962216020355
 10
376.0583774390688
 20
402.9754580235135
 42
0.1528962216020418
 97
        0
 75
     0
 76
     0
 52
45.0
 41
2.0
 77
     0
 78
     1
 53
45.0
 43
-382.3829165763555
 44
91.4762523011284
 45
-1.414213562373094
 46
1.414213562373095
 79
     0
 47
0.7616042609741403
 98
        2
 10
344.6996357247595
 20
558.8951796477506
 10
366.0396357523036
 20
403.5279099131218
  0
HATCH
  5
29EF
330
1E
100
AcDbEntity
  8
SCHRAFF
100
AcDbHatch
 10
0.0
 20
0.0
 30
0.0
210
0.0
220
0.0
230
1.0
  2
_USER
 70
     0
 71
     0
 91
        2
 92
        7
 72
     0
 73
     1
 93
        4
 10
446.6213460201806
 20
592.7606753611464
 10
446.4695717470761
 20
595.6567010119347
 10
257.1618393065103
 20
585.7355031536164
 10
258.4690106583814
 20
582.9000292979162
 97
        0
 92
        7
 72
     0
 73
     1
 93
        4
 10
457.9311461642808
 20
376.9568329006831
 10
457.7793718911764
 20
379.8528585514713
 10
354.5686424580208
 20
374.4438134236968
 10
355.8758138098919
 20
371.6083395679968
 97
        0
 75
     0
 76
     0
 52
45.0
 41
2.0
 77
     0
 78
     1
 53
45.0
 43
-382.3829165763555
 44
91.4762523011284
 45
-1.414213562373094
 46
1.414213562373095
 79
     0
 47
0.7616042609741403
 98
        2
 10
372.1367801568622
 20
590.1209535211835
 10
401.860354414226
 20
374.5869475332606
  0
HATCH
  5
29F8
330
1E
100
AcDbEntity
  8
SCHRAFF
100
AcDbHatch
 10
0.0
 20
0.0
 30
0.0
210
0.0
220
0.0
230
1.0
  2
_USER
 70
     0
 71
     0
 91
        2
 92
        7
 72
     0
 73
     1
 93
        4
 10
348.9922680529545
 20
364.354595857874
 10
346.0922680529544
 20
365.5115785411979
 10
346.0922680529545
 20
320.1579287714995
 10
348.9922680529546
 20
320.1579287714996
 97
        0
 92
        7
 72
     0
 73
     1
 93
        4
 10
132.8922680529543
 20
450.5697537427948
 10
129.9922680529545
 20
451.7267364261187
 10
129.9922680529545
 20
320.1579287714993
 10
132.8922680529546
 20
320.1579287714993
 97
        0
 75
     0
 76
     0
 52
45.0
 41
2.0
 77
     0
 78
     1
 53
45.0
 43
-382.3829165763555
 44
91.4762523011284
 45
-1.414213562373094
 46
1.414213562373095
 79
     0
 47
0.7616042609741403
 98
        2
 10
347.7482079270389
 20
337.2683388116484
 10
131.2996165898785
 20
353.26202766396
  0
HATCH
  5
2A01
330
1E
100
AcDbEntity
  8
SCHRAFF
100
AcDbHatch
 10
0.0
 20
0.0
 30
0.0
210
0.0
220
0.0
230
1.0
  2
_USER
 70
     0
 71
     0
 91
        2
 92
        7
 72
     0
 73
     1
 93
        4
 10
258.4690106583815
 20
582.9000292979165
 10
257.1618393065102
 20
585.7355031536164
 10
129.9922680529545
 20
451.7267364261186
 10
132.8922680529545
 20
450.5697537427947
 97
        0
 92
        7
 72
     0
 73
     1
 93
        4
 10
355.8758138098922
 20
371.6083395679968
 10
354.5686424580208
 20
374.443813423697
 10
346.0922680529544
 20
365.5115785411979
 10
348.9922680529545
 20
364.3545958578739
 97
        0
 75
     0
 76
     0
 52
135.0
 41
2.0
 77
     0
 78
     1
 53
135.0
 43
-382.3829165763555
 44
91.4762523011284
 45
-1.414213562373095
 46
-1.414213562373094
 79
     0
 47
0.7616042609741403
 98
        2
 10
221.9946241160065
 20
545.1863022890107
 10
350.034635058094
 20
368.4941140846329
  0
HATCH
  5
2A24
330
1E
100
AcDbEntity
  8
SCHRAFF
100
AcDbHatch
 10
0.0
 20
0.0
 30
0.0
210
0.0
220
0.0
230
1.0
  2
HONEY
 70
     0
 71
     1
 91
        2
 92
        7
 72
     1
 73
     1
 93
       17
 10
343.1577011687593
 20
400.9829819077411
 42
0.1617124478670271
 10
328.1887385848455
 20
395.1251959671722
 42
-0.6076381747337337
 10
324.0586111306829
 20
390.7729497410982
 42
0.1617124478670293
 10
318.9922680529545
 20
375.5179287714993
 42
0.0
 10
318.9922680529546
 20
336.1579287714994
 42
0.0
 10
344.2422680529544
 20
336.1579287714994
 42
0.0
 10
346.0922680529545
 20
334.3079287714993
 42
0.0
 10
346.0922680529544
 20
365.5115785411979
 42
0.0
 10
354.5686424580208
 20
374.443813423697
 42
0.0
 10
439.8040402655941
 20
378.9108113390984
 42
0.0
 10
438.9614313700825
 20
394.9887468486472
 42
0.0
 10
425.0331513186459
 20
394.2587966219191
 42
-0.1211084169870481
 10
408.6144743411085
 20
397.3660176740881
 42
0.1206909349746228
 10
400.2001785445738
 20
398.9655897418213
 42
0.0
 10
385.1617879278191
 20
398.1774610856061
 42
-0.1528962216020405
 10
374.7420285235241
 20
400.8500814609853
 42
0.1528962216020388
 10
368.9532732989158
 20
402.3348705584182
 42
0.0
 97
       16
330
26BD
330
26C1
330
26BF
330
26C3
330
26DF
330
2539
330
254C
330
2627
330
2617
330
2613
330
2628
330
286E
330
26E1
330
26BB
330
26BA
330
26C4
 92
        7
 72
     1
 73
     1
 93
       17
 10
258.4690106583811
 20
582.9000292979164
 42
0.0
 10
132.8922680529543
 20
450.5697537427947
 42
0.0
 10
132.8922680529545
 20
334.3079287714993
 42
0.0
 10
134.7422680529544
 20
336.1579287714993
 42
0.0
 10
159.9922680529544
 20
336.1579287714994
 42
0.0
 10
159.9922680529544
 20
375.5179287714994
 42
-0.1879051757901681
 10
208.6133261015039
 20
500.3264346280889
 42
-0.6747972854224662
 10
212.7434535556664
 20
504.6786808541624
 42
-0.187905175790168
 10
334.8362841261313
 20
559.7650779337184
 42
0.0
 10
360.6318562562877
 20
561.1169665843954
 42
0.1528962216020464
 10
366.2336973514572
 20
563.1987115396573
 42
-0.1528962216020346
 10
376.3170113227614
 20
566.945852459129
 42
0.0
 10
391.3554019395164
 20
567.7339811153442
 42
0.1206909349745784
 10
399.5564025331468
 20
570.2043239690135
 42
-0.1211084169870704
 10
415.5603432386731
 20
575.0107424124967
 42
0.0
 10
429.4886232901096
 20
575.7406926392246
 42
0.0
 10
428.646014394598
 20
591.8186281487733
 42
0.0
 97
       16
330
26C9
330
26CC
330
26E5
330
286F
330
262C
330
261C
330
261E
330
2629
330
253A
330
2544
330
26E2
330
26D4
330
26D0
330
26D2
330
26CE
330
26D6
 75
     0
 76
     1
 52
0.0
 41
30.0
 77
     0
 78
     3
 53
0.0
 43
-382.3829165763555
 44
91.4762523011284
 45
5.625
 46
3.247595249999999
 79
     2
 49
3.75
 49
-7.5
 53
120.0
 43
-382.3829165763555
 44
91.4762523011284
 45
-5.624999987709673
 46
3.247595271287468
 79
     2
 49
3.749999999999999
 49
-7.499999999999998
 53
60.0
 43
-382.3829165763555
 44
91.4762523011284
 45
0.0000000122903263
 46
6.495190521287468
 79
     2
 49
-7.5
 49
3.75
 47
0.7616042609741403
 98
        2
 10
363.7532086212486
 20
395.9118674025613
 10
295.1603461938885
 20
574.1272646688719
  0
HATCH
  5
2A31
330
1E
100
AcDbEntity
  8
SCHRAFF
100
AcDbHatch
 10
0.0
 20
0.0
 30
0.0
210
0.0
220
0.0
230
1.0
  2
NET
 70
     0
 71
     1
 91
        2
 92
        7
 72
     1
 73
     1
 93
        6
 10
446.6213460201808
 20
592.7606753611464
 42
0.0
 10
428.6460143945981
 20
591.8186281487735
 42
0.0
 10
429.4886232901097
 20
575.7406926392246
 42
0.0
 10
431.7024808935538
 20
575.8567159998701
 42
-0.1095178116832392
 10
446.6454701316134
 20
573.3561171932977
 42
0.0
 10
447.6597727850556
 20
572.946312320373
 42
0.0
 97
        6
330
26E5
330
26CC
330
26C9
330
26CA
330
26C7
330
26DA
 92
        7
 72
     1
 73
     1
 93
        6
 10
456.7409451263014
 20
399.6672215922448
 42
0.0
 10
455.7750352025294
 20
399.1536381756402
 42
-0.1095178116832447
 10
441.1752889735258
 20
395.1047702092925
 42
0.0
 10
438.9614313700825
 20
394.9887468486472
 42
0.0
 10
439.8040402655941
 20
378.9108113390984
 42
0.0
 10
457.7793718911762
 20
379.8528585514713
 42
0.0
 97
        6
330
26B5
330
26B7
330
26BA
330
26BB
330
26E1
330
26DA
 75
     0
 76
     1
 52
45.0
 41
20.0
 77
     0
 78
     2
 53
45.0
 43
-382.3829165763555
 44
91.4762523011284
 45
-1.767766952966368
 46
1.767766952966368
 79
     0
 53
135.0
 43
-382.3829165763555
 44
91.4762523011284
 45
-1.767766952966368
 46
-1.767766952966368
 79
     0
 47
0.7616042609741403
 98
        2
 10
439.2053578301856
 20
584.0281200725558
 10
452.1617863221154
 20
390.5806377851241
  0
TEXT
  5
2C7E
330
1E
100
AcDbEntity
  8
TEXT
100
AcDbText
 10
185.77763727763
 20
91.42531838939582
 30
0.0
 40
5.0
  1
2007
 41
0.8
  7
GREEKS
100
AcDbText
  0
TEXT
  5
2C7F
330
1E
100
AcDbEntity
  8
TEXT
100
AcDbText
 10
212.9987463852951
 20
78.88456301032164
 30
0.0
 40
5.0
  1
27.09.
 41
0.8
  7
GREEKS
 72
     1
 11
221.7606511471998
 21
78.88456301032164
 31
0.0
100
AcDbText
  0
HATCH
  5
2C97
330
1E
100
AcDbEntity
  8
SCHRAFF
100
AcDbHatch
 10
0.0
 20
0.0
 30
0.0
210
0.0
220
0.0
230
1.0
  2
NET
 70
     0
 71
     0
 91
        2
 92
        7
 72
     0
 73
     1
 93
       11
 10
346.0922680529545
 20
334.3079287714991
 10
344.2422680529543
 20
336.1579287714994
 10
318.9922680529544
 20
336.1579287714994
 10
318.9922680529544
 20
327.1579287714994
 10
326.2922680529545
 20
327.1579287714994
 10
330.3337199372817
 20
320.1579287714994
 10
341.4922680529543
 20
320.1579287714994
 10
341.4922680529544
 20
318.1579287714994
 10
348.9922680529544
 20
318.1579287714994
 10
348.9922680529544
 20
320.1579287714995
 10
346.0922680529545
 20
320.1579287714996
 97
        0
 92
        7
 72
     0
 73
     1
 93
       11
 10
159.9922680529543
 20
336.1579287714994
 10
134.7422680529543
 20
336.1579287714994
 10
132.8922680529543
 20
334.3079287714994
 10
132.8922680529543
 20
320.1579287714993
 10
129.9922680529544
 20
320.1579287714993
 10
129.9922680529544
 20
318.1579287714994
 10
137.5922680529544
 20
318.1579287714994
 10
137.5922680529544
 20
320.1579287714996
 10
148.6508161686271
 20
320.1579287714995
 10
152.6922680529544
 20
327.1579287714994
 10
159.9922680529543
 20
327.1579287714994
 97
        0
 75
     0
 76
     1
 52
45.0
 41
20.0
 77
     0
 78
     2
 53
45.0
 43
23.45241114865689
 44
62.16967397374242
 45
-1.767766952966368
 46
1.767766952966368
 79
     0
 53
135.0
 43
23.45241114865689
 44
62.16967397374242
 45
-1.767766952966368
 46
-1.767766952966368
 79
     0
 47
0.2699286479089143
 98
        2
 10
336.982888220449
 20
331.2100255846065
 10
140.6263759045894
 20
329.5904543724073
  0
LINE
  5
2C98
330
1E
100
AcDbEntity
  8
STEMPEL
100
AcDbLine
 10
348.9922680529544
 20
318.1579287714994
 30
0.0
 11
318.9922680529545
 21
318.1579287714995
 31
0.0
  0
LINE
  5
2C99
330
1E
100
AcDbEntity
  8
STEMPEL
100
AcDbLine
 10
326.2922680529544
 20
327.1579287714994
 30
0.0
 11
330.3337199372819
 21
320.1579287714992
 31
0.0
  0
LINE
  5
2C9A
330
1E
100
AcDbEntity
  8
STEMPEL
100
AcDbLine
 10
341.4922680529544
 20
320.1579287714994
 30
0.0
 11
318.9922680529545
 21
320.1579287714994
 31
0.0
  0
LINE
  5
2C9B
330
1E
100
AcDbEntity
  8
STEMPEL
100
AcDbLine
 10
341.4922680529544
 20
318.1579287714994
 30
0.0
 11
341.4922680529543
 21
320.1579287714994
 31
0.0
  0
POINT
  5
2C9C
330
1E
100
AcDbEntity
  8
Defpoints
  6
ByBlock
 62
     0
100
AcDbPoint
 10
331.4922680529544
 20
320.1579287714994
 30
0.0
  0
POINT
  5
2C9D
330
1E
100
AcDbEntity
  8
Defpoints
  6
ByBlock
 62
     0
100
AcDbPoint
 10
341.4922680529544
 20
318.1579287714994
 30
0.0
  0
POINT
  5
2C9E
330
1E
100
AcDbEntity
  8
Defpoints
  6
ByBlock
 62
     0
100
AcDbPoint
 10
330.3337199372819
 20
320.1579287714994
 30
0.0
  0
POINT
  5
2C9F
330
1E
100
AcDbEntity
  8
Defpoints
  6
ByBlock
 62
     0
100
AcDbPoint
 10
330.3337199372819
 20
320.1579287714994
 30
0.0
  0
POINT
  5
2CA0
330
1E
100
AcDbEntity
  8
Defpoints
  6
ByBlock
 62
     0
100
AcDbPoint
 10
330.3337199372819
 20
320.1579287714992
 30
0.0
  0
POINT
  5
2CA1
330
1E
100
AcDbEntity
  8
Defpoints
  6
ByBlock
 62
     0
100
AcDbPoint
 10
341.4922680529544
 20
318.1579287714994
 30
0.0
  0
LINE
  5
2CA2
330
1E
100
AcDbEntity
  8
STEMPEL
100
AcDbLine
 10
159.9922680529543
 20
318.1579287714994
 30
0.0
 11
129.9922680529544
 21
318.1579287714994
 31
0.0
  0
LINE
  5
2CA3
330
1E
100
AcDbEntity
  8
STEMPEL
100
AcDbLine
 10
159.9922680529543
 20
320.1579287714995
 30
0.0
 11
137.5922680529544
 21
320.1579287714995
 31
0.0
  0
LINE
  5
2CA4
330
1E
100
AcDbEntity
  8
STEMPEL
100
AcDbLine
 10
137.5922680529544
 20
318.1579287714994
 30
0.0
 11
137.5922680529544
 21
320.1579287714994
 31
0.0
  0
LINE
  5
2CA5
330
1E
100
AcDbEntity
  8
STEMPEL
100
AcDbLine
 10
152.6922680529544
 20
327.1579287714994
 30
0.0
 11
148.650816168627
 21
320.1579287714992
 31
0.0
  0
POINT
  5
2CA6
330
1E
100
AcDbEntity
  8
Defpoints
  6
ByBlock
 62
     0
100
AcDbPoint
 10
148.6508161686271
 20
320.1579287714994
 30
0.0
  0
POINT
  5
2CA7
330
1E
100
AcDbEntity
  8
Defpoints
  6
ByBlock
 62
     0
100
AcDbPoint
 10
137.5922680529544
 20
318.1579287714994
 30
0.0
  0
POINT
  5
2CA8
330
1E
100
AcDbEntity
  8
Defpoints
  6
ByBlock
 62
     0
100
AcDbPoint
 10
137.5922680529544
 20
320.1579287714994
 30
0.0
  0
DIMENSION
  5
2CBC
330
1E
100
AcDbEntity
  8
BEM
100
AcDbDimension
  2
*D6
 10
86.53026312429892
 20
475.1592082765617
 30
0.0
 11
78.40526312429886
 21
365.1585685240306
 31
0.0
 70
    32
 71
     5
 42
220.0012795050624
  3
Standard
100
AcDbAlignedDimension
 13
160.8576050943545
 23
255.1579287714993
 33
0.0
 14
239.4922680529545
 24
475.1592082765617
 34
0.0
 50
90.0
100
AcDbRotatedDimension
1001
ACAD
1000
DSTYLE
1002
{
1070
    40
1040
2.5
1070
    41
1040
3.5
1070
    42
1040
1.0
1070
    43
1040
7.0
1070
    44
1040
1.0
1070
    73
1070
     0
1070
    74
1070
     0
1070
    77
1070
     1
1070
    78
1070
     8
1070
    79
1070
     2
1070
   140
1040
3.5
1070
   141
1040
1.5
1070
   146
1040
0.5142857142857144
1070
   147
1040
1.5
1070
   172
1070
     1
1070
   178
1070
     1
1070
   179
1070
     2
1070
   271
1070
     2
1070
   272
1070
     2
1070
   284
1070
     8
1070
   285
1070
     8
1070
   286
1070
     8
1002
}
  0
DIMENSION
  5
2CC9
330
1E
100
AcDbEntity
  8
BEM
100
AcDbDimension
  2
*D7
 10
442.9364513453324
 20
663.0726543318115
 30
0.0
 11
336.1571762494963
 21
665.6127399618189
 31
0.0
 70
    32
 71
     5
 42
213.0000000000002
 51
357.0
  3
Standard
100
AcDbAlignedDimension
 13
239.4922680529544
 23
475.1592082765618
 33
0.0
 14
446.4695717470764
 24
595.6567010119347
 34
0.0
 50
2.999999999999992
100
AcDbRotatedDimension
1001
ACAD
1000
DSTYLE
1002
{
1070
    40
1040
2.5
1070
    41
1040
3.5
1070
    42
1040
1.0
1070
    43
1040
7.0
1070
    44
1040
1.0
1070
    73
1070
     0
1070
    74
1070
     0
1070
    77
1070
     1
1070
    78
1070
     8
1070
    79
1070
     2
1070
   140
1040
3.5
1070
   141
1040
1.5
1070
   146
1040
0.5142857142857144
1070
   147
1040
1.5
1070
   172
1070
     1
1070
   178
1070
     1
1070
   179
1070
     2
1070
   271
1070
     2
1070
   272
1070
     2
1070
   284
1070
     8
1070
   285
1070
     8
1070
   286
1070
     8
1002
}
  0
DIMENSION
  5
2CD6
330
1E
100
AcDbEntity
  8
BEM
100
AcDbDimension
  2
*D8
 10
239.4922680529545
 20
250.1579287714994
 30
0.0
 11
321.5924142173026
 21
607.6369644335777
 31
0.0
 70
   162
 71
     5
 42
1.518436449235065
 51
357.0
  3
Standard
100
AcDb2LineAngularDimension
 13
239.4922680529544
 23
475.1592082765618
 33
0.0
 14
457.1935066294513
 24
486.5684467375236
 34
0.0
 15
239.4922680529545
 25
475.1592082765617
 35
0.0
 16
371.6648281613692
 26
557.7497902517036
 36
0.0
1001
ACAD
1000
DSTYLE
1002
{
1070
    40
1040
2.5
1070
    41
1040
3.5
1070
    42
1040
1.0
1070
    43
1040
7.0
1070
    44
1040
1.0
1070
    73
1070
     0
1070
    74
1070
     0
1070
    77
1070
     1
1070
    78
1070
     8
1070
    79
1070
     2
1070
   140
1040
3.5
1070
   141
1040
1.5
1070
   146
1040
0.5142857142857144
1070
   147
1040
1.5
1070
   172
1070
     1
1070
   178
1070
     1
1070
   179
1070
     2
1070
   271
1070
     2
1070
   272
1070
     2
1070
   284
1070
     8
1070
   285
1070
     8
1070
   286
1070
     8
1002
}
  0
ENDSEC
  0
SECTION
  2
OBJECTS
  0
DICTIONARY
  5
C
330
0
100
AcDbDictionary
281
     1
  3
ACAD_COLOR
350
DF
  3
ACAD_GROUP
350
D
  3
ACAD_LAYOUT
350
19
  3
ACAD_MATERIAL
350
DE
  3
ACAD_MLINESTYLE
350
16
  3
ACAD_PLOTSETTINGS
350
18
  3
ACAD_PLOTSTYLENAME
350
E
  3
AcDbVariableDictionary
350
25E
  0
DICTIONARY
  5
A0
330
1E
100
AcDbDictionary
280
     1
281
     1
  3
ACAD_LAYOUTSELFREF
360
D4
  0
DICTIONARY
  5
A2
330
1A
100
AcDbDictionary
280
     1
281
     1
  3
ACAD_LAYOUTSELFREF
360
D3
  0
DICTIONARY
  5
DF
102
{ACAD_REACTORS
330
C
102
}
330
C
100
AcDbDictionary
281
     1
  0
DICTIONARY
  5
D
102
{ACAD_REACTORS
330
C
102
}
330
C
100
AcDbDictionary
281
     1
  0
DICTIONARY
  5
19
102
{ACAD_REACTORS
330
C
102
}
330
C
100
AcDbDictionary
281
     1
  3
Layout1
350
1D
  3
Model
350
21
  0
DICTIONARY
  5
DE
102
{ACAD_REACTORS
330
C
102
}
330
C
100
AcDbDictionary
281
     1
  0
DICTIONARY
  5
16
102
{ACAD_REACTORS
330
C
102
}
330
C
100
AcDbDictionary
281
     1
  3
Standard
350
17
  0
DICTIONARY
  5
18
102
{ACAD_REACTORS
330
C
102
}
330
C
100
AcDbDictionary
281
     1
  0
ACDBDICTIONARYWDFLT
  5
E
102
{ACAD_REACTORS
330
C
102
}
330
C
100
AcDbDictionary
281
     1
  3
Normal
350
F
100
AcDbDictionaryWithDefault
340
F
  0
DICTIONARY
  5
25E
102
{ACAD_REACTORS
330
C
102
}
330
C
100
AcDbDictionary
281
     1
  3
DIMASSOC
350
25F
  3
PROJECTNAME
350
260
  0
XRECORD
  5
D4
102
{ACAD_REACTORS
330
A0
102
}
330
A0
100
AcDbXrecord
280
     1
340
1E
  0
XRECORD
  5
D3
102
{ACAD_REACTORS
330
A2
102
}
330
A2
100
AcDbXrecord
280
     1
340
1A
  0
LAYOUT
  5
1D
102
{ACAD_REACTORS
330
19
102
}
330
19
100
AcDbPlotSettings
  1

  2
\\NT_WORK01\HP LaserJet 5000 PCL 6
  4

  6

 40
0.0
 41
0.0
 42
0.0
 43
0.0
 44
0.0
 45
0.0
 46
0.0
 47
0.0
 48
0.0
 49
0.0
140
0.0
141
0.0
142
1.0
143
1.0
 70
   688
 72
     0
 73
     0
 74
     5
  7

 75
    16
147
1.0
 76
     0
 77
     2
 78
   300
148
0.0
149
0.0
100
AcDbLayout
  1
Layout1
 70
     0
 71
     1
 10
0.0
 20
0.0
 11
12.0
 21
9.0
 12
0.0
 22
0.0
 32
0.0
 14
1.000000000000000E+20
 24
1.000000000000000E+20
 34
1.000000000000000E+20
 15
-1.000000000000000E+20
 25
-1.000000000000000E+20
 35
-1.000000000000000E+20
146
0.0
 13
0.0
 23
0.0
 33
0.0
 16
1.0
 26
0.0
 36
0.0
 17
0.0
 27
1.0
 37
0.0
 76
     0
330
1A
  0
LAYOUT
  5
21
102
{ACAD_REACTORS
330
19
102
}
330
19
100
AcDbPlotSettings
  1

  2
RICOH Aficio 2027 PCL 6
  4
A4
  6

 40
5.027083
 41
5.027084999999999
 42
5.027084
 43
5.027069
 44
209.973328
 45
296.925995
 46
0.0
 47
2.06
 48
0.0
 49
0.0
140
0.0
141
0.0
142
1.0
143
2.100849152723284
 70
 11956
 72
     1
 73
     0
 74
     2
  7
monochrome1.ctb
 75
     0
147
0.4759980023809526
 76
     1
 77
     2
 78
   300
148
0.0
149
0.0
100
AcDbLayout
  1
Model
 70
     1
 71
     0
 10
0.0
 20
0.0
 11
12.0
 21
9.0
 12
0.0
 22
0.0
 32
0.0
 14
0.0
 24
0.0
 34
0.0
 15
0.0
 25
0.0
 35
0.0
146
0.0
 13
0.0
 23
0.0
 33
0.0
 16
1.0
 26
0.0
 36
0.0
 17
0.0
 27
1.0
 37
0.0
 76
     0
330
1E
  0
MLINESTYLE
  5
17
102
{ACAD_REACTORS
330
16
102
}
330
16
100
AcDbMlineStyle
  2
STANDARD
 70
     0
  3

 62
   256
 51
90.0
 52
90.0
 71
     2
 49
0.5
 62
   256
  6
BYLAYER
 49
-0.5
 62
   256
  6
BYLAYER
  0
ACDBPLACEHOLDER
  5
F
102
{ACAD_REACTORS
330
E
102
}
330
E
  0
DICTIONARYVAR
  5
25F
102
{ACAD_REACTORS
330
25E
102
}
330
25E
100
DictionaryVariables
280
     0
  1
1
  0
DICTIONARYVAR
  5
260
102
{ACAD_REACTORS
330
25E
102
}
330
25E
100
DictionaryVariables
280
     0
  1

  0
ENDSEC
  0
EOF
