  0
SECTION
  2
HEADER
  9
$ACADVER
  1
AC1018
  9
$ACADMAINTVER
 70
     2
  9
$DWGCODEPAGE
  3
ANSI_1252
  9
$INSBASE
 10
0.0
 20
0.0
 30
0.0
  9
$EXTMIN
 10
-0.0127968944558461
 20
-0.0180984650162373
 30
-0.0000000000000053
  9
$EXTMAX
 10
420.00961919835
 20
594.0136042948106
 30
0.0000000000000099
  9
$LIMMIN
 10
0.0
 20
0.0
  9
$LIMMAX
 10
419.9999999999999
 20
594.0000000000002
  9
$ORTHOMODE
 70
     0
  9
$REGENMODE
 70
     1
  9
$FILLMODE
 70
     1
  9
$QTEXTMODE
 70
     0
  9
$MIRRTEXT
 70
     1
  9
$LTSCALE
 40
20.0
  9
$ATTMODE
 70
     1
  9
$TEXTSIZE
 40
3.5
  9
$TRACEWID
 40
0.5
  9
$TEXTSTYLE
  7
STANDARD
  9
$CLAYER
  8
BEM
  9
$CELTYPE
  6
ByLayer
  9
$CECOLOR
 62
   256
  9
$CELTSCALE
 40
1.0
  9
$DISPSILH
 70
     0
  9
$DIMSCALE
 40
2.0
  9
$DIMASZ
 40
3.5
  9
$DIMEXO
 40
1.0
  9
$DIMDLI
 40
7.0
  9
$DIMRND
 40
0.0
  9
$DIMDLE
 40
0.0
  9
$DIMEXE
 40
1.0
  9
$DIMTP
 40
0.0
  9
$DIMTM
 40
0.0
  9
$DIMTXT
 40
3.5
  9
$DIMCEN
 40
1.5
  9
$DIMTSZ
 40
0.0
  9
$DIMTOL
 70
     0
  9
$DIMLIM
 70
     0
  9
$DIMTIH
 70
     0
  9
$DIMTOH
 70
     0
  9
$DIMSE1
 70
     0
  9
$DIMSE2
 70
     0
  9
$DIMTAD
 70
     1
  9
$DIMZIN
 70
     8
  9
$DIMBLK
  1

  9
$DIMASO
 70
     1
  9
$DIMSHO
 70
     0
  9
$DIMPOST
  1

  9
$DIMAPOST
  1

  9
$DIMALT
 70
     0
  9
$DIMALTD
 70
     2
  9
$DIMALTF
 40
25.4
  9
$DIMLFAC
 40
1.0
  9
$DIMTOFL
 70
     1
  9
$DIMTVP
 40
0.0
  9
$DIMTIX
 70
     0
  9
$DIMSOXD
 70
     0
  9
$DIMSAH
 70
     0
  9
$DIMBLK1
  1

  9
$DIMBLK2
  1

  9
$DIMSTYLE
  2
Standard
  9
$DIMCLRD
 70
     0
  9
$DIMCLRE
 70
     0
  9
$DIMCLRT
 70
     1
  9
$DIMTFAC
 40
0.5142857142857144
  9
$DIMGAP
 40
1.5
  9
$DIMJUST
 70
     0
  9
$DIMSD1
 70
     0
  9
$DIMSD2
 70
     0
  9
$DIMTOLJ
 70
     1
  9
$DIMTZIN
 70
     8
  9
$DIMALTZ
 70
     8
  9
$DIMALTTZ
 70
     8
  9
$DIMUPT
 70
     0
  9
$DIMDEC
 70
     2
  9
$DIMTDEC
 70
     2
  9
$DIMALTU
 70
     2
  9
$DIMALTTD
 70
     2
  9
$DIMTXSTY
  7
STANDARD
  9
$DIMAUNIT
 70
     0
  9
$DIMADEC
 70
     2
  9
$DIMALTRND
 40
0.0
  9
$DIMAZIN
 70
     2
  9
$DIMDSEP
 70
    46
  9
$DIMATFIT
 70
     3
  9
$DIMFRAC
 70
     0
  9
$DIMLDRBLK
  1

  9
$DIMLUNIT
 70
     2
  9
$DIMLWD
 70
    -2
  9
$DIMLWE
 70
    -2
  9
$DIMTMOVE
 70
     0
  9
$LUNITS
 70
     2
  9
$LUPREC
 70
     2
  9
$SKETCHINC
 40
1.0
  9
$FILLETRAD
 40
67.5
  9
$AUNITS
 70
     0
  9
$AUPREC
 70
     0
  9
$MENU
  1
ACAD
  9
$ELEVATION
 40
0.0
  9
$PELEVATION
 40
0.0
  9
$THICKNESS
 40
0.0
  9
$LIMCHECK
 70
     0
  9
$CHAMFERA
 40
0.0
  9
$CHAMFERB
 40
0.0
  9
$CHAMFERC
 40
0.0
  9
$CHAMFERD
 40
0.0
  9
$SKPOLY
 70
     0
  9
$TDCREATE
 40
2455397.823042361
  9
$TDUCREATE
 40
2455397.781375695
  9
$TDUPDATE
 40
2455532.529685729
  9
$TDUUPDATE
 40
2455532.488019063
  9
$TDINDWG
 40
0.4085820949
  9
$TDUSRTIMER
 40
0.4085820949
  9
$USRTIMER
 70
     1
  9
$ANGBASE
 50
0.0
  9
$ANGDIR
 70
     0
  9
$PDMODE
 70
     0
  9
$PDSIZE
 40
0.0
  9
$PLINEWID
 40
0.0
  9
$SPLFRAME
 70
     0
  9
$SPLINETYPE
 70
     6
  9
$SPLINESEGS
 70
     8
  9
$HANDSEED
  5
2490
  9
$SURFTAB1
 70
     6
  9
$SURFTAB2
 70
     6
  9
$SURFTYPE
 70
     6
  9
$SURFU
 70
     6
  9
$SURFV
 70
     6
  9
$UCSBASE
  2

  9
$UCSNAME
  2

  9
$UCSORG
 10
0.0
 20
0.0
 30
0.0
  9
$UCSXDIR
 10
1.0
 20
0.0
 30
0.0
  9
$UCSYDIR
 10
0.0
 20
1.0
 30
0.0
  9
$UCSORTHOREF
  2

  9
$UCSORTHOVIEW
 70
     0
  9
$UCSORGTOP
 10
0.0
 20
0.0
 30
0.0
  9
$UCSORGBOTTOM
 10
0.0
 20
0.0
 30
0.0
  9
$UCSORGLEFT
 10
0.0
 20
0.0
 30
0.0
  9
$UCSORGRIGHT
 10
0.0
 20
0.0
 30
0.0
  9
$UCSORGFRONT
 10
0.0
 20
0.0
 30
0.0
  9
$UCSORGBACK
 10
0.0
 20
0.0
 30
0.0
  9
$PUCSBASE
  2

  9
$PUCSNAME
  2

  9
$PUCSORG
 10
0.0
 20
0.0
 30
0.0
  9
$PUCSXDIR
 10
1.0
 20
0.0
 30
0.0
  9
$PUCSYDIR
 10
0.0
 20
1.0
 30
0.0
  9
$PUCSORTHOREF
  2

  9
$PUCSORTHOVIEW
 70
     0
  9
$PUCSORGTOP
 10
0.0
 20
0.0
 30
0.0
  9
$PUCSORGBOTTOM
 10
0.0
 20
0.0
 30
0.0
  9
$PUCSORGLEFT
 10
0.0
 20
0.0
 30
0.0
  9
$PUCSORGRIGHT
 10
0.0
 20
0.0
 30
0.0
  9
$PUCSORGFRONT
 10
0.0
 20
0.0
 30
0.0
  9
$PUCSORGBACK
 10
0.0
 20
0.0
 30
0.0
  9
$USERI1
 70
     0
  9
$USERI2
 70
     0
  9
$USERI3
 70
     0
  9
$USERI4
 70
     0
  9
$USERI5
 70
     0
  9
$USERR1
 40
0.0
  9
$USERR2
 40
0.0
  9
$USERR3
 40
0.0
  9
$USERR4
 40
0.0
  9
$USERR5
 40
0.0
  9
$WORLDVIEW
 70
     1
  9
$SHADEDGE
 70
     3
  9
$SHADEDIF
 70
    70
  9
$TILEMODE
 70
     1
  9
$MAXACTVP
 70
    16
  9
$PINSBASE
 10
0.0
 20
0.0
 30
0.0
  9
$PLIMCHECK
 70
     0
  9
$PEXTMIN
 10
1.000000000000000E+20
 20
1.000000000000000E+20
 30
1.000000000000000E+20
  9
$PEXTMAX
 10
-1.000000000000000E+20
 20
-1.000000000000000E+20
 30
-1.000000000000000E+20
  9
$PLIMMIN
 10
0.0
 20
0.0
  9
$PLIMMAX
 10
12.0
 20
9.0
  9
$UNITMODE
 70
     0
  9
$VISRETAIN
 70
     0
  9
$PLINEGEN
 70
     0
  9
$PSLTSCALE
 70
     0
  9
$TREEDEPTH
 70
  3020
  9
$CMLSTYLE
  2
Standard
  9
$CMLJUST
 70
     0
  9
$CMLSCALE
 40
1.0
  9
$PROXYGRAPHICS
 70
     1
  9
$MEASUREMENT
 70
     0
  9
$CELWEIGHT
370
    -1
  9
$ENDCAPS
280
     0
  9
$JOINSTYLE
280
     0
  9
$LWDISPLAY
290
     0
  9
$INSUNITS
 70
     0
  9
$HYPERLINKBASE
  1

  9
$STYLESHEET
  1
monochrome 1.ctb
  9
$XEDIT
290
     1
  9
$CEPSNTYPE
380
     0
  9
$PSTYLEMODE
290
     1
  9
$FINGERPRINTGUID
  2
{D68B0D02-A558-11D7-B632-000102183313}
  9
$VERSIONGUID
  2
{F47A6A26-E74F-4B4D-A6F4-81747A949660}
  9
$EXTNAMES
290
     1
  9
$PSVPSCALE
 40
0.0
  9
$OLESTARTUP
290
     0
  9
$SORTENTS
280
   127
  9
$INDEXCTL
280
     0
  9
$HIDETEXT
280
     0
  9
$XCLIPFRAME
290
     0
  9
$HALOGAP
280
     0
  9
$OBSCOLOR
 70
   257
  9
$OBSLTYPE
280
     0
  9
$INTERSECTIONDISPLAY
280
     0
  9
$INTERSECTIONCOLOR
 70
   257
  9
$DIMASSOC
280
     1
  9
$PROJECTNAME
  1

  0
ENDSEC
  0
SECTION
  2
CLASSES
  0
CLASS
  1
ACDBDICTIONARYWDFLT
  2
AcDbDictionaryWithDefault
  3
ObjectDBX Classes
 90
        0
 91
        1
280
     0
281
     0
  0
CLASS
  1
DICTIONARYVAR
  2
AcDbDictionaryVar
  3
ObjectDBX Classes
 90
        0
 91
        2
280
     0
281
     0
  0
ENDSEC
  0
SECTION
  2
TABLES
  0
TABLE
  2
VPORT
  5
8
330
0
100
AcDbSymbolTable
 70
     2
  0
VPORT
  5
248F
330
8
100
AcDbSymbolTableRecord
100
AcDbViewportTableRecord
  2
*Active
 70
     0
 10
0.0
 20
0.0
 11
1.0
 21
1.0
 12
209.9984111519471
 22
296.9977529148971
 13
0.0
 23
0.0
 14
1.0
 24
1.0
 15
10.0
 25
10.0
 16
0.0
 26
0.0
 36
1.0
 17
0.0
 27
0.0
 37
0.0
 40
598.8287286232978
 41
1.336927223719676
 42
50.0
 43
0.0
 44
0.0
 50
0.0
 51
0.0
 71
     0
 72
  1500
 73
     1
 74
     0
 75
     0
 76
     0
 77
     0
 78
     0
281
     0
 65
     1
110
0.0
120
0.0
130
0.0
111
1.0
121
0.0
131
0.0
112
0.0
122
1.0
132
0.0
 79
     0
146
0.0
  0
ENDTAB
  0
TABLE
  2
LTYPE
  5
5
330
0
100
AcDbSymbolTable
 70
     2
  0
LTYPE
  5
13
330
5
100
AcDbSymbolTableRecord
100
AcDbLinetypeTableRecord
  2
ByBlock
 70
     0
  3

 72
    65
 73
     0
 40
0.0
  0
LTYPE
  5
14
330
5
100
AcDbSymbolTableRecord
100
AcDbLinetypeTableRecord
  2
ByLayer
 70
     0
  3

 72
    65
 73
     0
 40
0.0
  0
LTYPE
  5
15
330
5
100
AcDbSymbolTableRecord
100
AcDbLinetypeTableRecord
  2
Continuous
 70
     0
  3
Solid line
 72
    65
 73
     0
 40
0.0
  0
LTYPE
  5
25
330
5
100
AcDbSymbolTableRecord
100
AcDbLinetypeTableRecord
  2
STRICHPUNKT
 70
     0
  3
__ . __ . __ . __ . __ . __ . __ . __ . __ . __
 72
    65
 73
     4
 40
1.0
 49
0.5
 74
     0
 49
-0.25
 74
     0
 49
0.0
 74
     0
 49
-0.25
 74
     0
  0
ENDTAB
  0
TABLE
  2
LAYER
  5
2
330
0
100
AcDbSymbolTable
 70
     9
  0
LAYER
  5
10
330
2
100
AcDbSymbolTableRecord
100
AcDbLayerTableRecord
  2
0
 70
     0
 62
     7
  6
Continuous
370
    -3
390
F
  0
LAYER
  5
2A
330
2
100
AcDbSymbolTableRecord
100
AcDbLayerTableRecord
  2
VOLL
 70
     0
 62
     1
  6
Continuous
370
    -3
390
F
  0
LAYER
  5
2B
330
2
100
AcDbSymbolTableRecord
100
AcDbLayerTableRecord
  2
HILF
 70
     0
 62
     2
  6
Continuous
370
    -3
390
F
  0
LAYER
  5
2C
330
2
100
AcDbSymbolTableRecord
100
AcDbLayerTableRecord
  2
MITTEL
 70
     0
 62
     2
  6
STRICHPUNKT
370
    -3
390
F
  0
LAYER
  5
2F
330
2
100
AcDbSymbolTableRecord
100
AcDbLayerTableRecord
  2
BEM
 70
     0
 62
     7
  6
Continuous
370
    -3
390
F
  0
LAYER
  5
30
330
2
100
AcDbSymbolTableRecord
100
AcDbLayerTableRecord
  2
STEMPEL
 70
     0
 62
     3
  6
Continuous
370
    -3
390
F
  0
LAYER
  5
31
330
2
100
AcDbSymbolTableRecord
100
AcDbLayerTableRecord
  2
TEXT
 70
     0
 62
     7
  6
Continuous
370
    -3
390
F
  0
LAYER
  5
171
330
2
100
AcDbSymbolTableRecord
100
AcDbLayerTableRecord
  2
Defpoints
 70
     0
 62
     7
  6
Continuous
290
     0
370
    -3
390
F
  0
LAYER
  5
19C
330
2
100
AcDbSymbolTableRecord
100
AcDbLayerTableRecord
  2
SCHRAFF
 70
     0
 62
     7
  6
Continuous
370
    -3
390
F
  0
ENDTAB
  0
TABLE
  2
STYLE
  5
3
330
0
100
AcDbSymbolTable
 70
     2
  0
STYLE
  5
11
330
3
100
AcDbSymbolTableRecord
100
AcDbTextStyleTableRecord
  2
STANDARD
 70
     0
 40
0.0
 41
0.8
 50
0.0
 71
     0
 42
3.5
  3
simplex.shx
  4

  0
STYLE
  5
24
330
3
100
AcDbSymbolTableRecord
100
AcDbTextStyleTableRecord
  2
GREEKS
 70
     0
 40
0.0
 41
0.8
 50
0.0
 71
     0
 42
2.5
  3
SIMPLEX.shx
  4

  0
ENDTAB
  0
TABLE
  2
VIEW
  5
6
330
0
100
AcDbSymbolTable
 70
     0
  0
ENDTAB
  0
TABLE
  2
UCS
  5
7
330
0
100
AcDbSymbolTable
 70
     0
  0
ENDTAB
  0
TABLE
  2
APPID
  5
9
330
0
100
AcDbSymbolTable
 70
     1
  0
APPID
  5
12
330
9
100
AcDbSymbolTableRecord
100
AcDbRegAppTableRecord
  2
ACAD
 70
     0
  0
ENDTAB
  0
TABLE
  2
DIMSTYLE
  5
A
330
0
100
AcDbSymbolTable
 70
     1
100
AcDbDimStyleTable
 71
     1
340
9D
  0
DIMSTYLE
105
9D
102
{ACAD_REACTORS
330
201A
330
20DD
330
2341
330
244C
330
2462
330
2470
102
}
330
A
100
AcDbSymbolTableRecord
100
AcDbDimStyleTableRecord
  2
Standard
 70
     0
340
11
  0
ENDTAB
  0
TABLE
  2
BLOCK_RECORD
  5
1
330
0
100
AcDbSymbolTable
 70
     8
  0
BLOCK_RECORD
  5
1E
102
{ACAD_XDICTIONARY
360
A0
102
}
330
1
100
AcDbSymbolTableRecord
100
AcDbBlockTableRecord
  2
*Model_Space
340
21
  0
BLOCK_RECORD
  5
1A
102
{ACAD_XDICTIONARY
360
A2
102
}
330
1
100
AcDbSymbolTableRecord
100
AcDbBlockTableRecord
  2
*Paper_Space
340
1D
  0
BLOCK_RECORD
  5
22
330
1
100
AcDbSymbolTableRecord
100
AcDbBlockTableRecord
  2
LOGO
340
0
102
{BLKREFS
331
9B
102
}
  0
BLOCK_RECORD
  5
1DA4
330
1
100
AcDbSymbolTableRecord
100
AcDbBlockTableRecord
  2
*X1
340
0
102
{BLKREFS
331
1EFC
102
}
  0
BLOCK_RECORD
  5
2027
330
1
100
AcDbSymbolTableRecord
100
AcDbBlockTableRecord
  2
*D2
340
0
  0
BLOCK_RECORD
  5
20F8
330
1
100
AcDbSymbolTableRecord
100
AcDbBlockTableRecord
  2
*D3
340
0
  0
BLOCK_RECORD
  5
2342
330
1
100
AcDbSymbolTableRecord
100
AcDbBlockTableRecord
  2
*D4
340
0
  0
BLOCK_RECORD
  5
244D
330
1
100
AcDbSymbolTableRecord
100
AcDbBlockTableRecord
  2
*D5
340
0
  0
BLOCK_RECORD
  5
2463
330
1
100
AcDbSymbolTableRecord
100
AcDbBlockTableRecord
  2
*D6
340
0
  0
BLOCK_RECORD
  5
2471
330
1
100
AcDbSymbolTableRecord
100
AcDbBlockTableRecord
  2
*D7
340
0
  0
ENDTAB
  0
ENDSEC
  0
SECTION
  2
BLOCKS
  0
BLOCK
  5
35
330
1E
100
AcDbEntity
  8
0
100
AcDbBlockBegin
  2
*Model_Space
 70
     0
 10
0.0
 20
0.0
 30
0.0
  3
*Model_Space
  1

  0
ENDBLK
  5
36
330
1E
100
AcDbEntity
  8
0
100
AcDbBlockEnd
  0
BLOCK
  5
33
330
1A
100
AcDbEntity
 67
     1
  8
0
100
AcDbBlockBegin
  2
*Paper_Space
 70
     0
 10
0.0
 20
0.0
 30
0.0
  3
*Paper_Space
  1

  0
ENDBLK
  5
34
330
1A
100
AcDbEntity
 67
     1
  8
0
100
AcDbBlockEnd
  0
BLOCK
  5
37
330
22
100
AcDbEntity
  8
0
100
AcDbBlockBegin
  2
LOGO
 70
     0
 10
0.0
 20
0.0
 30
0.0
  3
LOGO
  1

  0
ARC
  5
38
330
22
100
AcDbEntity
  8
0
100
AcDbCircle
 10
11.59973089678112
 20
-9.271599258481501
 30
0.0
 40
4.5
100
AcDbArc
 50
270.0
 51
231.0575587310159
  0
LINE
  5
39
330
22
100
AcDbEntity
  8
0
100
AcDbLine
 10
3.599730896781125
 20
-4.771599258481529
 30
0.0
 11
3.599730896781153
 21
-11.77159925848133
 31
0.0
  0
LINE
  5
3A
330
22
100
AcDbEntity
  8
0
100
AcDbLine
 10
2.599730896781125
 20
-4.771599258481529
 30
0.0
 11
2.599730896781153
 21
-11.77159925848133
 31
0.0
  0
CIRCLE
  5
3B
330
22
100
AcDbEntity
  8
0
100
AcDbCircle
 10
11.59973089678112
 20
-9.271599258481501
 30
0.0
 40
3.5
  0
ARC
  5
3C
330
22
100
AcDbEntity
  8
0
100
AcDbCircle
 10
31.59973089678115
 20
-9.271599258481472
 30
0.0
 40
4.5
100
AcDbArc
 50
270.0
 51
231.0575587310182
  0
LINE
  5
3D
330
22
100
AcDbEntity
  8
0
100
AcDbLine
 10
17.59973089678112
 20
-4.771599258481472
 30
0.0
 11
17.59973089678115
 21
-13.77159925848147
 31
0.0
  0
ARC
  5
3E
330
22
100
AcDbEntity
  8
0
100
AcDbCircle
 10
22.59973089678116
 20
-7.271599258481472
 30
0.0
 40
2.5
100
AcDbArc
 50
293.1161887722295
 51
90.0
  0
CIRCLE
  5
3F
330
22
100
AcDbEntity
  8
0
100
AcDbCircle
 10
31.59973089678115
 20
-9.271599258481472
 30
0.0
 40
3.5
  0
ARC
  5
40
330
22
100
AcDbEntity
  8
0
100
AcDbCircle
 10
4.599730896781153
 20
-11.77159925848133
 30
0.0
 40
1.0
100
AcDbArc
 50
180.0
 51
270.0
  0
ARC
  5
41
330
22
100
AcDbEntity
  8
0
100
AcDbCircle
 10
4.599730896781153
 20
-11.77159925848133
 30
0.0
 40
2.0
100
AcDbArc
 50
179.9999999999992
 51
270.0
  0
LINE
  5
42
330
22
100
AcDbEntity
  8
0
100
AcDbLine
 10
11.59973089678115
 20
-13.77159925848144
 30
0.0
 11
4.599730896781153
 21
-13.77159925848147
 31
0.0
  0
LINE
  5
43
330
22
100
AcDbEntity
  8
0
100
AcDbLine
 10
8.771303772034769
 20
-12.77159925848136
 30
0.0
 11
4.599730896781153
 21
-12.77159925848133
 31
0.0
  0
LINE
  5
44
330
22
100
AcDbEntity
  8
0
100
AcDbLine
 10
31.59973089678115
 20
-13.77159925848147
 30
0.0
 11
23.6715276665056
 21
-13.77159925848144
 31
0.0
  0
LINE
  5
45
330
22
100
AcDbEntity
  8
0
100
AcDbLine
 10
23.56565672307022
 20
-9.51278021337896
 30
0.0
 11
24.4388546544846
 21
-12.77159925848144
 31
0.0
  0
LINE
  5
46
330
22
100
AcDbEntity
  8
0
100
AcDbLine
 10
22.59973089678116
 20
-9.771599258481472
 30
0.0
 11
18.59973089678112
 21
-9.771599258481472
 31
0.0
  0
LINE
  5
47
330
22
100
AcDbEntity
  8
0
100
AcDbLine
 10
18.59973089678115
 20
-13.77159925848144
 30
0.0
 11
17.59973089678115
 21
-13.77159925848144
 31
0.0
  0
LINE
  5
48
330
22
100
AcDbEntity
  8
0
100
AcDbLine
 10
18.59973089678115
 20
-9.771599258481472
 30
0.0
 11
18.59973089678115
 21
-13.77159925848144
 31
0.0
  0
LINE
  5
49
330
22
100
AcDbEntity
  8
0
100
AcDbLine
 10
22.59973089678116
 20
-9.771599258481472
 30
0.0
 11
23.67152766650562
 21
-13.77159925848147
 31
0.0
  0
ARC
  5
4A
330
22
100
AcDbEntity
  8
0
100
AcDbCircle
 10
22.59973089678116
 20
-7.271599258481472
 30
0.0
 40
2.5
100
AcDbArc
 50
270.0
 51
270.0000000000007
  0
LINE
  5
4B
330
22
100
AcDbEntity
  8
0
100
AcDbLine
 10
28.77130377203494
 20
-12.77159925848147
 30
0.0
 11
24.43885465448463
 21
-12.77159925848144
 31
0.0
  0
LINE
  5
4C
330
22
100
AcDbEntity
  8
0
100
AcDbLine
 10
3.599730896781125
 20
-4.771599258481472
 30
0.0
 11
2.599730896781125
 21
-4.771599258481472
 31
0.0
  0
LINE
  5
4D
330
22
100
AcDbEntity
  8
0
100
AcDbLine
 10
22.59973089678116
 20
-8.771599258481472
 30
0.0
 11
18.59973089678115
 21
-8.771599258481472
 31
0.0
  0
LINE
  5
4E
330
22
100
AcDbEntity
  8
0
100
AcDbLine
 10
22.59973089678116
 20
-5.771599258481472
 30
0.0
 11
18.59973089678115
 21
-5.771599258481472
 31
0.0
  0
LINE
  5
4F
330
22
100
AcDbEntity
  8
0
100
AcDbLine
 10
22.59973089678116
 20
-4.771599258481472
 30
0.0
 11
17.59973089678115
 21
-4.771599258481472
 31
0.0
  0
LINE
  5
50
330
22
100
AcDbEntity
  8
0
100
AcDbLine
 10
18.59973089678115
 20
-5.771599258481472
 30
0.0
 11
18.59973089678115
 21
-8.771599258481472
 31
0.0
  0
ARC
  5
51
330
22
100
AcDbEntity
  8
0
100
AcDbCircle
 10
22.59973089678116
 20
-7.271599258481472
 30
0.0
 40
1.5
100
AcDbArc
 50
270.0
 51
90.0
  0
ENDBLK
  5
52
330
22
100
AcDbEntity
  8
0
100
AcDbBlockEnd
  0
BLOCK
  5
1DA5
330
1DA4
100
AcDbEntity
  8
0
100
AcDbBlockBegin
  2
*X1
 70
     1
 10
0.0
 20
0.0
 30
0.0
  3
*X1
  1

  0
LINE
  5
1DA6
330
1DA4
100
AcDbEntity
  8
0
 62
     0
100
AcDbLine
 10
137.3657200036454
 20
393.9
 30
0.0
 11
137.4039930109954
 21
393.9
 31
0.0
  0
LINE
  5
1DA7
330
1DA4
100
AcDbEntity
  8
0
 62
     0
100
AcDbLine
 10
137.3241365762884
 20
394.0
 30
0.0
 11
137.4954350265017
 21
394.0
 31
0.0
  0
LINE
  5
1DA8
330
1DA4
100
AcDbEntity
  8
0
 62
     0
100
AcDbLine
 10
137.2863905070698
 20
394.1
 30
0.0
 11
137.5870362149941
 21
394.1
 31
0.0
  0
LINE
  5
1DA9
330
1DA4
100
AcDbEntity
  8
0
 62
     0
100
AcDbLine
 10
137.2523411075647
 20
394.2000000000001
 30
0.0
 11
137.6787969559582
 21
394.2000000000001
 31
0.0
  0
LINE
  5
1DAA
330
1DA4
100
AcDbEntity
  8
0
 62
     0
100
AcDbLine
 10
137.2218673154197
 20
394.3
 30
0.0
 11
137.7707176307512
 21
394.3
 31
0.0
  0
LINE
  5
1DAB
330
1DA4
100
AcDbEntity
  8
0
 62
     0
100
AcDbLine
 10
137.1948652294121
 20
394.4
 30
0.0
 11
137.8627986226145
 21
394.4
 31
0.0
  0
LINE
  5
1DAC
330
1DA4
100
AcDbEntity
  8
0
 62
     0
100
AcDbLine
 10
137.1712461267202
 20
394.5
 30
0.0
 11
137.9550403166865
 21
394.5
 31
0.0
  0
LINE
  5
1DAD
330
1DA4
100
AcDbEntity
  8
0
 62
     0
100
AcDbLine
 10
137.1509348652325
 20
394.6
 30
0.0
 11
138.0474431000157
 21
394.6
 31
0.0
  0
LINE
  5
1DAE
330
1DA4
100
AcDbEntity
  8
0
 62
     0
100
AcDbLine
 10
137.1338685980773
 20
394.7
 30
0.0
 11
138.1400073615735
 21
394.7
 31
0.0
  0
LINE
  5
1DAF
330
1DA4
100
AcDbEntity
  8
0
 62
     0
100
AcDbLine
 10
137.1199957454963
 20
394.8
 30
0.0
 11
138.232733492268
 21
394.8
 31
0.0
  0
LINE
  5
1DB0
330
1DA4
100
AcDbEntity
  8
0
 62
     0
100
AcDbLine
 10
137.1092751826579
 20
394.9
 30
0.0
 11
138.3256218849567
 21
394.9
 31
0.0
  0
LINE
  5
1DB1
330
1DA4
100
AcDbEntity
  8
0
 62
     0
100
AcDbLine
 10
137.1016756123215
 20
395.0
 30
0.0
 11
138.4186729344603
 21
395.0
 31
0.0
  0
LINE
  5
1DB2
330
1DA4
100
AcDbEntity
  8
0
 62
     0
100
AcDbLine
 10
137.0971750993414
 20
395.1
 30
0.0
 11
138.5118870375763
 21
395.1
 31
0.0
  0
LINE
  5
1DB3
330
1DA4
100
AcDbEntity
  8
0
 62
     0
100
AcDbLine
 10
137.0957607505252
 20
395.2
 30
0.0
 11
138.6052645930926
 21
395.2
 31
0.0
  0
LINE
  5
1DB4
330
1DA4
100
AcDbEntity
  8
0
 62
     0
100
AcDbLine
 10
137.0974285287958
 20
395.3
 30
0.0
 11
138.698806001801
 21
395.3
 31
0.0
  0
LINE
  5
1DB5
330
1DA4
100
AcDbEntity
  8
0
 62
     0
100
AcDbLine
 10
137.1021831953575
 20
395.4
 30
0.0
 11
138.792511666512
 21
395.4
 31
0.0
  0
LINE
  5
1DB6
330
1DA4
100
AcDbEntity
  8
0
 62
     0
100
AcDbLine
 10
137.1100383779218
 20
395.5
 30
0.0
 11
138.8863819920678
 21
395.5
 31
0.0
  0
LINE
  5
1DB7
330
1DA4
100
AcDbEntity
  8
0
 62
     0
100
AcDbLine
 10
137.1210167672863
 20
395.6
 30
0.0
 11
138.9804173853574
 21
395.6
 31
0.0
  0
LINE
  5
1DB8
330
1DA4
100
AcDbEntity
  8
0
 62
     0
100
AcDbLine
 10
137.1351504489406
 20
395.7000000000001
 30
0.0
 11
139.0746182553305
 21
395.7000000000001
 31
0.0
  0
LINE
  5
1DB9
330
1DA4
100
AcDbEntity
  8
0
 62
     0
100
AcDbLine
 10
137.1524813811634
 20
395.8
 30
0.0
 11
139.1689850130117
 21
395.8
 31
0.0
  0
LINE
  5
1DBA
330
1DA4
100
AcDbEntity
  8
0
 62
     0
100
AcDbLine
 10
137.1730620365884
 20
395.9000000000001
 30
0.0
 11
139.2635180715158
 21
395.9000000000001
 31
0.0
  0
LINE
  5
1DBB
330
1DA4
100
AcDbEntity
  8
0
 62
     0
100
AcDbLine
 10
137.196956230846
 20
396.0
 30
0.0
 11
139.3582178460619
 21
396.0
 31
0.0
  0
LINE
  5
1DBC
330
1DA4
100
AcDbEntity
  8
0
 62
     0
100
AcDbLine
 10
137.2242401701228
 20
396.1
 30
0.0
 11
139.4530847539885
 21
396.1
 31
0.0
  0
LINE
  5
1DBD
330
1DA4
100
AcDbEntity
  8
0
 62
     0
100
AcDbLine
 10
137.2550037600181
 20
396.2000000000001
 30
0.0
 11
139.5481192147686
 21
396.2000000000001
 31
0.0
  0
LINE
  5
1DBE
330
1DA4
100
AcDbEntity
  8
0
 62
     0
100
AcDbLine
 10
137.2893522318564
 20
396.3
 30
0.0
 11
139.6433216500245
 21
396.3
 31
0.0
  0
LINE
  5
1DBF
330
1DA4
100
AcDbEntity
  8
0
 62
     0
100
AcDbLine
 10
137.3274081610049
 20
396.4
 30
0.0
 11
139.7386924835436
 21
396.4
 31
0.0
  0
LINE
  5
1DC0
330
1DA4
100
AcDbEntity
  8
0
 62
     0
100
AcDbLine
 10
137.3693139767336
 20
396.5
 30
0.0
 11
139.8342321412929
 21
396.5
 31
0.0
  0
LINE
  5
1DC1
330
1DA4
100
AcDbEntity
  8
0
 62
     0
100
AcDbLine
 10
137.4152350977059
 20
396.6
 30
0.0
 11
139.9299410514358
 21
396.6
 31
0.0
  0
LINE
  5
1DC2
330
1DA4
100
AcDbEntity
  8
0
 62
     0
100
AcDbLine
 10
137.4653638758039
 20
396.7
 30
0.0
 11
140.0258196443467
 21
396.7
 31
0.0
  0
LINE
  5
1DC3
330
1DA4
100
AcDbEntity
  8
0
 62
     0
100
AcDbLine
 10
137.5199246006657
 20
396.8
 30
0.0
 11
140.1218683526275
 21
396.8
 31
0.0
  0
LINE
  5
1DC4
330
1DA4
100
AcDbEntity
  8
0
 62
     0
100
AcDbLine
 10
137.5791799191297
 20
396.9
 30
0.0
 11
140.2180876111233
 21
396.9
 31
0.0
  0
LINE
  5
1DC5
330
1DA4
100
AcDbEntity
  8
0
 62
     0
100
AcDbLine
 10
137.6434391758056
 20
397.0
 30
0.0
 11
140.3144778569385
 21
397.0
 31
0.0
  0
LINE
  5
1DC6
330
1DA4
100
AcDbEntity
  8
0
 62
     0
100
AcDbLine
 10
137.7130694133755
 20
397.1
 30
0.0
 11
140.4110395294535
 21
397.1
 31
0.0
  0
LINE
  5
1DC7
330
1DA4
100
AcDbEntity
  8
0
 62
     0
100
AcDbLine
 10
137.7885101359912
 20
397.2
 30
0.0
 11
140.5077730703406
 21
397.2
 31
0.0
  0
LINE
  5
1DC8
330
1DA4
100
AcDbEntity
  8
0
 62
     0
100
AcDbLine
 10
137.8702935290336
 20
397.3
 30
0.0
 11
140.6046789235809
 21
397.3
 31
0.0
  0
LINE
  5
1DC9
330
1DA4
100
AcDbEntity
  8
0
 62
     0
100
AcDbLine
 10
137.9590728156377
 20
397.4000000000001
 30
0.0
 11
140.7017575354811
 21
397.4000000000001
 31
0.0
  0
LINE
  5
1DCA
330
1DA4
100
AcDbEntity
  8
0
 62
     0
100
AcDbLine
 10
138.0556631487676
 20
397.5
 30
0.0
 11
140.7990093546902
 21
397.5
 31
0.0
  0
LINE
  5
1DCB
330
1DA4
100
AcDbEntity
  8
0
 62
     0
100
AcDbLine
 10
138.1611025704244
 20
397.6
 30
0.0
 11
140.896434832217
 21
397.6
 31
0.0
  0
LINE
  5
1DCC
330
1DA4
100
AcDbEntity
  8
0
 62
     0
100
AcDbLine
 10
138.2767466036951
 20
397.7000000000001
 30
0.0
 11
140.9940344214465
 21
397.7000000000001
 31
0.0
  0
LINE
  5
1DCD
330
1DA4
100
AcDbEntity
  8
0
 62
     0
100
AcDbLine
 10
138.4044224660855
 20
397.8
 30
0.0
 11
141.0918085781583
 21
397.8
 31
0.0
  0
LINE
  5
1DCE
330
1DA4
100
AcDbEntity
  8
0
 62
     0
100
AcDbLine
 10
138.5466966707664
 20
397.9
 30
0.0
 11
141.1897577605435
 21
397.9
 31
0.0
  0
LINE
  5
1DCF
330
1DA4
100
AcDbEntity
  8
0
 62
     0
100
AcDbLine
 10
138.707378827545
 20
398.0
 30
0.0
 11
141.2878824292227
 21
398.0
 31
0.0
  0
LINE
  5
1DD0
330
1DA4
100
AcDbEntity
  8
0
 62
     0
100
AcDbLine
 10
138.8925821604941
 20
398.1
 30
0.0
 11
141.3861830472639
 21
398.1
 31
0.0
  0
LINE
  5
1DD1
330
1DA4
100
AcDbEntity
  8
0
 62
     0
100
AcDbLine
 10
139.1133543553141
 20
398.2000000000001
 30
0.0
 11
141.4846600802002
 21
398.2000000000001
 31
0.0
  0
LINE
  5
1DD2
330
1DA4
100
AcDbEntity
  8
0
 62
     0
100
AcDbLine
 10
139.3942585794022
 20
398.3
 30
0.0
 11
141.287839495477
 21
398.3
 31
0.0
  0
LINE
  5
1DD3
330
1DA4
100
AcDbEntity
  8
0
 62
     0
100
AcDbLine
 10
139.8256946832893
 20
398.4
 30
0.0
 11
140.8564033915899
 21
398.4
 31
0.0
  0
LINE
  5
1DD4
330
1DA4
100
AcDbEntity
  8
0
 62
     0
100
AcDbLine
 10
238.0280282574957
 20
306.5
 30
0.0
 11
238.1174552325116
 21
306.5
 31
0.0
  0
LINE
  5
1DD5
330
1DA4
100
AcDbEntity
  8
0
 62
     0
100
AcDbLine
 10
237.9071019057846
 20
306.4
 30
0.0
 11
238.1410708539121
 21
306.4
 31
0.0
  0
LINE
  5
1DD6
330
1DA4
100
AcDbEntity
  8
0
 62
     0
100
AcDbLine
 10
237.7878001505248
 20
306.3
 30
0.0
 11
238.1616286385443
 21
306.3
 31
0.0
  0
LINE
  5
1DD7
330
1DA4
100
AcDbEntity
  8
0
 62
     0
100
AcDbLine
 10
237.670084922095
 20
306.2
 30
0.0
 11
238.1791829551469
 21
306.2
 31
0.0
  0
LINE
  5
1DD8
330
1DA4
100
AcDbEntity
  8
0
 62
     0
100
AcDbLine
 10
237.5539198142703
 20
306.1
 30
0.0
 11
238.1937792126568
 21
306.1
 31
0.0
  0
LINE
  5
1DD9
330
1DA4
100
AcDbEntity
  8
0
 62
     0
100
AcDbLine
 10
237.4392699842303
 20
306.0
 30
0.0
 11
238.2054544730869
 21
306.0
 31
0.0
  0
LINE
  5
1DDA
330
1DA4
100
AcDbEntity
  8
0
 62
     0
100
AcDbLine
 10
237.3261020602019
 20
305.9000000000001
 30
0.0
 11
238.2142379367671
 21
305.9000000000001
 31
0.0
  0
LINE
  5
1DDB
330
1DA4
100
AcDbEntity
  8
0
 62
     0
100
AcDbLine
 10
237.2143840560358
 20
305.8
 30
0.0
 11
238.2201513152462
 21
305.8
 31
0.0
  0
LINE
  5
1DDC
330
1DA4
100
AcDbEntity
  8
0
 62
     0
100
AcDbLine
 10
237.1040852920909
 20
305.7
 30
0.0
 11
238.2232091032182
 21
305.7
 31
0.0
  0
LINE
  5
1DDD
330
1DA4
100
AcDbEntity
  8
0
 62
     0
100
AcDbLine
 10
236.9951763218641
 20
305.6
 30
0.0
 11
238.2234187575349
 21
305.6
 31
0.0
  0
LINE
  5
1DDE
330
1DA4
100
AcDbEntity
  8
0
 62
     0
100
AcDbLine
 10
236.8876288638635
 20
305.5
 30
0.0
 11
238.2207807885158
 21
305.5
 31
0.0
  0
LINE
  5
1DDF
330
1DA4
100
AcDbEntity
  8
0
 62
     0
100
AcDbLine
 10
236.7814157382739
 20
305.4
 30
0.0
 11
238.2152887661776
 21
305.4
 31
0.0
  0
LINE
  5
1DE0
330
1DA4
100
AcDbEntity
  8
0
 62
     0
100
AcDbLine
 10
236.6765108080076
 20
305.3
 30
0.0
 11
238.2069292415616
 21
305.3
 31
0.0
  0
LINE
  5
1DE1
330
1DA4
100
AcDbEntity
  8
0
 62
     0
100
AcDbLine
 10
236.5728889237741
 20
305.2
 30
0.0
 11
238.1956815809013
 21
305.2
 31
0.0
  0
LINE
  5
1DE2
330
1DA4
100
AcDbEntity
  8
0
 62
     0
100
AcDbLine
 10
236.4705258728403
 20
305.1
 30
0.0
 11
238.1815177078166
 21
305.1
 31
0.0
  0
LINE
  5
1DE3
330
1DA4
100
AcDbEntity
  8
0
 62
     0
100
AcDbLine
 10
236.3693983311784
 20
305.0
 30
0.0
 11
238.1644017459128
 21
305.0
 31
0.0
  0
LINE
  5
1DE4
330
1DA4
100
AcDbEntity
  8
0
 62
     0
100
AcDbLine
 10
236.2694838187362
 20
304.9
 30
0.0
 11
238.1442895509445
 21
304.9
 31
0.0
  0
LINE
  5
1DE5
330
1DA4
100
AcDbEntity
  8
0
 62
     0
100
AcDbLine
 10
236.1707606575786
 20
304.8
 30
0.0
 11
238.1211281178745
 21
304.8
 31
0.0
  0
LINE
  5
1DE6
330
1DA4
100
AcDbEntity
  8
0
 62
     0
100
AcDbLine
 10
236.0732079326832
 20
304.7
 30
0.0
 11
238.094854843483
 21
304.7
 31
0.0
  0
LINE
  5
1DE7
330
1DA4
100
AcDbEntity
  8
0
 62
     0
100
AcDbLine
 10
235.9768054551818
 20
304.6
 30
0.0
 11
238.0653966193207
 21
304.6
 31
0.0
  0
LINE
  5
1DE8
330
1DA4
100
AcDbEntity
  8
0
 62
     0
100
AcDbLine
 10
235.8815337278676
 20
304.5
 30
0.0
 11
238.0326687223121
 21
304.5
 31
0.0
  0
LINE
  5
1DE9
330
1DA4
100
AcDbEntity
  8
0
 62
     0
100
AcDbLine
 10
235.787373912797
 20
304.4
 30
0.0
 11
237.9965734605816
 21
304.4
 31
0.0
  0
LINE
  5
1DEA
330
1DA4
100
AcDbEntity
  8
0
 62
     0
100
AcDbLine
 10
235.6943078008337
 20
304.3
 30
0.0
 11
237.956998519227
 21
304.3
 31
0.0
  0
LINE
  5
1DEB
330
1DA4
100
AcDbEntity
  8
0
 62
     0
100
AcDbLine
 10
235.6023177829935
 20
304.2
 30
0.0
 11
237.9138149335366
 21
304.2
 31
0.0
  0
LINE
  5
1DEC
330
1DA4
100
AcDbEntity
  8
0
 62
     0
100
AcDbLine
 10
235.5113868234618
 20
304.1
 30
0.0
 11
237.8668745937218
 21
304.1
 31
0.0
  0
LINE
  5
1DED
330
1DA4
100
AcDbEntity
  8
0
 62
     0
100
AcDbLine
 10
235.4214984341658
 20
304.0
 30
0.0
 11
237.8160071528806
 21
304.0
 31
0.0
  0
LINE
  5
1DEE
330
1DA4
100
AcDbEntity
  8
0
 62
     0
100
AcDbLine
 10
235.3326366507926
 20
303.9000000000001
 30
0.0
 11
237.7610161645091
 21
303.9000000000001
 31
0.0
  0
LINE
  5
1DEF
330
1DA4
100
AcDbEntity
  8
0
 62
     0
100
AcDbLine
 10
235.2447860101545
 20
303.8
 30
0.0
 11
237.7016742110781
 21
303.8
 31
0.0
  0
LINE
  5
1DF0
330
1DA4
100
AcDbEntity
  8
0
 62
     0
100
AcDbLine
 10
235.1579315288098
 20
303.7
 30
0.0
 11
237.6377166909538
 21
303.7
 31
0.0
  0
LINE
  5
1DF1
330
1DA4
100
AcDbEntity
  8
0
 62
     0
100
AcDbLine
 10
235.0720586828543
 20
303.6
 30
0.0
 11
237.5688337910803
 21
303.6
 31
0.0
  0
LINE
  5
1DF2
330
1DA4
100
AcDbEntity
  8
0
 62
     0
100
AcDbLine
 10
234.9871533888072
 20
303.5
 30
0.0
 11
237.4946599604782
 21
303.5
 31
0.0
  0
LINE
  5
1DF3
330
1DA4
100
AcDbEntity
  8
0
 62
     0
100
AcDbLine
 10
234.903201985519
 20
303.4
 30
0.0
 11
237.4147598688872
 21
303.4
 31
0.0
  0
LINE
  5
1DF4
330
1DA4
100
AcDbEntity
  8
0
 62
     0
100
AcDbLine
 10
234.8201912170347
 20
303.3
 30
0.0
 11
237.3286093047922
 21
303.3
 31
0.0
  0
LINE
  5
1DF5
330
1DA4
100
AcDbEntity
  8
0
 62
     0
100
AcDbLine
 10
234.7381082163531
 20
303.2
 30
0.0
 11
237.2355685891673
 21
303.2
 31
0.0
  0
LINE
  5
1DF6
330
1DA4
100
AcDbEntity
  8
0
 62
     0
100
AcDbLine
 10
234.6569404900234
 20
303.1
 30
0.0
 11
237.1348445713782
 21
303.1
 31
0.0
  0
LINE
  5
1DF7
330
1DA4
100
AcDbEntity
  8
0
 62
     0
100
AcDbLine
 10
234.5766759035287
 20
303.0
 30
0.0
 11
237.0254345599132
 21
303.0
 31
0.0
  0
LINE
  5
1DF8
330
1DA4
100
AcDbEntity
  8
0
 62
     0
100
AcDbLine
 10
234.4973026674068
 20
302.9
 30
0.0
 11
236.906040402018
 21
302.9
 31
0.0
  0
LINE
  5
1DF9
330
1DA4
100
AcDbEntity
  8
0
 62
     0
100
AcDbLine
 10
234.4188093240634
 20
302.8
 30
0.0
 11
236.7749305656303
 21
302.8
 31
0.0
  0
LINE
  5
1DFA
330
1DA4
100
AcDbEntity
  8
0
 62
     0
100
AcDbLine
 10
234.3411847352359
 20
302.7
 30
0.0
 11
236.6297055077127
 21
302.7
 31
0.0
  0
LINE
  5
1DFB
330
1DA4
100
AcDbEntity
  8
0
 62
     0
100
AcDbLine
 10
234.2644180700702
 20
302.6
 30
0.0
 11
236.4668673866974
 21
302.6
 31
0.0
  0
LINE
  5
1DFC
330
1DA4
100
AcDbEntity
  8
0
 62
     0
100
AcDbLine
 10
234.1884987937713
 20
302.5
 30
0.0
 11
236.2809469210509
 21
302.5
 31
0.0
  0
LINE
  5
1DFD
330
1DA4
100
AcDbEntity
  8
0
 62
     0
100
AcDbLine
 10
234.1134166567985
 20
302.4
 30
0.0
 11
236.0624546584026
 21
302.4
 31
0.0
  0
LINE
  5
1DFE
330
1DA4
100
AcDbEntity
  8
0
 62
     0
100
AcDbLine
 10
234.0391616845689
 20
302.3
 30
0.0
 11
235.7918234651394
 21
302.3
 31
0.0
  0
LINE
  5
1DFF
330
1DA4
100
AcDbEntity
  8
0
 62
     0
100
AcDbLine
 10
234.0099477709872
 20
302.2
 30
0.0
 11
235.4110297631384
 21
302.2
 31
0.0
  0
ENDBLK
  5
1E00
330
1DA4
100
AcDbEntity
  8
0
100
AcDbBlockEnd
  0
BLOCK
  5
2031
330
2027
100
AcDbEntity
  8
0
100
AcDbBlockBegin
  2
*D2
 70
     1
 10
0.0
 20
0.0
 30
0.0
  3
*D2
  1

  0
LINE
  5
2443
330
2027
100
AcDbEntity
  8
BEM
 62
     0
370
    -2
100
AcDbLine
 10
114.9648035258218
 20
217.5708060147439
 30
0.0
 11
114.9648035258218
 21
187.385810647347
 31
0.0
  0
LINE
  5
2444
330
2027
100
AcDbEntity
  8
BEM
 62
     0
370
    -2
100
AcDbLine
 10
247.9648035258218
 20
217.6799583720137
 30
0.0
 11
247.9648035258218
 21
187.385810647347
 31
0.0
  0
LINE
  5
2445
330
2027
100
AcDbEntity
  8
BEM
 62
     0
370
    -2
100
AcDbLine
 10
121.9648035258218
 20
189.385810647347
 30
0.0
 11
240.9648035258218
 21
189.385810647347
 31
0.0
  0
SOLID
  5
2446
330
2027
100
AcDbEntity
  8
BEM
 62
     0
100
AcDbTrace
 10
121.9648035258218
 20
190.5524773140137
 30
0.0
 11
121.9648035258218
 21
188.2191439806804
 31
0.0
 12
114.9648035258218
 22
189.385810647347
 32
0.0
 13
114.9648035258218
 23
189.385810647347
 33
0.0
  0
SOLID
  5
2447
330
2027
100
AcDbEntity
  8
BEM
 62
     0
100
AcDbTrace
 10
240.9648035258218
 20
190.5524773140137
 30
0.0
 11
240.9648035258218
 21
188.2191439806804
 31
0.0
 12
247.9648035258218
 22
189.385810647347
 32
0.0
 13
247.9648035258218
 23
189.385810647347
 33
0.0
  0
MTEXT
  5
2448
330
2027
100
AcDbEntity
  8
BEM
 62
     1
100
AcDbMText
 10
181.4648035258218
 20
195.885810647347
 30
0.0
 40
7.0
 41
0.0
 71
     5
 72
     1
  1
\A1;%%c133
  7
GREEKS
 73
     1
 44
1.0
  0
POINT
  5
2449
330
2027
100
AcDbEntity
  8
Defpoints
 62
     0
100
AcDbPoint
 10
114.9648035258218
 20
219.5708060147439
 30
0.0
  0
POINT
  5
244A
330
2027
100
AcDbEntity
  8
Defpoints
 62
     0
100
AcDbPoint
 10
247.9648035258218
 20
219.6799583720137
 30
0.0
  0
POINT
  5
244B
330
2027
100
AcDbEntity
  8
Defpoints
 62
     0
100
AcDbPoint
 10
247.9648035258218
 20
189.385810647347
 30
0.0
  0
ENDBLK
  5
2032
330
2027
100
AcDbEntity
  8
0
100
AcDbBlockEnd
  0
BLOCK
  5
2102
330
20F8
100
AcDbEntity
  8
0
100
AcDbBlockBegin
  2
*D3
 70
     1
 10
0.0
 20
0.0
 30
0.0
  3
*D3
  1

  0
LINE
  5
243A
330
20F8
100
AcDbEntity
  8
BEM
 62
     0
370
    -2
100
AcDbLine
 10
350.8190872300222
 20
484.2277342130855
 30
0.0
 11
364.7482956054672
 21
484.9577330912132
 31
0.0
  0
LINE
  5
243B
330
20F8
100
AcDbEntity
  8
BEM
 62
     0
370
    -2
100
AcDbLine
 10
359.6272286657097
 20
316.1583835138907
 30
0.0
 11
373.556437041152
 21
316.8883823920182
 31
0.0
  0
LINE
  5
243C
330
20F8
100
AcDbEntity
  8
BEM
 62
     0
370
    -2
100
AcDbLine
 10
363.1173882296585
 20
477.8626544354453
 30
0.0
 11
371.1928262779423
 21
323.7741172228144
 31
0.0
  0
SOLID
  5
243D
330
20F8
100
AcDbEntity
  8
BEM
 62
     0
100
AcDbTrace
 10
364.2824560202056
 20
477.9237130510621
 30
0.0
 11
361.9523204391115
 21
477.8015958198285
 31
0.0
 12
362.7510365359581
 22
484.8530611787273
 32
0.0
 13
362.7510365359581
 23
484.8530611787273
 33
0.0
  0
SOLID
  5
243E
330
20F8
100
AcDbEntity
  8
BEM
 62
     0
100
AcDbTrace
 10
372.3578940684894
 20
323.8351758384311
 30
0.0
 11
370.0277584873953
 21
323.7130586071976
 31
0.0
 12
371.5591779716429
 22
316.7837104795323
 32
0.0
 13
371.5591779716429
 23
316.7837104795323
 33
0.0
  0
MTEXT
  5
243F
330
20F8
100
AcDbEntity
  8
BEM
 62
     1
100
AcDbMText
 10
373.6461992297051
 20
401.1585695447088
 30
0.0
 40
7.0
 41
0.0
 71
     5
 72
     1
  1
\A1;%%c168.3
  7
GREEKS
 11
0.0523359562429282
 21
-0.9986295347545746
 31
0.0
 73
     1
 44
1.0
  0
POINT
  5
2440
330
20F8
100
AcDbEntity
  8
Defpoints
 62
     0
100
AcDbPoint
 10
348.8218281605131
 20
484.1230623005997
 30
0.0
  0
POINT
  5
2441
330
20F8
100
AcDbEntity
  8
Defpoints
 62
     0
100
AcDbPoint
 10
357.6299695962006
 20
316.0537116014049
 30
0.0
  0
POINT
  5
2442
330
20F8
100
AcDbEntity
  8
Defpoints
 62
     0
100
AcDbPoint
 10
371.5591779716429
 20
316.7837104795323
 30
0.0
  0
ENDBLK
  5
2103
330
20F8
100
AcDbEntity
  8
0
100
AcDbBlockEnd
  0
BLOCK
  5
234C
330
2342
100
AcDbEntity
  8
0
100
AcDbBlockBegin
  2
*D4
 70
     1
 10
0.0
 20
0.0
 30
0.0
  3
*D4
  1

  0
LINE
  5
2431
330
2342
100
AcDbEntity
  8
BEM
 62
     0
370
    -2
100
AcDbLine
 10
95.31480352582162
 20
271.6799583720136
 30
0.0
 11
78.45317558116012
 21
271.6799583720136
 31
0.0
  0
LINE
  5
2432
330
2342
100
AcDbEntity
  8
BEM
 62
     0
370
    -2
100
AcDbLine
 10
113.6551632401711
 20
211.6799583720137
 30
0.0
 11
78.45317558116011
 21
211.6799583720137
 31
0.0
  0
LINE
  5
2433
330
2342
100
AcDbEntity
  8
BEM
 62
     0
370
    -2
100
AcDbLine
 10
80.45317558116012
 20
264.6799583720136
 30
0.0
 11
80.45317558116011
 21
218.6799583720137
 31
0.0
  0
SOLID
  5
2434
330
2342
100
AcDbEntity
  8
BEM
 62
     0
100
AcDbTrace
 10
79.28650891449345
 20
264.6799583720136
 30
0.0
 11
81.61984224782679
 21
264.6799583720136
 31
0.0
 12
80.45317558116012
 22
271.6799583720136
 32
0.0
 13
80.45317558116012
 23
271.6799583720136
 33
0.0
  0
SOLID
  5
2435
330
2342
100
AcDbEntity
  8
BEM
 62
     0
100
AcDbTrace
 10
79.28650891449343
 20
218.6799583720137
 30
0.0
 11
81.61984224782678
 21
218.6799583720137
 31
0.0
 12
80.45317558116011
 22
211.6799583720137
 32
0.0
 13
80.45317558116011
 23
211.6799583720137
 33
0.0
  0
MTEXT
  5
2436
330
2342
100
AcDbEntity
  8
BEM
 62
     1
100
AcDbMText
 10
73.95317558116008
 20
241.6799583720137
 30
0.0
 40
7.0
 41
0.0
 71
     5
 72
     1
  1
\A1;60
 11
0.0000000000000001
 21
1.0
 31
0.0
 73
     1
 44
1.0
  0
POINT
  5
2437
330
2342
100
AcDbEntity
  8
Defpoints
 62
     0
100
AcDbPoint
 10
97.31480352582162
 20
271.6799583720136
 30
0.0
  0
POINT
  5
2438
330
2342
100
AcDbEntity
  8
Defpoints
 62
     0
100
AcDbPoint
 10
115.6551632401711
 20
211.6799583720137
 30
0.0
  0
POINT
  5
2439
330
2342
100
AcDbEntity
  8
Defpoints
 62
     0
100
AcDbPoint
 10
80.45317558116011
 20
211.6799583720137
 30
0.0
  0
ENDBLK
  5
234D
330
2342
100
AcDbEntity
  8
0
100
AcDbBlockEnd
  0
BLOCK
  5
2457
330
244D
100
AcDbEntity
  8
0
100
AcDbBlockBegin
  2
*D5
 70
     1
 10
0.0
 20
0.0
 30
0.0
  3
*D5
  1

  0
LINE
  5
2459
330
244D
100
AcDbEntity
  8
BEM
 62
     0
370
    -2
100
AcDbLine
 10
113.6551632401711
 20
211.6799583720137
 30
0.0
 11
63.12782811766506
 21
211.6799583720137
 31
0.0
  0
LINE
  5
245A
330
244D
100
AcDbEntity
  8
BEM
 62
     0
370
    -2
100
AcDbLine
 10
179.464803525822
 20
391.0867693763528
 30
0.0
 11
63.1278281176651
 21
391.0867693763529
 31
0.0
  0
LINE
  5
245B
330
244D
100
AcDbEntity
  8
BEM
 62
     0
370
    -2
100
AcDbLine
 10
65.12782811766506
 20
218.6799583720137
 30
0.0
 11
65.1278281176651
 21
384.0867693763529
 31
0.0
  0
SOLID
  5
245C
330
244D
100
AcDbEntity
  8
BEM
 62
     0
100
AcDbTrace
 10
63.9611614509984
 20
218.6799583720137
 30
0.0
 11
66.29449478433173
 21
218.6799583720137
 31
0.0
 12
65.12782811766506
 22
211.6799583720137
 32
0.0
 13
65.12782811766506
 23
211.6799583720137
 33
0.0
  0
SOLID
  5
245D
330
244D
100
AcDbEntity
  8
BEM
 62
     0
100
AcDbTrace
 10
63.96116145099844
 20
384.0867693763529
 30
0.0
 11
66.29449478433177
 21
384.0867693763529
 31
0.0
 12
65.1278281176651
 22
391.0867693763529
 32
0.0
 13
65.1278281176651
 23
391.0867693763529
 33
0.0
  0
MTEXT
  5
245E
330
244D
100
AcDbEntity
  8
BEM
 62
     1
100
AcDbMText
 10
58.62782811766503
 20
301.3833638741833
 30
0.0
 40
7.0
 41
0.0
 71
     5
 72
     1
  1
\A1;179
 11
0.0000000000000001
 21
1.0
 31
0.0
 73
     1
 44
1.0
  0
POINT
  5
245F
330
244D
100
AcDbEntity
  8
Defpoints
 62
     0
100
AcDbPoint
 10
115.6551632401711
 20
211.6799583720137
 30
0.0
  0
POINT
  5
2460
330
244D
100
AcDbEntity
  8
Defpoints
 62
     0
100
AcDbPoint
 10
181.464803525822
 20
391.0867693763528
 30
0.0
  0
POINT
  5
2461
330
244D
100
AcDbEntity
  8
Defpoints
 62
     0
100
AcDbPoint
 10
65.1278281176651
 20
391.0867693763529
 30
0.0
  0
ENDBLK
  5
2458
330
244D
100
AcDbEntity
  8
0
100
AcDbBlockEnd
  0
BLOCK
  5
246E
330
2463
100
AcDbEntity
  8
0
100
AcDbBlockBegin
  2
*D6
 70
     1
 10
0.0
 20
0.0
 30
0.0
  3
*D6
  1

  0
LINE
  5
2464
330
2463
100
AcDbEntity
  8
BEM
 62
     0
370
    -2
100
AcDbLine
 10
181.4648035258221
 20
393.0867693763529
 30
0.0
 11
181.4648035258222
 21
521.3395141035184
 31
0.0
  0
ARC
  5
2465
330
2463
100
AcDbEntity
  8
BEM
 62
     0
370
    -2
100
AcDbCircle
 10
181.4648035258221
 20
391.0867693763527
 30
0.0
 40
128.2527447271657
100
AcDbArc
 50
6.127576381439421
 51
86.87242361856066
  0
SOLID
  5
2466
330
2463
100
AcDbEntity
  8
BEM
 62
     0
100
AcDbTrace
 10
310.1477674157911
 20
404.869635393677
 30
0.0
 11
307.821832227707
 21
404.6839745596904
 31
0.0
 12
309.5417823237087
 22
397.7989994124314
 32
0.0
 13
309.5417823237087
 23
397.7989994124314
 33
0.0
  0
SOLID
  5
2467
330
2463
100
AcDbEntity
  8
BEM
 62
     0
100
AcDbTrace
 10
188.4303582868906
 20
517.9822528973878
 30
0.0
 11
188.4940346369294
 21
520.3147172094171
 31
0.0
 12
181.4648035258221
 22
519.3395141035185
 32
0.0
 13
181.4648035258221
 23
519.3395141035185
 33
0.0
  0
MTEXT
  5
2468
330
2463
100
AcDbEntity
  8
BEM
 62
     1
100
AcDbMText
 10
274.2224719460589
 20
488.8329568249999
 30
0.0
 40
7.0
 41
0.0
 71
     5
 72
     1
  1
\A1;87°
 11
0.7253743710122884
 21
-0.6883545756937533
 31
0.0
 73
     1
 44
1.0
  0
POINT
  5
2469
330
2463
100
AcDbEntity
  8
Defpoints
 62
     0
100
AcDbPoint
 10
290.229299518531
 20
459.0503694980616
 30
0.0
  0
POINT
  5
246A
330
2463
100
AcDbEntity
  8
Defpoints
 62
     0
100
AcDbPoint
 10
181.4648035258221
 20
391.0867693763529
 30
0.0
  0
POINT
  5
246B
330
2463
100
AcDbEntity
  8
Defpoints
 62
     0
100
AcDbPoint
 10
181.4648035258223
 20
391.0867693763527
 30
0.0
  0
POINT
  5
246C
330
2463
100
AcDbEntity
  8
Defpoints
 62
     0
100
AcDbPoint
 10
358.2190465521295
 20
400.3500667322168
 30
0.0
  0
POINT
  5
246D
330
2463
100
AcDbEntity
  8
Defpoints
 62
     0
100
AcDbPoint
 10
181.4648035258219
 20
206.6799583720138
 30
0.0
  0
ENDBLK
  5
246F
330
2463
100
AcDbEntity
  8
0
100
AcDbBlockEnd
  0
BLOCK
  5
247B
330
2471
100
AcDbEntity
  8
0
100
AcDbBlockBegin
  2
*D7
 70
     1
 10
0.0
 20
0.0
 30
0.0
  3
*D7
  1

  0
LINE
  5
2472
330
2471
100
AcDbEntity
  8
BEM
 62
     0
370
    -2
100
AcDbLine
 10
181.3601316133363
 20
393.0840284458618
 30
0.0
 11
174.1244796695621
 21
531.1484922098376
 31
0.0
  0
LINE
  5
2473
330
2471
100
AcDbEntity
  8
BEM
 62
     0
370
    -2
100
AcDbLine
 10
348.7171562480271
 20
486.1203213701089
 30
0.0
 11
345.8855750220968
 21
540.1501097844869
 31
0.0
  0
LINE
  5
2474
330
2471
100
AcDbEntity
  8
BEM
 62
     0
370
    -2
100
AcDbLine
 10
181.21955832533
 20
529.517584834029
 30
0.0
 11
338.9998401913008
 21
537.7864990212771
 31
0.0
  0
SOLID
  5
2475
330
2471
100
AcDbEntity
  8
BEM
 62
     0
100
AcDbTrace
 10
181.1584997097133
 20
530.6826526245761
 30
0.0
 11
181.2806169409468
 21
528.3525170434821
 31
0.0
 12
174.229151582048
 22
529.1512331403285
 32
0.0
 13
174.229151582048
 23
529.1512331403285
 33
0.0
  0
SOLID
  5
2476
330
2471
100
AcDbEntity
  8
BEM
 62
     0
100
AcDbTrace
 10
338.938781575684
 20
538.9515668118242
 30
0.0
 11
339.0608988069175
 21
536.6214312307302
 31
0.0
 12
345.9902469345828
 22
538.1528507149778
 32
0.0
 13
345.9902469345828
 23
538.1528507149778
 33
0.0
  0
MTEXT
  5
2477
330
2471
100
AcDbEntity
  8
BEM
 62
     1
100
AcDbMText
 10
259.7695155427363
 20
540.1431339035578
 30
0.0
 40
7.0
 41
0.0
 71
     5
 72
     1
  1
\A1;172
 11
0.9986295347545739
 21
0.0523359562429462
 31
0.0
 73
     1
 44
1.0
  0
POINT
  5
2478
330
2471
100
AcDbEntity
  8
Defpoints
 62
     0
100
AcDbPoint
 10
181.4648035258222
 20
391.0867693763527
 30
0.0
  0
POINT
  5
2479
330
2471
100
AcDbEntity
  8
Defpoints
 62
     0
100
AcDbPoint
 10
348.821828160513
 20
484.1230623005997
 30
0.0
  0
POINT
  5
247A
330
2471
100
AcDbEntity
  8
Defpoints
 62
     0
100
AcDbPoint
 10
345.9902469345828
 20
538.1528507149778
 30
0.0
  0
ENDBLK
  5
247C
330
2471
100
AcDbEntity
  8
0
100
AcDbBlockEnd
  0
ENDSEC
  0
SECTION
  2
ENTITIES
  0
LINE
  5
57
330
1E
100
AcDbEntity
  8
STEMPEL
100
AcDbLine
 10
410.0
 20
110.0
 30
0.0
 11
39.99999999999997
 21
110.0
 31
0.0
  0
LINE
  5
58
330
1E
100
AcDbEntity
  8
STEMPEL
100
AcDbLine
 10
146.0000000000001
 20
109.9999999999999
 30
0.0
 11
146.0
 21
9.999999999999971
 31
0.0
  0
LINE
  5
59
330
1E
100
AcDbEntity
  8
STEMPEL
100
AcDbLine
 10
230.0
 20
110.0
 30
0.0
 11
230.0
 21
9.999999999999971
 31
0.0
  0
LINE
  5
5A
330
1E
100
AcDbEntity
  8
STEMPEL
100
AcDbLine
 10
332.0
 20
109.9999999999997
 30
0.0
 11
332.0
 21
40.0
 31
0.0
  0
LINE
  5
5B
330
1E
100
AcDbEntity
  8
STEMPEL
100
AcDbLine
 10
145.9999999999999
 20
29.99999999999997
 30
0.0
 11
39.99999999999997
 21
29.99999999999997
 31
0.0
  0
LINE
  5
5C
330
1E
100
AcDbEntity
  8
STEMPEL
100
AcDbLine
 10
410.0
 20
40.0
 30
0.0
 11
146.0000000000001
 21
39.99999999999997
 31
0.0
  0
LINE
  5
5D
330
1E
100
AcDbEntity
  8
STEMPEL
100
AcDbLine
 10
410.0
 20
80.0
 30
0.0
 11
146.0000000000001
 21
79.99999999999994
 31
0.0
  0
LINE
  5
5E
330
1E
100
AcDbEntity
  8
VOLL
100
AcDbLine
 10
54.00000000000009
 20
110.0
 30
0.0
 11
53.99999999999997
 21
9.999999999999971
 31
0.0
  0
LINE
  5
5F
330
1E
100
AcDbEntity
  8
VOLL
100
AcDbLine
 10
104.0000000000001
 20
109.9999999999999
 30
0.0
 11
104.0
 21
9.999999999999971
 31
0.0
  0
LINE
  5
60
330
1E
100
AcDbEntity
  8
VOLL
100
AcDbLine
 10
124.0000000000001
 20
109.9999999999999
 30
0.0
 11
124.0
 21
9.999999999999971
 31
0.0
  0
LINE
  5
61
330
1E
100
AcDbEntity
  8
VOLL
100
AcDbLine
 10
164.0000000000001
 20
79.99999999999994
 30
0.0
 11
164.0000000000001
 21
39.99999999999997
 31
0.0
  0
LINE
  5
62
330
1E
100
AcDbEntity
  8
VOLL
100
AcDbLine
 10
190.0000000000001
 20
109.9999999999998
 30
0.0
 11
190.0
 21
39.99999999999997
 31
0.0
  0
LINE
  5
63
330
1E
100
AcDbEntity
  8
HILF
100
AcDbLine
 10
40.00000000000008
 20
100.0
 30
0.0
 11
146.0000000000001
 21
100.0
 31
0.0
  0
LINE
  5
64
330
1E
100
AcDbEntity
  8
HILF
100
AcDbLine
 10
40.00000000000008
 20
90.00000000000005
 30
0.0
 11
146.0000000000001
 21
90.00000000000005
 31
0.0
  0
LINE
  5
65
330
1E
100
AcDbEntity
  8
HILF
100
AcDbLine
 10
40.00000000000008
 20
79.99999999999994
 30
0.0
 11
146.0000000000001
 21
79.99999999999994
 31
0.0
  0
LINE
  5
66
330
1E
100
AcDbEntity
  8
HILF
100
AcDbLine
 10
40.00000000000008
 20
69.99999999999994
 30
0.0
 11
146.0000000000001
 21
69.99999999999994
 31
0.0
  0
LINE
  5
67
330
1E
100
AcDbEntity
  8
HILF
100
AcDbLine
 10
40.00000000000008
 20
59.99999999999997
 30
0.0
 11
146.0000000000001
 21
59.99999999999997
 31
0.0
  0
LINE
  5
68
330
1E
100
AcDbEntity
  8
HILF
100
AcDbLine
 10
40.00000000000008
 20
49.99999999999997
 30
0.0
 11
146.0000000000001
 21
49.99999999999997
 31
0.0
  0
LINE
  5
69
330
1E
100
AcDbEntity
  8
HILF
100
AcDbLine
 10
40.00000000000008
 20
39.99999999999997
 30
0.0
 11
146.0000000000001
 21
39.99999999999997
 31
0.0
  0
LINE
  5
6A
330
1E
100
AcDbEntity
  8
HILF
100
AcDbLine
 10
146.0000000000001
 20
69.99999999999994
 30
0.0
 11
230.0
 21
69.99999999999994
 31
0.0
  0
LINE
  5
6B
330
1E
100
AcDbEntity
  8
HILF
100
AcDbLine
 10
146.0000000000001
 20
59.99999999999997
 30
0.0
 11
230.0
 21
59.99999999999997
 31
0.0
  0
LINE
  5
6C
330
1E
100
AcDbEntity
  8
HILF
100
AcDbLine
 10
146.0000000000001
 20
49.99999999999997
 30
0.0
 11
230.0
 21
49.99999999999997
 31
0.0
  0
LINE
  5
6D
330
1E
100
AcDbEntity
  8
HILF
100
AcDbLine
 10
234.7736801096947
 20
84.03758247564139
 30
0.0
 11
324.8353916556311
 21
84.03758247564139
 31
0.0
  0
LINE
  5
6E
330
1E
100
AcDbEntity
  8
HILF
100
AcDbLine
 10
234.7736801096947
 20
69.99999999999994
 30
0.0
 11
324.835391655631
 21
69.99999999999994
 31
0.0
  0
LINE
  5
6F
330
1E
100
AcDbEntity
  8
HILF
100
AcDbLine
 10
234.7736801096947
 20
59.99999999999997
 30
0.0
 11
324.835391655631
 21
59.99999999999997
 31
0.0
  0
LINE
  5
70
330
1E
100
AcDbEntity
  8
HILF
100
AcDbLine
 10
234.7736801096947
 20
49.99999999999997
 30
0.0
 11
324.835391655631
 21
49.99999999999997
 31
0.0
  0
LINE
  5
71
330
1E
100
AcDbEntity
  8
VOLL
100
AcDbLine
 10
332.0
 20
60.0
 30
0.0
 11
410.0
 21
60.0
 31
0.0
  0
LINE
  5
72
330
1E
100
AcDbEntity
  8
HILF
100
AcDbLine
 10
336.7238616296993
 20
83.77983636955827
 30
0.0
 11
404.8588839326728
 21
83.77983636955827
 31
0.0
  0
LINE
  5
73
330
1E
100
AcDbEntity
  8
HILF
100
AcDbLine
 10
233.4909699289885
 20
14.89398258028314
 30
0.0
 11
404.8588839326728
 21
14.89398258028314
 31
0.0
  0
TEXT
  5
74
330
1E
100
AcDbEntity
  8
TEXT
100
AcDbText
 10
67.79509897490102
 20
18.67381894984132
 30
0.0
 40
4.0
  1
Änderung
 41
0.8
  7
GREEKS
 72
     1
 11
78.53795611775817
 21
18.67381894984132
 31
0.0
100
AcDbText
  0
TEXT
  5
75
330
1E
100
AcDbEntity
  8
TEXT
100
AcDbText
 10
153.5163572150377
 20
102.4620895087088
 30
0.0
 40
5.0
  1
Maßstab
 41
0.8
  7
GREEKS
100
AcDbText
  0
TEXT
  5
76
330
1E
100
AcDbEntity
  8
TEXT
100
AcDbText
 10
194.2858954734051
 20
102.4184168434819
 30
0.0
 40
5.0
  1
Zul. Abw.
 41
0.8
  7
GREEKS
100
AcDbText
  0
TEXT
  5
77
330
1E
100
AcDbEntity
  8
TEXT
100
AcDbText
 10
234.877940380901
 20
102.5489328011779
 30
0.0
 40
5.0
  1
Benennung
 41
0.8
  7
GREEKS
100
AcDbText
  0
TEXT
  5
78
330
1E
100
AcDbEntity
  8
TEXT
100
AcDbText
 10
336.178754957634
 20
102.3132034537136
 30
0.0
 40
5.0
  1
Zeichnungs Nr.
 41
0.8
  7
GREEKS
100
AcDbText
  0
TEXT
  5
79
330
1E
100
AcDbEntity
  8
TEXT
100
AcDbText
 10
234.742238391136
 20
30.84560570193057
 30
0.0
 40
5.0
  1
Bauvorhaben
 41
0.8
  7
GREEKS
100
AcDbText
  0
TEXT
  5
7A
330
1E
100
AcDbEntity
  8
TEXT
100
AcDbText
 10
336.7238616296993
 20
73.1811823709997
 30
0.0
 40
5.0
  1
Ersatz für:
 41
0.8
  7
GREEKS
100
AcDbText
  0
TEXT
  5
7B
330
1E
100
AcDbEntity
  8
TEXT
100
AcDbText
 10
48.26641107045756
 20
13.65465846027192
 30
0.0
 40
4.0
  1
Index
 50
90.0
 41
0.8
  7
GREEKS
100
AcDbText
  0
TEXT
  5
7C
330
1E
100
AcDbEntity
  8
TEXT
100
AcDbText
 10
110.6986119235389
 20
18.6715626933981
 30
0.0
 40
4.0
  1
Tag
 41
0.8
  7
GREEKS
 72
     1
 11
114.4319452568723
 21
18.6715626933981
 31
0.0
100
AcDbText
  0
TEXT
  5
7D
330
1E
100
AcDbEntity
  8
TEXT
100
AcDbText
 10
129.0122744386592
 20
18.59324216966408
 30
0.0
 40
4.0
  1
Name
 41
0.8
  7
GREEKS
 72
     1
 11
135.3360839624688
 21
18.59324216966408
 31
0.0
100
AcDbText
  0
TEXT
  5
7E
330
1E
100
AcDbEntity
  8
TEXT
100
AcDbText
 10
172.331167315365
 20
73.31880501229926
 30
0.0
 40
4.0
  1
Tag
 41
0.8
  7
GREEKS
100
AcDbText
  0
TEXT
  5
7F
330
1E
100
AcDbEntity
  8
TEXT
100
AcDbText
 10
202.4626584226295
 20
73.30961091915225
 30
0.0
 40
4.0
  1
Name
 41
0.8
  7
GREEKS
100
AcDbText
  0
TEXT
  5
80
330
1E
100
AcDbEntity
  8
TEXT
100
AcDbText
 10
147.5836127167615
 20
63.62990369617964
 30
0.0
 40
4.0
  1
Gez.
 41
0.8
  7
GREEKS
100
AcDbText
  0
TEXT
  5
81
330
1E
100
AcDbEntity
  8
TEXT
100
AcDbText
 10
147.5515086571672
 20
53.68926291428377
 30
0.0
 40
4.0
  1
Gepr.
 41
0.8
  7
GREEKS
100
AcDbText
  0
TEXT
  5
82
330
1E
100
AcDbEntity
  8
TEXT
100
AcDbText
 10
147.6006777387303
 20
43.52946389649807
 30
0.0
 40
4.0
  1
Norm.
 41
0.8
  7
GREEKS
100
AcDbText
  0
LINE
  5
83
330
1E
100
AcDbEntity
  8
STEMPEL
100
AcDbLine
 10
49.99999999999989
 20
10.0
 30
0.0
 11
410.0
 21
10.0
 31
0.0
  0
TEXT
  5
84
330
1E
100
AcDbEntity
  8
TEXT
100
AcDbText
 10
337.2400861497006
 20
52.07416177878602
 30
0.0
 40
5.0
  1
ersetzt durch:
 41
0.8
  7
GREEKS
100
AcDbText
  0
LINE
  5
85
330
1E
100
AcDbEntity
  8
STEMPEL
100
AcDbLine
 10
410.0
 20
10.0
 30
0.0
 11
39.99999999999989
 21
10.0
 31
0.0
  0
LINE
  5
86
330
1E
100
AcDbEntity
  8
STEMPEL
100
AcDbLine
 10
410.0
 20
10.0
 30
0.0
 11
410.0
 21
584.0
 31
0.0
  0
LINE
  5
87
330
1E
100
AcDbEntity
  8
STEMPEL
100
AcDbLine
 10
40.0
 20
10.0
 30
0.0
 11
39.99999999999989
 21
584.0
 31
0.0
  0
LINE
  5
88
330
1E
100
AcDbEntity
  8
STEMPEL
100
AcDbLine
 10
410.0
 20
584.0
 30
0.0
 11
39.99999999999989
 21
584.0
 31
0.0
  0
LINE
  5
89
330
1E
100
AcDbEntity
  8
HILF
100
AcDbLine
 10
0.0
 20
0.0
 30
0.0
 11
-0.0000000000001137
 21
594.0
 31
0.0
  0
LINE
  5
8A
330
1E
100
AcDbEntity
  8
HILF
100
AcDbLine
 10
419.9999999999999
 20
594.0000000000002
 30
0.0
 11
0.0
 21
594.0
 31
0.0
  0
LINE
  5
8B
330
1E
100
AcDbEntity
  8
HILF
100
AcDbLine
 10
420.0
 20
0.0
 30
0.0
 11
0.0
 21
0.0
 31
0.0
  0
LINE
  5
8C
330
1E
100
AcDbEntity
  8
HILF
100
AcDbLine
 10
31.08767135713856
 20
297.0
 30
0.0
 11
0.0000000000001137
 21
297.0
 31
0.0
  0
TEXT
  5
8D
330
1E
100
AcDbEntity
  8
TEXT
100
AcDbText
 10
148.622109822104
 20
73.14025471151666
 30
0.0
 40
4.0
  1
2007
 41
0.8
  7
GREEKS
100
AcDbText
  0
LINE
  5
8E
330
1E
100
AcDbEntity
  8
HILF
100
AcDbLine
 10
420.0
 20
-0.0000000000001137
 30
0.0
 11
419.9999999999999
 21
594.0
 31
0.0
  0
TEXT
  5
8F
330
1E
100
AcDbEntity
  8
VOLL
100
AcDbText
 10
78.07675471698113
 20
31.02594776470585
 30
0.0
 40
1.8
  1

  7
GREEKS
100
AcDbText
  0
TEXT
  5
90
330
1E
100
AcDbEntity
  8
TEXT
100
AcDbText
 10
41.85509950977674
 20
111.6719999999999
 30
0.0
 40
5.0
  1
Erstellt mit AUTOCAD 2004
 41
0.8
  7
GREEKS
100
AcDbText
  0
TEXT
  5
91
330
1E
100
AcDbEntity
  8
TEXT
100
AcDbText
 10
204.4216048581257
 20
63.0896391972351
 30
0.0
 40
4.0
  1
Koeh
 41
0.8
  7
GREEKS
 72
     1
 11
209.6787477152686
 21
63.0896391972351
 31
0.0
100
AcDbText
  0
TEXT
  5
92
330
1E
100
AcDbEntity
  8
TEXT
 62
     1
100
AcDbText
 10
347.3097540684081
 20
88.14901428913959
 30
0.0
 40
7.0
  1
58030125W
 41
0.8
  7
GREEKS
 72
     1
 11
370.7764207350748
 21
88.14901428913959
 31
0.0
100
AcDbText
  0
TEXT
  5
93
330
1E
100
AcDbEntity
  8
TEXT
 62
     1
100
AcDbText
 10
160.5006306481887
 20
88.14901428913959
 30
0.0
 40
7.0
  1
1:2
 41
0.8
  7
GREEKS
100
AcDbText
  0
TEXT
  5
94
330
1E
100
AcDbEntity
  8
TEXT
100
AcDbText
 10
170.398997108236
 20
63.10765040825732
 30
0.0
 40
4.0
  1
27.09.
 41
0.8
  7
GREEKS
 72
     1
 11
177.4085209177598
 21
63.10765040825732
 31
0.0
100
AcDbText
  0
TEXT
  5
95
330
1E
100
AcDbEntity
  8
TEXT
 62
     1
100
AcDbText
 10
236.8935731057402
 20
87.41748789253779
 30
0.0
 40
7.0
  1
Verbundrohr DN125
 41
0.8
  7
GREEKS
100
AcDbText
  0
TEXT
  5
98
330
1E
100
AcDbEntity
  8
TEXT
100
AcDbText
 10
235.1296391125315
 20
51.64011943042158
 30
0.0
 40
5.0
  1
EDV-Art.Nr. 58030.125X
 41
0.8
  7
GREEKS
100
AcDbText
  0
TEXT
  5
99
330
1E
100
AcDbEntity
  8
TEXT
100
AcDbText
 10
234.9837501577827
 20
42.62974153022632
 30
0.0
 40
4.0
  1
58030125W.DWG
 41
0.8
  7
GREEKS
100
AcDbText
  0
TEXT
  5
9A
330
1E
100
AcDbEntity
  8
TEXT
100
AcDbText
 10
192.626132208084
 20
90.76363841023022
 30
0.0
 40
4.0
  1
DIN EN1123-2
 41
0.8
  7
GREEKS
 72
     1
 11
209.6166083985602
 21
90.76363841023022
 31
0.0
100
AcDbText
  0
INSERT
  5
9B
330
1E
100
AcDbEntity
  8
STEMPEL
100
AcDbBlockReference
  2
LOGO
 10
150.9955485457794
 20
45.02105276448322
 30
0.0
 41
2.0
 42
2.0
 43
2.0
  0
TEXT
  5
210
330
1E
100
AcDbEntity
  8
TEXT
 62
     1
100
AcDbText
 10
270.1986497875587
 20
231.2847026999482
 30
0.0
 40
7.0
  1
Rohrende leicht eingezogen
 41
0.8
  7
GREEKS
100
AcDbText
  0
TEXT
  5
2C0
330
1E
100
AcDbEntity
  8
BEM
100
AcDbText
 10
417.3022923857165
 20
10.16790107998861
 30
0.0
 40
4.0
  1
Diese Zeichnung ist urheberrechtlich geschützt und bleibt unser Eigentum. Sie darf weder ganz noch teilweise verfielfältigt und nicht an Dritte weitergegeben werden.
 50
90.0
 41
0.8
  7
GREEKS
100
AcDbText
  0
TEXT
  5
77A
330
1E
100
AcDbEntity
  8
TEXT
100
AcDbText
 10
235.1296391125315
 20
71.64011943042154
 30
0.0
 40
5.0
  1
Bogen 87°
 41
0.8
  7
GREEKS
100
AcDbText
  0
TEXT
  5
78C
330
1E
100
AcDbEntity
  8
TEXT
 62
     1
100
AcDbText
 10
255.030129115258
 20
129.7422179729062
 30
0.0
 40
7.0
  1
und innenbeschichtet
 41
0.8
  7
GREEKS
100
AcDbText
  0
TEXT
  5
78D
330
1E
100
AcDbEntity
  8
TEXT
 62
     1
100
AcDbText
 10
203.5978685380308
 20
117.4850225199828
 30
0.0
 40
7.0
  1
Dämmung: 2 K-PU-Schaum
 41
0.8
  7
GREEKS
100
AcDbText
  0
TEXT
  5
78E
330
1E
100
AcDbEntity
  8
TEXT
 62
     1
100
AcDbText
 10
207.3756002392443
 20
141.011271812132
 30
0.0
 40
7.0
  1
Innenrohr: E195 EN10305 feuerverzinkt
 41
0.8
  7
GREEKS
100
AcDbText
  0
TEXT
  5
78F
330
1E
100
AcDbEntity
  8
TEXT
 62
     1
100
AcDbText
 10
203.6033828683802
 20
152.364339848487
 30
0.0
 40
7.0
  1
Außenrohr: P235 TR1 EN10217-1 feuerverzinkt
 41
0.8
  7
GREEKS
100
AcDbText
  0
ARC
  5
1ECF
330
1E
100
AcDbEntity
  8
MITTEL
100
AcDbCircle
 10
271.4648035258219
 20
305.6799583720135
 30
0.0
 40
90.0
100
AcDbArc
 50
92.9999999999991
 51
180.0
  0
LINE
  5
1ED0
102
{ACAD_REACTORS
330
21E6
330
221C
102
}
330
1E
100
AcDbEntity
  8
STEMPEL
100
AcDbLine
 10
254.4185058070334
 20
321.8562909008169
 30
0.0
 11
157.943714462399
 21
413.407449468086
 31
0.0
  0
LINE
  5
1ED1
330
1E
100
AcDbEntity
  8
MITTEL
100
AcDbLine
 10
181.464803525822
 20
391.0867693763528
 30
0.0
 11
181.4648035258219
 21
206.6799583720138
 31
0.0
  0
POINT
  5
1ED5
330
1E
100
AcDbEntity
  8
Defpoints
  6
ByBlock
 62
     0
100
AcDbPoint
 10
181.4648035258219
 20
206.6799583720138
 30
0.0
  0
POINT
  5
1ED6
330
1E
100
AcDbEntity
  8
Defpoints
  6
ByBlock
 62
     0
100
AcDbPoint
 10
181.4648035258219
 20
206.6799583720138
 30
0.0
  0
ARC
  5
1EDB
102
{ACAD_REACTORS
330
21E6
330
22A2
102
}
330
1E
100
AcDbEntity
  8
STEMPEL
100
AcDbCircle
 10
271.4648035258219
 20
305.6799583720135
 30
0.0
 40
156.5
100
AcDbArc
 50
136.5000000000015
 51
180.0
  0
ARC
  5
1EDC
102
{ACAD_REACTORS
330
21E6
330
22A2
102
}
330
1E
100
AcDbEntity
  8
STEMPEL
100
AcDbCircle
 10
271.4648035258219
 20
305.6799583720135
 30
0.0
 40
23.5
100
AcDbArc
 50
136.5000000000015
 51
180.0
  0
LINE
  5
1EDD
330
1E
100
AcDbEntity
  8
MITTEL
100
AcDbLine
 10
181.4648035258223
 20
391.0867693763527
 30
0.0
 11
358.2190465521295
 21
400.3500667322168
 31
0.0
  0
ARC
  5
1EDE
102
{ACAD_REACTORS
330
221C
330
22A2
102
}
330
1E
100
AcDbEntity
  8
STEMPEL
100
AcDbCircle
 10
271.4648035258222
 20
305.6799583720137
 30
0.0
 40
156.5
100
AcDbArc
 50
92.9999999999991
 51
136.5000000000015
  0
POINT
  5
1EED
330
1E
100
AcDbEntity
  8
Defpoints
  6
ByBlock
 62
     0
100
AcDbPoint
 10
355.2231579478646
 20
400.1930588634878
 30
0.0
  0
POINT
  5
1EEE
330
1E
100
AcDbEntity
  8
Defpoints
  6
ByBlock
 62
     0
100
AcDbPoint
 10
355.2231579478646
 20
400.1930588634878
 30
0.0
  0
ARC
  5
1EF9
102
{ACAD_REACTORS
330
221C
330
22A2
102
}
330
1E
100
AcDbEntity
  8
STEMPEL
100
AcDbCircle
 10
271.4648035258222
 20
305.6799583720137
 30
0.0
 40
23.5
100
AcDbArc
 50
92.9999999999991
 51
136.5000000000015
  0
ARC
  5
1EFA
102
{ACAD_REACTORS
330
22A2
102
}
330
1E
100
AcDbEntity
  8
SCHRAFF
100
AcDbCircle
 10
253.2318127971219
 20
322.9824205187909
 30
0.0
 40
3.513188705310844
100
AcDbArc
 50
257.8588139395887
 51
15.14118606040792
  0
ARC
  5
1EFB
102
{ACAD_REACTORS
330
22A2
102
}
330
1E
100
AcDbEntity
  8
SCHRAFF
100
AcDbCircle
 10
158.8623730674989
 20
412.5356750029387
 30
0.0
 40
3.24529088985965
100
AcDbArc
 50
68.91948862385188
 51
204.0805113761506
  0
INSERT
  5
1EFC
330
1E
100
AcDbEntity
  8
SCHRAFF
100
AcDbBlockReference
  2
*X1
 10
18.52132403005896
 20
17.33978530838288
 30
0.0
1001
ACAD
1000
HATCH
1002
{
1070
    16
1000
_U,I
1040
0.1
1040
0.0
1070
     0
1002
}
  0
LINE
  5
2001
102
{ACAD_REACTORS
330
22A2
102
}
330
1E
100
AcDbEntity
  8
STEMPEL
100
AcDbLine
 10
262.6148035258219
 20
285.6799583720138
 30
0.0
 11
260.6148035258219
 21
287.6799583720138
 31
0.0
  0
LINE
  5
2003
102
{ACAD_REACTORS
330
22A2
102
}
330
1E
100
AcDbEntity
  8
STEMPEL
100
AcDbLine
 10
260.6148035258219
 20
287.6799583720138
 30
0.0
 11
247.9648035258218
 21
287.6799583720138
 31
0.0
  0
LINE
  5
2004
330
1E
100
AcDbEntity
  8
STEMPEL
100
AcDbLine
 10
255.321209986373
 20
277.6799583720138
 30
0.0
 11
247.9648035258218
 21
277.6799583720138
 31
0.0
  0
LINE
  5
2005
102
{ACAD_REACTORS
330
224C
102
}
330
1E
100
AcDbEntity
  8
STEMPEL
100
AcDbLine
 10
265.6148035258217
 20
271.6799583720135
 30
0.0
 11
262.714803525822
 21
271.6799583720135
 31
0.0
  0
LINE
  5
2006
102
{ACAD_REACTORS
330
21E6
102
}
330
1E
100
AcDbEntity
  8
STEMPEL
100
AcDbLine
 10
247.964803525822
 20
219.5708060147439
 30
0.0
 11
247.2744438114729
 21
211.6799583720137
 31
0.0
  0
LINE
  5
2007
102
{ACAD_REACTORS
330
21E6
102
}
330
1E
100
AcDbEntity
  8
STEMPEL
100
AcDbLine
 10
245.464803525822
 20
219.6799583720128
 30
0.0
 11
244.7648942176147
 21
211.6799583720137
 31
0.0
  0
LINE
  5
2008
102
{ACAD_REACTORS
330
21E6
330
22A2
102
}
330
1E
100
AcDbEntity
  8
STEMPEL
100
AcDbLine
 10
247.9648035258218
 20
305.6799583720135
 30
0.0
 11
247.9648035258218
 21
219.6799583720137
 31
0.0
  0
LINE
  5
2009
102
{ACAD_REACTORS
330
21E6
102
}
330
1E
100
AcDbEntity
  8
STEMPEL
100
AcDbLine
 10
245.4648035258218
 20
305.6799583720135
 30
0.0
 11
245.4648035258218
 21
219.6799583720137
 31
0.0
  0
LINE
  5
200A
102
{ACAD_REACTORS
330
224C
102
}
330
1E
100
AcDbEntity
  8
STEMPEL
100
AcDbLine
 10
265.614803525822
 20
308.0138717159599
 30
0.0
 11
265.614803525822
 21
269.6799583720125
 31
0.0
  0
LINE
  5
200B
102
{ACAD_REACTORS
330
224C
330
22A2
102
}
330
1E
100
AcDbEntity
  8
STEMPEL
100
AcDbLine
 10
262.714803525822
 20
309.1708543992838
 30
0.0
 11
262.714803525822
 21
271.6799583720135
 31
0.0
  0
LINE
  5
200D
102
{ACAD_REACTORS
330
22A2
102
}
330
1E
100
AcDbEntity
  8
STEMPEL
100
AcDbLine
 10
114.9648035258221
 20
287.6799583720138
 30
0.0
 11
102.314803525822
 21
287.6799583720138
 31
0.0
  0
LINE
  5
200E
330
1E
100
AcDbEntity
  8
STEMPEL
100
AcDbLine
 10
114.9648035258221
 20
277.6799583720138
 30
0.0
 11
107.608397065271
 21
277.6799583720138
 31
0.0
  0
LINE
  5
200F
102
{ACAD_REACTORS
330
21E6
102
}
330
1E
100
AcDbEntity
  8
STEMPEL
100
AcDbLine
 10
117.4648035258219
 20
219.6799583720128
 30
0.0
 11
118.1647128340291
 21
211.6799583720137
 31
0.0
  0
LINE
  5
2010
102
{ACAD_REACTORS
330
21E6
102
}
330
1E
100
AcDbEntity
  8
STEMPEL
100
AcDbLine
 10
114.9648035258218
 20
219.5708060147439
 30
0.0
 11
115.6551632401711
 21
211.6799583720137
 31
0.0
  0
LINE
  5
2011
102
{ACAD_REACTORS
330
224C
102
}
330
1E
100
AcDbEntity
  8
STEMPEL
100
AcDbLine
 10
100.2148035258219
 20
271.6799583720136
 30
0.0
 11
97.31480352582162
 21
271.6799583720136
 31
0.0
  0
LINE
  5
2012
102
{ACAD_REACTORS
330
22A2
102
}
330
1E
100
AcDbEntity
  8
STEMPEL
100
AcDbLine
 10
100.2148035258219
 20
285.5799583720137
 30
0.0
 11
102.314803525822
 21
287.6799583720138
 31
0.0
  0
LINE
  5
2014
102
{ACAD_REACTORS
330
21E6
102
}
330
1E
100
AcDbEntity
  8
STEMPEL
100
AcDbLine
 10
117.4648035258219
 20
305.6799583720135
 30
0.0
 11
117.4648035258219
 21
219.6799583720128
 31
0.0
  0
LINE
  5
2015
102
{ACAD_REACTORS
330
21E6
330
22A2
102
}
330
1E
100
AcDbEntity
  8
STEMPEL
100
AcDbLine
 10
114.9648035258218
 20
305.6799583720135
 30
0.0
 11
114.9648035258218
 21
219.5708060147439
 31
0.0
  0
LINE
  5
2016
102
{ACAD_REACTORS
330
224C
102
}
330
1E
100
AcDbEntity
  8
STEMPEL
100
AcDbLine
 10
97.31480352582185
 20
375.158763303337
 30
0.0
 11
97.31480352582185
 21
269.6799583720137
 31
0.0
  0
LINE
  5
2017
102
{ACAD_REACTORS
330
224C
330
22A2
102
}
330
1E
100
AcDbEntity
  8
STEMPEL
100
AcDbLine
 10
100.2148035258219
 20
374.0017806200134
 30
0.0
 11
100.2148035258219
 21
271.6799583720136
 31
0.0
  0
LINE
  5
2018
102
{ACAD_REACTORS
330
21E6
102
}
330
1E
100
AcDbEntity
  8
STEMPEL
100
AcDbLine
 10
247.2744438114729
 20
211.6799583720137
 30
0.0
 11
115.6551632401711
 21
211.6799583720137
 31
0.0
  0
LINE
  5
2019
330
1E
100
AcDbEntity
  8
HILF
100
AcDbLine
 10
242.9552539319636
 20
219.6799583720137
 30
0.0
 11
119.9743531196802
 21
219.6799583720137
 31
0.0
  0
DIMENSION
  5
201A
330
1E
100
AcDbEntity
  8
BEM
100
AcDbDimension
  2
*D2
 10
247.9648035258218
 20
189.385810647347
 30
0.0
 11
181.4648035258218
 21
195.885810647347
 31
0.0
 70
    32
  1
%%c<>
 71
     5
 42
133.0
  3
Standard
100
AcDbAlignedDimension
 13
114.9648035258218
 23
219.5708060147439
 33
0.0
 14
247.9648035258218
 24
219.6799583720137
 34
0.0
100
AcDbRotatedDimension
1001
ACAD
1000
DSTYLE
1002
{
1070
    40
1040
2.0
1070
    41
1040
3.5
1070
    42
1040
1.0
1070
    43
1040
7.0
1070
    44
1040
1.0
1070
    73
1070
     0
1070
    74
1070
     0
1070
    77
1070
     1
1070
    78
1070
     8
1070
    79
1070
     2
1070
   140
1040
3.5
1070
   141
1040
1.5
1070
   146
1040
0.5142857142857144
1070
   147
1040
1.5
1070
   172
1070
     1
1070
   178
1070
     1
1070
   179
1070
     2
1070
   271
1070
     2
1070
   272
1070
     2
1070
   284
1070
     8
1070
   285
1070
     8
1070
   286
1070
     8
1070
   289
1070
     0
1070
   340
1005
24
1002
}
  0
ARC
  5
2045
102
{ACAD_REACTORS
330
21E6
102
}
330
1E
100
AcDbEntity
  8
STEMPEL
100
AcDbCircle
 10
271.4648035258219
 20
305.6799583720135
 30
0.0
 40
26.0
100
AcDbArc
 50
136.5000000000015
 51
180.0
  0
ARC
  5
2046
102
{ACAD_REACTORS
330
221C
102
}
330
1E
100
AcDbEntity
  8
STEMPEL
100
AcDbCircle
 10
271.4648035258222
 20
305.6799583720137
 30
0.0
 40
26.0
100
AcDbArc
 50
92.9999999999991
 51
136.5000000000015
  0
ARC
  5
2047
102
{ACAD_REACTORS
330
21E6
102
}
330
1E
100
AcDbEntity
  8
STEMPEL
100
AcDbCircle
 10
271.4648035258219
 20
305.6799583720135
 30
0.0
 40
154.0
100
AcDbArc
 50
136.5000000000015
 51
180.0
  0
ARC
  5
2048
102
{ACAD_REACTORS
330
221C
102
}
330
1E
100
AcDbEntity
  8
STEMPEL
100
AcDbCircle
 10
271.4648035258222
 20
305.6799583720137
 30
0.0
 40
154.0
100
AcDbArc
 50
92.9999999999991
 51
136.5000000000015
  0
LINE
  5
20A9
102
{ACAD_REACTORS
330
221C
330
2260
102
}
330
1E
100
AcDbEntity
  8
STEMPEL
100
AcDbLine
 10
357.0337816615786
 20
327.4296550735022
 30
0.0
 11
356.1337638901878
 21
326.9511071357907
 31
0.0
  0
LINE
  5
20AA
102
{ACAD_REACTORS
330
221C
102
}
330
1E
100
AcDbEntity
  8
STEMPEL
100
AcDbLine
 10
356.8894158153628
 20
330.1843195181821
 30
0.0
 11
354.9600849832227
 21
329.1584761179379
 31
0.0
  0
ARC
  5
20AB
102
{ACAD_REACTORS
330
221C
102
}
330
1E
100
AcDbEntity
  8
STEMPEL
100
AcDbCircle
 10
342.0496170066108
 20
353.439534921558
 30
0.0
 40
27.5
100
AcDbArc
 50
273.0
 51
297.9999999999935
  0
ARC
  5
20AC
102
{ACAD_REACTORS
330
221C
330
2260
102
}
330
1E
100
AcDbEntity
  8
STEMPEL
100
AcDbCircle
 10
342.0496170066108
 20
353.439534921558
 30
0.0
 40
30.0
100
AcDbArc
 50
273.0
 51
297.9999999999935
  0
LINE
  5
20AD
102
{ACAD_REACTORS
330
2260
330
22A2
102
}
330
1E
100
AcDbEntity
  8
STEMPEL
100
AcDbLine
 10
341.5001227670229
 20
318.112361952306
 30
0.0
 11
341.2253589967475
 21
323.3551670097675
 31
0.0
  0
LINE
  5
20AE
102
{ACAD_REACTORS
330
221C
330
22A2
102
}
330
1E
100
AcDbEntity
  8
STEMPEL
100
AcDbLine
 10
324.5392442974319
 20
322.4809488957652
 30
0.0
 11
324.5392581005333
 21
322.4806855169041
 31
0.0
  0
LINE
  5
20AF
102
{ACAD_REACTORS
330
221C
330
2260
330
22A2
102
}
330
1E
100
AcDbEntity
  8
STEMPEL
100
AcDbLine
 10
343.6196956938991
 20
323.4806488789209
 30
0.0
 11
324.5392581005333
 21
322.4806855169041
 31
0.0
  0
LINE
  5
20B0
102
{ACAD_REACTORS
330
221C
102
}
330
1E
100
AcDbEntity
  8
STEMPEL
100
AcDbLine
 10
343.4888558032917
 20
325.9772227158074
 30
0.0
 11
324.4084182099257
 21
324.9772593537906
 31
0.0
  0
ARC
  5
20B1
102
{ACAD_REACTORS
330
221C
102
}
330
1E
100
AcDbEntity
  8
STEMPEL
100
AcDbCircle
 10
304.982601620108
 20
307.9372379095915
 30
0.0
 40
20.5
100
AcDbArc
 50
67.77285563409707
 51
93.0
  0
ARC
  5
20B2
102
{ACAD_REACTORS
330
221C
330
22A2
102
}
330
1E
100
AcDbEntity
  8
STEMPEL
100
AcDbCircle
 10
304.982601620108
 20
307.9372379095915
 30
0.0
 40
18.0
100
AcDbArc
 50
67.99284166345767
 51
93.0
  0
ARC
  5
20B3
102
{ACAD_REACTORS
330
221C
330
22A2
102
}
330
1E
100
AcDbEntity
  8
STEMPEL
100
AcDbCircle
 10
289.5857707677903
 20
343.1797286525501
 30
0.0
 40
18.0
100
AcDbArc
 50
238.228055968051
 51
273.0
  0
LINE
  5
20B4
102
{ACAD_REACTORS
330
221C
330
22A2
102
}
330
1E
100
AcDbEntity
  8
STEMPEL
100
AcDbLine
 10
304.0405544077348
 20
325.9125695351741
 30
0.0
 11
290.5278179801633
 21
325.2043970269679
 31
0.0
  0
LINE
  5
20B5
102
{ACAD_REACTORS
330
221C
102
}
330
1E
100
AcDbEntity
  8
STEMPEL
100
AcDbLine
 10
303.9097145171274
 20
328.4091433720606
 30
0.0
 11
290.3969780895561
 21
327.7009708638544
 31
0.0
  0
ARC
  5
20B6
102
{ACAD_REACTORS
330
221C
102
}
330
1E
100
AcDbEntity
  8
STEMPEL
100
AcDbCircle
 10
274.8426629136897
 20
319.3755111522341
 30
0.0
 40
12.5
100
AcDbArc
 50
58.22805596805097
 51
93.0
  0
ARC
  5
20B7
102
{ACAD_REACTORS
330
221C
102
}
330
1E
100
AcDbEntity
  8
STEMPEL
100
AcDbCircle
 10
289.5857707677905
 20
343.1797286525501
 30
0.0
 40
15.5
100
AcDbArc
 50
238.228055968051
 51
273.0
  0
ARC
  5
20B8
102
{ACAD_REACTORS
330
221C
330
22A2
102
}
330
1E
100
AcDbEntity
  8
STEMPEL
100
AcDbCircle
 10
274.8426629136897
 20
319.3755111522341
 30
0.0
 40
10.0
100
AcDbArc
 50
58.22805596805097
 51
93.0
  0
ARC
  5
20B9
102
{ACAD_REACTORS
330
221C
330
22A2
102
}
330
1E
100
AcDbEntity
  8
STEMPEL
100
AcDbCircle
 10
322.969179413245
 20
352.4395715595411
 30
0.0
 40
29.99973625969209
100
AcDbArc
 50
247.9928416634577
 51
273.0
  0
ARC
  5
20BA
102
{ACAD_REACTORS
330
221C
102
}
330
1E
100
AcDbEntity
  8
STEMPEL
100
AcDbCircle
 10
322.969179413245
 20
352.4395715595411
 30
0.0
 40
27.5
100
AcDbArc
 50
248.1568310699678
 51
273.0
  0
LINE
  5
20BB
102
{ACAD_REACTORS
330
221C
102
}
330
1E
100
AcDbEntity
  8
STEMPEL
100
AcDbLine
 10
349.5623819413506
 20
469.9924543838223
 30
0.0
 11
347.5363903511975
 21
470.8110081195658
 31
0.0
  0
LINE
  5
20BC
102
{ACAD_REACTORS
330
221C
330
2260
102
}
330
1E
100
AcDbEntity
  8
STEMPEL
100
AcDbLine
 10
349.4180160951353
 20
472.7471188285024
 30
0.0
 11
348.4729068347376
 21
473.1289677559827
 31
0.0
  0
ARC
  5
20BD
102
{ACAD_REACTORS
330
221C
330
2260
102
}
330
1E
100
AcDbEntity
  8
STEMPEL
100
AcDbCircle
 10
337.2347090322601
 20
445.3134521189788
 30
0.0
 40
30.0
100
AcDbArc
 50
68.00000000000655
 51
93.0
  0
ARC
  5
20BE
102
{ACAD_REACTORS
330
221C
102
}
330
1E
100
AcDbEntity
  8
STEMPEL
100
AcDbCircle
 10
337.2347090322601
 20
445.3134521189788
 30
0.0
 40
27.5
100
AcDbArc
 50
68.00000000000655
 51
93.0
  0
LINE
  5
20BF
102
{ACAD_REACTORS
330
221C
330
22A2
102
}
330
1E
100
AcDbEntity
  8
STEMPEL
100
AcDbLine
 10
316.584206554707
 20
474.2721114207383
 30
0.0
 11
316.5841927516058
 21
474.2723747995992
 31
0.0
  0
LINE
  5
20C0
102
{ACAD_REACTORS
330
221C
102
}
330
1E
100
AcDbEntity
  8
STEMPEL
100
AcDbLine
 10
335.7954702355789
 20
472.7757643247299
 30
0.0
 11
316.7150326422131
 21
471.7758009627129
 31
0.0
  0
LINE
  5
20C1
102
{ACAD_REACTORS
330
221C
330
2260
330
22A2
102
}
330
1E
100
AcDbEntity
  8
STEMPEL
100
AcDbLine
 10
335.6646303449718
 20
475.2723381616162
 30
0.0
 11
316.5841927516058
 21
474.2723747995992
 31
0.0
  0
LINE
  5
20C2
102
{ACAD_REACTORS
330
2260
330
22A2
102
}
330
1E
100
AcDbEntity
  8
STEMPEL
100
AcDbLine
 10
333.2702936478199
 20
475.1468562924626
 30
0.0
 11
332.9955298775447
 21
480.3896613499242
 31
0.0
  0
ARC
  5
20C4
102
{ACAD_REACTORS
330
221C
102
}
330
1E
100
AcDbEntity
  8
STEMPEL
100
AcDbCircle
 10
295.6144654526211
 20
486.6919246306602
 30
0.0
 40
20.5
100
AcDbArc
 50
273.0
 51
298.2271443659088
  0
ARC
  5
20C5
102
{ACAD_REACTORS
330
221C
330
22A2
102
}
330
1E
100
AcDbEntity
  8
STEMPEL
100
AcDbCircle
 10
295.6144654526211
 20
486.6919246306602
 30
0.0
 40
18.0
100
AcDbArc
 50
273.0
 51
298.007158336551
  0
ARC
  5
20C6
102
{ACAD_REACTORS
330
221C
330
22A2
102
}
330
1E
100
AcDbEntity
  8
STEMPEL
100
AcDbCircle
 10
266.8352616085192
 20
472.1658299696841
 30
0.0
 40
10.0
100
AcDbArc
 50
273.0
 51
307.771944031949
  0
ARC
  5
20C7
102
{ACAD_REACTORS
330
221C
102
}
330
1E
100
AcDbEntity
  8
STEMPEL
100
AcDbCircle
 10
283.9858234497956
 20
450.0330888712895
 30
0.0
 40
15.5
100
AcDbArc
 50
93.0
 51
127.771944031949
  0
ARC
  5
20C8
102
{ACAD_REACTORS
330
221C
330
22A2
102
}
330
1E
100
AcDbEntity
  8
STEMPEL
100
AcDbCircle
 10
283.9858234497956
 20
450.0330888712895
 30
0.0
 40
18.0
100
AcDbArc
 50
93.0
 51
127.771944031949
  0
LINE
  5
20C9
102
{ACAD_REACTORS
330
221C
102
}
330
1E
100
AcDbEntity
  8
STEMPEL
100
AcDbLine
 10
296.6873525556014
 20
466.2200191681917
 30
0.0
 11
283.1746161280299
 21
465.5118466599857
 31
0.0
  0
LINE
  5
20CA
102
{ACAD_REACTORS
330
221C
330
22A2
102
}
330
1E
100
AcDbEntity
  8
STEMPEL
100
AcDbLine
 10
296.5565126649938
 20
468.716593005078
 30
0.0
 11
283.0437762374225
 21
468.0084204968721
 31
0.0
  0
ARC
  5
20CB
102
{ACAD_REACTORS
330
221C
102
}
330
1E
100
AcDbEntity
  8
STEMPEL
100
AcDbCircle
 10
266.8352616085192
 20
472.1658299696841
 30
0.0
 40
12.5
100
AcDbArc
 50
273.0
 51
307.771944031949
  0
ARC
  5
20CC
102
{ACAD_REACTORS
330
221C
102
}
330
1E
100
AcDbEntity
  8
STEMPEL
100
AcDbCircle
 10
318.1542714388941
 20
444.3134887569618
 30
0.0
 40
27.5
100
AcDbArc
 50
93.0
 51
117.8431689300322
  0
ARC
  5
20CD
102
{ACAD_REACTORS
330
221C
330
22A2
102
}
330
1E
100
AcDbEntity
  8
STEMPEL
100
AcDbCircle
 10
318.1542714388941
 20
444.3134887569618
 30
0.0
 40
29.99973625969209
100
AcDbArc
 50
93.0
 51
118.0071583365509
  0
LINE
  5
20CE
330
1E
100
AcDbEntity
  8
HILF
100
AcDbLine
 10
301.2390217209916
 20
464.9062787420502
 30
0.0
 11
308.2991258947038
 21
330.19146597385
 31
0.0
  0
LINE
  5
20CF
330
1E
100
AcDbEntity
  8
HILF
100
AcDbLine
 10
271.2984944502538
 20
458.3698322674351
 30
0.0
 11
277.8393712598612
 21
333.5624678057239
 31
0.0
  0
LINE
  5
20D0
330
1E
100
AcDbEntity
  8
HILF
100
AcDbLine
 10
278.6970055101527
 20
462.4539747012665
 30
0.0
 11
285.6242616344298
 21
330.2740537230355
 31
0.0
  0
LINE
  5
20D1
102
{ACAD_REACTORS
330
221C
330
223C
330
2260
102
}
330
1E
100
AcDbEntity
  8
STEMPEL
100
AcDbLine
 10
357.6299695962005
 20
316.0537116014048
 30
0.0
 11
348.821828160513
 21
484.1230623005996
 31
0.0
  0
TEXT
  5
20D3
330
1E
100
AcDbEntity
  8
TEXT
 62
     1
100
AcDbText
 10
315.6897235813915
 20
407.2426507542605
 30
0.0
 40
7.0
  1
DN125
 50
3.000000000000004
 41
0.8
  7
GREEKS
100
AcDbText
  0
LINE
  5
20D4
102
{ACAD_REACTORS
330
221C
330
22A2
102
}
330
1E
100
AcDbEntity
  8
STEMPEL
100
AcDbLine
 10
274.3193033512603
 20
329.36180649978
 30
0.0
 11
270.234908554113
 21
329.1477524387464
 31
0.0
  0
LINE
  5
20D5
102
{ACAD_REACTORS
330
221C
102
}
330
1E
100
AcDbEntity
  8
STEMPEL
100
AcDbLine
 10
274.1884634606529
 20
331.8583803366665
 30
0.0
 11
270.1040686635056
 21
331.6443262756327
 31
0.0
  0
LINE
  5
20D6
102
{ACAD_REACTORS
330
223C
102
}
330
1E
100
AcDbEntity
  8
STEMPEL
100
AcDbLine
 10
357.6299695962005
 20
316.0537116014048
 30
0.0
 11
268.8279233849786
 21
311.3997935636846
 31
0.0
  0
LINE
  5
20D7
102
{ACAD_REACTORS
330
223C
330
2260
330
22A2
102
}
330
1E
100
AcDbEntity
  8
STEMPEL
100
AcDbLine
 10
357.4781953230959
 20
318.9497372521931
 30
0.0
 11
267.5207520331073
 21
314.2352674193845
 31
0.0
  0
LINE
  5
20D8
102
{ACAD_REACTORS
330
221C
102
}
330
1E
100
AcDbEntity
  8
STEMPEL
100
AcDbLine
 10
267.4894610615561
 20
459.6829607852519
 30
0.0
 11
263.4050662644088
 21
459.4689067242183
 31
0.0
  0
LINE
  5
20D9
102
{ACAD_REACTORS
330
221C
330
22A2
102
}
330
1E
100
AcDbEntity
  8
STEMPEL
100
AcDbLine
 10
267.3586211709487
 20
462.1795346221386
 30
0.0
 11
263.2742263738013
 21
461.9654805611049
 31
0.0
  0
LINE
  5
20DA
102
{ACAD_REACTORS
330
223C
102
}
330
1E
100
AcDbEntity
  8
STEMPEL
100
AcDbLine
 10
348.821828160513
 20
484.1230623005996
 30
0.0
 11
192.9669101022423
 21
475.9550521548251
 31
0.0
  0
LINE
  5
20DB
102
{ACAD_REACTORS
330
223C
330
2260
330
22A2
102
}
330
1E
100
AcDbEntity
  8
STEMPEL
100
AcDbLine
 10
348.9736024336178
 20
481.2270366498112
 30
0.0
 11
194.2740814541134
 21
473.119578299125
 31
0.0
  0
DIMENSION
  5
20DD
330
1E
100
AcDbEntity
  8
BEM
100
AcDbDimension
  2
*D3
 10
371.5591779716429
 20
316.7837104795323
 30
0.0
 11
373.6461992297051
 21
401.1585695447088
 31
0.0
 70
    32
  1
%%c<>
 71
     5
 42
168.3
  3
Standard
100
AcDbAlignedDimension
 13
348.821828160513
 23
484.1230623005996
 33
0.0
 14
357.6299695962005
 24
316.0537116014048
 34
0.0
 50
272.9999999999991
100
AcDbRotatedDimension
1001
ACAD
1000
DSTYLE
1002
{
1070
    40
1040
2.0
1070
    41
1040
3.5
1070
    42
1040
1.0
1070
    43
1040
7.0
1070
    44
1040
1.0
1070
    73
1070
     0
1070
    74
1070
     0
1070
    77
1070
     1
1070
    78
1070
     8
1070
    79
1070
     2
1070
   140
1040
3.5
1070
   141
1040
1.5
1070
   146
1040
0.5142857142857144
1070
   147
1040
1.5
1070
   172
1070
     1
1070
   178
1070
     1
1070
   179
1070
     2
1070
   271
1070
     2
1070
   272
1070
     2
1070
   284
1070
     8
1070
   285
1070
     8
1070
   286
1070
     8
1070
   289
1070
     0
1070
   340
1005
24
1002
}
  0
LINE
  5
2163
330
1E
100
AcDbEntity
  8
MITTEL
100
AcDbLine
 10
230.8974167436101
 20
393.6774228592546
 30
0.0
 11
181.4648035258219
 21
341.5863175096483
 31
0.0
  0
LINE
  5
2164
102
{ACAD_REACTORS
330
222C
102
}
330
1E
100
AcDbEntity
  8
STEMPEL
100
AcDbLine
 10
192.9669101022423
 20
475.9550521548251
 30
0.0
 11
97.31480352582185
 21
375.158763303337
 31
0.0
  0
LINE
  5
2165
102
{ACAD_REACTORS
330
222C
102
}
330
1E
100
AcDbEntity
  8
STEMPEL
100
AcDbLine
 10
268.8279233849785
 20
311.3997935636846
 30
0.0
 11
265.614803525822
 21
308.0138717159599
 31
0.0
  0
LINE
  5
2166
102
{ACAD_REACTORS
330
222C
330
22A2
102
}
330
1E
100
AcDbEntity
  8
STEMPEL
100
AcDbLine
 10
194.2740814541134
 20
473.119578299125
 30
0.0
 11
100.2148035258219
 21
374.0017806200134
 31
0.0
  0
LINE
  5
2167
102
{ACAD_REACTORS
330
222C
330
22A2
102
}
330
1E
100
AcDbEntity
  8
STEMPEL
100
AcDbLine
 10
267.5207520331072
 20
314.2352674193845
 30
0.0
 11
262.7148035258219
 21
309.1708543992837
 31
0.0
  0
ARC
  5
21B1
330
1E
100
AcDbEntity
  8
SCHRAFF
100
AcDbCircle
 10
193.9172970532957
 20
473.8935034920175
 30
0.0
 40
3.797852996179932
100
AcDbArc
 50
36.72258335866022
 51
192.7774166413405
  0
LINE
  5
21B2
102
{ACAD_REACTORS
330
222C
330
223C
102
}
330
1E
100
AcDbEntity
  8
STEMPEL
100
AcDbLine
 10
192.9669101022423
 20
475.9550521548251
 30
0.0
 11
194.2740814541135
 21
473.1195782991252
 31
0.0
  0
LINE
  5
21B4
102
{ACAD_REACTORS
330
222C
330
224C
102
}
330
1E
100
AcDbEntity
  8
STEMPEL
100
AcDbLine
 10
97.31480352582185
 20
375.158763303337
 30
0.0
 11
100.2148035258217
 21
374.0017806200132
 31
0.0
  0
LINE
  5
21B5
102
{ACAD_REACTORS
330
222C
330
223C
102
}
330
1E
100
AcDbEntity
  8
STEMPEL
100
AcDbLine
 10
267.5207520331073
 20
314.2352674193846
 30
0.0
 11
268.8279233849786
 21
311.3997935636846
 31
0.0
  0
LINE
  5
21B6
102
{ACAD_REACTORS
330
222C
330
224C
102
}
330
1E
100
AcDbEntity
  8
STEMPEL
100
AcDbLine
 10
262.7148035258219
 20
309.1708543992837
 30
0.0
 11
265.614803525822
 21
308.0138717159599
 31
0.0
  0
ARC
  5
21B8
330
1E
100
AcDbEntity
  8
SCHRAFF
100
AcDbCircle
 10
267.3283961562577
 20
314.652519571535
 30
0.0
 40
6.28066155861307
100
AcDbArc
 50
258.4839076495143
 51
331.0160923504847
  0
ARC
  5
21B9
330
1E
100
AcDbEntity
  8
SCHRAFF
100
AcDbCircle
 10
99.42326631771965
 20
374.317571945179
 30
0.0
 40
3.797852996179932
100
AcDbArc
 50
80.2225833586595
 51
236.2774166413398
  0
ARC
  5
21BA
330
1E
100
AcDbEntity
  8
SCHRAFF
100
AcDbCircle
 10
262.2880560744908
 20
309.3411093687119
 30
0.0
 40
6.28066155861307
100
AcDbArc
 50
301.9839076495153
 51
14.51609235048579
  0
HATCH
  5
21CE
330
1E
100
AcDbEntity
  8
SCHRAFF
100
AcDbHatch
 10
0.0
 20
0.0
 30
0.0
210
0.0
220
0.0
230
1.0
  2
_USER
 70
     0
 71
     0
 91
        5
 92
        7
 72
     1
 73
     1
 93
        3
 10
196.9614282412605
 20
476.164395979797
 42
0.810180257025811
 10
190.2134917994672
 20
473.0535546707759
 42
0.0
 10
192.9669101022423
 20
475.955052154825
 42
0.0
 97
        0
 92
        7
 72
     1
 73
     1
 93
        4
 10
268.8279233849785
 20
311.3997935636846
 42
0.0
 10
268.3682218285969
 20
310.915369200009
 42
-0.0978728768297185
 10
268.5099589333118
 20
308.4840011904551
 42
0.2224848594257432
 10
272.8224415239969
 20
311.6091373886564
 42
0.0
 97
        0
 92
        7
 72
     1
 73
     1
 93
        3
 10
266.0745050822035
 20
308.4982960796355
 42
0.0978728768297176
 10
268.5099589333118
 20
308.4840011904551
 42
0.0978728768297163
 10
268.3682218285968
 20
310.9153692000089
 42
0.0
 97
        0
 92
        7
 72
     1
 73
     1
 93
        4
 10
265.614803525822
 20
304.0138717159597
 42
0.222484859425741
 10
268.5099589333118
 20
308.4840011904551
 42
-0.0978728768297153
 10
266.0745050822036
 20
308.4982960796355
 42
0.0
 10
265.6148035258221
 20
308.01387171596
 42
0.0
 97
        0
 92
        7
 72
     1
 73
     1
 93
        3
 10
100.0682218285968
 20
378.0602607873861
 42
0.8101802570257692
 10
97.31480352582185
 20
371.158763303337
 42
0.0
 10
97.31480352582186
 20
375.158763303337
 42
0.0
 97
        0
 75
     0
 76
     0
 52
0.0
 41
0.1
 77
     0
 78
     1
 53
0.0
 43
6.099813940138119
 44
0.0
 45
0.0
 46
0.1
 79
     0
 47
0.4052573123700863
 98
        5
 10
194.2198225080624
 20
476.4638505358536
 10
270.0565399848751
 20
310.7136092365038
 10
268.0288185949716
 20
309.9030938734174
 10
266.4066425607312
 20
306.6610352201756
 10
97.70036194178693
 20
375.9600364840073
  0
HATCH
  5
21E6
330
1E
100
AcDbEntity
  8
SCHRAFF
100
AcDbHatch
 10
0.0
 20
0.0
 30
0.0
210
0.0
220
0.0
230
1.0
  2
_USER
 70
     0
 71
     1
 91
        2
 92
        7
 72
     1
 73
     1
 93
        8
 10
245.4648035258219
 20
219.67995837201
 42
0.0
 10
244.7648942176147
 20
211.6799583720137
 42
0.0
 10
247.2744438114729
 20
211.6799583720137
 42
0.0
 10
247.9648035258218
 20
219.570806014741
 42
0.0
 10
247.9648035258218
 20
305.6799583720135
 42
-0.1921171724590934
 10
254.4185058070334
 20
321.8562909008169
 42
0.0
 10
252.6050698795026
 20
323.5771773400513
 42
0.1921171724590933
 10
245.4648035258218
 20
305.6799583720135
 42
0.0
 97
        8
330
1EDC
330
1ED0
330
2045
330
2009
330
2007
330
2018
330
2006
330
2008
 92
        7
 72
     1
 73
     1
 93
        8
 10
114.9648035258218
 20
219.5708060147436
 42
0.0
 10
115.6551632401711
 20
211.6799583720137
 42
0.0
 10
118.1647128340291
 20
211.6799583720138
 42
0.0
 10
117.4648035258219
 20
219.6799583720129
 42
0.0
 10
117.4648035258219
 20
305.6799583720135
 42
-0.1921171724590906
 10
159.7571503899297
 20
411.6865630288518
 42
0.0
 10
157.943714462399
 20
413.407449468086
 42
0.1921171724590906
 10
114.9648035258218
 20
305.6799583720135
 42
0.0
 97
        8
330
2047
330
1ED0
330
1EDB
330
2015
330
2010
330
2018
330
200F
330
2014
 75
     0
 76
     0
 52
45.0
 41
2.0
 77
     0
 78
     1
 53
45.0
 43
6.099813940138119
 44
0.0
 45
-1.414213562373094
 46
1.414213562373095
 79
     0
 47
0.5613046681560384
 98
        2
 10
246.3776674126016
 20
267.2055098290164
 10
116.0628817803376
 20
303.6903146476904
  0
HATCH
  5
221C
330
1E
100
AcDbEntity
  8
SCHRAFF
100
AcDbHatch
 10
0.0
 20
0.0
 30
0.0
210
0.0
220
0.0
230
1.0
  2
_USER
 70
     0
 71
     1
 91
        2
 92
        7
 72
     1
 73
     1
 93
       23
 10
263.4050662644088
 20
459.4689067242183
 42
0.0
 10
267.4894610615561
 20
459.6829607852519
 42
0.1528962216020393
 10
274.4917624305176
 20
462.2851419793293
 42
-0.152896221602041
 10
283.1746161280299
 20
465.5118466599857
 42
0.0
 10
296.6873525556014
 20
466.2200191681917
 42
0.1085781327853858
 10
305.1713314209533
 20
468.555874540761
 42
-0.1102736034491091
 10
316.7150326422131
 20
471.7758009627129
 42
0.0
 10
335.7954702355789
 20
472.7757643247299
 42
-0.1095178116832412
 10
347.5363903511975
 20
470.8110081195658
 42
0.0
 10
349.5623819413506
 20
469.9924543838224
 42
0.0
 10
349.418016095135
 20
472.7471188285026
 42
0.0
 10
348.4729068347376
 20
473.1289677559827
 42
0.1095178116832376
 10
335.6646303449724
 20
475.2723381616163
 42
0.0
 10
316.5841927516058
 20
474.2723747995992
 42
0.0
 10
316.584206554707
 20
474.2721114207383
 42
0.1095494205537644
 10
304.0669391403489
 20
470.7999238579989
 42
-0.1095494205537702
 10
296.5565126649939
 20
468.716593005078
 42
0.0
 10
283.0437762374225
 20
468.0084204968721
 42
0.152896221602039
 10
272.960462266118
 20
464.2612795774003
 42
-0.1528962216020414
 10
267.3586211709487
 20
462.1795346221386
 42
0.0
 10
263.2742263738013
 20
461.9654805611049
 42
0.1921171724590906
 10
157.943714462399
 20
413.407449468086
 42
0.0
 10
159.7571503899298
 20
411.6865630288517
 42
-0.1921171724590906
 97
       23
330
20C7
330
20C9
330
20C4
330
20CC
330
20C0
330
20BE
330
20BB
330
20D1
330
20BC
330
20BD
330
20C1
330
20BF
330
20CD
330
20C5
330
20CA
330
20C8
330
20C6
330
20D9
330
1EDE
330
1ED0
330
2048
330
20D8
330
20CB
 92
        7
 72
     1
 73
     1
 93
       23
 10
252.6050698795026
 20
323.5771773400513
 42
0.0
 10
254.4185058070334
 20
321.8562909008169
 42
-0.1921171724590913
 10
270.234908554113
 20
329.1477524387464
 42
0.0
 10
274.3193033512603
 20
329.36180649978
 42
-0.1528962216020414
 10
280.1080585758686
 20
327.8770174023469
 42
0.1528962216020349
 10
290.5278179801633
 20
325.2043970269679
 42
0.0
 10
304.0405544077348
 20
325.9125695351741
 42
-0.1095494205537253
 10
311.7276053535598
 20
324.6257047246024
 42
0.1095494205537915
 10
324.5392442974319
 20
322.4809488957648
 42
0.0
 10
324.5392581005333
 20
322.4806855169041
 42
0.0
 10
343.6196956938991
 20
323.4806488789209
 42
0.1095178116832449
 10
356.1337638901878
 20
326.9511071357907
 42
0.0
 10
357.0337816615785
 20
327.429655073502
 42
0.0
 10
356.8894158153629
 20
330.1843195181822
 42
0.0
 10
354.9600849832227
 20
329.1584761179379
 42
-0.1095178116832528
 10
343.4888558032906
 20
325.9772227158074
 42
0.0
 10
324.4084182099257
 20
324.9772593537906
 42
-0.1102736034490239
 10
312.5913806310803
 20
326.9729013328134
 42
0.1085781327854996
 10
303.9097145171274
 20
328.4091433720606
 42
0.0
 10
290.3969780895561
 20
327.7009708638544
 42
-0.1528962216020401
 10
281.4244074914132
 20
330.0023939648752
 42
0.1528962216020385
 10
274.1884634606529
 20
331.8583803366665
 42
0.0
 10
270.1040686635056
 20
331.6443262756327
 42
0.1921171724590909
 97
       23
330
20D5
330
2046
330
1ED0
330
1EF9
330
20D4
330
20B8
330
20B3
330
20B4
330
20B2
330
20B9
330
20AE
330
20AF
330
20AC
330
20A9
330
20D1
330
20AA
330
20AB
330
20B0
330
20BA
330
20B1
330
20B5
330
20B7
330
20B6
 75
     0
 76
     0
 52
135.0
 41
2.0
 77
     0
 78
     1
 53
135.0
 43
6.099813940138119
 44
0.0
 45
-1.414213562373095
 46
-1.414213562373094
 79
     0
 47
0.5613046681560384
 98
        2
 10
255.3648946582557
 20
459.7330122187474
 10
266.5989280417721
 20
330.0716341722452
  0
HATCH
  5
222C
330
1E
100
AcDbEntity
  8
SCHRAFF
100
AcDbHatch
 10
0.0
 20
0.0
 30
0.0
210
0.0
220
0.0
230
1.0
  2
_USER
 70
     0
 71
     1
 91
        2
 92
        7
 72
     0
 73
     1
 93
        4
 10
194.2740814541135
 20
473.1195782991251
 10
192.9669101022423
 20
475.9550521548251
 10
97.31480352582185
 20
375.158763303337
 10
100.2148035258217
 20
374.0017806200133
 97
        4
330
21B2
330
2164
330
21B4
330
2166
 92
        7
 72
     0
 73
     1
 93
        4
 10
262.7148035258219
 20
309.1708543992837
 10
265.614803525822
 20
308.0138717159599
 10
268.8279233849786
 20
311.3997935636846
 10
267.5207520331073
 20
314.2352674193846
 97
        4
330
21B5
330
2167
330
21B6
330
2165
 75
     0
 76
     0
 52
135.0
 41
2.0
 77
     0
 78
     1
 53
135.0
 43
6.099813940138119
 44
0.0
 45
-1.414213562373095
 46
-1.414213562373094
 79
     0
 47
0.5613046681560384
 98
        2
 10
131.2288259051124
 20
408.0929829577737
 10
266.0372265073065
 20
310.9872747716943
  0
HATCH
  5
223C
330
1E
100
AcDbEntity
  8
SCHRAFF
100
AcDbHatch
 10
0.0
 20
0.0
 30
0.0
210
0.0
220
0.0
230
1.0
  2
_USER
 70
     0
 71
     1
 91
        2
 92
        7
 72
     0
 73
     1
 93
        4
 10
192.9669101022422
 20
475.9550521548251
 10
194.2740814541135
 20
473.1195782991252
 10
348.9736024336175
 20
481.2270366498112
 10
348.8218281605129
 20
484.1230623005995
 97
        4
330
20D1
330
20DA
330
21B2
330
20DB
 92
        7
 72
     0
 73
     1
 93
        4
 10
267.5207520331074
 20
314.2352674193846
 10
268.8279233849787
 20
311.3997935636846
 10
357.6299695962004
 20
316.0537116014048
 10
357.4781953230959
 20
318.9497372521931
 97
        4
330
20D1
330
20D7
330
21B5
330
20D6
 75
     0
 76
     0
 52
45.0
 41
2.0
 77
     0
 78
     1
 53
45.0
 43
6.099813940138119
 44
0.0
 45
-1.414213562373094
 46
1.414213562373095
 79
     0
 47
0.5613046681560384
 98
        2
 10
250.3095781538605
 20
477.6947618311626
 10
287.9435917398732
 20
314.3551027365502
  0
HATCH
  5
224C
330
1E
100
AcDbEntity
  8
SCHRAFF
100
AcDbHatch
 10
0.0
 20
0.0
 30
0.0
210
0.0
220
0.0
230
1.0
  2
_USER
 70
     0
 71
     1
 91
        2
 92
        7
 72
     0
 73
     1
 93
        4
 10
262.714803525822
 20
271.6799583720135
 10
265.6148035258219
 20
271.6799583720135
 10
265.6148035258221
 20
308.0138717159599
 10
262.714803525822
 20
309.1708543992836
 97
        4
330
21B6
330
200B
330
2005
330
200A
 92
        7
 72
     0
 73
     1
 93
        4
 10
97.31480352582186
 20
271.6799583720136
 10
100.2148035258219
 20
271.6799583720137
 10
100.2148035258219
 20
374.0017806200131
 10
97.31480352582185
 20
375.158763303337
 97
        4
330
21B4
330
2016
330
2011
330
2017
 75
     0
 76
     0
 52
45.0
 41
2.0
 77
     0
 78
     1
 53
45.0
 43
6.099813940138119
 44
0.0
 45
-1.414213562373094
 46
1.414213562373095
 79
     0
 47
0.5613046681560384
 98
        2
 10
263.7904203694447
 20
287.4124790177031
 10
98.65013151770108
 20
326.1425006135455
  0
HATCH
  5
2260
330
1E
100
AcDbEntity
  8
SCHRAFF
100
AcDbHatch
 10
0.0
 20
0.0
 30
0.0
210
0.0
220
0.0
230
1.0
  2
NET
 70
     0
 71
     1
 91
        2
 92
        7
 72
     1
 73
     1
 93
        6
 10
348.4729068347376
 20
473.1289677559827
 42
0.0
 10
349.4180160951349
 20
472.7471188285025
 42
0.0
 10
348.9736024336175
 20
481.2270366498112
 42
0.0
 10
332.9955298775447
 20
480.3896613499241
 42
0.0
 10
333.2702936478199
 20
475.1468562924625
 42
0.0
 10
335.6646303449718
 20
475.2723381616162
 42
-0.1095178116832428
 97
        6
330
20DB
330
20C2
330
20C1
330
20BD
330
20BC
330
20D1
 92
        7
 72
     1
 73
     1
 93
        6
 10
357.4781953230959
 20
318.9497372521931
 42
0.0
 10
357.0337816615784
 20
327.429655073502
 42
0.0
 10
356.1337638901878
 20
326.9511071357907
 42
-0.1095178116832526
 10
343.6196956938982
 20
323.4806488789209
 42
0.0
 10
341.2253589967475
 20
323.3551670097674
 42
0.0
 10
341.5001227670229
 20
318.112361952306
 42
0.0
 97
        6
330
20A9
330
20AC
330
20AF
330
20AD
330
20D7
330
20D1
 75
     0
 76
     1
 52
45.0
 41
20.0
 77
     0
 78
     2
 53
45.0
 43
6.099813940138119
 44
0.0
 45
-1.767766952966368
 46
1.767766952966368
 79
     0
 53
135.0
 43
6.099813940138119
 44
0.0
 45
-1.767766952966368
 46
-1.767766952966368
 79
     0
 47
0.5613046681560384
 98
        2
 10
344.6754601919197
 20
477.1334576368706
 10
347.4839678642475
 20
321.0907586662618
  0
HATCH
  5
22A2
330
1E
100
AcDbEntity
  8
SCHRAFF
100
AcDbHatch
 10
0.0
 20
0.0
 30
0.0
210
0.0
220
0.0
230
1.0
  2
HONEY
 70
     0
 71
     1
 91
        2
 92
        7
 72
     1
 73
     1
 93
       18
 10
263.2742263738013
 20
461.9654805611049
 42
0.0
 10
267.3586211709487
 20
462.1795346221386
 42
0.1528962216020439
 10
272.9604622661181
 20
464.2612795774005
 42
-0.1528962216020367
 10
283.0437762374225
 20
468.0084204968721
 42
0.0
 10
296.5565126649938
 20
468.716593005078
 42
0.1095494205537727
 10
304.0669391403489
 20
470.7999238579989
 42
-0.1095494205537637
 10
316.584206554707
 20
474.272111420738
 42
0.0
 10
316.5841927516058
 20
474.2723747995992
 42
0.0
 10
333.2702936478199
 20
475.1468562924625
 42
0.0
 10
332.9955298775447
 20
480.3896613499242
 42
0.0
 10
194.2740814541134
 20
473.119578299125
 42
0.0
 10
100.2148035258219
 20
374.0017806200134
 42
0.0
 10
100.2148035258219
 20
285.5799583720137
 42
0.0
 10
102.314803525822
 20
287.6799583720138
 42
0.0
 10
114.9648035258218
 20
287.6799583720138
 42
0.0
 10
114.9648035258218
 20
305.6799583720135
 42
-0.1871521890499739
 10
155.8995100617816
 20
411.2115315933496
 42
-0.6691953918524293
 10
160.0296375159441
 20
415.5637778194232
 42
-0.1871521890499737
 97
       18
330
20C8
330
20CA
330
20C5
330
20CD
330
20BF
330
20C1
330
20C2
330
20DB
330
2166
330
2017
330
2012
330
200D
330
2015
330
1EDB
330
1EFB
330
1EDE
330
20D9
330
20C6
 92
        7
 72
     1
 73
     1
 93
       18
 10
252.4929141323275
 20
319.5478137520287
 42
0.1591253565994293
 10
247.9648035258218
 20
305.6799583720136
 42
0.0
 10
247.9648035258218
 20
287.6799583720138
 42
0.0
 10
260.6148035258219
 20
287.6799583720138
 42
0.0
 10
262.714803525822
 20
285.5799583720136
 42
0.0
 10
262.714803525822
 20
309.1708543992838
 42
0.0
 10
267.5207520331072
 20
314.2352674193846
 42
0.0
 10
341.5001227670229
 20
318.1123619523059
 42
0.0
 10
341.2253589967474
 20
323.3551670097672
 42
0.0
 10
324.5392581005333
 20
322.4806855169042
 42
0.0
 10
324.5392442974319
 20
322.4809488957652
 42
-0.1095494205537197
 10
311.7276053535676
 20
324.6257047245992
 42
0.1095494205538442
 10
304.0405544077348
 20
325.9125695351741
 42
0.0
 10
290.5278179801633
 20
325.2043970269679
 42
-0.1528962216020403
 10
280.1080585758683
 20
327.877017402347
 42
0.1528962216020362
 10
274.3193033512601
 20
329.36180649978
 42
0.0
 10
270.234908554113
 20
329.1477524387464
 42
0.1591253565994326
 10
256.6230415864899
 20
323.9000599781022
 42
-0.5616465253061293
 97
       18
330
20AF
330
20AE
330
20B9
330
20B2
330
20B4
330
20B3
330
20B8
330
20D4
330
1EF9
330
1EFA
330
1EDC
330
2008
330
2003
330
2001
330
200B
330
2167
330
20D7
330
20AD
 75
     0
 76
     1
 52
0.0
 41
30.0
 77
     0
 78
     3
 53
0.0
 43
6.099813940138119
 44
0.0
 45
5.625
 46
3.247595249999999
 79
     2
 49
3.75
 49
-7.5
 53
120.0
 43
6.099813940138119
 44
0.0
 45
-5.624999987709673
 46
3.247595271287468
 79
     2
 49
3.749999999999999
 49
-7.499999999999999
 53
60.0
 43
6.099813940138119
 44
0.0
 45
0.0000000122903263
 46
6.495190521287468
 79
     2
 49
-7.5
 49
3.75
 47
0.5613046681560384
 98
        2
 10
230.6500217533617
 20
463.6621457774472
 10
260.4202084684457
 20
318.8455404895417
  0
DIMENSION
  5
2341
330
1E
100
AcDbEntity
  8
BEM
100
AcDbDimension
  2
*D4
 10
80.45317558116011
 20
211.6799583720137
 30
0.0
 11
73.95317558116008
 21
241.6799583720137
 31
0.0
 70
    32
 71
     5
 42
59.99999999999992
  3
Standard
100
AcDbAlignedDimension
 13
97.31480352582162
 23
271.6799583720136
 33
0.0
 14
115.6551632401711
 24
211.6799583720137
 34
0.0
 50
90.0
100
AcDbRotatedDimension
1001
ACAD
1000
DSTYLE
1002
{
1070
   279
1070
     1
1070
    40
1040
2.0
1070
    41
1040
3.5
1070
    42
1040
1.0
1070
    43
1040
7.0
1070
    44
1040
1.0
1070
    73
1070
     0
1070
    74
1070
     0
1070
    77
1070
     1
1070
    78
1070
     8
1070
    79
1070
     2
1070
   140
1040
3.5
1070
   141
1040
1.5
1070
   146
1040
0.5142857142857144
1070
   147
1040
1.5
1070
   172
1070
     1
1070
   178
1070
     1
1070
   179
1070
     2
1070
   271
1070
     2
1070
   272
1070
     2
1070
   284
1070
     8
1070
   285
1070
     8
1070
   286
1070
     8
1002
}
  0
HATCH
  5
2418
330
1E
100
AcDbEntity
  8
SCHRAFF
100
AcDbHatch
 10
0.0
 20
0.0
 30
0.0
210
0.0
220
0.0
230
1.0
  2
NET
 70
     0
 71
     0
 91
        2
 92
        7
 72
     0
 73
     1
 93
        9
 10
255.3212099863729
 20
277.6799583720138
 10
257.4648035258223
 20
269.6799583720127
 10
265.6148035258219
 20
269.6799583720126
 10
265.6148035258218
 20
271.6799583720136
 10
262.7148035258218
 20
271.6799583720135
 10
262.7148035258219
 20
285.5799583720139
 10
260.6148035258219
 20
287.6799583720137
 10
247.9648035258218
 20
287.6799583720138
 10
247.9648035258218
 20
277.6799583720138
 97
        0
 92
        7
 72
     0
 73
     1
 93
        9
 10
107.6083970652709
 20
277.6799583720138
 10
114.9648035258217
 20
277.6799583720138
 10
114.9648035258217
 20
287.6799583720138
 10
102.3148035258219
 20
287.6799583720137
 10
100.2148035258218
 20
285.5799583720136
 10
100.2148035258218
 20
271.6799583720136
 10
97.31480352582181
 20
271.6799583720136
 10
97.31480352582185
 20
269.6799583720137
 10
105.4648035258219
 20
269.6799583720136
 97
        0
 75
     0
 76
     1
 52
45.0
 41
20.0
 77
     0
 78
     2
 53
45.0
 43
-43.53519647417818
 44
-41.90565207961333
 45
-1.767766952966368
 46
1.767766952966368
 79
     0
 53
135.0
 43
-43.53519647417818
 44
-41.90565207961333
 45
-1.767766952966368
 46
-1.767766952966368
 79
     0
 47
0.2115359210124944
 98
        2
 10
257.6245670611355
 20
280.0732160608053
 10
106.2851404204101
 20
281.7655035427507
  0
LINE
  5
2419
330
1E
100
AcDbEntity
  8
STEMPEL
100
AcDbLine
 10
265.6148035258219
 20
269.6799583720126
 30
0.0
 11
247.9648035258217
 21
269.6799583720127
 31
0.0
  0
LINE
  5
241A
330
1E
100
AcDbEntity
  8
STEMPEL
100
AcDbLine
 10
257.4648035258222
 20
269.6799583720127
 30
0.0
 11
255.3212099863729
 21
277.6799583720138
 31
0.0
  0
LINE
  5
241B
330
1E
100
AcDbEntity
  8
STEMPEL
100
AcDbLine
 10
114.9648035258217
 20
269.6799583720136
 30
0.0
 11
97.31480352582185
 21
269.6799583720137
 31
0.0
  0
LINE
  5
241C
330
1E
100
AcDbEntity
  8
STEMPEL
100
AcDbLine
 10
105.4648035258219
 20
269.6799583720137
 30
0.0
 11
107.608397065271
 21
277.6799583720138
 31
0.0
  0
DIMENSION
  5
244C
330
1E
100
AcDbEntity
  8
BEM
100
AcDbDimension
  2
*D5
 10
65.1278281176651
 20
391.0867693763529
 30
0.0
 11
58.62782811766503
 21
301.3833638741833
 31
0.0
 70
    32
  1
179
 71
     5
 42
179.4068110043391
  3
Standard
100
AcDbAlignedDimension
 13
115.6551632401711
 23
211.6799583720137
 33
0.0
 14
181.464803525822
 24
391.0867693763528
 34
0.0
 50
90.0
100
AcDbRotatedDimension
1001
ACAD
1000
DSTYLE
1002
{
1070
    40
1040
2.0
1070
    41
1040
3.5
1070
    42
1040
1.0
1070
    43
1040
7.0
1070
    44
1040
1.0
1070
    73
1070
     0
1070
    74
1070
     0
1070
    77
1070
     1
1070
    78
1070
     8
1070
    79
1070
     2
1070
   140
1040
3.5
1070
   141
1040
1.5
1070
   146
1040
0.5142857142857144
1070
   147
1040
1.5
1070
   172
1070
     1
1070
   178
1070
     1
1070
   179
1070
     2
1070
   271
1070
     2
1070
   272
1070
     2
1070
   284
1070
     8
1070
   285
1070
     8
1070
   286
1070
     8
1002
}
  0
DIMENSION
  5
2462
330
1E
100
AcDbEntity
  8
BEM
100
AcDbDimension
  2
*D6
 10
181.4648035258219
 20
206.6799583720138
 30
0.0
 11
274.2224719460589
 21
488.8329568249999
 31
0.0
 70
    34
 71
     5
 42
1.518436449235063
  3
Standard
100
AcDb2LineAngularDimension
 13
181.4648035258223
 23
391.0867693763527
 33
0.0
 14
358.2190465521295
 24
400.3500667322168
 34
0.0
 15
181.464803525822
 25
391.0867693763528
 35
0.0
 16
290.229299518531
 26
459.0503694980616
 36
0.0
1001
ACAD
1000
DSTYLE
1002
{
1070
    40
1040
2.0
1070
    41
1040
3.5
1070
    42
1040
1.0
1070
    43
1040
7.0
1070
    44
1040
1.0
1070
    73
1070
     0
1070
    74
1070
     0
1070
    77
1070
     1
1070
    78
1070
     8
1070
    79
1070
     2
1070
   140
1040
3.5
1070
   141
1040
1.5
1070
   146
1040
0.5142857142857144
1070
   147
1040
1.5
1070
   172
1070
     1
1070
   178
1070
     1
1070
   179
1070
     2
1070
   271
1070
     2
1070
   272
1070
     2
1070
   284
1070
     8
1070
   285
1070
     8
1070
   286
1070
     8
1002
}
  0
DIMENSION
  5
2470
330
1E
100
AcDbEntity
  8
BEM
100
AcDbDimension
  2
*D7
 10
345.9902469345828
 20
538.1528507149778
 30
0.0
 11
259.7695155427363
 21
540.1431339035578
 31
0.0
 70
    32
 71
     5
 42
171.9968110043403
 51
356.9999999999999
  3
Standard
100
AcDbAlignedDimension
 13
181.4648035258223
 23
391.0867693763527
 33
0.0
 14
348.8218281605131
 24
484.1230623005997
 34
0.0
 50
3.000000000000117
100
AcDbRotatedDimension
1001
ACAD
1000
DSTYLE
1002
{
1070
    40
1040
2.0
1070
    41
1040
3.5
1070
    42
1040
1.0
1070
    43
1040
7.0
1070
    44
1040
1.0
1070
    73
1070
     0
1070
    74
1070
     0
1070
    77
1070
     1
1070
    78
1070
     8
1070
    79
1070
     2
1070
   140
1040
3.5
1070
   141
1040
1.5
1070
   146
1040
0.5142857142857144
1070
   147
1040
1.5
1070
   172
1070
     1
1070
   178
1070
     1
1070
   179
1070
     2
1070
   271
1070
     2
1070
   272
1070
     2
1070
   284
1070
     8
1070
   285
1070
     8
1070
   286
1070
     8
1002
}
  0
ENDSEC
  0
SECTION
  2
OBJECTS
  0
DICTIONARY
  5
C
330
0
100
AcDbDictionary
281
     1
  3
ACAD_COLOR
350
DF
  3
ACAD_GROUP
350
D
  3
ACAD_LAYOUT
350
19
  3
ACAD_MATERIAL
350
DE
  3
ACAD_MLINESTYLE
350
16
  3
ACAD_PLOTSETTINGS
350
18
  3
ACAD_PLOTSTYLENAME
350
E
  3
AcDbVariableDictionary
350
25E
  0
DICTIONARY
  5
A0
330
1E
100
AcDbDictionary
280
     1
281
     1
  3
ACAD_LAYOUTSELFREF
360
D4
  0
DICTIONARY
  5
A2
330
1A
100
AcDbDictionary
280
     1
281
     1
  3
ACAD_LAYOUTSELFREF
360
D3
  0
DICTIONARY
  5
DF
102
{ACAD_REACTORS
330
C
102
}
330
C
100
AcDbDictionary
281
     1
  0
DICTIONARY
  5
D
102
{ACAD_REACTORS
330
C
102
}
330
C
100
AcDbDictionary
281
     1
  0
DICTIONARY
  5
19
102
{ACAD_REACTORS
330
C
102
}
330
C
100
AcDbDictionary
281
     1
  3
Layout1
350
1D
  3
Model
350
21
  0
DICTIONARY
  5
DE
102
{ACAD_REACTORS
330
C
102
}
330
C
100
AcDbDictionary
281
     1
  0
DICTIONARY
  5
16
102
{ACAD_REACTORS
330
C
102
}
330
C
100
AcDbDictionary
281
     1
  3
Standard
350
17
  0
DICTIONARY
  5
18
102
{ACAD_REACTORS
330
C
102
}
330
C
100
AcDbDictionary
281
     1
  0
ACDBDICTIONARYWDFLT
  5
E
102
{ACAD_REACTORS
330
C
102
}
330
C
100
AcDbDictionary
281
     1
  3
Normal
350
F
100
AcDbDictionaryWithDefault
340
F
  0
DICTIONARY
  5
25E
102
{ACAD_REACTORS
330
C
102
}
330
C
100
AcDbDictionary
281
     1
  3
DIMASSOC
350
25F
  3
PROJECTNAME
350
260
  0
XRECORD
  5
D4
102
{ACAD_REACTORS
330
A0
102
}
330
A0
100
AcDbXrecord
280
     1
340
1E
  0
XRECORD
  5
D3
102
{ACAD_REACTORS
330
A2
102
}
330
A2
100
AcDbXrecord
280
     1
340
1A
  0
LAYOUT
  5
1D
102
{ACAD_REACTORS
330
19
102
}
330
19
100
AcDbPlotSettings
  1

  2
\\NT_WORK01\HP LaserJet 5000 PCL 6
  4

  6

 40
0.0
 41
0.0
 42
0.0
 43
0.0
 44
0.0
 45
0.0
 46
0.0
 47
0.0
 48
0.0
 49
0.0
140
0.0
141
0.0
142
1.0
143
1.0
 70
   688
 72
     0
 73
     0
 74
     5
  7

 75
    16
147
1.0
 76
     0
 77
     2
 78
   300
148
0.0
149
0.0
100
AcDbLayout
  1
Layout1
 70
     0
 71
     1
 10
0.0
 20
0.0
 11
12.0
 21
9.0
 12
0.0
 22
0.0
 32
0.0
 14
1.000000000000000E+20
 24
1.000000000000000E+20
 34
1.000000000000000E+20
 15
-1.000000000000000E+20
 25
-1.000000000000000E+20
 35
-1.000000000000000E+20
146
0.0
 13
0.0
 23
0.0
 33
0.0
 16
1.0
 26
0.0
 36
0.0
 17
0.0
 27
1.0
 37
0.0
 76
     0
330
1A
  0
LAYOUT
  5
21
102
{ACAD_REACTORS
330
19
102
}
330
19
100
AcDbPlotSettings
  1

  2
RICOH Aficio 2027 PCL 6
  4
A4
  6

 40
5.027083
 41
5.027084999999999
 42
5.027084
 43
5.027069
 44
209.973328
 45
296.925995
 46
0.0
 47
2.06
 48
0.0
 49
0.0
140
0.0
141
0.0
142
1.0
143
2.100849152723284
 70
 11956
 72
     1
 73
     0
 74
     2
  7
monochrome1.ctb
 75
     0
147
0.4759980023809526
 76
     1
 77
     2
 78
   300
148
0.0
149
0.0
100
AcDbLayout
  1
Model
 70
     1
 71
     0
 10
0.0
 20
0.0
 11
12.0
 21
9.0
 12
0.0
 22
0.0
 32
0.0
 14
0.0
 24
0.0
 34
0.0
 15
0.0
 25
0.0
 35
0.0
146
0.0
 13
0.0
 23
0.0
 33
0.0
 16
1.0
 26
0.0
 36
0.0
 17
0.0
 27
1.0
 37
0.0
 76
     0
330
1E
  0
MLINESTYLE
  5
17
102
{ACAD_REACTORS
330
16
102
}
330
16
100
AcDbMlineStyle
  2
STANDARD
 70
     0
  3

 62
   256
 51
90.0
 52
90.0
 71
     2
 49
0.5
 62
   256
  6
BYLAYER
 49
-0.5
 62
   256
  6
BYLAYER
  0
ACDBPLACEHOLDER
  5
F
102
{ACAD_REACTORS
330
E
102
}
330
E
  0
DICTIONARYVAR
  5
25F
102
{ACAD_REACTORS
330
25E
102
}
330
25E
100
DictionaryVariables
280
     0
  1
1
  0
DICTIONARYVAR
  5
260
102
{ACAD_REACTORS
330
25E
102
}
330
25E
100
DictionaryVariables
280
     0
  1

  0
ENDSEC
  0
EOF
