  0
SECTION
  2
HEADER
  9
$ACADVER
  1
AC1018
  9
$ACADMAINTVER
 70
     2
  9
$DWGCODEPAGE
  3
ANSI_1252
  9
$INSBASE
 10
0.0
 20
0.0
 30
0.0
  9
$EXTMIN
 10
-0.0320267333095217
 20
-0.0452949513949079
 30
-0.0000000000000129
  9
$EXTMAX
 10
420.0288470811428
 20
594.0407980147604
 30
0.0000000000000023
  9
$LIMMIN
 10
0.0
 20
0.0
  9
$LIMMAX
 10
419.9999999999999
 20
594.0000000000002
  9
$ORTHOMODE
 70
     0
  9
$REGENMODE
 70
     1
  9
$FILLMODE
 70
     1
  9
$QTEXTMODE
 70
     0
  9
$MIRRTEXT
 70
     1
  9
$LTSCALE
 40
20.0
  9
$ATTMODE
 70
     1
  9
$TEXTSIZE
 40
3.5
  9
$TRACEWID
 40
0.5
  9
$TEXTSTYLE
  7
STANDARD
  9
$CLAYER
  8
BEM
  9
$CELTYPE
  6
ByLayer
  9
$CECOLOR
 62
   256
  9
$CELTSCALE
 40
1.0
  9
$DISPSILH
 70
     0
  9
$DIMSCALE
 40
2.0
  9
$DIMASZ
 40
3.5
  9
$DIMEXO
 40
1.0
  9
$DIMDLI
 40
7.0
  9
$DIMRND
 40
0.0
  9
$DIMDLE
 40
0.0
  9
$DIMEXE
 40
1.0
  9
$DIMTP
 40
0.0
  9
$DIMTM
 40
0.0
  9
$DIMTXT
 40
3.5
  9
$DIMCEN
 40
1.5
  9
$DIMTSZ
 40
0.0
  9
$DIMTOL
 70
     0
  9
$DIMLIM
 70
     0
  9
$DIMTIH
 70
     0
  9
$DIMTOH
 70
     0
  9
$DIMSE1
 70
     0
  9
$DIMSE2
 70
     0
  9
$DIMTAD
 70
     1
  9
$DIMZIN
 70
     8
  9
$DIMBLK
  1

  9
$DIMASO
 70
     1
  9
$DIMSHO
 70
     0
  9
$DIMPOST
  1

  9
$DIMAPOST
  1

  9
$DIMALT
 70
     0
  9
$DIMALTD
 70
     2
  9
$DIMALTF
 40
25.4
  9
$DIMLFAC
 40
1.0
  9
$DIMTOFL
 70
     1
  9
$DIMTVP
 40
0.0
  9
$DIMTIX
 70
     0
  9
$DIMSOXD
 70
     0
  9
$DIMSAH
 70
     0
  9
$DIMBLK1
  1

  9
$DIMBLK2
  1

  9
$DIMSTYLE
  2
Standard
  9
$DIMCLRD
 70
     0
  9
$DIMCLRE
 70
     0
  9
$DIMCLRT
 70
     1
  9
$DIMTFAC
 40
0.5142857142857144
  9
$DIMGAP
 40
1.5
  9
$DIMJUST
 70
     0
  9
$DIMSD1
 70
     0
  9
$DIMSD2
 70
     0
  9
$DIMTOLJ
 70
     1
  9
$DIMTZIN
 70
     8
  9
$DIMALTZ
 70
     8
  9
$DIMALTTZ
 70
     8
  9
$DIMUPT
 70
     0
  9
$DIMDEC
 70
     2
  9
$DIMTDEC
 70
     2
  9
$DIMALTU
 70
     2
  9
$DIMALTTD
 70
     2
  9
$DIMTXSTY
  7
STANDARD
  9
$DIMAUNIT
 70
     0
  9
$DIMADEC
 70
     2
  9
$DIMALTRND
 40
0.0
  9
$DIMAZIN
 70
     2
  9
$DIMDSEP
 70
    46
  9
$DIMATFIT
 70
     3
  9
$DIMFRAC
 70
     0
  9
$DIMLDRBLK
  1

  9
$DIMLUNIT
 70
     2
  9
$DIMLWD
 70
    -2
  9
$DIMLWE
 70
    -2
  9
$DIMTMOVE
 70
     0
  9
$LUNITS
 70
     2
  9
$LUPREC
 70
     2
  9
$SKETCHINC
 40
1.0
  9
$FILLETRAD
 40
67.5
  9
$AUNITS
 70
     0
  9
$AUPREC
 70
     0
  9
$MENU
  1
ACAD
  9
$ELEVATION
 40
0.0
  9
$PELEVATION
 40
0.0
  9
$THICKNESS
 40
0.0
  9
$LIMCHECK
 70
     0
  9
$CHAMFERA
 40
0.0
  9
$CHAMFERB
 40
0.0
  9
$CHAMFERC
 40
0.0
  9
$CHAMFERD
 40
0.0
  9
$SKPOLY
 70
     0
  9
$TDCREATE
 40
2455397.823042361
  9
$TDUCREATE
 40
2455397.781375695
  9
$TDUPDATE
 40
2455532.529426100
  9
$TDUUPDATE
 40
2455532.487759433
  9
$TDINDWG
 40
0.3741890741
  9
$TDUSRTIMER
 40
0.3741890741
  9
$USRTIMER
 70
     1
  9
$ANGBASE
 50
0.0
  9
$ANGDIR
 70
     0
  9
$PDMODE
 70
     0
  9
$PDSIZE
 40
0.0
  9
$PLINEWID
 40
0.0
  9
$SPLFRAME
 70
     0
  9
$SPLINETYPE
 70
     6
  9
$SPLINESEGS
 70
     8
  9
$HANDSEED
  5
1E37
  9
$SURFTAB1
 70
     6
  9
$SURFTAB2
 70
     6
  9
$SURFTYPE
 70
     6
  9
$SURFU
 70
     6
  9
$SURFV
 70
     6
  9
$UCSBASE
  2

  9
$UCSNAME
  2

  9
$UCSORG
 10
0.0
 20
0.0
 30
0.0
  9
$UCSXDIR
 10
1.0
 20
0.0
 30
0.0
  9
$UCSYDIR
 10
0.0
 20
1.0
 30
0.0
  9
$UCSORTHOREF
  2

  9
$UCSORTHOVIEW
 70
     0
  9
$UCSORGTOP
 10
0.0
 20
0.0
 30
0.0
  9
$UCSORGBOTTOM
 10
0.0
 20
0.0
 30
0.0
  9
$UCSORGLEFT
 10
0.0
 20
0.0
 30
0.0
  9
$UCSORGRIGHT
 10
0.0
 20
0.0
 30
0.0
  9
$UCSORGFRONT
 10
0.0
 20
0.0
 30
0.0
  9
$UCSORGBACK
 10
0.0
 20
0.0
 30
0.0
  9
$PUCSBASE
  2

  9
$PUCSNAME
  2

  9
$PUCSORG
 10
0.0
 20
0.0
 30
0.0
  9
$PUCSXDIR
 10
1.0
 20
0.0
 30
0.0
  9
$PUCSYDIR
 10
0.0
 20
1.0
 30
0.0
  9
$PUCSORTHOREF
  2

  9
$PUCSORTHOVIEW
 70
     0
  9
$PUCSORGTOP
 10
0.0
 20
0.0
 30
0.0
  9
$PUCSORGBOTTOM
 10
0.0
 20
0.0
 30
0.0
  9
$PUCSORGLEFT
 10
0.0
 20
0.0
 30
0.0
  9
$PUCSORGRIGHT
 10
0.0
 20
0.0
 30
0.0
  9
$PUCSORGFRONT
 10
0.0
 20
0.0
 30
0.0
  9
$PUCSORGBACK
 10
0.0
 20
0.0
 30
0.0
  9
$USERI1
 70
     0
  9
$USERI2
 70
     0
  9
$USERI3
 70
     0
  9
$USERI4
 70
     0
  9
$USERI5
 70
     0
  9
$USERR1
 40
0.0
  9
$USERR2
 40
0.0
  9
$USERR3
 40
0.0
  9
$USERR4
 40
0.0
  9
$USERR5
 40
0.0
  9
$WORLDVIEW
 70
     1
  9
$SHADEDGE
 70
     3
  9
$SHADEDIF
 70
    70
  9
$TILEMODE
 70
     1
  9
$MAXACTVP
 70
    16
  9
$PINSBASE
 10
0.0
 20
0.0
 30
0.0
  9
$PLIMCHECK
 70
     0
  9
$PEXTMIN
 10
1.000000000000000E+20
 20
1.000000000000000E+20
 30
1.000000000000000E+20
  9
$PEXTMAX
 10
-1.000000000000000E+20
 20
-1.000000000000000E+20
 30
-1.000000000000000E+20
  9
$PLIMMIN
 10
0.0
 20
0.0
  9
$PLIMMAX
 10
12.0
 20
9.0
  9
$UNITMODE
 70
     0
  9
$VISRETAIN
 70
     0
  9
$PLINEGEN
 70
     0
  9
$PSLTSCALE
 70
     0
  9
$TREEDEPTH
 70
  3020
  9
$CMLSTYLE
  2
Standard
  9
$CMLJUST
 70
     0
  9
$CMLSCALE
 40
1.0
  9
$PROXYGRAPHICS
 70
     1
  9
$MEASUREMENT
 70
     0
  9
$CELWEIGHT
370
    -1
  9
$ENDCAPS
280
     0
  9
$JOINSTYLE
280
     0
  9
$LWDISPLAY
290
     0
  9
$INSUNITS
 70
     0
  9
$HYPERLINKBASE
  1

  9
$STYLESHEET
  1
monochrome 1.ctb
  9
$XEDIT
290
     1
  9
$CEPSNTYPE
380
     0
  9
$PSTYLEMODE
290
     1
  9
$FINGERPRINTGUID
  2
{D68B0D02-A558-11D7-B632-000102183313}
  9
$VERSIONGUID
  2
{A2F2BCA8-7629-43E6-8BC7-61A3365F7126}
  9
$EXTNAMES
290
     1
  9
$PSVPSCALE
 40
0.0
  9
$OLESTARTUP
290
     0
  9
$SORTENTS
280
   127
  9
$INDEXCTL
280
     0
  9
$HIDETEXT
280
     0
  9
$XCLIPFRAME
290
     0
  9
$HALOGAP
280
     0
  9
$OBSCOLOR
 70
   257
  9
$OBSLTYPE
280
     0
  9
$INTERSECTIONDISPLAY
280
     0
  9
$INTERSECTIONCOLOR
 70
   257
  9
$DIMASSOC
280
     1
  9
$PROJECTNAME
  1

  0
ENDSEC
  0
SECTION
  2
CLASSES
  0
CLASS
  1
ACDBDICTIONARYWDFLT
  2
AcDbDictionaryWithDefault
  3
ObjectDBX Classes
 90
        0
 91
        1
280
     0
281
     0
  0
CLASS
  1
DICTIONARYVAR
  2
AcDbDictionaryVar
  3
ObjectDBX Classes
 90
        0
 91
        2
280
     0
281
     0
  0
ENDSEC
  0
SECTION
  2
TABLES
  0
TABLE
  2
VPORT
  5
8
330
0
100
AcDbSymbolTable
 70
     2
  0
VPORT
  5
1E36
330
8
100
AcDbSymbolTableRecord
100
AcDbViewportTableRecord
  2
*Active
 70
     0
 10
0.0
 20
0.0
 11
1.0
 21
1.0
 12
209.9984101739167
 22
296.9977515316827
 13
0.0
 23
0.0
 14
1.0
 24
1.0
 15
10.0
 25
10.0
 16
0.0
 26
0.0
 36
1.0
 17
0.0
 27
0.0
 37
0.0
 40
598.8835580506734
 41
1.336927223719676
 42
50.0
 43
0.0
 44
0.0
 50
0.0
 51
0.0
 71
     0
 72
  1500
 73
     1
 74
     0
 75
     0
 76
     0
 77
     0
 78
     0
281
     0
 65
     1
110
0.0
120
0.0
130
0.0
111
1.0
121
0.0
131
0.0
112
0.0
122
1.0
132
0.0
 79
     0
146
0.0
  0
ENDTAB
  0
TABLE
  2
LTYPE
  5
5
330
0
100
AcDbSymbolTable
 70
     2
  0
LTYPE
  5
13
330
5
100
AcDbSymbolTableRecord
100
AcDbLinetypeTableRecord
  2
ByBlock
 70
     0
  3

 72
    65
 73
     0
 40
0.0
  0
LTYPE
  5
14
330
5
100
AcDbSymbolTableRecord
100
AcDbLinetypeTableRecord
  2
ByLayer
 70
     0
  3

 72
    65
 73
     0
 40
0.0
  0
LTYPE
  5
15
330
5
100
AcDbSymbolTableRecord
100
AcDbLinetypeTableRecord
  2
Continuous
 70
     0
  3
Solid line
 72
    65
 73
     0
 40
0.0
  0
LTYPE
  5
25
330
5
100
AcDbSymbolTableRecord
100
AcDbLinetypeTableRecord
  2
STRICHPUNKT
 70
     0
  3
__ . __ . __ . __ . __ . __ . __ . __ . __ . __
 72
    65
 73
     4
 40
1.0
 49
0.5
 74
     0
 49
-0.25
 74
     0
 49
0.0
 74
     0
 49
-0.25
 74
     0
  0
ENDTAB
  0
TABLE
  2
LAYER
  5
2
330
0
100
AcDbSymbolTable
 70
     9
  0
LAYER
  5
10
330
2
100
AcDbSymbolTableRecord
100
AcDbLayerTableRecord
  2
0
 70
     0
 62
     7
  6
Continuous
370
    -3
390
F
  0
LAYER
  5
2A
330
2
100
AcDbSymbolTableRecord
100
AcDbLayerTableRecord
  2
VOLL
 70
     0
 62
     1
  6
Continuous
370
    -3
390
F
  0
LAYER
  5
2B
330
2
100
AcDbSymbolTableRecord
100
AcDbLayerTableRecord
  2
HILF
 70
     0
 62
     2
  6
Continuous
370
    -3
390
F
  0
LAYER
  5
2C
330
2
100
AcDbSymbolTableRecord
100
AcDbLayerTableRecord
  2
MITTEL
 70
     0
 62
     2
  6
STRICHPUNKT
370
    -3
390
F
  0
LAYER
  5
2F
330
2
100
AcDbSymbolTableRecord
100
AcDbLayerTableRecord
  2
BEM
 70
     0
 62
     7
  6
Continuous
370
    -3
390
F
  0
LAYER
  5
30
330
2
100
AcDbSymbolTableRecord
100
AcDbLayerTableRecord
  2
STEMPEL
 70
     0
 62
     3
  6
Continuous
370
    -3
390
F
  0
LAYER
  5
31
330
2
100
AcDbSymbolTableRecord
100
AcDbLayerTableRecord
  2
TEXT
 70
     0
 62
     7
  6
Continuous
370
    -3
390
F
  0
LAYER
  5
171
330
2
100
AcDbSymbolTableRecord
100
AcDbLayerTableRecord
  2
Defpoints
 70
     0
 62
     7
  6
Continuous
290
     0
370
    -3
390
F
  0
LAYER
  5
19C
330
2
100
AcDbSymbolTableRecord
100
AcDbLayerTableRecord
  2
SCHRAFF
 70
     0
 62
     7
  6
Continuous
370
    -3
390
F
  0
ENDTAB
  0
TABLE
  2
STYLE
  5
3
330
0
100
AcDbSymbolTable
 70
     2
  0
STYLE
  5
11
330
3
100
AcDbSymbolTableRecord
100
AcDbTextStyleTableRecord
  2
STANDARD
 70
     0
 40
0.0
 41
0.8
 50
0.0
 71
     0
 42
3.5
  3
simplex.shx
  4

  0
STYLE
  5
24
330
3
100
AcDbSymbolTableRecord
100
AcDbTextStyleTableRecord
  2
GREEKS
 70
     0
 40
0.0
 41
0.8
 50
0.0
 71
     0
 42
2.5
  3
SIMPLEX.shx
  4

  0
ENDTAB
  0
TABLE
  2
VIEW
  5
6
330
0
100
AcDbSymbolTable
 70
     0
  0
ENDTAB
  0
TABLE
  2
UCS
  5
7
330
0
100
AcDbSymbolTable
 70
     0
  0
ENDTAB
  0
TABLE
  2
APPID
  5
9
330
0
100
AcDbSymbolTable
 70
     1
  0
APPID
  5
12
330
9
100
AcDbSymbolTableRecord
100
AcDbRegAppTableRecord
  2
ACAD
 70
     0
  0
ENDTAB
  0
TABLE
  2
DIMSTYLE
  5
A
330
0
100
AcDbSymbolTable
 70
     1
100
AcDbDimStyleTable
 71
     1
340
9D
  0
DIMSTYLE
105
9D
102
{ACAD_REACTORS
330
19B0
330
1A68
330
1BB6
330
1DE5
330
1DFF
330
1E0C
102
}
330
A
100
AcDbSymbolTableRecord
100
AcDbDimStyleTableRecord
  2
Standard
 70
     0
340
11
  0
ENDTAB
  0
TABLE
  2
BLOCK_RECORD
  5
1
330
0
100
AcDbSymbolTable
 70
     7
  0
BLOCK_RECORD
  5
1E
102
{ACAD_XDICTIONARY
360
A0
102
}
330
1
100
AcDbSymbolTableRecord
100
AcDbBlockTableRecord
  2
*Model_Space
340
21
  0
BLOCK_RECORD
  5
1A
102
{ACAD_XDICTIONARY
360
A2
102
}
330
1
100
AcDbSymbolTableRecord
100
AcDbBlockTableRecord
  2
*Paper_Space
340
1D
  0
BLOCK_RECORD
  5
22
330
1
100
AcDbSymbolTableRecord
100
AcDbBlockTableRecord
  2
LOGO
340
0
102
{BLKREFS
331
9B
102
}
  0
BLOCK_RECORD
  5
19C7
330
1
100
AcDbSymbolTableRecord
100
AcDbBlockTableRecord
  2
*D1
340
0
  0
BLOCK_RECORD
  5
1A86
330
1
100
AcDbSymbolTableRecord
100
AcDbBlockTableRecord
  2
*D2
340
0
  0
BLOCK_RECORD
  5
1BB7
330
1
100
AcDbSymbolTableRecord
100
AcDbBlockTableRecord
  2
*D3
340
0
  0
BLOCK_RECORD
  5
1DE6
330
1
100
AcDbSymbolTableRecord
100
AcDbBlockTableRecord
  2
*D4
340
0
  0
BLOCK_RECORD
  5
1E00
330
1
100
AcDbSymbolTableRecord
100
AcDbBlockTableRecord
  2
*D5
340
0
  0
BLOCK_RECORD
  5
1E0D
330
1
100
AcDbSymbolTableRecord
100
AcDbBlockTableRecord
  2
*D6
340
0
  0
ENDTAB
  0
ENDSEC
  0
SECTION
  2
BLOCKS
  0
BLOCK
  5
35
330
1E
100
AcDbEntity
  8
0
100
AcDbBlockBegin
  2
*Model_Space
 70
     0
 10
0.0
 20
0.0
 30
0.0
  3
*Model_Space
  1

  0
ENDBLK
  5
36
330
1E
100
AcDbEntity
  8
0
100
AcDbBlockEnd
  0
BLOCK
  5
33
330
1A
100
AcDbEntity
 67
     1
  8
0
100
AcDbBlockBegin
  2
*Paper_Space
 70
     0
 10
0.0
 20
0.0
 30
0.0
  3
*Paper_Space
  1

  0
ENDBLK
  5
34
330
1A
100
AcDbEntity
 67
     1
  8
0
100
AcDbBlockEnd
  0
BLOCK
  5
37
330
22
100
AcDbEntity
  8
0
100
AcDbBlockBegin
  2
LOGO
 70
     0
 10
0.0
 20
0.0
 30
0.0
  3
LOGO
  1

  0
ARC
  5
38
330
22
100
AcDbEntity
  8
0
100
AcDbCircle
 10
11.59973089678112
 20
-9.271599258481501
 30
0.0
 40
4.5
100
AcDbArc
 50
270.0
 51
231.0575587310159
  0
LINE
  5
39
330
22
100
AcDbEntity
  8
0
100
AcDbLine
 10
3.599730896781125
 20
-4.771599258481529
 30
0.0
 11
3.599730896781153
 21
-11.77159925848133
 31
0.0
  0
LINE
  5
3A
330
22
100
AcDbEntity
  8
0
100
AcDbLine
 10
2.599730896781125
 20
-4.771599258481529
 30
0.0
 11
2.599730896781153
 21
-11.77159925848133
 31
0.0
  0
CIRCLE
  5
3B
330
22
100
AcDbEntity
  8
0
100
AcDbCircle
 10
11.59973089678112
 20
-9.271599258481501
 30
0.0
 40
3.5
  0
ARC
  5
3C
330
22
100
AcDbEntity
  8
0
100
AcDbCircle
 10
31.59973089678115
 20
-9.271599258481472
 30
0.0
 40
4.5
100
AcDbArc
 50
270.0
 51
231.0575587310182
  0
LINE
  5
3D
330
22
100
AcDbEntity
  8
0
100
AcDbLine
 10
17.59973089678112
 20
-4.771599258481472
 30
0.0
 11
17.59973089678115
 21
-13.77159925848147
 31
0.0
  0
ARC
  5
3E
330
22
100
AcDbEntity
  8
0
100
AcDbCircle
 10
22.59973089678116
 20
-7.271599258481472
 30
0.0
 40
2.5
100
AcDbArc
 50
293.1161887722295
 51
90.0
  0
CIRCLE
  5
3F
330
22
100
AcDbEntity
  8
0
100
AcDbCircle
 10
31.59973089678115
 20
-9.271599258481472
 30
0.0
 40
3.5
  0
ARC
  5
40
330
22
100
AcDbEntity
  8
0
100
AcDbCircle
 10
4.599730896781153
 20
-11.77159925848133
 30
0.0
 40
1.0
100
AcDbArc
 50
180.0
 51
270.0
  0
ARC
  5
41
330
22
100
AcDbEntity
  8
0
100
AcDbCircle
 10
4.599730896781153
 20
-11.77159925848133
 30
0.0
 40
2.0
100
AcDbArc
 50
179.9999999999992
 51
270.0
  0
LINE
  5
42
330
22
100
AcDbEntity
  8
0
100
AcDbLine
 10
11.59973089678115
 20
-13.77159925848144
 30
0.0
 11
4.599730896781153
 21
-13.77159925848147
 31
0.0
  0
LINE
  5
43
330
22
100
AcDbEntity
  8
0
100
AcDbLine
 10
8.771303772034769
 20
-12.77159925848136
 30
0.0
 11
4.599730896781153
 21
-12.77159925848133
 31
0.0
  0
LINE
  5
44
330
22
100
AcDbEntity
  8
0
100
AcDbLine
 10
31.59973089678115
 20
-13.77159925848147
 30
0.0
 11
23.6715276665056
 21
-13.77159925848144
 31
0.0
  0
LINE
  5
45
330
22
100
AcDbEntity
  8
0
100
AcDbLine
 10
23.56565672307022
 20
-9.51278021337896
 30
0.0
 11
24.4388546544846
 21
-12.77159925848144
 31
0.0
  0
LINE
  5
46
330
22
100
AcDbEntity
  8
0
100
AcDbLine
 10
22.59973089678116
 20
-9.771599258481472
 30
0.0
 11
18.59973089678112
 21
-9.771599258481472
 31
0.0
  0
LINE
  5
47
330
22
100
AcDbEntity
  8
0
100
AcDbLine
 10
18.59973089678115
 20
-13.77159925848144
 30
0.0
 11
17.59973089678115
 21
-13.77159925848144
 31
0.0
  0
LINE
  5
48
330
22
100
AcDbEntity
  8
0
100
AcDbLine
 10
18.59973089678115
 20
-9.771599258481472
 30
0.0
 11
18.59973089678115
 21
-13.77159925848144
 31
0.0
  0
LINE
  5
49
330
22
100
AcDbEntity
  8
0
100
AcDbLine
 10
22.59973089678116
 20
-9.771599258481472
 30
0.0
 11
23.67152766650562
 21
-13.77159925848147
 31
0.0
  0
ARC
  5
4A
330
22
100
AcDbEntity
  8
0
100
AcDbCircle
 10
22.59973089678116
 20
-7.271599258481472
 30
0.0
 40
2.5
100
AcDbArc
 50
270.0
 51
270.0000000000007
  0
LINE
  5
4B
330
22
100
AcDbEntity
  8
0
100
AcDbLine
 10
28.77130377203494
 20
-12.77159925848147
 30
0.0
 11
24.43885465448463
 21
-12.77159925848144
 31
0.0
  0
LINE
  5
4C
330
22
100
AcDbEntity
  8
0
100
AcDbLine
 10
3.599730896781125
 20
-4.771599258481472
 30
0.0
 11
2.599730896781125
 21
-4.771599258481472
 31
0.0
  0
LINE
  5
4D
330
22
100
AcDbEntity
  8
0
100
AcDbLine
 10
22.59973089678116
 20
-8.771599258481472
 30
0.0
 11
18.59973089678115
 21
-8.771599258481472
 31
0.0
  0
LINE
  5
4E
330
22
100
AcDbEntity
  8
0
100
AcDbLine
 10
22.59973089678116
 20
-5.771599258481472
 30
0.0
 11
18.59973089678115
 21
-5.771599258481472
 31
0.0
  0
LINE
  5
4F
330
22
100
AcDbEntity
  8
0
100
AcDbLine
 10
22.59973089678116
 20
-4.771599258481472
 30
0.0
 11
17.59973089678115
 21
-4.771599258481472
 31
0.0
  0
LINE
  5
50
330
22
100
AcDbEntity
  8
0
100
AcDbLine
 10
18.59973089678115
 20
-5.771599258481472
 30
0.0
 11
18.59973089678115
 21
-8.771599258481472
 31
0.0
  0
ARC
  5
51
330
22
100
AcDbEntity
  8
0
100
AcDbCircle
 10
22.59973089678116
 20
-7.271599258481472
 30
0.0
 40
1.5
100
AcDbArc
 50
270.0
 51
90.0
  0
ENDBLK
  5
52
330
22
100
AcDbEntity
  8
0
100
AcDbBlockEnd
  0
BLOCK
  5
19D1
330
19C7
100
AcDbEntity
  8
0
100
AcDbBlockBegin
  2
*D1
 70
     1
 10
0.0
 20
0.0
 30
0.0
  3
*D1
  1

  0
LINE
  5
1C92
330
19C7
100
AcDbEntity
  8
BEM
 62
     0
370
    -2
100
AcDbLine
 10
133.100808776351
 20
244.5785040117673
 30
0.0
 11
133.100808776351
 21
216.522329995042
 31
0.0
  0
LINE
  5
1C93
330
19C7
100
AcDbEntity
  8
BEM
 62
     0
370
    -2
100
AcDbLine
 10
235.1008087763509
 20
244.5785040117673
 30
0.0
 11
235.1008087763509
 21
216.522329995042
 31
0.0
  0
LINE
  5
1C94
330
19C7
100
AcDbEntity
  8
BEM
 62
     0
370
    -2
100
AcDbLine
 10
140.100808776351
 20
218.522329995042
 30
0.0
 11
228.1008087763509
 21
218.522329995042
 31
0.0
  0
SOLID
  5
1C95
330
19C7
100
AcDbEntity
  8
BEM
 62
     0
100
AcDbTrace
 10
140.100808776351
 20
219.6889966617086
 30
0.0
 11
140.100808776351
 21
217.3556633283753
 31
0.0
 12
133.100808776351
 22
218.522329995042
 32
0.0
 13
133.100808776351
 23
218.522329995042
 33
0.0
  0
SOLID
  5
1C96
330
19C7
100
AcDbEntity
  8
BEM
 62
     0
100
AcDbTrace
 10
228.1008087763509
 20
219.6889966617086
 30
0.0
 11
228.1008087763509
 21
217.3556633283753
 31
0.0
 12
235.1008087763509
 22
218.522329995042
 32
0.0
 13
235.1008087763509
 23
218.522329995042
 33
0.0
  0
MTEXT
  5
1C97
330
19C7
100
AcDbEntity
  8
BEM
 62
     1
100
AcDbMText
 10
184.1008087763509
 20
225.022329995042
 30
0.0
 40
7.0
 41
0.0
 71
     5
 72
     1
  1
\A1;%%c102
  7
GREEKS
 73
     1
 44
1.0
  0
POINT
  5
1C98
330
19C7
100
AcDbEntity
  8
Defpoints
 62
     0
100
AcDbPoint
 10
133.100808776351
 20
246.5785040117673
 30
0.0
  0
POINT
  5
1C99
330
19C7
100
AcDbEntity
  8
Defpoints
 62
     0
100
AcDbPoint
 10
235.1008087763509
 20
246.5785040117673
 30
0.0
  0
POINT
  5
1C9A
330
19C7
100
AcDbEntity
  8
Defpoints
 62
     0
100
AcDbPoint
 10
235.1008087763509
 20
218.522329995042
 30
0.0
  0
ENDBLK
  5
19D2
330
19C7
100
AcDbEntity
  8
0
100
AcDbBlockEnd
  0
BLOCK
  5
1A90
330
1A86
100
AcDbEntity
  8
0
100
AcDbBlockBegin
  2
*D2
 70
     1
 10
0.0
 20
0.0
 30
0.0
  3
*D2
  1

  0
LINE
  5
1DD3
330
1A86
100
AcDbEntity
  8
BEM
 62
     0
370
    -2
100
AcDbLine
 10
343.8240156203829
 20
474.6278254771102
 30
0.0
 11
357.5384851469552
 21
475.3465703690426
 31
0.0
  0
LINE
  5
1DD4
330
1A86
100
AcDbEntity
  8
BEM
 62
     0
370
    -2
100
AcDbLine
 10
350.7846978006942
 20
341.8100973547516
 30
0.0
 11
364.4991673272646
 21
342.5288422466838
 31
0.0
  0
LINE
  5
1DD5
330
1A86
100
AcDbEntity
  8
BEM
 62
     0
370
    -2
100
AcDbLine
 10
355.9075777711465
 20
468.2514917132747
 30
0.0
 11
362.135556564055
 21
349.41457707748
 31
0.0
  0
SOLID
  5
1DD6
330
1A86
100
AcDbEntity
  8
BEM
 62
     0
100
AcDbTrace
 10
357.0726455616935
 20
468.3125503288914
 30
0.0
 11
354.7425099805995
 21
468.1904330976579
 31
0.0
 12
355.541226077446
 22
475.2418984565567
 32
0.0
 13
355.541226077446
 23
475.2418984565567
 33
0.0
  0
SOLID
  5
1DD7
330
1A86
100
AcDbEntity
  8
BEM
 62
     0
100
AcDbTrace
 10
363.300624354602
 20
349.4756356930968
 30
0.0
 11
360.9704887735079
 21
349.3535184618633
 31
0.0
 12
362.5019082577555
 22
342.424170334198
 32
0.0
 13
362.5019082577555
 23
342.424170334198
 33
0.0
  0
MTEXT
  5
1DD8
330
1A86
100
AcDbEntity
  8
BEM
 62
     1
100
AcDbMText
 10
365.5126591435054
 20
409.1732181109564
 30
0.0
 40
7.0
 41
0.0
 71
     5
 72
     1
  1
\A1;%%c133
  7
GREEKS
 11
0.0523359562429282
 21
-0.9986295347545746
 31
0.0
 73
     1
 44
1.0
  0
POINT
  5
1DD9
330
1A86
100
AcDbEntity
  8
Defpoints
 62
     0
100
AcDbPoint
 10
341.8267565508738
 20
474.5231535646243
 30
0.0
  0
POINT
  5
1DDA
330
1A86
100
AcDbEntity
  8
Defpoints
 62
     0
100
AcDbPoint
 10
348.7874387311851
 20
341.7054254422657
 30
0.0
  0
POINT
  5
1DDB
330
1A86
100
AcDbEntity
  8
Defpoints
 62
     0
100
AcDbPoint
 10
362.5019082577555
 20
342.424170334198
 30
0.0
  0
ENDBLK
  5
1A91
330
1A86
100
AcDbEntity
  8
0
100
AcDbBlockEnd
  0
BLOCK
  5
1BC1
330
1BB7
100
AcDbEntity
  8
0
100
AcDbBlockBegin
  2
*D3
 70
     1
 10
0.0
 20
0.0
 30
0.0
  3
*D3
  1

  0
LINE
  5
1DDC
330
1BB7
100
AcDbEntity
  8
BEM
 62
     0
370
    -2
100
AcDbLine
 10
115.6008087763509
 20
298.6658258975868
 30
0.0
 11
99.43854064920762
 21
298.6658258975868
 31
0.0
  0
LINE
  5
1DDD
330
1BB7
100
AcDbEntity
  8
BEM
 62
     0
370
    -2
100
AcDbLine
 10
131.7930784094715
 20
238.6658258975868
 30
0.0
 11
99.4385406492076
 21
238.6658258975868
 31
0.0
  0
LINE
  5
1DDE
330
1BB7
100
AcDbEntity
  8
BEM
 62
     0
370
    -2
100
AcDbLine
 10
101.4385406492076
 20
291.6658258975868
 30
0.0
 11
101.4385406492076
 21
245.6658258975867
 31
0.0
  0
SOLID
  5
1DDF
330
1BB7
100
AcDbEntity
  8
BEM
 62
     0
100
AcDbTrace
 10
100.2718739825409
 20
291.6658258975868
 30
0.0
 11
102.6052073158743
 21
291.6658258975868
 31
0.0
 12
101.4385406492076
 22
298.6658258975868
 32
0.0
 13
101.4385406492076
 23
298.6658258975868
 33
0.0
  0
SOLID
  5
1DE0
330
1BB7
100
AcDbEntity
  8
BEM
 62
     0
100
AcDbTrace
 10
100.2718739825409
 20
245.6658258975867
 30
0.0
 11
102.6052073158742
 21
245.6658258975867
 31
0.0
 12
101.4385406492076
 22
238.6658258975868
 32
0.0
 13
101.4385406492076
 23
238.6658258975868
 33
0.0
  0
MTEXT
  5
1DE1
330
1BB7
100
AcDbEntity
  8
BEM
 62
     1
100
AcDbMText
 10
94.93854064920755
 20
268.6658258975868
 30
0.0
 40
7.0
 41
0.0
 71
     5
 72
     1
  1
\A1;60
 11
0.0000000000000001
 21
1.0
 31
0.0
 73
     1
 44
1.0
  0
POINT
  5
1DE2
330
1BB7
100
AcDbEntity
  8
Defpoints
 62
     0
100
AcDbPoint
 10
117.6008087763509
 20
298.6658258975868
 30
0.0
  0
POINT
  5
1DE3
330
1BB7
100
AcDbEntity
  8
Defpoints
 62
     0
100
AcDbPoint
 10
133.7930784094715
 20
238.6658258975868
 30
0.0
  0
POINT
  5
1DE4
330
1BB7
100
AcDbEntity
  8
Defpoints
 62
     0
100
AcDbPoint
 10
101.4385406492076
 20
238.6658258975868
 30
0.0
  0
ENDBLK
  5
1BC2
330
1BB7
100
AcDbEntity
  8
0
100
AcDbBlockEnd
  0
BLOCK
  5
1DF0
330
1DE6
100
AcDbEntity
  8
0
100
AcDbBlockBegin
  2
*D4
 70
     1
 10
0.0
 20
0.0
 30
0.0
  3
*D4
  1

  0
LINE
  5
1DE7
330
1DE6
100
AcDbEntity
  8
BEM
 62
     0
370
    -2
100
AcDbLine
 10
131.7930784094715
 20
238.6658258975868
 30
0.0
 11
83.47671771653129
 21
238.6658258975868
 31
0.0
  0
LINE
  5
1DE8
330
1DE6
100
AcDbEntity
  8
BEM
 62
     0
370
    -2
100
AcDbLine
 10
182.1008087763509
 20
399.6658258975865
 30
0.0
 11
83.4767177165313
 21
399.6658258975866
 31
0.0
  0
LINE
  5
1DE9
330
1DE6
100
AcDbEntity
  8
BEM
 62
     0
370
    -2
100
AcDbLine
 10
85.47671771653128
 20
245.6658258975867
 30
0.0
 11
85.47671771653131
 21
392.6658258975866
 31
0.0
  0
SOLID
  5
1DEA
330
1DE6
100
AcDbEntity
  8
BEM
 62
     0
100
AcDbTrace
 10
84.31005104986461
 20
245.6658258975867
 30
0.0
 11
86.64338438319795
 21
245.6658258975867
 31
0.0
 12
85.47671771653128
 22
238.6658258975868
 32
0.0
 13
85.47671771653128
 23
238.6658258975868
 33
0.0
  0
SOLID
  5
1DEB
330
1DE6
100
AcDbEntity
  8
BEM
 62
     0
100
AcDbTrace
 10
84.31005104986464
 20
392.6658258975866
 30
0.0
 11
86.64338438319798
 21
392.6658258975866
 31
0.0
 12
85.47671771653131
 22
399.6658258975866
 32
0.0
 13
85.47671771653131
 23
399.6658258975866
 33
0.0
  0
MTEXT
  5
1DEC
330
1DE6
100
AcDbEntity
  8
BEM
 62
     1
100
AcDbMText
 10
78.97671771653124
 20
319.1658258975867
 30
0.0
 40
7.0
 41
0.0
 71
     5
 72
     1
  1
\A1;161
 11
0.0000000000000001
 21
1.0
 31
0.0
 73
     1
 44
1.0
  0
POINT
  5
1DED
330
1DE6
100
AcDbEntity
  8
Defpoints
 62
     0
100
AcDbPoint
 10
133.7930784094715
 20
238.6658258975868
 30
0.0
  0
POINT
  5
1DEE
330
1DE6
100
AcDbEntity
  8
Defpoints
 62
     0
100
AcDbPoint
 10
184.1008087763509
 20
399.6658258975865
 30
0.0
  0
POINT
  5
1DEF
330
1DE6
100
AcDbEntity
  8
Defpoints
 62
     0
100
AcDbPoint
 10
85.47671771653131
 20
399.6658258975866
 30
0.0
  0
ENDBLK
  5
1DF1
330
1DE6
100
AcDbEntity
  8
0
100
AcDbBlockEnd
  0
BLOCK
  5
1E0A
330
1E00
100
AcDbEntity
  8
0
100
AcDbBlockBegin
  2
*D5
 70
     1
 10
0.0
 20
0.0
 30
0.0
  3
*D5
  1

  0
LINE
  5
1E23
330
1E00
100
AcDbEntity
  8
BEM
 62
     0
370
    -2
100
AcDbLine
 10
183.996136863865
 20
401.6630849670956
 30
0.0
 11
177.788858197847
 21
520.1050176522016
 31
0.0
  0
LINE
  5
1E24
330
1E00
100
AcDbEntity
  8
BEM
 62
     0
370
    -2
100
AcDbLine
 10
341.7220846383878
 20
476.5204126341333
 30
0.0
 11
338.9951470625257
 21
528.55348125806
 31
0.0
  0
LINE
  5
1E25
330
1E00
100
AcDbEntity
  8
BEM
 62
     0
370
    -2
100
AcDbLine
 10
184.8839368536149
 20
518.474110276393
 30
0.0
 11
332.1094122317295
 21
526.1898704948503
 31
0.0
  0
SOLID
  5
1E26
330
1E00
100
AcDbEntity
  8
BEM
 62
     0
100
AcDbTrace
 10
184.8228782379981
 20
519.63917806694
 30
0.0
 11
184.9449954692317
 21
517.309042485846
 31
0.0
 12
177.8935301103329
 22
518.1077585826924
 32
0.0
 13
177.8935301103329
 23
518.1077585826924
 33
0.0
  0
SOLID
  5
1E27
330
1E00
100
AcDbEntity
  8
BEM
 62
     0
100
AcDbTrace
 10
332.0483536161128
 20
527.3549382853973
 30
0.0
 11
332.1704708473463
 21
525.0248027043032
 31
0.0
 12
339.0998189750115
 22
526.5562221885509
 32
0.0
 13
339.0998189750115
 23
526.5562221885509
 33
0.0
  0
MTEXT
  5
1E28
330
1E00
100
AcDbEntity
  8
BEM
 62
     1
100
AcDbMText
 10
258.156490827093
 20
528.8230823615263
 30
0.0
 40
7.0
 41
0.0
 71
     5
 72
     1
  1
\A1;161
 11
0.9986295347545738
 21
0.0523359562429453
 31
0.0
 73
     1
 44
1.0
  0
POINT
  5
1E29
330
1E00
100
AcDbEntity
  8
Defpoints
 62
     0
100
AcDbPoint
 10
184.1008087763509
 20
399.6658258975865
 30
0.0
  0
POINT
  5
1E2A
330
1E00
100
AcDbEntity
  8
Defpoints
 62
     0
100
AcDbPoint
 10
341.8267565508737
 20
474.5231535646241
 30
0.0
  0
POINT
  5
1E2B
330
1E00
100
AcDbEntity
  8
Defpoints
 62
     0
100
AcDbPoint
 10
339.0998189750115
 20
526.5562221885509
 30
0.0
  0
ENDBLK
  5
1E0B
330
1E00
100
AcDbEntity
  8
0
100
AcDbBlockEnd
  0
BLOCK
  5
1E18
330
1E0D
100
AcDbEntity
  8
0
100
AcDbBlockBegin
  2
*D6
 70
     1
 10
0.0
 20
0.0
 30
0.0
  3
*D6
  1

  0
LINE
  5
1E0E
330
1E0D
100
AcDbEntity
  8
BEM
 62
     0
370
    -2
100
AcDbLine
 10
184.1008087763509
 20
401.6658258975865
 30
0.0
 11
184.100808776351
 21
505.1153774396491
 31
0.0
  0
ARC
  5
1E0F
330
1E0D
100
AcDbEntity
  8
BEM
 62
     0
370
    -2
100
AcDbCircle
 10
184.1008087763509
 20
399.6658258975865
 30
0.0
 40
103.4495515420625
100
AcDbArc
 50
6.877706624648832
 51
86.12229337535127
  0
SOLID
  5
1E10
330
1E0D
100
AcDbEntity
  8
BEM
 62
     0
100
AcDbTrace
 10
287.9682735016483
 20
412.1544084114079
 30
0.0
 11
285.6436034981856
 21
411.9535258102568
 31
0.0
 12
287.4085863033702
 22
405.0799571004443
 32
0.0
 13
287.4085863033702
 23
405.0799571004443
 33
0.0
  0
SOLID
  5
1E11
330
1E0D
100
AcDbEntity
  8
BEM
 62
     0
100
AcDbTrace
 10
191.0573295619963
 20
501.7125482732875
 30
0.0
 11
191.1362730329436
 21
504.0445457803271
 31
0.0
 12
184.100808776351
 22
503.115377439649
 32
0.0
 13
184.100808776351
 23
503.115377439649
 33
0.0
  0
MTEXT
  5
1E12
330
1E0D
100
AcDbEntity
  8
BEM
 62
     1
100
AcDbMText
 10
259.7850856758059
 20
479.4204126904933
 30
0.0
 40
7.0
 41
0.0
 71
     5
 72
     1
  1
\A1;87°
 11
0.7253743710122881
 21
-0.6883545756937536
 31
0.0
 73
     1
 44
1.0
  0
POINT
  5
1E13
330
1E0D
100
AcDbEntity
  8
Defpoints
 62
     0
100
AcDbPoint
 10
271.831004009833
 20
454.4857361360113
 30
0.0
  0
POINT
  5
1E14
330
1E0D
100
AcDbEntity
  8
Defpoints
 62
     0
100
AcDbPoint
 10
184.1008087763509
 20
399.6658258975865
 30
0.0
  0
POINT
  5
1E15
330
1E0D
100
AcDbEntity
  8
Defpoints
 62
     0
100
AcDbPoint
 10
349.8733115456102
 20
408.3535946339154
 30
0.0
  0
POINT
  5
1E16
330
1E0D
100
AcDbEntity
  8
Defpoints
 62
     0
100
AcDbPoint
 10
184.1008087763509
 20
399.6658258975865
 30
0.0
  0
POINT
  5
1E17
330
1E0D
100
AcDbEntity
  8
Defpoints
 62
     0
100
AcDbPoint
 10
184.1008087763509
 20
233.6658258975868
 30
0.0
  0
ENDBLK
  5
1E19
330
1E0D
100
AcDbEntity
  8
0
100
AcDbBlockEnd
  0
ENDSEC
  0
SECTION
  2
ENTITIES
  0
LINE
  5
57
330
1E
100
AcDbEntity
  8
STEMPEL
100
AcDbLine
 10
410.0
 20
110.0
 30
0.0
 11
39.99999999999997
 21
110.0
 31
0.0
  0
LINE
  5
58
330
1E
100
AcDbEntity
  8
STEMPEL
100
AcDbLine
 10
146.0000000000001
 20
109.9999999999999
 30
0.0
 11
146.0
 21
9.999999999999971
 31
0.0
  0
LINE
  5
59
330
1E
100
AcDbEntity
  8
STEMPEL
100
AcDbLine
 10
230.0
 20
110.0
 30
0.0
 11
230.0
 21
9.999999999999971
 31
0.0
  0
LINE
  5
5A
330
1E
100
AcDbEntity
  8
STEMPEL
100
AcDbLine
 10
332.0
 20
109.9999999999997
 30
0.0
 11
332.0
 21
40.0
 31
0.0
  0
LINE
  5
5B
330
1E
100
AcDbEntity
  8
STEMPEL
100
AcDbLine
 10
145.9999999999999
 20
29.99999999999997
 30
0.0
 11
39.99999999999997
 21
29.99999999999997
 31
0.0
  0
LINE
  5
5C
330
1E
100
AcDbEntity
  8
STEMPEL
100
AcDbLine
 10
410.0
 20
40.0
 30
0.0
 11
146.0000000000001
 21
39.99999999999997
 31
0.0
  0
LINE
  5
5D
330
1E
100
AcDbEntity
  8
STEMPEL
100
AcDbLine
 10
410.0
 20
80.0
 30
0.0
 11
146.0000000000001
 21
79.99999999999994
 31
0.0
  0
LINE
  5
5E
330
1E
100
AcDbEntity
  8
VOLL
100
AcDbLine
 10
54.00000000000009
 20
110.0
 30
0.0
 11
53.99999999999997
 21
9.999999999999971
 31
0.0
  0
LINE
  5
5F
330
1E
100
AcDbEntity
  8
VOLL
100
AcDbLine
 10
104.0000000000001
 20
109.9999999999999
 30
0.0
 11
104.0
 21
9.999999999999971
 31
0.0
  0
LINE
  5
60
330
1E
100
AcDbEntity
  8
VOLL
100
AcDbLine
 10
124.0000000000001
 20
109.9999999999999
 30
0.0
 11
124.0
 21
9.999999999999971
 31
0.0
  0
LINE
  5
61
330
1E
100
AcDbEntity
  8
VOLL
100
AcDbLine
 10
164.0000000000001
 20
79.99999999999994
 30
0.0
 11
164.0000000000001
 21
39.99999999999997
 31
0.0
  0
LINE
  5
62
330
1E
100
AcDbEntity
  8
VOLL
100
AcDbLine
 10
190.0000000000001
 20
109.9999999999998
 30
0.0
 11
190.0
 21
39.99999999999997
 31
0.0
  0
LINE
  5
63
330
1E
100
AcDbEntity
  8
HILF
100
AcDbLine
 10
40.00000000000008
 20
100.0
 30
0.0
 11
146.0000000000001
 21
100.0
 31
0.0
  0
LINE
  5
64
330
1E
100
AcDbEntity
  8
HILF
100
AcDbLine
 10
40.00000000000008
 20
90.00000000000005
 30
0.0
 11
146.0000000000001
 21
90.00000000000005
 31
0.0
  0
LINE
  5
65
330
1E
100
AcDbEntity
  8
HILF
100
AcDbLine
 10
40.00000000000008
 20
79.99999999999994
 30
0.0
 11
146.0000000000001
 21
79.99999999999994
 31
0.0
  0
LINE
  5
66
330
1E
100
AcDbEntity
  8
HILF
100
AcDbLine
 10
40.00000000000008
 20
69.99999999999994
 30
0.0
 11
146.0000000000001
 21
69.99999999999994
 31
0.0
  0
LINE
  5
67
330
1E
100
AcDbEntity
  8
HILF
100
AcDbLine
 10
40.00000000000008
 20
59.99999999999997
 30
0.0
 11
146.0000000000001
 21
59.99999999999997
 31
0.0
  0
LINE
  5
68
330
1E
100
AcDbEntity
  8
HILF
100
AcDbLine
 10
40.00000000000008
 20
49.99999999999997
 30
0.0
 11
146.0000000000001
 21
49.99999999999997
 31
0.0
  0
LINE
  5
69
330
1E
100
AcDbEntity
  8
HILF
100
AcDbLine
 10
40.00000000000008
 20
39.99999999999997
 30
0.0
 11
146.0000000000001
 21
39.99999999999997
 31
0.0
  0
LINE
  5
6A
330
1E
100
AcDbEntity
  8
HILF
100
AcDbLine
 10
146.0000000000001
 20
69.99999999999994
 30
0.0
 11
230.0
 21
69.99999999999994
 31
0.0
  0
LINE
  5
6B
330
1E
100
AcDbEntity
  8
HILF
100
AcDbLine
 10
146.0000000000001
 20
59.99999999999997
 30
0.0
 11
230.0
 21
59.99999999999997
 31
0.0
  0
LINE
  5
6C
330
1E
100
AcDbEntity
  8
HILF
100
AcDbLine
 10
146.0000000000001
 20
49.99999999999997
 30
0.0
 11
230.0
 21
49.99999999999997
 31
0.0
  0
LINE
  5
6D
330
1E
100
AcDbEntity
  8
HILF
100
AcDbLine
 10
234.7736801096947
 20
84.03758247564139
 30
0.0
 11
324.8353916556311
 21
84.03758247564139
 31
0.0
  0
LINE
  5
6E
330
1E
100
AcDbEntity
  8
HILF
100
AcDbLine
 10
234.7736801096947
 20
69.99999999999994
 30
0.0
 11
324.835391655631
 21
69.99999999999994
 31
0.0
  0
LINE
  5
6F
330
1E
100
AcDbEntity
  8
HILF
100
AcDbLine
 10
234.7736801096947
 20
59.99999999999997
 30
0.0
 11
324.835391655631
 21
59.99999999999997
 31
0.0
  0
LINE
  5
70
330
1E
100
AcDbEntity
  8
HILF
100
AcDbLine
 10
234.7736801096947
 20
49.99999999999997
 30
0.0
 11
324.835391655631
 21
49.99999999999997
 31
0.0
  0
LINE
  5
71
330
1E
100
AcDbEntity
  8
VOLL
100
AcDbLine
 10
332.0
 20
60.0
 30
0.0
 11
410.0
 21
60.0
 31
0.0
  0
LINE
  5
72
330
1E
100
AcDbEntity
  8
HILF
100
AcDbLine
 10
336.7238616296993
 20
83.77983636955827
 30
0.0
 11
404.8588839326728
 21
83.77983636955827
 31
0.0
  0
LINE
  5
73
330
1E
100
AcDbEntity
  8
HILF
100
AcDbLine
 10
233.4909699289885
 20
14.89398258028314
 30
0.0
 11
404.8588839326728
 21
14.89398258028314
 31
0.0
  0
TEXT
  5
74
330
1E
100
AcDbEntity
  8
TEXT
100
AcDbText
 10
67.79509897490102
 20
18.67381894984132
 30
0.0
 40
4.0
  1
Änderung
 41
0.8
  7
GREEKS
 72
     1
 11
78.53795611775817
 21
18.67381894984132
 31
0.0
100
AcDbText
  0
TEXT
  5
75
330
1E
100
AcDbEntity
  8
TEXT
100
AcDbText
 10
153.5163572150377
 20
102.4620895087088
 30
0.0
 40
5.0
  1
Maßstab
 41
0.8
  7
GREEKS
100
AcDbText
  0
TEXT
  5
76
330
1E
100
AcDbEntity
  8
TEXT
100
AcDbText
 10
194.2858954734051
 20
102.4184168434819
 30
0.0
 40
5.0
  1
Zul. Abw.
 41
0.8
  7
GREEKS
100
AcDbText
  0
TEXT
  5
77
330
1E
100
AcDbEntity
  8
TEXT
100
AcDbText
 10
234.877940380901
 20
102.5489328011779
 30
0.0
 40
5.0
  1
Benennung
 41
0.8
  7
GREEKS
100
AcDbText
  0
TEXT
  5
78
330
1E
100
AcDbEntity
  8
TEXT
100
AcDbText
 10
336.178754957634
 20
102.3132034537136
 30
0.0
 40
5.0
  1
Zeichnungs Nr.
 41
0.8
  7
GREEKS
100
AcDbText
  0
TEXT
  5
79
330
1E
100
AcDbEntity
  8
TEXT
100
AcDbText
 10
234.742238391136
 20
30.84560570193057
 30
0.0
 40
5.0
  1
Bauvorhaben
 41
0.8
  7
GREEKS
100
AcDbText
  0
TEXT
  5
7A
330
1E
100
AcDbEntity
  8
TEXT
100
AcDbText
 10
336.7238616296993
 20
73.1811823709997
 30
0.0
 40
5.0
  1
Ersatz für:
 41
0.8
  7
GREEKS
100
AcDbText
  0
TEXT
  5
7B
330
1E
100
AcDbEntity
  8
TEXT
100
AcDbText
 10
48.26641107045756
 20
13.65465846027192
 30
0.0
 40
4.0
  1
Index
 50
90.0
 41
0.8
  7
GREEKS
100
AcDbText
  0
TEXT
  5
7C
330
1E
100
AcDbEntity
  8
TEXT
100
AcDbText
 10
110.6986119235389
 20
18.6715626933981
 30
0.0
 40
4.0
  1
Tag
 41
0.8
  7
GREEKS
 72
     1
 11
114.4319452568723
 21
18.6715626933981
 31
0.0
100
AcDbText
  0
TEXT
  5
7D
330
1E
100
AcDbEntity
  8
TEXT
100
AcDbText
 10
129.0122744386592
 20
18.59324216966408
 30
0.0
 40
4.0
  1
Name
 41
0.8
  7
GREEKS
 72
     1
 11
135.3360839624688
 21
18.59324216966408
 31
0.0
100
AcDbText
  0
TEXT
  5
7E
330
1E
100
AcDbEntity
  8
TEXT
100
AcDbText
 10
172.331167315365
 20
73.31880501229926
 30
0.0
 40
4.0
  1
Tag
 41
0.8
  7
GREEKS
100
AcDbText
  0
TEXT
  5
7F
330
1E
100
AcDbEntity
  8
TEXT
100
AcDbText
 10
202.4626584226295
 20
73.30961091915225
 30
0.0
 40
4.0
  1
Name
 41
0.8
  7
GREEKS
100
AcDbText
  0
TEXT
  5
80
330
1E
100
AcDbEntity
  8
TEXT
100
AcDbText
 10
147.5836127167615
 20
63.62990369617964
 30
0.0
 40
4.0
  1
Gez.
 41
0.8
  7
GREEKS
100
AcDbText
  0
TEXT
  5
81
330
1E
100
AcDbEntity
  8
TEXT
100
AcDbText
 10
147.5515086571672
 20
53.68926291428377
 30
0.0
 40
4.0
  1
Gepr.
 41
0.8
  7
GREEKS
100
AcDbText
  0
TEXT
  5
82
330
1E
100
AcDbEntity
  8
TEXT
100
AcDbText
 10
147.6006777387303
 20
43.52946389649807
 30
0.0
 40
4.0
  1
Norm.
 41
0.8
  7
GREEKS
100
AcDbText
  0
LINE
  5
83
330
1E
100
AcDbEntity
  8
STEMPEL
100
AcDbLine
 10
49.99999999999989
 20
10.0
 30
0.0
 11
410.0
 21
10.0
 31
0.0
  0
TEXT
  5
84
330
1E
100
AcDbEntity
  8
TEXT
100
AcDbText
 10
337.2400861497006
 20
52.07416177878602
 30
0.0
 40
5.0
  1
ersetzt durch:
 41
0.8
  7
GREEKS
100
AcDbText
  0
LINE
  5
85
330
1E
100
AcDbEntity
  8
STEMPEL
100
AcDbLine
 10
410.0
 20
10.0
 30
0.0
 11
39.99999999999989
 21
10.0
 31
0.0
  0
LINE
  5
86
330
1E
100
AcDbEntity
  8
STEMPEL
100
AcDbLine
 10
410.0
 20
10.0
 30
0.0
 11
410.0
 21
584.0
 31
0.0
  0
LINE
  5
87
330
1E
100
AcDbEntity
  8
STEMPEL
100
AcDbLine
 10
40.0
 20
10.0
 30
0.0
 11
39.99999999999989
 21
584.0
 31
0.0
  0
LINE
  5
88
330
1E
100
AcDbEntity
  8
STEMPEL
100
AcDbLine
 10
410.0
 20
584.0
 30
0.0
 11
39.99999999999989
 21
584.0
 31
0.0
  0
LINE
  5
89
330
1E
100
AcDbEntity
  8
HILF
100
AcDbLine
 10
0.0
 20
0.0
 30
0.0
 11
-0.0000000000001137
 21
594.0
 31
0.0
  0
LINE
  5
8A
330
1E
100
AcDbEntity
  8
HILF
100
AcDbLine
 10
419.9999999999999
 20
594.0000000000002
 30
0.0
 11
0.0
 21
594.0
 31
0.0
  0
LINE
  5
8B
330
1E
100
AcDbEntity
  8
HILF
100
AcDbLine
 10
420.0
 20
0.0
 30
0.0
 11
0.0
 21
0.0
 31
0.0
  0
LINE
  5
8C
330
1E
100
AcDbEntity
  8
HILF
100
AcDbLine
 10
31.08767135713856
 20
297.0
 30
0.0
 11
0.0000000000001137
 21
297.0
 31
0.0
  0
LINE
  5
8E
330
1E
100
AcDbEntity
  8
HILF
100
AcDbLine
 10
420.0
 20
-0.0000000000001137
 30
0.0
 11
419.9999999999999
 21
594.0
 31
0.0
  0
TEXT
  5
8F
330
1E
100
AcDbEntity
  8
VOLL
100
AcDbText
 10
78.07675471698113
 20
31.02594776470585
 30
0.0
 40
1.8
  1

  7
GREEKS
100
AcDbText
  0
TEXT
  5
90
330
1E
100
AcDbEntity
  8
TEXT
100
AcDbText
 10
41.85509950977674
 20
111.6719999999999
 30
0.0
 40
5.0
  1
Erstellt mit AUTOCAD 2004
 41
0.8
  7
GREEKS
100
AcDbText
  0
TEXT
  5
91
330
1E
100
AcDbEntity
  8
TEXT
100
AcDbText
 10
204.4216048581257
 20
63.0896391972351
 30
0.0
 40
4.0
  1
Koeh
 41
0.8
  7
GREEKS
 72
     1
 11
209.6787477152686
 21
63.0896391972351
 31
0.0
100
AcDbText
  0
TEXT
  5
92
330
1E
100
AcDbEntity
  8
TEXT
 62
     1
100
AcDbText
 10
347.3097540684081
 20
88.14901428913959
 30
0.0
 40
7.0
  1
58030100W
 41
0.8
  7
GREEKS
 72
     1
 11
370.7764207350748
 21
88.14901428913959
 31
0.0
100
AcDbText
  0
TEXT
  5
93
330
1E
100
AcDbEntity
  8
TEXT
 62
     1
100
AcDbText
 10
160.5006306481887
 20
88.14901428913959
 30
0.0
 40
7.0
  1
1:2
 41
0.8
  7
GREEKS
100
AcDbText
  0
TEXT
  5
95
330
1E
100
AcDbEntity
  8
TEXT
 62
     1
100
AcDbText
 10
236.8935731057402
 20
87.41748789253779
 30
0.0
 40
7.0
  1
Verbundrohr DN100
 41
0.8
  7
GREEKS
100
AcDbText
  0
TEXT
  5
98
330
1E
100
AcDbEntity
  8
TEXT
100
AcDbText
 10
235.1296391125315
 20
51.64011943042158
 30
0.0
 40
5.0
  1
EDV-Art.Nr. 58030.100X
 41
0.8
  7
GREEKS
100
AcDbText
  0
TEXT
  5
99
330
1E
100
AcDbEntity
  8
TEXT
100
AcDbText
 10
234.9837501577827
 20
42.62974153022632
 30
0.0
 40
4.0
  1
58030100W.DWG
 41
0.8
  7
GREEKS
100
AcDbText
  0
TEXT
  5
9A
330
1E
100
AcDbEntity
  8
TEXT
100
AcDbText
 10
192.626132208084
 20
90.76363841023022
 30
0.0
 40
4.0
  1
DIN EN1123-2
 41
0.8
  7
GREEKS
 72
     1
 11
209.6166083985602
 21
90.76363841023022
 31
0.0
100
AcDbText
  0
INSERT
  5
9B
330
1E
100
AcDbEntity
  8
STEMPEL
100
AcDbBlockReference
  2
LOGO
 10
150.9955485457794
 20
45.02105276448322
 30
0.0
 41
2.0
 42
2.0
 43
2.0
  0
TEXT
  5
210
330
1E
100
AcDbEntity
  8
TEXT
 62
     1
100
AcDbText
 10
264.0988358474205
 20
231.2847026999482
 30
0.0
 40
7.0
  1
Rohrende leicht eingezogen
 41
0.8
  7
GREEKS
100
AcDbText
  0
TEXT
  5
2C0
330
1E
100
AcDbEntity
  8
BEM
100
AcDbText
 10
417.3022923857165
 20
10.16790107998861
 30
0.0
 40
4.0
  1
Diese Zeichnung ist urheberrechtlich geschützt und bleibt unser Eigentum. Sie darf weder ganz noch teilweise verfielfältigt und nicht an Dritte weitergegeben werden.
 50
90.0
 41
0.8
  7
GREEKS
100
AcDbText
  0
TEXT
  5
77A
330
1E
100
AcDbEntity
  8
TEXT
100
AcDbText
 10
235.1296391125315
 20
71.64011943042154
 30
0.0
 40
5.0
  1
Bogen 87°
 41
0.8
  7
GREEKS
100
AcDbText
  0
TEXT
  5
78C
330
1E
100
AcDbEntity
  8
TEXT
 62
     1
100
AcDbText
 10
255.030129115258
 20
129.7422179729062
 30
0.0
 40
7.0
  1
und innenbeschichtet
 41
0.8
  7
GREEKS
100
AcDbText
  0
TEXT
  5
78D
330
1E
100
AcDbEntity
  8
TEXT
 62
     1
100
AcDbText
 10
203.0317247605451
 20
117.1473825875242
 30
0.0
 40
7.0
  1
Dämmung: 2 K-PU-Schaum
 41
0.8
  7
GREEKS
100
AcDbText
  0
TEXT
  5
78E
330
1E
100
AcDbEntity
  8
TEXT
 62
     1
100
AcDbText
 10
207.3756002392443
 20
141.011271812132
 30
0.0
 40
7.0
  1
Innenrohr: E195 EN10305 feuerverzinkt
 41
0.8
  7
GREEKS
100
AcDbText
  0
TEXT
  5
78F
330
1E
100
AcDbEntity
  8
TEXT
 62
     1
100
AcDbText
 10
203.6033828683802
 20
152.364339848487
 30
0.0
 40
7.0
  1
Außenrohr: E195 EN10305 feuerverzinkt
 41
0.8
  7
GREEKS
100
AcDbText
  0
HATCH
  5
18AC
330
1E
100
AcDbEntity
  8
SCHRAFF
100
AcDbHatch
 10
0.0
 20
0.0
 30
0.0
210
0.0
220
0.0
230
1.0
  2
_USER
 70
     0
 71
     0
 91
        1
 92
        7
 72
     1
 73
     1
 93
        3
 10
256.1023142119987
 20
352.3692752566109
 42
0.0
 10
253.1064256077349
 20
352.212267387882
 42
0.0396603450432839
 10
250.1230105962177
 20
351.8172491909683
 42
0.4668457183924206
 97
        0
 75
     0
 76
     0
 52
0.0
 41
0.1
 77
     0
 78
     1
 53
0.0
 43
17.05151022800504
 44
-13.77833684496971
 45
0.0
 46
0.1
 79
     0
 47
0.0375630882859892
 98
        1
 10
253.5381617854331
 20
351.9199459130162
  0
ARC
  5
18AD
102
{ACAD_REACTORS
330
1D7F
102
}
330
1E
100
AcDbEntity
  8
SCHRAFF
100
AcDbCircle
 10
252.8814753281212
 20
354.5973789773378
 30
0.0
 40
3.916407704288974
100
AcDbArc
 50
225.2241200089069
 51
325.3253887528229
  0
HATCH
  5
18AE
330
1E
100
AcDbEntity
  8
SCHRAFF
100
AcDbHatch
 10
0.0
 20
0.0
 30
0.0
210
0.0
220
0.0
230
1.0
  2
_USER
 70
     0
 71
     0
 91
        1
 92
        7
 72
     1
 73
     1
 93
        3
 10
244.7742161444366
 20
453.8783272399699
 42
-0.0061990617211105
 10
247.7681580709547
 20
454.0724799328485
 42
0.0
 10
250.7640466752184
 20
454.2294878015773
 42
0.517914794332429
 97
        0
 75
     0
 76
     0
 52
0.0
 41
0.1
 77
     0
 78
     1
 53
0.0
 43
17.05151022800504
 44
-13.77833684496971
 45
0.0
 46
0.1
 79
     0
 47
0.0369692041059943
 98
        1
 10
248.8126594046771
 20
454.5739528311049
  0
ARC
  5
18AF
102
{ACAD_REACTORS
330
1D7F
102
}
330
1E
100
AcDbEntity
  8
SCHRAFF
100
AcDbCircle
 10
247.8931705149847
 20
451.9381425394203
 30
0.0
 40
3.673172067547026
100
AcDbArc
 50
38.59457440321885
 51
148.1158039427674
  0
LINE
  5
18BA
102
{ACAD_REACTORS
330
1D1A
330
1D4C
102
}
330
1E
100
AcDbEntity
  8
STEMPEL
100
AcDbLine
 10
247.7681580709547
 20
454.0724799328485
 30
0.0
 11
253.1064256077349
 21
352.2122673878819
 31
0.0
  0
ARC
  5
18BB
102
{ACAD_REACTORS
330
1D1A
330
1D7F
102
}
330
1E
100
AcDbEntity
  8
STEMPEL
100
AcDbCircle
 10
254.1008087763509
 20
333.238306227545
 30
0.0
 40
19.0
100
AcDbArc
 50
92.9999999999991
 51
180.0
  0
ARC
  5
18BC
102
{ACAD_REACTORS
330
1D1A
330
1D7F
102
}
330
1E
100
AcDbEntity
  8
STEMPEL
100
AcDbCircle
 10
254.1008087763509
 20
333.238306227545
 30
0.0
 40
121.0
100
AcDbArc
 50
92.9999999999991
 51
180.0
  0
ARC
  5
18BD
330
1E
100
AcDbEntity
  8
MITTEL
100
AcDbCircle
 10
254.1008087763509
 20
333.238306227545
 30
0.0
 40
70.0
100
AcDbArc
 50
92.9999999999991
 51
180.0
  0
LINE
  5
18D9
330
1E
100
AcDbEntity
  8
MITTEL
100
AcDbLine
 10
184.1008087763509
 20
399.6658258975865
 30
0.0
 11
184.1008087763509
 21
233.6658258975868
 31
0.0
  0
LINE
  5
18DA
330
1E
100
AcDbEntity
  8
MITTEL
100
AcDbLine
 10
349.8733115456102
 20
408.3535946339153
 30
0.0
 11
184.1008087763509
 21
399.6658258975865
 31
0.0
  0
LINE
  5
19A1
102
{ACAD_REACTORS
330
1D7F
102
}
330
1E
100
AcDbEntity
  8
STEMPEL
100
AcDbLine
 10
248.1008087763509
 20
314.6658258975868
 30
0.0
 11
246.6008087763508
 21
316.1658258975868
 31
0.0
  0
LINE
  5
19A2
102
{ACAD_REACTORS
330
1D7F
102
}
330
1E
100
AcDbEntity
  8
STEMPEL
100
AcDbLine
 10
246.6008087763508
 20
316.1658258975868
 30
0.0
 11
235.1008087763509
 21
316.1658258975868
 31
0.0
  0
LINE
  5
19A3
330
1E
100
AcDbEntity
  8
STEMPEL
100
AcDbLine
 10
240.1008087763509
 20
304.6658258975868
 30
0.0
 11
235.1008087763509
 21
304.6658258975868
 31
0.0
  0
LINE
  5
19A5
102
{ACAD_REACTORS
330
1D5E
102
}
330
1E
100
AcDbEntity
  8
STEMPEL
100
AcDbLine
 10
250.6008087763509
 20
298.6658258975867
 30
0.0
 11
248.100808776351
 21
298.6658258975867
 31
0.0
  0
LINE
  5
19A6
102
{ACAD_REACTORS
330
1D1A
102
}
330
1E
100
AcDbEntity
  8
STEMPEL
100
AcDbLine
 10
233.1008087763509
 20
246.6658258975867
 30
0.0
 11
232.4008994681435
 21
238.6658258975867
 31
0.0
  0
LINE
  5
19A7
102
{ACAD_REACTORS
330
1D1A
102
}
330
1E
100
AcDbEntity
  8
STEMPEL
100
AcDbLine
 10
235.1008087763509
 20
246.5785040117673
 30
0.0
 11
234.4085391432304
 21
238.6658258975867
 31
0.0
  0
LINE
  5
19A8
102
{ACAD_REACTORS
330
1D7F
102
}
330
1E
100
AcDbEntity
  8
STEMPEL
100
AcDbLine
 10
120.1008087763509
 20
314.6658258975868
 30
0.0
 11
121.600808776351
 21
316.1658258975868
 31
0.0
  0
LINE
  5
19A9
102
{ACAD_REACTORS
330
1D7F
102
}
330
1E
100
AcDbEntity
  8
STEMPEL
100
AcDbLine
 10
133.1008087763509
 20
316.1658258975867
 30
0.0
 11
121.600808776351
 21
316.1658258975868
 31
0.0
  0
LINE
  5
19AA
330
1E
100
AcDbEntity
  8
STEMPEL
100
AcDbLine
 10
133.1008087763509
 20
304.6658258975868
 30
0.0
 11
128.1008087763509
 21
304.6658258975868
 31
0.0
  0
LINE
  5
19AC
102
{ACAD_REACTORS
330
1D5E
102
}
330
1E
100
AcDbEntity
  8
STEMPEL
100
AcDbLine
 10
117.600808776351
 20
298.6658258975868
 30
0.0
 11
120.1008087763509
 21
298.6658258975868
 31
0.0
  0
LINE
  5
19AE
102
{ACAD_REACTORS
330
1D1A
102
}
330
1E
100
AcDbEntity
  8
STEMPEL
100
AcDbLine
 10
133.100808776351
 20
246.5785040117673
 30
0.0
 11
133.7930784094715
 21
238.6658258975868
 31
0.0
  0
LINE
  5
19AF
102
{ACAD_REACTORS
330
1D1A
102
}
330
1E
100
AcDbEntity
  8
STEMPEL
100
AcDbLine
 10
135.1008087763509
 20
246.6658258975868
 30
0.0
 11
135.8007180845583
 21
238.6658258975868
 31
0.0
  0
DIMENSION
  5
19B0
330
1E
100
AcDbEntity
  8
BEM
100
AcDbDimension
  2
*D1
 10
235.1008087763509
 20
218.522329995042
 30
0.0
 11
184.1008087763509
 21
225.022329995042
 31
0.0
 70
    32
  1
%%c<>
 71
     5
 42
101.9999999999999
  3
Standard
100
AcDbAlignedDimension
 13
133.100808776351
 23
246.5785040117673
 33
0.0
 14
235.1008087763509
 24
246.5785040117673
 34
0.0
100
AcDbRotatedDimension
1001
ACAD
1000
DSTYLE
1002
{
1070
    40
1040
2.0
1070
    41
1040
3.5
1070
    42
1040
1.0
1070
    43
1040
7.0
1070
    44
1040
1.0
1070
    73
1070
     0
1070
    74
1070
     0
1070
    77
1070
     1
1070
    78
1070
     8
1070
    79
1070
     2
1070
   140
1040
3.5
1070
   141
1040
1.5
1070
   146
1040
0.5142857142857144
1070
   147
1040
1.5
1070
   172
1070
     1
1070
   178
1070
     1
1070
   179
1070
     2
1070
   271
1070
     2
1070
   272
1070
     2
1070
   284
1070
     8
1070
   285
1070
     8
1070
   286
1070
     8
1070
   289
1070
     0
1070
   340
1005
24
1002
}
  0
LINE
  5
19B1
102
{ACAD_REACTORS
330
1D1A
102
}
330
1E
100
AcDbEntity
  8
STEMPEL
100
AcDbLine
 10
133.7930784094715
 20
238.6658258975868
 30
0.0
 11
234.4085391432303
 21
238.6658258975868
 31
0.0
  0
LINE
  5
19B2
330
1E
100
AcDbEntity
  8
HILF
100
AcDbLine
 10
137.1084484514376
 20
246.6658258975868
 30
0.0
 11
231.0931691012642
 21
246.6658258975867
 31
0.0
  0
LINE
  5
19B3
102
{ACAD_REACTORS
330
1D1A
330
1D7F
102
}
330
1E
100
AcDbEntity
  8
STEMPEL
100
AcDbLine
 10
235.1008087763509
 20
333.238306227545
 30
0.0
 11
235.1008087763509
 21
246.5785040117673
 31
0.0
  0
LINE
  5
19B4
102
{ACAD_REACTORS
330
1D1A
102
}
330
1E
100
AcDbEntity
  8
STEMPEL
100
AcDbLine
 10
233.1008087763509
 20
333.238306227545
 30
0.0
 11
233.1008087763509
 21
246.6658258975867
 31
0.0
  0
LINE
  5
19B5
102
{ACAD_REACTORS
330
1D5E
330
1D7F
102
}
330
1E
100
AcDbEntity
  8
STEMPEL
100
AcDbLine
 10
248.100808776351
 20
327.9068917672095
 30
0.0
 11
248.100808776351
 21
298.6658258975867
 31
0.0
  0
LINE
  5
19B6
102
{ACAD_REACTORS
330
1D09
330
1D5E
102
}
330
1E
100
AcDbEntity
  8
STEMPEL
100
AcDbLine
 10
250.6008087763511
 20
326.9094929022753
 30
0.0
 11
250.600808776351
 21
296.6658258975863
 31
0.0
  0
LINE
  5
19B7
102
{ACAD_REACTORS
330
1D1A
330
1D7F
102
}
330
1E
100
AcDbEntity
  8
STEMPEL
100
AcDbLine
 10
133.100808776351
 20
333.2383062275451
 30
0.0
 11
133.100808776351
 21
246.5785040117673
 31
0.0
  0
LINE
  5
19B8
102
{ACAD_REACTORS
330
1D1A
102
}
330
1E
100
AcDbEntity
  8
STEMPEL
100
AcDbLine
 10
135.100808776351
 20
333.2383062275452
 30
0.0
 11
135.1008087763509
 21
246.6658258975868
 31
0.0
  0
LINE
  5
19B9
102
{ACAD_REACTORS
330
1D5E
330
1D7F
102
}
330
1E
100
AcDbEntity
  8
STEMPEL
100
AcDbLine
 10
120.100808776351
 20
378.9737136518464
 30
0.0
 11
120.1008087763509
 21
298.6658258975868
 31
0.0
  0
LINE
  5
19BA
102
{ACAD_REACTORS
330
1D09
330
1D5E
102
}
330
1E
100
AcDbEntity
  8
STEMPEL
100
AcDbLine
 10
117.600808776351
 20
379.9711125167807
 30
0.0
 11
117.6008087763509
 21
296.6658258975868
 31
0.0
  0
ARC
  5
19E5
102
{ACAD_REACTORS
330
1D1A
102
}
330
1E
100
AcDbEntity
  8
STEMPEL
100
AcDbCircle
 10
254.1008087763509
 20
333.238306227545
 30
0.0
 40
21.0
100
AcDbArc
 50
92.9999999999991
 51
180.0
  0
ARC
  5
19E6
102
{ACAD_REACTORS
330
1D1A
102
}
330
1E
100
AcDbEntity
  8
STEMPEL
100
AcDbCircle
 10
254.1008087763509
 20
333.238306227545
 30
0.0
 40
119.0
100
AcDbArc
 50
92.9999999999991
 51
180.0
  0
LINE
  5
1A45
102
{ACAD_REACTORS
330
1D7F
330
1D8C
102
}
330
1E
100
AcDbEntity
  8
STEMPEL
100
AcDbLine
 10
334.414105572799
 20
348.4624435655236
 30
0.0
 11
334.6757853540135
 21
343.4692958917509
 31
0.0
  0
LINE
  5
1A46
102
{ACAD_REACTORS
330
1D4C
330
1D8C
102
}
330
1E
100
AcDbEntity
  8
STEMPEL
100
AcDbLine
 10
348.2225639769991
 20
352.4838778383313
 30
0.0
 11
346.235832134172
 21
351.4275137793178
 31
0.0
  0
LINE
  5
1A47
102
{ACAD_REACTORS
330
1D4C
102
}
330
1E
100
AcDbEntity
  8
STEMPEL
100
AcDbLine
 10
348.1070713000268
 20
354.6876093940751
 30
0.0
 11
345.2968890086002
 21
353.1934089650357
 31
0.0
  0
ARC
  5
1A48
102
{ACAD_REACTORS
330
1D4C
102
}
330
1E
100
AcDbEntity
  8
STEMPEL
100
AcDbCircle
 10
334.4990430645249
 20
373.5012036007909
 30
0.0
 40
23.0
100
AcDbArc
 50
273.0
 51
297.9999999999935
  0
ARC
  5
1A49
102
{ACAD_REACTORS
330
1D4C
330
1D8C
102
}
330
1E
100
AcDbEntity
  8
STEMPEL
100
AcDbCircle
 10
334.4990430645249
 20
373.5012036007909
 30
0.0
 40
25.0
100
AcDbArc
 50
273.0
 51
297.9999999999935
  0
LINE
  5
1A4A
102
{ACAD_REACTORS
330
1D4C
330
1D7F
330
1D8C
102
}
330
1E
100
AcDbEntity
  8
STEMPEL
100
AcDbLine
 10
335.8074419705984
 20
348.5354652319267
 30
0.0
 11
317.6702844194302
 21
347.5849370821633
 31
0.0
  0
LINE
  5
1A4B
102
{ACAD_REACTORS
330
1D4C
102
}
330
1E
100
AcDbEntity
  8
STEMPEL
100
AcDbLine
 10
335.7027700581125
 20
350.5327243014357
 30
0.0
 11
317.5654122510828
 21
349.5821856567074
 31
0.0
  0
ARC
  5
1A4C
102
{ACAD_REACTORS
330
1D4C
102
}
330
1E
100
AcDbEntity
  8
STEMPEL
100
AcDbCircle
 10
301.3787038084642
 20
338.7201527533485
 30
0.0
 40
14.0
100
AcDbArc
 50
65.94963143662202
 51
93.0
  0
ARC
  5
1A4D
102
{ACAD_REACTORS
330
1D4C
330
1D7F
102
}
330
1E
100
AcDbEntity
  8
STEMPEL
100
AcDbCircle
 10
301.3787038084642
 20
338.7201527533485
 30
0.0
 40
12.0
100
AcDbArc
 50
66.11195238227537
 51
93.0
  0
ARC
  5
1A4E
102
{ACAD_REACTORS
330
1D4C
102
}
330
1E
100
AcDbEntity
  8
STEMPEL
100
AcDbCircle
 10
284.4144634521306
 20
364.8681479309932
 30
0.0
 40
13.0
100
AcDbArc
 50
238.6988472432076
 51
273.0
  0
ARC
  5
1A4F
102
{ACAD_REACTORS
330
1D4C
330
1D7F
102
}
330
1E
100
AcDbEntity
  8
STEMPEL
100
AcDbCircle
 10
284.4144634521306
 20
364.8681479309932
 30
0.0
 40
15.0
100
AcDbArc
 50
238.6988472432076
 51
273.0
  0
ARC
  5
1A50
102
{ACAD_REACTORS
330
1D4C
330
1D7F
102
}
330
1E
100
AcDbEntity
  8
STEMPEL
100
AcDbCircle
 10
272.4651284837142
 20
345.215835247429
 30
0.0
 40
8.0
100
AcDbArc
 50
58.69884724320759
 51
93.0
  0
LINE
  5
1A51
102
{ACAD_REACTORS
330
1D4C
330
1D7F
102
}
330
1E
100
AcDbEntity
  8
STEMPEL
100
AcDbLine
 10
300.7506723335489
 20
350.7037071704034
 30
0.0
 11
285.1995027957745
 21
349.8887049096749
 31
0.0
  0
LINE
  5
1A52
102
{ACAD_REACTORS
330
1D4C
102
}
330
1E
100
AcDbEntity
  8
STEMPEL
100
AcDbLine
 10
300.6460004210629
 20
352.7009662399124
 30
0.0
 11
285.0948308832887
 21
351.8859639791837
 31
0.0
  0
ARC
  5
1A53
102
{ACAD_REACTORS
330
1D4C
102
}
330
1E
100
AcDbEntity
  8
STEMPEL
100
AcDbCircle
 10
272.4651284837142
 20
345.215835247429
 30
0.0
 40
10.0
100
AcDbArc
 50
58.69884724320759
 51
93.0
  0
ARC
  5
1A54
102
{ACAD_REACTORS
330
1D4C
330
1D7F
102
}
330
1E
100
AcDbEntity
  8
STEMPEL
100
AcDbCircle
 10
316.3618855133564
 20
372.5506754510275
 30
0.0
 40
25.0
100
AcDbArc
 50
246.1119523822754
 51
273.0
  0
ARC
  5
1A55
102
{ACAD_REACTORS
330
1D4C
102
}
330
1E
100
AcDbEntity
  8
STEMPEL
100
AcDbCircle
 10
316.3616852574954
 20
372.5506649560626
 30
0.0
 40
23.0
100
AcDbArc
 50
246.2112018947927
 51
273.0
  0
LINE
  5
1A56
102
{ACAD_REACTORS
330
1D4C
102
}
330
1E
100
AcDbEntity
  8
STEMPEL
100
AcDbLine
 10
342.5071239820318
 20
461.5409696128145
 30
0.0
 11
339.5561496885708
 21
462.7332406191383
 31
0.0
  0
LINE
  5
1A57
102
{ACAD_REACTORS
330
1D7F
330
1D8C
102
}
330
1E
100
AcDbEntity
  8
STEMPEL
100
AcDbLine
 10
327.9767829549169
 20
471.2938763403366
 30
0.0
 11
328.2384627361314
 21
466.3007286665634
 31
0.0
  0
ARC
  5
1A58
102
{ACAD_REACTORS
330
1D4C
330
1D8C
102
}
330
1E
100
AcDbEntity
  8
STEMPEL
100
AcDbCircle
 10
330.9401980400049
 20
441.4080119641022
 30
0.0
 40
25.0
100
AcDbArc
 50
68.00000000000655
 51
93.0
  0
ARC
  5
1A59
102
{ACAD_REACTORS
330
1D4C
102
}
330
1E
100
AcDbEntity
  8
STEMPEL
100
AcDbCircle
 10
330.9401980400049
 20
441.4080119641022
 30
0.0
 40
23.0
100
AcDbArc
 50
68.00000000000655
 51
93.0
  0
LINE
  5
1A5A
102
{ACAD_REACTORS
330
1D4C
330
1D8C
102
}
330
1E
100
AcDbEntity
  8
STEMPEL
100
AcDbLine
 10
342.3916313050593
 20
463.7447011685586
 30
0.0
 11
340.3053628754024
 21
464.5876083282719
 31
0.0
  0
LINE
  5
1A5B
102
{ACAD_REACTORS
330
1D4C
330
1D7F
330
1D8C
102
}
330
1E
100
AcDbEntity
  8
STEMPEL
100
AcDbLine
 10
329.6317991339311
 20
466.3737503329665
 30
0.0
 11
311.4946415827629
 21
465.4232221832031
 31
0.0
  0
LINE
  5
1A5C
102
{ACAD_REACTORS
330
1D4C
102
}
330
1E
100
AcDbEntity
  8
STEMPEL
100
AcDbLine
 10
329.736471046417
 20
464.3764912634573
 30
0.0
 11
311.5991132393875
 21
463.4259526187289
 31
0.0
  0
ARC
  5
1A5E
102
{ACAD_REACTORS
330
1D4C
102
}
330
1E
100
AcDbEntity
  8
STEMPEL
100
AcDbCircle
 10
294.3656856719098
 20
472.5365104104614
 30
0.0
 40
14.0
100
AcDbArc
 50
273.0
 51
300.050368563378
  0
ARC
  5
1A5F
102
{ACAD_REACTORS
330
1D4C
330
1D7F
102
}
330
1E
100
AcDbEntity
  8
STEMPEL
100
AcDbCircle
 10
294.3656856719098
 20
472.5365104104614
 30
0.0
 40
12.0
100
AcDbArc
 50
273.0
 51
299.8880476177246
  0
ARC
  5
1A60
102
{ACAD_REACTORS
330
1D4C
330
1D7F
102
}
330
1E
100
AcDbEntity
  8
STEMPEL
100
AcDbCircle
 10
280.2275869526951
 20
444.7585107113591
 30
0.0
 40
15.0
100
AcDbArc
 50
93.0
 51
127.3011527567924
  0
ARC
  5
1A61
102
{ACAD_REACTORS
330
1D4C
102
}
330
1E
100
AcDbEntity
  8
STEMPEL
100
AcDbCircle
 10
280.2275869526951
 20
444.7585107113591
 30
0.0
 40
13.0
100
AcDbArc
 50
93.0
 51
127.3011527567924
  0
ARC
  5
1A62
102
{ACAD_REACTORS
330
1D4C
330
1D7F
102
}
330
1E
100
AcDbEntity
  8
STEMPEL
100
AcDbCircle
 10
266.289485647047
 20
463.0541203484686
 30
0.0
 40
8.0
100
AcDbArc
 50
273.0
 51
307.3011527567924
  0
ARC
  5
1A63
102
{ACAD_REACTORS
330
1D4C
102
}
330
1E
100
AcDbEntity
  8
STEMPEL
100
AcDbCircle
 10
266.289485647047
 20
463.0541203484686
 30
0.0
 40
10.0
100
AcDbArc
 50
273.0
 51
307.3011527567924
  0
LINE
  5
1A64
102
{ACAD_REACTORS
330
1D4C
330
1D7F
102
}
330
1E
100
AcDbEntity
  8
STEMPEL
100
AcDbLine
 10
294.9937171468251
 20
460.5529559934067
 30
0.0
 11
279.4425476090507
 21
459.7379537326777
 31
0.0
  0
LINE
  5
1A65
102
{ACAD_REACTORS
330
1D4C
102
}
330
1E
100
AcDbEntity
  8
STEMPEL
100
AcDbLine
 10
295.0983890593108
 20
458.5556969238975
 30
0.0
 11
279.5472195215367
 21
457.7406946631687
 31
0.0
  0
ARC
  5
1A66
102
{ACAD_REACTORS
330
1D4C
102
}
330
1E
100
AcDbEntity
  8
STEMPEL
100
AcDbCircle
 10
312.8028402329754
 20
440.4574733193737
 30
0.0
 40
23.0
100
AcDbArc
 50
93.0
 51
119.7887981052072
  0
ARC
  5
1A67
102
{ACAD_REACTORS
330
1D4C
330
1D7F
102
}
330
1E
100
AcDbEntity
  8
STEMPEL
100
AcDbCircle
 10
312.8030404888367
 20
440.4574838143388
 30
0.0
 40
25.0
100
AcDbArc
 50
93.0
 51
119.8880476177246
  0
DIMENSION
  5
1A68
330
1E
100
AcDbEntity
  8
BEM
100
AcDbDimension
  2
*D2
 10
362.5019082577555
 20
342.424170334198
 30
0.0
 11
365.5126591435054
 21
409.1732181109564
 31
0.0
 70
    32
  1
%%c<>
 71
     5
 42
133.0000000000003
  3
Standard
100
AcDbAlignedDimension
 13
341.8267565508736
 23
474.5231535646241
 33
0.0
 14
348.787438731185
 24
341.7054254422656
 34
0.0
 50
272.9999999999991
100
AcDbRotatedDimension
1001
ACAD
1000
DSTYLE
1002
{
1070
    40
1040
2.0
1070
    41
1040
3.5
1070
    42
1040
1.0
1070
    43
1040
7.0
1070
    44
1040
1.0
1070
    73
1070
     0
1070
    74
1070
     0
1070
    77
1070
     1
1070
    78
1070
     8
1070
    79
1070
     2
1070
   140
1040
3.5
1070
   141
1040
1.5
1070
   146
1040
0.5142857142857144
1070
   147
1040
1.5
1070
   172
1070
     1
1070
   178
1070
     1
1070
   179
1070
     2
1070
   271
1070
     2
1070
   272
1070
     2
1070
   284
1070
     8
1070
   285
1070
     8
1070
   286
1070
     8
1070
   289
1070
     0
1070
   340
1005
24
1002
}
  0
LINE
  5
1A69
102
{ACAD_REACTORS
330
1D4C
330
1D55
330
1D8C
102
}
330
1E
100
AcDbEntity
  8
STEMPEL
100
AcDbLine
 10
341.8267565508736
 20
474.5231535646241
 30
0.0
 11
348.787438731185
 21
341.7054254422656
 31
0.0
  0
LINE
  5
1A6B
330
1E
100
AcDbEntity
  8
HILF
100
AcDbLine
 10
298.4550713197322
 20
457.0679317742913
 30
0.0
 11
303.8287806200546
 21
354.5314500947214
 31
0.0
  0
LINE
  5
1A6C
330
1E
100
AcDbEntity
  8
HILF
100
AcDbLine
 10
281.1258309004953
 20
354.3712485821226
 30
0.0
 11
275.8597451162601
 21
454.8541512404138
 31
0.0
  0
LINE
  5
1A6D
330
1E
100
AcDbEntity
  8
HILF
100
AcDbLine
 10
269.8430574099158
 20
451.5923522594634
 30
0.0
 11
274.8011524039759
 21
356.986263967062
 31
0.0
  0
TEXT
  5
1A6E
330
1E
100
AcDbEntity
  8
TEXT
 62
     1
100
AcDbText
 10
310.932252115078
 20
415.4342315795836
 30
0.0
 40
7.0
  1
DN100
 50
3.000000000000004
 41
0.8
  7
GREEKS
100
AcDbText
  0
LINE
  5
1A6F
102
{ACAD_REACTORS
330
1D4C
330
1D7F
102
}
330
1E
100
AcDbEntity
  8
STEMPEL
100
AcDbLine
 10
272.0464408337705
 20
353.2048715254656
 30
0.0
 11
253.1064256077349
 21
352.2122673878822
 31
0.0
  0
LINE
  5
1A70
102
{ACAD_REACTORS
330
1D4C
102
}
330
1E
100
AcDbEntity
  8
STEMPEL
100
AcDbLine
 10
271.9417689212847
 20
355.2021305949746
 30
0.0
 11
253.0017536952491
 21
354.209526457391
 31
0.0
  0
LINE
  5
1A71
102
{ACAD_REACTORS
330
1D55
330
1D7F
330
1D8C
102
}
330
1E
100
AcDbEntity
  8
STEMPEL
100
AcDbLine
 10
348.6565988405776
 20
344.2019992791521
 30
0.0
 11
259.1109009810023
 21
339.5091081099816
 31
0.0
  0
LINE
  5
1A72
102
{ACAD_REACTORS
330
1CF9
330
1D55
102
}
330
1E
100
AcDbEntity
  8
STEMPEL
100
AcDbLine
 10
348.787438731185
 20
341.7054254422656
 30
0.0
 11
260.2377728360637
 21
337.0647340964473
 31
0.0
  0
LINE
  5
1A73
102
{ACAD_REACTORS
330
1D4C
330
1D7F
102
}
330
1E
100
AcDbEntity
  8
STEMPEL
100
AcDbLine
 10
266.7081732969904
 20
455.0650840704321
 30
0.0
 11
247.7681580709547
 21
454.0724799328486
 31
0.0
  0
LINE
  5
1A74
102
{ACAD_REACTORS
330
1D4C
102
}
330
1E
100
AcDbEntity
  8
STEMPEL
100
AcDbLine
 10
266.8128452094763
 20
453.067825000923
 30
0.0
 11
247.8728299834406
 21
452.0752208633394
 31
0.0
  0
LINE
  5
1A75
102
{ACAD_REACTORS
330
1D55
330
1D7F
330
1D8C
102
}
330
1E
100
AcDbEntity
  8
STEMPEL
100
AcDbLine
 10
341.9575964414808
 20
472.0265797277378
 30
0.0
 11
201.4150620018575
 21
464.6610576029467
 31
0.0
  0
LINE
  5
1A76
102
{ACAD_REACTORS
330
1CF9
330
1D55
102
}
330
1E
100
AcDbEntity
  8
STEMPEL
100
AcDbLine
 10
341.8267565508736
 20
474.5231535646241
 30
0.0
 11
200.2881901467961
 21
467.1054316164812
 31
0.0
  0
LINE
  5
1B00
102
{ACAD_REACTORS
330
1D23
330
1D55
102
}
330
1E
100
AcDbEntity
  8
STEMPEL
100
AcDbLine
 10
201.4150620018576
 20
464.6610576029466
 30
0.0
 11
200.2881901467962
 21
467.1054316164812
 31
0.0
  0
LINE
  5
1B01
102
{ACAD_REACTORS
330
1D23
330
1D5E
102
}
330
1E
100
AcDbEntity
  8
STEMPEL
100
AcDbLine
 10
120.100808776351
 20
378.9737136518464
 30
0.0
 11
117.600808776351
 21
379.9711125167807
 31
0.0
  0
LINE
  5
1B02
102
{ACAD_REACTORS
330
1CF9
330
1D09
330
1D23
102
}
330
1E
100
AcDbEntity
  8
STEMPEL
100
AcDbLine
 10
260.2377728360638
 20
337.0647340964472
 30
0.0
 11
250.6008087763511
 21
326.9094929022752
 31
0.0
  0
LINE
  5
1B03
102
{ACAD_REACTORS
330
1CF9
330
1D09
330
1D23
102
}
330
1E
100
AcDbEntity
  8
STEMPEL
100
AcDbLine
 10
200.2881901467962
 20
467.1054316164812
 30
0.0
 11
117.600808776351
 21
379.9711125167807
 31
0.0
  0
LINE
  5
1B04
102
{ACAD_REACTORS
330
1D23
330
1D7F
102
}
330
1E
100
AcDbEntity
  8
STEMPEL
100
AcDbLine
 10
201.4150620018577
 20
464.6610576029468
 30
0.0
 11
120.100808776351
 21
378.9737136518464
 31
0.0
  0
LINE
  5
1B05
102
{ACAD_REACTORS
330
1D23
330
1D7F
102
}
330
1E
100
AcDbEntity
  8
STEMPEL
100
AcDbLine
 10
259.1109009810023
 20
339.5091081099816
 30
0.0
 11
248.100808776351
 21
327.9068917672095
 31
0.0
  0
LINE
  5
1B06
330
1E
100
AcDbEntity
  8
MITTEL
100
AcDbLine
 10
230.2629814914298
 20
402.085082856464
 30
0.0
 11
184.1008087763508
 21
353.4403027095277
 31
0.0
  0
LINE
  5
1B8E
102
{ACAD_REACTORS
330
1D23
330
1D55
102
}
330
1E
100
AcDbEntity
  8
STEMPEL
100
AcDbLine
 10
259.1109009810023
 20
339.5091081099816
 30
0.0
 11
260.2377728360639
 21
337.0647340964473
 31
0.0
  0
LINE
  5
1B91
102
{ACAD_REACTORS
330
1D23
330
1D5E
102
}
330
1E
100
AcDbEntity
  8
STEMPEL
100
AcDbLine
 10
250.6008087763511
 20
326.9094929022752
 30
0.0
 11
248.100808776351
 21
327.9068917672095
 31
0.0
  0
DIMENSION
  5
1BB6
330
1E
100
AcDbEntity
  8
BEM
100
AcDbDimension
  2
*D3
 10
101.4385406492076
 20
238.6658258975868
 30
0.0
 11
94.93854064920755
 21
268.6658258975868
 31
0.0
 70
    32
 71
     5
 42
60.0
  3
Standard
100
AcDbAlignedDimension
 13
117.6008087763509
 23
298.6658258975868
 33
0.0
 14
133.7930784094715
 24
238.6658258975868
 34
0.0
 50
90.0
100
AcDbRotatedDimension
1001
ACAD
1000
DSTYLE
1002
{
1070
   279
1070
     1
1070
    40
1040
2.0
1070
    41
1040
3.5
1070
    42
1040
1.0
1070
    43
1040
7.0
1070
    44
1040
1.0
1070
    73
1070
     0
1070
    74
1070
     0
1070
    77
1070
     1
1070
    78
1070
     8
1070
    79
1070
     2
1070
   140
1040
3.5
1070
   141
1040
1.5
1070
   146
1040
0.5142857142857144
1070
   147
1040
1.5
1070
   172
1070
     1
1070
   178
1070
     1
1070
   179
1070
     2
1070
   271
1070
     2
1070
   272
1070
     2
1070
   284
1070
     8
1070
   285
1070
     8
1070
   286
1070
     8
1002
}
  0
ARC
  5
1CE4
102
{ACAD_REACTORS
330
1D09
102
}
330
1E
100
AcDbEntity
  8
SCHRAFF
100
AcDbCircle
 10
120.100808776351
 20
378.9737136518464
 30
0.0
 40
4.0
100
AcDbArc
 50
85.1821874534883
 51
231.3178125465106
  0
ARC
  5
1CE5
102
{ACAD_REACTORS
330
1CF9
102
}
330
1E
100
AcDbEntity
  8
SCHRAFF
100
AcDbCircle
 10
201.4150620018571
 20
464.6610576029472
 30
0.0
 40
4.0
100
AcDbArc
 50
41.68218745348883
 51
187.8178125465111
  0
ARC
  5
1CE8
102
{ACAD_REACTORS
330
1D09
102
}
330
1E
100
AcDbEntity
  8
SCHRAFF
100
AcDbCircle
 10
248.175790423701
 20
327.8769771232265
 30
0.0
 40
5.52780367741923
100
AcDbArc
 50
296.0206295243346
 51
20.47937047566434
  0
ARC
  5
1CE9
102
{ACAD_REACTORS
330
1CF9
102
}
330
1E
100
AcDbEntity
  8
SCHRAFF
100
AcDbCircle
 10
259.1446988642196
 20
339.4357948338724
 30
0.0
 40
5.52780367741923
100
AcDbArc
 50
252.52062952434
 51
336.9793704756698
  0
HATCH
  5
1CF9
330
1E
100
AcDbEntity
  8
SCHRAFF
100
AcDbHatch
 10
0.0
 20
0.0
 30
0.0
210
0.0
220
0.0
230
1.0
  2
_USER
 70
     0
 71
     1
 91
        2
 92
        7
 72
     1
 73
     1
 93
        3
 10
197.4522396006286
 20
464.1169632946501
 42
0.0
 10
200.2881901467962
 20
467.1054316164812
 42
0.0
 10
204.4024418340921
 20
467.3210504108238
 42
0.7408772749415133
 97
        3
330
1B03
330
1A76
330
1CE5
 92
        7
 72
     1
 73
     1
 93
        3
 10
264.2322909750812
 20
337.2740779214189
 42
0.0
 10
260.2377728360638
 20
337.0647340964472
 42
0.0
 10
257.4843545332889
 20
334.1632366123981
 42
0.3861623831724849
 97
        3
330
1A72
330
1B02
330
1CE9
 75
     0
 76
     0
 52
0.0
 41
0.1
 77
     0
 78
     1
 53
0.0
 43
0.0
 44
0.0
 45
0.0
 46
0.1
 79
     0
 47
0.3377144278934129
 98
        2
 10
201.3549586860145
 20
467.4701663329515
 10
259.8208773815591
 20
335.7615394930908
  0
HATCH
  5
1D09
330
1E
100
AcDbEntity
  8
SCHRAFF
100
AcDbHatch
 10
0.0
 20
0.0
 30
0.0
210
0.0
220
0.0
230
1.0
  2
_USER
 70
     0
 71
     1
 91
        2
 92
        7
 72
     1
 73
     1
 93
        3
 10
253.3542270791262
 20
329.8109903863244
 42
0.0
 10
250.6008087763511
 20
326.9094929022752
 42
0.0
 10
250.6008087763511
 20
322.9094929022752
 42
0.3861623831725542
 97
        3
330
1B02
330
19B6
330
1CE8
 92
        7
 72
     1
 73
     1
 93
        3
 10
117.600808776351
 20
379.9711125167806
 42
0.0
 10
120.4367593225183
 20
382.9595808386114
 42
0.7408772749413934
 10
117.600808776351
 20
375.8512146526472
 42
0.0
 97
        3
330
1B03
330
1CE4
330
19BA
 75
     0
 76
     0
 52
0.0
 41
0.1
 77
     0
 78
     1
 53
0.0
 43
0.0
 44
0.0
 45
0.0
 46
0.1
 79
     0
 47
0.3377144278934129
 98
        2
 10
251.7099999045631
 20
326.643249006016
 10
116.8666365913213
 20
378.9889854038806
  0
HATCH
  5
1D1A
330
1E
100
AcDbEntity
  8
SCHRAFF
100
AcDbHatch
 10
0.0
 20
0.0
 30
0.0
210
0.0
220
0.0
230
1.0
  2
_USER
 70
     0
 71
     1
 91
        2
 92
        7
 72
     1
 73
     1
 93
        8
 10
235.1008087763509
 20
333.238306227545
 42
-0.3989595459737191
 10
253.1064256077349
 20
352.2122673878819
 42
0.0
 10
253.001753695249
 20
354.209526457391
 42
0.3989595459737192
 10
233.1008087763509
 20
333.238306227545
 42
0.0
 10
233.1008087763509
 20
246.6658258975864
 42
0.0
 10
232.4008994681436
 20
238.6658258975868
 42
0.0
 10
234.4085391432304
 20
238.6658258975868
 42
0.0
 10
235.1008087763509
 20
246.5785040117667
 42
0.0
 97
        8
330
18BB
330
18BA
330
19E5
330
19B4
330
19A6
330
19B1
330
19A7
330
19B3
 92
        7
 72
     1
 73
     1
 93
        8
 10
135.100808776351
 20
333.2383062275452
 42
-0.3989595459737188
 10
247.8728299834406
 20
452.0752208633393
 42
0.0
 10
247.7681580709547
 20
454.0724799328485
 42
0.3989595459737191
 10
133.100808776351
 20
333.2383062275451
 42
0.0
 10
133.100808776351
 20
246.5785040117675
 42
0.0
 10
133.7930784094716
 20
238.6658258975868
 42
0.0
 10
135.8007180845584
 20
238.6658258975868
 42
0.0
 10
135.1008087763509
 20
246.6658258975868
 42
0.0
 97
        8
330
19E6
330
18BA
330
18BC
330
19B7
330
19AE
330
19B1
330
19AF
330
19B8
 75
     0
 76
     0
 52
135.0
 41
2.0
 77
     0
 78
     1
 53
135.0
 43
0.0
 44
0.0
 45
-1.414213562373095
 46
-1.414213562373094
 79
     0
 47
0.6381638143655439
 98
        2
 10
234.1515766186053
 20
300.3492699032161
 10
134.5276094396276
 20
316.941528812238
  0
HATCH
  5
1D23
330
1E
100
AcDbEntity
  8
SCHRAFF
100
AcDbHatch
 10
0.0
 20
0.0
 30
0.0
210
0.0
220
0.0
230
1.0
  2
_USER
 70
     0
 71
     1
 91
        2
 92
        7
 72
     0
 73
     1
 93
        4
 10
201.4150620018577
 20
464.6610576029466
 10
200.2881901467961
 20
467.1054316164812
 10
117.6008087763509
 20
379.9711125167807
 10
120.100808776351
 20
378.9737136518463
 97
        4
330
1B00
330
1B03
330
1B01
330
1B04
 92
        7
 72
     0
 73
     1
 93
        4
 10
260.2377728360639
 20
337.0647340964473
 10
259.1109009810023
 20
339.5091081099816
 10
248.100808776351
 20
327.9068917672095
 10
250.6008087763511
 20
326.9094929022752
 97
        4
330
1B8E
330
1B05
330
1B91
330
1B02
 75
     0
 76
     0
 52
135.0
 41
2.0
 77
     0
 78
     1
 53
135.0
 43
0.0
 44
0.0
 45
-1.414213562373095
 46
-1.414213562373094
 79
     0
 47
0.3831495367970112
 98
        2
 10
166.7996762440598
 20
429.7966550992434
 10
254.6029763228844
 20
332.8598224163306
  0
HATCH
  5
1D4C
330
1E
100
AcDbEntity
  8
SCHRAFF
100
AcDbHatch
 10
0.0
 20
0.0
 30
0.0
210
0.0
220
0.0
230
1.0
  2
_USER
 70
     0
 71
     1
 91
        2
 92
        7
 72
     1
 73
     1
 93
       20
 10
272.3495296929809
 20
455.0995074627687
 42
-0.1507946423587023
 10
279.5472195215367
 20
457.7406946631687
 42
0.0
 10
295.0983890593108
 20
458.5556969238975
 42
0.1171420130223563
 10
301.3074491949402
 20
460.3787178809632
 42
-0.1182991460891716
 10
311.5991132393875
 20
463.4259526187289
 42
0.0
 10
329.736471046417
 20
464.3764912634573
 42
-0.109517811683242
 10
339.5561496885708
 20
462.7332406191383
 42
0.0
 10
342.507123982032
 20
461.5409696128145
 42
0.0
 10
342.3916313050594
 20
463.7447011685586
 42
0.0
 10
340.3053628754024
 20
464.5876083282719
 42
0.1095178116832405
 10
329.6317991339311
 20
466.3737503329665
 42
0.0
 10
311.4946415827629
 20
465.4232221832031
 42
0.1178625008509354
 10
300.3453683152375
 20
462.132501784692
 42
-0.1178625008509348
 10
294.9937171468253
 20
460.5529559934067
 42
0.0
 10
279.4425476090507
 20
459.7379537326777
 42
0.1507946423586991
 10
271.1375208837942
 20
456.6904300399087
 42
-0.1507946423587022
 10
266.7081732969906
 20
455.0650840704321
 42
0.0
 10
247.7681580709547
 20
454.0724799328485
 42
0.0
 10
247.8728299834405
 20
452.0752208633394
 42
0.0
 10
266.8128452094763
 20
453.067825000923
 42
0.1507946423587045
 97
       20
330
1A61
330
1A65
330
1A5E
330
1A66
330
1A5C
330
1A59
330
1A56
330
1A69
330
1A5A
330
1A58
330
1A5B
330
1A67
330
1A5F
330
1A64
330
1A60
330
1A62
330
1A73
330
18BA
330
1A74
330
1A63
 92
        7
 72
     1
 73
     1
 93
       20
 10
271.9417689212846
 20
355.2021305949746
 42
0.0
 10
253.001753695249
 20
354.209526457391
 42
0.0
 10
253.1064256077349
 20
352.2122673878821
 42
0.0
 10
272.0464408337705
 20
353.2048715254656
 42
-0.1507946423587119
 10
276.6214189075112
 20
352.0514222677991
 42
0.1507946423586996
 10
285.1995027957745
 20
349.8887049096749
 42
0.0
 10
300.7506723335489
 20
350.7037071704034
 42
-0.1178625008509396
 10
306.2381140911321
 20
349.6922141688119
 42
0.1178625008509349
 10
317.6702844194302
 20
347.5849370821633
 42
0.0
 10
335.8074419705984
 20
348.5354652319267
 42
0.10951781168324
 10
346.235832134172
 20
351.4275137793178
 42
0.0
 10
348.2225639769992
 20
352.4838778383314
 42
0.0
 10
348.1070713000267
 20
354.6876093940751
 42
0.0
 10
345.2968890086002
 20
353.1934089650357
 42
-0.109517811683244
 10
335.7027700581123
 20
350.5327243014357
 42
0.0
 10
317.5654122510828
 20
349.5821856567074
 42
-0.1182991460893734
 10
307.0116042547344
 20
351.5369554967165
 42
0.1171420130220196
 10
300.6460004210629
 20
352.7009662399124
 42
0.0
 10
285.0948308832887
 20
351.8859639791837
 42
-0.1507946423587032
 10
277.6604915134604
 20
353.7603190228916
 42
0.1507946423587088
 97
       20
330
1A70
330
18BA
330
1A6F
330
1A50
330
1A4F
330
1A51
330
1A4D
330
1A54
330
1A4A
330
1A49
330
1A46
330
1A69
330
1A47
330
1A48
330
1A4B
330
1A55
330
1A4C
330
1A52
330
1A4E
330
1A53
 75
     0
 76
     0
 52
45.0
 41
2.0
 77
     0
 78
     1
 53
45.0
 43
0.0
 44
0.0
 45
-1.414213562373094
 46
1.414213562373095
 79
     0
 47
0.3831495367970112
 98
        2
 10
261.1211254370396
 20
453.9350769037532
 10
263.805069189927
 20
354.316196576144
  0
HATCH
  5
1D55
330
1E
100
AcDbEntity
  8
SCHRAFF
100
AcDbHatch
 10
0.0
 20
0.0
 30
0.0
210
0.0
220
0.0
230
1.0
  2
_USER
 70
     0
 71
     1
 91
        2
 92
        7
 72
     0
 73
     1
 93
        4
 10
341.957596441481
 20
472.0265797277378
 10
341.8267565508736
 20
474.5231535646242
 10
200.2881901467963
 20
467.1054316164811
 10
201.4150620018576
 20
464.6610576029466
 97
        4
330
1A69
330
1A76
330
1B00
330
1A75
 92
        7
 72
     0
 73
     1
 93
        4
 10
348.787438731185
 20
341.7054254422656
 10
348.6565988405776
 20
344.2019992791521
 10
259.1109009810023
 20
339.5091081099816
 10
260.2377728360638
 20
337.0647340964472
 97
        4
330
1A69
330
1A71
330
1B8E
330
1A72
 75
     0
 76
     0
 52
45.0
 41
2.0
 77
     0
 78
     1
 53
45.0
 43
0.0
 44
0.0
 45
-1.414213562373094
 46
1.414213562373095
 79
     0
 47
0.3831495367970112
 98
        2
 10
259.9708638286593
 20
468.8779081831412
 10
286.4268808214065
 20
339.7565135607324
  0
HATCH
  5
1D5E
330
1E
100
AcDbEntity
  8
SCHRAFF
100
AcDbHatch
 10
0.0
 20
0.0
 30
0.0
210
0.0
220
0.0
230
1.0
  2
_USER
 70
     0
 71
     1
 91
        2
 92
        7
 72
     0
 73
     1
 93
        4
 10
250.6008087763512
 20
326.9094929022752
 10
248.100808776351
 20
327.9068917672094
 10
248.100808776351
 20
298.6658258975867
 10
250.600808776351
 20
298.6658258975867
 97
        4
330
1B91
330
19B5
330
19A5
330
19B6
 92
        7
 72
     0
 73
     1
 93
        4
 10
120.100808776351
 20
378.9737136518463
 10
117.600808776351
 20
379.9711125167807
 10
117.6008087763509
 20
298.6658258975867
 10
120.1008087763509
 20
298.6658258975867
 97
        4
330
1B01
330
19BA
330
19AC
330
19B9
 75
     0
 76
     0
 52
45.0
 41
2.0
 77
     0
 78
     1
 53
45.0
 43
0.0
 44
0.0
 45
-1.414213562373094
 46
1.414213562373095
 79
     0
 47
0.3831495367970112
 98
        2
 10
248.8516682809827
 20
311.4034482565171
 10
118.872109228213
 20
331.7103734257464
  0
HATCH
  5
1D7F
330
1E
100
AcDbEntity
  8
SCHRAFF
100
AcDbHatch
 10
0.0
 20
0.0
 30
0.0
210
0.0
220
0.0
230
1.0
  2
HONEY
 70
     0
 71
     1
 91
        2
 92
        7
 72
     1
 73
     1
 93
       16
 10
300.3453683152375
 20
462.132501784692
 42
-0.1178625008509353
 10
311.4946415827629
 20
465.4232221832031
 42
0.0
 10
328.2384627361314
 20
466.3007286665636
 42
0.0
 10
327.976782954917
 20
471.2938763403366
 42
0.0
 10
201.4150620018576
 20
464.6610576029467
 42
0.0
 10
120.100808776351
 20
378.9737136518465
 42
0.0
 10
120.1008087763509
 20
314.6658258975869
 42
0.0
 10
121.600808776351
 20
316.1658258975867
 42
0.0
 10
133.100808776351
 20
316.1658258975867
 42
0.0
 10
133.100808776351
 20
333.2383062275451
 42
-0.3917915153305604
 10
244.7742161444366
 20
453.8783272399699
 42
-0.517914794332428
 10
250.7640466752184
 20
454.2294878015773
 42
0.0
 10
266.7081732969904
 20
455.0650840704321
 42
0.1507946423587118
 10
271.1375208837943
 20
456.6904300399088
 42
-0.1507946423586968
 10
279.4425476090507
 20
459.7379537326777
 42
0.0
 10
294.9937171468251
 20
460.5529559934067
 42
0.1178625008509387
 97
       16
330
1A67
330
1A5B
330
1A57
330
1A75
330
1B04
330
19B9
330
19A8
330
19A9
330
19B7
330
18BC
330
18AF
330
1A73
330
1A62
330
1A60
330
1A64
330
1A5F
 92
        7
 72
     1
 73
     1
 93
       16
 10
334.414105572799
 20
348.4624435655238
 42
0.0
 10
317.6702844194302
 20
347.5849370821633
 42
-0.1178625008509399
 10
306.2381140911317
 20
349.692214168812
 42
0.1178625008509256
 10
300.750672333549
 20
350.7037071704034
 42
0.0
 10
285.1995027957745
 20
349.8887049096749
 42
-0.1507946423587003
 10
276.6214189075112
 20
352.0514222677991
 42
0.1507946423587105
 10
272.0464408337705
 20
353.2048715254656
 42
0.0
 10
256.1023142119988
 20
352.369275256611
 42
-0.4668457183924172
 10
250.1230105962179
 20
351.8172491909681
 42
0.3537026093735502
 10
235.1008087763509
 20
333.238306227545
 42
0.0
 10
235.1008087763509
 20
316.1658258975868
 42
0.0
 10
246.6008087763508
 20
316.1658258975868
 42
0.0
 10
248.100808776351
 20
314.6658258975867
 42
0.0
 10
248.100808776351
 20
327.9068917672095
 42
0.0
 10
259.1109009810022
 20
339.5091081099815
 42
0.0
 10
334.6757853540135
 20
343.4692958917509
 42
0.0
 97
       16
330
1A4A
330
1A54
330
1A4D
330
1A51
330
1A4F
330
1A50
330
1A6F
330
18AD
330
18BB
330
19B3
330
19A2
330
19A1
330
19B5
330
1B05
330
1A71
330
1A45
 75
     0
 76
     1
 52
0.0
 41
30.0
 77
     0
 78
     3
 53
0.0
 43
0.0
 44
0.0
 45
5.625
 46
3.247595249999999
 79
     2
 49
3.75
 49
-7.5
 53
120.0
 43
0.0
 44
0.0
 45
-5.624999987709673
 46
3.247595271287468
 79
     2
 49
3.75
 49
-7.5
 53
60.0
 43
0.0
 44
0.0
 45
0.0000000122903263
 46
6.495190521287468
 79
     2
 49
-7.5
 49
3.75
 47
0.3831495367970112
 98
        2
 10
274.9242647376036
 20
461.5980673752114
 10
261.5045459731664
 20
344.3543081235177
  0
HATCH
  5
1D8C
330
1E
100
AcDbEntity
  8
SCHRAFF
100
AcDbHatch
 10
0.0
 20
0.0
 30
0.0
210
0.0
220
0.0
230
1.0
  2
NET
 70
     0
 71
     1
 91
        2
 92
        7
 72
     1
 73
     1
 93
        6
 10
341.957596441481
 20
472.0265797277376
 42
0.0
 10
327.9767829549169
 20
471.2938763403364
 42
0.0
 10
328.2384627361314
 20
466.3007286665636
 42
0.0
 10
329.6317991339311
 20
466.3737503329665
 42
-0.1095178116832405
 10
340.3053628754024
 20
464.5876083282719
 42
0.0
 10
342.3916313050594
 20
463.7447011685586
 42
0.0
 97
        6
330
1A75
330
1A57
330
1A5B
330
1A58
330
1A5A
330
1A69
 92
        7
 72
     1
 73
     1
 93
        6
 10
348.2225639769993
 20
352.4838778383314
 42
0.0
 10
346.235832134172
 20
351.4275137793178
 42
-0.1095178116832417
 10
335.8074419705982
 20
348.5354652319267
 42
0.0
 10
334.414105572799
 20
348.4624435655237
 42
0.0
 10
334.6757853540135
 20
343.4692958917509
 42
0.0
 10
348.6565988405776
 20
344.2019992791521
 42
0.0
 97
        6
330
1A46
330
1A49
330
1A4A
330
1A45
330
1A71
330
1A69
 75
     0
 76
     1
 52
45.0
 41
20.0
 77
     0
 78
     2
 53
45.0
 43
0.0
 44
0.0
 45
-1.767766952966368
 46
1.767766952966368
 79
     0
 53
135.0
 43
0.0
 44
0.0
 45
-1.767766952966368
 46
-1.767766952966368
 79
     0
 47
0.3831495367970112
 98
        2
 10
334.3544478372532
 20
469.6442075101974
 10
340.1057558791549
 20
346.6532047051344
  0
HATCH
  5
1DBB
330
1E
100
AcDbEntity
  8
SCHRAFF
100
AcDbHatch
 10
0.0
 20
0.0
 30
0.0
210
0.0
220
0.0
230
1.0
  2
NET
 70
     0
 71
     0
 91
        2
 92
        7
 72
     0
 73
     1
 93
        9
 10
248.100808776351
 20
314.6658258975866
 10
246.6008087763507
 20
316.1658258975868
 10
235.100808776351
 20
316.1658258975868
 10
235.100808776351
 20
304.6658258975868
 10
240.1008087763509
 20
304.6658258975868
 10
244.7196109298681
 20
296.6658258975864
 10
250.6008087763511
 20
296.6658258975863
 10
250.6008087763511
 20
298.6658258975867
 10
248.1008087763511
 20
298.6658258975867
 97
        0
 92
        7
 72
     0
 73
     1
 93
        9
 10
133.100808776351
 20
316.1658258975867
 10
121.600808776351
 20
316.1658258975868
 10
120.1008087763509
 20
314.6658258975869
 10
120.1008087763509
 20
298.6658258975867
 10
117.6008087763509
 20
298.6658258975868
 10
117.6008087763509
 20
296.6658258975868
 10
123.4820066228337
 20
296.6658258975867
 10
128.1008087763509
 20
304.6658258975868
 10
133.100808776351
 20
304.6658258975867
 97
        0
 75
     0
 76
     1
 52
45.0
 41
20.0
 77
     0
 78
     2
 53
45.0
 43
-40.89919122364881
 44
-13.20916816159888
 45
-1.767766952966368
 46
1.767766952966368
 79
     0
 53
135.0
 43
-40.89919122364881
 44
-13.20916816159888
 45
-1.767766952966368
 46
-1.767766952966368
 79
     0
 47
0.1961114262777251
 98
        2
 10
243.882174176581
 20
309.8637362871409
 10
131.442537531519
 20
311.0404048258297
  0
LINE
  5
1DBC
330
1E
100
AcDbEntity
  8
STEMPEL
100
AcDbLine
 10
235.1008087763509
 20
296.6658258975865
 30
0.0
 11
250.6008087763511
 21
296.6658258975863
 31
0.0
  0
LINE
  5
1DBD
330
1E
100
AcDbEntity
  8
STEMPEL
100
AcDbLine
 10
240.1008087763509
 20
304.6658258975868
 30
0.0
 11
244.719610929868
 21
296.6658258975865
 31
0.0
  0
LINE
  5
1DBE
330
1E
100
AcDbEntity
  8
STEMPEL
100
AcDbLine
 10
117.6008087763509
 20
296.6658258975868
 30
0.0
 11
133.100808776351
 21
296.6658258975867
 31
0.0
  0
LINE
  5
1DBF
330
1E
100
AcDbEntity
  8
STEMPEL
100
AcDbLine
 10
128.1008087763509
 20
304.6658258975868
 30
0.0
 11
123.4820066228338
 21
296.6658258975867
 31
0.0
  0
TEXT
  5
1DC7
330
1E
100
AcDbEntity
  8
TEXT
100
AcDbText
 10
148.622109822104
 20
73.14025471151666
 30
0.0
 40
4.0
  1
2007
 41
0.8
  7
GREEKS
100
AcDbText
  0
TEXT
  5
1DC8
330
1E
100
AcDbEntity
  8
TEXT
100
AcDbText
 10
170.398997108236
 20
63.10765040825732
 30
0.0
 40
4.0
  1
27.09.
 41
0.8
  7
GREEKS
 72
     1
 11
177.4085209177598
 21
63.10765040825732
 31
0.0
100
AcDbText
  0
DIMENSION
  5
1DE5
330
1E
100
AcDbEntity
  8
BEM
100
AcDbDimension
  2
*D4
 10
85.47671771653131
 20
399.6658258975866
 30
0.0
 11
78.97671771653124
 21
319.1658258975867
 31
0.0
 70
    32
 71
     5
 42
160.9999999999997
  3
Standard
100
AcDbAlignedDimension
 13
133.7930784094715
 23
238.6658258975868
 33
0.0
 14
184.1008087763509
 24
399.6658258975865
 34
0.0
 50
90.0
100
AcDbRotatedDimension
1001
ACAD
1000
DSTYLE
1002
{
1070
    40
1040
2.0
1070
    41
1040
3.5
1070
    42
1040
1.0
1070
    43
1040
7.0
1070
    44
1040
1.0
1070
    73
1070
     0
1070
    74
1070
     0
1070
    77
1070
     1
1070
    78
1070
     8
1070
    79
1070
     2
1070
   140
1040
3.5
1070
   141
1040
1.5
1070
   146
1040
0.5142857142857144
1070
   147
1040
1.5
1070
   172
1070
     1
1070
   178
1070
     1
1070
   179
1070
     2
1070
   271
1070
     2
1070
   272
1070
     2
1070
   284
1070
     8
1070
   285
1070
     8
1070
   286
1070
     8
1002
}
  0
DIMENSION
  5
1DFF
330
1E
100
AcDbEntity
  8
BEM
100
AcDbDimension
  2
*D5
 10
339.0998189750115
 20
526.5562221885509
 30
0.0
 11
258.156490827093
 21
528.8230823615263
 31
0.0
 70
    32
  1
161
 71
     5
 42
161.4275196700418
 51
356.9999999999999
  3
Standard
100
AcDbAlignedDimension
 13
184.1008087763509
 23
399.6658258975865
 33
0.0
 14
341.8267565508737
 24
474.5231535646241
 34
0.0
 50
3.000000000000059
100
AcDbRotatedDimension
1001
ACAD
1000
DSTYLE
1002
{
1070
    40
1040
2.0
1070
    41
1040
3.5
1070
    42
1040
1.0
1070
    43
1040
7.0
1070
    44
1040
1.0
1070
    73
1070
     0
1070
    74
1070
     0
1070
    77
1070
     1
1070
    78
1070
     8
1070
    79
1070
     2
1070
   140
1040
3.5
1070
   141
1040
1.5
1070
   146
1040
0.5142857142857144
1070
   147
1040
1.5
1070
   172
1070
     1
1070
   178
1070
     1
1070
   179
1070
     2
1070
   271
1070
     2
1070
   272
1070
     2
1070
   284
1070
     8
1070
   285
1070
     8
1070
   286
1070
     8
1002
}
  0
DIMENSION
  5
1E0C
330
1E
100
AcDbEntity
  8
BEM
100
AcDbDimension
  2
*D6
 10
184.1008087763509
 20
233.6658258975868
 30
0.0
 11
259.7850856758059
 21
479.4204126904934
 31
0.0
 70
    34
 71
     5
 42
1.518436449235064
  3
Standard
100
AcDb2LineAngularDimension
 13
349.8733115456102
 23
408.3535946339153
 33
0.0
 14
184.1008087763509
 24
399.6658258975865
 34
0.0
 15
184.1008087763509
 25
399.6658258975865
 35
0.0
 16
271.831004009833
 26
454.4857361360113
 36
0.0
1001
ACAD
1000
DSTYLE
1002
{
1070
    40
1040
2.0
1070
    41
1040
3.5
1070
    42
1040
1.0
1070
    43
1040
7.0
1070
    44
1040
1.0
1070
    73
1070
     0
1070
    74
1070
     0
1070
    77
1070
     1
1070
    78
1070
     8
1070
    79
1070
     2
1070
   140
1040
3.5
1070
   141
1040
1.5
1070
   146
1040
0.5142857142857144
1070
   147
1040
1.5
1070
   172
1070
     1
1070
   178
1070
     1
1070
   179
1070
     2
1070
   271
1070
     2
1070
   272
1070
     2
1070
   284
1070
     8
1070
   285
1070
     8
1070
   286
1070
     8
1002
}
  0
ENDSEC
  0
SECTION
  2
OBJECTS
  0
DICTIONARY
  5
C
330
0
100
AcDbDictionary
281
     1
  3
ACAD_COLOR
350
DF
  3
ACAD_GROUP
350
D
  3
ACAD_LAYOUT
350
19
  3
ACAD_MATERIAL
350
DE
  3
ACAD_MLINESTYLE
350
16
  3
ACAD_PLOTSETTINGS
350
18
  3
ACAD_PLOTSTYLENAME
350
E
  3
AcDbVariableDictionary
350
25E
  0
DICTIONARY
  5
A0
330
1E
100
AcDbDictionary
280
     1
281
     1
  3
ACAD_LAYOUTSELFREF
360
D4
  0
DICTIONARY
  5
A2
330
1A
100
AcDbDictionary
280
     1
281
     1
  3
ACAD_LAYOUTSELFREF
360
D3
  0
DICTIONARY
  5
DF
102
{ACAD_REACTORS
330
C
102
}
330
C
100
AcDbDictionary
281
     1
  0
DICTIONARY
  5
D
102
{ACAD_REACTORS
330
C
102
}
330
C
100
AcDbDictionary
281
     1
  0
DICTIONARY
  5
19
102
{ACAD_REACTORS
330
C
102
}
330
C
100
AcDbDictionary
281
     1
  3
Layout1
350
1D
  3
Model
350
21
  0
DICTIONARY
  5
DE
102
{ACAD_REACTORS
330
C
102
}
330
C
100
AcDbDictionary
281
     1
  0
DICTIONARY
  5
16
102
{ACAD_REACTORS
330
C
102
}
330
C
100
AcDbDictionary
281
     1
  3
Standard
350
17
  0
DICTIONARY
  5
18
102
{ACAD_REACTORS
330
C
102
}
330
C
100
AcDbDictionary
281
     1
  0
ACDBDICTIONARYWDFLT
  5
E
102
{ACAD_REACTORS
330
C
102
}
330
C
100
AcDbDictionary
281
     1
  3
Normal
350
F
100
AcDbDictionaryWithDefault
340
F
  0
DICTIONARY
  5
25E
102
{ACAD_REACTORS
330
C
102
}
330
C
100
AcDbDictionary
281
     1
  3
DIMASSOC
350
25F
  3
PROJECTNAME
350
260
  0
XRECORD
  5
D4
102
{ACAD_REACTORS
330
A0
102
}
330
A0
100
AcDbXrecord
280
     1
340
1E
  0
XRECORD
  5
D3
102
{ACAD_REACTORS
330
A2
102
}
330
A2
100
AcDbXrecord
280
     1
340
1A
  0
LAYOUT
  5
1D
102
{ACAD_REACTORS
330
19
102
}
330
19
100
AcDbPlotSettings
  1

  2
\\NT_WORK01\HP LaserJet 5000 PCL 6
  4

  6

 40
0.0
 41
0.0
 42
0.0
 43
0.0
 44
0.0
 45
0.0
 46
0.0
 47
0.0
 48
0.0
 49
0.0
140
0.0
141
0.0
142
1.0
143
1.0
 70
   688
 72
     0
 73
     0
 74
     5
  7

 75
    16
147
1.0
 76
     0
 77
     2
 78
   300
148
0.0
149
0.0
100
AcDbLayout
  1
Layout1
 70
     0
 71
     1
 10
0.0
 20
0.0
 11
12.0
 21
9.0
 12
0.0
 22
0.0
 32
0.0
 14
1.000000000000000E+20
 24
1.000000000000000E+20
 34
1.000000000000000E+20
 15
-1.000000000000000E+20
 25
-1.000000000000000E+20
 35
-1.000000000000000E+20
146
0.0
 13
0.0
 23
0.0
 33
0.0
 16
1.0
 26
0.0
 36
0.0
 17
0.0
 27
1.0
 37
0.0
 76
     0
330
1A
  0
LAYOUT
  5
21
102
{ACAD_REACTORS
330
19
102
}
330
19
100
AcDbPlotSettings
  1

  2
RICOH Aficio 2027 PCL 6
  4
A4
  6

 40
5.027083
 41
5.027084999999999
 42
5.027084
 43
5.027069
 44
209.973328
 45
296.925995
 46
0.0
 47
2.06
 48
0.0
 49
0.0
140
0.0
141
0.0
142
1.0
143
2.100849152723284
 70
 11956
 72
     1
 73
     0
 74
     2
  7
monochrome1.ctb
 75
     0
147
0.4759980023809526
 76
     1
 77
     2
 78
   300
148
0.0
149
0.0
100
AcDbLayout
  1
Model
 70
     1
 71
     0
 10
0.0
 20
0.0
 11
12.0
 21
9.0
 12
0.0
 22
0.0
 32
0.0
 14
0.0
 24
0.0
 34
0.0
 15
0.0
 25
0.0
 35
0.0
146
0.0
 13
0.0
 23
0.0
 33
0.0
 16
1.0
 26
0.0
 36
0.0
 17
0.0
 27
1.0
 37
0.0
 76
     0
330
1E
  0
MLINESTYLE
  5
17
102
{ACAD_REACTORS
330
16
102
}
330
16
100
AcDbMlineStyle
  2
STANDARD
 70
     0
  3

 62
   256
 51
90.0
 52
90.0
 71
     2
 49
0.5
 62
   256
  6
BYLAYER
 49
-0.5
 62
   256
  6
BYLAYER
  0
ACDBPLACEHOLDER
  5
F
102
{ACAD_REACTORS
330
E
102
}
330
E
  0
DICTIONARYVAR
  5
25F
102
{ACAD_REACTORS
330
25E
102
}
330
25E
100
DictionaryVariables
280
     0
  1
1
  0
DICTIONARYVAR
  5
260
102
{ACAD_REACTORS
330
25E
102
}
330
25E
100
DictionaryVariables
280
     0
  1

  0
ENDSEC
  0
EOF
