  0
SECTION
  2
HEADER
  9
$ACADVER
  1
AC1018
  9
$ACADMAINTVER
 70
     2
  9
$DWGCODEPAGE
  3
ANSI_1252
  9
$INSBASE
 10
0.0
 20
0.0
 30
0.0
  9
$EXTMIN
 10
-0.0128164049388033
 20
-0.0181260584133725
 30
-0.0015258207003583
  9
$EXTMAX
 10
420.012818360716
 20
594.0181288244416
 30
0.0000000349246037
  9
$LIMMIN
 10
0.0
 20
0.0
  9
$LIMMAX
 10
419.9999999999999
 20
594.0000000000002
  9
$ORTHOMODE
 70
     0
  9
$REGENMODE
 70
     1
  9
$FILLMODE
 70
     1
  9
$QTEXTMODE
 70
     0
  9
$MIRRTEXT
 70
     1
  9
$LTSCALE
 40
20.0
  9
$ATTMODE
 70
     1
  9
$TEXTSIZE
 40
3.5
  9
$TRACEWID
 40
0.5
  9
$TEXTSTYLE
  7
STANDARD
  9
$CLAYER
  8
BEM
  9
$CELTYPE
  6
ByLayer
  9
$CECOLOR
 62
   256
  9
$CELTSCALE
 40
1.0
  9
$DISPSILH
 70
     0
  9
$DIMSCALE
 40
2.0
  9
$DIMASZ
 40
3.5
  9
$DIMEXO
 40
1.0
  9
$DIMDLI
 40
7.0
  9
$DIMRND
 40
0.0
  9
$DIMDLE
 40
0.0
  9
$DIMEXE
 40
1.0
  9
$DIMTP
 40
0.0
  9
$DIMTM
 40
0.0
  9
$DIMTXT
 40
3.5
  9
$DIMCEN
 40
1.5
  9
$DIMTSZ
 40
0.0
  9
$DIMTOL
 70
     0
  9
$DIMLIM
 70
     0
  9
$DIMTIH
 70
     0
  9
$DIMTOH
 70
     0
  9
$DIMSE1
 70
     0
  9
$DIMSE2
 70
     0
  9
$DIMTAD
 70
     1
  9
$DIMZIN
 70
     8
  9
$DIMBLK
  1

  9
$DIMASO
 70
     1
  9
$DIMSHO
 70
     0
  9
$DIMPOST
  1

  9
$DIMAPOST
  1

  9
$DIMALT
 70
     0
  9
$DIMALTD
 70
     2
  9
$DIMALTF
 40
25.4
  9
$DIMLFAC
 40
1.0
  9
$DIMTOFL
 70
     1
  9
$DIMTVP
 40
0.0
  9
$DIMTIX
 70
     0
  9
$DIMSOXD
 70
     0
  9
$DIMSAH
 70
     0
  9
$DIMBLK1
  1

  9
$DIMBLK2
  1

  9
$DIMSTYLE
  2
Standard
  9
$DIMCLRD
 70
     0
  9
$DIMCLRE
 70
     0
  9
$DIMCLRT
 70
     1
  9
$DIMTFAC
 40
0.5142857142857144
  9
$DIMGAP
 40
1.5
  9
$DIMJUST
 70
     0
  9
$DIMSD1
 70
     0
  9
$DIMSD2
 70
     0
  9
$DIMTOLJ
 70
     1
  9
$DIMTZIN
 70
     8
  9
$DIMALTZ
 70
     8
  9
$DIMALTTZ
 70
     8
  9
$DIMUPT
 70
     0
  9
$DIMDEC
 70
     2
  9
$DIMTDEC
 70
     2
  9
$DIMALTU
 70
     2
  9
$DIMALTTD
 70
     2
  9
$DIMTXSTY
  7
STANDARD
  9
$DIMAUNIT
 70
     0
  9
$DIMADEC
 70
     2
  9
$DIMALTRND
 40
0.0
  9
$DIMAZIN
 70
     2
  9
$DIMDSEP
 70
    46
  9
$DIMATFIT
 70
     3
  9
$DIMFRAC
 70
     0
  9
$DIMLDRBLK
  1

  9
$DIMLUNIT
 70
     2
  9
$DIMLWD
 70
    -2
  9
$DIMLWE
 70
    -2
  9
$DIMTMOVE
 70
     0
  9
$LUNITS
 70
     2
  9
$LUPREC
 70
     2
  9
$SKETCHINC
 40
1.0
  9
$FILLETRAD
 40
67.5
  9
$AUNITS
 70
     0
  9
$AUPREC
 70
     0
  9
$MENU
  1
ACAD
  9
$ELEVATION
 40
0.0
  9
$PELEVATION
 40
0.0
  9
$THICKNESS
 40
0.0
  9
$LIMCHECK
 70
     0
  9
$CHAMFERA
 40
0.0
  9
$CHAMFERB
 40
0.0
  9
$CHAMFERC
 40
0.0
  9
$CHAMFERD
 40
0.0
  9
$SKPOLY
 70
     0
  9
$TDCREATE
 40
2455397.823042361
  9
$TDUCREATE
 40
2455397.781375695
  9
$TDUPDATE
 40
2455532.528737801
  9
$TDUUPDATE
 40
2455532.487071134
  9
$TDINDWG
 40
0.2440409491
  9
$TDUSRTIMER
 40
0.2440409491
  9
$USRTIMER
 70
     1
  9
$ANGBASE
 50
0.0
  9
$ANGDIR
 70
     0
  9
$PDMODE
 70
     0
  9
$PDSIZE
 40
0.0
  9
$PLINEWID
 40
0.0
  9
$SPLFRAME
 70
     0
  9
$SPLINETYPE
 70
     6
  9
$SPLINESEGS
 70
     8
  9
$HANDSEED
  5
118B
  9
$SURFTAB1
 70
     6
  9
$SURFTAB2
 70
     6
  9
$SURFTYPE
 70
     6
  9
$SURFU
 70
     6
  9
$SURFV
 70
     6
  9
$UCSBASE
  2

  9
$UCSNAME
  2

  9
$UCSORG
 10
0.0
 20
0.0
 30
0.0
  9
$UCSXDIR
 10
1.0
 20
0.0
 30
0.0
  9
$UCSYDIR
 10
0.0
 20
1.0
 30
0.0
  9
$UCSORTHOREF
  2

  9
$UCSORTHOVIEW
 70
     0
  9
$UCSORGTOP
 10
0.0
 20
0.0
 30
0.0
  9
$UCSORGBOTTOM
 10
0.0
 20
0.0
 30
0.0
  9
$UCSORGLEFT
 10
0.0
 20
0.0
 30
0.0
  9
$UCSORGRIGHT
 10
0.0
 20
0.0
 30
0.0
  9
$UCSORGFRONT
 10
0.0
 20
0.0
 30
0.0
  9
$UCSORGBACK
 10
0.0
 20
0.0
 30
0.0
  9
$PUCSBASE
  2

  9
$PUCSNAME
  2

  9
$PUCSORG
 10
0.0
 20
0.0
 30
0.0
  9
$PUCSXDIR
 10
1.0
 20
0.0
 30
0.0
  9
$PUCSYDIR
 10
0.0
 20
1.0
 30
0.0
  9
$PUCSORTHOREF
  2

  9
$PUCSORTHOVIEW
 70
     0
  9
$PUCSORGTOP
 10
0.0
 20
0.0
 30
0.0
  9
$PUCSORGBOTTOM
 10
0.0
 20
0.0
 30
0.0
  9
$PUCSORGLEFT
 10
0.0
 20
0.0
 30
0.0
  9
$PUCSORGRIGHT
 10
0.0
 20
0.0
 30
0.0
  9
$PUCSORGFRONT
 10
0.0
 20
0.0
 30
0.0
  9
$PUCSORGBACK
 10
0.0
 20
0.0
 30
0.0
  9
$USERI1
 70
     0
  9
$USERI2
 70
     0
  9
$USERI3
 70
     0
  9
$USERI4
 70
     0
  9
$USERI5
 70
     0
  9
$USERR1
 40
0.0
  9
$USERR2
 40
0.0
  9
$USERR3
 40
0.0
  9
$USERR4
 40
0.0
  9
$USERR5
 40
0.0
  9
$WORLDVIEW
 70
     1
  9
$SHADEDGE
 70
     3
  9
$SHADEDIF
 70
    70
  9
$TILEMODE
 70
     1
  9
$MAXACTVP
 70
    16
  9
$PINSBASE
 10
0.0
 20
0.0
 30
0.0
  9
$PLIMCHECK
 70
     0
  9
$PEXTMIN
 10
1.000000000000000E+20
 20
1.000000000000000E+20
 30
1.000000000000000E+20
  9
$PEXTMAX
 10
-1.000000000000000E+20
 20
-1.000000000000000E+20
 30
-1.000000000000000E+20
  9
$PLIMMIN
 10
0.0
 20
0.0
  9
$PLIMMAX
 10
12.0
 20
9.0
  9
$UNITMODE
 70
     0
  9
$VISRETAIN
 70
     0
  9
$PLINEGEN
 70
     0
  9
$PSLTSCALE
 70
     0
  9
$TREEDEPTH
 70
  3020
  9
$CMLSTYLE
  2
Standard
  9
$CMLJUST
 70
     0
  9
$CMLSCALE
 40
1.0
  9
$PROXYGRAPHICS
 70
     1
  9
$MEASUREMENT
 70
     0
  9
$CELWEIGHT
370
    -1
  9
$ENDCAPS
280
     0
  9
$JOINSTYLE
280
     0
  9
$LWDISPLAY
290
     0
  9
$INSUNITS
 70
     0
  9
$HYPERLINKBASE
  1

  9
$STYLESHEET
  1
monochrome 1.ctb
  9
$XEDIT
290
     1
  9
$CEPSNTYPE
380
     0
  9
$PSTYLEMODE
290
     1
  9
$FINGERPRINTGUID
  2
{D68B0D02-A558-11D7-B632-000102183313}
  9
$VERSIONGUID
  2
{8A0629DB-6893-4BC8-95AF-B95B59107C4E}
  9
$EXTNAMES
290
     1
  9
$PSVPSCALE
 40
0.0
  9
$OLESTARTUP
290
     0
  9
$SORTENTS
280
   127
  9
$INDEXCTL
280
     0
  9
$HIDETEXT
280
     0
  9
$XCLIPFRAME
290
     0
  9
$HALOGAP
280
     0
  9
$OBSCOLOR
 70
   257
  9
$OBSLTYPE
280
     0
  9
$INTERSECTIONDISPLAY
280
     0
  9
$INTERSECTIONCOLOR
 70
   257
  9
$DIMASSOC
280
     1
  9
$PROJECTNAME
  1

  0
ENDSEC
  0
SECTION
  2
CLASSES
  0
CLASS
  1
ACDBDICTIONARYWDFLT
  2
AcDbDictionaryWithDefault
  3
ObjectDBX Classes
 90
        0
 91
        1
280
     0
281
     0
  0
CLASS
  1
DICTIONARYVAR
  2
AcDbDictionaryVar
  3
ObjectDBX Classes
 90
        0
 91
        2
280
     0
281
     0
  0
ENDSEC
  0
SECTION
  2
TABLES
  0
TABLE
  2
VPORT
  5
8
330
0
100
AcDbSymbolTable
 70
     2
  0
VPORT
  5
118A
330
8
100
AcDbSymbolTableRecord
100
AcDbViewportTableRecord
  2
*Active
 70
     0
 10
0.0
 20
0.0
 11
1.0
 21
1.0
 12
210.0000009778887
 22
297.0000013830141
 13
0.0
 23
0.0
 14
1.0
 24
1.0
 15
10.0
 25
10.0
 16
0.0
 26
0.0
 36
1.0
 17
0.0
 27
0.0
 37
0.0
 40
598.8333175064042
 41
1.336927223719676
 42
50.0
 43
0.0
 44
0.0
 50
0.0
 51
0.0
 71
     0
 72
  1500
 73
     1
 74
     0
 75
     0
 76
     0
 77
     0
 78
     0
281
     0
 65
     1
110
0.0
120
0.0
130
0.0
111
1.0
121
0.0
131
0.0
112
0.0
122
1.0
132
0.0
 79
     0
146
0.0
  0
ENDTAB
  0
TABLE
  2
LTYPE
  5
5
330
0
100
AcDbSymbolTable
 70
     2
  0
LTYPE
  5
13
330
5
100
AcDbSymbolTableRecord
100
AcDbLinetypeTableRecord
  2
ByBlock
 70
     0
  3

 72
    65
 73
     0
 40
0.0
  0
LTYPE
  5
14
330
5
100
AcDbSymbolTableRecord
100
AcDbLinetypeTableRecord
  2
ByLayer
 70
     0
  3

 72
    65
 73
     0
 40
0.0
  0
LTYPE
  5
15
330
5
100
AcDbSymbolTableRecord
100
AcDbLinetypeTableRecord
  2
Continuous
 70
     0
  3
Solid line
 72
    65
 73
     0
 40
0.0
  0
LTYPE
  5
25
330
5
100
AcDbSymbolTableRecord
100
AcDbLinetypeTableRecord
  2
STRICHPUNKT
 70
     0
  3
__ . __ . __ . __ . __ . __ . __ . __ . __ . __
 72
    65
 73
     4
 40
1.0
 49
0.5
 74
     0
 49
-0.25
 74
     0
 49
0.0
 74
     0
 49
-0.25
 74
     0
  0
ENDTAB
  0
TABLE
  2
LAYER
  5
2
330
0
100
AcDbSymbolTable
 70
     9
  0
LAYER
  5
10
330
2
100
AcDbSymbolTableRecord
100
AcDbLayerTableRecord
  2
0
 70
     0
 62
     7
  6
Continuous
370
    -3
390
F
  0
LAYER
  5
2A
330
2
100
AcDbSymbolTableRecord
100
AcDbLayerTableRecord
  2
VOLL
 70
     0
 62
     1
  6
Continuous
370
    -3
390
F
  0
LAYER
  5
2B
330
2
100
AcDbSymbolTableRecord
100
AcDbLayerTableRecord
  2
HILF
 70
     0
 62
     2
  6
Continuous
370
    -3
390
F
  0
LAYER
  5
2C
330
2
100
AcDbSymbolTableRecord
100
AcDbLayerTableRecord
  2
MITTEL
 70
     0
 62
     2
  6
STRICHPUNKT
370
    -3
390
F
  0
LAYER
  5
2F
330
2
100
AcDbSymbolTableRecord
100
AcDbLayerTableRecord
  2
BEM
 70
     0
 62
     7
  6
Continuous
370
    -3
390
F
  0
LAYER
  5
30
330
2
100
AcDbSymbolTableRecord
100
AcDbLayerTableRecord
  2
STEMPEL
 70
     0
 62
     3
  6
Continuous
370
    -3
390
F
  0
LAYER
  5
31
330
2
100
AcDbSymbolTableRecord
100
AcDbLayerTableRecord
  2
TEXT
 70
     0
 62
     7
  6
Continuous
370
    -3
390
F
  0
LAYER
  5
171
330
2
100
AcDbSymbolTableRecord
100
AcDbLayerTableRecord
  2
Defpoints
 70
     0
 62
     7
  6
Continuous
290
     0
370
    -3
390
F
  0
LAYER
  5
19C
330
2
100
AcDbSymbolTableRecord
100
AcDbLayerTableRecord
  2
SCHRAFF
 70
     0
 62
     7
  6
Continuous
370
    -3
390
F
  0
ENDTAB
  0
TABLE
  2
STYLE
  5
3
330
0
100
AcDbSymbolTable
 70
     2
  0
STYLE
  5
11
330
3
100
AcDbSymbolTableRecord
100
AcDbTextStyleTableRecord
  2
STANDARD
 70
     0
 40
0.0
 41
0.8
 50
0.0
 71
     0
 42
3.5
  3
simplex.shx
  4

  0
STYLE
  5
24
330
3
100
AcDbSymbolTableRecord
100
AcDbTextStyleTableRecord
  2
GREEKS
 70
     0
 40
0.0
 41
0.8
 50
0.0
 71
     0
 42
2.5
  3
SIMPLEX.shx
  4

  0
ENDTAB
  0
TABLE
  2
VIEW
  5
6
330
0
100
AcDbSymbolTable
 70
     0
  0
ENDTAB
  0
TABLE
  2
UCS
  5
7
330
0
100
AcDbSymbolTable
 70
     0
  0
ENDTAB
  0
TABLE
  2
APPID
  5
9
330
0
100
AcDbSymbolTable
 70
     1
  0
APPID
  5
12
330
9
100
AcDbSymbolTableRecord
100
AcDbRegAppTableRecord
  2
ACAD
 70
     0
  0
ENDTAB
  0
TABLE
  2
DIMSTYLE
  5
A
330
0
100
AcDbSymbolTable
 70
     1
100
AcDbDimStyleTable
 71
     1
340
9D
  0
DIMSTYLE
105
9D
102
{ACAD_REACTORS
330
960
330
961
330
AB8
330
AEE
330
C64
330
1145
330
1153
330
1169
102
}
330
A
100
AcDbSymbolTableRecord
100
AcDbDimStyleTableRecord
  2
Standard
 70
     0
340
11
  0
ENDTAB
  0
TABLE
  2
BLOCK_RECORD
  5
1
330
0
100
AcDbSymbolTable
 70
     9
  0
BLOCK_RECORD
  5
1E
102
{ACAD_XDICTIONARY
360
A0
102
}
330
1
100
AcDbSymbolTableRecord
100
AcDbBlockTableRecord
  2
*Model_Space
340
21
  0
BLOCK_RECORD
  5
1A
102
{ACAD_XDICTIONARY
360
A2
102
}
330
1
100
AcDbSymbolTableRecord
100
AcDbBlockTableRecord
  2
*Paper_Space
340
1D
  0
BLOCK_RECORD
  5
22
330
1
100
AcDbSymbolTableRecord
100
AcDbBlockTableRecord
  2
LOGO
340
0
102
{BLKREFS
331
9B
102
}
  0
BLOCK_RECORD
  5
97E
330
1
100
AcDbSymbolTableRecord
100
AcDbBlockTableRecord
  2
*D1
340
0
  0
BLOCK_RECORD
  5
98A
330
1
100
AcDbSymbolTableRecord
100
AcDbBlockTableRecord
  2
*D2
340
0
  0
BLOCK_RECORD
  5
B09
330
1
100
AcDbSymbolTableRecord
100
AcDbBlockTableRecord
  2
*D3
340
0
  0
BLOCK_RECORD
  5
B2F
330
1
100
AcDbSymbolTableRecord
100
AcDbBlockTableRecord
  2
*D4
340
0
  0
BLOCK_RECORD
  5
C65
330
1
100
AcDbSymbolTableRecord
100
AcDbBlockTableRecord
  2
*D5
340
0
  0
BLOCK_RECORD
  5
1146
330
1
100
AcDbSymbolTableRecord
100
AcDbBlockTableRecord
  2
*D6
340
0
  0
BLOCK_RECORD
  5
1154
330
1
100
AcDbSymbolTableRecord
100
AcDbBlockTableRecord
  2
*D7
340
0
  0
BLOCK_RECORD
  5
116A
330
1
100
AcDbSymbolTableRecord
100
AcDbBlockTableRecord
  2
*D8
340
0
  0
ENDTAB
  0
ENDSEC
  0
SECTION
  2
BLOCKS
  0
BLOCK
  5
35
330
1E
100
AcDbEntity
  8
0
100
AcDbBlockBegin
  2
*Model_Space
 70
     0
 10
0.0
 20
0.0
 30
0.0
  3
*Model_Space
  1

  0
ENDBLK
  5
36
330
1E
100
AcDbEntity
  8
0
100
AcDbBlockEnd
  0
BLOCK
  5
33
330
1A
100
AcDbEntity
 67
     1
  8
0
100
AcDbBlockBegin
  2
*Paper_Space
 70
     0
 10
0.0
 20
0.0
 30
0.0
  3
*Paper_Space
  1

  0
ENDBLK
  5
34
330
1A
100
AcDbEntity
 67
     1
  8
0
100
AcDbBlockEnd
  0
BLOCK
  5
37
330
22
100
AcDbEntity
  8
0
100
AcDbBlockBegin
  2
LOGO
 70
     0
 10
0.0
 20
0.0
 30
0.0
  3
LOGO
  1

  0
ARC
  5
38
330
22
100
AcDbEntity
  8
0
100
AcDbCircle
 10
11.59973089678112
 20
-9.271599258481501
 30
0.0
 40
4.5
100
AcDbArc
 50
270.0
 51
231.0575587310159
  0
LINE
  5
39
330
22
100
AcDbEntity
  8
0
100
AcDbLine
 10
3.599730896781125
 20
-4.771599258481529
 30
0.0
 11
3.599730896781153
 21
-11.77159925848133
 31
0.0
  0
LINE
  5
3A
330
22
100
AcDbEntity
  8
0
100
AcDbLine
 10
2.599730896781125
 20
-4.771599258481529
 30
0.0
 11
2.599730896781153
 21
-11.77159925848133
 31
0.0
  0
CIRCLE
  5
3B
330
22
100
AcDbEntity
  8
0
100
AcDbCircle
 10
11.59973089678112
 20
-9.271599258481501
 30
0.0
 40
3.5
  0
ARC
  5
3C
330
22
100
AcDbEntity
  8
0
100
AcDbCircle
 10
31.59973089678115
 20
-9.271599258481472
 30
0.0
 40
4.5
100
AcDbArc
 50
270.0
 51
231.0575587310182
  0
LINE
  5
3D
330
22
100
AcDbEntity
  8
0
100
AcDbLine
 10
17.59973089678112
 20
-4.771599258481472
 30
0.0
 11
17.59973089678115
 21
-13.77159925848147
 31
0.0
  0
ARC
  5
3E
330
22
100
AcDbEntity
  8
0
100
AcDbCircle
 10
22.59973089678116
 20
-7.271599258481472
 30
0.0
 40
2.5
100
AcDbArc
 50
293.1161887722295
 51
90.0
  0
CIRCLE
  5
3F
330
22
100
AcDbEntity
  8
0
100
AcDbCircle
 10
31.59973089678115
 20
-9.271599258481472
 30
0.0
 40
3.5
  0
ARC
  5
40
330
22
100
AcDbEntity
  8
0
100
AcDbCircle
 10
4.599730896781153
 20
-11.77159925848133
 30
0.0
 40
1.0
100
AcDbArc
 50
180.0
 51
270.0
  0
ARC
  5
41
330
22
100
AcDbEntity
  8
0
100
AcDbCircle
 10
4.599730896781153
 20
-11.77159925848133
 30
0.0
 40
2.0
100
AcDbArc
 50
179.9999999999992
 51
270.0
  0
LINE
  5
42
330
22
100
AcDbEntity
  8
0
100
AcDbLine
 10
11.59973089678115
 20
-13.77159925848144
 30
0.0
 11
4.599730896781153
 21
-13.77159925848147
 31
0.0
  0
LINE
  5
43
330
22
100
AcDbEntity
  8
0
100
AcDbLine
 10
8.771303772034769
 20
-12.77159925848136
 30
0.0
 11
4.599730896781153
 21
-12.77159925848133
 31
0.0
  0
LINE
  5
44
330
22
100
AcDbEntity
  8
0
100
AcDbLine
 10
31.59973089678115
 20
-13.77159925848147
 30
0.0
 11
23.6715276665056
 21
-13.77159925848144
 31
0.0
  0
LINE
  5
45
330
22
100
AcDbEntity
  8
0
100
AcDbLine
 10
23.56565672307022
 20
-9.51278021337896
 30
0.0
 11
24.4388546544846
 21
-12.77159925848144
 31
0.0
  0
LINE
  5
46
330
22
100
AcDbEntity
  8
0
100
AcDbLine
 10
22.59973089678116
 20
-9.771599258481472
 30
0.0
 11
18.59973089678112
 21
-9.771599258481472
 31
0.0
  0
LINE
  5
47
330
22
100
AcDbEntity
  8
0
100
AcDbLine
 10
18.59973089678115
 20
-13.77159925848144
 30
0.0
 11
17.59973089678115
 21
-13.77159925848144
 31
0.0
  0
LINE
  5
48
330
22
100
AcDbEntity
  8
0
100
AcDbLine
 10
18.59973089678115
 20
-9.771599258481472
 30
0.0
 11
18.59973089678115
 21
-13.77159925848144
 31
0.0
  0
LINE
  5
49
330
22
100
AcDbEntity
  8
0
100
AcDbLine
 10
22.59973089678116
 20
-9.771599258481472
 30
0.0
 11
23.67152766650562
 21
-13.77159925848147
 31
0.0
  0
ARC
  5
4A
330
22
100
AcDbEntity
  8
0
100
AcDbCircle
 10
22.59973089678116
 20
-7.271599258481472
 30
0.0
 40
2.5
100
AcDbArc
 50
270.0
 51
270.0000000000007
  0
LINE
  5
4B
330
22
100
AcDbEntity
  8
0
100
AcDbLine
 10
28.77130377203494
 20
-12.77159925848147
 30
0.0
 11
24.43885465448463
 21
-12.77159925848144
 31
0.0
  0
LINE
  5
4C
330
22
100
AcDbEntity
  8
0
100
AcDbLine
 10
3.599730896781125
 20
-4.771599258481472
 30
0.0
 11
2.599730896781125
 21
-4.771599258481472
 31
0.0
  0
LINE
  5
4D
330
22
100
AcDbEntity
  8
0
100
AcDbLine
 10
22.59973089678116
 20
-8.771599258481472
 30
0.0
 11
18.59973089678115
 21
-8.771599258481472
 31
0.0
  0
LINE
  5
4E
330
22
100
AcDbEntity
  8
0
100
AcDbLine
 10
22.59973089678116
 20
-5.771599258481472
 30
0.0
 11
18.59973089678115
 21
-5.771599258481472
 31
0.0
  0
LINE
  5
4F
330
22
100
AcDbEntity
  8
0
100
AcDbLine
 10
22.59973089678116
 20
-4.771599258481472
 30
0.0
 11
17.59973089678115
 21
-4.771599258481472
 31
0.0
  0
LINE
  5
50
330
22
100
AcDbEntity
  8
0
100
AcDbLine
 10
18.59973089678115
 20
-5.771599258481472
 30
0.0
 11
18.59973089678115
 21
-8.771599258481472
 31
0.0
  0
ARC
  5
51
330
22
100
AcDbEntity
  8
0
100
AcDbCircle
 10
22.59973089678116
 20
-7.271599258481472
 30
0.0
 40
1.5
100
AcDbArc
 50
270.0
 51
90.0
  0
ENDBLK
  5
52
330
22
100
AcDbEntity
  8
0
100
AcDbBlockEnd
  0
BLOCK
  5
988
330
97E
100
AcDbEntity
  8
0
100
AcDbBlockBegin
  2
*D1
 70
     1
 10
0.0
 20
0.0
 30
0.0
  3
*D1
  1

  0
LINE
  5
F91
330
97E
100
AcDbEntity
  8
BEM
 62
     0
370
    -2
100
AcDbLine
 10
163.3587026028859
 20
228.1575413622723
 30
0.0
 11
163.3587026028859
 21
202.9364386695225
 31
0.0
  0
LINE
  5
F92
330
97E
100
AcDbEntity
  8
BEM
 62
     0
370
    -2
100
AcDbLine
 10
216.3587026028778
 20
228.1575413623597
 30
0.0
 11
216.3587026028778
 21
202.9364386695225
 31
0.0
  0
LINE
  5
F93
330
97E
100
AcDbEntity
  8
BEM
 62
     0
370
    -2
100
AcDbLine
 10
170.3587026028859
 20
204.9364386695225
 30
0.0
 11
209.3587026028778
 21
204.9364386695225
 31
0.0
  0
SOLID
  5
F94
330
97E
100
AcDbEntity
  8
BEM
 62
     0
100
AcDbTrace
 10
170.3587026028859
 20
206.1031053361892
 30
0.0
 11
170.3587026028859
 21
203.7697720028558
 31
0.0
 12
163.3587026028859
 22
204.9364386695225
 32
0.0
 13
163.3587026028859
 23
204.9364386695225
 33
0.0
  0
SOLID
  5
F95
330
97E
100
AcDbEntity
  8
BEM
 62
     0
100
AcDbTrace
 10
209.3587026028778
 20
206.1031053361892
 30
0.0
 11
209.3587026028778
 21
203.7697720028558
 31
0.0
 12
216.3587026028778
 22
204.9364386695225
 32
0.0
 13
216.3587026028778
 23
204.9364386695225
 33
0.0
  0
MTEXT
  5
F96
330
97E
100
AcDbEntity
  8
BEM
 62
     1
100
AcDbMText
 10
189.8587026028818
 20
211.4364386695225
 30
0.0
 40
7.0
 41
0.0
 71
     5
 72
     1
  1
\A1;%%c53
  7
GREEKS
 73
     1
 44
1.0
  0
POINT
  5
F97
330
97E
100
AcDbEntity
  8
Defpoints
 62
     0
100
AcDbPoint
 10
163.3587026028859
 20
230.1575413622723
 30
0.0
  0
POINT
  5
F98
330
97E
100
AcDbEntity
  8
Defpoints
 62
     0
100
AcDbPoint
 10
216.3587026028778
 20
230.1575413623597
 30
0.0
  0
POINT
  5
F99
330
97E
100
AcDbEntity
  8
Defpoints
 62
     0
100
AcDbPoint
 10
216.3587026028778
 20
204.9364386695225
 30
0.0
  0
ENDBLK
  5
989
330
97E
100
AcDbEntity
  8
0
100
AcDbBlockEnd
  0
BLOCK
  5
994
330
98A
100
AcDbEntity
  8
0
100
AcDbBlockBegin
  2
*D2
 70
     1
 10
0.0
 20
0.0
 30
0.0
  3
*D2
  1

  0
LINE
  5
F88
330
98A
100
AcDbEntity
  8
BEM
 62
     0
370
    -2
100
AcDbLine
 10
163.3587026028859
 20
228.1575413622723
 30
0.0
 11
163.3587026028859
 21
202.9364386695225
 31
0.0
  0
LINE
  5
F89
330
98A
100
AcDbEntity
  8
BEM
 62
     0
370
    -2
100
AcDbLine
 10
216.3587026028778
 20
228.1575413623597
 30
0.0
 11
216.3587026028778
 21
202.9364386695225
 31
0.0
  0
LINE
  5
F8A
330
98A
100
AcDbEntity
  8
BEM
 62
     0
370
    -2
100
AcDbLine
 10
170.3587026028859
 20
204.9364386695225
 30
0.0
 11
209.3587026028778
 21
204.9364386695225
 31
0.0
  0
SOLID
  5
F8B
330
98A
100
AcDbEntity
  8
BEM
 62
     0
100
AcDbTrace
 10
170.3587026028859
 20
206.1031053361892
 30
0.0
 11
170.3587026028859
 21
203.7697720028558
 31
0.0
 12
163.3587026028859
 22
204.9364386695225
 32
0.0
 13
163.3587026028859
 23
204.9364386695225
 33
0.0
  0
SOLID
  5
F8C
330
98A
100
AcDbEntity
  8
BEM
 62
     0
100
AcDbTrace
 10
209.3587026028778
 20
206.1031053361892
 30
0.0
 11
209.3587026028778
 21
203.7697720028558
 31
0.0
 12
216.3587026028778
 22
204.9364386695225
 32
0.0
 13
216.3587026028778
 23
204.9364386695225
 33
0.0
  0
MTEXT
  5
F8D
330
98A
100
AcDbEntity
  8
BEM
 62
     1
100
AcDbMText
 10
189.8587026028818
 20
211.4364386695225
 30
0.0
 40
7.0
 41
0.0
 71
     5
 72
     1
  1
\A1;%%c53
  7
GREEKS
 73
     1
 44
1.0
  0
POINT
  5
F8E
330
98A
100
AcDbEntity
  8
Defpoints
 62
     0
100
AcDbPoint
 10
163.3587026028859
 20
230.1575413622723
 30
0.0
  0
POINT
  5
F8F
330
98A
100
AcDbEntity
  8
Defpoints
 62
     0
100
AcDbPoint
 10
216.3587026028778
 20
230.1575413623597
 30
0.0
  0
POINT
  5
F90
330
98A
100
AcDbEntity
  8
Defpoints
 62
     0
100
AcDbPoint
 10
216.3587026028778
 20
204.9364386695225
 30
0.0
  0
ENDBLK
  5
995
330
98A
100
AcDbEntity
  8
0
100
AcDbBlockEnd
  0
BLOCK
  5
B13
330
B09
100
AcDbEntity
  8
0
100
AcDbBlockBegin
  2
*D3
 70
     1
 10
0.0
 20
0.0
 30
0.0
  3
*D3
  1

  0
LINE
  5
113C
330
B09
100
AcDbEntity
  8
BEM
 62
     0
370
    -2
100
AcDbLine
 10
347.3104781107984
 20
426.0358000721782
 30
0.0
 11
360.1963483508783
 21
426.7111199155908
 31
0.0
  0
LINE
  5
113D
330
B09
100
AcDbEntity
  8
BEM
 62
     0
370
    -2
100
AcDbLine
 10
351.9683782164202
 20
337.1577714790213
 30
0.0
 11
364.854248456504
 21
337.8330913224341
 31
0.0
  0
LINE
  5
113E
330
B09
100
AcDbEntity
  8
BEM
 62
     0
370
    -2
100
AcDbLine
 10
358.56544097507
 20
419.6160412598228
 30
0.0
 11
362.4906376932939
 21
344.7188261532301
 31
0.0
  0
SOLID
  5
113F
330
B09
100
AcDbEntity
  8
BEM
 62
     0
100
AcDbTrace
 10
359.7305087656171
 20
419.6770998754397
 30
0.0
 11
357.400373184523
 21
419.554982644206
 31
0.0
 12
358.1990892813692
 22
426.6064480031048
 32
0.0
 13
358.1990892813692
 23
426.6064480031048
 33
0.0
  0
SOLID
  5
1140
330
B09
100
AcDbEntity
  8
BEM
 62
     0
100
AcDbTrace
 10
363.655705483841
 20
344.779884768847
 30
0.0
 11
361.3255699027469
 21
344.6577675376133
 31
0.0
 12
362.8569893869948
 22
337.7284194099481
 32
0.0
 13
362.8569893869948
 23
337.7284194099481
 33
0.0
  0
MTEXT
  5
1141
330
B09
100
AcDbEntity
  8
BEM
 62
     1
100
AcDbMText
 10
367.0191313100868
 20
382.5076174221059
 30
0.0
 40
7.0
 41
0.0
 71
     5
 72
     1
  1
\A1;%%c89
  7
GREEKS
 11
0.052335956242985
 21
-0.9986295347545716
 31
0.0
 73
     1
 44
1.0
  0
POINT
  5
1142
330
B09
100
AcDbEntity
  8
Defpoints
 62
     0
100
AcDbPoint
 10
345.3132190412893
 20
425.9311281596922
 30
0.0
  0
POINT
  5
1143
330
B09
100
AcDbEntity
  8
Defpoints
 62
     0
100
AcDbPoint
 10
349.9711191469111
 20
337.0530995665354
 30
0.0
  0
POINT
  5
1144
330
B09
100
AcDbEntity
  8
Defpoints
 62
     0
100
AcDbPoint
 10
362.8569893869948
 20
337.7284194099481
 30
0.0
  0
ENDBLK
  5
B14
330
B09
100
AcDbEntity
  8
0
100
AcDbBlockEnd
  0
BLOCK
  5
B39
330
B2F
100
AcDbEntity
  8
0
100
AcDbBlockBegin
  2
*D4
 70
     1
 10
0.0
 20
0.0
 30
0.0
  3
*D4
  1

  0
LINE
  5
1133
330
B2F
100
AcDbEntity
  8
BEM
 62
     0
370
    -2
100
AcDbLine
 10
347.3104781107984
 20
426.0358000721782
 30
0.0
 11
360.1963483508783
 21
426.7111199155908
 31
0.0
  0
LINE
  5
1134
330
B2F
100
AcDbEntity
  8
BEM
 62
     0
370
    -2
100
AcDbLine
 10
351.9683782164202
 20
337.1577714790213
 30
0.0
 11
364.854248456504
 21
337.8330913224341
 31
0.0
  0
LINE
  5
1135
330
B2F
100
AcDbEntity
  8
BEM
 62
     0
370
    -2
100
AcDbLine
 10
358.56544097507
 20
419.6160412598228
 30
0.0
 11
362.4906376932939
 21
344.7188261532301
 31
0.0
  0
SOLID
  5
1136
330
B2F
100
AcDbEntity
  8
BEM
 62
     0
100
AcDbTrace
 10
359.7305087656171
 20
419.6770998754397
 30
0.0
 11
357.400373184523
 21
419.554982644206
 31
0.0
 12
358.1990892813692
 22
426.6064480031048
 32
0.0
 13
358.1990892813692
 23
426.6064480031048
 33
0.0
  0
SOLID
  5
1137
330
B2F
100
AcDbEntity
  8
BEM
 62
     0
100
AcDbTrace
 10
363.655705483841
 20
344.779884768847
 30
0.0
 11
361.3255699027469
 21
344.6577675376133
 31
0.0
 12
362.8569893869948
 22
337.7284194099481
 32
0.0
 13
362.8569893869948
 23
337.7284194099481
 33
0.0
  0
MTEXT
  5
1138
330
B2F
100
AcDbEntity
  8
BEM
 62
     1
100
AcDbMText
 10
367.0191313100868
 20
382.5076174221059
 30
0.0
 40
7.0
 41
0.0
 71
     5
 72
     1
  1
\A1;%%c89
  7
GREEKS
 11
0.052335956242985
 21
-0.9986295347545716
 31
0.0
 73
     1
 44
1.0
  0
POINT
  5
1139
330
B2F
100
AcDbEntity
  8
Defpoints
 62
     0
100
AcDbPoint
 10
345.3132190412893
 20
425.9311281596922
 30
0.0
  0
POINT
  5
113A
330
B2F
100
AcDbEntity
  8
Defpoints
 62
     0
100
AcDbPoint
 10
349.9711191469111
 20
337.0530995665354
 30
0.0
  0
POINT
  5
113B
330
B2F
100
AcDbEntity
  8
Defpoints
 62
     0
100
AcDbPoint
 10
362.8569893869948
 20
337.7284194099481
 30
0.0
  0
ENDBLK
  5
B3A
330
B2F
100
AcDbEntity
  8
0
100
AcDbBlockEnd
  0
BLOCK
  5
C6F
330
C65
100
AcDbEntity
  8
0
100
AcDbBlockBegin
  2
*D5
 70
     1
 10
0.0
 20
0.0
 30
0.0
  3
*D5
  1

  0
LINE
  5
1160
330
C65
100
AcDbEntity
  8
BEM
 62
     0
370
    -2
100
AcDbLine
 10
143.3587026028781
 20
255.2230327767282
 30
0.0
 11
126.2997046314165
 21
255.2230327767282
 31
0.0
  0
LINE
  5
1161
330
C65
100
AcDbEntity
  8
BEM
 62
     0
370
    -2
100
AcDbLine
 10
161.7904161641924
 20
225.2230327767281
 30
0.0
 11
126.2997046314165
 21
225.2230327767281
 31
0.0
  0
LINE
  5
1162
330
C65
100
AcDbEntity
  8
BEM
 62
     0
370
    -2
100
AcDbLine
 10
128.2997046314165
 20
248.2230327767283
 30
0.0
 11
128.2997046314165
 21
232.2230327767281
 31
0.0
  0
SOLID
  5
1163
330
C65
100
AcDbEntity
  8
BEM
 62
     0
100
AcDbTrace
 10
127.1330379647498
 20
248.2230327767283
 30
0.0
 11
129.4663712980831
 21
248.2230327767283
 31
0.0
 12
128.2997046314165
 22
255.2230327767282
 32
0.0
 13
128.2997046314165
 23
255.2230327767282
 33
0.0
  0
SOLID
  5
1164
330
C65
100
AcDbEntity
  8
BEM
 62
     0
100
AcDbTrace
 10
127.1330379647498
 20
232.2230327767281
 30
0.0
 11
129.4663712980831
 21
232.2230327767281
 31
0.0
 12
128.2997046314165
 22
225.2230327767281
 32
0.0
 13
128.2997046314165
 23
225.2230327767281
 33
0.0
  0
MTEXT
  5
1165
330
C65
100
AcDbEntity
  8
BEM
 62
     1
100
AcDbMText
 10
121.7997046314164
 20
240.2230327767282
 30
0.0
 40
7.0
 41
0.0
 71
     5
 72
     1
  1
\A1;30
 11
0.0000000000000001
 21
1.0
 31
0.0
 73
     1
 44
1.0
  0
POINT
  5
1166
330
C65
100
AcDbEntity
  8
Defpoints
 62
     0
100
AcDbPoint
 10
145.3587026028781
 20
255.2230327767282
 30
0.0
  0
POINT
  5
1167
330
C65
100
AcDbEntity
  8
Defpoints
 62
     0
100
AcDbPoint
 10
163.7904161641924
 20
225.2230327767281
 30
0.0
  0
POINT
  5
1168
330
C65
100
AcDbEntity
  8
Defpoints
 62
     0
100
AcDbPoint
 10
128.2997046314165
 20
225.2230327767281
 30
0.0
  0
ENDBLK
  5
C70
330
C65
100
AcDbEntity
  8
0
100
AcDbBlockEnd
  0
BLOCK
  5
1151
330
1146
100
AcDbEntity
  8
0
100
AcDbBlockBegin
  2
*D6
 70
     1
 10
0.0
 20
0.0
 30
0.0
  3
*D6
  1

  0
LINE
  5
1147
330
1146
100
AcDbEntity
  8
BEM
 62
     0
370
    -2
100
AcDbLine
 10
189.8587026028774
 20
375.2230327767279
 30
0.0
 11
189.8587026028771
 21
455.1118348935511
 31
0.0
  0
ARC
  5
1148
330
1146
100
AcDbEntity
  8
BEM
 62
     0
370
    -2
100
AcDbCircle
 10
189.8587026028774
 20
373.2230327767279
 30
0.0
 40
79.8888021168232
100
AcDbArc
 50
8.021966270420552
 51
84.97803372957989
  0
SOLID
  5
1149
330
1146
100
AcDbEntity
  8
BEM
 62
     0
100
AcDbTrace
 10
270.1270380805041
 20
384.4837769326781
 30
0.0
 11
267.8044898636404
 21
384.2596916257353
 31
0.0
 12
269.6380198929007
 22
377.4040896286155
 32
0.0
 13
269.6380198929007
 23
377.4040896286155
 33
0.0
  0
SOLID
  5
114A
330
1146
100
AcDbEntity
  8
BEM
 62
     0
100
AcDbTrace
 10
196.8008687831048
 20
451.6396121396127
 30
0.0
 11
196.9030942070725
 21
453.9707051036832
 31
0.0
 12
189.8587026028771
 22
453.1118348935511
 32
0.0
 13
189.8587026028771
 23
453.1118348935511
 33
0.0
  0
MTEXT
  5
114B
330
1146
100
AcDbEntity
  8
BEM
 62
     1
100
AcDbMText
 10
249.3248298286947
 20
435.8872557747237
 30
0.0
 40
7.0
 41
0.0
 71
     5
 72
     1
  1
\A1;87°
 11
0.7253743710122906
 21
-0.6883545756937509
 31
0.0
 73
     1
 44
1.0
  0
POINT
  5
114C
330
1146
100
AcDbEntity
  8
Defpoints
 62
     0
100
AcDbPoint
 10
257.6082491422666
 20
415.5576480149472
 30
0.0
  0
POINT
  5
114D
330
1146
100
AcDbEntity
  8
Defpoints
 62
     0
100
AcDbPoint
 10
189.8587026028774
 20
373.2230327767279
 30
0.0
  0
POINT
  5
114E
330
1146
100
AcDbEntity
  8
Defpoints
 62
     0
100
AcDbPoint
 10
352.635316767873
 20
381.7537936443283
 30
0.0
  0
POINT
  5
114F
330
1146
100
AcDbEntity
  8
Defpoints
 62
     0
100
AcDbPoint
 10
189.8587026028774
 20
373.2230327767279
 30
0.0
  0
POINT
  5
1150
330
1146
100
AcDbEntity
  8
Defpoints
 62
     0
100
AcDbPoint
 10
189.858702602878
 20
220.2230327767281
 30
0.0
  0
ENDBLK
  5
1152
330
1146
100
AcDbEntity
  8
0
100
AcDbBlockEnd
  0
BLOCK
  5
115E
330
1154
100
AcDbEntity
  8
0
100
AcDbBlockBegin
  2
*D7
 70
     1
 10
0.0
 20
0.0
 30
0.0
  3
*D7
  1

  0
LINE
  5
1155
330
1154
100
AcDbEntity
  8
BEM
 62
     0
370
    -2
100
AcDbLine
 10
189.7540306903915
 20
375.2202918462371
 30
0.0
 11
184.7064703008323
 21
471.5334815789713
 31
0.0
  0
LINE
  5
1156
330
1154
100
AcDbEntity
  8
BEM
 62
     0
370
    -2
100
AcDbLine
 10
345.2085471288033
 20
427.9283872292016
 30
0.0
 11
342.4899367920553
 21
479.802562665357
 31
0.0
  0
LINE
  5
1157
330
1154
100
AcDbEntity
  8
BEM
 62
     0
370
    -2
100
AcDbLine
 10
191.8015489566002
 20
469.9025742031627
 30
0.0
 11
335.6042019612592
 21
477.4389519021473
 31
0.0
  0
SOLID
  5
1158
330
1154
100
AcDbEntity
  8
BEM
 62
     0
100
AcDbTrace
 10
191.7404903409834
 20
471.0676419937097
 30
0.0
 11
191.862607572217
 21
468.7375064126157
 31
0.0
 12
184.8111422133182
 22
469.5362225094621
 32
0.0
 13
184.8111422133182
 23
469.5362225094621
 33
0.0
  0
SOLID
  5
1159
330
1154
100
AcDbEntity
  8
BEM
 62
     0
100
AcDbTrace
 10
335.5431433456425
 20
478.6040196926943
 30
0.0
 11
335.665260576876
 21
476.2738841116002
 31
0.0
 12
342.5946087045412
 22
477.8053035958479
 32
0.0
 13
342.5946087045412
 23
477.8053035958479
 33
0.0
  0
MTEXT
  5
115A
330
1154
100
AcDbEntity
  8
BEM
 62
     1
100
AcDbMText
 10
263.3626917433505
 20
480.1618550285597
 30
0.0
 40
7.0
 41
0.0
 71
     5
 72
     1
  1
\A1;158
 11
0.9986295347545738
 21
0.0523359562429479
 31
0.0
 73
     1
 44
1.0
  0
POINT
  5
115B
330
1154
100
AcDbEntity
  8
Defpoints
 62
     0
100
AcDbPoint
 10
189.8587026028774
 20
373.2230327767279
 30
0.0
  0
POINT
  5
115C
330
1154
100
AcDbEntity
  8
Defpoints
 62
     0
100
AcDbPoint
 10
345.3132190412893
 20
425.9311281596924
 30
0.0
  0
POINT
  5
115D
330
1154
100
AcDbEntity
  8
Defpoints
 62
     0
100
AcDbPoint
 10
342.5946087045412
 20
477.8053035958479
 30
0.0
  0
ENDBLK
  5
115F
330
1154
100
AcDbEntity
  8
0
100
AcDbBlockEnd
  0
BLOCK
  5
1174
330
116A
100
AcDbEntity
  8
0
100
AcDbBlockBegin
  2
*D8
 70
     1
 10
0.0
 20
0.0
 30
0.0
  3
*D8
  1

  0
LINE
  5
116B
330
116A
100
AcDbEntity
  8
BEM
 62
     0
370
    -2
100
AcDbLine
 10
161.7904161641924
 20
225.2230327767281
 30
0.0
 11
111.0707654051966
 21
225.2230327767281
 31
0.0
  0
LINE
  5
116C
330
116A
100
AcDbEntity
  8
BEM
 62
     0
370
    -2
100
AcDbLine
 10
187.8587026028774
 20
373.2230327767279
 30
0.0
 11
111.0707654051966
 21
373.223032776728
 31
0.0
  0
LINE
  5
116D
330
116A
100
AcDbEntity
  8
BEM
 62
     0
370
    -2
100
AcDbLine
 10
113.0707654051966
 20
232.2230327767281
 30
0.0
 11
113.0707654051966
 21
366.223032776728
 31
0.0
  0
SOLID
  5
116E
330
116A
100
AcDbEntity
  8
BEM
 62
     0
100
AcDbTrace
 10
111.9040987385299
 20
232.2230327767281
 30
0.0
 11
114.2374320718633
 21
232.2230327767281
 31
0.0
 12
113.0707654051966
 22
225.2230327767281
 32
0.0
 13
113.0707654051966
 23
225.2230327767281
 33
0.0
  0
SOLID
  5
116F
330
116A
100
AcDbEntity
  8
BEM
 62
     0
100
AcDbTrace
 10
111.90409873853
 20
366.223032776728
 30
0.0
 11
114.2374320718633
 21
366.223032776728
 31
0.0
 12
113.0707654051966
 22
373.223032776728
 32
0.0
 13
113.0707654051966
 23
373.223032776728
 33
0.0
  0
MTEXT
  5
1170
330
116A
100
AcDbEntity
  8
BEM
 62
     1
100
AcDbMText
 10
106.5707654051966
 20
299.2230327767281
 30
0.0
 40
7.0
 41
0.0
 71
     5
 72
     1
  1
\A1;148
 11
0.0000000000000001
 21
1.0
 31
0.0
 73
     1
 44
1.0
  0
POINT
  5
1171
330
116A
100
AcDbEntity
  8
Defpoints
 62
     0
100
AcDbPoint
 10
163.7904161641924
 20
225.2230327767281
 30
0.0
  0
POINT
  5
1172
330
116A
100
AcDbEntity
  8
Defpoints
 62
     0
100
AcDbPoint
 10
189.8587026028774
 20
373.2230327767279
 30
0.0
  0
POINT
  5
1173
330
116A
100
AcDbEntity
  8
Defpoints
 62
     0
100
AcDbPoint
 10
113.0707654051966
 20
373.223032776728
 30
0.0
  0
ENDBLK
  5
1175
330
116A
100
AcDbEntity
  8
0
100
AcDbBlockEnd
  0
ENDSEC
  0
SECTION
  2
ENTITIES
  0
LINE
  5
57
330
1E
100
AcDbEntity
  8
STEMPEL
100
AcDbLine
 10
410.0
 20
110.0
 30
0.0
 11
39.99999999999997
 21
110.0
 31
0.0
  0
LINE
  5
58
330
1E
100
AcDbEntity
  8
STEMPEL
100
AcDbLine
 10
146.0000000000001
 20
109.9999999999999
 30
0.0
 11
146.0
 21
9.999999999999971
 31
0.0
  0
LINE
  5
59
330
1E
100
AcDbEntity
  8
STEMPEL
100
AcDbLine
 10
230.0
 20
110.0
 30
0.0
 11
230.0
 21
9.999999999999971
 31
0.0
  0
LINE
  5
5A
330
1E
100
AcDbEntity
  8
STEMPEL
100
AcDbLine
 10
332.0
 20
109.9999999999997
 30
0.0
 11
332.0
 21
40.0
 31
0.0
  0
LINE
  5
5B
330
1E
100
AcDbEntity
  8
STEMPEL
100
AcDbLine
 10
145.9999999999999
 20
29.99999999999997
 30
0.0
 11
39.99999999999997
 21
29.99999999999997
 31
0.0
  0
LINE
  5
5C
330
1E
100
AcDbEntity
  8
STEMPEL
100
AcDbLine
 10
410.0
 20
40.0
 30
0.0
 11
146.0000000000001
 21
39.99999999999997
 31
0.0
  0
LINE
  5
5D
330
1E
100
AcDbEntity
  8
STEMPEL
100
AcDbLine
 10
410.0
 20
80.0
 30
0.0
 11
146.0000000000001
 21
79.99999999999994
 31
0.0
  0
LINE
  5
5E
330
1E
100
AcDbEntity
  8
VOLL
100
AcDbLine
 10
54.00000000000009
 20
110.0
 30
0.0
 11
53.99999999999997
 21
9.999999999999971
 31
0.0
  0
LINE
  5
5F
330
1E
100
AcDbEntity
  8
VOLL
100
AcDbLine
 10
104.0000000000001
 20
109.9999999999999
 30
0.0
 11
104.0
 21
9.999999999999971
 31
0.0
  0
LINE
  5
60
330
1E
100
AcDbEntity
  8
VOLL
100
AcDbLine
 10
124.0000000000001
 20
109.9999999999999
 30
0.0
 11
124.0
 21
9.999999999999971
 31
0.0
  0
LINE
  5
61
330
1E
100
AcDbEntity
  8
VOLL
100
AcDbLine
 10
164.0000000000001
 20
79.99999999999994
 30
0.0
 11
164.0000000000001
 21
39.99999999999997
 31
0.0
  0
LINE
  5
62
330
1E
100
AcDbEntity
  8
VOLL
100
AcDbLine
 10
190.0000000000001
 20
109.9999999999998
 30
0.0
 11
190.0
 21
39.99999999999997
 31
0.0
  0
LINE
  5
63
330
1E
100
AcDbEntity
  8
HILF
100
AcDbLine
 10
40.00000000000008
 20
100.0
 30
0.0
 11
146.0000000000001
 21
100.0
 31
0.0
  0
LINE
  5
64
330
1E
100
AcDbEntity
  8
HILF
100
AcDbLine
 10
40.00000000000008
 20
90.00000000000005
 30
0.0
 11
146.0000000000001
 21
90.00000000000005
 31
0.0
  0
LINE
  5
65
330
1E
100
AcDbEntity
  8
HILF
100
AcDbLine
 10
40.00000000000008
 20
79.99999999999994
 30
0.0
 11
146.0000000000001
 21
79.99999999999994
 31
0.0
  0
LINE
  5
66
330
1E
100
AcDbEntity
  8
HILF
100
AcDbLine
 10
40.00000000000008
 20
69.99999999999994
 30
0.0
 11
146.0000000000001
 21
69.99999999999994
 31
0.0
  0
LINE
  5
67
330
1E
100
AcDbEntity
  8
HILF
100
AcDbLine
 10
40.00000000000008
 20
59.99999999999997
 30
0.0
 11
146.0000000000001
 21
59.99999999999997
 31
0.0
  0
LINE
  5
68
330
1E
100
AcDbEntity
  8
HILF
100
AcDbLine
 10
40.00000000000008
 20
49.99999999999997
 30
0.0
 11
146.0000000000001
 21
49.99999999999997
 31
0.0
  0
LINE
  5
69
330
1E
100
AcDbEntity
  8
HILF
100
AcDbLine
 10
40.00000000000008
 20
39.99999999999997
 30
0.0
 11
146.0000000000001
 21
39.99999999999997
 31
0.0
  0
LINE
  5
6A
330
1E
100
AcDbEntity
  8
HILF
100
AcDbLine
 10
146.0000000000001
 20
69.99999999999994
 30
0.0
 11
230.0
 21
69.99999999999994
 31
0.0
  0
LINE
  5
6B
330
1E
100
AcDbEntity
  8
HILF
100
AcDbLine
 10
146.0000000000001
 20
59.99999999999997
 30
0.0
 11
230.0
 21
59.99999999999997
 31
0.0
  0
LINE
  5
6C
330
1E
100
AcDbEntity
  8
HILF
100
AcDbLine
 10
146.0000000000001
 20
49.99999999999997
 30
0.0
 11
230.0
 21
49.99999999999997
 31
0.0
  0
LINE
  5
6D
330
1E
100
AcDbEntity
  8
HILF
100
AcDbLine
 10
234.7736801096947
 20
84.03758247564139
 30
0.0
 11
324.8353916556311
 21
84.03758247564139
 31
0.0
  0
LINE
  5
6E
330
1E
100
AcDbEntity
  8
HILF
100
AcDbLine
 10
234.7736801096947
 20
69.99999999999994
 30
0.0
 11
324.835391655631
 21
69.99999999999994
 31
0.0
  0
LINE
  5
6F
330
1E
100
AcDbEntity
  8
HILF
100
AcDbLine
 10
234.7736801096947
 20
59.99999999999997
 30
0.0
 11
324.835391655631
 21
59.99999999999997
 31
0.0
  0
LINE
  5
70
330
1E
100
AcDbEntity
  8
HILF
100
AcDbLine
 10
234.7736801096947
 20
49.99999999999997
 30
0.0
 11
324.835391655631
 21
49.99999999999997
 31
0.0
  0
LINE
  5
71
330
1E
100
AcDbEntity
  8
VOLL
100
AcDbLine
 10
332.0
 20
60.0
 30
0.0
 11
410.0
 21
60.0
 31
0.0
  0
LINE
  5
72
330
1E
100
AcDbEntity
  8
HILF
100
AcDbLine
 10
336.7238616296993
 20
83.77983636955827
 30
0.0
 11
404.8588839326728
 21
83.77983636955827
 31
0.0
  0
LINE
  5
73
330
1E
100
AcDbEntity
  8
HILF
100
AcDbLine
 10
233.4909699289885
 20
14.89398258028314
 30
0.0
 11
404.8588839326728
 21
14.89398258028314
 31
0.0
  0
TEXT
  5
74
330
1E
100
AcDbEntity
  8
TEXT
100
AcDbText
 10
67.79509897490102
 20
18.67381894984132
 30
0.0
 40
4.0
  1
Änderung
 41
0.8
  7
GREEKS
 72
     1
 11
78.53795611775817
 21
18.67381894984132
 31
0.0
100
AcDbText
  0
TEXT
  5
75
330
1E
100
AcDbEntity
  8
TEXT
100
AcDbText
 10
153.5163572150377
 20
102.4620895087088
 30
0.0
 40
5.0
  1
Maßstab
 41
0.8
  7
GREEKS
100
AcDbText
  0
TEXT
  5
76
330
1E
100
AcDbEntity
  8
TEXT
100
AcDbText
 10
194.2858954734051
 20
102.4184168434819
 30
0.0
 40
5.0
  1
Zul. Abw.
 41
0.8
  7
GREEKS
100
AcDbText
  0
TEXT
  5
77
330
1E
100
AcDbEntity
  8
TEXT
100
AcDbText
 10
234.877940380901
 20
102.5489328011779
 30
0.0
 40
5.0
  1
Benennung
 41
0.8
  7
GREEKS
100
AcDbText
  0
TEXT
  5
78
330
1E
100
AcDbEntity
  8
TEXT
100
AcDbText
 10
336.178754957634
 20
102.3132034537136
 30
0.0
 40
5.0
  1
Zeichnungs Nr.
 41
0.8
  7
GREEKS
100
AcDbText
  0
TEXT
  5
79
330
1E
100
AcDbEntity
  8
TEXT
100
AcDbText
 10
234.742238391136
 20
30.84560570193057
 30
0.0
 40
5.0
  1
Bauvorhaben
 41
0.8
  7
GREEKS
100
AcDbText
  0
TEXT
  5
7A
330
1E
100
AcDbEntity
  8
TEXT
100
AcDbText
 10
336.7238616296993
 20
73.1811823709997
 30
0.0
 40
5.0
  1
Ersatz für:
 41
0.8
  7
GREEKS
100
AcDbText
  0
TEXT
  5
7B
330
1E
100
AcDbEntity
  8
TEXT
100
AcDbText
 10
48.26641107045756
 20
13.65465846027192
 30
0.0
 40
4.0
  1
Index
 50
90.0
 41
0.8
  7
GREEKS
100
AcDbText
  0
TEXT
  5
7C
330
1E
100
AcDbEntity
  8
TEXT
100
AcDbText
 10
110.6986119235389
 20
18.6715626933981
 30
0.0
 40
4.0
  1
Tag
 41
0.8
  7
GREEKS
 72
     1
 11
114.4319452568723
 21
18.6715626933981
 31
0.0
100
AcDbText
  0
TEXT
  5
7D
330
1E
100
AcDbEntity
  8
TEXT
100
AcDbText
 10
129.0122744386592
 20
18.59324216966408
 30
0.0
 40
4.0
  1
Name
 41
0.8
  7
GREEKS
 72
     1
 11
135.3360839624688
 21
18.59324216966408
 31
0.0
100
AcDbText
  0
TEXT
  5
7E
330
1E
100
AcDbEntity
  8
TEXT
100
AcDbText
 10
172.331167315365
 20
73.31880501229926
 30
0.0
 40
4.0
  1
Tag
 41
0.8
  7
GREEKS
100
AcDbText
  0
TEXT
  5
7F
330
1E
100
AcDbEntity
  8
TEXT
100
AcDbText
 10
202.4626584226295
 20
73.30961091915225
 30
0.0
 40
4.0
  1
Name
 41
0.8
  7
GREEKS
100
AcDbText
  0
TEXT
  5
80
330
1E
100
AcDbEntity
  8
TEXT
100
AcDbText
 10
147.5836127167615
 20
63.62990369617964
 30
0.0
 40
4.0
  1
Gez.
 41
0.8
  7
GREEKS
100
AcDbText
  0
TEXT
  5
81
330
1E
100
AcDbEntity
  8
TEXT
100
AcDbText
 10
147.5515086571672
 20
53.68926291428377
 30
0.0
 40
4.0
  1
Gepr.
 41
0.8
  7
GREEKS
100
AcDbText
  0
TEXT
  5
82
330
1E
100
AcDbEntity
  8
TEXT
100
AcDbText
 10
147.6006777387303
 20
43.52946389649807
 30
0.0
 40
4.0
  1
Norm.
 41
0.8
  7
GREEKS
100
AcDbText
  0
LINE
  5
83
330
1E
100
AcDbEntity
  8
STEMPEL
100
AcDbLine
 10
49.99999999999989
 20
10.0
 30
0.0
 11
410.0
 21
10.0
 31
0.0
  0
TEXT
  5
84
330
1E
100
AcDbEntity
  8
TEXT
100
AcDbText
 10
337.2400861497006
 20
52.07416177878602
 30
0.0
 40
5.0
  1
ersetzt durch:
 41
0.8
  7
GREEKS
100
AcDbText
  0
LINE
  5
85
330
1E
100
AcDbEntity
  8
STEMPEL
100
AcDbLine
 10
410.0
 20
10.0
 30
0.0
 11
39.99999999999989
 21
10.0
 31
0.0
  0
LINE
  5
86
330
1E
100
AcDbEntity
  8
STEMPEL
100
AcDbLine
 10
410.0
 20
10.0
 30
0.0
 11
410.0
 21
584.0
 31
0.0
  0
LINE
  5
87
330
1E
100
AcDbEntity
  8
STEMPEL
100
AcDbLine
 10
40.0
 20
10.0
 30
0.0
 11
39.99999999999989
 21
584.0
 31
0.0
  0
LINE
  5
88
330
1E
100
AcDbEntity
  8
STEMPEL
100
AcDbLine
 10
410.0
 20
584.0
 30
0.0
 11
39.99999999999989
 21
584.0
 31
0.0
  0
LINE
  5
89
330
1E
100
AcDbEntity
  8
HILF
100
AcDbLine
 10
0.0
 20
0.0
 30
0.0
 11
-0.0000000000001137
 21
594.0
 31
0.0
  0
LINE
  5
8A
330
1E
100
AcDbEntity
  8
HILF
100
AcDbLine
 10
419.9999999999999
 20
594.0000000000002
 30
0.0
 11
0.0
 21
594.0
 31
0.0
  0
LINE
  5
8B
330
1E
100
AcDbEntity
  8
HILF
100
AcDbLine
 10
420.0
 20
0.0
 30
0.0
 11
0.0
 21
0.0
 31
0.0
  0
LINE
  5
8C
330
1E
100
AcDbEntity
  8
HILF
100
AcDbLine
 10
31.08767135713856
 20
297.0
 30
0.0
 11
0.0000000000001137
 21
297.0
 31
0.0
  0
LINE
  5
8E
330
1E
100
AcDbEntity
  8
HILF
100
AcDbLine
 10
420.0
 20
-0.0000000000001137
 30
0.0
 11
419.9999999999999
 21
594.0
 31
0.0
  0
TEXT
  5
8F
330
1E
100
AcDbEntity
  8
VOLL
100
AcDbText
 10
78.07675471698113
 20
31.02594776470585
 30
0.0
 40
1.8
  1

  7
GREEKS
100
AcDbText
  0
TEXT
  5
90
330
1E
100
AcDbEntity
  8
TEXT
100
AcDbText
 10
41.85509950977674
 20
111.6719999999999
 30
0.0
 40
5.0
  1
Erstellt mit AUTOCAD 2004
 41
0.8
  7
GREEKS
100
AcDbText
  0
TEXT
  5
91
330
1E
100
AcDbEntity
  8
TEXT
100
AcDbText
 10
204.4216048581257
 20
63.0896391972351
 30
0.0
 40
4.0
  1
Koeh
 41
0.8
  7
GREEKS
 72
     1
 11
209.6787477152686
 21
63.0896391972351
 31
0.0
100
AcDbText
  0
TEXT
  5
92
330
1E
100
AcDbEntity
  8
TEXT
 62
     1
100
AcDbText
 10
346.7764207350748
 20
88.14901428913959
 30
0.0
 40
7.0
  1
58030050W
 41
0.8
  7
GREEKS
 72
     1
 11
370.7764207350748
 21
88.14901428913959
 31
0.0
100
AcDbText
  0
TEXT
  5
93
330
1E
100
AcDbEntity
  8
TEXT
 62
     1
100
AcDbText
 10
160.5006306481887
 20
88.14901428913959
 30
0.0
 40
7.0
  1
1:2
 41
0.8
  7
GREEKS
100
AcDbText
  0
TEXT
  5
95
330
1E
100
AcDbEntity
  8
TEXT
 62
     1
100
AcDbText
 10
236.8935731057402
 20
87.41748789253779
 30
0.0
 40
7.0
  1
Verbundrohr DN50
 41
0.8
  7
GREEKS
100
AcDbText
  0
TEXT
  5
98
330
1E
100
AcDbEntity
  8
TEXT
100
AcDbText
 10
235.1296391125315
 20
51.64011943042158
 30
0.0
 40
5.0
  1
EDV-Art.Nr. 58030.050X
 41
0.8
  7
GREEKS
100
AcDbText
  0
TEXT
  5
99
330
1E
100
AcDbEntity
  8
TEXT
100
AcDbText
 10
234.9837501577827
 20
42.62974153022632
 30
0.0
 40
4.0
  1
58030050W.DWG
 41
0.8
  7
GREEKS
100
AcDbText
  0
TEXT
  5
9A
330
1E
100
AcDbEntity
  8
TEXT
100
AcDbText
 10
192.626132208084
 20
90.76363841023022
 30
0.0
 40
4.0
  1
DIN EN1123-2
 41
0.8
  7
GREEKS
 72
     1
 11
209.6166083985602
 21
90.76363841023022
 31
0.0
100
AcDbText
  0
INSERT
  5
9B
330
1E
100
AcDbEntity
  8
STEMPEL
100
AcDbBlockReference
  2
LOGO
 10
150.9955485457794
 20
45.02105276448322
 30
0.0
 41
2.0
 42
2.0
 43
2.0
  0
TEXT
  5
210
330
1E
100
AcDbEntity
  8
TEXT
 62
     1
100
AcDbText
 10
239.2340373785028
 20
213.5366850842379
 30
0.0
 40
7.0
  1
Rohrende leicht eingezogen
 41
0.8
  7
GREEKS
100
AcDbText
  0
TEXT
  5
2C0
330
1E
100
AcDbEntity
  8
BEM
100
AcDbText
 10
417.3022923857165
 20
10.16790107998861
 30
0.0
 40
4.0
  1
Diese Zeichnung ist urheberrechtlich geschützt und bleibt unser Eigentum. Sie darf weder ganz noch teilweise verfielfältigt und nicht an Dritte weitergegeben werden.
 50
90.0
 41
0.8
  7
GREEKS
100
AcDbText
  0
TEXT
  5
77A
330
1E
100
AcDbEntity
  8
TEXT
100
AcDbText
 10
235.1296391125315
 20
71.64011943042154
 30
0.0
 40
5.0
  1
Bogen 87°
 41
0.8
  7
GREEKS
100
AcDbText
  0
TEXT
  5
78C
330
1E
100
AcDbEntity
  8
TEXT
 62
     1
100
AcDbText
 10
255.030129115258
 20
129.7422179729062
 30
0.0
 40
7.0
  1
und innenbeschichtet
 41
0.8
  7
GREEKS
100
AcDbText
  0
TEXT
  5
78D
330
1E
100
AcDbEntity
  8
TEXT
 62
     1
100
AcDbText
 10
203.5552044830163
 20
117.4297988529122
 30
0.0
 40
7.0
  1
Dämmung: 2 K-PU-Schaum
 41
0.8
  7
GREEKS
100
AcDbText
  0
TEXT
  5
78E
330
1E
100
AcDbEntity
  8
TEXT
 62
     1
100
AcDbText
 10
207.3756002392443
 20
141.011271812132
 30
0.0
 40
7.0
  1
Innenrohr: E195 EN10305 feuerverzinkt
 41
0.8
  7
GREEKS
100
AcDbText
  0
TEXT
  5
78F
330
1E
100
AcDbEntity
  8
TEXT
 62
     1
100
AcDbText
 10
203.6033828683802
 20
152.364339848487
 30
0.0
 40
7.0
  1
Außenrohr: E195 EN10305 feuerverzinkt
 41
0.8
  7
GREEKS
100
AcDbText
  0
ARC
  5
819
102
{ACAD_REACTORS
330
EC1
330
1032
102
}
330
1E
100
AcDbEntity
  8
STEMPEL
100
AcDbCircle
 10
272.3587026028779
 20
294.9334560227508
 30
0.0
 40
56.0
100
AcDbArc
 50
92.9999999999991
 51
180.0
  0
ARC
  5
81A
102
{ACAD_REACTORS
330
EC1
330
1032
102
}
330
1E
100
AcDbEntity
  8
STEMPEL
100
AcDbCircle
 10
272.3587026028779
 20
294.9334560227508
 30
0.0
 40
109.0
100
AcDbArc
 50
92.9999999999991
 51
180.0
  0
ARC
  5
81B
330
1E
100
AcDbEntity
  8
MITTEL
100
AcDbCircle
 10
272.3587026028779
 20
294.9334560227508
 30
0.0
 40
82.5
100
AcDbArc
 50
92.9999999999991
 51
180.0
  0
LINE
  5
81D
102
{ACAD_REACTORS
330
1032
102
}
330
1E
100
AcDbEntity
  8
MITTEL
100
AcDbLine
 10
189.8587026028774
 20
373.2230327767279
 30
0.0
 11
189.8587026028781
 21
220.2230327767281
 31
0.0
  0
LINE
  5
828
102
{ACAD_REACTORS
330
1032
102
}
330
1E
100
AcDbEntity
  8
MITTEL
100
AcDbLine
 10
352.6353167678731
 20
381.7537936443284
 30
0.0
 11
189.8587026028774
 21
373.2230327767279
 31
0.0
  0
LINE
  5
92E
330
1E
100
AcDbEntity
  8
STEMPEL
100
AcDbLine
 10
232.7587026028781
 20
255.2230327767282
 30
0.0
 11
232.1999702910101
 21
271.2230327767282
 31
0.0
  0
LINE
  5
930
330
1E
100
AcDbEntity
  8
STEMPEL
100
AcDbLine
 10
220.3587026028781
 20
261.2230327767282
 30
0.0
 11
216.3587026028782
 21
261.2230327767282
 31
0.0
  0
LINE
  5
931
330
1E
100
AcDbEntity
  8
STEMPEL
100
AcDbLine
 10
234.3587026028772
 20
255.223032776728
 30
0.0
 11
232.7587026028779
 21
255.223032776728
 31
0.0
  0
LINE
  5
932
330
1E
100
AcDbEntity
  8
STEMPEL
100
AcDbLine
 10
232.1999702910101
 20
271.2230327767282
 30
0.0
 11
216.3587026028782
 21
271.2230327767282
 31
0.0
  0
LINE
  5
933
330
1E
100
AcDbEntity
  8
STEMPEL
100
AcDbLine
 10
159.3587026028781
 20
261.2230327767282
 30
0.0
 11
163.358702602878
 21
261.2230327767282
 31
0.0
  0
LINE
  5
934
330
1E
100
AcDbEntity
  8
STEMPEL
100
AcDbLine
 10
146.9587026028781
 20
255.2230327767282
 30
0.0
 11
147.5174349147461
 21
271.2230327767282
 31
0.0
  0
LINE
  5
935
330
1E
100
AcDbEntity
  8
STEMPEL
100
AcDbLine
 10
146.9587026028781
 20
255.2230327767283
 30
0.0
 11
145.3587026028773
 21
255.2230327767283
 31
0.0
  0
LINE
  5
937
330
1E
100
AcDbEntity
  8
STEMPEL
100
AcDbLine
 10
147.5174349147461
 20
271.2230327767282
 30
0.0
 11
163.358702602878
 21
271.2230327767282
 31
0.0
  0
LINE
  5
938
102
{ACAD_REACTORS
330
1032
102
}
330
1E
100
AcDbEntity
  8
STEMPEL
100
AcDbLine
 10
232.7587026028781
 20
255.2230327767282
 30
0.0
 11
232.1999702910101
 21
271.2230327767282
 31
0.0
  0
LINE
  5
93A
330
1E
100
AcDbEntity
  8
STEMPEL
100
AcDbLine
 10
220.3587026028781
 20
261.2230327767282
 30
0.0
 11
216.3587026028782
 21
261.2230327767282
 31
0.0
  0
LINE
  5
93C
102
{ACAD_REACTORS
330
1032
102
}
330
1E
100
AcDbEntity
  8
STEMPEL
100
AcDbLine
 10
232.1999702910101
 20
271.2230327767282
 30
0.0
 11
216.3587026028782
 21
271.2230327767282
 31
0.0
  0
LINE
  5
93D
330
1E
100
AcDbEntity
  8
STEMPEL
100
AcDbLine
 10
159.3587026028781
 20
261.2230327767282
 30
0.0
 11
163.358702602878
 21
261.2230327767282
 31
0.0
  0
LINE
  5
93E
102
{ACAD_REACTORS
330
1032
102
}
330
1E
100
AcDbEntity
  8
STEMPEL
100
AcDbLine
 10
146.9587026028781
 20
255.2230327767282
 30
0.0
 11
147.5174349147461
 21
271.2230327767282
 31
0.0
  0
LINE
  5
941
102
{ACAD_REACTORS
330
1032
102
}
330
1E
100
AcDbEntity
  8
STEMPEL
100
AcDbLine
 10
147.5174349147461
 20
271.2230327767282
 30
0.0
 11
163.358702602878
 21
271.2230327767282
 31
0.0
  0
LINE
  5
942
330
1E
100
AcDbEntity
  8
STEMPEL
100
AcDbLine
 10
234.358702602878
 20
310.0939187697519
 30
0.0
 11
234.358702602878
 21
253.2230327767277
 31
0.0
  0
LINE
  5
943
102
{ACAD_REACTORS
330
1032
102
}
330
1E
100
AcDbEntity
  8
STEMPEL
100
AcDbLine
 10
232.7587026028778
 20
310.73225404331
 30
0.0
 11
232.758702602878
 21
255.223032776728
 31
0.0
  0
LINE
  5
946
330
1E
100
AcDbEntity
  8
STEMPEL
100
AcDbLine
 10
145.358702602878
 20
345.6013183614134
 30
0.0
 11
145.3587026028781
 21
253.2230327767283
 31
0.0
  0
LINE
  5
947
102
{ACAD_REACTORS
330
1032
102
}
330
1E
100
AcDbEntity
  8
STEMPEL
100
AcDbLine
 10
146.9587026028779
 20
344.9629830878553
 30
0.0
 11
146.9587026028781
 21
255.2230327767282
 31
0.0
  0
LINE
  5
94E
330
1E
100
AcDbEntity
  8
STEMPEL
100
AcDbLine
 10
163.3587026028836
 20
294.933456022747
 30
0.0
 11
163.3587026028859
 21
230.1575413622723
 31
0.0
  0
LINE
  5
94F
330
1E
100
AcDbEntity
  8
STEMPEL
100
AcDbLine
 10
164.8587026028777
 20
294.9334560227508
 30
0.0
 11
164.8587026028777
 21
230.2230327767281
 31
0.0
  0
LINE
  5
951
102
{ACAD_REACTORS
330
EC1
330
1032
102
}
330
1E
100
AcDbEntity
  8
STEMPEL
100
AcDbLine
 10
163.3587026028836
 20
294.933456022747
 30
0.0
 11
163.3587026028859
 21
230.1575413622723
 31
0.0
  0
LINE
  5
952
102
{ACAD_REACTORS
330
EC1
102
}
330
1E
100
AcDbEntity
  8
STEMPEL
100
AcDbLine
 10
164.8587026028777
 20
294.9334560227508
 30
0.0
 11
164.8587026028777
 21
230.2230327767281
 31
0.0
  0
LINE
  5
954
330
1E
100
AcDbEntity
  8
STEMPEL
100
AcDbLine
 10
216.3587026028778
 20
230.1575413623597
 30
0.0
 11
215.9269890415637
 21
225.2230327767282
 31
0.0
  0
LINE
  5
955
330
1E
100
AcDbEntity
  8
STEMPEL
100
AcDbLine
 10
214.8587026028779
 20
230.2230327767219
 30
0.0
 11
214.4212592852489
 21
225.2230327767282
 31
0.0
  0
LINE
  5
956
330
1E
100
AcDbEntity
  8
STEMPEL
100
AcDbLine
 10
164.8587026028777
 20
230.2230327767282
 30
0.0
 11
165.2961459205073
 21
225.2230327767281
 31
0.0
  0
LINE
  5
957
330
1E
100
AcDbEntity
  8
STEMPEL
100
AcDbLine
 10
163.3587026028859
 20
230.1575413622723
 30
0.0
 11
163.7904161641924
 21
225.2230327767281
 31
0.0
  0
LINE
  5
958
330
1E
100
AcDbEntity
  8
STEMPEL
100
AcDbLine
 10
215.9269890415637
 20
225.2230327767282
 30
0.0
 11
163.7904161641924
 21
225.2230327767281
 31
0.0
  0
LINE
  5
959
330
1E
100
AcDbEntity
  8
HILF
100
AcDbLine
 10
213.3529728465634
 20
230.2230327767281
 30
0.0
 11
166.3644323591926
 21
230.2230327767281
 31
0.0
  0
LINE
  5
95A
102
{ACAD_REACTORS
330
EC1
102
}
330
1E
100
AcDbEntity
  8
STEMPEL
100
AcDbLine
 10
216.3587026028778
 20
230.1575413623597
 30
0.0
 11
215.9269890415637
 21
225.2230327767282
 31
0.0
  0
LINE
  5
95B
102
{ACAD_REACTORS
330
EC1
102
}
330
1E
100
AcDbEntity
  8
STEMPEL
100
AcDbLine
 10
214.8587026028779
 20
230.2230327767219
 30
0.0
 11
214.4212592852489
 21
225.2230327767282
 31
0.0
  0
LINE
  5
95C
102
{ACAD_REACTORS
330
EC1
102
}
330
1E
100
AcDbEntity
  8
STEMPEL
100
AcDbLine
 10
164.8587026028777
 20
230.2230327767282
 30
0.0
 11
165.2961459205073
 21
225.2230327767281
 31
0.0
  0
LINE
  5
95D
102
{ACAD_REACTORS
330
EC1
102
}
330
1E
100
AcDbEntity
  8
STEMPEL
100
AcDbLine
 10
163.3587026028859
 20
230.1575413622723
 30
0.0
 11
163.7904161641924
 21
225.2230327767281
 31
0.0
  0
LINE
  5
95E
102
{ACAD_REACTORS
330
EC1
102
}
330
1E
100
AcDbEntity
  8
STEMPEL
100
AcDbLine
 10
215.9269890415637
 20
225.2230327767282
 30
0.0
 11
163.7904161641924
 21
225.2230327767281
 31
0.0
  0
LINE
  5
95F
330
1E
100
AcDbEntity
  8
HILF
100
AcDbLine
 10
213.3529728465634
 20
230.2230327767281
 30
0.0
 11
166.3644323591926
 21
230.2230327767281
 31
0.0
  0
DIMENSION
  5
960
330
1E
100
AcDbEntity
  8
BEM
100
AcDbDimension
  2
*D1
 10
216.3587026028778
 20
204.9364386695225
 30
0.0
 11
189.8587026028818
 21
211.4364386695225
 31
0.0
 70
    32
  1
%%c<>
 71
     5
 42
52.99999999999187
  3
Standard
100
AcDbAlignedDimension
 13
163.3587026028859
 23
230.1575413622723
 33
0.0
 14
216.3587026028778
 24
230.1575413623597
 34
0.0
100
AcDbRotatedDimension
1001
ACAD
1000
DSTYLE
1002
{
1070
    40
1040
2.0
1070
    41
1040
3.5
1070
    42
1040
1.0
1070
    43
1040
7.0
1070
    44
1040
1.0
1070
    73
1070
     0
1070
    74
1070
     0
1070
    77
1070
     1
1070
    78
1070
     8
1070
    79
1070
     2
1070
   140
1040
3.5
1070
   141
1040
1.5
1070
   146
1040
0.5142857142857144
1070
   147
1040
1.5
1070
   172
1070
     1
1070
   178
1070
     1
1070
   179
1070
     2
1070
   271
1070
     2
1070
   272
1070
     2
1070
   284
1070
     8
1070
   285
1070
     8
1070
   286
1070
     8
1070
   289
1070
     0
1070
   340
1005
24
1002
}
  0
DIMENSION
  5
961
330
1E
100
AcDbEntity
  8
BEM
100
AcDbDimension
  2
*D2
 10
216.3587026028778
 20
204.9364386695225
 30
0.0
 11
189.8587026028818
 21
211.4364386695225
 31
0.0
 70
    32
  1
%%c<>
 71
     5
 42
52.99999999999187
  3
Standard
100
AcDbAlignedDimension
 13
163.3587026028859
 23
230.1575413622723
 33
0.0
 14
216.3587026028778
 24
230.1575413623597
 34
0.0
100
AcDbRotatedDimension
1001
ACAD
1000
DSTYLE
1002
{
1070
    40
1040
2.0
1070
    41
1040
3.5
1070
    42
1040
1.0
1070
    43
1040
7.0
1070
    44
1040
1.0
1070
    73
1070
     0
1070
    74
1070
     0
1070
    77
1070
     1
1070
    78
1070
     8
1070
    79
1070
     2
1070
   140
1040
3.5
1070
   141
1040
1.5
1070
   146
1040
0.5142857142857144
1070
   147
1040
1.5
1070
   172
1070
     1
1070
   178
1070
     1
1070
   179
1070
     2
1070
   271
1070
     2
1070
   272
1070
     2
1070
   284
1070
     8
1070
   285
1070
     8
1070
   286
1070
     8
1070
   289
1070
     0
1070
   340
1005
24
1002
}
  0
LINE
  5
9BE
330
1E
100
AcDbEntity
  8
STEMPEL
100
AcDbLine
 10
216.3587026028778
 20
294.9334560227508
 30
0.0
 11
216.3587026028778
 21
230.1575413623597
 31
0.0
  0
LINE
  5
9BF
102
{ACAD_REACTORS
330
EC1
330
1032
102
}
330
1E
100
AcDbEntity
  8
STEMPEL
100
AcDbLine
 10
216.3587026028778
 20
294.9334560227508
 30
0.0
 11
216.3587026028778
 21
230.1575413623597
 31
0.0
  0
ARC
  5
9C0
102
{ACAD_REACTORS
330
EC1
102
}
330
1E
100
AcDbEntity
  8
STEMPEL
100
AcDbCircle
 10
272.3587026028779
 20
294.9334560227508
 30
0.0
 40
57.5
100
AcDbArc
 50
92.9999999999991
 51
180.0
  0
ARC
  5
9C1
102
{ACAD_REACTORS
330
EC1
102
}
330
1E
100
AcDbEntity
  8
STEMPEL
100
AcDbCircle
 10
272.3587026028779
 20
294.9334560227508
 30
0.0
 40
107.5
100
AcDbArc
 50
92.9999999999991
 51
180.0
  0
LINE
  5
9C2
330
1E
100
AcDbEntity
  8
STEMPEL
100
AcDbLine
 10
214.8587026028779
 20
294.9334560227508
 30
0.0
 11
214.8587026028779
 21
230.2230327767219
 31
0.0
  0
LINE
  5
9C3
102
{ACAD_REACTORS
330
EC1
102
}
330
1E
100
AcDbEntity
  8
STEMPEL
100
AcDbLine
 10
214.8587026028779
 20
294.9334560227508
 30
0.0
 11
214.8587026028779
 21
230.2230327767219
 31
0.0
  0
TEXT
  5
A82
330
1E
100
AcDbEntity
  8
TEXT
 62
     1
100
AcDbText
 10
277.2334125913399
 20
386.9235986860751
 30
0.0
 40
7.0
  1
DN50
 50
3.000000000000004
 41
0.8
  7
GREEKS
100
AcDbText
  0
LINE
  5
A83
330
1E
100
AcDbEntity
  8
STEMPEL
100
AcDbLine
 10
349.1050625900811
 20
353.5784431067161
 30
0.0
 11
348.3496752832613
 21
353.1767965511226
 31
0.0
  0
LINE
  5
A84
330
1E
100
AcDbEntity
  8
STEMPEL
100
AcDbLine
 10
349.1916820978104
 20
351.9256444399082
 30
0.0
 11
349.0538826274395
 21
351.8523751618338
 31
0.0
  0
ARC
  5
A85
330
1E
100
AcDbEntity
  8
STEMPEL
100
AcDbCircle
 10
339.8991871531147
 20
369.0698532225828
 30
0.0
 40
19.5
100
AcDbArc
 50
273.0
 51
298.459428568801
  0
ARC
  5
A86
330
1E
100
AcDbEntity
  8
STEMPEL
100
AcDbCircle
 10
339.8991871531147
 20
369.0698532225828
 30
0.0
 40
18.0
100
AcDbArc
 50
273.0
 51
297.9999999999935
  0
LINE
  5
A87
330
1E
100
AcDbEntity
  8
STEMPEL
100
AcDbLine
 10
336.3918418142093
 20
350.8613388142296
 30
0.0
 11
336.3918434919498
 21
350.8613068010345
 31
0.0
  0
ARC
  5
A88
330
1E
100
AcDbEntity
  8
STEMPEL
100
AcDbCircle
 10
335.1619468425003
 20
374.329132880962
 30
0.0
 40
25.00003205712822
100
AcDbArc
 50
253.5369005553155
 51
273.0917549917638
  0
ARC
  5
A89
330
1E
100
AcDbEntity
  8
STEMPEL
100
AcDbCircle
 10
335.1619468425003
 20
374.329132880962
 30
0.0
 40
23.5000320571282
100
AcDbArc
 50
253.5369005553155
 51
273.094638044797
  0
LINE
  5
A8A
330
1E
100
AcDbEntity
  8
STEMPEL
100
AcDbLine
 10
324.71965620178
 20
350.7503116599017
 30
0.0
 11
316.6390724717188
 21
350.3268262112984
 31
0.0
  0
LINE
  5
A8B
330
1E
100
AcDbEntity
  8
STEMPEL
100
AcDbLine
 10
324.6411522674157
 20
352.2482559620336
 30
0.0
 11
316.5605685373543
 21
351.8247705134303
 31
0.0
  0
ARC
  5
A8C
330
1E
100
AcDbEntity
  8
STEMPEL
100
AcDbCircle
 10
325.2430157642095
 20
340.7640163123558
 30
0.0
 40
10.0
100
AcDbArc
 50
73.53690055531543
 51
93.0
  0
ARC
  5
A8D
330
1E
100
AcDbEntity
  8
STEMPEL
100
AcDbCircle
 10
325.2430157642095
 20
340.7640163123558
 30
0.0
 40
11.5
100
AcDbArc
 50
73.53690055531543
 51
93.0
  0
LINE
  5
A8E
330
1E
100
AcDbEntity
  8
STEMPEL
100
AcDbLine
 10
340.8412343654876
 20
351.0945215970006
 30
0.0
 11
336.4306046722212
 21
350.8633702895366
 31
0.0
  0
LINE
  5
A8F
330
1E
100
AcDbEntity
  8
STEMPEL
100
AcDbLine
 10
340.9197382998521
 20
349.5965772948688
 30
0.0
 11
336.5103265830439
 21
349.3654898188462
 31
0.0
  0
LINE
  5
A90
330
1E
100
AcDbEntity
  8
STEMPEL
100
AcDbLine
 10
335.9065681303582
 20
337.9182034347414
 30
0.0
 11
335.3085258183666
 21
349.3295305348992
 31
0.0
  0
ARC
  5
A91
330
1E
100
AcDbEntity
  8
STEMPEL
100
AcDbCircle
 10
306.379537247387
 20
344.7822850237255
 30
0.0
 40
8.0
100
AcDbArc
 50
61.21166938295115
 51
93.0
  0
LINE
  5
A92
330
1E
100
AcDbEntity
  8
STEMPEL
100
AcDbLine
 10
311.0811496138645
 20
353.0396648548856
 30
0.0
 11
311.0773034354748
 21
353.0394632852175
 31
0.0
  0
ARC
  5
A93
330
1E
100
AcDbEntity
  8
STEMPEL
100
AcDbCircle
 10
306.3795372473869
 20
344.7822850237254
 30
0.0
 40
9.5
100
AcDbArc
 50
61.21166938295115
 51
93.0
  0
ARC
  5
A94
330
1E
100
AcDbEntity
  8
STEMPEL
100
AcDbCircle
 10
316.0110409968035
 20
362.3103806283533
 30
0.0
 40
10.5
100
AcDbArc
 50
241.2116693829512
 51
273.0
  0
ARC
  5
A95
330
1E
100
AcDbEntity
  8
STEMPEL
100
AcDbCircle
 10
316.0110409968035
 20
362.3103806283533
 30
0.0
 40
12.0
100
AcDbArc
 50
241.2116693829512
 51
273.0
  0
LINE
  5
A97
102
{ACAD_REACTORS
330
EE1
330
FDB
330
1032
102
}
330
1E
100
AcDbEntity
  8
STEMPEL
100
AcDbLine
 10
349.8873816169223
 20
338.6509068221426
 30
0.0
 11
254.509052418705
 21
333.6523403971371
 31
0.0
  0
LINE
  5
A99
102
{ACAD_REACTORS
330
EC1
330
1032
102
}
330
1E
100
AcDbEntity
  8
STEMPEL
100
AcDbLine
 10
305.9608495974434
 20
352.7713213017621
 30
0.0
 11
269.427889053273
 21
350.8567099690072
 31
0.0
  0
LINE
  5
A9B
330
1E
100
AcDbEntity
  8
STEMPEL
100
AcDbLine
 10
346.1792755981195
 20
409.4057846195114
 30
0.0
 11
345.3860428847709
 21
409.7262714388945
 31
0.0
  0
LINE
  5
A9C
330
1E
100
AcDbEntity
  8
STEMPEL
100
AcDbLine
 10
346.09265609039
 20
411.0585832863193
 30
0.0
 11
345.9479527748941
 21
411.117047220745
 31
0.0
  0
ARC
  5
A9D
330
1E
100
AcDbEntity
  8
STEMPEL
100
AcDbCircle
 10
338.6431242032839
 20
393.0369620566927
 30
0.0
 40
18.0
100
AcDbArc
 50
68.00000000000064
 51
93.0
  0
ARC
  5
A9E
330
1E
100
AcDbEntity
  8
STEMPEL
100
AcDbCircle
 10
334.481579411342
 20
387.3113168327715
 30
0.0
 40
23.5000320571282
100
AcDbArc
 50
92.90536195520298
 51
112.4630994446846
  0
LINE
  5
A9F
330
1E
100
AcDbEntity
  8
STEMPEL
100
AcDbLine
 10
333.2516844396327
 20
410.7791108995041
 30
0.0
 11
333.2516827618922
 21
410.779142912699
 31
0.0
  0
LINE
  5
AA0
330
1E
100
AcDbEntity
  8
STEMPEL
100
AcDbLine
 10
321.6318347834464
 20
409.6694542104216
 30
0.0
 11
313.5512510533851
 21
409.2459687618182
 31
0.0
  0
LINE
  5
AA1
330
1E
100
AcDbEntity
  8
STEMPEL
100
AcDbLine
 10
321.7103387178107
 20
408.1715099082897
 30
0.0
 11
313.6297549877495
 21
407.7480244596864
 31
0.0
  0
ARC
  5
AA2
330
1E
100
AcDbEntity
  8
STEMPEL
100
AcDbCircle
 10
321.1084752210169
 20
419.6557495579671
 30
0.0
 40
11.5
100
AcDbArc
 50
273.0
 51
292.4630994446846
  0
ARC
  5
AA3
330
1E
100
AcDbEntity
  8
STEMPEL
100
AcDbCircle
 10
321.1084752210169
 20
419.6557495579671
 30
0.0
 40
10.0
100
AcDbArc
 50
273.0
 51
292.4630994446846
  0
LINE
  5
AA4
330
1E
100
AcDbEntity
  8
STEMPEL
100
AcDbLine
 10
337.7010769909109
 20
411.012293682275
 30
0.0
 11
333.2904472976445
 21
410.7811423748111
 31
0.0
  0
LINE
  5
AA5
330
1E
100
AcDbEntity
  8
STEMPEL
100
AcDbLine
 10
332.0141853967056
 20
412.1892904165258
 30
0.0
 11
331.4161430847139
 21
423.6006175166836
 31
0.0
  0
LINE
  5
AA6
330
1E
100
AcDbEntity
  8
STEMPEL
100
AcDbLine
 10
337.6225730565466
 20
412.5102379844069
 30
0.0
 11
333.2131613397383
 21
412.2791505083843
 31
0.0
  0
ARC
  5
AA7
330
1E
100
AcDbEntity
  8
STEMPEL
100
AcDbCircle
 10
338.6431242032839
 20
393.0369620566927
 30
0.0
 40
19.5
100
AcDbArc
 50
67.54057143119043
 51
93.0
  0
ARC
  5
AA8
330
1E
100
AcDbEntity
  8
STEMPEL
100
AcDbCircle
 10
334.481579411342
 20
387.3113168327715
 30
0.0
 40
25.00003205712822
100
AcDbArc
 50
92.9082450082428
 51
112.4630994446846
  0
ARC
  5
AA9
330
1E
100
AcDbEntity
  8
STEMPEL
100
AcDbCircle
 10
302.7683562666236
 20
413.687722921791
 30
0.0
 40
9.5
100
AcDbArc
 50
273.0
 51
304.7883306170489
  0
LINE
  5
AAA
330
1E
100
AcDbEntity
  8
STEMPEL
100
AcDbLine
 10
308.3073439329884
 20
405.967030196878
 30
0.0
 11
308.3034977545988
 21
405.9668286272098
 31
0.0
  0
ARC
  5
AAB
330
1E
100
AcDbEntity
  8
STEMPEL
100
AcDbCircle
 10
302.7683562666239
 20
413.687722921791
 30
0.0
 40
8.0
100
AcDbArc
 50
273.0
 51
304.7883306170489
  0
ARC
  5
AAC
330
1E
100
AcDbEntity
  8
STEMPEL
100
AcDbCircle
 10
314.1792825283003
 20
397.2624143447634
 30
0.0
 40
12.0
100
AcDbArc
 50
93.0
 51
124.7883306170489
  0
ARC
  5
AAD
330
1E
100
AcDbEntity
  8
STEMPEL
100
AcDbCircle
 10
314.1792825283003
 20
397.2624143447634
 30
0.0
 40
10.5
100
AcDbArc
 50
93.0
 51
124.7883306170489
  0
LINE
  5
AAE
102
{ACAD_REACTORS
330
EE1
102
}
330
1E
100
AcDbEntity
  8
STEMPEL
100
AcDbLine
 10
345.3132190412893
 20
425.9311281596922
 30
0.0
 11
215.1136123657571
 21
419.1076559103021
 31
0.0
  0
LINE
  5
AAF
102
{ACAD_REACTORS
330
EE1
330
FDB
330
1032
102
}
330
1E
100
AcDbEntity
  8
STEMPEL
100
AcDbLine
 10
345.3969565712779
 20
424.3333209040851
 30
0.0
 11
215.8348103529962
 21
417.5432565416399
 31
0.0
  0
LINE
  5
AB0
102
{ACAD_REACTORS
330
EC1
330
1032
102
}
330
1E
100
AcDbEntity
  8
STEMPEL
100
AcDbLine
 10
303.1870439165673
 20
405.6986866437545
 30
0.0
 11
266.6540833723934
 21
403.784075310998
 31
0.0
  0
LINE
  5
AB1
102
{ACAD_REACTORS
330
EC1
102
}
330
1E
100
AcDbEntity
  8
STEMPEL
100
AcDbLine
 10
303.2655478509316
 20
404.2007423416227
 30
0.0
 11
266.7325873067614
 21
402.2861310088677
 31
0.0
  0
LINE
  5
AB2
330
1E
100
AcDbEntity
  8
HILF
100
AcDbLine
 10
323.7223990409412
 20
406.9212530126133
 30
0.0
 11
326.5115028815758
 21
353.7019813931975
 31
0.0
  0
LINE
  5
AB3
330
1E
100
AcDbEntity
  8
HILF
100
AcDbLine
 10
310.8613451952756
 20
405.6284941826636
 30
0.0
 11
313.5857731406807
 21
353.6433121605232
 31
0.0
  0
LINE
  5
AB4
330
1E
100
AcDbEntity
  8
HILF
100
AcDbLine
 10
305.9258344732632
 20
403.1506298039244
 30
0.0
 11
308.4182923071192
 21
355.5917011877195
 31
0.0
  0
LINE
  5
AB5
330
1E
100
AcDbEntity
  8
STEMPEL
100
AcDbLine
 10
349.9711191469111
 20
337.0530995665354
 30
0.0
 11
345.3132190412893
 21
425.9311281596922
 31
0.0
  0
DIMENSION
  5
AB8
330
1E
100
AcDbEntity
  8
BEM
100
AcDbDimension
  2
*D3
 10
362.8569893869948
 20
337.7284194099481
 30
0.0
 11
367.0191313100868
 21
382.5076174221059
 31
0.0
 70
    32
  1
%%c<>
 71
     5
 42
88.99999999999989
  3
Standard
100
AcDbAlignedDimension
 13
345.3132190412893
 23
425.9311281596922
 33
0.0
 14
349.9711191469111
 24
337.0530995665354
 34
0.0
 50
273.0000000000023
100
AcDbRotatedDimension
1001
ACAD
1000
DSTYLE
1002
{
1070
    40
1040
2.0
1070
    41
1040
3.5
1070
    42
1040
1.0
1070
    43
1040
7.0
1070
    44
1040
1.0
1070
    73
1070
     0
1070
    74
1070
     0
1070
    77
1070
     1
1070
    78
1070
     8
1070
    79
1070
     2
1070
   140
1040
3.5
1070
   141
1040
1.5
1070
   146
1040
0.5142857142857144
1070
   147
1040
1.5
1070
   172
1070
     1
1070
   178
1070
     1
1070
   179
1070
     2
1070
   271
1070
     2
1070
   272
1070
     2
1070
   284
1070
     8
1070
   285
1070
     8
1070
   286
1070
     8
1070
   289
1070
     0
1070
   340
1005
24
1002
}
  0
LINE
  5
AB9
102
{ACAD_REACTORS
330
EC1
102
}
330
1E
100
AcDbEntity
  8
STEMPEL
100
AcDbLine
 10
349.1050625900811
 20
353.5784431067161
 30
0.0
 11
348.3496752832613
 21
353.1767965511226
 31
0.0
  0
LINE
  5
ABA
102
{ACAD_REACTORS
330
FDB
102
}
330
1E
100
AcDbEntity
  8
STEMPEL
100
AcDbLine
 10
349.1916820978104
 20
351.9256444399082
 30
0.0
 11
349.0538826274395
 21
351.8523751618338
 31
0.0
  0
ARC
  5
ABB
102
{ACAD_REACTORS
330
EC1
330
FDB
102
}
330
1E
100
AcDbEntity
  8
STEMPEL
100
AcDbCircle
 10
339.8991871531147
 20
369.0698532225828
 30
0.0
 40
19.5
100
AcDbArc
 50
273.0
 51
298.459428568801
  0
ARC
  5
ABC
102
{ACAD_REACTORS
330
EC1
102
}
330
1E
100
AcDbEntity
  8
STEMPEL
100
AcDbCircle
 10
339.8991871531147
 20
369.0698532225828
 30
0.0
 40
18.0
100
AcDbArc
 50
273.0
 51
297.9999999999935
  0
LINE
  5
ABD
330
1E
100
AcDbEntity
  8
STEMPEL
100
AcDbLine
 10
336.3918418142093
 20
350.8613388142296
 30
0.0
 11
336.3918434919498
 21
350.8613068010345
 31
0.0
  0
ARC
  5
ABE
102
{ACAD_REACTORS
330
EC1
330
FDB
330
1032
102
}
330
1E
100
AcDbEntity
  8
STEMPEL
100
AcDbCircle
 10
335.1619468425003
 20
374.329132880962
 30
0.0
 40
25.00003205712822
100
AcDbArc
 50
253.5369005553155
 51
273.0917549917638
  0
ARC
  5
ABF
102
{ACAD_REACTORS
330
EC1
102
}
330
1E
100
AcDbEntity
  8
STEMPEL
100
AcDbCircle
 10
335.1619468425003
 20
374.329132880962
 30
0.0
 40
23.5000320571282
100
AcDbArc
 50
253.5369005553155
 51
273.094638044797
  0
LINE
  5
AC0
102
{ACAD_REACTORS
330
EC1
330
1032
102
}
330
1E
100
AcDbEntity
  8
STEMPEL
100
AcDbLine
 10
324.71965620178
 20
350.7503116599017
 30
0.0
 11
316.6390724717188
 21
350.3268262112984
 31
0.0
  0
LINE
  5
AC1
102
{ACAD_REACTORS
330
EC1
102
}
330
1E
100
AcDbEntity
  8
STEMPEL
100
AcDbLine
 10
324.6411522674157
 20
352.2482559620336
 30
0.0
 11
316.5605685373543
 21
351.8247705134303
 31
0.0
  0
ARC
  5
AC2
102
{ACAD_REACTORS
330
EC1
330
1032
102
}
330
1E
100
AcDbEntity
  8
STEMPEL
100
AcDbCircle
 10
325.2430157642095
 20
340.7640163123558
 30
0.0
 40
10.0
100
AcDbArc
 50
73.53690055531543
 51
93.0
  0
ARC
  5
AC3
102
{ACAD_REACTORS
330
EC1
102
}
330
1E
100
AcDbEntity
  8
STEMPEL
100
AcDbCircle
 10
325.2430157642095
 20
340.7640163123558
 30
0.0
 40
11.5
100
AcDbArc
 50
73.53690055531543
 51
93.0
  0
LINE
  5
AC4
102
{ACAD_REACTORS
330
EC1
102
}
330
1E
100
AcDbEntity
  8
STEMPEL
100
AcDbLine
 10
340.8412343654876
 20
351.0945215970006
 30
0.0
 11
336.4306046722212
 21
350.8633702895366
 31
0.0
  0
LINE
  5
AC5
102
{ACAD_REACTORS
330
EC1
330
FDB
102
}
330
1E
100
AcDbEntity
  8
STEMPEL
100
AcDbLine
 10
340.9197382998521
 20
349.5965772948688
 30
0.0
 11
336.5103265830439
 21
349.3654898188462
 31
0.0
  0
LINE
  5
AC6
102
{ACAD_REACTORS
330
FDB
330
1032
102
}
330
1E
100
AcDbEntity
  8
STEMPEL
100
AcDbLine
 10
335.9065681303582
 20
337.9182034347414
 30
0.0
 11
335.3085258183666
 21
349.3295305348992
 31
0.0
  0
ARC
  5
AC7
102
{ACAD_REACTORS
330
EC1
330
1032
102
}
330
1E
100
AcDbEntity
  8
STEMPEL
100
AcDbCircle
 10
306.379537247387
 20
344.7822850237255
 30
0.0
 40
8.0
100
AcDbArc
 50
61.21166938295115
 51
93.0
  0
LINE
  5
AC8
102
{ACAD_REACTORS
330
EC1
102
}
330
1E
100
AcDbEntity
  8
STEMPEL
100
AcDbLine
 10
311.0811496138645
 20
353.0396648548856
 30
0.0
 11
311.0773034354748
 21
353.0394632852175
 31
0.0
  0
ARC
  5
AC9
102
{ACAD_REACTORS
330
EC1
102
}
330
1E
100
AcDbEntity
  8
STEMPEL
100
AcDbCircle
 10
306.3795372473869
 20
344.7822850237254
 30
0.0
 40
9.5
100
AcDbArc
 50
61.21166938295115
 51
93.0
  0
ARC
  5
ACA
102
{ACAD_REACTORS
330
EC1
102
}
330
1E
100
AcDbEntity
  8
STEMPEL
100
AcDbCircle
 10
316.0110409968035
 20
362.3103806283533
 30
0.0
 40
10.5
100
AcDbArc
 50
241.2116693829512
 51
273.0
  0
ARC
  5
ACB
102
{ACAD_REACTORS
330
EC1
330
1032
102
}
330
1E
100
AcDbEntity
  8
STEMPEL
100
AcDbCircle
 10
316.0110409968035
 20
362.3103806283533
 30
0.0
 40
12.0
100
AcDbArc
 50
241.2116693829512
 51
273.0
  0
LINE
  5
ACC
102
{ACAD_REACTORS
330
EE1
102
}
330
1E
100
AcDbEntity
  8
STEMPEL
100
AcDbLine
 10
349.9711191469111
 20
337.0530995665354
 30
0.0
 11
255.2302504059442
 21
332.087941028475
 31
0.0
  0
LINE
  5
AD0
102
{ACAD_REACTORS
330
EC1
102
}
330
1E
100
AcDbEntity
  8
STEMPEL
100
AcDbLine
 10
305.8823456630789
 20
354.2692656038941
 30
0.0
 11
269.3493851189086
 21
352.3546542711392
 31
0.0
  0
LINE
  5
AD1
102
{ACAD_REACTORS
330
EC1
102
}
330
1E
100
AcDbEntity
  8
STEMPEL
100
AcDbLine
 10
346.1792755981195
 20
409.4057846195114
 30
0.0
 11
345.3860428847709
 21
409.7262714388945
 31
0.0
  0
LINE
  5
AD2
102
{ACAD_REACTORS
330
FDB
102
}
330
1E
100
AcDbEntity
  8
STEMPEL
100
AcDbLine
 10
346.09265609039
 20
411.0585832863193
 30
0.0
 11
345.9479527748941
 21
411.117047220745
 31
0.0
  0
ARC
  5
AD3
102
{ACAD_REACTORS
330
EC1
102
}
330
1E
100
AcDbEntity
  8
STEMPEL
100
AcDbCircle
 10
338.6431242032839
 20
393.0369620566927
 30
0.0
 40
18.0
100
AcDbArc
 50
68.00000000000064
 51
93.0
  0
ARC
  5
AD4
102
{ACAD_REACTORS
330
EC1
102
}
330
1E
100
AcDbEntity
  8
STEMPEL
100
AcDbCircle
 10
334.481579411342
 20
387.3113168327715
 30
0.0
 40
23.5000320571282
100
AcDbArc
 50
92.90536195520298
 51
112.4630994446846
  0
LINE
  5
AD5
330
1E
100
AcDbEntity
  8
STEMPEL
100
AcDbLine
 10
333.2516844396327
 20
410.7791108995041
 30
0.0
 11
333.2516827618922
 21
410.779142912699
 31
0.0
  0
LINE
  5
AD6
102
{ACAD_REACTORS
330
EC1
330
1032
102
}
330
1E
100
AcDbEntity
  8
STEMPEL
100
AcDbLine
 10
321.6318347834464
 20
409.6694542104216
 30
0.0
 11
313.5512510533851
 21
409.2459687618182
 31
0.0
  0
LINE
  5
AD7
102
{ACAD_REACTORS
330
EC1
102
}
330
1E
100
AcDbEntity
  8
STEMPEL
100
AcDbLine
 10
321.7103387178107
 20
408.1715099082897
 30
0.0
 11
313.6297549877495
 21
407.7480244596864
 31
0.0
  0
ARC
  5
AD8
102
{ACAD_REACTORS
330
EC1
102
}
330
1E
100
AcDbEntity
  8
STEMPEL
100
AcDbCircle
 10
321.1084752210169
 20
419.6557495579671
 30
0.0
 40
11.5
100
AcDbArc
 50
273.0
 51
292.4630994446846
  0
ARC
  5
AD9
102
{ACAD_REACTORS
330
EC1
330
1032
102
}
330
1E
100
AcDbEntity
  8
STEMPEL
100
AcDbCircle
 10
321.1084752210169
 20
419.6557495579671
 30
0.0
 40
10.0
100
AcDbArc
 50
273.0
 51
292.4630994446846
  0
LINE
  5
ADA
102
{ACAD_REACTORS
330
EC1
102
}
330
1E
100
AcDbEntity
  8
STEMPEL
100
AcDbLine
 10
337.7010769909109
 20
411.012293682275
 30
0.0
 11
333.2904472976445
 21
410.7811423748111
 31
0.0
  0
LINE
  5
ADB
102
{ACAD_REACTORS
330
FDB
330
1032
102
}
330
1E
100
AcDbEntity
  8
STEMPEL
100
AcDbLine
 10
332.0141853967056
 20
412.1892904165258
 30
0.0
 11
331.4161430847139
 21
423.6006175166836
 31
0.0
  0
LINE
  5
ADC
102
{ACAD_REACTORS
330
EC1
330
FDB
102
}
330
1E
100
AcDbEntity
  8
STEMPEL
100
AcDbLine
 10
337.6225730565466
 20
412.5102379844069
 30
0.0
 11
333.2131613397383
 21
412.2791505083843
 31
0.0
  0
ARC
  5
ADD
102
{ACAD_REACTORS
330
EC1
330
FDB
102
}
330
1E
100
AcDbEntity
  8
STEMPEL
100
AcDbCircle
 10
338.6431242032839
 20
393.0369620566927
 30
0.0
 40
19.5
100
AcDbArc
 50
67.54057143119043
 51
93.0
  0
ARC
  5
ADE
102
{ACAD_REACTORS
330
EC1
330
FDB
330
1032
102
}
330
1E
100
AcDbEntity
  8
STEMPEL
100
AcDbCircle
 10
334.481579411342
 20
387.3113168327715
 30
0.0
 40
25.00003205712822
100
AcDbArc
 50
92.9082450082428
 51
112.4630994446846
  0
ARC
  5
ADF
102
{ACAD_REACTORS
330
EC1
102
}
330
1E
100
AcDbEntity
  8
STEMPEL
100
AcDbCircle
 10
302.7683562666236
 20
413.687722921791
 30
0.0
 40
9.5
100
AcDbArc
 50
273.0
 51
304.7883306170489
  0
LINE
  5
AE0
102
{ACAD_REACTORS
330
EC1
102
}
330
1E
100
AcDbEntity
  8
STEMPEL
100
AcDbLine
 10
308.3073439329884
 20
405.967030196878
 30
0.0
 11
308.3034977545988
 21
405.9668286272098
 31
0.0
  0
ARC
  5
AE1
102
{ACAD_REACTORS
330
EC1
330
1032
102
}
330
1E
100
AcDbEntity
  8
STEMPEL
100
AcDbCircle
 10
302.7683562666239
 20
413.687722921791
 30
0.0
 40
8.0
100
AcDbArc
 50
273.0
 51
304.7883306170489
  0
ARC
  5
AE2
102
{ACAD_REACTORS
330
EC1
330
1032
102
}
330
1E
100
AcDbEntity
  8
STEMPEL
100
AcDbCircle
 10
314.1792825283003
 20
397.2624143447634
 30
0.0
 40
12.0
100
AcDbArc
 50
93.0
 51
124.7883306170489
  0
ARC
  5
AE3
102
{ACAD_REACTORS
330
EC1
102
}
330
1E
100
AcDbEntity
  8
STEMPEL
100
AcDbCircle
 10
314.1792825283003
 20
397.2624143447634
 30
0.0
 40
10.5
100
AcDbArc
 50
93.0
 51
124.7883306170489
  0
LINE
  5
AE8
330
1E
100
AcDbEntity
  8
HILF
100
AcDbLine
 10
323.7223990409412
 20
406.9212530126133
 30
0.0
 11
326.5115028815758
 21
353.7019813931975
 31
0.0
  0
LINE
  5
AE9
330
1E
100
AcDbEntity
  8
HILF
100
AcDbLine
 10
310.8613451952756
 20
405.6284941826636
 30
0.0
 11
313.5857731406807
 21
353.6433121605232
 31
0.0
  0
LINE
  5
AEA
330
1E
100
AcDbEntity
  8
HILF
100
AcDbLine
 10
305.9258344732632
 20
403.1506298039244
 30
0.0
 11
308.4182923071192
 21
355.5917011877195
 31
0.0
  0
LINE
  5
AEB
102
{ACAD_REACTORS
330
EC1
330
EE1
330
FDB
102
}
330
1E
100
AcDbEntity
  8
STEMPEL
100
AcDbLine
 10
349.9711191469111
 20
337.0530995665354
 30
0.0
 11
345.3132190412893
 21
425.9311281596922
 31
0.0
  0
DIMENSION
  5
AEE
330
1E
100
AcDbEntity
  8
BEM
100
AcDbDimension
  2
*D4
 10
362.8569893869948
 20
337.7284194099481
 30
0.0
 11
367.0191313100868
 21
382.5076174221059
 31
0.0
 70
    32
  1
%%c<>
 71
     5
 42
88.99999999999989
  3
Standard
100
AcDbAlignedDimension
 13
345.3132190412893
 23
425.9311281596922
 33
0.0
 14
349.9711191469111
 24
337.0530995665354
 34
0.0
 50
273.0000000000023
100
AcDbRotatedDimension
1001
ACAD
1000
DSTYLE
1002
{
1070
    40
1040
2.0
1070
    41
1040
3.5
1070
    42
1040
1.0
1070
    43
1040
7.0
1070
    44
1040
1.0
1070
    73
1070
     0
1070
    74
1070
     0
1070
    77
1070
     1
1070
    78
1070
     8
1070
    79
1070
     2
1070
   140
1040
3.5
1070
   141
1040
1.5
1070
   146
1040
0.5142857142857144
1070
   147
1040
1.5
1070
   172
1070
     1
1070
   178
1070
     1
1070
   179
1070
     2
1070
   271
1070
     2
1070
   272
1070
     2
1070
   284
1070
     8
1070
   285
1070
     8
1070
   286
1070
     8
1070
   289
1070
     0
1070
   340
1005
24
1002
}
  0
LINE
  5
BEA
102
{ACAD_REACTORS
330
ECF
102
}
330
1E
100
AcDbEntity
  8
STEMPEL
100
AcDbLine
 10
215.1136123657571
 20
419.1076559103021
 30
0.0
 11
145.358702602878
 21
345.6013183614132
 31
0.0
  0
LINE
  5
BEB
102
{ACAD_REACTORS
330
ECF
330
1032
102
}
330
1E
100
AcDbEntity
  8
STEMPEL
100
AcDbLine
 10
215.8348103529963
 20
417.54325654164
 30
0.0
 11
146.9587026028781
 21
344.9629830878554
 31
0.0
  0
LINE
  5
BEC
330
1E
100
AcDbEntity
  8
MITTEL
100
AcDbLine
 10
235.1719313858501
 20
375.5977984693881
 30
0.0
 11
189.8587026028776
 21
327.8476185655823
 31
0.0
  0
LINE
  5
BED
102
{ACAD_REACTORS
330
ECF
102
}
330
1E
100
AcDbEntity
  8
STEMPEL
100
AcDbLine
 10
255.2302504059442
 20
332.087941028475
 30
0.0
 11
234.358702602878
 21
310.0939187697519
 31
0.0
  0
LINE
  5
BEE
102
{ACAD_REACTORS
330
ECF
330
1032
102
}
330
1E
100
AcDbEntity
  8
STEMPEL
100
AcDbLine
 10
254.509052418705
 20
333.6523403971371
 30
0.0
 11
232.7587026028778
 21
310.73225404331
 31
0.0
  0
DIMENSION
  5
C64
330
1E
100
AcDbEntity
  8
BEM
100
AcDbDimension
  2
*D5
 10
128.2997046314165
 20
225.2230327767281
 30
0.0
 11
121.7997046314164
 21
240.2230327767282
 31
0.0
 70
    32
 71
     5
 42
30.00000000000011
  3
Standard
100
AcDbAlignedDimension
 13
145.3587026028781
 23
255.2230327767282
 33
0.0
 14
163.7904161641924
 24
225.2230327767281
 34
0.0
 50
90.0
100
AcDbRotatedDimension
1001
ACAD
1000
DSTYLE
1002
{
1070
   279
1070
     1
1070
    40
1040
2.0
1070
    41
1040
3.5
1070
    42
1040
1.0
1070
    43
1040
7.0
1070
    44
1040
1.0
1070
    73
1070
     0
1070
    74
1070
     0
1070
    77
1070
     1
1070
    78
1070
     8
1070
    79
1070
     2
1070
   140
1040
3.5
1070
   141
1040
1.5
1070
   146
1040
0.5142857142857144
1070
   147
1040
1.5
1070
   172
1070
     1
1070
   178
1070
     1
1070
   179
1070
     2
1070
   271
1070
     2
1070
   272
1070
     2
1070
   284
1070
     8
1070
   285
1070
     8
1070
   286
1070
     8
1002
}
  0
HATCH
  5
EC1
330
1E
100
AcDbEntity
  8
SCHRAFF
100
AcDbHatch
 10
0.0
 20
0.0
 30
0.0
210
0.0
220
0.0
230
1.0
  2
_USER
 70
     0
 71
     1
 91
        2
 92
        7
 72
     1
 73
     1
 93
       26
 10
216.3587026028778
 20
294.9334560227508
 42
-0.3989595459737213
 10
269.427889053273
 20
350.8567099690072
 42
0.0
 10
305.9608495974434
 20
352.7713213017621
 42
-0.1395991324168529
 10
310.2321387471533
 20
351.7935232655768
 42
0.139599132416867
 10
316.6390724717188
 20
350.3268262112984
 42
0.0
 10
324.71965620178
 20
350.7503116599017
 42
-0.0851285408962333
 10
328.0769934766008
 20
350.3540408339965
 42
0.0847252966069853
 10
336.4303649140058
 20
349.3612992053442
 42
0.0
 10
340.9197382998521
 20
349.5965772948688
 42
0.1115469390821216
 10
349.1916458970683
 20
351.9263351912125
 42
0.0
 10
349.1050625900809
 20
353.5784431067161
 42
0.0
 10
348.3496752832613
 20
353.1767965511226
 42
-0.1095178116832546
 10
340.8412343654874
 20
351.0945215970006
 42
0.0
 10
336.4306046722212
 20
350.8633702895366
 42
-0.0855444844067961
 10
328.502090133462
 20
351.7925445122419
 42
0.08512854089629
 10
324.6411522674157
 20
352.2482559620336
 42
0.0
 10
316.5605685373543
 20
351.8247705134303
 42
-0.1361061113099521
 10
311.0811496138644
 20
353.0396648548856
 42
0.0
 10
311.0773034354748
 20
353.0394632852175
 42
0.1433758286905704
 10
305.8823456630789
 20
354.2692656038941
 42
0.0
 10
269.3493851189086
 20
352.3546542711392
 42
0.3989595459737191
 10
214.8587026028779
 20
294.9334560227512
 42
0.0
 10
214.8587026028779
 20
230.2230327767219
 42
0.0
 10
214.4212592852488
 20
225.2230327767282
 42
0.0
 10
215.9269890415637
 20
225.2230327767282
 42
0.0
 10
216.3587026028777
 20
230.1575413623601
 42
0.0
 97
       26
330
819
330
A99
330
AC7
330
ACB
330
AC0
330
AC2
330
ABE
330
AC5
330
ABB
330
AEB
330
AB9
330
ABC
330
AC4
330
ABF
330
AC3
330
AC1
330
ACA
330
AC8
330
AC9
330
AD0
330
9C0
330
9C3
330
95B
330
95E
330
95A
330
9BF
 92
        7
 72
     1
 73
     1
 93
       26
 10
164.8587026028777
 20
294.9334560227508
 42
-0.3989595459737207
 10
266.7325873067614
 20
402.2861310088677
 42
0.0
 10
303.2655478509316
 20
404.2007423416227
 42
0.1433758286905705
 10
308.3034977545988
 20
405.9668286272098
 42
0.0
 10
308.3073439329881
 20
405.967030196878
 42
-0.1361061113099578
 10
313.6297549877495
 20
407.7480244596864
 42
0.0
 10
321.7103387178107
 20
408.1715099082897
 42
0.0851285408962573
 10
325.5024911447088
 20
409.0283028249865
 42
-0.0855444844068118
 10
333.2904472976445
 20
410.7811423748111
 42
0.0
 10
337.7010769909109
 20
411.012293682275
 42
-0.1095178116832502
 10
345.3860428847709
 20
409.7262714388945
 42
0.0
 10
346.1792755981194
 20
409.4057846195116
 42
0.0
 10
346.092692291132
 20
411.0578925350147
 42
0.1115469390821285
 10
337.6225730565462
 20
412.5102379844069
 42
0.0
 10
333.1331996707711
 20
412.274959894886
 42
0.0847252966076925
 10
324.9293586329226
 20
410.4144915292882
 42
-0.0851285408962507
 10
321.6318347834463
 20
409.6694542104216
 42
0.0
 10
313.5512510533851
 20
409.2459687618182
 42
0.1395991324168588
 10
307.3327267712944
 20
407.11759949098
 42
-0.1395991324168536
 10
303.1870439165675
 20
405.6986866437545
 42
0.0
 10
266.6540833723934
 20
403.784075310998
 42
0.3989595459737056
 10
163.3587026028836
 20
294.9334560227459
 42
0.0
 10
163.3587026028858
 20
230.1575413622724
 42
0.0
 10
163.7904161641924
 20
225.2230327767282
 42
0.0
 10
165.2961459205073
 20
225.2230327767282
 42
0.0
 10
164.8587026028777
 20
230.2230327767279
 42
0.0
 97
       26
330
9C1
330
AB1
330
ADF
330
AE0
330
AE3
330
AD7
330
AD8
330
AD4
330
ADA
330
AD3
330
AD1
330
AEB
330
ADD
330
ADC
330
ADE
330
AD9
330
AD6
330
AE2
330
AE1
330
AB0
330
81A
330
951
330
95D
330
95E
330
95C
330
952
 75
     0
 76
     0
 52
135.0
 41
2.0
 77
     0
 78
     1
 53
135.0
 43
20.12864484013517
 44
22.48082231323315
 45
-1.414213562373095
 46
-1.414213562373094
 79
     0
 47
0.4685662216025905
 98
        2
 10
215.8886168995118
 20
287.2375318636336
 10
164.3098764373094
 20
283.9575685438254
  0
LINE
  5
EC2
102
{ACAD_REACTORS
330
ECF
330
EE1
102
}
330
1E
100
AcDbEntity
  8
STEMPEL
100
AcDbLine
 10
215.1136123657571
 20
419.1076559103021
 30
0.0
 11
215.8348103529964
 21
417.5432565416401
 31
0.0
  0
LINE
  5
EC4
102
{ACAD_REACTORS
330
ECF
102
}
330
1E
100
AcDbEntity
  8
STEMPEL
100
AcDbLine
 10
145.358702602878
 20
345.6013183614132
 30
0.0
 11
146.9587026028779
 21
344.9629830878553
 31
0.0
  0
LINE
  5
EC5
102
{ACAD_REACTORS
330
ECF
330
EE1
102
}
330
1E
100
AcDbEntity
  8
STEMPEL
100
AcDbLine
 10
254.5090524187049
 20
333.652340397137
 30
0.0
 11
255.2302504059442
 21
332.087941028475
 31
0.0
  0
LINE
  5
EC6
102
{ACAD_REACTORS
330
ECF
102
}
330
1E
100
AcDbEntity
  8
STEMPEL
100
AcDbLine
 10
232.7587026028778
 20
310.7322540433099
 30
0.0
 11
234.358702602878
 21
310.0939187697519
 31
0.0
  0
HATCH
  5
ECF
330
1E
100
AcDbEntity
  8
SCHRAFF
100
AcDbHatch
 10
0.0
 20
0.0
 30
0.0
210
0.0
220
0.0
230
1.0
  2
_USER
 70
     0
 71
     1
 91
        2
 92
        7
 72
     0
 73
     1
 93
        4
 10
255.2302504059441
 20
332.087941028475
 10
254.5090524187049
 20
333.652340397137
 10
232.7587026028778
 20
310.73225404331
 10
234.3587026028781
 20
310.093918769752
 97
        4
330
EC5
330
BEE
330
EC6
330
BED
 92
        7
 72
     0
 73
     1
 93
        4
 10
145.358702602878
 20
345.6013183614132
 10
146.9587026028779
 20
344.9629830878553
 10
215.8348103529964
 20
417.5432565416401
 10
215.1136123657571
 20
419.1076559103021
 97
        4
330
EC2
330
BEA
330
EC4
330
BEB
 75
     0
 76
     0
 52
135.0
 41
2.0
 77
     0
 78
     1
 53
135.0
 43
20.12864484013517
 44
22.48082231323315
 45
-1.414213562373095
 46
-1.414213562373094
 79
     0
 47
0.4685662216025905
 98
        2
 10
247.7736556742366
 20
326.1285283117461
 10
182.5968861092756
 20
383.7621737010989
  0
HATCH
  5
ED8
330
1E
100
AcDbEntity
  8
SCHRAFF
100
AcDbHatch
 10
0.0
 20
0.0
 30
0.0
210
0.0
220
0.0
230
1.0
  2
_USER
 70
     0
 71
     0
 91
        2
 92
        7
 72
     0
 73
     1
 93
        4
 10
234.358702602878
 20
310.0939187697519
 10
232.7587026028778
 20
310.7322540433098
 10
232.758702602878
 20
255.223032776728
 10
234.358702602878
 20
255.223032776728
 97
        0
 92
        7
 72
     0
 73
     1
 93
        4
 10
146.9587026028779
 20
344.9629830878553
 10
145.358702602878
 20
345.6013183614132
 10
145.3587026028781
 20
255.2230327767283
 10
146.9587026028781
 20
255.2230327767283
 97
        0
 75
     0
 76
     0
 52
45.0
 41
2.0
 77
     0
 78
     1
 53
45.0
 43
20.12864484013517
 44
22.48082231323315
 45
-1.414213562373094
 46
1.414213562373095
 79
     0
 47
0.4685662216025905
 98
        2
 10
233.7067274369319
 20
286.7689656750897
 10
146.4917685939531
 20
300.3573865423452
  0
HATCH
  5
EE1
330
1E
100
AcDbEntity
  8
SCHRAFF
100
AcDbHatch
 10
0.0
 20
0.0
 30
0.0
210
0.0
220
0.0
230
1.0
  2
_USER
 70
     0
 71
     1
 91
        2
 92
        7
 72
     0
 73
     1
 93
        4
 10
215.1136123657571
 20
419.1076559103022
 10
215.8348103529963
 20
417.54325654164
 10
345.396956571278
 20
424.3333209040851
 10
345.3132190412893
 20
425.9311281596923
 97
        4
330
AEB
330
AAE
330
EC2
330
AAF
 92
        7
 72
     0
 73
     1
 93
        4
 10
349.9711191469111
 20
337.0530995665354
 10
349.8873816169225
 20
338.6509068221427
 10
254.5090524187048
 20
333.652340397137
 10
255.2302504059442
 20
332.087941028475
 97
        4
330
AEB
330
A97
330
EC5
330
ACC
 75
     0
 76
     0
 52
45.0
 41
2.0
 77
     0
 78
     1
 53
45.0
 43
20.12864484013517
 44
22.48082231323315
 45
-1.414213562373094
 46
1.414213562373095
 79
     0
 47
0.4685662216025905
 98
        2
 10
269.3429458177084
 20
421.2474729830571
 10
283.409874055013
 20
334.0941549164731
  0
HATCH
  5
FDB
330
1E
100
AcDbEntity
  8
SCHRAFF
100
AcDbHatch
 10
0.0
 20
0.0
 30
0.0
210
0.0
220
0.0
230
1.0
  2
NET
 70
     0
 71
     1
 91
        2
 92
        7
 72
     1
 73
     1
 93
        7
 10
345.396956571278
 20
424.3333209040851
 42
0.0
 10
331.4161430847138
 20
423.6006175166838
 42
0.0
 10
332.0141853967056
 20
412.1892904165257
 42
-0.0120251093634685
 10
333.2131613397383
 20
412.2791505083843
 42
0.0
 10
337.6225730565466
 20
412.5102379844069
 42
-0.1095178116831919
 10
345.9479527748907
 20
411.1170472207463
 42
0.0
 10
346.0926560903901
 20
411.0585832863194
 42
0.0
 97
        7
330
AAF
330
ADB
330
ADE
330
ADC
330
ADD
330
AD2
330
AEB
 92
        7
 72
     1
 73
     1
 93
        7
 10
349.1916820978102
 20
351.9256444399081
 42
0.0
 10
349.0538826274634
 20
351.8523751618465
 42
-0.1095178116835908
 10
340.9197382998522
 20
349.5965772948688
 42
0.0
 10
336.5103265830439
 20
349.3654898188462
 42
-0.0120251093634711
 10
335.3085258183666
 20
349.3295305348992
 42
0.0
 10
335.9065681303582
 20
337.9182034347414
 42
0.0
 10
349.8873816169224
 20
338.6509068221426
 42
0.0
 97
        7
330
ABA
330
ABB
330
AC5
330
ABE
330
AC6
330
A97
330
AEB
 75
     0
 76
     1
 52
45.0
 41
15.0
 77
     0
 78
     2
 53
45.0
 43
0.0
 44
0.0
 45
-1.325825214724776
 46
1.325825214724776
 79
     0
 53
135.0
 43
0.0
 44
0.0
 45
-1.325825214724776
 46
-1.325825214724776
 79
     0
 47
0.524709698574749
 98
        2
 10
341.6128274239663
 20
420.373318510336
 10
344.7633115935041
 20
344.8151211662455
  0
HATCH
  5
1032
330
1E
100
AcDbEntity
  8
SCHRAFF
100
AcDbHatch
 10
0.0
 20
0.0
 30
0.0
210
0.0
220
0.0
230
1.0
  2
HONEY
 70
     0
 71
     1
 91
        2
 92
        7
 72
     1
 73
     1
 93
       17
 10
324.9293586329166
 20
410.4144915292857
 42
-0.0734311771839198
 10
332.0141853967056
 20
412.1892904165257
 42
0.0
 10
331.4161430847139
 20
423.6006175166839
 42
0.0
 10
215.8348103529963
 20
417.5432565416399
 42
0.0
 10
146.9587026028779
 20
344.9629830878552
 42
0.0
 10
146.9587026028781
 20
255.2230327767284
 42
0.0
 10
147.5174349147461
 20
271.2230327767282
 42
0.0
 10
163.3587026028844
 20
271.2230327767282
 42
0.0
 10
163.3587026028836
 20
294.933456022747
 42
-0.1799735508071524
 10
189.8587026028774
 20
366.1707355889935
 42
0.0
 10
189.8587026028774
 20
373.223032776728
 42
0.0
 10
196.9013348624094
 20
373.5921214937572
 42
-0.1799735508071568
 10
266.6540833723934
 20
403.784075310998
 42
0.0
 10
303.1870439165673
 20
405.6986866437545
 42
0.1395991324168626
 10
307.3327267712945
 20
407.11759949098
 42
-0.1395991324168576
 10
313.5512510533851
 20
409.2459687618182
 42
0.0
 10
321.6318347834464
 20
409.6694542104216
 42
0.0851285408960836
 97
       16
330
ADE
330
ADB
330
AAF
330
BEB
330
947
330
93E
330
941
330
951
330
81A
330
81D
330
828
330
AB0
330
AE1
330
AE2
330
AD6
330
AD9
 92
        7
 72
     1
 73
     1
 93
       14
 10
335.3085258183666
 20
349.3295305348991
 42
-0.0734311771838329
 10
328.0769934766033
 20
350.3540408339957
 42
0.0851285408963047
 10
324.7196562017798
 20
350.7503116599017
 42
0.0
 10
316.6390724717188
 20
350.3268262112984
 42
-0.1395991324168498
 10
310.232138747154
 20
351.7935232655763
 42
0.1395991324168788
 10
305.9608495974434
 20
352.7713213017621
 42
0.0
 10
269.427889053273
 20
350.8567099690072
 42
0.3989595459737198
 10
216.3587026028778
 20
294.933456022751
 42
0.0
 10
216.3587026028777
 20
271.2230327767282
 42
0.0
 10
232.1999702910101
 20
271.2230327767282
 42
0.0
 10
232.758702602878
 20
255.2230327767314
 42
0.0
 10
232.7587026028779
 20
310.7322540433101
 42
0.0
 10
254.5090524187051
 20
333.6523403971372
 42
0.0
 10
335.9065681303582
 20
337.9182034347413
 42
0.0
 97
       14
330
ABE
330
AC2
330
AC0
330
ACB
330
AC7
330
A99
330
819
330
9BF
330
93C
330
938
330
943
330
BEE
330
A97
330
AC6
 75
     0
 76
     1
 52
0.0
 41
30.0
 77
     0
 78
     3
 53
0.0
 43
0.0
 44
0.0
 45
5.625
 46
3.247595249999999
 79
     2
 49
3.75
 49
-7.5
 53
120.0
 43
0.0
 44
0.0
 45
-5.624999987709673
 46
3.247595271287468
 79
     2
 49
3.75
 49
-7.5
 53
60.0
 43
0.0
 44
0.0
 45
0.0000000122903263
 46
6.495190521287468
 79
     2
 49
-7.5
 49
3.75
 47
0.524709698574749
 98
        2
 10
262.3256231831474
 20
410.4038340996719
 10
254.4494114122713
 20
338.5186042544119
  0
ARC
  5
10C2
330
1E
100
AcDbEntity
  8
SCHRAFF
100
AcDbCircle
 10
231.9038780451392
 20
311.1586572334403
 30
0.0
 40
4.748501067438276
100
AcDbArc
 50
301.1291103488038
 51
14.53894500849595
  0
HATCH
  5
10C3
330
1E
100
AcDbEntity
  8
SCHRAFF
100
AcDbHatch
 10
0.0
 20
0.0
 30
0.0
210
0.0
220
0.0
230
1.0
  2
_USER
 70
     0
 71
     0
 91
        1
 92
        7
 72
     1
 73
     1
 93
        3
 10
234.3587026028773
 20
310.0939187697518
 42
0.0
 10
236.5003189492972
 20
312.3507115115858
 42
-0.3317344052812067
 10
234.3587026028771
 20
307.0939187697518
 42
0.0
 97
        0
 75
     0
 76
     0
 52
0.0
 41
0.1
 77
     0
 78
     1
 53
272.9999999999976
 43
532.5199237695955
 44
568.1259573696081
 45
-0.0998629534754576
 46
-0.0052335956242903
 79
     0
 47
0.0308629359229661
 98
        1
 10
234.9866397614862
 20
309.3768682785273
  0
ARC
  5
10C4
330
1E
100
AcDbEntity
  8
SCHRAFF
100
AcDbCircle
 10
146.8759063898329
 20
344.9960154274209
 30
0.0
 40
2.834868845131255
100
AcDbArc
 50
78.85704481156671
 51
237.642955188425
  0
HATCH
  5
10C5
330
1E
100
AcDbEntity
  8
SCHRAFF
100
AcDbHatch
 10
0.0
 20
0.0
 30
0.0
210
0.0
220
0.0
230
1.0
  2
_USER
 70
     0
 71
     0
 91
        1
 92
        7
 72
     1
 73
     1
 93
        3
 10
145.3587026028746
 20
342.6013183614155
 42
-0.8301121492525648
 10
147.4237663299563
 20
347.7774414744522
 42
0.0
 10
145.3587026028748
 20
345.6013183614155
 42
0.0
 97
        0
 75
     0
 76
     0
 52
0.0
 41
0.1
 77
     0
 78
     1
 53
272.999999999995
 43
532.5199237696019
 44
568.1259573695893
 45
-0.0998629534754579
 46
-0.0052335956242856
 79
     0
 47
0.0562388689730556
 98
        1
 10
144.7654324967785
 20
344.7619733574376
  0
HATCH
  5
10CF
330
1E
100
AcDbEntity
  8
SCHRAFF
100
AcDbHatch
 10
0.0
 20
0.0
 30
0.0
210
0.0
220
0.0
230
1.0
  2
_USER
 70
     0
 71
     0
 91
        1
 92
        7
 72
     1
 73
     1
 93
        3
 10
255.230250405944
 20
332.0879410284747
 42
0.0
 10
253.0886340595241
 20
329.8311482866406
 42
0.3317344052812067
 10
258.2261390102078
 20
332.2449488972036
 42
0.0
 97
        0
 75
     0
 76
     0
 52
0.0
 41
0.1
 77
     0
 78
     1
 53
0.0
 43
13.15638837150646
 44
20.83098597146949
 45
0.0
 46
0.1
 79
     0
 47
0.0308629359229661
 98
        1
 10
255.9791818960473
 20
331.4983919590506
  0
ARC
  5
10D0
330
1E
100
AcDbEntity
  8
SCHRAFF
100
AcDbCircle
 10
254.0384955386777
 20
334.4836772288271
 30
0.0
 40
4.748501067438276
100
AcDbArc
 50
258.4610549915027
 51
331.8708896511935
  0
HATCH
  5
10D1
330
1E
100
AcDbEntity
  8
SCHRAFF
100
AcDbHatch
 10
0.0
 20
0.0
 30
0.0
210
0.0
220
0.0
230
1.0
  2
_USER
 70
     0
 71
     0
 91
        1
 92
        7
 72
     1
 73
     1
 93
        3
 10
218.1095009700206
 20
419.2646637790306
 42
0.8301121492525648
 10
213.0485486386755
 20
416.931532797265
 42
0.0
 10
215.1136123657568
 20
419.1076559103018
 42
0.0
 97
        0
 75
     0
 76
     0
 52
0.0
 41
0.1
 77
     0
 78
     1
 53
0.0
 43
13.15638837150646
 44
20.83098597146949
 45
0.0
 46
0.1
 79
     0
 47
0.0562388689730556
 98
        1
 10
215.9207577182649
 20
419.7440408837375
  0
ARC
  5
10D2
330
1E
100
AcDbEntity
  8
SCHRAFF
100
AcDbCircle
 10
215.7974900641232
 20
417.6242105062713
 30
0.0
 40
2.834868845131255
100
AcDbArc
 50
35.35704481157034
 51
194.1429551884282
  0
TEXT
  5
1106
330
1E
100
AcDbEntity
  8
TEXT
100
AcDbText
 10
170.398997108236
 20
63.10765040825732
 30
0.0
 40
4.0
  1
27.09.
 41
0.8
  7
GREEKS
 72
     1
 11
177.4085209177598
 21
63.10765040825732
 31
0.0
100
AcDbText
  0
TEXT
  5
1107
330
1E
100
AcDbEntity
  8
TEXT
100
AcDbText
 10
148.622109822104
 20
73.14025471151666
 30
0.0
 40
4.0
  1
2007
 41
0.8
  7
GREEKS
100
AcDbText
  0
HATCH
  5
111B
330
1E
100
AcDbEntity
  8
SCHRAFF
100
AcDbHatch
 10
0.0
 20
0.0
 30
0.0
210
0.0
220
0.0
230
1.0
  2
NET
 70
     0
 71
     0
 91
        2
 92
        7
 72
     0
 73
     1
 93
       10
 10
232.1999702910101
 20
271.2230327767281
 10
216.3587026028778
 20
271.2230327767282
 10
216.3587026028778
 20
261.2230327767282
 10
220.3587026028781
 20
261.2230327767282
 10
223.822804218016
 20
255.223032776728
 10
228.3587026028771
 20
255.223032776728
 10
228.3587026028771
 20
253.2230327767278
 10
234.3587026028779
 20
253.2230327767278
 10
234.3587026028779
 20
255.223032776728
 10
232.7587026028782
 20
255.223032776728
 97
        0
 92
        7
 72
     0
 73
     1
 93
       10
 10
163.3587026028834
 20
271.2230327767283
 10
147.5174349147461
 20
271.2230327767283
 10
146.9587026028781
 20
255.2230327767283
 10
145.3587026028781
 20
255.2230327767284
 10
145.3587026028781
 20
253.2230327767283
 10
151.3587026028771
 20
253.2230327767282
 10
151.3587026028771
 20
255.2230327767283
 10
155.8946009877403
 20
255.2230327767282
 10
159.3587026028781
 20
261.2230327767282
 10
163.358702602884
 20
261.2230327767282
 97
        0
 75
     0
 76
     1
 52
45.0
 41
20.0
 77
     0
 78
     2
 53
45.0
 43
-35.14129739712217
 44
-66.65196128245765
 45
-1.767766952966368
 46
1.767766952966368
 79
     0
 53
135.0
 43
-35.14129739712217
 44
-66.65196128245765
 45
-1.767766952966368
 46
-1.767766952966368
 79
     0
 47
0.1255994509103582
 98
        2
 10
223.9370832075271
 20
266.5063587978714
 10
158.0832652840588
 20
267.5111547101038
  0
LINE
  5
111C
330
1E
100
AcDbEntity
  8
STEMPEL
100
AcDbLine
 10
228.3587026028771
 20
255.223032776728
 30
0.0
 11
216.3587026028778
 21
255.223032776728
 31
0.0
  0
POINT
  5
111D
330
1E
100
AcDbEntity
  8
STEMPEL
100
AcDbPoint
 10
228.3587026028771
 20
253.2230327767281
 30
0.0
  0
LINE
  5
111E
330
1E
100
AcDbEntity
  8
STEMPEL
100
AcDbLine
 10
228.3587026028771
 20
255.2230327767281
 30
0.0
 11
228.3587026028771
 21
253.2230327767281
 31
0.0
  0
LINE
  5
111F
330
1E
100
AcDbEntity
  8
STEMPEL
100
AcDbLine
 10
234.3587026028779
 20
253.2230327767278
 30
0.0
 11
216.3587026028777
 21
253.2230327767279
 31
0.0
  0
LINE
  5
1120
330
1E
100
AcDbEntity
  8
STEMPEL
100
AcDbLine
 10
220.3587026028781
 20
261.2230327767282
 30
0.0
 11
223.8228042180159
 21
255.2230327767282
 31
0.0
  0
LINE
  5
1121
330
1E
100
AcDbEntity
  8
STEMPEL
100
AcDbLine
 10
220.3587026028781
 20
261.2230327767282
 30
0.0
 11
223.8228042180159
 21
255.2230327767282
 31
0.0
  0
LINE
  5
1122
330
1E
100
AcDbEntity
  8
STEMPEL
100
AcDbLine
 10
163.3587026028845
 20
253.2230327767282
 30
0.0
 11
145.3587026028781
 21
253.2230327767283
 31
0.0
  0
POINT
  5
1123
330
1E
100
AcDbEntity
  8
STEMPEL
100
AcDbPoint
 10
151.3587026028771
 20
253.2230327767281
 30
0.0
  0
LINE
  5
1124
330
1E
100
AcDbEntity
  8
STEMPEL
100
AcDbLine
 10
151.3587026028771
 20
255.2230327767281
 30
0.0
 11
151.3587026028771
 21
253.2230327767281
 31
0.0
  0
LINE
  5
1125
330
1E
100
AcDbEntity
  8
STEMPEL
100
AcDbLine
 10
163.3587026028843
 20
255.2230327767282
 30
0.0
 11
151.3587026028771
 21
255.2230327767283
 31
0.0
  0
LINE
  5
1126
330
1E
100
AcDbEntity
  8
STEMPEL
100
AcDbLine
 10
159.3587026028781
 20
261.2230327767282
 30
0.0
 11
155.8946009877403
 21
255.2230327767282
 31
0.0
  0
LINE
  5
1127
330
1E
100
AcDbEntity
  8
STEMPEL
100
AcDbLine
 10
163.3587026028843
 20
255.2230327767282
 30
0.0
 11
151.3587026028771
 21
255.2230327767283
 31
0.0
  0
LINE
  5
1128
330
1E
100
AcDbEntity
  8
STEMPEL
100
AcDbLine
 10
159.3587026028781
 20
261.2230327767282
 30
0.0
 11
155.8946009877403
 21
255.2230327767282
 31
0.0
  0
DIMENSION
  5
1145
330
1E
100
AcDbEntity
  8
BEM
100
AcDbDimension
  2
*D6
 10
189.8587026028781
 20
220.2230327767281
 30
0.0
 11
249.3248298286947
 21
435.8872557747237
 31
0.0
 70
    34
 71
     5
 42
1.518436449235066
  3
Standard
100
AcDb2LineAngularDimension
 13
352.6353167678731
 23
381.7537936443284
 33
0.0
 14
189.8587026028774
 24
373.2230327767279
 34
0.0
 15
189.8587026028774
 25
373.2230327767279
 35
0.0
 16
257.6082491422666
 26
415.5576480149472
 36
0.0
1001
ACAD
1000
DSTYLE
1002
{
1070
    40
1040
2.0
1070
    41
1040
3.5
1070
    42
1040
1.0
1070
    43
1040
7.0
1070
    44
1040
1.0
1070
    73
1070
     0
1070
    74
1070
     0
1070
    77
1070
     1
1070
    78
1070
     8
1070
    79
1070
     2
1070
   140
1040
3.5
1070
   141
1040
1.5
1070
   146
1040
0.5142857142857144
1070
   147
1040
1.5
1070
   172
1070
     1
1070
   178
1070
     1
1070
   179
1070
     2
1070
   271
1070
     2
1070
   272
1070
     2
1070
   284
1070
     8
1070
   285
1070
     8
1070
   286
1070
     8
1002
}
  0
DIMENSION
  5
1153
330
1E
100
AcDbEntity
  8
BEM
100
AcDbDimension
  2
*D7
 10
342.5946087045412
 20
477.8053035958479
 30
0.0
 11
263.3626917433505
 21
480.1618550285597
 31
0.0
 70
    32
 71
     5
 42
158.0000000000004
 51
356.9999999999998
  3
Standard
100
AcDbAlignedDimension
 13
189.8587026028774
 23
373.2230327767279
 33
0.0
 14
345.3132190412893
 24
425.9311281596925
 34
0.0
 50
3.000000000000215
100
AcDbRotatedDimension
1001
ACAD
1000
DSTYLE
1002
{
1070
    40
1040
2.0
1070
    41
1040
3.5
1070
    42
1040
1.0
1070
    43
1040
7.0
1070
    44
1040
1.0
1070
    73
1070
     0
1070
    74
1070
     0
1070
    77
1070
     1
1070
    78
1070
     8
1070
    79
1070
     2
1070
   140
1040
3.5
1070
   141
1040
1.5
1070
   146
1040
0.5142857142857144
1070
   147
1040
1.5
1070
   172
1070
     1
1070
   178
1070
     1
1070
   179
1070
     2
1070
   271
1070
     2
1070
   272
1070
     2
1070
   284
1070
     8
1070
   285
1070
     8
1070
   286
1070
     8
1002
}
  0
DIMENSION
  5
1169
330
1E
100
AcDbEntity
  8
BEM
100
AcDbDimension
  2
*D8
 10
113.0707654051966
 20
373.223032776728
 30
0.0
 11
106.5707654051966
 21
299.2230327767281
 31
0.0
 70
    32
 71
     5
 42
147.9999999999998
  3
Standard
100
AcDbAlignedDimension
 13
163.7904161641924
 23
225.2230327767281
 33
0.0
 14
189.8587026028774
 24
373.2230327767279
 34
0.0
 50
90.0
100
AcDbRotatedDimension
1001
ACAD
1000
DSTYLE
1002
{
1070
    40
1040
2.0
1070
    41
1040
3.5
1070
    42
1040
1.0
1070
    43
1040
7.0
1070
    44
1040
1.0
1070
    73
1070
     0
1070
    74
1070
     0
1070
    77
1070
     1
1070
    78
1070
     8
1070
    79
1070
     2
1070
   140
1040
3.5
1070
   141
1040
1.5
1070
   146
1040
0.5142857142857144
1070
   147
1040
1.5
1070
   172
1070
     1
1070
   178
1070
     1
1070
   179
1070
     2
1070
   271
1070
     2
1070
   272
1070
     2
1070
   284
1070
     8
1070
   285
1070
     8
1070
   286
1070
     8
1002
}
  0
ENDSEC
  0
SECTION
  2
OBJECTS
  0
DICTIONARY
  5
C
330
0
100
AcDbDictionary
281
     1
  3
ACAD_COLOR
350
DF
  3
ACAD_GROUP
350
D
  3
ACAD_LAYOUT
350
19
  3
ACAD_MATERIAL
350
DE
  3
ACAD_MLINESTYLE
350
16
  3
ACAD_PLOTSETTINGS
350
18
  3
ACAD_PLOTSTYLENAME
350
E
  3
AcDbVariableDictionary
350
25E
  0
DICTIONARY
  5
A0
330
1E
100
AcDbDictionary
280
     1
281
     1
  3
ACAD_LAYOUTSELFREF
360
D4
  0
DICTIONARY
  5
A2
330
1A
100
AcDbDictionary
280
     1
281
     1
  3
ACAD_LAYOUTSELFREF
360
D3
  0
DICTIONARY
  5
DF
102
{ACAD_REACTORS
330
C
102
}
330
C
100
AcDbDictionary
281
     1
  0
DICTIONARY
  5
D
102
{ACAD_REACTORS
330
C
102
}
330
C
100
AcDbDictionary
281
     1
  0
DICTIONARY
  5
19
102
{ACAD_REACTORS
330
C
102
}
330
C
100
AcDbDictionary
281
     1
  3
Layout1
350
1D
  3
Model
350
21
  0
DICTIONARY
  5
DE
102
{ACAD_REACTORS
330
C
102
}
330
C
100
AcDbDictionary
281
     1
  0
DICTIONARY
  5
16
102
{ACAD_REACTORS
330
C
102
}
330
C
100
AcDbDictionary
281
     1
  3
Standard
350
17
  0
DICTIONARY
  5
18
102
{ACAD_REACTORS
330
C
102
}
330
C
100
AcDbDictionary
281
     1
  0
ACDBDICTIONARYWDFLT
  5
E
102
{ACAD_REACTORS
330
C
102
}
330
C
100
AcDbDictionary
281
     1
  3
Normal
350
F
100
AcDbDictionaryWithDefault
340
F
  0
DICTIONARY
  5
25E
102
{ACAD_REACTORS
330
C
102
}
330
C
100
AcDbDictionary
281
     1
  3
DIMASSOC
350
25F
  3
PROJECTNAME
350
260
  0
XRECORD
  5
D4
102
{ACAD_REACTORS
330
A0
102
}
330
A0
100
AcDbXrecord
280
     1
340
1E
  0
XRECORD
  5
D3
102
{ACAD_REACTORS
330
A2
102
}
330
A2
100
AcDbXrecord
280
     1
340
1A
  0
LAYOUT
  5
1D
102
{ACAD_REACTORS
330
19
102
}
330
19
100
AcDbPlotSettings
  1

  2
\\NT_WORK01\HP LaserJet 5000 PCL 6
  4

  6

 40
0.0
 41
0.0
 42
0.0
 43
0.0
 44
0.0
 45
0.0
 46
0.0
 47
0.0
 48
0.0
 49
0.0
140
0.0
141
0.0
142
1.0
143
1.0
 70
   688
 72
     0
 73
     0
 74
     5
  7

 75
    16
147
1.0
 76
     0
 77
     2
 78
   300
148
0.0
149
0.0
100
AcDbLayout
  1
Layout1
 70
     0
 71
     1
 10
0.0
 20
0.0
 11
12.0
 21
9.0
 12
0.0
 22
0.0
 32
0.0
 14
1.000000000000000E+20
 24
1.000000000000000E+20
 34
1.000000000000000E+20
 15
-1.000000000000000E+20
 25
-1.000000000000000E+20
 35
-1.000000000000000E+20
146
0.0
 13
0.0
 23
0.0
 33
0.0
 16
1.0
 26
0.0
 36
0.0
 17
0.0
 27
1.0
 37
0.0
 76
     0
330
1A
  0
LAYOUT
  5
21
102
{ACAD_REACTORS
330
19
102
}
330
19
100
AcDbPlotSettings
  1

  2
RICOH Aficio 2027 PCL 6
  4
A4
  6

 40
5.027083
 41
5.027084999999999
 42
5.027084
 43
5.027069
 44
209.973328
 45
296.925995
 46
0.0
 47
2.06
 48
0.0
 49
0.0
140
0.0
141
0.0
142
1.0
143
2.100849152723284
 70
 11956
 72
     1
 73
     0
 74
     2
  7
monochrome1.ctb
 75
     0
147
0.4759980023809526
 76
     1
 77
     2
 78
   300
148
0.0
149
0.0
100
AcDbLayout
  1
Model
 70
     1
 71
     0
 10
0.0
 20
0.0
 11
12.0
 21
9.0
 12
0.0
 22
0.0
 32
0.0
 14
0.0
 24
0.0
 34
0.0
 15
0.0
 25
0.0
 35
0.0
146
0.0
 13
0.0
 23
0.0
 33
0.0
 16
1.0
 26
0.0
 36
0.0
 17
0.0
 27
1.0
 37
0.0
 76
     0
330
1E
  0
MLINESTYLE
  5
17
102
{ACAD_REACTORS
330
16
102
}
330
16
100
AcDbMlineStyle
  2
STANDARD
 70
     0
  3

 62
   256
 51
90.0
 52
90.0
 71
     2
 49
0.5
 62
   256
  6
BYLAYER
 49
-0.5
 62
   256
  6
BYLAYER
  0
ACDBPLACEHOLDER
  5
F
102
{ACAD_REACTORS
330
E
102
}
330
E
  0
DICTIONARYVAR
  5
25F
102
{ACAD_REACTORS
330
25E
102
}
330
25E
100
DictionaryVariables
280
     0
  1
1
  0
DICTIONARYVAR
  5
260
102
{ACAD_REACTORS
330
25E
102
}
330
25E
100
DictionaryVariables
280
     0
  1

  0
ENDSEC
  0
EOF
