  0
SECTION
  2
HEADER
  9
$ACADVER
  1
AC1018
  9
$ACADMAINTVER
 70
     2
  9
$DWGCODEPAGE
  3
ANSI_1252
  9
$INSBASE
 10
0.0
 20
0.0
 30
0.0
  9
$EXTMIN
 10
-0.0320267333095217
 20
-0.0452949513949079
 30
-0.0000000000000129
  9
$EXTMAX
 10
420.0288470811428
 20
594.0407980147604
 30
0.0000000000000023
  9
$LIMMIN
 10
0.0
 20
0.0
  9
$LIMMAX
 10
419.9999999999999
 20
594.0000000000002
  9
$ORTHOMODE
 70
     0
  9
$REGENMODE
 70
     1
  9
$FILLMODE
 70
     1
  9
$QTEXTMODE
 70
     0
  9
$MIRRTEXT
 70
     1
  9
$LTSCALE
 40
20.0
  9
$ATTMODE
 70
     1
  9
$TEXTSIZE
 40
3.5
  9
$TRACEWID
 40
0.5
  9
$TEXTSTYLE
  7
STANDARD
  9
$CLAYER
  8
BEM
  9
$CELTYPE
  6
ByLayer
  9
$CECOLOR
 62
   256
  9
$CELTSCALE
 40
1.0
  9
$DISPSILH
 70
     0
  9
$DIMSCALE
 40
2.0
  9
$DIMASZ
 40
3.5
  9
$DIMEXO
 40
1.0
  9
$DIMDLI
 40
7.0
  9
$DIMRND
 40
0.0
  9
$DIMDLE
 40
0.0
  9
$DIMEXE
 40
1.0
  9
$DIMTP
 40
0.0
  9
$DIMTM
 40
0.0
  9
$DIMTXT
 40
3.5
  9
$DIMCEN
 40
1.5
  9
$DIMTSZ
 40
0.0
  9
$DIMTOL
 70
     0
  9
$DIMLIM
 70
     0
  9
$DIMTIH
 70
     0
  9
$DIMTOH
 70
     0
  9
$DIMSE1
 70
     0
  9
$DIMSE2
 70
     0
  9
$DIMTAD
 70
     1
  9
$DIMZIN
 70
     8
  9
$DIMBLK
  1

  9
$DIMASO
 70
     1
  9
$DIMSHO
 70
     0
  9
$DIMPOST
  1

  9
$DIMAPOST
  1

  9
$DIMALT
 70
     0
  9
$DIMALTD
 70
     2
  9
$DIMALTF
 40
25.4
  9
$DIMLFAC
 40
1.0
  9
$DIMTOFL
 70
     1
  9
$DIMTVP
 40
0.0
  9
$DIMTIX
 70
     0
  9
$DIMSOXD
 70
     0
  9
$DIMSAH
 70
     0
  9
$DIMBLK1
  1

  9
$DIMBLK2
  1

  9
$DIMSTYLE
  2
Standard
  9
$DIMCLRD
 70
     0
  9
$DIMCLRE
 70
     0
  9
$DIMCLRT
 70
     1
  9
$DIMTFAC
 40
0.5142857142857144
  9
$DIMGAP
 40
1.5
  9
$DIMJUST
 70
     0
  9
$DIMSD1
 70
     0
  9
$DIMSD2
 70
     0
  9
$DIMTOLJ
 70
     1
  9
$DIMTZIN
 70
     8
  9
$DIMALTZ
 70
     8
  9
$DIMALTTZ
 70
     8
  9
$DIMUPT
 70
     0
  9
$DIMDEC
 70
     2
  9
$DIMTDEC
 70
     2
  9
$DIMALTU
 70
     2
  9
$DIMALTTD
 70
     2
  9
$DIMTXSTY
  7
STANDARD
  9
$DIMAUNIT
 70
     0
  9
$DIMADEC
 70
     2
  9
$DIMALTRND
 40
0.0
  9
$DIMAZIN
 70
     2
  9
$DIMDSEP
 70
    46
  9
$DIMATFIT
 70
     3
  9
$DIMFRAC
 70
     0
  9
$DIMLDRBLK
  1

  9
$DIMLUNIT
 70
     2
  9
$DIMLWD
 70
    -2
  9
$DIMLWE
 70
    -2
  9
$DIMTMOVE
 70
     0
  9
$LUNITS
 70
     2
  9
$LUPREC
 70
     2
  9
$SKETCHINC
 40
1.0
  9
$FILLETRAD
 40
67.5
  9
$AUNITS
 70
     0
  9
$AUPREC
 70
     0
  9
$MENU
  1
ACAD
  9
$ELEVATION
 40
0.0
  9
$PELEVATION
 40
0.0
  9
$THICKNESS
 40
0.0
  9
$LIMCHECK
 70
     0
  9
$CHAMFERA
 40
0.0
  9
$CHAMFERB
 40
0.0
  9
$CHAMFERC
 40
0.0
  9
$CHAMFERD
 40
0.0
  9
$SKPOLY
 70
     0
  9
$TDCREATE
 40
2455397.823042361
  9
$TDUCREATE
 40
2455397.781375695
  9
$TDUPDATE
 40
2455532.528513426
  9
$TDUUPDATE
 40
2455532.486846760
  9
$TDINDWG
 40
0.1790278009
  9
$TDUSRTIMER
 40
0.1790278009
  9
$USRTIMER
 70
     1
  9
$ANGBASE
 50
0.0
  9
$ANGDIR
 70
     0
  9
$PDMODE
 70
     0
  9
$PDSIZE
 40
0.0
  9
$PLINEWID
 40
0.0
  9
$SPLFRAME
 70
     0
  9
$SPLINETYPE
 70
     6
  9
$SPLINESEGS
 70
     8
  9
$HANDSEED
  5
8A6
  9
$SURFTAB1
 70
     6
  9
$SURFTAB2
 70
     6
  9
$SURFTYPE
 70
     6
  9
$SURFU
 70
     6
  9
$SURFV
 70
     6
  9
$UCSBASE
  2

  9
$UCSNAME
  2

  9
$UCSORG
 10
0.0
 20
0.0
 30
0.0
  9
$UCSXDIR
 10
1.0
 20
0.0
 30
0.0
  9
$UCSYDIR
 10
0.0
 20
1.0
 30
0.0
  9
$UCSORTHOREF
  2

  9
$UCSORTHOVIEW
 70
     0
  9
$UCSORGTOP
 10
0.0
 20
0.0
 30
0.0
  9
$UCSORGBOTTOM
 10
0.0
 20
0.0
 30
0.0
  9
$UCSORGLEFT
 10
0.0
 20
0.0
 30
0.0
  9
$UCSORGRIGHT
 10
0.0
 20
0.0
 30
0.0
  9
$UCSORGFRONT
 10
0.0
 20
0.0
 30
0.0
  9
$UCSORGBACK
 10
0.0
 20
0.0
 30
0.0
  9
$PUCSBASE
  2

  9
$PUCSNAME
  2

  9
$PUCSORG
 10
0.0
 20
0.0
 30
0.0
  9
$PUCSXDIR
 10
1.0
 20
0.0
 30
0.0
  9
$PUCSYDIR
 10
0.0
 20
1.0
 30
0.0
  9
$PUCSORTHOREF
  2

  9
$PUCSORTHOVIEW
 70
     0
  9
$PUCSORGTOP
 10
0.0
 20
0.0
 30
0.0
  9
$PUCSORGBOTTOM
 10
0.0
 20
0.0
 30
0.0
  9
$PUCSORGLEFT
 10
0.0
 20
0.0
 30
0.0
  9
$PUCSORGRIGHT
 10
0.0
 20
0.0
 30
0.0
  9
$PUCSORGFRONT
 10
0.0
 20
0.0
 30
0.0
  9
$PUCSORGBACK
 10
0.0
 20
0.0
 30
0.0
  9
$USERI1
 70
     0
  9
$USERI2
 70
     0
  9
$USERI3
 70
     0
  9
$USERI4
 70
     0
  9
$USERI5
 70
     0
  9
$USERR1
 40
0.0
  9
$USERR2
 40
0.0
  9
$USERR3
 40
0.0
  9
$USERR4
 40
0.0
  9
$USERR5
 40
0.0
  9
$WORLDVIEW
 70
     1
  9
$SHADEDGE
 70
     3
  9
$SHADEDIF
 70
    70
  9
$TILEMODE
 70
     1
  9
$MAXACTVP
 70
    16
  9
$PINSBASE
 10
0.0
 20
0.0
 30
0.0
  9
$PLIMCHECK
 70
     0
  9
$PEXTMIN
 10
1.000000000000000E+20
 20
1.000000000000000E+20
 30
1.000000000000000E+20
  9
$PEXTMAX
 10
-1.000000000000000E+20
 20
-1.000000000000000E+20
 30
-1.000000000000000E+20
  9
$PLIMMIN
 10
0.0
 20
0.0
  9
$PLIMMAX
 10
12.0
 20
9.0
  9
$UNITMODE
 70
     0
  9
$VISRETAIN
 70
     0
  9
$PLINEGEN
 70
     0
  9
$PSLTSCALE
 70
     0
  9
$TREEDEPTH
 70
  3020
  9
$CMLSTYLE
  2
Standard
  9
$CMLJUST
 70
     0
  9
$CMLSCALE
 40
1.0
  9
$PROXYGRAPHICS
 70
     1
  9
$MEASUREMENT
 70
     0
  9
$CELWEIGHT
370
    -1
  9
$ENDCAPS
280
     0
  9
$JOINSTYLE
280
     0
  9
$LWDISPLAY
290
     0
  9
$INSUNITS
 70
     0
  9
$HYPERLINKBASE
  1

  9
$STYLESHEET
  1
monochrome 1.ctb
  9
$XEDIT
290
     1
  9
$CEPSNTYPE
380
     0
  9
$PSTYLEMODE
290
     1
  9
$FINGERPRINTGUID
  2
{D68B0D02-A558-11D7-B632-000102183313}
  9
$VERSIONGUID
  2
{445A3AC2-B859-4CAA-AEA5-00059614CDBC}
  9
$EXTNAMES
290
     1
  9
$PSVPSCALE
 40
0.0
  9
$OLESTARTUP
290
     0
  9
$SORTENTS
280
   127
  9
$INDEXCTL
280
     0
  9
$HIDETEXT
280
     0
  9
$XCLIPFRAME
290
     0
  9
$HALOGAP
280
     0
  9
$OBSCOLOR
 70
   257
  9
$OBSLTYPE
280
     0
  9
$INTERSECTIONDISPLAY
280
     0
  9
$INTERSECTIONCOLOR
 70
   257
  9
$DIMASSOC
280
     1
  9
$PROJECTNAME
  1

  0
ENDSEC
  0
SECTION
  2
CLASSES
  0
CLASS
  1
ACDBDICTIONARYWDFLT
  2
AcDbDictionaryWithDefault
  3
ObjectDBX Classes
 90
        0
 91
        1
280
     0
281
     0
  0
CLASS
  1
DICTIONARYVAR
  2
AcDbDictionaryVar
  3
ObjectDBX Classes
 90
        0
 91
        2
280
     0
281
     0
  0
ENDSEC
  0
SECTION
  2
TABLES
  0
TABLE
  2
VPORT
  5
8
330
0
100
AcDbSymbolTable
 70
     2
  0
VPORT
  5
8A5
330
8
100
AcDbSymbolTableRecord
100
AcDbViewportTableRecord
  2
*Active
 70
     0
 10
0.0
 20
0.0
 11
1.0
 21
1.0
 12
209.9984101739167
 22
296.9977515316827
 13
0.0
 23
0.0
 14
1.0
 24
1.0
 15
10.0
 25
10.0
 16
0.0
 26
0.0
 36
1.0
 17
0.0
 27
0.0
 37
0.0
 40
598.8835580506734
 41
1.336927223719676
 42
50.0
 43
0.0
 44
0.0
 50
0.0
 51
0.0
 71
     0
 72
  1500
 73
     1
 74
     0
 75
     0
 76
     0
 77
     0
 78
     0
281
     0
 65
     1
110
0.0
120
0.0
130
0.0
111
1.0
121
0.0
131
0.0
112
0.0
122
1.0
132
0.0
 79
     0
146
0.0
  0
ENDTAB
  0
TABLE
  2
LTYPE
  5
5
330
0
100
AcDbSymbolTable
 70
     2
  0
LTYPE
  5
13
330
5
100
AcDbSymbolTableRecord
100
AcDbLinetypeTableRecord
  2
ByBlock
 70
     0
  3

 72
    65
 73
     0
 40
0.0
  0
LTYPE
  5
14
330
5
100
AcDbSymbolTableRecord
100
AcDbLinetypeTableRecord
  2
ByLayer
 70
     0
  3

 72
    65
 73
     0
 40
0.0
  0
LTYPE
  5
15
330
5
100
AcDbSymbolTableRecord
100
AcDbLinetypeTableRecord
  2
Continuous
 70
     0
  3
Solid line
 72
    65
 73
     0
 40
0.0
  0
LTYPE
  5
25
330
5
100
AcDbSymbolTableRecord
100
AcDbLinetypeTableRecord
  2
STRICHPUNKT
 70
     0
  3
__ . __ . __ . __ . __ . __ . __ . __ . __ . __
 72
    65
 73
     4
 40
1.0
 49
0.5
 74
     0
 49
-0.25
 74
     0
 49
0.0
 74
     0
 49
-0.25
 74
     0
  0
ENDTAB
  0
TABLE
  2
LAYER
  5
2
330
0
100
AcDbSymbolTable
 70
     9
  0
LAYER
  5
10
330
2
100
AcDbSymbolTableRecord
100
AcDbLayerTableRecord
  2
0
 70
     0
 62
     7
  6
Continuous
370
    -3
390
F
  0
LAYER
  5
2A
330
2
100
AcDbSymbolTableRecord
100
AcDbLayerTableRecord
  2
VOLL
 70
     0
 62
     1
  6
Continuous
370
    -3
390
F
  0
LAYER
  5
2B
330
2
100
AcDbSymbolTableRecord
100
AcDbLayerTableRecord
  2
HILF
 70
     0
 62
     2
  6
Continuous
370
    -3
390
F
  0
LAYER
  5
2C
330
2
100
AcDbSymbolTableRecord
100
AcDbLayerTableRecord
  2
MITTEL
 70
     0
 62
     2
  6
STRICHPUNKT
370
    -3
390
F
  0
LAYER
  5
2F
330
2
100
AcDbSymbolTableRecord
100
AcDbLayerTableRecord
  2
BEM
 70
     0
 62
     7
  6
Continuous
370
    -3
390
F
  0
LAYER
  5
30
330
2
100
AcDbSymbolTableRecord
100
AcDbLayerTableRecord
  2
STEMPEL
 70
     0
 62
     3
  6
Continuous
370
    -3
390
F
  0
LAYER
  5
31
330
2
100
AcDbSymbolTableRecord
100
AcDbLayerTableRecord
  2
TEXT
 70
     0
 62
     7
  6
Continuous
370
    -3
390
F
  0
LAYER
  5
171
330
2
100
AcDbSymbolTableRecord
100
AcDbLayerTableRecord
  2
Defpoints
 70
     0
 62
     7
  6
Continuous
290
     0
370
    -3
390
F
  0
LAYER
  5
19C
330
2
100
AcDbSymbolTableRecord
100
AcDbLayerTableRecord
  2
SCHRAFF
 70
     0
 62
     7
  6
Continuous
370
    -3
390
F
  0
ENDTAB
  0
TABLE
  2
STYLE
  5
3
330
0
100
AcDbSymbolTable
 70
     2
  0
STYLE
  5
11
330
3
100
AcDbSymbolTableRecord
100
AcDbTextStyleTableRecord
  2
STANDARD
 70
     0
 40
0.0
 41
0.8
 50
0.0
 71
     0
 42
3.5
  3
simplex.shx
  4

  0
STYLE
  5
24
330
3
100
AcDbSymbolTableRecord
100
AcDbTextStyleTableRecord
  2
GREEKS
 70
     0
 40
0.0
 41
0.8
 50
0.0
 71
     0
 42
2.5
  3
SIMPLEX.shx
  4

  0
ENDTAB
  0
TABLE
  2
VIEW
  5
6
330
0
100
AcDbSymbolTable
 70
     0
  0
ENDTAB
  0
TABLE
  2
UCS
  5
7
330
0
100
AcDbSymbolTable
 70
     0
  0
ENDTAB
  0
TABLE
  2
APPID
  5
9
330
0
100
AcDbSymbolTable
 70
     1
  0
APPID
  5
12
330
9
100
AcDbSymbolTableRecord
100
AcDbRegAppTableRecord
  2
ACAD
 70
     0
  0
ENDTAB
  0
TABLE
  2
DIMSTYLE
  5
A
330
0
100
AcDbSymbolTable
 70
     1
100
AcDbDimStyleTable
 71
     1
340
9D
  0
DIMSTYLE
105
9D
102
{ACAD_REACTORS
330
370
330
435
330
53A
330
86A
330
877
330
884
102
}
330
A
100
AcDbSymbolTableRecord
100
AcDbDimStyleTableRecord
  2
Standard
 70
     0
340
11
  0
ENDTAB
  0
TABLE
  2
BLOCK_RECORD
  5
1
330
0
100
AcDbSymbolTable
 70
     7
  0
BLOCK_RECORD
  5
1E
102
{ACAD_XDICTIONARY
360
A0
102
}
330
1
100
AcDbSymbolTableRecord
100
AcDbBlockTableRecord
  2
*Model_Space
340
21
  0
BLOCK_RECORD
  5
1A
102
{ACAD_XDICTIONARY
360
A2
102
}
330
1
100
AcDbSymbolTableRecord
100
AcDbBlockTableRecord
  2
*Paper_Space
340
1D
  0
BLOCK_RECORD
  5
22
330
1
100
AcDbSymbolTableRecord
100
AcDbBlockTableRecord
  2
LOGO
340
0
102
{BLKREFS
331
9B
102
}
  0
BLOCK_RECORD
  5
38C
330
1
100
AcDbSymbolTableRecord
100
AcDbBlockTableRecord
  2
*D1
340
0
  0
BLOCK_RECORD
  5
44A
330
1
100
AcDbSymbolTableRecord
100
AcDbBlockTableRecord
  2
*D2
340
0
  0
BLOCK_RECORD
  5
53B
330
1
100
AcDbSymbolTableRecord
100
AcDbBlockTableRecord
  2
*D3
340
0
  0
BLOCK_RECORD
  5
86B
330
1
100
AcDbSymbolTableRecord
100
AcDbBlockTableRecord
  2
*D4
340
0
  0
BLOCK_RECORD
  5
878
330
1
100
AcDbSymbolTableRecord
100
AcDbBlockTableRecord
  2
*D5
340
0
  0
BLOCK_RECORD
  5
885
330
1
100
AcDbSymbolTableRecord
100
AcDbBlockTableRecord
  2
*D6
340
0
  0
ENDTAB
  0
ENDSEC
  0
SECTION
  2
BLOCKS
  0
BLOCK
  5
35
330
1E
100
AcDbEntity
  8
0
100
AcDbBlockBegin
  2
*Model_Space
 70
     0
 10
0.0
 20
0.0
 30
0.0
  3
*Model_Space
  1

  0
ENDBLK
  5
36
330
1E
100
AcDbEntity
  8
0
100
AcDbBlockEnd
  0
BLOCK
  5
33
330
1A
100
AcDbEntity
 67
     1
  8
0
100
AcDbBlockBegin
  2
*Paper_Space
 70
     0
 10
0.0
 20
0.0
 30
0.0
  3
*Paper_Space
  1

  0
ENDBLK
  5
34
330
1A
100
AcDbEntity
 67
     1
  8
0
100
AcDbBlockEnd
  0
BLOCK
  5
37
330
22
100
AcDbEntity
  8
0
100
AcDbBlockBegin
  2
LOGO
 70
     0
 10
0.0
 20
0.0
 30
0.0
  3
LOGO
  1

  0
ARC
  5
38
330
22
100
AcDbEntity
  8
0
100
AcDbCircle
 10
11.59973089678112
 20
-9.271599258481501
 30
0.0
 40
4.5
100
AcDbArc
 50
270.0
 51
231.0575587310159
  0
LINE
  5
39
330
22
100
AcDbEntity
  8
0
100
AcDbLine
 10
3.599730896781125
 20
-4.771599258481529
 30
0.0
 11
3.599730896781153
 21
-11.77159925848133
 31
0.0
  0
LINE
  5
3A
330
22
100
AcDbEntity
  8
0
100
AcDbLine
 10
2.599730896781125
 20
-4.771599258481529
 30
0.0
 11
2.599730896781153
 21
-11.77159925848133
 31
0.0
  0
CIRCLE
  5
3B
330
22
100
AcDbEntity
  8
0
100
AcDbCircle
 10
11.59973089678112
 20
-9.271599258481501
 30
0.0
 40
3.5
  0
ARC
  5
3C
330
22
100
AcDbEntity
  8
0
100
AcDbCircle
 10
31.59973089678115
 20
-9.271599258481472
 30
0.0
 40
4.5
100
AcDbArc
 50
270.0
 51
231.0575587310182
  0
LINE
  5
3D
330
22
100
AcDbEntity
  8
0
100
AcDbLine
 10
17.59973089678112
 20
-4.771599258481472
 30
0.0
 11
17.59973089678115
 21
-13.77159925848147
 31
0.0
  0
ARC
  5
3E
330
22
100
AcDbEntity
  8
0
100
AcDbCircle
 10
22.59973089678116
 20
-7.271599258481472
 30
0.0
 40
2.5
100
AcDbArc
 50
293.1161887722295
 51
90.0
  0
CIRCLE
  5
3F
330
22
100
AcDbEntity
  8
0
100
AcDbCircle
 10
31.59973089678115
 20
-9.271599258481472
 30
0.0
 40
3.5
  0
ARC
  5
40
330
22
100
AcDbEntity
  8
0
100
AcDbCircle
 10
4.599730896781153
 20
-11.77159925848133
 30
0.0
 40
1.0
100
AcDbArc
 50
180.0
 51
270.0
  0
ARC
  5
41
330
22
100
AcDbEntity
  8
0
100
AcDbCircle
 10
4.599730896781153
 20
-11.77159925848133
 30
0.0
 40
2.0
100
AcDbArc
 50
179.9999999999992
 51
270.0
  0
LINE
  5
42
330
22
100
AcDbEntity
  8
0
100
AcDbLine
 10
11.59973089678115
 20
-13.77159925848144
 30
0.0
 11
4.599730896781153
 21
-13.77159925848147
 31
0.0
  0
LINE
  5
43
330
22
100
AcDbEntity
  8
0
100
AcDbLine
 10
8.771303772034769
 20
-12.77159925848136
 30
0.0
 11
4.599730896781153
 21
-12.77159925848133
 31
0.0
  0
LINE
  5
44
330
22
100
AcDbEntity
  8
0
100
AcDbLine
 10
31.59973089678115
 20
-13.77159925848147
 30
0.0
 11
23.6715276665056
 21
-13.77159925848144
 31
0.0
  0
LINE
  5
45
330
22
100
AcDbEntity
  8
0
100
AcDbLine
 10
23.56565672307022
 20
-9.51278021337896
 30
0.0
 11
24.4388546544846
 21
-12.77159925848144
 31
0.0
  0
LINE
  5
46
330
22
100
AcDbEntity
  8
0
100
AcDbLine
 10
22.59973089678116
 20
-9.771599258481472
 30
0.0
 11
18.59973089678112
 21
-9.771599258481472
 31
0.0
  0
LINE
  5
47
330
22
100
AcDbEntity
  8
0
100
AcDbLine
 10
18.59973089678115
 20
-13.77159925848144
 30
0.0
 11
17.59973089678115
 21
-13.77159925848144
 31
0.0
  0
LINE
  5
48
330
22
100
AcDbEntity
  8
0
100
AcDbLine
 10
18.59973089678115
 20
-9.771599258481472
 30
0.0
 11
18.59973089678115
 21
-13.77159925848144
 31
0.0
  0
LINE
  5
49
330
22
100
AcDbEntity
  8
0
100
AcDbLine
 10
22.59973089678116
 20
-9.771599258481472
 30
0.0
 11
23.67152766650562
 21
-13.77159925848147
 31
0.0
  0
ARC
  5
4A
330
22
100
AcDbEntity
  8
0
100
AcDbCircle
 10
22.59973089678116
 20
-7.271599258481472
 30
0.0
 40
2.5
100
AcDbArc
 50
270.0
 51
270.0000000000007
  0
LINE
  5
4B
330
22
100
AcDbEntity
  8
0
100
AcDbLine
 10
28.77130377203494
 20
-12.77159925848147
 30
0.0
 11
24.43885465448463
 21
-12.77159925848144
 31
0.0
  0
LINE
  5
4C
330
22
100
AcDbEntity
  8
0
100
AcDbLine
 10
3.599730896781125
 20
-4.771599258481472
 30
0.0
 11
2.599730896781125
 21
-4.771599258481472
 31
0.0
  0
LINE
  5
4D
330
22
100
AcDbEntity
  8
0
100
AcDbLine
 10
22.59973089678116
 20
-8.771599258481472
 30
0.0
 11
18.59973089678115
 21
-8.771599258481472
 31
0.0
  0
LINE
  5
4E
330
22
100
AcDbEntity
  8
0
100
AcDbLine
 10
22.59973089678116
 20
-5.771599258481472
 30
0.0
 11
18.59973089678115
 21
-5.771599258481472
 31
0.0
  0
LINE
  5
4F
330
22
100
AcDbEntity
  8
0
100
AcDbLine
 10
22.59973089678116
 20
-4.771599258481472
 30
0.0
 11
17.59973089678115
 21
-4.771599258481472
 31
0.0
  0
LINE
  5
50
330
22
100
AcDbEntity
  8
0
100
AcDbLine
 10
18.59973089678115
 20
-5.771599258481472
 30
0.0
 11
18.59973089678115
 21
-8.771599258481472
 31
0.0
  0
ARC
  5
51
330
22
100
AcDbEntity
  8
0
100
AcDbCircle
 10
22.59973089678116
 20
-7.271599258481472
 30
0.0
 40
1.5
100
AcDbArc
 50
270.0
 51
90.0
  0
ENDBLK
  5
52
330
22
100
AcDbEntity
  8
0
100
AcDbBlockEnd
  0
BLOCK
  5
396
330
38C
100
AcDbEntity
  8
0
100
AcDbBlockBegin
  2
*D1
 70
     1
 10
0.0
 20
0.0
 30
0.0
  3
*D1
  1

  0
LINE
  5
858
330
38C
100
AcDbEntity
  8
BEM
 62
     0
370
    -2
100
AcDbLine
 10
315.5703710039696
 20
436.188743893153
 30
0.0
 11
327.654467044585
 21
436.8220445312845
 31
0.0
  0
LINE
  5
859
330
38C
100
AcDbEntity
  8
BEM
 62
     0
370
    -2
100
AcDbLine
 10
320.2282711095916
 20
347.3107152999958
 30
0.0
 11
332.3123671502056
 21
347.9440159381272
 31
0.0
  0
LINE
  5
85A
330
38C
100
AcDbEntity
  8
BEM
 62
     0
370
    -2
100
AcDbLine
 10
326.0235596687764
 20
429.7269658755166
 30
0.0
 11
329.948756386996
 21
354.8297507689234
 31
0.0
  0
SOLID
  5
85B
330
38C
100
AcDbEntity
  8
BEM
 62
     0
100
AcDbTrace
 10
327.1886274593234
 20
429.7880244911334
 30
0.0
 11
324.8584918782293
 21
429.6659072598999
 31
0.0
 12
325.6572079750759
 22
436.7173726187986
 32
0.0
 13
325.6572079750759
 23
436.7173726187986
 33
0.0
  0
SOLID
  5
85C
330
38C
100
AcDbEntity
  8
BEM
 62
     0
100
AcDbTrace
 10
331.113824177543
 20
354.8908093845401
 30
0.0
 11
328.783688596449
 21
354.7686921533066
 31
0.0
 12
330.3151080806965
 22
347.8393440256413
 32
0.0
 13
330.3151080806965
 23
347.8393440256413
 33
0.0
  0
MTEXT
  5
85D
330
38C
100
AcDbEntity
  8
BEM
 62
     1
100
AcDbMText
 10
334.4772500037909
 20
392.618542037799
 30
0.0
 40
7.0
 41
0.0
 71
     5
 72
     1
  1
\A1;%%c89
  7
GREEKS
 11
0.0523359562429282
 21
-0.9986295347545746
 31
0.0
 73
     1
 44
1.0
  0
POINT
  5
85E
330
38C
100
AcDbEntity
  8
Defpoints
 62
     0
100
AcDbPoint
 10
313.5731119344604
 20
436.0840719806672
 30
0.0
  0
POINT
  5
85F
330
38C
100
AcDbEntity
  8
Defpoints
 62
     0
100
AcDbPoint
 10
318.2310120400825
 20
347.2060433875099
 30
0.0
  0
POINT
  5
860
330
38C
100
AcDbEntity
  8
Defpoints
 62
     0
100
AcDbPoint
 10
330.3151080806965
 20
347.8393440256413
 30
0.0
  0
ENDBLK
  5
397
330
38C
100
AcDbEntity
  8
0
100
AcDbBlockEnd
  0
BLOCK
  5
454
330
44A
100
AcDbEntity
  8
0
100
AcDbBlockBegin
  2
*D2
 70
     1
 10
0.0
 20
0.0
 30
0.0
  3
*D2
  1

  0
LINE
  5
84F
330
44A
100
AcDbEntity
  8
BEM
 62
     0
370
    -2
100
AcDbLine
 10
173.0692587472134
 20
266.194579608088
 30
0.0
 11
173.0692587472134
 21
240.8996472306732
 31
0.0
  0
LINE
  5
850
330
44A
100
AcDbEntity
  8
BEM
 62
     0
370
    -2
100
AcDbLine
 10
215.0692587472134
 20
266.1945796080868
 30
0.0
 11
215.0692587472134
 21
240.8996472306732
 31
0.0
  0
LINE
  5
851
330
44A
100
AcDbEntity
  8
BEM
 62
     0
370
    -2
100
AcDbLine
 10
180.0692587472134
 20
242.8996472306732
 30
0.0
 11
208.0692587472134
 21
242.8996472306732
 31
0.0
  0
SOLID
  5
852
330
44A
100
AcDbEntity
  8
BEM
 62
     0
100
AcDbTrace
 10
180.0692587472134
 20
244.0663138973398
 30
0.0
 11
180.0692587472134
 21
241.7329805640065
 31
0.0
 12
173.0692587472134
 22
242.8996472306732
 32
0.0
 13
173.0692587472134
 23
242.8996472306732
 33
0.0
  0
SOLID
  5
853
330
44A
100
AcDbEntity
  8
BEM
 62
     0
100
AcDbTrace
 10
208.0692587472134
 20
244.0663138973398
 30
0.0
 11
208.0692587472134
 21
241.7329805640065
 31
0.0
 12
215.0692587472134
 22
242.8996472306732
 32
0.0
 13
215.0692587472134
 23
242.8996472306732
 33
0.0
  0
MTEXT
  5
854
330
44A
100
AcDbEntity
  8
BEM
 62
     1
100
AcDbMText
 10
194.0692587472134
 20
249.3996472306732
 30
0.0
 40
7.0
 41
0.0
 71
     5
 72
     1
  1
\A1;%%c42
  7
GREEKS
 73
     1
 44
1.0
  0
POINT
  5
855
330
44A
100
AcDbEntity
  8
Defpoints
 62
     0
100
AcDbPoint
 10
173.0692587472134
 20
268.194579608088
 30
0.0
  0
POINT
  5
856
330
44A
100
AcDbEntity
  8
Defpoints
 62
     0
100
AcDbPoint
 10
215.0692587472134
 20
268.1945796080868
 30
0.0
  0
POINT
  5
857
330
44A
100
AcDbEntity
  8
Defpoints
 62
     0
100
AcDbPoint
 10
215.0692587472134
 20
242.8996472306732
 30
0.0
  0
ENDBLK
  5
455
330
44A
100
AcDbEntity
  8
0
100
AcDbBlockEnd
  0
BLOCK
  5
545
330
53B
100
AcDbEntity
  8
0
100
AcDbBlockBegin
  2
*D3
 70
     1
 10
0.0
 20
0.0
 30
0.0
  3
*D3
  1

  0
LINE
  5
861
330
53B
100
AcDbEntity
  8
BEM
 62
     0
370
    -2
100
AcDbLine
 10
147.5692587472134
 20
288.2600710224492
 30
0.0
 11
135.2499778556371
 21
288.2600710224492
 31
0.0
  0
LINE
  5
862
330
53B
100
AcDbEntity
  8
BEM
 62
     0
370
    -2
100
AcDbLine
 10
171.5009723085281
 20
263.2600710224492
 30
0.0
 11
135.2499778556371
 21
263.2600710224492
 31
0.0
  0
LINE
  5
863
330
53B
100
AcDbEntity
  8
BEM
 62
     0
370
    -2
100
AcDbLine
 10
137.2499778556371
 20
281.2600710224492
 30
0.0
 11
137.2499778556371
 21
270.2600710224492
 31
0.0
  0
SOLID
  5
864
330
53B
100
AcDbEntity
  8
BEM
 62
     0
100
AcDbTrace
 10
136.0833111889704
 20
281.2600710224492
 30
0.0
 11
138.4166445223037
 21
281.2600710224492
 31
0.0
 12
137.2499778556371
 22
288.2600710224492
 32
0.0
 13
137.2499778556371
 23
288.2600710224492
 33
0.0
  0
SOLID
  5
865
330
53B
100
AcDbEntity
  8
BEM
 62
     0
100
AcDbTrace
 10
136.0833111889704
 20
270.2600710224492
 30
0.0
 11
138.4166445223037
 21
270.2600710224492
 31
0.0
 12
137.2499778556371
 22
263.2600710224492
 32
0.0
 13
137.2499778556371
 23
263.2600710224492
 33
0.0
  0
MTEXT
  5
866
330
53B
100
AcDbEntity
  8
BEM
 62
     1
100
AcDbMText
 10
130.749977855637
 20
275.7600710224493
 30
0.0
 40
7.0
 41
0.0
 71
     5
 72
     1
  1
\A1;25
 11
0.0000000000000001
 21
1.0
 31
0.0
 73
     1
 44
1.0
  0
POINT
  5
867
330
53B
100
AcDbEntity
  8
Defpoints
 62
     0
100
AcDbPoint
 10
149.5692587472134
 20
288.2600710224492
 30
0.0
  0
POINT
  5
868
330
53B
100
AcDbEntity
  8
Defpoints
 62
     0
100
AcDbPoint
 10
173.5009723085281
 20
263.2600710224492
 30
0.0
  0
POINT
  5
869
330
53B
100
AcDbEntity
  8
Defpoints
 62
     0
100
AcDbPoint
 10
137.2499778556371
 20
263.2600710224492
 30
0.0
  0
ENDBLK
  5
546
330
53B
100
AcDbEntity
  8
0
100
AcDbBlockEnd
  0
BLOCK
  5
875
330
86B
100
AcDbEntity
  8
0
100
AcDbBlockBegin
  2
*D4
 70
     1
 10
0.0
 20
0.0
 30
0.0
  3
*D4
  1

  0
LINE
  5
86C
330
86B
100
AcDbEntity
  8
BEM
 62
     0
370
    -2
100
AcDbLine
 10
171.5009723085281
 20
263.2600710224492
 30
0.0
 11
119.097198544146
 21
263.2600710224493
 31
0.0
  0
LINE
  5
86D
330
86B
100
AcDbEntity
  8
BEM
 62
     0
370
    -2
100
AcDbLine
 10
192.0692587472134
 20
385.2600710224488
 30
0.0
 11
119.097198544146
 21
385.2600710224489
 31
0.0
  0
LINE
  5
86E
330
86B
100
AcDbEntity
  8
BEM
 62
     0
370
    -2
100
AcDbLine
 10
121.097198544146
 20
270.2600710224493
 30
0.0
 11
121.097198544146
 21
378.2600710224489
 31
0.0
  0
SOLID
  5
86F
330
86B
100
AcDbEntity
  8
BEM
 62
     0
100
AcDbTrace
 10
119.9305318774793
 20
270.2600710224493
 30
0.0
 11
122.2638652108127
 21
270.2600710224493
 31
0.0
 12
121.097198544146
 22
263.2600710224493
 32
0.0
 13
121.097198544146
 23
263.2600710224493
 33
0.0
  0
SOLID
  5
870
330
86B
100
AcDbEntity
  8
BEM
 62
     0
100
AcDbTrace
 10
119.9305318774794
 20
378.2600710224489
 30
0.0
 11
122.2638652108127
 21
378.2600710224489
 31
0.0
 12
121.097198544146
 22
385.2600710224489
 32
0.0
 13
121.097198544146
 23
385.2600710224489
 33
0.0
  0
MTEXT
  5
871
330
86B
100
AcDbEntity
  8
BEM
 62
     1
100
AcDbMText
 10
114.597198544146
 20
324.2600710224491
 30
0.0
 40
7.0
 41
0.0
 71
     5
 72
     1
  1
\A1;122
 11
0.0000000000000001
 21
1.0
 31
0.0
 73
     1
 44
1.0
  0
POINT
  5
872
330
86B
100
AcDbEntity
  8
Defpoints
 62
     0
100
AcDbPoint
 10
173.5009723085281
 20
263.2600710224492
 30
0.0
  0
POINT
  5
873
330
86B
100
AcDbEntity
  8
Defpoints
 62
     0
100
AcDbPoint
 10
194.0692587472134
 20
385.2600710224488
 30
0.0
  0
POINT
  5
874
330
86B
100
AcDbEntity
  8
Defpoints
 62
     0
100
AcDbPoint
 10
121.097198544146
 20
385.2600710224489
 30
0.0
  0
ENDBLK
  5
876
330
86B
100
AcDbEntity
  8
0
100
AcDbBlockEnd
  0
BLOCK
  5
882
330
878
100
AcDbEntity
  8
0
100
AcDbBlockBegin
  2
*D5
 70
     1
 10
0.0
 20
0.0
 30
0.0
  3
*D5
  1

  0
LINE
  5
892
330
878
100
AcDbEntity
  8
BEM
 62
     0
370
    -2
100
AcDbLine
 10
193.9645868347275
 20
387.2573300919579
 30
0.0
 11
189.478101313435
 21
472.8645735712491
 31
0.0
  0
LINE
  5
893
330
878
100
AcDbEntity
  8
BEM
 62
     0
370
    -2
100
AcDbLine
 10
313.4684400219746
 20
438.0813310501764
 30
0.0
 11
311.3109045534932
 21
479.2495602328886
 31
0.0
  0
LINE
  5
894
330
878
100
AcDbEntity
  8
BEM
 62
     0
370
    -2
100
AcDbLine
 10
196.5731799692028
 20
471.2336661954405
 30
0.0
 11
304.4251697226972
 21
476.8859494696788
 31
0.0
  0
SOLID
  5
895
330
878
100
AcDbEntity
  8
BEM
 62
     0
100
AcDbTrace
 10
196.5121213535861
 20
472.3987339859875
 30
0.0
 11
196.6342385848196
 21
470.0685984048935
 31
0.0
 12
189.5827732259208
 22
470.8673145017399
 32
0.0
 13
189.5827732259208
 23
470.8673145017399
 33
0.0
  0
SOLID
  5
896
330
878
100
AcDbEntity
  8
BEM
 62
     0
100
AcDbTrace
 10
304.3641111070804
 20
478.0510172602259
 30
0.0
 11
304.4862283383139
 21
475.7208816791318
 31
0.0
 12
311.4155764659792
 22
477.2523011633794
 32
0.0
 13
311.4155764659792
 23
477.2523011633794
 33
0.0
  0
MTEXT
  5
897
330
878
100
AcDbEntity
  8
BEM
 62
     1
100
AcDbMText
 10
250.1589911303708
 20
480.5508998084644
 30
0.0
 40
7.0
 41
0.0
 71
     5
 72
     1
  1
\A1;122
 11
0.9986295347545738
 21
0.052335956242947
 31
0.0
 73
     1
 44
1.0
  0
POINT
  5
898
330
878
100
AcDbEntity
  8
Defpoints
 62
     0
100
AcDbPoint
 10
194.0692587472134
 20
385.2600710224488
 30
0.0
  0
POINT
  5
899
330
878
100
AcDbEntity
  8
Defpoints
 62
     0
100
AcDbPoint
 10
313.5731119344605
 20
436.0840719806673
 30
0.0
  0
POINT
  5
89A
330
878
100
AcDbEntity
  8
Defpoints
 62
     0
100
AcDbPoint
 10
311.4155764659792
 20
477.2523011633794
 30
0.0
  0
ENDBLK
  5
883
330
878
100
AcDbEntity
  8
0
100
AcDbBlockEnd
  0
BLOCK
  5
890
330
885
100
AcDbEntity
  8
0
100
AcDbBlockBegin
  2
*D6
 70
     1
 10
0.0
 20
0.0
 30
0.0
  3
*D6
  1

  0
LINE
  5
886
330
885
100
AcDbEntity
  8
BEM
 62
     0
370
    -2
100
AcDbLine
 10
194.0692587472134
 20
387.2600710224489
 30
0.0
 11
194.0692587472135
 21
460.8426332138621
 31
0.0
  0
ARC
  5
887
330
885
100
AcDbEntity
  8
BEM
 62
     0
370
    -2
100
AcDbCircle
 10
194.0692587472134
 20
385.2600710224489
 30
0.0
 40
73.58256219141319
100
AcDbArc
 50
8.45267567486702
 51
84.54732432513308
  0
SOLID
  5
888
330
885
100
AcDbEntity
  8
BEM
 62
     0
100
AcDbTrace
 10
268.0133833335801
 20
396.1925601159422
 30
0.0
 11
265.6916937784718
 21
395.959746769793
 31
0.0
 12
267.5509785944739
 22
389.1110847775426
 32
0.0
 13
267.5509785944739
 23
389.1110847775426
 33
0.0
  0
SOLID
  5
889
330
885
100
AcDbEntity
  8
BEM
 62
     0
100
AcDbTrace
 10
201.0058423349994
 20
457.3443277574307
 30
0.0
 11
201.1168287755832
 21
459.67502002679
 31
0.0
 12
194.0692587472135
 22
458.842633213862
 32
0.0
 13
194.0692587472135
 23
458.842633213862
 33
0.0
  0
MTEXT
  5
88A
330
885
100
AcDbEntity
  8
BEM
 62
     1
100
AcDbMText
 10
249.1944568649523
 20
443.3499092010976
 30
0.0
 40
7.0
 41
0.0
 71
     5
 72
     1
  1
\A1;87°
 11
0.7253743710122884
 21
-0.6883545756937533
 31
0.0
 73
     1
 44
1.0
  0
POINT
  5
88B
330
885
100
AcDbEntity
  8
Defpoints
 62
     0
100
AcDbPoint
 10
256.4708105239532
 20
424.2528882393166
 30
0.0
  0
POINT
  5
88C
330
885
100
AcDbEntity
  8
Defpoints
 62
     0
100
AcDbPoint
 10
194.0692587472134
 20
385.2600710224489
 30
0.0
  0
POINT
  5
88D
330
885
100
AcDbEntity
  8
Defpoints
 62
     0
100
AcDbPoint
 10
320.8952096610444
 20
391.9067374653031
 30
0.0
  0
POINT
  5
88E
330
885
100
AcDbEntity
  8
Defpoints
 62
     0
100
AcDbPoint
 10
194.0692587472134
 20
385.2600710224489
 30
0.0
  0
POINT
  5
88F
330
885
100
AcDbEntity
  8
Defpoints
 62
     0
100
AcDbPoint
 10
194.0692587472134
 20
258.2600710224492
 30
0.0
  0
ENDBLK
  5
891
330
885
100
AcDbEntity
  8
0
100
AcDbBlockEnd
  0
ENDSEC
  0
SECTION
  2
ENTITIES
  0
LINE
  5
57
330
1E
100
AcDbEntity
  8
STEMPEL
100
AcDbLine
 10
410.0
 20
110.0
 30
0.0
 11
39.99999999999997
 21
110.0
 31
0.0
  0
LINE
  5
58
330
1E
100
AcDbEntity
  8
STEMPEL
100
AcDbLine
 10
146.0000000000001
 20
109.9999999999999
 30
0.0
 11
146.0
 21
9.999999999999971
 31
0.0
  0
LINE
  5
59
330
1E
100
AcDbEntity
  8
STEMPEL
100
AcDbLine
 10
230.0
 20
110.0
 30
0.0
 11
230.0
 21
9.999999999999971
 31
0.0
  0
LINE
  5
5A
330
1E
100
AcDbEntity
  8
STEMPEL
100
AcDbLine
 10
332.0
 20
109.9999999999997
 30
0.0
 11
332.0
 21
40.0
 31
0.0
  0
LINE
  5
5B
330
1E
100
AcDbEntity
  8
STEMPEL
100
AcDbLine
 10
145.9999999999999
 20
29.99999999999997
 30
0.0
 11
39.99999999999997
 21
29.99999999999997
 31
0.0
  0
LINE
  5
5C
330
1E
100
AcDbEntity
  8
STEMPEL
100
AcDbLine
 10
410.0
 20
40.0
 30
0.0
 11
146.0000000000001
 21
39.99999999999997
 31
0.0
  0
LINE
  5
5D
330
1E
100
AcDbEntity
  8
STEMPEL
100
AcDbLine
 10
410.0
 20
80.0
 30
0.0
 11
146.0000000000001
 21
79.99999999999994
 31
0.0
  0
LINE
  5
5E
330
1E
100
AcDbEntity
  8
VOLL
100
AcDbLine
 10
54.00000000000009
 20
110.0
 30
0.0
 11
53.99999999999997
 21
9.999999999999971
 31
0.0
  0
LINE
  5
5F
330
1E
100
AcDbEntity
  8
VOLL
100
AcDbLine
 10
104.0000000000001
 20
109.9999999999999
 30
0.0
 11
104.0
 21
9.999999999999971
 31
0.0
  0
LINE
  5
60
330
1E
100
AcDbEntity
  8
VOLL
100
AcDbLine
 10
124.0000000000001
 20
109.9999999999999
 30
0.0
 11
124.0
 21
9.999999999999971
 31
0.0
  0
LINE
  5
61
330
1E
100
AcDbEntity
  8
VOLL
100
AcDbLine
 10
164.0000000000001
 20
79.99999999999994
 30
0.0
 11
164.0000000000001
 21
39.99999999999997
 31
0.0
  0
LINE
  5
62
330
1E
100
AcDbEntity
  8
VOLL
100
AcDbLine
 10
190.0000000000001
 20
109.9999999999998
 30
0.0
 11
190.0
 21
39.99999999999997
 31
0.0
  0
LINE
  5
63
330
1E
100
AcDbEntity
  8
HILF
100
AcDbLine
 10
40.00000000000008
 20
100.0
 30
0.0
 11
146.0000000000001
 21
100.0
 31
0.0
  0
LINE
  5
64
330
1E
100
AcDbEntity
  8
HILF
100
AcDbLine
 10
40.00000000000008
 20
90.00000000000005
 30
0.0
 11
146.0000000000001
 21
90.00000000000005
 31
0.0
  0
LINE
  5
65
330
1E
100
AcDbEntity
  8
HILF
100
AcDbLine
 10
40.00000000000008
 20
79.99999999999994
 30
0.0
 11
146.0000000000001
 21
79.99999999999994
 31
0.0
  0
LINE
  5
66
330
1E
100
AcDbEntity
  8
HILF
100
AcDbLine
 10
40.00000000000008
 20
69.99999999999994
 30
0.0
 11
146.0000000000001
 21
69.99999999999994
 31
0.0
  0
LINE
  5
67
330
1E
100
AcDbEntity
  8
HILF
100
AcDbLine
 10
40.00000000000008
 20
59.99999999999997
 30
0.0
 11
146.0000000000001
 21
59.99999999999997
 31
0.0
  0
LINE
  5
68
330
1E
100
AcDbEntity
  8
HILF
100
AcDbLine
 10
40.00000000000008
 20
49.99999999999997
 30
0.0
 11
146.0000000000001
 21
49.99999999999997
 31
0.0
  0
LINE
  5
69
330
1E
100
AcDbEntity
  8
HILF
100
AcDbLine
 10
40.00000000000008
 20
39.99999999999997
 30
0.0
 11
146.0000000000001
 21
39.99999999999997
 31
0.0
  0
LINE
  5
6A
330
1E
100
AcDbEntity
  8
HILF
100
AcDbLine
 10
146.0000000000001
 20
69.99999999999994
 30
0.0
 11
230.0
 21
69.99999999999994
 31
0.0
  0
LINE
  5
6B
330
1E
100
AcDbEntity
  8
HILF
100
AcDbLine
 10
146.0000000000001
 20
59.99999999999997
 30
0.0
 11
230.0
 21
59.99999999999997
 31
0.0
  0
LINE
  5
6C
330
1E
100
AcDbEntity
  8
HILF
100
AcDbLine
 10
146.0000000000001
 20
49.99999999999997
 30
0.0
 11
230.0
 21
49.99999999999997
 31
0.0
  0
LINE
  5
6D
330
1E
100
AcDbEntity
  8
HILF
100
AcDbLine
 10
234.7736801096947
 20
84.03758247564139
 30
0.0
 11
324.8353916556311
 21
84.03758247564139
 31
0.0
  0
LINE
  5
6E
330
1E
100
AcDbEntity
  8
HILF
100
AcDbLine
 10
234.7736801096947
 20
69.99999999999994
 30
0.0
 11
324.835391655631
 21
69.99999999999994
 31
0.0
  0
LINE
  5
6F
330
1E
100
AcDbEntity
  8
HILF
100
AcDbLine
 10
234.7736801096947
 20
59.99999999999997
 30
0.0
 11
324.835391655631
 21
59.99999999999997
 31
0.0
  0
LINE
  5
70
330
1E
100
AcDbEntity
  8
HILF
100
AcDbLine
 10
234.7736801096947
 20
49.99999999999997
 30
0.0
 11
324.835391655631
 21
49.99999999999997
 31
0.0
  0
LINE
  5
71
330
1E
100
AcDbEntity
  8
VOLL
100
AcDbLine
 10
332.0
 20
60.0
 30
0.0
 11
410.0
 21
60.0
 31
0.0
  0
LINE
  5
72
330
1E
100
AcDbEntity
  8
HILF
100
AcDbLine
 10
336.7238616296993
 20
83.77983636955827
 30
0.0
 11
404.8588839326728
 21
83.77983636955827
 31
0.0
  0
LINE
  5
73
330
1E
100
AcDbEntity
  8
HILF
100
AcDbLine
 10
233.4909699289885
 20
14.89398258028314
 30
0.0
 11
404.8588839326728
 21
14.89398258028314
 31
0.0
  0
TEXT
  5
74
330
1E
100
AcDbEntity
  8
TEXT
100
AcDbText
 10
67.79509897490102
 20
18.67381894984132
 30
0.0
 40
4.0
  1
Änderung
 41
0.8
  7
GREEKS
 72
     1
 11
78.53795611775817
 21
18.67381894984132
 31
0.0
100
AcDbText
  0
TEXT
  5
75
330
1E
100
AcDbEntity
  8
TEXT
100
AcDbText
 10
153.5163572150377
 20
102.4620895087088
 30
0.0
 40
5.0
  1
Maßstab
 41
0.8
  7
GREEKS
100
AcDbText
  0
TEXT
  5
76
330
1E
100
AcDbEntity
  8
TEXT
100
AcDbText
 10
194.2858954734051
 20
102.4184168434819
 30
0.0
 40
5.0
  1
Zul. Abw.
 41
0.8
  7
GREEKS
100
AcDbText
  0
TEXT
  5
77
330
1E
100
AcDbEntity
  8
TEXT
100
AcDbText
 10
234.877940380901
 20
102.5489328011779
 30
0.0
 40
5.0
  1
Benennung
 41
0.8
  7
GREEKS
100
AcDbText
  0
TEXT
  5
78
330
1E
100
AcDbEntity
  8
TEXT
100
AcDbText
 10
336.178754957634
 20
102.3132034537136
 30
0.0
 40
5.0
  1
Zeichnungs Nr.
 41
0.8
  7
GREEKS
100
AcDbText
  0
TEXT
  5
79
330
1E
100
AcDbEntity
  8
TEXT
100
AcDbText
 10
234.742238391136
 20
30.84560570193057
 30
0.0
 40
5.0
  1
Bauvorhaben
 41
0.8
  7
GREEKS
100
AcDbText
  0
TEXT
  5
7A
330
1E
100
AcDbEntity
  8
TEXT
100
AcDbText
 10
336.7238616296993
 20
73.1811823709997
 30
0.0
 40
5.0
  1
Ersatz für:
 41
0.8
  7
GREEKS
100
AcDbText
  0
TEXT
  5
7B
330
1E
100
AcDbEntity
  8
TEXT
100
AcDbText
 10
48.26641107045756
 20
13.65465846027192
 30
0.0
 40
4.0
  1
Index
 50
90.0
 41
0.8
  7
GREEKS
100
AcDbText
  0
TEXT
  5
7C
330
1E
100
AcDbEntity
  8
TEXT
100
AcDbText
 10
110.6986119235389
 20
18.6715626933981
 30
0.0
 40
4.0
  1
Tag
 41
0.8
  7
GREEKS
 72
     1
 11
114.4319452568723
 21
18.6715626933981
 31
0.0
100
AcDbText
  0
TEXT
  5
7D
330
1E
100
AcDbEntity
  8
TEXT
100
AcDbText
 10
129.0122744386592
 20
18.59324216966408
 30
0.0
 40
4.0
  1
Name
 41
0.8
  7
GREEKS
 72
     1
 11
135.3360839624688
 21
18.59324216966408
 31
0.0
100
AcDbText
  0
TEXT
  5
7E
330
1E
100
AcDbEntity
  8
TEXT
100
AcDbText
 10
172.331167315365
 20
73.31880501229926
 30
0.0
 40
4.0
  1
Tag
 41
0.8
  7
GREEKS
100
AcDbText
  0
TEXT
  5
7F
330
1E
100
AcDbEntity
  8
TEXT
100
AcDbText
 10
202.4626584226295
 20
73.30961091915225
 30
0.0
 40
4.0
  1
Name
 41
0.8
  7
GREEKS
100
AcDbText
  0
TEXT
  5
80
330
1E
100
AcDbEntity
  8
TEXT
100
AcDbText
 10
147.5836127167615
 20
63.62990369617964
 30
0.0
 40
4.0
  1
Gez.
 41
0.8
  7
GREEKS
100
AcDbText
  0
TEXT
  5
81
330
1E
100
AcDbEntity
  8
TEXT
100
AcDbText
 10
147.5515086571672
 20
53.68926291428377
 30
0.0
 40
4.0
  1
Gepr.
 41
0.8
  7
GREEKS
100
AcDbText
  0
TEXT
  5
82
330
1E
100
AcDbEntity
  8
TEXT
100
AcDbText
 10
147.6006777387303
 20
43.52946389649807
 30
0.0
 40
4.0
  1
Norm.
 41
0.8
  7
GREEKS
100
AcDbText
  0
LINE
  5
83
330
1E
100
AcDbEntity
  8
STEMPEL
100
AcDbLine
 10
49.99999999999989
 20
10.0
 30
0.0
 11
410.0
 21
10.0
 31
0.0
  0
TEXT
  5
84
330
1E
100
AcDbEntity
  8
TEXT
100
AcDbText
 10
337.2400861497006
 20
52.07416177878602
 30
0.0
 40
5.0
  1
ersetzt durch:
 41
0.8
  7
GREEKS
100
AcDbText
  0
LINE
  5
85
330
1E
100
AcDbEntity
  8
STEMPEL
100
AcDbLine
 10
410.0
 20
10.0
 30
0.0
 11
39.99999999999989
 21
10.0
 31
0.0
  0
LINE
  5
86
330
1E
100
AcDbEntity
  8
STEMPEL
100
AcDbLine
 10
410.0
 20
10.0
 30
0.0
 11
410.0
 21
584.0
 31
0.0
  0
LINE
  5
87
330
1E
100
AcDbEntity
  8
STEMPEL
100
AcDbLine
 10
40.0
 20
10.0
 30
0.0
 11
39.99999999999989
 21
584.0
 31
0.0
  0
LINE
  5
88
330
1E
100
AcDbEntity
  8
STEMPEL
100
AcDbLine
 10
410.0
 20
584.0
 30
0.0
 11
39.99999999999989
 21
584.0
 31
0.0
  0
LINE
  5
89
330
1E
100
AcDbEntity
  8
HILF
100
AcDbLine
 10
0.0
 20
0.0
 30
0.0
 11
-0.0000000000001137
 21
594.0
 31
0.0
  0
LINE
  5
8A
330
1E
100
AcDbEntity
  8
HILF
100
AcDbLine
 10
419.9999999999999
 20
594.0000000000002
 30
0.0
 11
0.0
 21
594.0
 31
0.0
  0
LINE
  5
8B
330
1E
100
AcDbEntity
  8
HILF
100
AcDbLine
 10
420.0
 20
0.0
 30
0.0
 11
0.0
 21
0.0
 31
0.0
  0
LINE
  5
8C
330
1E
100
AcDbEntity
  8
HILF
100
AcDbLine
 10
31.08767135713856
 20
297.0
 30
0.0
 11
0.0000000000001137
 21
297.0
 31
0.0
  0
TEXT
  5
8D
330
1E
100
AcDbEntity
  8
TEXT
100
AcDbText
 10
148.622109822104
 20
73.14025471151666
 30
0.0
 40
4.0
  1
2007
 41
0.8
  7
GREEKS
100
AcDbText
  0
LINE
  5
8E
330
1E
100
AcDbEntity
  8
HILF
100
AcDbLine
 10
420.0
 20
-0.0000000000001137
 30
0.0
 11
419.9999999999999
 21
594.0
 31
0.0
  0
TEXT
  5
8F
330
1E
100
AcDbEntity
  8
VOLL
100
AcDbText
 10
78.07675471698113
 20
31.02594776470585
 30
0.0
 40
1.8
  1

  7
GREEKS
100
AcDbText
  0
TEXT
  5
90
330
1E
100
AcDbEntity
  8
TEXT
100
AcDbText
 10
41.85509950977674
 20
111.6719999999999
 30
0.0
 40
5.0
  1
Erstellt mit AUTOCAD 2004
 41
0.8
  7
GREEKS
100
AcDbText
  0
TEXT
  5
91
330
1E
100
AcDbEntity
  8
TEXT
100
AcDbText
 10
204.4216048581257
 20
63.0896391972351
 30
0.0
 40
4.0
  1
Koeh
 41
0.8
  7
GREEKS
 72
     1
 11
209.6787477152686
 21
63.0896391972351
 31
0.0
100
AcDbText
  0
TEXT
  5
92
330
1E
100
AcDbEntity
  8
TEXT
 62
     1
100
AcDbText
 10
346.7764207350748
 20
88.14901428913959
 30
0.0
 40
7.0
  1
58030040W
 41
0.8
  7
GREEKS
 72
     1
 11
370.7764207350748
 21
88.14901428913959
 31
0.0
100
AcDbText
  0
TEXT
  5
93
330
1E
100
AcDbEntity
  8
TEXT
 62
     1
100
AcDbText
 10
160.5006306481887
 20
88.14901428913959
 30
0.0
 40
7.0
  1
1:2
 41
0.8
  7
GREEKS
100
AcDbText
  0
TEXT
  5
94
330
1E
100
AcDbEntity
  8
TEXT
100
AcDbText
 10
170.398997108236
 20
63.10765040825732
 30
0.0
 40
4.0
  1
27.09.
 41
0.8
  7
GREEKS
 72
     1
 11
177.4085209177598
 21
63.10765040825732
 31
0.0
100
AcDbText
  0
TEXT
  5
95
330
1E
100
AcDbEntity
  8
TEXT
 62
     1
100
AcDbText
 10
236.8935731057402
 20
87.41748789253779
 30
0.0
 40
7.0
  1
Verbundrohr DN40
 41
0.8
  7
GREEKS
100
AcDbText
  0
TEXT
  5
98
330
1E
100
AcDbEntity
  8
TEXT
100
AcDbText
 10
235.1296391125315
 20
51.64011943042158
 30
0.0
 40
5.0
  1
EDV-Art.Nr. 58030.040X
 41
0.8
  7
GREEKS
100
AcDbText
  0
TEXT
  5
99
330
1E
100
AcDbEntity
  8
TEXT
100
AcDbText
 10
234.9837501577827
 20
42.62974153022632
 30
0.0
 40
4.0
  1
58030040W.DWG
 41
0.8
  7
GREEKS
100
AcDbText
  0
TEXT
  5
9A
330
1E
100
AcDbEntity
  8
TEXT
100
AcDbText
 10
192.626132208084
 20
90.76363841023022
 30
0.0
 40
4.0
  1
DIN EN1123-2
 41
0.8
  7
GREEKS
 72
     1
 11
209.6166083985602
 21
90.76363841023022
 31
0.0
100
AcDbText
  0
INSERT
  5
9B
330
1E
100
AcDbEntity
  8
STEMPEL
100
AcDbBlockReference
  2
LOGO
 10
150.9955485457794
 20
45.02105276448322
 30
0.0
 41
2.0
 42
2.0
 43
2.0
  0
LINE
  5
120
330
1E
100
AcDbEntity
  8
MITTEL
100
AcDbLine
 10
320.8952096610443
 20
391.906737465303
 30
0.0
 11
194.0692587472134
 21
385.2600710224488
 31
0.0
  0
TEXT
  5
124
330
1E
100
AcDbEntity
  8
TEXT
 62
     1
100
AcDbText
 10
239.6771710160817
 20
392.0933596014327
 30
0.0
 40
7.0
  1
DN40
 50
3.0
 41
0.8
  7
GREEKS
100
AcDbText
  0
LINE
  5
14B
330
1E
100
AcDbEntity
  8
MITTEL
100
AcDbLine
 10
194.0692587472134
 20
385.2600710224488
 30
0.0
 11
194.0692587472134
 21
258.2600710224492
 31
0.0
  0
ARC
  5
161
330
1E
100
AcDbEntity
  8
MITTEL
100
AcDbCircle
 10
261.5692587472135
 20
321.2049627691947
 30
0.0
 40
67.5
100
AcDbArc
 50
92.99999999999997
 51
180.0
  0
ARC
  5
162
102
{ACAD_REACTORS
330
4B6
330
4D6
102
}
330
1E
100
AcDbEntity
  8
STEMPEL
100
AcDbCircle
 10
261.5692587472135
 20
321.2049627691947
 30
0.0
 40
88.49999999999999
100
AcDbArc
 50
92.99999999999997
 51
180.0
  0
ARC
  5
163
102
{ACAD_REACTORS
330
4B6
330
4D6
102
}
330
1E
100
AcDbEntity
  8
STEMPEL
100
AcDbCircle
 10
261.5692587472135
 20
321.2049627691947
 30
0.0
 40
46.5
100
AcDbArc
 50
92.99999999999997
 51
180.0
  0
TEXT
  5
210
330
1E
100
AcDbEntity
  8
TEXT
 62
     1
100
AcDbText
 10
230.6016449989698
 20
247.1561348953251
 30
0.0
 40
7.0
  1
Rohrende leicht eingezogen
 41
0.8
  7
GREEKS
100
AcDbText
  0
TEXT
  5
2C0
330
1E
100
AcDbEntity
  8
BEM
100
AcDbText
 10
417.3022923857165
 20
10.16790107998861
 30
0.0
 40
4.0
  1
Diese Zeichnung ist urheberrechtlich geschützt und bleibt unser Eigentum. Sie darf weder ganz noch teilweise verfielfältigt und nicht an Dritte weitergegeben werden.
 50
90.0
 41
0.8
  7
GREEKS
100
AcDbText
  0
ARC
  5
33D
102
{ACAD_REACTORS
330
4B6
102
}
330
1E
100
AcDbEntity
  8
STEMPEL
100
AcDbCircle
 10
309.8398711038079
 20
382.3150006083147
 30
0.0
 40
15.0
100
AcDbArc
 50
273.0
 51
297.999999999992
  0
ARC
  5
33E
102
{ACAD_REACTORS
330
4B6
330
4EA
102
}
330
1E
100
AcDbEntity
  8
STEMPEL
100
AcDbCircle
 10
309.8398711038079
 20
382.3150006083147
 30
0.0
 40
16.5
100
AcDbArc
 50
273.0
 51
296.3592945446355
  0
LINE
  5
33F
102
{ACAD_REACTORS
330
4B6
102
}
330
1E
100
AcDbEntity
  8
STEMPEL
100
AcDbLine
 10
317.0796210027376
 20
369.1758931521105
 30
0.0
 11
316.8819445455962
 21
369.070786715431
 31
0.0
  0
ARC
  5
340
102
{ACAD_REACTORS
330
4B6
102
}
330
1E
100
AcDbEntity
  8
STEMPEL
100
AcDbCircle
 10
304.5728523688076
 20
385.543771063964
 30
0.0
 40
18.49984481626528
100
AcDbArc
 50
254.8060294016172
 51
273.0
  0
ARC
  5
341
102
{ACAD_REACTORS
330
4B6
330
4D6
330
4EA
102
}
330
1E
100
AcDbEntity
  8
STEMPEL
100
AcDbCircle
 10
304.5728523688076
 20
385.543771063964
 30
0.0
 40
19.99984481626531
100
AcDbArc
 50
254.8060294016172
 51
273.0
  0
LINE
  5
342
102
{ACAD_REACTORS
330
4B6
102
}
330
1E
100
AcDbEntity
  8
STEMPEL
100
AcDbLine
 10
305.5410594376129
 20
367.0692796420652
 30
0.0
 11
305.5410675593021
 21
367.0691246710044
 31
0.0
  0
LINE
  5
343
102
{ACAD_REACTORS
330
4B6
330
4EA
102
}
330
1E
100
AcDbEntity
  8
STEMPEL
100
AcDbLine
 10
305.6195633719773
 20
365.5713353399333
 30
0.0
 11
305.6195714936665
 21
365.5711803688725
 31
0.0
  0
LINE
  5
344
102
{ACAD_REACTORS
330
4B6
102
}
330
1E
100
AcDbEntity
  8
STEMPEL
100
AcDbLine
 10
310.624910447452
 20
367.3355575869962
 30
0.0
 11
305.5410675593021
 21
367.0691246710044
 31
0.0
  0
LINE
  5
345
102
{ACAD_REACTORS
330
4B6
330
4EA
102
}
330
1E
100
AcDbEntity
  8
STEMPEL
100
AcDbLine
 10
310.7034143818162
 20
365.8376132848643
 30
0.0
 11
305.6195714936665
 21
365.5711803688725
 31
0.0
  0
LINE
  5
346
102
{ACAD_REACTORS
330
4D6
330
4EA
102
}
330
1E
100
AcDbEntity
  8
STEMPEL
100
AcDbLine
 10
304.1664610235297
 20
348.0711472557161
 30
0.0
 11
303.2484508029576
 21
365.587825755183
 31
0.0
  0
ARC
  5
347
102
{ACAD_REACTORS
330
4B6
330
4D6
102
}
330
1E
100
AcDbEntity
  8
STEMPEL
100
AcDbCircle
 10
291.4910965684283
 20
376.3465203523607
 30
0.0
 40
10.0
100
AcDbArc
 50
237.3409123038598
 51
273.0
  0
LINE
  5
348
102
{ACAD_REACTORS
330
4B6
330
4D6
102
}
330
1E
100
AcDbEntity
  8
STEMPEL
100
AcDbLine
 10
296.186904707256
 20
366.5788937688768
 30
0.0
 11
292.0144561308577
 21
366.3602250048151
 31
0.0
  0
LINE
  5
349
102
{ACAD_REACTORS
330
4B6
102
}
330
1E
100
AcDbEntity
  8
STEMPEL
100
AcDbLine
 10
296.1084007728915
 20
368.0768380710086
 30
0.0
 11
291.9359521964933
 21
367.8581693069469
 31
0.0
  0
ARC
  5
34A
102
{ACAD_REACTORS
330
4B6
102
}
330
1E
100
AcDbEntity
  8
STEMPEL
100
AcDbCircle
 10
291.4910965684283
 20
376.3465203523607
 30
0.0
 40
8.5
100
AcDbArc
 50
237.3409123038598
 51
273.0
  0
ARC
  5
34B
102
{ACAD_REACTORS
330
4B6
330
4D6
102
}
330
1E
100
AcDbEntity
  8
STEMPEL
100
AcDbCircle
 10
282.8568677953209
 20
362.8761790985674
 30
0.0
 40
6.0
100
AcDbArc
 50
57.34091230385979
 51
93.0
  0
ARC
  5
34C
102
{ACAD_REACTORS
330
4B6
102
}
330
1E
100
AcDbEntity
  8
STEMPEL
100
AcDbCircle
 10
282.8568677953209
 20
362.8761790985674
 30
0.0
 40
7.5
100
AcDbArc
 50
57.34091230385979
 51
93.0
  0
ARC
  5
34D
102
{ACAD_REACTORS
330
4B6
102
}
330
1E
100
AcDbEntity
  8
STEMPEL
100
AcDbCircle
 10
296.7102642696854
 20
356.5925984213309
 30
0.0
 40
11.5
100
AcDbArc
 50
74.80602940161721
 51
93.0
  0
ARC
  5
34E
102
{ACAD_REACTORS
330
4B6
330
4D6
102
}
330
1E
100
AcDbEntity
  8
STEMPEL
100
AcDbCircle
 10
296.7102642696854
 20
356.5925984213309
 30
0.0
 40
10.0
100
AcDbArc
 50
74.80602940161721
 51
93.0
  0
LINE
  5
34F
102
{ACAD_REACTORS
330
4B6
102
}
330
1E
100
AcDbEntity
  8
STEMPEL
100
AcDbLine
 10
282.4643481234988
 20
370.3659006092269
 30
0.0
 11
259.0571328475521
 21
369.1391804374145
 31
0.0
  0
LINE
  5
350
102
{ACAD_REACTORS
330
4B6
330
4D6
102
}
330
1E
100
AcDbEntity
  8
STEMPEL
100
AcDbLine
 10
282.5428520578634
 20
368.867956307095
 30
0.0
 11
259.1356367819165
 21
367.6412361352825
 31
0.0
  0
LINE
  5
352
102
{ACAD_REACTORS
330
50A
330
7BA
102
}
330
1E
100
AcDbEntity
  8
STEMPEL
100
AcDbLine
 10
318.2310120400824
 20
347.2060433875098
 30
0.0
 11
251.2020376806484
 21
343.693203693712
 31
0.0
  0
LINE
  5
353
102
{ACAD_REACTORS
330
4D6
330
4EA
330
50A
102
}
330
1E
100
AcDbEntity
  8
STEMPEL
100
AcDbLine
 10
318.1472745100938
 20
348.8038506431173
 30
0.0
 11
250.480839693409
 21
345.2576030623741
 31
0.0
  0
LINE
  5
354
102
{ACAD_REACTORS
330
4B6
102
}
330
1E
100
AcDbEntity
  8
STEMPEL
100
AcDbLine
 10
314.7245029718051
 20
414.1142222160663
 30
0.0
 11
314.5169227926734
 21
414.198090052399
 31
0.0
  0
ARC
  5
355
102
{ACAD_REACTORS
330
4B6
330
4EA
102
}
330
1E
100
AcDbEntity
  8
STEMPEL
100
AcDbCircle
 10
308.8978238914349
 20
400.2903322338971
 30
0.0
 40
16.5
100
AcDbArc
 50
69.64070545536444
 51
93.0
  0
ARC
  5
356
102
{ACAD_REACTORS
330
4B6
330
4D6
330
4EA
102
}
330
1E
100
AcDbEntity
  8
STEMPEL
100
AcDbCircle
 10
303.9971568501352
 20
396.5286959462643
 30
0.0
 40
19.99984481626531
100
AcDbArc
 50
93.0
 51
111.1939705983828
  0
LINE
  5
357
102
{ACAD_REACTORS
330
4B6
330
4EA
102
}
330
1E
100
AcDbEntity
  8
STEMPEL
100
AcDbLine
 10
302.9504458469654
 20
416.501131670295
 30
0.0
 11
302.9504377252763
 21
416.5012866413558
 31
0.0
  0
LINE
  5
358
102
{ACAD_REACTORS
330
4B6
102
}
330
1E
100
AcDbEntity
  8
STEMPEL
100
AcDbLine
 10
303.0289497813299
 20
415.0031873681632
 30
0.0
 11
303.0289416596407
 21
415.003342339224
 31
0.0
  0
LINE
  5
359
102
{ACAD_REACTORS
330
4B6
330
4EA
102
}
330
1E
100
AcDbEntity
  8
STEMPEL
100
AcDbLine
 10
308.0342806134261
 20
416.7677195573475
 30
0.0
 11
302.9504377252763
 21
416.5012866413558
 31
0.0
  0
LINE
  5
35A
102
{ACAD_REACTORS
330
4B6
102
}
330
1E
100
AcDbEntity
  8
STEMPEL
100
AcDbLine
 10
308.1127845477908
 20
415.2697752552158
 30
0.0
 11
303.0289416596407
 21
415.003342339224
 31
0.0
  0
ARC
  5
35B
102
{ACAD_REACTORS
330
4B6
102
}
330
1E
100
AcDbEntity
  8
STEMPEL
100
AcDbCircle
 10
303.9971568501352
 20
396.5286959462643
 30
0.0
 40
18.49984481626528
100
AcDbArc
 50
93.0
 51
111.1939705983828
  0
ARC
  5
35C
102
{ACAD_REACTORS
330
4B6
102
}
330
1E
100
AcDbEntity
  8
STEMPEL
100
AcDbCircle
 10
308.8978238914349
 20
400.2903322338971
 30
0.0
 40
15.0
100
AcDbArc
 50
68.00000000000792
 51
93.0
  0
LINE
  5
35D
102
{ACAD_REACTORS
330
4D6
330
4EA
102
}
330
1E
100
AcDbEntity
  8
STEMPEL
100
AcDbLine
 10
300.594046198457
 20
416.2368828381915
 30
0.0
 11
299.676035977885
 21
433.7535613376586
 31
0.0
  0
ARC
  5
35E
102
{ACAD_REACTORS
330
4B6
102
}
330
1E
100
AcDbEntity
  8
STEMPEL
100
AcDbCircle
 10
290.0256897936259
 20
404.3081473254887
 30
0.0
 40
8.5
100
AcDbArc
 50
93.0
 51
128.6590876961402
  0
LINE
  5
35F
102
{ACAD_REACTORS
330
4B6
102
}
330
1E
100
AcDbEntity
  8
STEMPEL
100
AcDbLine
 10
293.753282741959
 20
413.0151671349644
 30
0.0
 11
289.5808341655607
 21
412.7964983709027
 31
0.0
  0
ARC
  5
360
102
{ACAD_REACTORS
330
4B6
102
}
330
1E
100
AcDbEntity
  8
STEMPEL
100
AcDbCircle
 10
280.030726158202
 20
416.8021739753144
 30
0.0
 40
7.5
100
AcDbArc
 50
273.0
 51
308.6590876961402
  0
ARC
  5
361
102
{ACAD_REACTORS
330
4B6
330
4D6
102
}
330
1E
100
AcDbEntity
  8
STEMPEL
100
AcDbCircle
 10
280.030726158202
 20
416.8021739753144
 30
0.0
 40
6.0
100
AcDbArc
 50
273.0
 51
308.6590876961402
  0
LINE
  5
362
102
{ACAD_REACTORS
330
4B6
330
4D6
102
}
330
1E
100
AcDbEntity
  8
STEMPEL
100
AcDbLine
 10
293.6747788075946
 20
414.5131114370963
 30
0.0
 11
289.5023302311964
 21
414.2944426730346
 31
0.0
  0
ARC
  5
363
102
{ACAD_REACTORS
330
4B6
330
4D6
102
}
330
1E
100
AcDbEntity
  8
STEMPEL
100
AcDbCircle
 10
290.0256897936259
 20
404.3081473254887
 30
0.0
 40
10.0
100
AcDbArc
 50
93.0
 51
128.6590876961402
  0
ARC
  5
364
102
{ACAD_REACTORS
330
4B6
330
4D6
102
}
330
1E
100
AcDbEntity
  8
STEMPEL
100
AcDbCircle
 10
293.1514192451652
 20
424.4994067846419
 30
0.0
 40
10.0
100
AcDbArc
 50
273.0
 51
291.1939705983828
  0
ARC
  5
365
102
{ACAD_REACTORS
330
4B6
102
}
330
1E
100
AcDbEntity
  8
STEMPEL
100
AcDbCircle
 10
293.1514192451652
 20
424.4994067846419
 30
0.0
 40
11.5
100
AcDbArc
 50
273.0
 51
291.1939705983828
  0
LINE
  5
366
102
{ACAD_REACTORS
330
4B6
330
4D6
102
}
330
1E
100
AcDbEntity
  8
STEMPEL
100
AcDbLine
 10
280.3447418956597
 20
410.8103967667871
 30
0.0
 11
256.9375266197128
 21
409.5836765949746
 31
0.0
  0
LINE
  5
367
102
{ACAD_REACTORS
330
4B6
102
}
330
1E
100
AcDbEntity
  8
STEMPEL
100
AcDbLine
 10
280.423245830024
 20
409.3124524646552
 30
0.0
 11
257.0160305540773
 21
408.0857322928427
 31
0.0
  0
LINE
  5
368
102
{ACAD_REACTORS
330
50A
330
7B1
102
}
330
1E
100
AcDbEntity
  8
STEMPEL
100
AcDbLine
 10
313.5731119344604
 20
436.084071980667
 30
0.0
 11
211.0853996404612
 21
430.7129185755392
 31
0.0
  0
LINE
  5
369
102
{ACAD_REACTORS
330
4D6
330
4EA
330
50A
102
}
330
1E
100
AcDbEntity
  8
STEMPEL
100
AcDbLine
 10
313.656849464449
 20
434.4862647250598
 30
0.0
 11
211.8065976277004
 21
429.1485192068771
 31
0.0
  0
LINE
  5
36A
330
1E
100
AcDbEntity
  8
HILF
100
AcDbLine
 10
282.7794084395047
 20
408.2321829766931
 30
0.0
 11
284.6946845181839
 21
371.6865383246811
 31
0.0
  0
LINE
  5
36B
330
1E
100
AcDbEntity
  8
HILF
100
AcDbLine
 10
287.0865843444657
 20
410.6612299755666
 30
0.0
 11
289.2321698128674
 21
369.7210203777919
 31
0.0
  0
LINE
  5
36C
330
1E
100
AcDbEntity
  8
HILF
100
AcDbLine
 10
295.6408277328934
 20
411.7399849567838
 30
0.0
 11
297.8523127613969
 21
369.5423368450436
 31
0.0
  0
LINE
  5
36D
102
{ACAD_REACTORS
330
4B6
330
4EA
330
50A
102
}
330
1E
100
AcDbEntity
  8
STEMPEL
100
AcDbLine
 10
318.2310120400824
 20
347.2060433875098
 30
0.0
 11
313.5731119344604
 21
436.084071980667
 31
0.0
  0
DIMENSION
  5
370
330
1E
100
AcDbEntity
  8
BEM
100
AcDbDimension
  2
*D1
 10
330.3151080806965
 20
347.8393440256413
 30
0.0
 11
334.4772500037909
 21
392.618542037799
 31
0.0
 70
    32
  1
%%c<>
 71
     5
 42
89.00000000000018
  3
Standard
100
AcDbAlignedDimension
 13
313.5731119344604
 23
436.084071980667
 33
0.0
 14
318.2310120400824
 24
347.2060433875098
 34
0.0
 50
272.9999999999991
100
AcDbRotatedDimension
1001
ACAD
1000
DSTYLE
1002
{
1070
    40
1040
2.0
1070
    41
1040
3.5
1070
    42
1040
1.0
1070
    43
1040
7.0
1070
    44
1040
1.0
1070
    73
1070
     0
1070
    74
1070
     0
1070
    77
1070
     1
1070
    78
1070
     8
1070
    79
1070
     2
1070
   140
1040
3.5
1070
   141
1040
1.5
1070
   146
1040
0.5142857142857144
1070
   147
1040
1.5
1070
   172
1070
     1
1070
   178
1070
     1
1070
   179
1070
     2
1070
   271
1070
     2
1070
   272
1070
     2
1070
   284
1070
     8
1070
   285
1070
     8
1070
   286
1070
     8
1070
   289
1070
     0
1070
   340
1005
24
1002
}
  0
LINE
  5
426
330
1E
100
AcDbEntity
  8
STEMPEL
100
AcDbLine
 10
215.0692587472135
 20
294.2600710224492
 30
0.0
 11
218.5692587472134
 21
294.2600710224492
 31
0.0
  0
LINE
  5
427
102
{ACAD_REACTORS
330
4D6
102
}
330
1E
100
AcDbEntity
  8
STEMPEL
100
AcDbLine
 10
215.0692587472135
 20
304.2600710224491
 30
0.0
 11
236.9692587472133
 21
304.2600710224491
 31
0.0
  0
LINE
  5
428
102
{ACAD_REACTORS
330
4B6
102
}
330
1E
100
AcDbEntity
  8
STEMPEL
100
AcDbLine
 10
215.0692587472134
 20
268.1945796080868
 30
0.0
 11
214.6375451858989
 21
263.2600710224493
 31
0.0
  0
LINE
  5
429
102
{ACAD_REACTORS
330
4B6
102
}
330
1E
100
AcDbEntity
  8
STEMPEL
100
AcDbLine
 10
213.5692587472132
 20
268.2600710224481
 30
0.0
 11
213.1318154295837
 21
263.2600710224492
 31
0.0
  0
LINE
  5
42A
102
{ACAD_REACTORS
330
517
102
}
330
1E
100
AcDbEntity
  8
STEMPEL
100
AcDbLine
 10
238.5692587472138
 20
288.2600710224494
 30
0.0
 11
236.9692587472132
 21
288.2600710224494
 31
0.0
  0
LINE
  5
42C
330
1E
100
AcDbEntity
  8
STEMPEL
100
AcDbLine
 10
169.5692587472134
 20
294.2600710224492
 30
0.0
 11
173.0692587472133
 21
294.2600710224492
 31
0.0
  0
LINE
  5
42D
102
{ACAD_REACTORS
330
4D6
102
}
330
1E
100
AcDbEntity
  8
STEMPEL
100
AcDbLine
 10
151.1692587472134
 20
304.2600710224491
 30
0.0
 11
173.0692587472133
 21
304.2600710224491
 31
0.0
  0
LINE
  5
42E
102
{ACAD_REACTORS
330
4B6
102
}
330
1E
100
AcDbEntity
  8
STEMPEL
100
AcDbLine
 10
174.5692587472134
 20
268.2600710224493
 30
0.0
 11
175.0067020648431
 21
263.2600710224492
 31
0.0
  0
LINE
  5
42F
102
{ACAD_REACTORS
330
4B6
102
}
330
1E
100
AcDbEntity
  8
STEMPEL
100
AcDbLine
 10
173.0692587472134
 20
268.194579608088
 30
0.0
 11
173.5009723085281
 21
263.2600710224492
 31
0.0
  0
LINE
  5
430
102
{ACAD_REACTORS
330
517
102
}
330
1E
100
AcDbEntity
  8
STEMPEL
100
AcDbLine
 10
151.1692587472134
 20
288.2600710224492
 30
0.0
 11
149.5692587472136
 21
288.2600710224492
 31
0.0
  0
LINE
  5
432
102
{ACAD_REACTORS
330
4B6
102
}
330
1E
100
AcDbEntity
  8
STEMPEL
100
AcDbLine
 10
173.5009723085281
 20
263.2600710224492
 30
0.0
 11
214.6375451858989
 21
263.2600710224493
 31
0.0
  0
LINE
  5
433
330
1E
100
AcDbEntity
  8
HILF
100
AcDbLine
 10
176.0749885035285
 20
268.2600710224492
 30
0.0
 11
212.0635289908984
 21
268.2600710224492
 31
0.0
  0
DIMENSION
  5
435
330
1E
100
AcDbEntity
  8
BEM
100
AcDbDimension
  2
*D2
 10
215.0692587472134
 20
242.8996472306732
 30
0.0
 11
194.0692587472134
 21
249.3996472306732
 31
0.0
 70
    32
  1
%%c<>
 71
     5
 42
42.0
  3
Standard
100
AcDbAlignedDimension
 13
173.0692587472134
 23
268.194579608088
 33
0.0
 14
215.0692587472134
 24
268.1945796080868
 34
0.0
100
AcDbRotatedDimension
1001
ACAD
1000
DSTYLE
1002
{
1070
    40
1040
2.0
1070
    41
1040
3.5
1070
    42
1040
1.0
1070
    43
1040
7.0
1070
    44
1040
1.0
1070
    73
1070
     0
1070
    74
1070
     0
1070
    77
1070
     1
1070
    78
1070
     8
1070
    79
1070
     2
1070
   140
1040
3.5
1070
   141
1040
1.5
1070
   146
1040
0.5142857142857144
1070
   147
1040
1.5
1070
   172
1070
     1
1070
   178
1070
     1
1070
   179
1070
     2
1070
   271
1070
     2
1070
   272
1070
     2
1070
   284
1070
     8
1070
   285
1070
     8
1070
   286
1070
     8
1070
   289
1070
     0
1070
   340
1005
24
1002
}
  0
LINE
  5
436
102
{ACAD_REACTORS
330
4B6
102
}
330
1E
100
AcDbEntity
  8
STEMPEL
100
AcDbLine
 10
213.5692587472132
 20
321.2049627691948
 30
0.0
 11
213.5692587472132
 21
268.2600710224481
 31
0.0
  0
LINE
  5
438
102
{ACAD_REACTORS
330
517
102
}
330
1E
100
AcDbEntity
  8
STEMPEL
100
AcDbLine
 10
238.5692587472133
 20
330.38103232659
 30
0.0
 11
238.5692587472133
 21
286.2600710224493
 31
0.0
  0
LINE
  5
439
102
{ACAD_REACTORS
330
4D6
330
517
102
}
330
1E
100
AcDbEntity
  8
STEMPEL
100
AcDbLine
 10
236.9692587472133
 20
331.0193676001481
 30
0.0
 11
236.9692587472133
 21
288.2600710224494
 31
0.0
  0
LINE
  5
43A
102
{ACAD_REACTORS
330
4B6
330
4D6
102
}
330
1E
100
AcDbEntity
  8
STEMPEL
100
AcDbLine
 10
173.0692587472134
 20
321.2049627691947
 30
0.0
 11
173.0692587472134
 21
268.194579608088
 31
0.0
  0
LINE
  5
43B
102
{ACAD_REACTORS
330
4B6
102
}
330
1E
100
AcDbEntity
  8
STEMPEL
100
AcDbLine
 10
174.5692587472134
 20
321.2049627691947
 30
0.0
 11
174.5692587472134
 21
268.2600710224493
 31
0.0
  0
LINE
  5
43C
102
{ACAD_REACTORS
330
517
102
}
330
1E
100
AcDbEntity
  8
STEMPEL
100
AcDbLine
 10
149.5692587472134
 20
365.8884319182513
 30
0.0
 11
149.5692587472134
 21
286.2600710224492
 31
0.0
  0
LINE
  5
43D
102
{ACAD_REACTORS
330
4D6
330
517
102
}
330
1E
100
AcDbEntity
  8
STEMPEL
100
AcDbLine
 10
151.1692587472134
 20
365.2500966446933
 30
0.0
 11
151.1692587472134
 21
288.2600710224492
 31
0.0
  0
LINE
  5
468
102
{ACAD_REACTORS
330
4D6
330
524
102
}
330
1E
100
AcDbEntity
  8
STEMPEL
100
AcDbLine
 10
211.8065976277004
 20
429.1485192068771
 30
0.0
 11
151.1692587472134
 21
365.2500966446933
 31
0.0
  0
LINE
  5
469
102
{ACAD_REACTORS
330
524
330
7B1
102
}
330
1E
100
AcDbEntity
  8
STEMPEL
100
AcDbLine
 10
211.0853996404612
 20
430.7129185755392
 30
0.0
 11
149.5692587472134
 21
365.8884319182513
 31
0.0
  0
LINE
  5
46C
102
{ACAD_REACTORS
330
4D6
330
524
102
}
330
1E
100
AcDbEntity
  8
STEMPEL
100
AcDbLine
 10
250.480839693409
 20
345.2576030623741
 30
0.0
 11
236.9692587472133
 21
331.0193676001481
 31
0.0
  0
LINE
  5
46D
102
{ACAD_REACTORS
330
524
330
7BA
102
}
330
1E
100
AcDbEntity
  8
STEMPEL
100
AcDbLine
 10
251.2020376806484
 20
343.693203693712
 30
0.0
 11
238.5692587472133
 21
330.38103232659
 31
0.0
  0
LINE
  5
472
102
{ACAD_REACTORS
330
4B6
330
4D6
102
}
330
1E
100
AcDbEntity
  8
STEMPEL
100
AcDbLine
 10
215.0692587472134
 20
321.2049627691947
 30
0.0
 11
215.0692587472134
 21
268.1945796080868
 31
0.0
  0
ARC
  5
473
102
{ACAD_REACTORS
330
4B6
102
}
330
1E
100
AcDbEntity
  8
STEMPEL
100
AcDbCircle
 10
261.5692587472135
 20
321.2049627691947
 30
0.0
 40
48.0
100
AcDbArc
 50
92.99999999999997
 51
180.0
  0
ARC
  5
474
102
{ACAD_REACTORS
330
4B6
102
}
330
1E
100
AcDbEntity
  8
STEMPEL
100
AcDbCircle
 10
261.5692587472135
 20
321.2049627691947
 30
0.0
 40
87.0
100
AcDbArc
 50
92.99999999999997
 51
180.0
  0
LINE
  5
476
330
1E
100
AcDbEntity
  8
MITTEL
100
AcDbLine
 10
231.1437186605545
 20
387.2030611346253
 30
0.0
 11
194.0692587472134
 21
348.1347321224208
 31
0.0
  0
LINE
  5
477
102
{ACAD_REACTORS
330
50A
330
524
102
}
330
1E
100
AcDbEntity
  8
STEMPEL
100
AcDbLine
 10
211.0853996404612
 20
430.7129185755392
 30
0.0
 11
211.8065976277005
 21
429.1485192068772
 31
0.0
  0
LINE
  5
478
102
{ACAD_REACTORS
330
517
330
524
102
}
330
1E
100
AcDbEntity
  8
STEMPEL
100
AcDbLine
 10
238.5692587472133
 20
330.38103232659
 30
0.0
 11
236.9692587472131
 21
331.019367600148
 31
0.0
  0
LINE
  5
479
102
{ACAD_REACTORS
330
50A
330
524
102
}
330
1E
100
AcDbEntity
  8
STEMPEL
100
AcDbLine
 10
250.4808396934091
 20
345.2576030623741
 30
0.0
 11
251.2020376806484
 21
343.693203693712
 31
0.0
  0
LINE
  5
47A
102
{ACAD_REACTORS
330
517
330
524
102
}
330
1E
100
AcDbEntity
  8
STEMPEL
100
AcDbLine
 10
151.1692587472134
 20
365.2500966446933
 30
0.0
 11
149.5692587472134
 21
365.8884319182513
 31
0.0
  0
HATCH
  5
4B6
330
1E
100
AcDbEntity
  8
SCHRAFF
100
AcDbHatch
 10
0.0
 20
0.0
 30
0.0
210
0.0
220
0.0
230
1.0
  2
_USER
 70
     0
 71
     1
 91
        2
 92
        7
 72
     1
 73
     1
 93
       27
 10
174.5692587472134
 20
321.2049627691947
 42
-0.3989595459737198
 10
257.0160305540773
 20
408.0857322928427
 42
0.0
 10
280.423245830024
 20
409.3124524646552
 42
0.1568599726813053
 10
284.7158653623071
 20
410.9455989832087
 42
-0.1568599726812915
 10
289.5808341655607
 20
412.7964983709027
 42
0.0
 10
293.753282741959
 20
413.0151671349644
 42
0.0795533624515068
 10
297.3089734998971
 20
413.7772454997628
 42
-0.079553362451497
 10
303.0289497813299
 20
415.0031873681631
 42
0.0
 10
303.0289416596407
 20
415.0033423392239
 42
0.0
 10
308.1127845477908
 20
415.2697752552158
 42
-0.1095178116832386
 10
314.5169227926734
 20
414.198090052399
 42
0.0
 10
314.7245029718052
 20
414.1142222160662
 42
0.0
 10
314.6382740932748
 20
415.7595672337345
 42
0.1022785704675299
 10
308.0342806134262
 20
416.7677195573475
 42
0.0
 10
302.9504377252763
 20
416.5012866413558
 42
0.0
 10
302.9504458469654
 20
416.501131670295
 42
0.0795533624514986
 10
296.7666838144972
 20
415.1757882760514
 42
-0.0795533624515088
 10
293.6747788075944
 20
414.5131114370963
 42
0.0
 10
289.5023302311964
 20
414.2944426730346
 42
0.1568599726812968
 10
283.778837521486
 20
412.1169139816299
 42
-0.1568599726812996
 10
280.3447418956597
 20
410.8103967667871
 42
0.0
 10
256.9375266197128
 20
409.5836765949746
 42
0.3989595459737191
 10
173.0692587472134
 20
321.2049627691949
 42
0.0
 10
173.0692587472134
 20
268.1945796080879
 42
0.0
 10
173.5009723085281
 20
263.2600710224492
 42
0.0
 10
175.006702064843
 20
263.2600710224492
 42
0.0
 10
174.5692587472134
 20
268.2600710224495
 42
0.0
 97
       27
330
474
330
367
330
360
330
35E
330
35F
330
365
330
35B
330
358
330
35A
330
35C
330
354
330
36D
330
355
330
359
330
357
330
356
330
364
330
362
330
363
330
361
330
366
330
162
330
43A
330
42F
330
432
330
42E
330
43B
 92
        7
 72
     1
 73
     1
 93
       27
 10
215.0692587472134
 20
321.2049627691947
 42
-0.3989595459737205
 10
259.1356367819165
 20
367.6412361352825
 42
0.0
 10
282.5428520578634
 20
368.867956307095
 42
-0.156859972681302
 10
286.0947035852363
 20
367.9275570687398
 42
0.1568599726812928
 10
292.0144561308577
 20
366.3602250048151
 42
0.0
 10
296.186904707256
 20
366.5788937688768
 42
-0.0795533624514917
 10
299.331140526638
 20
366.2430392219235
 42
0.0795533624515047
 10
305.6195633719773
 20
365.5713353399333
 42
0.0
 10
305.6195714936665
 20
365.5711803688725
 42
0.0
 10
310.7034143818162
 20
365.8376132848643
 42
0.102278570467532
 10
317.1658498812681
 20
367.5305481344419
 42
0.0
 10
317.0796210027376
 20
369.1758931521107
 42
0.0
 10
316.8819445455962
 20
369.070786715431
 42
-0.1095178116832489
 10
310.6249104474516
 20
367.3355575869962
 42
0.0
 10
305.5410675593021
 20
367.0691246710044
 42
0.0
 10
305.5410594376129
 20
367.0692796420652
 42
-0.0795533624514929
 10
299.7242719651818
 20
367.6906053420122
 42
0.0795533624515099
 10
296.1084007728917
 20
368.0768380710086
 42
0.0
 10
291.9359521964933
 20
367.8581693069469
 42
-0.1568599726813034
 10
286.9041625327149
 20
369.1904015612831
 42
0.1568599726812952
 10
282.4643481234989
 20
370.3659006092269
 42
0.0
 10
259.0571328475521
 20
369.1391804374145
 42
0.3989595459737205
 10
213.5692587472132
 20
321.2049627691949
 42
0.0
 10
213.5692587472131
 20
268.2600710224481
 42
0.0
 10
213.1318154295837
 20
263.2600710224493
 42
0.0
 10
214.6375451858989
 20
263.2600710224492
 42
0.0
 10
215.0692587472134
 20
268.1945796080868
 42
0.0
 97
       27
330
163
330
350
330
34B
330
347
330
348
330
34E
330
341
330
343
330
345
330
33E
330
36D
330
33F
330
33D
330
344
330
342
330
340
330
34D
330
349
330
34A
330
34C
330
34F
330
473
330
436
330
429
330
432
330
428
330
472
 75
     0
 76
     0
 52
135.0
 41
2.0
 77
     0
 78
     1
 53
135.0
 43
9.12817564621082
 44
-1.287331057819528
 45
-1.414213562373095
 46
-1.414213562373094
 79
     0
 47
0.5077516740493674
 98
        2
 10
173.8930660125238
 20
305.4671626684017
 10
214.5419298041588
 20
310.0369281921558
  0
HATCH
  5
4D6
330
1E
100
AcDbEntity
  8
SCHRAFF
100
AcDbHatch
 10
0.0
 20
0.0
 30
0.0
210
0.0
220
0.0
230
1.0
  2
HONEY
 70
     0
 71
     1
 91
        2
 92
        7
 72
     1
 73
     1
 93
       13
 10
256.9375266197128
 20
409.5836765949746
 42
0.0
 10
280.3447418956597
 20
410.8103967667871
 42
0.1568599726813019
 10
283.7788375214861
 20
412.1169139816299
 42
-0.1568599726812954
 10
289.5023302311964
 20
414.2944426730346
 42
0.0
 10
293.6747788075946
 20
414.5131114370963
 42
0.0795533624515032
 10
296.7666838144972
 20
415.1757882760514
 42
-0.0497699651211738
 10
300.594046198457
 20
416.2368828381914
 42
0.0
 10
299.676035977885
 20
433.7535613376586
 42
0.0
 10
211.8065976277004
 20
429.1485192068772
 42
0.0
 10
151.1692587472134
 20
365.2500966446933
 42
0.0
 10
151.1692587472134
 20
304.2600710224491
 42
0.0
 10
173.0692587472133
 20
304.2600710224491
 42
0.0
 10
173.0692587472134
 20
321.2049627691947
 42
-0.3989595459737197
 97
       13
330
356
330
35D
330
369
330
468
330
43D
330
42D
330
43A
330
162
330
366
330
361
330
363
330
362
330
364
 92
        7
 72
     1
 73
     1
 93
       13
 10
215.0692587472134
 20
321.2049627691947
 42
0.0
 10
215.0692587472134
 20
304.260071022449
 42
0.0
 10
236.9692587472132
 20
304.2600710224491
 42
0.0
 10
236.9692587472132
 20
331.0193676001481
 42
0.0
 10
250.480839693409
 20
345.2576030623741
 42
0.0
 10
304.1664610235297
 20
348.0711472557161
 42
0.0
 10
303.2484508029576
 20
365.5878257551827
 42
-0.0497699651211685
 10
299.3311405266389
 20
366.2430392219233
 42
0.0795533624515153
 10
296.186904707256
 20
366.5788937688768
 42
0.0
 10
292.0144561308577
 20
366.3602250048151
 42
-0.1568599726813003
 10
286.094703585236
 20
367.92755706874
 42
0.1568599726812895
 10
282.5428520578634
 20
368.867956307095
 42
0.0
 10
259.1356367819165
 20
367.6412361352825
 42
0.3989595459737205
 97
       13
330
341
330
34E
330
348
330
347
330
34B
330
350
330
163
330
472
330
427
330
439
330
46C
330
353
330
346
 75
     0
 76
     1
 52
0.0
 41
30.0
 77
     0
 78
     3
 53
0.0
 43
9.12817564621082
 44
-1.287331057819528
 45
5.625
 46
3.247595249999999
 79
     2
 49
3.75
 49
-7.5
 53
120.0
 43
9.12817564621082
 44
-1.287331057819528
 45
-5.624999987709673
 46
3.247595271287468
 79
     2
 49
3.749999999999999
 49
-7.499999999999998
 53
60.0
 43
9.12817564621082
 44
-1.287331057819528
 45
0.0000000122903263
 46
6.495190521287468
 79
     2
 49
-7.5
 49
3.75
 47
0.5077516740493674
 98
        2
 10
250.6177951732302
 20
415.1415254421526
 10
252.1421288787724
 20
360.3043433555383
  0
HATCH
  5
4EA
330
1E
100
AcDbEntity
  8
SCHRAFF
100
AcDbHatch
 10
0.0
 20
0.0
 30
0.0
210
0.0
220
0.0
230
1.0
  2
NET
 70
     0
 71
     1
 91
        2
 92
        7
 72
     1
 73
     1
 93
        7
 10
313.6568494644491
 20
434.4862647250598
 42
0.0
 10
299.676035977885
 20
433.7535613376585
 42
0.0
 10
300.594046198457
 20
416.2368828381914
 42
-0.0296659389587112
 10
302.9504458469654
 20
416.5011316702949
 42
0.0
 10
302.9504377252763
 20
416.5012866413556
 42
0.0
 10
308.0342806134261
 20
416.7677195573475
 42
-0.1022785704675316
 10
314.6382740932747
 20
415.7595672337345
 42
0.0
 97
        7
330
369
330
35D
330
356
330
357
330
359
330
355
330
36D
 92
        7
 72
     1
 73
     1
 93
        7
 10
304.1664610235297
 20
348.0711472557161
 42
0.0
 10
318.1472745100937
 20
348.8038506431173
 42
0.0
 10
317.1658498812681
 20
367.5305481344419
 42
-0.1022785704675262
 10
310.7034143818166
 20
365.8376132848643
 42
0.0
 10
305.6195714936666
 20
365.5711803688725
 42
0.0
 10
305.6195633719773
 20
365.5713353399333
 42
-0.0296659389587111
 10
303.2484508029576
 20
365.5878257551828
 42
0.0
 97
        7
330
33E
330
345
330
343
330
341
330
346
330
353
330
36D
 75
     0
 76
     1
 52
45.0
 41
15.0
 77
     0
 78
     2
 53
45.0
 43
9.12817564621082
 44
-1.287331057819528
 45
-1.325825214724776
 46
1.325825214724776
 79
     0
 53
135.0
 43
9.12817564621082
 44
-1.287331057819528
 45
-1.325825214724776
 46
-1.325825214724776
 79
     0
 47
0.5077516740493674
 98
        2
 10
308.5424247966293
 20
425.2965582289109
 10
310.0667585021715
 20
355.2268276618982
  0
HATCH
  5
50A
330
1E
100
AcDbEntity
  8
SCHRAFF
100
AcDbHatch
 10
0.0
 20
0.0
 30
0.0
210
0.0
220
0.0
230
1.0
  2
_USER
 70
     0
 71
     1
 91
        2
 92
        7
 72
     0
 73
     1
 93
        4
 10
211.0853996404613
 20
430.7129185755392
 10
211.8065976277005
 20
429.1485192068772
 10
313.6568494644491
 20
434.4862647250598
 10
313.5731119344604
 20
436.0840719806671
 97
        4
330
36D
330
368
330
477
330
369
 92
        7
 72
     0
 73
     1
 93
        4
 10
318.2310120400824
 20
347.2060433875099
 10
318.1472745100937
 20
348.8038506431174
 10
250.4808396934091
 20
345.2576030623741
 10
251.2020376806484
 20
343.693203693712
 97
        4
330
36D
330
353
330
479
330
352
 75
     0
 76
     0
 52
45.0
 41
2.0
 77
     0
 78
     1
 53
45.0
 43
9.12817564621082
 44
-1.287331057819528
 45
-1.414213562373094
 46
1.414213562373095
 79
     0
 47
0.3318377086925188
 98
        2
 10
284.5271886146688
 20
433.9263392526332
 10
266.595278122395
 20
344.9938313615651
  0
HATCH
  5
517
330
1E
100
AcDbEntity
  8
SCHRAFF
100
AcDbHatch
 10
0.0
 20
0.0
 30
0.0
210
0.0
220
0.0
230
1.0
  2
_USER
 70
     0
 71
     1
 91
        2
 92
        7
 72
     0
 73
     1
 93
        4
 10
236.9692587472132
 20
288.2600710224494
 10
238.5692587472133
 20
288.2600710224494
 10
238.5692587472133
 20
330.38103232659
 10
236.9692587472133
 20
331.019367600148
 97
        4
330
478
330
439
330
42A
330
438
 92
        7
 72
     0
 73
     1
 93
        4
 10
151.1692587472134
 20
365.2500966446933
 10
149.5692587472134
 20
365.8884319182513
 10
149.5692587472134
 20
288.2600710224492
 10
151.1692587472134
 20
288.2600710224492
 97
        4
330
47A
330
43C
330
430
330
43D
 75
     0
 76
     0
 52
45.0
 41
2.0
 77
     0
 78
     1
 53
45.0
 43
9.12817564621082
 44
-1.287331057819528
 45
-1.414213562373094
 46
1.414213562373095
 79
     0
 47
0.3318377086925188
 98
        2
 10
237.7049796808847
 20
318.1149776544551
 10
150.0378626166775
 20
327.4064332223579
  0
HATCH
  5
524
330
1E
100
AcDbEntity
  8
SCHRAFF
100
AcDbHatch
 10
0.0
 20
0.0
 30
0.0
210
0.0
220
0.0
230
1.0
  2
_USER
 70
     0
 71
     1
 91
        2
 92
        7
 72
     0
 73
     1
 93
        4
 10
236.9692587472131
 20
331.0193676001479
 10
238.5692587472132
 20
330.38103232659
 10
251.2020376806484
 20
343.693203693712
 10
250.480839693409
 20
345.2576030623741
 97
        4
330
479
330
46C
330
478
330
46D
 92
        7
 72
     0
 73
     1
 93
        4
 10
149.5692587472134
 20
365.8884319182513
 10
151.1692587472133
 20
365.2500966446933
 10
211.8065976277005
 20
429.1485192068773
 10
211.0853996404612
 20
430.7129185755392
 97
        4
330
477
330
469
330
47A
330
468
 75
     0
 76
     0
 52
135.0
 41
2.0
 77
     0
 78
     1
 53
135.0
 43
9.12817564621082
 44
-1.287331057819528
 45
-1.414213562373095
 46
-1.414213562373094
 79
     0
 47
0.3318377086925188
 98
        2
 10
243.3502101631052
 20
336.6978887902606
 10
183.5771778829221
 20
400.7425675679374
  0
DIMENSION
  5
53A
330
1E
100
AcDbEntity
  8
BEM
100
AcDbDimension
  2
*D3
 10
137.2499778556371
 20
263.2600710224492
 30
0.0
 11
130.749977855637
 21
275.7600710224493
 31
0.0
 70
    32
 71
     5
 42
25.0
  3
Standard
100
AcDbAlignedDimension
 13
149.5692587472134
 23
288.2600710224492
 33
0.0
 14
173.5009723085281
 24
263.2600710224492
 34
0.0
 50
90.0
100
AcDbRotatedDimension
1001
ACAD
1000
DSTYLE
1002
{
1070
   279
1070
     1
1070
    40
1040
2.0
1070
    41
1040
3.5
1070
    42
1040
1.0
1070
    43
1040
7.0
1070
    44
1040
1.0
1070
    73
1070
     0
1070
    74
1070
     0
1070
    77
1070
     1
1070
    78
1070
     8
1070
    79
1070
     2
1070
   140
1040
3.5
1070
   141
1040
1.5
1070
   146
1040
0.5142857142857144
1070
   147
1040
1.5
1070
   172
1070
     1
1070
   178
1070
     1
1070
   179
1070
     2
1070
   271
1070
     2
1070
   272
1070
     2
1070
   284
1070
     8
1070
   285
1070
     8
1070
   286
1070
     8
1002
}
  0
TEXT
  5
77A
330
1E
100
AcDbEntity
  8
TEXT
100
AcDbText
 10
235.1296391125315
 20
71.64011943042154
 30
0.0
 40
5.0
  1
Bogen 87°
 41
0.8
  7
GREEKS
100
AcDbText
  0
TEXT
  5
78C
330
1E
100
AcDbEntity
  8
TEXT
 62
     1
100
AcDbText
 10
255.030129115258
 20
129.7422179729062
 30
0.0
 40
7.0
  1
und innenbeschichtet
 41
0.8
  7
GREEKS
100
AcDbText
  0
TEXT
  5
78D
330
1E
100
AcDbEntity
  8
TEXT
 62
     1
100
AcDbText
 10
203.723798389038
 20
117.1473825875242
 30
0.0
 40
7.0
  1
Dämmung: 2 K-PU-Schaum
 41
0.8
  7
GREEKS
100
AcDbText
  0
TEXT
  5
78E
330
1E
100
AcDbEntity
  8
TEXT
 62
     1
100
AcDbText
 10
207.3756002392443
 20
141.011271812132
 30
0.0
 40
7.0
  1
Innenrohr: E195 EN10305 feuerverzinkt
 41
0.8
  7
GREEKS
100
AcDbText
  0
TEXT
  5
78F
330
1E
100
AcDbEntity
  8
TEXT
 62
     1
100
AcDbText
 10
203.6033828683802
 20
152.364339848487
 30
0.0
 40
7.0
  1
Außenrohr: E195 EN10305 feuerverzinkt
 41
0.8
  7
GREEKS
100
AcDbText
  0
ARC
  5
7A9
102
{ACAD_REACTORS
330
7B1
102
}
330
1E
100
AcDbEntity
  8
SCHRAFF
100
AcDbCircle
 10
211.7692773388275
 20
429.2294731715085
 30
0.0
 40
2.834868845131255
100
AcDbArc
 50
35.35704481157003
 51
194.1429551884286
  0
HATCH
  5
7B1
330
1E
100
AcDbEntity
  8
SCHRAFF
100
AcDbHatch
 10
0.0
 20
0.0
 30
0.0
210
0.0
220
0.0
230
1.0
  2
_USER
 70
     0
 71
     1
 91
        1
 92
        7
 72
     1
 73
     1
 93
        3
 10
214.0812882447249
 20
430.869926444268
 42
0.8301121492525409
 10
209.0203359133799
 20
428.5367954625023
 42
0.0
 10
211.0853996404613
 20
430.7129185755392
 42
0.0
 97
        3
330
469
330
368
330
7A9
 75
     0
 76
     0
 52
0.0
 41
0.1
 77
     0
 78
     1
 53
0.0
 43
9.12817564621082
 44
32.43624863670675
 45
0.0
 46
0.1
 79
     0
 47
0.0562388689730556
 98
        1
 10
211.8925449929693
 20
431.3493035489748
  0
HATCH
  5
7B2
330
1E
100
AcDbEntity
  8
SCHRAFF
100
AcDbHatch
 10
0.0
 20
0.0
 30
0.0
210
0.0
220
0.0
230
1.0
  2
_USER
 70
     0
 71
     0
 91
        1
 92
        7
 72
     1
 73
     1
 93
        3
 10
149.5692587472104
 20
362.888431918254
 42
-0.8301121492525648
 10
151.634322474292
 20
368.0645550312907
 42
0.0
 10
149.5692587472106
 20
365.888431918254
 42
0.0
 97
        0
 75
     0
 76
     0
 52
0.0
 41
0.1
 77
     0
 78
     1
 53
272.999999999995
 43
536.7304799139377
 44
588.4130709264277
 45
-0.0998629534754579
 46
-0.0052335956242856
 79
     0
 47
0.0562388689730556
 98
        1
 10
148.9759886411142
 20
365.0490869142761
  0
ARC
  5
7B3
330
1E
100
AcDbEntity
  8
SCHRAFF
100
AcDbCircle
 10
151.0864625341687
 20
365.2831289842594
 30
0.0
 40
2.834868845131255
100
AcDbArc
 50
78.8570448115664
 51
237.642955188425
  0
ARC
  5
7B5
102
{ACAD_REACTORS
330
7BA
102
}
330
1E
100
AcDbEntity
  8
SCHRAFF
100
AcDbCircle
 10
250.010282813382
 20
346.0889398940644
 30
0.0
 40
4.748501067438276
100
AcDbArc
 50
258.4610549915018
 51
331.8708896511943
  0
HATCH
  5
7BA
330
1E
100
AcDbEntity
  8
SCHRAFF
100
AcDbHatch
 10
0.0
 20
0.0
 30
0.0
210
0.0
220
0.0
230
1.0
  2
_USER
 70
     0
 71
     1
 91
        1
 92
        7
 72
     1
 73
     1
 93
        3
 10
251.2020376806484
 20
343.693203693712
 42
0.0
 10
249.0604213342285
 20
341.4364109518779
 42
0.331734405281203
 10
254.1979262849121
 20
343.8502115624408
 42
0.0
 97
        3
330
352
330
46D
330
7B5
 75
     0
 76
     0
 52
0.0
 41
0.1
 77
     0
 78
     1
 53
0.0
 43
9.12817564621082
 44
32.43624863670675
 45
0.0
 46
0.1
 79
     0
 47
0.0308629359229661
 98
        1
 10
251.9509691707517
 20
343.1036546242879
  0
HATCH
  5
7BB
330
1E
100
AcDbEntity
  8
SCHRAFF
100
AcDbHatch
 10
0.0
 20
0.0
 30
0.0
210
0.0
220
0.0
230
1.0
  2
_USER
 70
     0
 71
     0
 91
        1
 92
        7
 72
     1
 73
     1
 93
        3
 10
238.5692587472131
 20
330.3810323265903
 42
0.0
 10
240.710875093633
 20
332.6378250684243
 42
-0.3317344052812067
 10
238.5692587472129
 20
327.3810323265903
 42
0.0
 97
        0
 75
     0
 76
     0
 52
0.0
 41
0.1
 77
     0
 78
     1
 53
272.9999999999976
 43
536.7304799139313
 44
588.4130709264467
 45
-0.0998629534754576
 46
-0.0052335956242903
 79
     0
 47
0.0308629359229661
 98
        1
 10
239.197195905822
 20
329.6639818353658
  0
ARC
  5
7BC
330
1E
100
AcDbEntity
  8
SCHRAFF
100
AcDbCircle
 10
236.1144341894749
 20
331.4457707902788
 30
0.0
 40
4.748501067438276
100
AcDbArc
 50
301.1291103488034
 51
14.53894500849581
  0
HATCH
  5
81D
330
1E
100
AcDbEntity
  8
SCHRAFF
100
AcDbHatch
 10
0.0
 20
0.0
 30
0.0
210
0.0
220
0.0
230
1.0
  2
NET
 70
     0
 71
     0
 91
        2
 92
        7
 72
     0
 73
     1
 93
       10
 10
236.9692587472132
 20
304.2600710224491
 10
215.0692587472134
 20
304.2600710224491
 10
215.0692587472134
 20
294.2600710224492
 10
218.5692587472134
 20
294.2600710224493
 10
222.0333603623511
 20
288.2600710224492
 10
232.5692587472134
 20
288.2600710224492
 10
232.5692587472134
 20
286.2600710224493
 10
238.5692587472133
 20
286.2600710224493
 10
238.5692587472132
 20
288.2600710224494
 10
236.9692587472133
 20
288.2600710224494
 97
        0
 92
        7
 72
     0
 73
     1
 93
       10
 10
173.0692587472134
 20
304.260071022449
 10
151.1692587472134
 20
304.2600710224491
 10
151.1692587472134
 20
288.2600710224492
 10
149.5692587472134
 20
288.2600710224492
 10
149.5692587472134
 20
286.2600710224492
 10
155.5692587472134
 20
286.2600710224492
 10
155.5692587472134
 20
288.2600710224492
 10
166.1051571320756
 20
288.2600710224492
 10
169.5692587472134
 20
294.2600710224492
 10
173.0692587472134
 20
294.2600710224492
 97
        0
 75
     0
 76
     1
 52
45.0
 41
20.0
 77
     0
 78
     2
 53
45.0
 43
-30.93074125278653
 44
40.12418934561805
 45
-1.767766952966368
 46
1.767766952966368
 79
     0
 53
135.0
 43
-30.93074125278653
 44
40.12418934561805
 45
-1.767766952966368
 46
-1.767766952966368
 79
     0
 47
0.1322099502765182
 98
        2
 10
230.4417606616402
 20
294.3983415916106
 10
166.6781205403444
 20
297.3069612033139
  0
LINE
  5
81E
330
1E
100
AcDbEntity
  8
STEMPEL
100
AcDbLine
 10
238.5692587472133
 20
286.2600710224493
 30
0.0
 11
215.0692587472135
 21
286.2600710224493
 31
0.0
  0
POINT
  5
81F
330
1E
100
AcDbEntity
  8
STEMPEL
100
AcDbPoint
 10
232.5692587472134
 20
286.2600710224492
 30
0.0
  0
POINT
  5
820
330
1E
100
AcDbEntity
  8
STEMPEL
100
AcDbPoint
 10
222.0333603623511
 20
288.2600710224492
 30
0.0
  0
LINE
  5
821
330
1E
100
AcDbEntity
  8
STEMPEL
100
AcDbLine
 10
232.5692587472134
 20
288.2600710224492
 30
0.0
 11
215.0692587472134
 21
288.2600710224492
 31
0.0
  0
LINE
  5
822
330
1E
100
AcDbEntity
  8
STEMPEL
100
AcDbLine
 10
232.5692587472134
 20
286.2600710224492
 30
0.0
 11
232.5692587472134
 21
288.2600710224492
 31
0.0
  0
LINE
  5
823
330
1E
100
AcDbEntity
  8
STEMPEL
100
AcDbLine
 10
218.5692587472134
 20
294.2600710224492
 30
0.0
 11
222.0333603623511
 21
288.2600710224492
 31
0.0
  0
LINE
  5
824
330
1E
100
AcDbEntity
  8
STEMPEL
100
AcDbLine
 10
173.0692587472134
 20
288.2600710224492
 30
0.0
 11
155.5692587472134
 21
288.2600710224492
 31
0.0
  0
LINE
  5
825
330
1E
100
AcDbEntity
  8
STEMPEL
100
AcDbLine
 10
173.0692587472134
 20
286.2600710224493
 30
0.0
 11
149.5692587472134
 21
286.2600710224492
 31
0.0
  0
POINT
  5
826
330
1E
100
AcDbEntity
  8
STEMPEL
100
AcDbPoint
 10
157.0692587472134
 20
288.2600710224492
 30
0.0
  0
POINT
  5
827
330
1E
100
AcDbEntity
  8
STEMPEL
100
AcDbPoint
 10
157.0692587472134
 20
288.2600710224492
 30
0.0
  0
POINT
  5
828
330
1E
100
AcDbEntity
  8
STEMPEL
100
AcDbPoint
 10
157.0692587472134
 20
288.2600710224492
 30
0.0
  0
POINT
  5
829
330
1E
100
AcDbEntity
  8
STEMPEL
100
AcDbPoint
 10
161.0692587472134
 20
288.2600710224492
 30
0.0
  0
POINT
  5
82A
330
1E
100
AcDbEntity
  8
STEMPEL
100
AcDbPoint
 10
155.5692587472134
 20
286.2600710224492
 30
0.0
  0
LINE
  5
82B
330
1E
100
AcDbEntity
  8
STEMPEL
100
AcDbLine
 10
155.5692587472134
 20
286.2600710224492
 30
0.0
 11
155.5692587472134
 21
288.2600710224492
 31
0.0
  0
LINE
  5
82C
330
1E
100
AcDbEntity
  8
STEMPEL
100
AcDbLine
 10
169.5692587472134
 20
294.2600710224492
 30
0.0
 11
166.1051571320756
 21
288.2600710224492
 31
0.0
  0
DIMENSION
  5
86A
330
1E
100
AcDbEntity
  8
BEM
100
AcDbDimension
  2
*D4
 10
121.097198544146
 20
385.2600710224489
 30
0.0
 11
114.597198544146
 21
324.2600710224491
 31
0.0
 70
    32
 71
     5
 42
121.9999999999996
  3
Standard
100
AcDbAlignedDimension
 13
173.5009723085281
 23
263.2600710224492
 33
0.0
 14
194.0692587472134
 24
385.2600710224488
 34
0.0
 50
90.0
100
AcDbRotatedDimension
1001
ACAD
1000
DSTYLE
1002
{
1070
    40
1040
2.0
1070
    41
1040
3.5
1070
    42
1040
1.0
1070
    43
1040
7.0
1070
    44
1040
1.0
1070
    73
1070
     0
1070
    74
1070
     0
1070
    77
1070
     1
1070
    78
1070
     8
1070
    79
1070
     2
1070
   140
1040
3.5
1070
   141
1040
1.5
1070
   146
1040
0.5142857142857144
1070
   147
1040
1.5
1070
   172
1070
     1
1070
   178
1070
     1
1070
   179
1070
     2
1070
   271
1070
     2
1070
   272
1070
     2
1070
   284
1070
     8
1070
   285
1070
     8
1070
   286
1070
     8
1002
}
  0
DIMENSION
  5
877
330
1E
100
AcDbEntity
  8
BEM
100
AcDbDimension
  2
*D5
 10
311.4155764659792
 20
477.2523011633794
 30
0.0
 11
250.1589911303708
 21
480.5508998084644
 31
0.0
 70
    32
 71
     5
 42
122.0000000000003
 51
356.9999999999998
  3
Standard
100
AcDbAlignedDimension
 13
194.0692587472134
 23
385.2600710224488
 33
0.0
 14
313.5731119344605
 24
436.0840719806673
 34
0.0
 50
3.000000000000154
100
AcDbRotatedDimension
1001
ACAD
1000
DSTYLE
1002
{
1070
    40
1040
2.0
1070
    41
1040
3.5
1070
    42
1040
1.0
1070
    43
1040
7.0
1070
    44
1040
1.0
1070
    73
1070
     0
1070
    74
1070
     0
1070
    77
1070
     1
1070
    78
1070
     8
1070
    79
1070
     2
1070
   140
1040
3.5
1070
   141
1040
1.5
1070
   146
1040
0.5142857142857144
1070
   147
1040
1.5
1070
   172
1070
     1
1070
   178
1070
     1
1070
   179
1070
     2
1070
   271
1070
     2
1070
   272
1070
     2
1070
   284
1070
     8
1070
   285
1070
     8
1070
   286
1070
     8
1002
}
  0
DIMENSION
  5
884
330
1E
100
AcDbEntity
  8
BEM
100
AcDbDimension
  2
*D6
 10
194.0692587472134
 20
258.2600710224492
 30
0.0
 11
249.1944568649523
 21
443.3499092010976
 31
0.0
 70
    34
 71
     5
 42
1.518436449235063
  3
Standard
100
AcDb2LineAngularDimension
 13
320.8952096610443
 23
391.906737465303
 33
0.0
 14
194.0692587472134
 24
385.2600710224488
 34
0.0
 15
194.0692587472134
 25
385.2600710224488
 35
0.0
 16
256.4708105239532
 26
424.2528882393166
 36
0.0
1001
ACAD
1000
DSTYLE
1002
{
1070
    40
1040
2.0
1070
    41
1040
3.5
1070
    42
1040
1.0
1070
    43
1040
7.0
1070
    44
1040
1.0
1070
    73
1070
     0
1070
    74
1070
     0
1070
    77
1070
     1
1070
    78
1070
     8
1070
    79
1070
     2
1070
   140
1040
3.5
1070
   141
1040
1.5
1070
   146
1040
0.5142857142857144
1070
   147
1040
1.5
1070
   172
1070
     1
1070
   178
1070
     1
1070
   179
1070
     2
1070
   271
1070
     2
1070
   272
1070
     2
1070
   284
1070
     8
1070
   285
1070
     8
1070
   286
1070
     8
1002
}
  0
ENDSEC
  0
SECTION
  2
OBJECTS
  0
DICTIONARY
  5
C
330
0
100
AcDbDictionary
281
     1
  3
ACAD_COLOR
350
DF
  3
ACAD_GROUP
350
D
  3
ACAD_LAYOUT
350
19
  3
ACAD_MATERIAL
350
DE
  3
ACAD_MLINESTYLE
350
16
  3
ACAD_PLOTSETTINGS
350
18
  3
ACAD_PLOTSTYLENAME
350
E
  3
AcDbVariableDictionary
350
25E
  0
DICTIONARY
  5
A0
330
1E
100
AcDbDictionary
280
     1
281
     1
  3
ACAD_LAYOUTSELFREF
360
D4
  0
DICTIONARY
  5
A2
330
1A
100
AcDbDictionary
280
     1
281
     1
  3
ACAD_LAYOUTSELFREF
360
D3
  0
DICTIONARY
  5
DF
102
{ACAD_REACTORS
330
C
102
}
330
C
100
AcDbDictionary
281
     1
  0
DICTIONARY
  5
D
102
{ACAD_REACTORS
330
C
102
}
330
C
100
AcDbDictionary
281
     1
  0
DICTIONARY
  5
19
102
{ACAD_REACTORS
330
C
102
}
330
C
100
AcDbDictionary
281
     1
  3
Layout1
350
1D
  3
Model
350
21
  0
DICTIONARY
  5
DE
102
{ACAD_REACTORS
330
C
102
}
330
C
100
AcDbDictionary
281
     1
  0
DICTIONARY
  5
16
102
{ACAD_REACTORS
330
C
102
}
330
C
100
AcDbDictionary
281
     1
  3
Standard
350
17
  0
DICTIONARY
  5
18
102
{ACAD_REACTORS
330
C
102
}
330
C
100
AcDbDictionary
281
     1
  0
ACDBDICTIONARYWDFLT
  5
E
102
{ACAD_REACTORS
330
C
102
}
330
C
100
AcDbDictionary
281
     1
  3
Normal
350
F
100
AcDbDictionaryWithDefault
340
F
  0
DICTIONARY
  5
25E
102
{ACAD_REACTORS
330
C
102
}
330
C
100
AcDbDictionary
281
     1
  3
DIMASSOC
350
25F
  3
PROJECTNAME
350
260
  0
XRECORD
  5
D4
102
{ACAD_REACTORS
330
A0
102
}
330
A0
100
AcDbXrecord
280
     1
340
1E
  0
XRECORD
  5
D3
102
{ACAD_REACTORS
330
A2
102
}
330
A2
100
AcDbXrecord
280
     1
340
1A
  0
LAYOUT
  5
1D
102
{ACAD_REACTORS
330
19
102
}
330
19
100
AcDbPlotSettings
  1

  2
\\NT_WORK01\HP LaserJet 5000 PCL 6
  4

  6

 40
0.0
 41
0.0
 42
0.0
 43
0.0
 44
0.0
 45
0.0
 46
0.0
 47
0.0
 48
0.0
 49
0.0
140
0.0
141
0.0
142
1.0
143
1.0
 70
   688
 72
     0
 73
     0
 74
     5
  7

 75
    16
147
1.0
 76
     0
 77
     2
 78
   300
148
0.0
149
0.0
100
AcDbLayout
  1
Layout1
 70
     0
 71
     1
 10
0.0
 20
0.0
 11
12.0
 21
9.0
 12
0.0
 22
0.0
 32
0.0
 14
1.000000000000000E+20
 24
1.000000000000000E+20
 34
1.000000000000000E+20
 15
-1.000000000000000E+20
 25
-1.000000000000000E+20
 35
-1.000000000000000E+20
146
0.0
 13
0.0
 23
0.0
 33
0.0
 16
1.0
 26
0.0
 36
0.0
 17
0.0
 27
1.0
 37
0.0
 76
     0
330
1A
  0
LAYOUT
  5
21
102
{ACAD_REACTORS
330
19
102
}
330
19
100
AcDbPlotSettings
  1

  2
RICOH Aficio 2027 PCL 6
  4
A4
  6

 40
5.027083
 41
5.027084999999999
 42
5.027084
 43
5.027069
 44
209.973328
 45
296.925995
 46
0.0
 47
2.06
 48
0.0
 49
0.0
140
0.0
141
0.0
142
1.0
143
2.100849152723284
 70
 11956
 72
     1
 73
     0
 74
     2
  7
monochrome1.ctb
 75
     0
147
0.4759980023809526
 76
     1
 77
     2
 78
   300
148
0.0
149
0.0
100
AcDbLayout
  1
Model
 70
     1
 71
     0
 10
0.0
 20
0.0
 11
12.0
 21
9.0
 12
0.0
 22
0.0
 32
0.0
 14
0.0
 24
0.0
 34
0.0
 15
0.0
 25
0.0
 35
0.0
146
0.0
 13
0.0
 23
0.0
 33
0.0
 16
1.0
 26
0.0
 36
0.0
 17
0.0
 27
1.0
 37
0.0
 76
     0
330
1E
  0
MLINESTYLE
  5
17
102
{ACAD_REACTORS
330
16
102
}
330
16
100
AcDbMlineStyle
  2
STANDARD
 70
     0
  3

 62
   256
 51
90.0
 52
90.0
 71
     2
 49
0.5
 62
   256
  6
BYLAYER
 49
-0.5
 62
   256
  6
BYLAYER
  0
ACDBPLACEHOLDER
  5
F
102
{ACAD_REACTORS
330
E
102
}
330
E
  0
DICTIONARYVAR
  5
25F
102
{ACAD_REACTORS
330
25E
102
}
330
25E
100
DictionaryVariables
280
     0
  1
1
  0
DICTIONARYVAR
  5
260
102
{ACAD_REACTORS
330
25E
102
}
330
25E
100
DictionaryVariables
280
     0
  1

  0
ENDSEC
  0
EOF
