  0
SECTION
  2
HEADER
  9
$ACADVER
  1
AC1018
  9
$ACADMAINTVER
 70
     2
  9
$DWGCODEPAGE
  3
ANSI_1252
  9
$INSBASE
 10
0.0
 20
0.0
 30
0.0
  9
$EXTMIN
 10
-0.0090573584943741
 20
-0.0128083857496222
 30
-0.0000000000112498
  9
$EXTMAX
 10
594.0090656570853
 20
840.0128201211312
 30
0.0000000000002956
  9
$LIMMIN
 10
0.0
 20
0.0
  9
$LIMMAX
 10
594.0
 20
840.0
  9
$ORTHOMODE
 70
     0
  9
$REGENMODE
 70
     1
  9
$FILLMODE
 70
     1
  9
$QTEXTMODE
 70
     0
  9
$MIRRTEXT
 70
     1
  9
$LTSCALE
 40
20.0
  9
$ATTMODE
 70
     1
  9
$TEXTSIZE
 40
3.5
  9
$TRACEWID
 40
1.0
  9
$TEXTSTYLE
  7
STANDARD
  9
$CLAYER
  8
BEM
  9
$CELTYPE
  6
ByLayer
  9
$CECOLOR
 62
   256
  9
$CELTSCALE
 40
1.0
  9
$DISPSILH
 70
     0
  9
$DIMSCALE
 40
2.0
  9
$DIMASZ
 40
3.5
  9
$DIMEXO
 40
1.0
  9
$DIMDLI
 40
7.0
  9
$DIMRND
 40
0.0
  9
$DIMDLE
 40
0.0
  9
$DIMEXE
 40
1.0
  9
$DIMTP
 40
0.0
  9
$DIMTM
 40
0.0
  9
$DIMTXT
 40
3.5
  9
$DIMCEN
 40
1.5
  9
$DIMTSZ
 40
0.0
  9
$DIMTOL
 70
     0
  9
$DIMLIM
 70
     0
  9
$DIMTIH
 70
     0
  9
$DIMTOH
 70
     0
  9
$DIMSE1
 70
     0
  9
$DIMSE2
 70
     0
  9
$DIMTAD
 70
     1
  9
$DIMZIN
 70
     8
  9
$DIMBLK
  1

  9
$DIMASO
 70
     1
  9
$DIMSHO
 70
     0
  9
$DIMPOST
  1

  9
$DIMAPOST
  1

  9
$DIMALT
 70
     0
  9
$DIMALTD
 70
     2
  9
$DIMALTF
 40
25.4
  9
$DIMLFAC
 40
1.0
  9
$DIMTOFL
 70
     1
  9
$DIMTVP
 40
0.0
  9
$DIMTIX
 70
     0
  9
$DIMSOXD
 70
     0
  9
$DIMSAH
 70
     0
  9
$DIMBLK1
  1

  9
$DIMBLK2
  1

  9
$DIMSTYLE
  2
Standard
  9
$DIMCLRD
 70
     0
  9
$DIMCLRE
 70
     0
  9
$DIMCLRT
 70
     1
  9
$DIMTFAC
 40
0.5142857142857144
  9
$DIMGAP
 40
1.5
  9
$DIMJUST
 70
     0
  9
$DIMSD1
 70
     0
  9
$DIMSD2
 70
     0
  9
$DIMTOLJ
 70
     1
  9
$DIMTZIN
 70
     8
  9
$DIMALTZ
 70
     8
  9
$DIMALTTZ
 70
     8
  9
$DIMUPT
 70
     0
  9
$DIMDEC
 70
     2
  9
$DIMTDEC
 70
     2
  9
$DIMALTU
 70
     2
  9
$DIMALTTD
 70
     2
  9
$DIMTXSTY
  7
STANDARD
  9
$DIMAUNIT
 70
     0
  9
$DIMADEC
 70
     2
  9
$DIMALTRND
 40
0.0
  9
$DIMAZIN
 70
     2
  9
$DIMDSEP
 70
    46
  9
$DIMATFIT
 70
     3
  9
$DIMFRAC
 70
     0
  9
$DIMLDRBLK
  1

  9
$DIMLUNIT
 70
     2
  9
$DIMLWD
 70
    -2
  9
$DIMLWE
 70
    -2
  9
$DIMTMOVE
 70
     0
  9
$LUNITS
 70
     2
  9
$LUPREC
 70
     2
  9
$SKETCHINC
 40
1.0
  9
$FILLETRAD
 40
0.0
  9
$AUNITS
 70
     0
  9
$AUPREC
 70
     0
  9
$MENU
  1
ACAD
  9
$ELEVATION
 40
0.0
  9
$PELEVATION
 40
0.0
  9
$THICKNESS
 40
0.0
  9
$LIMCHECK
 70
     0
  9
$CHAMFERA
 40
0.0
  9
$CHAMFERB
 40
0.0
  9
$CHAMFERC
 40
0.0
  9
$CHAMFERD
 40
0.0
  9
$SKPOLY
 70
     0
  9
$TDCREATE
 40
2455397.825393172
  9
$TDUCREATE
 40
2455397.783726505
  9
$TDUPDATE
 40
2455532.495878854
  9
$TDUUPDATE
 40
2455532.454212188
  9
$TDINDWG
 40
0.2060283565
  9
$TDUSRTIMER
 40
0.2060283565
  9
$USRTIMER
 70
     1
  9
$ANGBASE
 50
0.0
  9
$ANGDIR
 70
     0
  9
$PDMODE
 70
     0
  9
$PDSIZE
 40
0.0
  9
$PLINEWID
 40
0.0
  9
$SPLFRAME
 70
     0
  9
$SPLINETYPE
 70
     6
  9
$SPLINESEGS
 70
     8
  9
$HANDSEED
  5
1E82
  9
$SURFTAB1
 70
     6
  9
$SURFTAB2
 70
     6
  9
$SURFTYPE
 70
     6
  9
$SURFU
 70
     6
  9
$SURFV
 70
     6
  9
$UCSBASE
  2

  9
$UCSNAME
  2

  9
$UCSORG
 10
0.0
 20
0.0
 30
0.0
  9
$UCSXDIR
 10
1.0
 20
0.0
 30
0.0
  9
$UCSYDIR
 10
0.0
 20
1.0
 30
0.0
  9
$UCSORTHOREF
  2

  9
$UCSORTHOVIEW
 70
     0
  9
$UCSORGTOP
 10
0.0
 20
0.0
 30
0.0
  9
$UCSORGBOTTOM
 10
0.0
 20
0.0
 30
0.0
  9
$UCSORGLEFT
 10
0.0
 20
0.0
 30
0.0
  9
$UCSORGRIGHT
 10
0.0
 20
0.0
 30
0.0
  9
$UCSORGFRONT
 10
0.0
 20
0.0
 30
0.0
  9
$UCSORGBACK
 10
0.0
 20
0.0
 30
0.0
  9
$PUCSBASE
  2

  9
$PUCSNAME
  2

  9
$PUCSORG
 10
0.0
 20
0.0
 30
0.0
  9
$PUCSXDIR
 10
1.0
 20
0.0
 30
0.0
  9
$PUCSYDIR
 10
0.0
 20
1.0
 30
0.0
  9
$PUCSORTHOREF
  2

  9
$PUCSORTHOVIEW
 70
     0
  9
$PUCSORGTOP
 10
0.0
 20
0.0
 30
0.0
  9
$PUCSORGBOTTOM
 10
0.0
 20
0.0
 30
0.0
  9
$PUCSORGLEFT
 10
0.0
 20
0.0
 30
0.0
  9
$PUCSORGRIGHT
 10
0.0
 20
0.0
 30
0.0
  9
$PUCSORGFRONT
 10
0.0
 20
0.0
 30
0.0
  9
$PUCSORGBACK
 10
0.0
 20
0.0
 30
0.0
  9
$USERI1
 70
     0
  9
$USERI2
 70
     0
  9
$USERI3
 70
     0
  9
$USERI4
 70
     0
  9
$USERI5
 70
     0
  9
$USERR1
 40
0.0
  9
$USERR2
 40
0.0
  9
$USERR3
 40
0.0
  9
$USERR4
 40
0.0
  9
$USERR5
 40
0.0
  9
$WORLDVIEW
 70
     1
  9
$SHADEDGE
 70
     3
  9
$SHADEDIF
 70
    70
  9
$TILEMODE
 70
     1
  9
$MAXACTVP
 70
    16
  9
$PINSBASE
 10
0.0
 20
0.0
 30
0.0
  9
$PLIMCHECK
 70
     0
  9
$PEXTMIN
 10
1.000000000000000E+20
 20
1.000000000000000E+20
 30
1.000000000000000E+20
  9
$PEXTMAX
 10
-1.000000000000000E+20
 20
-1.000000000000000E+20
 30
-1.000000000000000E+20
  9
$PLIMMIN
 10
0.0
 20
0.0
  9
$PLIMMAX
 10
12.0
 20
9.0
  9
$UNITMODE
 70
     0
  9
$VISRETAIN
 70
     0
  9
$PLINEGEN
 70
     0
  9
$PSLTSCALE
 70
     0
  9
$TREEDEPTH
 70
  3020
  9
$CMLSTYLE
  2
Standard
  9
$CMLJUST
 70
     0
  9
$CMLSCALE
 40
1.0
  9
$PROXYGRAPHICS
 70
     1
  9
$MEASUREMENT
 70
     0
  9
$CELWEIGHT
370
    -1
  9
$ENDCAPS
280
     0
  9
$JOINSTYLE
280
     0
  9
$LWDISPLAY
290
     0
  9
$INSUNITS
 70
     0
  9
$HYPERLINKBASE
  1

  9
$STYLESHEET
  1
monochrome 1.ctb
  9
$XEDIT
290
     1
  9
$CEPSNTYPE
380
     0
  9
$PSTYLEMODE
290
     1
  9
$FINGERPRINTGUID
  2
{D68B0D0D-A558-11D7-B632-000102183313}
  9
$VERSIONGUID
  2
{1765360A-F270-448B-812C-BC38FD4FB91F}
  9
$EXTNAMES
290
     1
  9
$PSVPSCALE
 40
0.0
  9
$OLESTARTUP
290
     0
  9
$SORTENTS
280
   127
  9
$INDEXCTL
280
     0
  9
$HIDETEXT
280
     0
  9
$XCLIPFRAME
290
     0
  9
$HALOGAP
280
     0
  9
$OBSCOLOR
 70
   257
  9
$OBSLTYPE
280
     0
  9
$INTERSECTIONDISPLAY
280
     0
  9
$INTERSECTIONCOLOR
 70
   257
  9
$DIMASSOC
280
     1
  9
$PROJECTNAME
  1

  0
ENDSEC
  0
SECTION
  2
CLASSES
  0
CLASS
  1
ACDBDICTIONARYWDFLT
  2
AcDbDictionaryWithDefault
  3
ObjectDBX Classes
 90
        0
 91
        1
280
     0
281
     0
  0
CLASS
  1
DICTIONARYVAR
  2
AcDbDictionaryVar
  3
ObjectDBX Classes
 90
        0
 91
        2
280
     0
281
     0
  0
ENDSEC
  0
SECTION
  2
TABLES
  0
TABLE
  2
VPORT
  5
8
330
0
100
AcDbSymbolTable
 70
     2
  0
VPORT
  5
1E81
330
8
100
AcDbSymbolTableRecord
100
AcDbViewportTableRecord
  2
*Active
 70
     0
 10
0.0
 20
0.0
 11
1.0
 21
1.0
 12
297.0000041492954
 22
420.0000058676908
 13
0.0
 23
0.0
 14
1.0
 24
1.0
 15
10.0
 25
10.0
 16
0.0
 26
0.0
 36
1.0
 17
0.0
 27
0.0
 37
0.0
 40
846.8091463683093
 41
1.336927223719676
 42
50.0
 43
0.0
 44
0.0
 50
0.0
 51
0.0
 71
     0
 72
  1500
 73
     1
 74
     0
 75
     0
 76
     0
 77
     0
 78
     0
281
     0
 65
     1
110
0.0
120
0.0
130
0.0
111
1.0
121
0.0
131
0.0
112
0.0
122
1.0
132
0.0
 79
     0
146
0.0
  0
ENDTAB
  0
TABLE
  2
LTYPE
  5
5
330
0
100
AcDbSymbolTable
 70
     2
  0
LTYPE
  5
13
330
5
100
AcDbSymbolTableRecord
100
AcDbLinetypeTableRecord
  2
ByBlock
 70
     0
  3

 72
    65
 73
     0
 40
0.0
  0
LTYPE
  5
14
330
5
100
AcDbSymbolTableRecord
100
AcDbLinetypeTableRecord
  2
ByLayer
 70
     0
  3

 72
    65
 73
     0
 40
0.0
  0
LTYPE
  5
15
330
5
100
AcDbSymbolTableRecord
100
AcDbLinetypeTableRecord
  2
Continuous
 70
     0
  3
Solid line
 72
    65
 73
     0
 40
0.0
  0
LTYPE
  5
25
330
5
100
AcDbSymbolTableRecord
100
AcDbLinetypeTableRecord
  2
STRICHPUNKT
 70
     0
  3
__ . __ . __ . __ . __ . __ . __ . __ . __ . __
 72
    65
 73
     4
 40
1.0
 49
0.5
 74
     0
 49
-0.25
 74
     0
 49
0.0
 74
     0
 49
-0.25
 74
     0
  0
ENDTAB
  0
TABLE
  2
LAYER
  5
2
330
0
100
AcDbSymbolTable
 70
     9
  0
LAYER
  5
10
330
2
100
AcDbSymbolTableRecord
100
AcDbLayerTableRecord
  2
0
 70
     0
 62
     7
  6
Continuous
370
    -3
390
F
  0
LAYER
  5
2B
330
2
100
AcDbSymbolTableRecord
100
AcDbLayerTableRecord
  2
VOLL
 70
     0
 62
     1
  6
Continuous
370
    -3
390
F
  0
LAYER
  5
2C
330
2
100
AcDbSymbolTableRecord
100
AcDbLayerTableRecord
  2
HILF
 70
     0
 62
     2
  6
Continuous
370
    -3
390
F
  0
LAYER
  5
2D
330
2
100
AcDbSymbolTableRecord
100
AcDbLayerTableRecord
  2
MITTEL
 70
     0
 62
     2
  6
STRICHPUNKT
370
    -3
390
F
  0
LAYER
  5
2F
330
2
100
AcDbSymbolTableRecord
100
AcDbLayerTableRecord
  2
BEM
 70
     0
 62
     7
  6
Continuous
370
    -3
390
F
  0
LAYER
  5
30
330
2
100
AcDbSymbolTableRecord
100
AcDbLayerTableRecord
  2
STEMPEL
 70
     0
 62
     3
  6
Continuous
370
    -3
390
F
  0
LAYER
  5
33
330
2
100
AcDbSymbolTableRecord
100
AcDbLayerTableRecord
  2
TEXT
 70
     0
 62
     7
  6
Continuous
370
    -3
390
F
  0
LAYER
  5
184
330
2
100
AcDbSymbolTableRecord
100
AcDbLayerTableRecord
  2
SCHRAFF
 70
     0
 62
     7
  6
Continuous
370
    -3
390
F
  0
LAYER
  5
306
330
2
100
AcDbSymbolTableRecord
100
AcDbLayerTableRecord
  2
DEFPOINTS
 70
     0
 62
     7
  6
Continuous
290
     0
370
    -3
390
F
  0
ENDTAB
  0
TABLE
  2
STYLE
  5
3
330
0
100
AcDbSymbolTable
 70
     2
  0
STYLE
  5
11
330
3
100
AcDbSymbolTableRecord
100
AcDbTextStyleTableRecord
  2
STANDARD
 70
     0
 40
0.0
 41
0.8
 50
0.0
 71
     0
 42
3.5
  3
simplex.shx
  4

  0
STYLE
  5
24
330
3
100
AcDbSymbolTableRecord
100
AcDbTextStyleTableRecord
  2
GREEKS
 70
     0
 40
0.0
 41
0.8
 50
0.0
 71
     0
 42
2.5
  3
SIMPLEX.shx
  4

  0
ENDTAB
  0
TABLE
  2
VIEW
  5
6
330
0
100
AcDbSymbolTable
 70
     0
  0
ENDTAB
  0
TABLE
  2
UCS
  5
7
330
0
100
AcDbSymbolTable
 70
     0
  0
ENDTAB
  0
TABLE
  2
APPID
  5
9
330
0
100
AcDbSymbolTable
 70
     1
  0
APPID
  5
12
330
9
100
AcDbSymbolTableRecord
100
AcDbRegAppTableRecord
  2
ACAD
 70
     0
  0
ENDTAB
  0
TABLE
  2
DIMSTYLE
  5
A
330
0
100
AcDbSymbolTable
 70
     1
100
AcDbDimStyleTable
 71
     1
340
A2
  0
DIMSTYLE
105
A2
102
{ACAD_REACTORS
330
EA6
330
1019
330
10FD
330
1137
330
18FF
330
1A4C
330
1A78
102
}
330
A
100
AcDbSymbolTableRecord
100
AcDbDimStyleTableRecord
  2
Standard
 70
     0
340
11
  0
ENDTAB
  0
TABLE
  2
BLOCK_RECORD
  5
1
330
0
100
AcDbSymbolTable
 70
     8
  0
BLOCK_RECORD
  5
1E
102
{ACAD_XDICTIONARY
360
DB
102
}
330
1
100
AcDbSymbolTableRecord
100
AcDbBlockTableRecord
  2
*Model_Space
340
21
  0
BLOCK_RECORD
  5
1A
102
{ACAD_XDICTIONARY
360
DD
102
}
330
1
100
AcDbSymbolTableRecord
100
AcDbBlockTableRecord
  2
*Paper_Space
340
1D
  0
BLOCK_RECORD
  5
22
330
1
100
AcDbSymbolTableRecord
100
AcDbBlockTableRecord
  2
LOGO
340
0
102
{BLKREFS
331
2AF
102
}
  0
BLOCK_RECORD
  5
EFA
330
1
100
AcDbSymbolTableRecord
100
AcDbBlockTableRecord
  2
*D1
340
0
  0
BLOCK_RECORD
  5
102A
330
1
100
AcDbSymbolTableRecord
100
AcDbBlockTableRecord
  2
*D2
340
0
  0
BLOCK_RECORD
  5
10FE
330
1
100
AcDbSymbolTableRecord
100
AcDbBlockTableRecord
  2
*D3
340
0
  0
BLOCK_RECORD
  5
1138
330
1
100
AcDbSymbolTableRecord
100
AcDbBlockTableRecord
  2
*D4
340
0
  0
BLOCK_RECORD
  5
1900
330
1
100
AcDbSymbolTableRecord
100
AcDbBlockTableRecord
  2
*D5
340
0
  0
BLOCK_RECORD
  5
1A87
330
1
100
AcDbSymbolTableRecord
100
AcDbBlockTableRecord
  2
*D6
340
0
  0
BLOCK_RECORD
  5
1AB9
330
1
100
AcDbSymbolTableRecord
100
AcDbBlockTableRecord
  2
*D7
340
0
  0
ENDTAB
  0
ENDSEC
  0
SECTION
  2
BLOCKS
  0
BLOCK
  5
37
330
1E
100
AcDbEntity
  8
0
100
AcDbBlockBegin
  2
*Model_Space
 70
     0
 10
0.0
 20
0.0
 30
0.0
  3
*Model_Space
  1

  0
ENDBLK
  5
38
330
1E
100
AcDbEntity
  8
0
100
AcDbBlockEnd
  0
BLOCK
  5
35
330
1A
100
AcDbEntity
 67
     1
  8
0
100
AcDbBlockBegin
  2
*Paper_Space
 70
     0
 10
0.0
 20
0.0
 30
0.0
  3
*Paper_Space
  1

  0
ENDBLK
  5
36
330
1A
100
AcDbEntity
 67
     1
  8
0
100
AcDbBlockEnd
  0
BLOCK
  5
39
330
22
100
AcDbEntity
  8
0
100
AcDbBlockBegin
  2
LOGO
 70
     0
 10
0.0
 20
0.0
 30
0.0
  3
LOGO
  1

  0
ARC
  5
3A
330
22
100
AcDbEntity
  8
0
100
AcDbCircle
 10
11.59973089678112
 20
-9.271599258481501
 30
0.0
 40
4.5
100
AcDbArc
 50
270.0
 51
231.0575587310159
  0
LINE
  5
3B
330
22
100
AcDbEntity
  8
0
100
AcDbLine
 10
3.599730896781125
 20
-4.771599258481529
 30
0.0
 11
3.599730896781153
 21
-11.77159925848133
 31
0.0
  0
LINE
  5
3C
330
22
100
AcDbEntity
  8
0
100
AcDbLine
 10
2.599730896781125
 20
-4.771599258481529
 30
0.0
 11
2.599730896781153
 21
-11.77159925848133
 31
0.0
  0
CIRCLE
  5
3D
330
22
100
AcDbEntity
  8
0
100
AcDbCircle
 10
11.59973089678112
 20
-9.271599258481501
 30
0.0
 40
3.5
  0
ARC
  5
3E
330
22
100
AcDbEntity
  8
0
100
AcDbCircle
 10
31.59973089678115
 20
-9.271599258481472
 30
0.0
 40
4.5
100
AcDbArc
 50
270.0
 51
231.0575587310182
  0
LINE
  5
3F
330
22
100
AcDbEntity
  8
0
100
AcDbLine
 10
17.59973089678112
 20
-4.771599258481472
 30
0.0
 11
17.59973089678115
 21
-13.77159925848147
 31
0.0
  0
ARC
  5
40
330
22
100
AcDbEntity
  8
0
100
AcDbCircle
 10
22.59973089678116
 20
-7.271599258481472
 30
0.0
 40
2.5
100
AcDbArc
 50
293.1161887722295
 51
90.0
  0
CIRCLE
  5
41
330
22
100
AcDbEntity
  8
0
100
AcDbCircle
 10
31.59973089678115
 20
-9.271599258481472
 30
0.0
 40
3.5
  0
ARC
  5
42
330
22
100
AcDbEntity
  8
0
100
AcDbCircle
 10
4.599730896781153
 20
-11.77159925848133
 30
0.0
 40
1.0
100
AcDbArc
 50
180.0
 51
270.0
  0
ARC
  5
43
330
22
100
AcDbEntity
  8
0
100
AcDbCircle
 10
4.599730896781153
 20
-11.77159925848133
 30
0.0
 40
2.0
100
AcDbArc
 50
179.9999999999992
 51
270.0
  0
LINE
  5
44
330
22
100
AcDbEntity
  8
0
100
AcDbLine
 10
11.59973089678115
 20
-13.77159925848144
 30
0.0
 11
4.599730896781153
 21
-13.77159925848147
 31
0.0
  0
LINE
  5
45
330
22
100
AcDbEntity
  8
0
100
AcDbLine
 10
8.771303772034769
 20
-12.77159925848136
 30
0.0
 11
4.599730896781153
 21
-12.77159925848133
 31
0.0
  0
LINE
  5
46
330
22
100
AcDbEntity
  8
0
100
AcDbLine
 10
31.59973089678115
 20
-13.77159925848147
 30
0.0
 11
23.6715276665056
 21
-13.77159925848144
 31
0.0
  0
LINE
  5
47
330
22
100
AcDbEntity
  8
0
100
AcDbLine
 10
23.56565672307022
 20
-9.51278021337896
 30
0.0
 11
24.4388546544846
 21
-12.77159925848144
 31
0.0
  0
LINE
  5
48
330
22
100
AcDbEntity
  8
0
100
AcDbLine
 10
22.59973089678116
 20
-9.771599258481472
 30
0.0
 11
18.59973089678112
 21
-9.771599258481472
 31
0.0
  0
LINE
  5
49
330
22
100
AcDbEntity
  8
0
100
AcDbLine
 10
18.59973089678115
 20
-13.77159925848144
 30
0.0
 11
17.59973089678115
 21
-13.77159925848144
 31
0.0
  0
LINE
  5
4A
330
22
100
AcDbEntity
  8
0
100
AcDbLine
 10
18.59973089678115
 20
-9.771599258481472
 30
0.0
 11
18.59973089678115
 21
-13.77159925848144
 31
0.0
  0
LINE
  5
4B
330
22
100
AcDbEntity
  8
0
100
AcDbLine
 10
22.59973089678116
 20
-9.771599258481472
 30
0.0
 11
23.67152766650562
 21
-13.77159925848147
 31
0.0
  0
ARC
  5
4C
330
22
100
AcDbEntity
  8
0
100
AcDbCircle
 10
22.59973089678116
 20
-7.271599258481472
 30
0.0
 40
2.5
100
AcDbArc
 50
270.0
 51
270.0000000000007
  0
LINE
  5
4D
330
22
100
AcDbEntity
  8
0
100
AcDbLine
 10
28.77130377203494
 20
-12.77159925848147
 30
0.0
 11
24.43885465448463
 21
-12.77159925848144
 31
0.0
  0
LINE
  5
4E
330
22
100
AcDbEntity
  8
0
100
AcDbLine
 10
3.599730896781125
 20
-4.771599258481472
 30
0.0
 11
2.599730896781125
 21
-4.771599258481472
 31
0.0
  0
LINE
  5
4F
330
22
100
AcDbEntity
  8
0
100
AcDbLine
 10
22.59973089678116
 20
-8.771599258481472
 30
0.0
 11
18.59973089678115
 21
-8.771599258481472
 31
0.0
  0
LINE
  5
50
330
22
100
AcDbEntity
  8
0
100
AcDbLine
 10
22.59973089678116
 20
-5.771599258481472
 30
0.0
 11
18.59973089678115
 21
-5.771599258481472
 31
0.0
  0
LINE
  5
51
330
22
100
AcDbEntity
  8
0
100
AcDbLine
 10
22.59973089678116
 20
-4.771599258481472
 30
0.0
 11
17.59973089678115
 21
-4.771599258481472
 31
0.0
  0
LINE
  5
52
330
22
100
AcDbEntity
  8
0
100
AcDbLine
 10
18.59973089678115
 20
-5.771599258481472
 30
0.0
 11
18.59973089678115
 21
-8.771599258481472
 31
0.0
  0
ARC
  5
53
330
22
100
AcDbEntity
  8
0
100
AcDbCircle
 10
22.59973089678116
 20
-7.271599258481472
 30
0.0
 40
1.5
100
AcDbArc
 50
270.0
 51
90.0
  0
ENDBLK
  5
54
330
22
100
AcDbEntity
  8
0
100
AcDbBlockEnd
  0
BLOCK
  5
F04
330
EFA
100
AcDbEntity
  8
0
100
AcDbBlockBegin
  2
*D1
 70
     1
 10
0.0
 20
0.0
 30
0.0
  3
*D1
  1

  0
LINE
  5
1BD8
330
EFA
100
AcDbEntity
  8
BEM
 62
     0
370
    -2
100
AcDbLine
 10
111.2595699442639
 20
132.3029369540706
 30
0.0
 11
111.2595699442639
 21
99.88196872571087
 31
0.0
  0
LINE
  5
1BD9
330
EFA
100
AcDbEntity
  8
BEM
 62
     0
370
    -2
100
AcDbLine
 10
270.2595699442639
 20
132.3029369540702
 30
0.0
 11
270.2595699442639
 21
99.88196872571087
 31
0.0
  0
LINE
  5
1BDA
330
EFA
100
AcDbEntity
  8
BEM
 62
     0
370
    -2
100
AcDbLine
 10
118.2595699442639
 20
101.8819687257108
 30
0.0
 11
263.259569944264
 21
101.8819687257108
 31
0.0
  0
SOLID
  5
1BDB
330
EFA
100
AcDbEntity
  8
BEM
 62
     0
100
AcDbTrace
 10
118.2595699442639
 20
103.0486353923775
 30
0.0
 11
118.2595699442639
 21
100.7153020590442
 31
0.0
 12
111.2595699442639
 22
101.8819687257108
 32
0.0
 13
111.2595699442639
 23
101.8819687257108
 33
0.0
  0
SOLID
  5
1BDC
330
EFA
100
AcDbEntity
  8
BEM
 62
     0
100
AcDbTrace
 10
263.259569944264
 20
103.0486353923775
 30
0.0
 11
263.259569944264
 21
100.7153020590442
 31
0.0
 12
270.2595699442639
 22
101.8819687257108
 32
0.0
 13
270.2595699442639
 23
101.8819687257108
 33
0.0
  0
MTEXT
  5
1BDD
330
EFA
100
AcDbEntity
  8
BEM
 62
     1
100
AcDbMText
 10
190.7595699442639
 20
108.3819687257108
 30
0.0
 40
7.0
 41
0.0
 71
     5
 72
     1
  1
\A1;%%C159
 73
     1
 44
1.0
  0
POINT
  5
1BDE
330
EFA
100
AcDbEntity
  8
DEFPOINTS
 62
     0
100
AcDbPoint
 10
111.2595699442639
 20
134.3029369540706
 30
0.0
  0
POINT
  5
1BDF
330
EFA
100
AcDbEntity
  8
DEFPOINTS
 62
     0
100
AcDbPoint
 10
270.2595699442639
 20
134.3029369540702
 30
0.0
  0
POINT
  5
1BE0
330
EFA
100
AcDbEntity
  8
DEFPOINTS
 62
     0
100
AcDbPoint
 10
270.2595699442639
 20
101.8819687257108
 30
0.0
  0
ENDBLK
  5
F05
330
EFA
100
AcDbEntity
  8
0
100
AcDbBlockEnd
  0
BLOCK
  5
1034
330
102A
100
AcDbEntity
  8
0
100
AcDbBlockBegin
  2
*D2
 70
     1
 10
0.0
 20
0.0
 30
0.0
  3
*D2
  1

  0
LINE
  5
1E0F
330
102A
100
AcDbEntity
  8
BEM
 62
     0
370
    -2
100
AcDbLine
 10
81.25956994426394
 20
546.4120893113511
 30
0.0
 11
81.25956994426394
 21
562.014511352795
 31
0.0
  0
LINE
  5
1E10
330
102A
100
AcDbEntity
  8
BEM
 62
     0
370
    -2
100
AcDbLine
 10
300.2595699442638
 20
546.4120893113512
 30
0.0
 11
300.2595699442638
 21
562.014511352795
 31
0.0
  0
LINE
  5
1E11
330
102A
100
AcDbEntity
  8
BEM
 62
     0
370
    -2
100
AcDbLine
 10
88.25956994426395
 20
560.014511352795
 30
0.0
 11
293.2595699442638
 21
560.014511352795
 31
0.0
  0
SOLID
  5
1E12
330
102A
100
AcDbEntity
  8
BEM
 62
     0
100
AcDbTrace
 10
88.25956994426395
 20
561.1811780194616
 30
0.0
 11
88.25956994426395
 21
558.8478446861284
 31
0.0
 12
81.25956994426394
 22
560.014511352795
 32
0.0
 13
81.25956994426394
 23
560.014511352795
 33
0.0
  0
SOLID
  5
1E13
330
102A
100
AcDbEntity
  8
BEM
 62
     0
100
AcDbTrace
 10
293.2595699442638
 20
561.1811780194616
 30
0.0
 11
293.2595699442638
 21
558.8478446861284
 31
0.0
 12
300.2595699442638
 22
560.014511352795
 32
0.0
 13
300.2595699442638
 23
560.014511352795
 33
0.0
  0
MTEXT
  5
1E14
330
102A
100
AcDbEntity
  8
BEM
 62
     1
100
AcDbMText
 10
190.7595699442639
 20
566.514511352795
 30
0.0
 40
7.0
 41
0.0
 71
     5
 72
     1
  1
\A1;%%c219
  7
GREEKS
 73
     1
 44
1.0
  0
POINT
  5
1E15
330
102A
100
AcDbEntity
  8
DEFPOINTS
 62
     0
100
AcDbPoint
 10
81.25956994426394
 20
544.412089311351
 30
0.0
  0
POINT
  5
1E16
330
102A
100
AcDbEntity
  8
DEFPOINTS
 62
     0
100
AcDbPoint
 10
300.2595699442638
 20
544.4120893113512
 30
0.0
  0
POINT
  5
1E17
330
102A
100
AcDbEntity
  8
DEFPOINTS
 62
     0
100
AcDbPoint
 10
300.2595699442638
 20
560.014511352795
 30
0.0
  0
ENDBLK
  5
1035
330
102A
100
AcDbEntity
  8
0
100
AcDbBlockEnd
  0
BLOCK
  5
1108
330
10FE
100
AcDbEntity
  8
0
100
AcDbBlockBegin
  2
*D3
 70
     1
 10
0.0
 20
0.0
 30
0.0
  3
*D3
  1

  0
LINE
  5
1E4A
330
10FE
100
AcDbEntity
  8
BEM
 62
     0
370
    -2
100
AcDbLine
 10
79.25956994426393
 20
189.4120893113511
 30
0.0
 11
68.1147747356049
 21
189.4120893113511
 31
0.0
  0
LINE
  5
1E4B
330
10FE
100
AcDbEntity
  8
BEM
 62
     0
370
    -2
100
AcDbLine
 10
110.124906985664
 20
124.4120893113511
 30
0.0
 11
68.11477473560488
 21
124.4120893113512
 31
0.0
  0
LINE
  5
1E4C
330
10FE
100
AcDbEntity
  8
BEM
 62
     0
370
    -2
100
AcDbLine
 10
70.11477473560489
 20
182.4120893113511
 30
0.0
 11
70.11477473560488
 21
131.4120893113511
 31
0.0
  0
SOLID
  5
1E4D
330
10FE
100
AcDbEntity
  8
BEM
 62
     0
100
AcDbTrace
 10
68.94810806893822
 20
182.4120893113511
 30
0.0
 11
71.28144140227156
 21
182.4120893113511
 31
0.0
 12
70.11477473560489
 22
189.4120893113511
 32
0.0
 13
70.11477473560489
 23
189.4120893113511
 33
0.0
  0
SOLID
  5
1E4E
330
10FE
100
AcDbEntity
  8
BEM
 62
     0
100
AcDbTrace
 10
68.94810806893821
 20
131.4120893113511
 30
0.0
 11
71.28144140227155
 21
131.4120893113511
 31
0.0
 12
70.11477473560488
 22
124.4120893113512
 32
0.0
 13
70.11477473560488
 23
124.4120893113512
 33
0.0
  0
MTEXT
  5
1E4F
330
10FE
100
AcDbEntity
  8
BEM
 62
     1
100
AcDbMText
 10
63.61477473560486
 20
156.9120893113511
 30
0.0
 40
7.0
 41
0.0
 71
     5
 72
     1
  1
\A1;65
 11
0.0000000000000001
 21
1.0
 31
0.0
 73
     1
 44
1.0
  0
POINT
  5
1E50
330
10FE
100
AcDbEntity
  8
DEFPOINTS
 62
     0
100
AcDbPoint
 10
81.25956994426394
 20
189.4120893113511
 30
0.0
  0
POINT
  5
1E51
330
10FE
100
AcDbEntity
  8
DEFPOINTS
 62
     0
100
AcDbPoint
 10
112.124906985664
 20
124.4120893113511
 30
0.0
  0
POINT
  5
1E52
330
10FE
100
AcDbEntity
  8
DEFPOINTS
 62
     0
100
AcDbPoint
 10
70.11477473560488
 20
124.4120893113512
 30
0.0
  0
ENDBLK
  5
1109
330
10FE
100
AcDbEntity
  8
0
100
AcDbBlockEnd
  0
BLOCK
  5
1142
330
1138
100
AcDbEntity
  8
0
100
AcDbBlockBegin
  2
*D4
 70
     1
 10
0.0
 20
0.0
 30
0.0
  3
*D4
  1

  0
LINE
  5
1E6E
330
1138
100
AcDbEntity
  8
BEM
 62
     0
370
    -2
100
AcDbLine
 10
79.25956994426394
 20
544.4120893113513
 30
0.0
 11
38.99089384266799
 21
544.4120893113513
 31
0.0
  0
LINE
  5
1E6F
330
1138
100
AcDbEntity
  8
BEM
 62
     0
370
    -2
100
AcDbLine
 10
110.124906985664
 20
124.4120893113511
 30
0.0
 11
38.9908938426679
 21
124.4120893113512
 31
0.0
  0
LINE
  5
1E70
330
1138
100
AcDbEntity
  8
BEM
 62
     0
370
    -2
100
AcDbLine
 10
40.99089384266799
 20
537.4120893113513
 30
0.0
 11
40.99089384266789
 21
131.4120893113512
 31
0.0
  0
SOLID
  5
1E71
330
1138
100
AcDbEntity
  8
BEM
 62
     0
100
AcDbTrace
 10
39.82422717600132
 20
537.4120893113513
 30
0.0
 11
42.15756050933465
 21
537.4120893113513
 31
0.0
 12
40.99089384266799
 22
544.4120893113513
 32
0.0
 13
40.99089384266799
 23
544.4120893113513
 33
0.0
  0
SOLID
  5
1E72
330
1138
100
AcDbEntity
  8
BEM
 62
     0
100
AcDbTrace
 10
39.82422717600123
 20
131.4120893113512
 30
0.0
 11
42.15756050933456
 21
131.4120893113512
 31
0.0
 12
40.99089384266789
 22
124.4120893113512
 32
0.0
 13
40.99089384266789
 23
124.4120893113512
 33
0.0
  0
MTEXT
  5
1E73
330
1138
100
AcDbEntity
  8
BEM
 62
     1
100
AcDbMText
 10
34.49089384266789
 20
334.4120893113513
 30
0.0
 40
7.0
 41
0.0
 71
     5
 72
     1
  1
\A1;420
 11
0.0000000000000001
 21
1.0
 31
0.0
 73
     1
 44
1.0
  0
POINT
  5
1E74
330
1138
100
AcDbEntity
  8
DEFPOINTS
 62
     0
100
AcDbPoint
 10
81.25956994426394
 20
544.4120893113513
 30
0.0
  0
POINT
  5
1E75
330
1138
100
AcDbEntity
  8
DEFPOINTS
 62
     0
100
AcDbPoint
 10
112.124906985664
 20
124.4120893113511
 30
0.0
  0
POINT
  5
1E76
330
1138
100
AcDbEntity
  8
DEFPOINTS
 62
     0
100
AcDbPoint
 10
40.99089384266789
 20
124.4120893113512
 30
0.0
  0
ENDBLK
  5
1143
330
1138
100
AcDbEntity
  8
0
100
AcDbBlockEnd
  0
BLOCK
  5
190A
330
1900
100
AcDbEntity
  8
0
100
AcDbBlockBegin
  2
*D5
 70
     1
 10
0.0
 20
0.0
 30
0.0
  3
*D5
  1

  0
LINE
  5
1E65
330
1900
100
AcDbEntity
  8
BEM
 62
     0
370
    -2
100
AcDbLine
 10
110.124906985664
 20
124.4120893113511
 30
0.0
 11
53.50091766019524
 21
124.4120893113512
 31
0.0
  0
LINE
  5
1E66
330
1900
100
AcDbEntity
  8
BEM
 62
     0
370
    -2
100
AcDbLine
 10
188.7595699442639
 20
244.4120893113512
 30
0.0
 11
53.50091766019528
 21
244.4120893113513
 31
0.0
  0
LINE
  5
1E67
330
1900
100
AcDbEntity
  8
BEM
 62
     0
370
    -2
100
AcDbLine
 10
55.50091766019524
 20
131.4120893113512
 30
0.0
 11
55.50091766019527
 21
237.4120893113512
 31
0.0
  0
SOLID
  5
1E68
330
1900
100
AcDbEntity
  8
BEM
 62
     0
100
AcDbTrace
 10
54.33425099352858
 20
131.4120893113512
 30
0.0
 11
56.6675843268619
 21
131.4120893113512
 31
0.0
 12
55.50091766019524
 22
124.4120893113512
 32
0.0
 13
55.50091766019524
 23
124.4120893113512
 33
0.0
  0
SOLID
  5
1E69
330
1900
100
AcDbEntity
  8
BEM
 62
     0
100
AcDbTrace
 10
54.33425099352859
 20
237.4120893113512
 30
0.0
 11
56.66758432686193
 21
237.4120893113512
 31
0.0
 12
55.50091766019527
 22
244.4120893113513
 32
0.0
 13
55.50091766019527
 23
244.4120893113513
 33
0.0
  0
MTEXT
  5
1E6A
330
1900
100
AcDbEntity
  8
BEM
 62
     1
100
AcDbMText
 10
49.00091766019523
 20
188.3800126392993
 30
0.0
 40
7.0
 41
0.0
 71
     5
 72
     1
  1
\A1;120
 11
0.0000000000000001
 21
1.0
 31
0.0
 73
     1
 44
1.0
  0
POINT
  5
1E6B
330
1900
100
AcDbEntity
  8
DEFPOINTS
 62
     0
100
AcDbPoint
 10
112.124906985664
 20
124.4120893113511
 30
0.0
  0
POINT
  5
1E6C
330
1900
100
AcDbEntity
  8
DEFPOINTS
 62
     0
100
AcDbPoint
 10
190.7595699442639
 20
244.4120893113512
 30
0.0
  0
POINT
  5
1E6D
330
1900
100
AcDbEntity
  8
DEFPOINTS
 62
     0
100
AcDbPoint
 10
55.50091766019527
 20
244.4120893113513
 30
0.0
  0
ENDBLK
  5
190B
330
1900
100
AcDbEntity
  8
0
100
AcDbBlockEnd
  0
BLOCK
  5
1A91
330
1A87
100
AcDbEntity
  8
0
100
AcDbBlockBegin
  2
*D6
 70
     1
 10
0.0
 20
0.0
 30
0.0
  3
*D6
  1

  0
LINE
  5
1B85
330
1A87
100
AcDbEntity
  8
BEM
 62
     0
370
    -2
100
AcDbLine
 10
467.3443874053821
 20
399.1624083740271
 30
0.0
 11
492.4797579224833
 21
374.0270378569254
 31
0.0
  0
LINE
  5
1B86
330
1A87
100
AcDbEntity
  8
BEM
 62
     0
370
    -2
100
AcDbLine
 10
192.1737835066371
 20
242.9978757489782
 30
0.0
 11
276.8121896605843
 21
158.3594695950297
 31
0.0
  0
LINE
  5
1B87
330
1A87
100
AcDbEntity
  8
BEM
 62
     0
370
    -2
100
AcDbLine
 10
486.1157968918043
 20
370.4915039509927
 30
0.0
 11
280.3477235665171
 21
164.7234306257086
 31
0.0
  0
SOLID
  5
1B88
330
1A87
100
AcDbEntity
  8
BEM
 62
     0
100
AcDbTrace
 10
485.29083898042
 20
371.316461862377
 30
0.0
 11
486.9407548031886
 21
369.6665460396084
 31
0.0
 12
491.0655443601101
 22
375.4412514192985
 32
0.0
 13
491.0655443601101
 23
375.4412514192985
 33
0.0
  0
SOLID
  5
1B89
330
1A87
100
AcDbEntity
  8
BEM
 62
     0
100
AcDbTrace
 10
279.5227656551328
 20
165.5483885370929
 30
0.0
 11
281.1726814779014
 21
163.8984727143242
 31
0.0
 12
275.3979760982113
 22
159.7736831574028
 32
0.0
 13
275.3979760982113
 23
159.7736831574028
 33
0.0
  0
MTEXT
  5
1B8A
330
1A87
100
AcDbEntity
  8
BEM
 62
     1
100
AcDbMText
 10
378.6355661514483
 20
272.2036613660633
 30
0.0
 40
7.0
 41
0.0
 71
     5
 72
     1
  1
\A1;305
  7
GREEKS
 11
0.7071067811865529
 21
0.7071067811865422
 31
0.0
 73
     1
 44
1.0
  0
POINT
  5
1B8B
330
1A87
100
AcDbEntity
  8
DEFPOINTS
 62
     0
100
AcDbPoint
 10
465.9301738430089
 20
400.5766219364002
 30
0.0
  0
POINT
  5
1B8C
330
1A87
100
AcDbEntity
  8
DEFPOINTS
 62
     0
100
AcDbPoint
 10
190.759569944264
 20
244.4120893113513
 30
0.0
  0
POINT
  5
1B8D
330
1A87
100
AcDbEntity
  8
DEFPOINTS
 62
     0
100
AcDbPoint
 10
275.3979760982113
 20
159.7736831574028
 30
0.0
  0
ENDBLK
  5
1A92
330
1A87
100
AcDbEntity
  8
0
100
AcDbBlockEnd
  0
BLOCK
  5
1AC3
330
1AB9
100
AcDbEntity
  8
0
100
AcDbBlockBegin
  2
*D7
 70
     1
 10
0.0
 20
0.0
 30
0.0
  3
*D7
  1

  0
LINE
  5
1E18
330
1AB9
100
AcDbEntity
  8
BEM
 62
     0
370
    -2
100
AcDbLine
 10
348.3383161316859
 20
520.9969067724694
 30
0.0
 11
358.5225395383822
 21
531.1811301791656
 31
0.0
  0
LINE
  5
1E19
330
1AB9
100
AcDbEntity
  8
BEM
 62
     0
370
    -2
100
AcDbLine
 10
467.3443874053821
 20
401.9908354987732
 30
0.0
 11
477.5286108120791
 21
412.1750589054704
 31
0.0
  0
LINE
  5
1E1A
330
1AB9
100
AcDbEntity
  8
BEM
 62
     0
370
    -2
100
AcDbLine
 10
362.0580734443149
 20
524.8171691484867
 30
0.0
 11
471.1646497814002
 21
415.7105928114031
 31
0.0
  0
SOLID
  5
1E1B
330
1AB9
100
AcDbEntity
  8
BEM
 62
     0
100
AcDbTrace
 10
362.8830313556992
 20
525.6421270598711
 30
0.0
 11
361.2331155329306
 21
523.9922112371025
 31
0.0
 12
357.108325976009
 22
529.7669166167925
 32
0.0
 13
357.108325976009
 23
529.7669166167925
 33
0.0
  0
SOLID
  5
1E1C
330
1AB9
100
AcDbEntity
  8
BEM
 62
     0
100
AcDbTrace
 10
471.9896076927844
 20
416.5355507227874
 30
0.0
 11
470.3396918700159
 21
414.8856349000189
 31
0.0
 12
476.1143972497061
 22
410.7608453430973
 32
0.0
 13
476.1143972497061
 23
410.7608453430973
 33
0.0
  0
MTEXT
  5
1E1D
330
1AB9
100
AcDbEntity
  8
BEM
 62
     1
100
AcDbMText
 10
421.20755569057
 20
474.8600750576575
 30
0.0
 40
7.0
 41
0.0
 71
     5
 72
     1
  1
\A1;%%c168.3
  7
GREEKS
 11
0.7071067811865529
 21
-0.7071067811865422
 31
0.0
 73
     1
 44
1.0
  0
POINT
  5
1E1E
330
1AB9
100
AcDbEntity
  8
DEFPOINTS
 62
     0
100
AcDbPoint
 10
346.9241025693129
 20
519.5826932100962
 30
0.0
  0
POINT
  5
1E1F
330
1AB9
100
AcDbEntity
  8
DEFPOINTS
 62
     0
100
AcDbPoint
 10
465.930173843009
 20
400.5766219364001
 30
0.0
  0
POINT
  5
1E20
330
1AB9
100
AcDbEntity
  8
DEFPOINTS
 62
     0
100
AcDbPoint
 10
476.1143972497061
 20
410.7608453430973
 30
0.0
  0
ENDBLK
  5
1AC4
330
1AB9
100
AcDbEntity
  8
0
100
AcDbBlockEnd
  0
ENDSEC
  0
SECTION
  2
ENTITIES
  0
LINE
  5
59
330
1E
100
AcDbEntity
  8
STEMPEL
100
AcDbLine
 10
484.0
 20
460.0
 30
0.0
 11
584.0
 21
459.9999999999998
 31
0.0
  0
LINE
  5
87
330
1E
100
AcDbEntity
  8
HILF
100
AcDbLine
 10
594.0
 20
-0.0000000000000568
 30
0.0
 11
594.0
 21
840.0
 31
0.0
  0
LINE
  5
88
330
1E
100
AcDbEntity
  8
HILF
100
AcDbLine
 10
594.0
 20
840.0
 30
0.0
 11
0.0
 21
840.0
 31
0.0
  0
LINE
  5
89
330
1E
100
AcDbEntity
  8
HILF
100
AcDbLine
 10
0.0
 20
840.0
 30
0.0
 11
0.0
 21
0.0
 31
0.0
  0
LINE
  5
8B
330
1E
100
AcDbEntity
  8
STEMPEL
100
AcDbLine
 10
10.0
 20
830.0
 30
0.0
 11
10.0
 21
39.99999999999995
 31
0.0
  0
LINE
  5
8D
330
1E
100
AcDbEntity
  8
STEMPEL
100
AcDbLine
 10
584.0
 20
39.99999999999995
 30
0.0
 11
584.0
 21
830.0
 31
0.0
  0
LINE
  5
8E
330
1E
100
AcDbEntity
  8
STEMPEL
100
AcDbLine
 10
584.0
 20
830.0
 30
0.0
 11
10.0
 21
830.0
 31
0.0
  0
LINE
  5
9C
330
1E
100
AcDbEntity
  8
BEM
100
AcDbLine
 10
594.0
 20
455.9999999999999
 30
0.0
 11
584.0
 21
455.9999999999999
 31
0.0
  0
LINE
  5
13E
330
1E
100
AcDbEntity
  8
HILF
100
AcDbLine
 10
594.0
 20
-0.0000000000000568
 30
0.0
 11
0.0
 21
0.0
 31
0.0
  0
LINE
  5
13F
330
1E
100
AcDbEntity
  8
STEMPEL
100
AcDbLine
 10
584.0
 20
39.99999999999995
 30
0.0
 11
10.0
 21
39.99999999999995
 31
0.0
  0
LINE
  5
14A
330
1E
100
AcDbEntity
  8
HILF
100
AcDbLine
 10
297.0
 20
-0.0000000000000568
 30
0.0
 11
297.0
 21
39.99999999999995
 31
0.0
  0
TEXT
  5
15B
330
1E
100
AcDbEntity
  8
BEM
100
AcDbText
 10
583.8320989200114
 20
837.3022923857165
 30
0.0
 40
4.0
  1
Diese Zeichnung ist urheberrechtlich geschützt und bleibt unser Eigentum. Sie darf weder ganz noch teilweise verfielfältigt und nicht an Dritte weitergegeben werden.
 50
180.0
 41
0.8
  7
GREEKS
100
AcDbText
  0
INSERT
  5
2AF
330
1E
100
AcDbEntity
  8
STEMPEL
100
AcDbBlockReference
  2
LOGO
 10
548.9789472355168
 20
560.9955485457795
 30
0.0
 41
2.0
 42
2.0
 43
2.0
 50
90.0
  0
TEXT
  5
2B0
330
1E
100
AcDbEntity
  8
TEXT
100
AcDbText
 10
503.2363615897698
 20
602.626132208084
 30
0.0
 40
4.0
  1
DIN EN1123-2
 50
90.0
 41
0.8
  7
GREEKS
 72
     1
 11
503.2363615897698
 21
619.6166083985602
 31
0.0
100
AcDbText
  0
TEXT
  5
2B1
330
1E
100
AcDbEntity
  8
TEXT
100
AcDbText
 10
551.3702584697737
 20
644.9837501577826
 30
0.0
 40
4.0
  1
58025FE0W.DWG
 50
90.0
 41
0.8
  7
GREEKS
100
AcDbText
  0
TEXT
  5
2B2
330
1E
100
AcDbEntity
  8
TEXT
100
AcDbText
 10
542.3598805695784
 20
645.1296391125315
 30
0.0
 40
5.0
  1
EDV-Art.Nr. 58025.FE0X
 50
90.0
 41
0.8
  7
GREEKS
100
AcDbText
  0
TEXT
  5
2B3
330
1E
100
AcDbEntity
  8
TEXT
100
AcDbText
 10
522.4966558241471
 20
645.1296391125315
 30
0.0
 40
5.0
  1
Red.-Abzweig 45°
 50
90.0
 41
0.8
  7
GREEKS
100
AcDbText
  0
TEXT
  5
2B4
330
1E
100
AcDbEntity
  8
TEXT
 62
     1
100
AcDbText
 10
506.5825121074622
 20
644.9367181557188
 30
0.0
 40
7.0
  1
Verbundrohr DN150/125
 50
90.0
 41
0.8
  7
GREEKS
100
AcDbText
  0
TEXT
  5
2B5
330
1E
100
AcDbEntity
  8
TEXT
100
AcDbText
 10
530.8923495917427
 20
580.3989971082361
 30
0.0
 40
4.0
  1
24.09.
 50
90.0
 41
0.8
  7
GREEKS
 72
     1
 11
530.8923495917427
 21
587.4085209177599
 31
0.0
100
AcDbText
  0
TEXT
  5
2B6
330
1E
100
AcDbEntity
  8
TEXT
 62
     1
100
AcDbText
 10
505.8509857108604
 20
570.5006306481887
 30
0.0
 40
7.0
  1
1:2
 50
90.0
 41
0.8
  7
GREEKS
100
AcDbText
  0
TEXT
  5
2B7
330
1E
100
AcDbEntity
  8
TEXT
 62
     1
100
AcDbText
 10
505.8509857108604
 20
765.7458567290483
 30
0.0
 40
7.0
  1
58025FE0W
 50
90.0
 41
0.8
  7
GREEKS
 72
     1
 11
505.8509857108604
 21
789.3458567290483
 31
0.0
100
AcDbText
  0
TEXT
  5
2B8
330
1E
100
AcDbEntity
  8
TEXT
100
AcDbText
 10
530.9103608027649
 20
614.4216048581257
 30
0.0
 40
4.0
  1
Koeh
 50
90.0
 41
0.8
  7
GREEKS
 72
     1
 11
530.9103608027649
 21
619.6787477152686
 31
0.0
100
AcDbText
  0
TEXT
  5
2B9
330
1E
100
AcDbEntity
  8
TEXT
100
AcDbText
 10
482.3280000000001
 20
461.8550995097767
 30
0.0
 40
5.0
  1
Erstellt mit AUTOCAD 2004
 50
90.0
 41
0.8
  7
GREEKS
100
AcDbText
  0
TEXT
  5
2BA
330
1E
100
AcDbEntity
  8
TEXT
100
AcDbText
 10
520.8597452884832
 20
558.622109822104
 30
0.0
 40
4.0
  1
2007
 50
90.0
 41
0.8
  7
GREEKS
100
AcDbText
  0
TEXT
  5
2BC
330
1E
100
AcDbEntity
  8
TEXT
100
AcDbText
 10
541.925838221214
 20
757.2400861497006
 30
0.0
 40
5.0
  1
ersetzt durch:
 50
90.0
 41
0.8
  7
GREEKS
100
AcDbText
  0
TEXT
  5
2BE
330
1E
100
AcDbEntity
  8
TEXT
100
AcDbText
 10
550.4705361035019
 20
557.6006777387304
 30
0.0
 40
4.0
  1
Norm.
 50
90.0
 41
0.8
  7
GREEKS
100
AcDbText
  0
TEXT
  5
2BF
330
1E
100
AcDbEntity
  8
TEXT
100
AcDbText
 10
540.3107370857163
 20
557.5515086571672
 30
0.0
 40
4.0
  1
Gepr.
 50
90.0
 41
0.8
  7
GREEKS
100
AcDbText
  0
TEXT
  5
2C0
330
1E
100
AcDbEntity
  8
TEXT
100
AcDbText
 10
530.3700963038203
 20
557.5836127167615
 30
0.0
 40
4.0
  1
Gez.
 50
90.0
 41
0.8
  7
GREEKS
100
AcDbText
  0
TEXT
  5
2C1
330
1E
100
AcDbEntity
  8
TEXT
100
AcDbText
 10
520.6903890808478
 20
612.4626584226295
 30
0.0
 40
4.0
  1
Name
 50
90.0
 41
0.8
  7
GREEKS
100
AcDbText
  0
TEXT
  5
2C2
330
1E
100
AcDbEntity
  8
TEXT
100
AcDbText
 10
520.6811949877008
 20
582.331167315365
 30
0.0
 40
4.0
  1
Tag
 50
90.0
 41
0.8
  7
GREEKS
100
AcDbText
  0
TEXT
  5
2C3
330
1E
100
AcDbEntity
  8
TEXT
100
AcDbText
 10
575.4067578303359
 20
539.0122744386594
 30
0.0
 40
4.0
  1
Name
 50
90.0
 41
0.8
  7
GREEKS
 72
     1
 11
575.4067578303359
 21
545.3360839624687
 31
0.0
100
AcDbText
  0
TEXT
  5
2C4
330
1E
100
AcDbEntity
  8
TEXT
100
AcDbText
 10
575.3284373066019
 20
520.0934676075481
 30
0.0
 40
4.0
  1
Tag
 50
90.0
 41
0.8
  7
GREEKS
 72
     1
 11
575.3284373066019
 21
523.8268009408813
 31
0.0
100
AcDbText
  0
TEXT
  5
2C5
330
1E
100
AcDbEntity
  8
TEXT
100
AcDbText
 10
580.3453415397281
 20
468.2664110704576
 30
0.0
 40
4.0
  1
Index
 50
180.0
 41
0.8
  7
GREEKS
100
AcDbText
  0
TEXT
  5
2C6
330
1E
100
AcDbEntity
  8
TEXT
100
AcDbText
 10
520.8188176290002
 20
756.7238616296992
 30
0.0
 40
5.0
  1
Ersatz für:
 50
90.0
 41
0.8
  7
GREEKS
100
AcDbText
  0
TEXT
  5
2C7
330
1E
100
AcDbEntity
  8
TEXT
100
AcDbText
 10
563.1543942980694
 20
644.742238391136
 30
0.0
 40
5.0
  1
Bauvorhaben
 50
90.0
 41
0.8
  7
GREEKS
100
AcDbText
  0
TEXT
  5
2C8
330
1E
100
AcDbEntity
  8
TEXT
100
AcDbText
 10
491.6867965462863
 20
756.178754957634
 30
0.0
 40
5.0
  1
Zeichnungs Nr.
 50
90.0
 41
0.8
  7
GREEKS
100
AcDbText
  0
TEXT
  5
2C9
330
1E
100
AcDbEntity
  8
TEXT
100
AcDbText
 10
491.4510671988221
 20
644.877940380901
 30
0.0
 40
5.0
  1
Benennung
 50
90.0
 41
0.8
  7
GREEKS
100
AcDbText
  0
TEXT
  5
2CA
330
1E
100
AcDbEntity
  8
TEXT
100
AcDbText
 10
491.581583156518
 20
604.2858954734051
 30
0.0
 40
5.0
  1
Zul. Abw.
 50
90.0
 41
0.8
  7
GREEKS
100
AcDbText
  0
TEXT
  5
2CB
330
1E
100
AcDbEntity
  8
TEXT
100
AcDbText
 10
491.537910491291
 20
563.5163572150377
 30
0.0
 40
5.0
  1
Maßstab
 50
90.0
 41
0.8
  7
GREEKS
100
AcDbText
  0
TEXT
  5
2CC
330
1E
100
AcDbEntity
  8
TEXT
100
AcDbText
 10
575.3261810501586
 20
483.8616597963182
 30
0.0
 40
4.0
  1
Änderung
 50
90.0
 41
0.8
  7
GREEKS
 72
     1
 11
575.3261810501586
 21
494.6045169391753
 31
0.0
100
AcDbText
  0
LINE
  5
2CD
330
1E
100
AcDbEntity
  8
HILF
100
AcDbLine
 10
579.1060174197168
 20
643.4909699289885
 30
0.0
 11
579.1060174197168
 21
824.8588839326728
 31
0.0
  0
LINE
  5
2CE
330
1E
100
AcDbEntity
  8
HILF
100
AcDbLine
 10
510.2201636304418
 20
756.7238616296992
 30
0.0
 11
510.2201636304418
 21
824.8588839326728
 31
0.0
  0
LINE
  5
2CF
330
1E
100
AcDbEntity
  8
VOLL
100
AcDbLine
 10
534.0
 20
752.0
 30
0.0
 11
534.0
 21
830.0
 31
0.0
  0
LINE
  5
2D0
330
1E
100
AcDbEntity
  8
HILF
100
AcDbLine
 10
544.0
 20
644.7736801096947
 30
0.0
 11
544.0
 21
744.8353916556309
 31
0.0
  0
LINE
  5
2D1
330
1E
100
AcDbEntity
  8
HILF
100
AcDbLine
 10
534.0
 20
644.7736801096947
 30
0.0
 11
534.0
 21
744.8353916556309
 31
0.0
  0
LINE
  5
2D2
330
1E
100
AcDbEntity
  8
HILF
100
AcDbLine
 10
524.0000000000001
 20
644.7736801096947
 30
0.0
 11
524.0000000000001
 21
744.8353916556309
 31
0.0
  0
LINE
  5
2D3
330
1E
100
AcDbEntity
  8
HILF
100
AcDbLine
 10
509.9624175243587
 20
644.7736801096947
 30
0.0
 11
509.9624175243588
 21
744.835391655631
 31
0.0
  0
LINE
  5
2D4
330
1E
100
AcDbEntity
  8
HILF
100
AcDbLine
 10
544.0
 20
556.0000000000001
 30
0.0
 11
544.0
 21
640.0
 31
0.0
  0
LINE
  5
2D5
330
1E
100
AcDbEntity
  8
HILF
100
AcDbLine
 10
534.0
 20
556.0000000000001
 30
0.0
 11
534.0
 21
640.0
 31
0.0
  0
LINE
  5
2D6
330
1E
100
AcDbEntity
  8
HILF
100
AcDbLine
 10
524.0000000000001
 20
556.0000000000001
 30
0.0
 11
524.0000000000001
 21
640.0
 31
0.0
  0
LINE
  5
2D7
330
1E
100
AcDbEntity
  8
HILF
100
AcDbLine
 10
554.0
 20
460.0000000000001
 30
0.0
 11
554.0
 21
556.0000000000001
 31
0.0
  0
LINE
  5
2D8
330
1E
100
AcDbEntity
  8
HILF
100
AcDbLine
 10
544.0
 20
460.0000000000001
 30
0.0
 11
544.0
 21
556.0000000000001
 31
0.0
  0
LINE
  5
2D9
330
1E
100
AcDbEntity
  8
HILF
100
AcDbLine
 10
534.0
 20
460.0000000000001
 30
0.0
 11
534.0
 21
556.0000000000001
 31
0.0
  0
LINE
  5
2DA
330
1E
100
AcDbEntity
  8
HILF
100
AcDbLine
 10
524.0000000000001
 20
460.0000000000001
 30
0.0
 11
524.0000000000001
 21
556.0000000000001
 31
0.0
  0
LINE
  5
2DB
330
1E
100
AcDbEntity
  8
HILF
100
AcDbLine
 10
514.0
 20
460.0000000000001
 30
0.0
 11
514.0
 21
556.0000000000001
 31
0.0
  0
LINE
  5
2DC
330
1E
100
AcDbEntity
  8
HILF
100
AcDbLine
 10
504.0
 20
460.0000000000001
 30
0.0
 11
504.0
 21
556.0000000000001
 31
0.0
  0
LINE
  5
2DD
330
1E
100
AcDbEntity
  8
HILF
100
AcDbLine
 10
494.0
 20
460.0000000000001
 30
0.0
 11
494.0
 21
556.0000000000001
 31
0.0
  0
LINE
  5
2DE
330
1E
100
AcDbEntity
  8
VOLL
100
AcDbLine
 10
484.0000000000002
 20
600.0
 30
0.0
 11
554.0
 21
600.0
 31
0.0
  0
LINE
  5
2DF
330
1E
100
AcDbEntity
  8
VOLL
100
AcDbLine
 10
514.0
 20
574.0000000000001
 30
0.0
 11
554.0
 21
574.0000000000001
 31
0.0
  0
LINE
  5
2E0
330
1E
100
AcDbEntity
  8
VOLL
100
AcDbLine
 10
484.0
 20
534.0000000000001
 30
0.0
 11
584.0
 21
534.0
 31
0.0
  0
LINE
  5
2E1
330
1E
100
AcDbEntity
  8
VOLL
100
AcDbLine
 10
484.0
 20
514.0000000000001
 30
0.0
 11
584.0
 21
514.0
 31
0.0
  0
LINE
  5
2E2
330
1E
100
AcDbEntity
  8
VOLL
100
AcDbLine
 10
484.0
 20
474.0000000000001
 30
0.0
 11
584.0
 21
474.0
 31
0.0
  0
LINE
  5
2E3
330
1E
100
AcDbEntity
  8
STEMPEL
100
AcDbLine
 10
514.0000000000001
 20
830.0
 30
0.0
 11
514.0
 21
556.0000000000001
 31
0.0
  0
LINE
  5
2E4
330
1E
100
AcDbEntity
  8
STEMPEL
100
AcDbLine
 10
554.0
 20
830.0
 30
0.0
 11
554.0
 21
556.0000000000001
 31
0.0
  0
LINE
  5
2E5
330
1E
100
AcDbEntity
  8
STEMPEL
100
AcDbLine
 10
564.0
 20
555.9999999999998
 30
0.0
 11
564.0
 21
460.0
 31
0.0
  0
LINE
  5
2E6
330
1E
100
AcDbEntity
  8
STEMPEL
100
AcDbLine
 10
484.0000000000003
 20
752.0
 30
0.0
 11
554.0
 21
752.0
 31
0.0
  0
LINE
  5
2E7
330
1E
100
AcDbEntity
  8
STEMPEL
100
AcDbLine
 10
484.0
 20
640.0
 30
0.0
 11
584.0
 21
640.0
 31
0.0
  0
LINE
  5
2E8
330
1E
100
AcDbEntity
  8
STEMPEL
100
AcDbLine
 10
484.0
 20
556.0000000000001
 30
0.0
 11
584.0
 21
556.0
 31
0.0
  0
LINE
  5
2E9
330
1E
100
AcDbEntity
  8
STEMPEL
100
AcDbLine
 10
484.0000000000001
 20
830.0
 30
0.0
 11
484.0
 21
460.0
 31
0.0
  0
TEXT
  5
865
330
1E
100
AcDbEntity
  8
TEXT
 62
     1
100
AcDbText
 10
315.789524822413
 20
151.2874424304444
 30
0.0
 40
7.0
  1
Rohrende leicht eingezogen
 41
0.8
  7
GREEKS
100
AcDbText
  0
LINE
  5
E8A
102
{ACAD_REACTORS
330
1C76
330
1CD0
330
1D45
102
}
330
1E
100
AcDbEntity
  8
STEMPEL
  6
Continuous
100
AcDbLine
 10
270.2595699442641
 20
233.4024213194735
 30
0.0
 11
270.2595699442639
 21
134.3029369540702
 31
0.0
  0
DIMENSION
  5
EA6
330
1E
100
AcDbEntity
  8
BEM
100
AcDbDimension
  2
*D1
 10
270.2595699442639
 20
101.8819687257108
 30
0.0
 11
190.7595699442639
 21
108.3819687257108
 31
0.0
 70
    32
  1
%%C<>
 71
     5
 42
159.0
  3
Standard
100
AcDbAlignedDimension
 13
111.2595699442639
 23
134.3029369540706
 33
0.0
 14
270.2595699442639
 24
134.3029369540702
 34
0.0
100
AcDbRotatedDimension
1001
ACAD
1000
DSTYLE
1002
{
1070
    40
1040
2.0
1070
    41
1040
3.5
1070
    42
1040
1.0
1070
    43
1040
7.0
1070
    44
1040
1.0
1070
    73
1070
     0
1070
    74
1070
     0
1070
    77
1070
     1
1070
    78
1070
     8
1070
    79
1070
     2
1070
   140
1040
3.5
1070
   141
1040
1.5
1070
   146
1040
0.5142857142857144
1070
   147
1040
1.5
1070
   172
1070
     1
1070
   178
1070
     1
1070
   179
1070
     2
1070
   271
1070
     2
1070
   272
1070
     2
1070
   284
1070
     8
1070
   285
1070
     8
1070
   286
1070
     8
1002
}
  0
LINE
  5
EA7
102
{ACAD_REACTORS
330
1CD0
102
}
330
1E
100
AcDbEntity
  8
STEMPEL
100
AcDbLine
 10
270.2595699442639
 20
134.3029369540702
 30
0.0
 11
269.394232902864
 21
124.4120893113512
 31
0.0
  0
LINE
  5
EA8
102
{ACAD_REACTORS
330
1CD0
102
}
330
1E
100
AcDbEntity
  8
STEMPEL
100
AcDbLine
 10
111.2595699442639
 20
134.3029369540706
 30
0.0
 11
112.124906985664
 21
124.4120893113511
 31
0.0
  0
LINE
  5
EA9
330
1E
100
AcDbEntity
  8
HILF
100
AcDbLine
 10
265.2500203504065
 20
134.4120893113511
 30
0.0
 11
116.2691195381215
 21
134.4120893113512
 31
0.0
  0
LINE
  5
EAA
102
{ACAD_REACTORS
330
1374
330
1CD0
102
}
330
1E
100
AcDbEntity
  8
STEMPEL
  6
Continuous
100
AcDbLine
 10
277.5180147416701
 20
544.412089311351
 30
0.0
 11
277.9803424905466
 21
543.4206242543414
 31
0.0
  0
LINE
  5
EAB
102
{ACAD_REACTORS
330
1374
330
1CD0
102
}
330
1E
100
AcDbEntity
  8
STEMPEL
  6
Continuous
100
AcDbLine
 10
281.2595699442638
 20
528.6289850934172
 30
0.0
 11
281.2595699442638
 21
512.464694840528
 31
0.0
  0
ARC
  5
EAC
102
{ACAD_REACTORS
330
1CD0
102
}
330
1E
100
AcDbEntity
  8
STEMPEL
  6
Continuous
100
AcDbCircle
 10
293.2595699442638
 20
487.9120893113509
 30
0.0
 40
18.0
100
AcDbArc
 50
152.472816379448
 51
180.0
  0
ARC
  5
EAD
102
{ACAD_REACTORS
330
1CD0
102
}
330
1E
100
AcDbEntity
  8
STEMPEL
  6
Continuous
100
AcDbCircle
 10
246.2595699442638
 20
512.4070893113509
 30
0.0
 40
35.00004740563918
100
AcDbArc
 50
332.472816379448
 51
0.0943014490918197
  0
ARC
  5
EAE
102
{ACAD_REACTORS
330
1374
330
1CD0
102
}
330
1E
100
AcDbEntity
  8
STEMPEL
  6
Continuous
100
AcDbCircle
 10
246.2595699442638
 20
528.6289850934172
 30
0.0
 40
35.0
100
AcDbArc
 50
0.0
 51
24.99999999998774
  0
LINE
  5
EAF
102
{ACAD_REACTORS
330
1374
330
1CD0
102
}
330
1E
100
AcDbEntity
  8
STEMPEL
  6
Continuous
100
AcDbLine
 10
104.0011251468577
 20
544.412089311351
 30
0.0
 11
103.538797397981
 21
543.4206242543414
 31
0.0
  0
ARC
  5
EB0
102
{ACAD_REACTORS
330
1CD0
102
}
330
1E
100
AcDbEntity
  8
STEMPEL
  6
Continuous
100
AcDbCircle
 10
88.25956994426395
 20
487.9120893113509
 30
0.0
 40
18.0
100
AcDbArc
 50
0.0
 51
27.52718362055197
  0
LINE
  5
EB1
102
{ACAD_REACTORS
330
1374
330
1CD0
102
}
330
1E
100
AcDbEntity
  8
STEMPEL
  6
Continuous
100
AcDbLine
 10
100.2595699442639
 20
528.6289850934172
 30
0.0
 11
100.2595699442639
 21
512.464694840528
 31
0.0
  0
ARC
  5
EB2
102
{ACAD_REACTORS
330
1CD0
102
}
330
1E
100
AcDbEntity
  8
STEMPEL
  6
Continuous
100
AcDbCircle
 10
135.2595699442639
 20
512.4070893113509
 30
0.0
 40
35.00004740563918
100
AcDbArc
 50
179.9056985509081
 51
207.527183620552
  0
ARC
  5
EB3
102
{ACAD_REACTORS
330
1374
330
1CD0
102
}
330
1E
100
AcDbEntity
  8
STEMPEL
  6
Continuous
100
AcDbCircle
 10
135.2595699442639
 20
528.6289850934172
 30
0.0
 40
35.0
100
AcDbArc
 50
155.0000000000065
 51
180.0
  0
LINE
  5
EB4
330
1E
100
AcDbEntity
  8
HILF
  6
Continuous
100
AcDbLine
 10
110.7229437986819
 20
492.8514045550514
 30
0.0
 11
270.7961960898459
 21
492.8514045550513
 31
0.0
  0
LINE
  5
EB5
102
{ACAD_REACTORS
330
1C76
330
1CD0
330
1D35
102
}
330
1E
100
AcDbEntity
  8
STEMPEL
  6
Continuous
100
AcDbLine
 10
270.2595699442638
 20
456.8843413967467
 30
0.0
 11
270.2595699442638
 21
414.4217573032291
 31
0.0
  0
ARC
  5
EB7
102
{ACAD_REACTORS
330
1CD0
102
}
330
1E
100
AcDbEntity
  8
STEMPEL
  6
Continuous
100
AcDbCircle
 10
257.2595699442638
 20
472.853060819418
 30
0.0
 40
18.0
100
AcDbArc
 50
325.228055968051
 51
0.0
  0
ARC
  5
EB8
102
{ACAD_REACTORS
330
1CD0
102
}
330
1E
100
AcDbEntity
  8
STEMPEL
  6
Continuous
100
AcDbCircle
 10
280.2595699442638
 20
456.8843413967467
 30
0.0
 40
10.0
100
AcDbArc
 50
145.2280559680509
 51
180.0
  0
LINE
  5
EB9
102
{ACAD_REACTORS
330
1CD0
102
}
330
1E
100
AcDbEntity
  8
STEMPEL
  6
Continuous
100
AcDbLine
 10
111.2595699442639
 20
456.8843413967467
 30
0.0
 11
111.2595699442639
 21
134.3029369540706
 31
0.0
  0
ARC
  5
EBA
102
{ACAD_REACTORS
330
1CD0
102
}
330
1E
100
AcDbEntity
  8
STEMPEL
  6
Continuous
100
AcDbCircle
 10
124.2595699442639
 20
472.853060819418
 30
0.0
 40
18.0
100
AcDbArc
 50
180.0
 51
214.7719440319491
  0
ARC
  5
EBB
102
{ACAD_REACTORS
330
1CD0
102
}
330
1E
100
AcDbEntity
  8
STEMPEL
  6
Continuous
100
AcDbCircle
 10
101.2595699442639
 20
456.8843413967467
 30
0.0
 40
10.0
100
AcDbArc
 50
0.0
 51
34.77194403194904
  0
LINE
  5
EBC
330
1E
100
AcDbEntity
  8
HILF
  6
Continuous
100
AcDbLine
 10
112.1125906019394
 20
468.2215499582472
 30
0.0
 11
269.4065492865883
 21
468.2215499582471
 31
0.0
  0
LINE
  5
EBD
330
1E
100
AcDbEntity
  8
HILF
  6
Continuous
100
AcDbLine
 10
115.7870992298258
 20
460.6194308009167
 30
0.0
 11
265.732040658702
 21
460.6194308009167
 31
0.0
  0
LINE
  5
EBE
102
{ACAD_REACTORS
330
1CD0
102
}
330
1E
100
AcDbEntity
  8
STEMPEL
  6
Continuous
100
AcDbLine
 10
106.2595699442639
 20
487.9120893113509
 30
0.0
 11
106.2595699442639
 21
472.853060819418
 31
0.0
  0
LINE
  5
EBF
102
{ACAD_REACTORS
330
1CD0
102
}
330
1E
100
AcDbEntity
  8
STEMPEL
  6
Continuous
100
AcDbLine
 10
275.2595699442638
 20
487.9120893113509
 30
0.0
 11
275.2595699442638
 21
472.853060819418
 31
0.0
  0
LINE
  5
EC0
102
{ACAD_REACTORS
330
129E
330
1374
330
1CD0
102
}
330
1E
100
AcDbEntity
  8
STEMPEL
100
AcDbLine
 10
81.25956994426394
 20
544.4120893113513
 30
0.0
 11
300.259569944264
 21
544.4120893113512
 31
0.0
  0
TEXT
  5
EC1
330
1E
100
AcDbEntity
  8
VOLL
100
AcDbText
 10
180.8867796068527
 20
508.0754161698232
 30
0.0
 40
7.0
  1
DN150
 50
90.0
 41
0.8
  7
GREEKS
100
AcDbText
  0
LINE
  5
EC2
102
{ACAD_REACTORS
330
1CD0
102
}
330
1E
100
AcDbEntity
  8
STEMPEL
100
AcDbLine
 10
269.394232902864
 20
124.4120893113512
 30
0.0
 11
112.124906985664
 21
124.4120893113511
 31
0.0
  0
LINE
  5
EC3
330
1E
100
AcDbEntity
  8
MITTEL
100
AcDbLine
 10
190.7595699442639
 20
549.4120893113513
 30
0.0
 11
190.7595699442639
 21
119.4120893113512
 31
0.0
  0
LINE
  5
1015
102
{ACAD_REACTORS
330
129E
330
1374
102
}
330
1E
100
AcDbEntity
  8
STEMPEL
100
AcDbLine
 10
84.15956994426393
 20
544.412089311351
 30
0.0
 11
84.15956994426393
 21
189.4120893113511
 31
0.0
  0
LINE
  5
1016
102
{ACAD_REACTORS
330
129E
102
}
330
1E
100
AcDbEntity
  8
STEMPEL
100
AcDbLine
 10
81.25956994426394
 20
544.412089311351
 30
0.0
 11
81.25956994426394
 21
187.4120893113511
 31
0.0
  0
LINE
  5
1017
102
{ACAD_REACTORS
330
1374
102
}
330
1E
100
AcDbEntity
  8
STEMPEL
  6
Continuous
100
AcDbLine
 10
100.2595699442639
 20
526.4120893113511
 30
0.0
 11
84.1595699442638
 21
526.4120893113511
 31
0.0
  0
DIMENSION
  5
1019
330
1E
100
AcDbEntity
  8
BEM
100
AcDbDimension
  2
*D2
 10
300.2595699442638
 20
560.014511352795
 30
0.0
 11
190.7595699442639
 21
566.514511352795
 31
0.0
 70
    32
  1
%%c<>
 71
     5
 42
218.9999999999999
  3
Standard
100
AcDbAlignedDimension
 13
81.25956994426394
 23
544.412089311351
 33
0.0
 14
300.2595699442638
 24
544.4120893113512
 34
0.0
100
AcDbRotatedDimension
1001
ACAD
1000
DSTYLE
1002
{
1070
    40
1040
2.0
1070
    41
1040
3.5
1070
    42
1040
1.0
1070
    43
1040
7.0
1070
    44
1040
1.0
1070
    73
1070
     0
1070
    74
1070
     0
1070
    77
1070
     1
1070
    78
1070
     8
1070
    79
1070
     2
1070
   140
1040
3.5
1070
   141
1040
1.5
1070
   146
1040
0.5142857142857144
1070
   147
1040
1.5
1070
   172
1070
     1
1070
   178
1070
     1
1070
   179
1070
     2
1070
   271
1070
     2
1070
   272
1070
     2
1070
   284
1070
     8
1070
   285
1070
     8
1070
   286
1070
     8
1070
   289
1070
     0
1070
   340
1005
24
1002
}
  0
LINE
  5
101B
102
{ACAD_REACTORS
330
129E
330
1374
102
}
330
1E
100
AcDbEntity
  8
STEMPEL
100
AcDbLine
 10
297.359569944264
 20
544.4120893113512
 30
0.0
 11
297.3595699442639
 21
468.816941254165
 31
0.0
  0
LINE
  5
101C
102
{ACAD_REACTORS
330
129E
330
1C22
330
1D35
102
}
330
1E
100
AcDbEntity
  8
STEMPEL
100
AcDbLine
 10
300.259569944264
 20
544.4120893113512
 30
0.0
 11
300.259569944264
 21
468.816941254165
 31
0.0
  0
LINE
  5
101D
102
{ACAD_REACTORS
330
1374
102
}
330
1E
100
AcDbEntity
  8
STEMPEL
  6
Continuous
100
AcDbLine
 10
297.359569944264
 20
526.4120893113512
 30
0.0
 11
281.2595699442638
 21
526.4120893113512
 31
0.0
  0
LINE
  5
10B7
330
1E
100
AcDbEntity
  8
STEMPEL
100
AcDbLine
 10
297.359569944264
 20
203.562089311351
 30
0.0
 11
295.5095699442638
 21
205.4120893113512
 31
0.0
  0
LINE
  5
10B9
330
1E
100
AcDbEntity
  8
STEMPEL
100
AcDbLine
 10
270.2595699442637
 20
196.4120893113511
 30
0.0
 11
277.5595699442639
 21
196.4120893113511
 31
0.0
  0
LINE
  5
10BA
102
{ACAD_REACTORS
330
129E
102
}
330
1E
100
AcDbEntity
  8
STEMPEL
  6
Continuous
100
AcDbLine
 10
300.259569944264
 20
189.4120893113513
 30
0.0
 11
297.359569944264
 21
189.4120893113513
 31
0.0
  0
LINE
  5
10BB
330
1E
100
AcDbEntity
  8
STEMPEL
100
AcDbLine
 10
270.2595699442637
 20
205.4120893113512
 30
0.0
 11
295.5095699442641
 21
205.4120893113512
 31
0.0
  0
LINE
  5
10BC
330
1E
100
AcDbEntity
  8
STEMPEL
100
AcDbLine
 10
103.9595699442639
 20
196.4120893113511
 30
0.0
 11
111.2595699442641
 21
196.4120893113511
 31
0.0
  0
LINE
  5
10BE
330
1E
100
AcDbEntity
  8
STEMPEL
100
AcDbLine
 10
84.15956994426386
 20
203.5620893113511
 30
0.0
 11
86.00956994426388
 21
205.4120893113512
 31
0.0
  0
LINE
  5
10BF
102
{ACAD_REACTORS
330
129E
102
}
330
1E
100
AcDbEntity
  8
STEMPEL
  6
Continuous
100
AcDbLine
 10
84.15956994426391
 20
189.4120893113511
 30
0.0
 11
81.25956994426394
 21
189.4120893113511
 31
0.0
  0
LINE
  5
10C0
330
1E
100
AcDbEntity
  8
STEMPEL
100
AcDbLine
 10
86.00956994426388
 20
205.4120893113512
 30
0.0
 11
111.2595699442642
 21
205.4120893113512
 31
0.0
  0
LINE
  5
10D7
102
{ACAD_REACTORS
330
129E
102
}
330
1E
100
AcDbEntity
  8
STEMPEL
100
AcDbLine
 10
300.259569944264
 20
468.8169412541651
 30
0.0
 11
297.3595699442639
 21
468.816941254165
 31
0.0
  0
LINE
  5
10D8
102
{ACAD_REACTORS
330
129E
102
}
330
1E
100
AcDbEntity
  8
STEMPEL
100
AcDbLine
 10
300.259569944264
 20
239.0652470500102
 30
0.0
 11
297.359569944264
 21
239.0652470500102
 31
0.0
  0
LINE
  5
10D9
102
{ACAD_REACTORS
330
129E
102
}
330
1E
100
AcDbEntity
  8
STEMPEL
100
AcDbLine
 10
297.359569944264
 20
239.0652470500102
 30
0.0
 11
297.3595699442639
 21
189.4120893113513
 31
0.0
  0
LINE
  5
10DA
102
{ACAD_REACTORS
330
129E
330
1C22
330
1D3F
102
}
330
1E
100
AcDbEntity
  8
STEMPEL
100
AcDbLine
 10
300.259569944264
 20
239.0652470500102
 30
0.0
 11
300.259569944264
 21
187.4120893113512
 31
0.0
  0
DIMENSION
  5
10FD
330
1E
100
AcDbEntity
  8
BEM
100
AcDbDimension
  2
*D3
 10
70.11477473560488
 20
124.4120893113512
 30
0.0
 11
63.61477473560486
 21
156.9120893113511
 31
0.0
 70
    32
 71
     5
 42
64.99999999999994
  3
Standard
100
AcDbAlignedDimension
 13
81.25956994426394
 23
189.4120893113511
 33
0.0
 14
112.124906985664
 24
124.4120893113511
 34
0.0
 50
90.0
100
AcDbRotatedDimension
1001
ACAD
1000
DSTYLE
1002
{
1070
   279
1070
     1
1070
    40
1040
2.0
1070
    41
1040
3.5
1070
    42
1040
1.0
1070
    43
1040
7.0
1070
    44
1040
1.0
1070
    73
1070
     0
1070
    74
1070
     0
1070
    77
1070
     1
1070
    78
1070
     8
1070
    79
1070
     2
1070
   140
1040
3.5
1070
   141
1040
1.5
1070
   146
1040
0.5142857142857144
1070
   147
1040
1.5
1070
   172
1070
     1
1070
   178
1070
     1
1070
   179
1070
     2
1070
   271
1070
     2
1070
   272
1070
     2
1070
   284
1070
     8
1070
   285
1070
     8
1070
   286
1070
     8
1002
}
  0
DIMENSION
  5
1137
330
1E
100
AcDbEntity
  8
BEM
100
AcDbDimension
  2
*D4
 10
40.99089384266789
 20
124.4120893113512
 30
0.0
 11
34.49089384266789
 21
334.4120893113513
 31
0.0
 70
    32
 71
     5
 42
420.0000000000001
  3
Standard
100
AcDbAlignedDimension
 13
81.25956994426394
 23
544.4120893113513
 33
0.0
 14
112.124906985664
 24
124.4120893113511
 34
0.0
 50
90.0
100
AcDbRotatedDimension
1001
ACAD
1000
DSTYLE
1002
{
1070
    40
1040
2.0
1070
    41
1040
3.5
1070
    42
1040
1.0
1070
    43
1040
7.0
1070
    44
1040
1.0
1070
    73
1070
     0
1070
    74
1070
     0
1070
    77
1070
     1
1070
    78
1070
     8
1070
    79
1070
     2
1070
   140
1040
3.5
1070
   141
1040
1.5
1070
   146
1040
0.5142857142857144
1070
   147
1040
1.5
1070
   172
1070
     1
1070
   178
1070
     1
1070
   179
1070
     2
1070
   271
1070
     2
1070
   272
1070
     2
1070
   284
1070
     8
1070
   285
1070
     8
1070
   286
1070
     8
1002
}
  0
TEXT
  5
11A2
330
1E
100
AcDbEntity
  8
TEXT
 62
     1
100
AcDbText
 10
453.8968656589824
 20
661.8601053658492
 30
0.0
 40
7.0
  1
und innenbeschichtet
 50
90.0
 41
0.8
  7
GREEKS
100
AcDbText
  0
TEXT
  5
11A3
330
1E
100
AcDbEntity
  8
TEXT
 62
     1
100
AcDbText
 10
466.4917010443645
 20
606.7111658451383
 30
0.0
 40
7.0
  1
Dämmung: 2 K-PU-Schaum
 50
90.0
 41
0.8
  7
GREEKS
100
AcDbText
  0
TEXT
  5
11A4
330
1E
100
AcDbEntity
  8
TEXT
 62
     1
100
AcDbText
 10
442.6278118197567
 20
614.2055764898355
 30
0.0
 40
7.0
  1
Innenrohr: E195 EN10305 feuerverzinkt
 50
90.0
 41
0.8
  7
GREEKS
100
AcDbText
  0
TEXT
  5
11A5
330
1E
100
AcDbEntity
  8
TEXT
 62
     1
100
AcDbText
 10
431.2747437834017
 20
610.4333591189714
 30
0.0
 40
7.0
  1
Außenrohr: P235 TR1 EN10217-1 feuerverzinkt
 50
90.0
 41
0.8
  7
GREEKS
100
AcDbText
  0
LINE
  5
11C6
102
{ACAD_REACTORS
330
1CD0
102
}
330
1E
100
AcDbEntity
  8
STEMPEL
  6
Continuous
100
AcDbLine
 10
267.7595699442638
 20
456.8843413967467
 30
0.0
 11
267.7595699442638
 21
414.4217573032291
 31
0.0
  0
ARC
  5
11C7
102
{ACAD_REACTORS
330
1CD0
102
}
330
1E
100
AcDbEntity
  8
STEMPEL
  6
Continuous
100
AcDbCircle
 10
280.2595699442638
 20
456.8843413967467
 30
0.0
 40
12.5
100
AcDbArc
 50
145.2280559680509
 51
180.0
  0
ARC
  5
11C9
102
{ACAD_REACTORS
330
1CD0
102
}
330
1E
100
AcDbEntity
  8
STEMPEL
  6
Continuous
100
AcDbCircle
 10
257.2595699442638
 20
472.853060819418
 30
0.0
 40
15.5
100
AcDbArc
 50
325.228055968051
 51
0.0
  0
LINE
  5
11CB
102
{ACAD_REACTORS
330
1CD0
102
}
330
1E
100
AcDbEntity
  8
STEMPEL
  6
Continuous
100
AcDbLine
 10
272.7595699442638
 20
487.9120893113509
 30
0.0
 11
272.7595699442638
 21
472.853060819418
 31
0.0
  0
ARC
  5
11CC
102
{ACAD_REACTORS
330
1CD0
102
}
330
1E
100
AcDbEntity
  8
STEMPEL
  6
Continuous
100
AcDbCircle
 10
293.2595699442638
 20
487.9120893113509
 30
0.0
 40
20.5
100
AcDbArc
 50
152.472816379448
 51
180.0
  0
ARC
  5
11CE
102
{ACAD_REACTORS
330
1CD0
102
}
330
1E
100
AcDbEntity
  8
STEMPEL
  6
Continuous
100
AcDbCircle
 10
246.2595699442638
 20
512.4070893113509
 30
0.0
 40
32.50004740563918
100
AcDbArc
 50
332.472816379448
 51
0.0943014490918197
  0
LINE
  5
11CF
102
{ACAD_REACTORS
330
1CD0
102
}
330
1E
100
AcDbEntity
  8
STEMPEL
  6
Continuous
100
AcDbLine
 10
278.7595699442638
 20
528.6289850934172
 30
0.0
 11
278.7595699442638
 21
512.464694840528
 31
0.0
  0
ARC
  5
11D0
102
{ACAD_REACTORS
330
1CD0
102
}
330
1E
100
AcDbEntity
  8
STEMPEL
  6
Continuous
100
AcDbCircle
 10
246.2595699442638
 20
528.6289850934172
 30
0.0
 40
32.5
100
AcDbArc
 50
0.0
 51
24.99999999998774
  0
LINE
  5
11D1
102
{ACAD_REACTORS
330
1CD0
102
}
330
1E
100
AcDbEntity
  8
STEMPEL
  6
Continuous
100
AcDbLine
 10
113.7595699442639
 20
456.8843413967467
 30
0.0
 11
113.7595699442639
 21
134.4120893113419
 31
0.0
  0
ARC
  5
11D2
102
{ACAD_REACTORS
330
1CD0
102
}
330
1E
100
AcDbEntity
  8
STEMPEL
  6
Continuous
100
AcDbCircle
 10
101.2595699442639
 20
456.8843413967467
 30
0.0
 40
12.5
100
AcDbArc
 50
0.0
 51
34.77194403194904
  0
ARC
  5
11D3
102
{ACAD_REACTORS
330
1CD0
102
}
330
1E
100
AcDbEntity
  8
STEMPEL
  6
Continuous
100
AcDbCircle
 10
124.2595699442639
 20
472.853060819418
 30
0.0
 40
15.5
100
AcDbArc
 50
180.0
 51
214.7719440319491
  0
LINE
  5
11D4
102
{ACAD_REACTORS
330
1CD0
102
}
330
1E
100
AcDbEntity
  8
STEMPEL
  6
Continuous
100
AcDbLine
 10
108.7595699442639
 20
487.9120893113509
 30
0.0
 11
108.7595699442639
 21
472.853060819418
 31
0.0
  0
ARC
  5
11D5
102
{ACAD_REACTORS
330
1CD0
102
}
330
1E
100
AcDbEntity
  8
STEMPEL
  6
Continuous
100
AcDbCircle
 10
88.25956994426395
 20
487.9120893113509
 30
0.0
 40
20.5
100
AcDbArc
 50
0.0
 51
27.52718362055197
  0
ARC
  5
11D6
102
{ACAD_REACTORS
330
1CD0
102
}
330
1E
100
AcDbEntity
  8
STEMPEL
  6
Continuous
100
AcDbCircle
 10
135.2595699442639
 20
512.4070893113509
 30
0.0
 40
32.50004740563918
100
AcDbArc
 50
179.9056985509081
 51
207.527183620552
  0
LINE
  5
11D7
102
{ACAD_REACTORS
330
1CD0
102
}
330
1E
100
AcDbEntity
  8
STEMPEL
  6
Continuous
100
AcDbLine
 10
102.7595699442639
 20
528.6289850934172
 30
0.0
 11
102.7595699442639
 21
512.464694840528
 31
0.0
  0
ARC
  5
11D8
102
{ACAD_REACTORS
330
1CD0
102
}
330
1E
100
AcDbEntity
  8
STEMPEL
  6
Continuous
100
AcDbCircle
 10
135.2595699442639
 20
528.6289850934172
 30
0.0
 40
32.5
100
AcDbArc
 50
155.0000000000065
 51
180.0
  0
LINE
  5
11D9
102
{ACAD_REACTORS
330
1CD0
102
}
330
1E
100
AcDbEntity
  8
STEMPEL
  6
Continuous
100
AcDbLine
 10
106.759569944264
 20
544.4120893113512
 30
0.0
 11
105.8045668655726
 21
542.3640785999896
 31
0.0
  0
LINE
  5
11DA
102
{ACAD_REACTORS
330
1CD0
102
}
330
1E
100
AcDbEntity
  8
STEMPEL
  6
Continuous
100
AcDbLine
 10
274.7595699442638
 20
544.4120893113512
 30
0.0
 11
275.7145730229549
 21
542.3640785999898
 31
0.0
  0
LINE
  5
11DB
102
{ACAD_REACTORS
330
1CD0
102
}
330
1E
100
AcDbEntity
  8
STEMPEL
  6
Continuous
100
AcDbLine
 10
267.759569944264
 20
233.4024213194735
 30
0.0
 11
267.7595699442639
 21
134.4120893113415
 31
0.0
  0
LINE
  5
11DC
102
{ACAD_REACTORS
330
1CD0
102
}
330
1E
100
AcDbEntity
  8
STEMPEL
100
AcDbLine
 10
267.7595699442639
 20
134.4120893113415
 30
0.0
 11
266.8846833090057
 21
124.4120893113512
 31
0.0
  0
LINE
  5
11DE
102
{ACAD_REACTORS
330
1CD0
102
}
330
1E
100
AcDbEntity
  8
STEMPEL
100
AcDbLine
 10
113.7595699442639
 20
134.4120893113419
 30
0.0
 11
114.6344565795224
 21
124.4120893113511
 31
0.0
  0
HATCH
  5
129E
330
1E
100
AcDbEntity
  8
SCHRAFF
100
AcDbHatch
 10
0.0
 20
0.0
 30
0.0
210
0.0
220
0.0
230
1.0
  2
_USER
 70
     0
 71
     1
 91
        3
 92
        7
 72
     0
 73
     1
 93
        4
 10
297.3595699442639
 20
468.816941254165
 10
300.259569944264
 20
468.816941254165
 10
300.259569944264
 20
544.4120893113512
 10
297.359569944264
 20
544.4120893113512
 97
        4
330
EC0
330
101B
330
10D7
330
101C
 92
        7
 72
     0
 73
     1
 93
        4
 10
84.15956994426391
 20
544.4120893113512
 10
81.25956994426394
 20
544.4120893113513
 10
81.25956994426394
 20
189.4120893113511
 10
84.15956994426391
 20
189.4120893113511
 97
        4
330
EC0
330
1016
330
10BF
330
1015
 92
        7
 72
     0
 73
     1
 93
        4
 10
297.3595699442639
 20
189.4120893113513
 10
300.259569944264
 20
189.4120893113513
 10
300.259569944264
 20
239.0652470500102
 10
297.359569944264
 20
239.0652470500102
 97
        4
330
10D8
330
10D9
330
10BA
330
10DA
 75
     0
 76
     0
 52
135.0
 41
2.0
 77
     0
 78
     1
 53
135.0
 43
25.77458097761109
 44
-86.07631442952925
 45
-1.414213562373095
 46
-1.414213562373094
 79
     0
 47
0.9317325446634274
 98
        3
 10
299.2761122642682
 20
460.0596800523285
 10
82.96211674175083
 20
419.0634466564261
 10
299.2761122642682
 20
114.3869030935589
  0
HATCH
  5
1374
330
1E
100
AcDbEntity
  8
SCHRAFF
100
AcDbHatch
 10
0.0
 20
0.0
 30
0.0
210
0.0
220
0.0
230
1.0
  2
NET
 70
     0
 71
     1
 91
        2
 92
        7
 72
     1
 73
     1
 93
        6
 10
281.2595699442638
 20
528.628985093417
 42
0.0
 10
281.2595699442638
 20
526.4120893113512
 42
0.0
 10
297.359569944264
 20
526.4120893113512
 42
0.0
 10
297.3595699442639
 20
544.4120893113513
 42
0.0
 10
277.5180147416699
 20
544.4120893113513
 42
0.0
 10
277.9803424905466
 20
543.4206242543414
 42
-0.1095178116832409
 97
        6
330
EC0
330
EAA
330
EAE
330
EAB
330
101D
330
101B
 92
        7
 72
     1
 73
     1
 93
        6
 10
84.15956994426393
 20
526.4120893113511
 42
0.0
 10
100.2595699442639
 20
526.4120893113511
 42
0.0
 10
100.2595699442639
 20
528.6289850934172
 42
-0.1095178116832388
 10
103.538797397981
 20
543.4206242543414
 42
0.0
 10
104.0011251468578
 20
544.4120893113513
 42
0.0
 10
84.15956994426393
 20
544.4120893113513
 42
0.0
 97
        6
330
EAF
330
EC0
330
1015
330
1017
330
EB1
330
EB3
 75
     0
 76
     1
 52
45.0
 41
20.0
 77
     0
 78
     2
 53
45.0
 43
25.77458097761109
 44
-36.07631442952925
 45
-1.767766952966368
 46
1.767766952966368
 79
     0
 53
135.0
 43
25.77458097761109
 44
-36.07631442952925
 45
-1.767766952966368
 46
-1.767766952966368
 79
     0
 47
0.9350132912257434
 98
        2
 10
285.843488882324
 20
535.7550897885171
 10
92.15959713996245
 20
535.7550897885171
  0
LINE
  5
16AE
102
{ACAD_REACTORS
330
1CD0
102
}
330
1E
100
AcDbEntity
  8
STEMPEL
100
AcDbLine
 10
270.2595699442638
 20
414.4217573032291
 30
0.0
 11
267.7595699442638
 21
414.4217573032291
 31
0.0
  0
LINE
  5
16AF
102
{ACAD_REACTORS
330
1CD0
102
}
330
1E
100
AcDbEntity
  8
STEMPEL
100
AcDbLine
 10
270.2595699442641
 20
233.4024213194735
 30
0.0
 11
267.759569944264
 21
233.4024213194735
 31
0.0
  0
DIMENSION
  5
18FF
330
1E
100
AcDbEntity
  8
BEM
100
AcDbDimension
  2
*D5
 10
55.50091766019527
 20
244.4120893113513
 30
0.0
 11
55.50091766019523
 21
188.3800126392993
 31
0.0
 70
   160
 71
     5
 42
120.0
  3
Standard
100
AcDbAlignedDimension
 13
112.124906985664
 23
124.4120893113511
 33
0.0
 14
190.7595699442639
 24
244.4120893113512
 34
0.0
 50
90.0
100
AcDbRotatedDimension
1001
ACAD
1000
DSTYLE
1002
{
1070
    40
1040
2.0
1070
    41
1040
3.5
1070
    42
1040
1.0
1070
    43
1040
7.0
1070
    44
1040
1.0
1070
    73
1070
     0
1070
    74
1070
     0
1070
    77
1070
     1
1070
    78
1070
     8
1070
    79
1070
     2
1070
   140
1040
3.5
1070
   141
1040
1.5
1070
   146
1040
0.5142857142857144
1070
   147
1040
1.5
1070
   172
1070
     1
1070
   178
1070
     1
1070
   179
1070
     2
1070
   271
1070
     2
1070
   272
1070
     2
1070
   284
1070
     8
1070
   285
1070
     8
1070
   286
1070
     8
1002
}
  0
LINE
  5
1A2D
102
{ACAD_REACTORS
330
1A75
330
1C76
102
}
330
1E
100
AcDbEntity
  8
STEMPEL
100
AcDbLine
 10
457.875127910994
 20
408.6316678684153
 30
0.0
 11
457.5264954330799
 21
407.6738080076577
 31
0.0
  0
LINE
  5
1A2E
102
{ACAD_REACTORS
330
1C76
102
}
330
1E
100
AcDbEntity
  8
STEMPEL
100
AcDbLine
 10
455.9246128892193
 20
410.5821828901899
 30
0.0
 11
455.177263881115
 21
408.5288583659716
 31
0.0
  0
ARC
  5
1A2F
102
{ACAD_REACTORS
330
1C76
102
}
330
1E
100
AcDbEntity
  8
STEMPEL
100
AcDbCircle
 10
429.3357168095026
 20
417.9344123074274
 30
0.0
 40
27.5
100
AcDbArc
 50
315.0
 51
339.9999999999934
  0
ARC
  5
1A30
102
{ACAD_REACTORS
330
1A75
330
1C76
102
}
330
1E
100
AcDbEntity
  8
STEMPEL
100
AcDbCircle
 10
429.3357168095026
 20
417.9344123074274
 30
0.0
 40
30.0
100
AcDbArc
 50
315.0
 51
339.9999999999934
  0
LINE
  5
1A31
102
{ACAD_REACTORS
330
1A75
102
}
330
1E
100
AcDbEntity
  8
STEMPEL
100
AcDbLine
 10
452.5658556785832
 20
391.3135231028565
 30
0.0
 11
448.8535450773539
 21
395.0258337040859
 31
0.0
  0
LINE
  5
1A32
102
{ACAD_REACTORS
330
1C76
102
}
330
1E
100
AcDbEntity
  8
STEMPEL
100
AcDbLine
 10
437.0383113779475
 20
383.2109729898001
 30
0.0
 11
437.0384978705078
 21
383.2107864972399
 31
0.0
  0
LINE
  5
1A33
102
{ACAD_REACTORS
330
1A75
330
1C76
102
}
330
1E
100
AcDbEntity
  8
STEMPEL
100
AcDbLine
 10
450.548920245099
 20
396.721208871831
 30
0.0
 11
437.0384978705078
 21
383.2107864972399
 31
0.0
  0
LINE
  5
1A34
102
{ACAD_REACTORS
330
1C76
102
}
330
1E
100
AcDbEntity
  8
STEMPEL
100
AcDbLine
 10
448.7811532921325
 20
398.4889758247974
 30
0.0
 11
435.2707309175413
 21
384.9785534502062
 31
0.0
  0
ARC
  5
1A35
102
{ACAD_REACTORS
330
1C76
102
}
330
1E
100
AcDbEntity
  8
STEMPEL
100
AcDbCircle
 10
432.23653571947
 20
359.3169412541653
 30
0.0
 40
20.5
100
AcDbArc
 50
109.772855634097
 51
135.0
  0
ARC
  5
1A36
102
{ACAD_REACTORS
330
1C76
102
}
330
1E
100
AcDbEntity
  8
STEMPEL
100
AcDbCircle
 10
432.23653571947
 20
359.3169412541653
 30
0.0
 40
18.0
100
AcDbArc
 50
109.9928416634576
 51
135.0
  0
ARC
  5
1A37
102
{ACAD_REACTORS
330
1C76
102
}
330
1E
100
AcDbEntity
  8
STEMPEL
100
AcDbCircle
 10
397.2126313423872
 20
375.2047251225139
 30
0.0
 40
18.0
100
AcDbArc
 50
280.2280559680509
 51
315.0
  0
LINE
  5
1A38
102
{ACAD_REACTORS
330
1C76
102
}
330
1E
100
AcDbEntity
  8
STEMPEL
100
AcDbLine
 10
419.5086136581121
 20
372.0448633155231
 30
0.0
 11
409.940553403745
 21
362.476803061156
 31
0.0
  0
LINE
  5
1A39
102
{ACAD_REACTORS
330
1C76
102
}
330
1E
100
AcDbEntity
  8
STEMPEL
100
AcDbLine
 10
417.7408467051456
 20
373.8126302684896
 30
0.0
 11
408.1727864507787
 21
364.2445700141225
 31
0.0
  0
ARC
  5
1A3A
102
{ACAD_REACTORS
330
1C76
102
}
330
1E
100
AcDbEntity
  8
STEMPEL
100
AcDbCircle
 10
402.1844975190417
 20
347.6496793645872
 30
0.0
 40
12.5
100
AcDbArc
 50
100.2280559680509
 51
135.0
  0
ARC
  5
1A3B
102
{ACAD_REACTORS
330
1C76
102
}
330
1E
100
AcDbEntity
  8
STEMPEL
100
AcDbCircle
 10
397.2126313423873
 20
375.204725122514
 30
0.0
 40
15.5
100
AcDbArc
 50
280.2280559680509
 51
315.0
  0
ARC
  5
1A3C
102
{ACAD_REACTORS
330
1C76
102
}
330
1E
100
AcDbEntity
  8
STEMPEL
100
AcDbCircle
 10
402.1844975190417
 20
347.6496793645872
 30
0.0
 40
10.0
100
AcDbArc
 50
100.2280559680509
 51
135.0
  0
ARC
  5
1A3D
102
{ACAD_REACTORS
330
1C76
102
}
330
1E
100
AcDbEntity
  8
STEMPEL
100
AcDbCircle
 10
415.8252944349113
 20
404.4239899328362
 30
0.0
 40
29.99973625969209
100
AcDbArc
 50
289.9928416634577
 51
315.0
  0
ARC
  5
1A3E
102
{ACAD_REACTORS
330
1C76
102
}
330
1E
100
AcDbEntity
  8
STEMPEL
100
AcDbCircle
 10
415.8252944349113
 20
404.4239899328362
 30
0.0
 40
27.5
100
AcDbArc
 50
290.1568310699678
 51
315.0
  0
LINE
  5
1A46
330
1E
100
AcDbEntity
  8
MITTEL
100
AcDbLine
 10
409.9626721120938
 20
463.615191479181
 30
0.0
 11
190.7595699442639
 21
244.4120893113513
 31
0.0
  0
LINE
  5
1A47
102
{ACAD_REACTORS
330
1C76
330
1D45
102
}
330
1E
100
AcDbEntity
  8
STEMPEL
100
AcDbLine
 10
395.1134297071762
 20
354.7207471764527
 30
0.0
 11
270.2595699442641
 21
229.8668874135407
 31
0.0
  0
LINE
  5
1A48
102
{ACAD_REACTORS
330
1C76
102
}
330
1E
100
AcDbEntity
  8
STEMPEL
100
AcDbLine
 10
393.3456627542098
 20
356.4885141294191
 30
0.0
 11
270.2595699442642
 21
233.4024213194735
 31
0.0
  0
LINE
  5
1A49
102
{ACAD_REACTORS
330
1C22
330
1D3F
102
}
330
1E
100
AcDbEntity
  8
STEMPEL
100
AcDbLine
 10
465.930173843009
 20
400.5766219364002
 30
0.0
 11
300.259569944264
 21
234.9060180376553
 31
0.0
  0
LINE
  5
1A4A
102
{ACAD_REACTORS
330
1A75
330
1C22
102
}
330
1E
100
AcDbEntity
  8
STEMPEL
100
AcDbLine
 10
463.8795641775679
 20
402.6272316018411
 30
0.0
 11
300.259569944264
 21
239.007237368537
 31
0.0
  0
DIMENSION
  5
1A4C
330
1E
100
AcDbEntity
  8
BEM
100
AcDbDimension
  2
*D6
 10
275.3979760982113
 20
159.7736831574028
 30
0.0
 11
378.6355661514483
 21
272.2036613660633
 31
0.0
 70
    32
 71
     5
 42
305.0000000000005
  3
Standard
100
AcDbAlignedDimension
 13
465.930173843009
 23
400.5766219364002
 33
0.0
 14
190.759569944264
 24
244.4120893113513
 34
0.0
 50
44.99999999999956
100
AcDbRotatedDimension
1001
ACAD
1000
DSTYLE
1002
{
1070
    40
1040
2.0
1070
    41
1040
3.5
1070
    42
1040
1.0
1070
    43
1040
7.0
1070
    44
1040
1.0
1070
    73
1070
     0
1070
    74
1070
     0
1070
    77
1070
     1
1070
    78
1070
     8
1070
    79
1070
     2
1070
   140
1040
3.5
1070
   141
1040
1.5
1070
   146
1040
0.5142857142857144
1070
   147
1040
1.5
1070
   172
1070
     1
1070
   178
1070
     1
1070
   179
1070
     2
1070
   271
1070
     2
1070
   272
1070
     2
1070
   284
1070
     8
1070
   285
1070
     8
1070
   286
1070
     8
1070
   289
1070
     0
1070
   340
1005
24
1002
}
  0
LINE
  5
1A4D
102
{ACAD_REACTORS
330
1C76
102
}
330
1E
100
AcDbEntity
  8
STEMPEL
100
AcDbLine
 10
356.9296635231027
 20
509.5771322563066
 30
0.0
 11
354.8763389988842
 21
508.8297832482025
 31
0.0
  0
LINE
  5
1A4E
102
{ACAD_REACTORS
330
1A75
330
1C76
102
}
330
1E
100
AcDbEntity
  8
STEMPEL
100
AcDbLine
 10
354.9791485013279
 20
511.5276472780814
 30
0.0
 11
354.0212886405703
 21
511.1790148001673
 31
0.0
  0
ARC
  5
1A4F
102
{ACAD_REACTORS
330
1A75
330
1C76
102
}
330
1E
100
AcDbEntity
  8
STEMPEL
100
AcDbCircle
 10
364.2818929403403
 20
482.9882361765899
 30
0.0
 40
30.0
100
AcDbArc
 50
110.0000000000065
 51
135.0
  0
ARC
  5
1A50
102
{ACAD_REACTORS
330
1C76
102
}
330
1E
100
AcDbEntity
  8
STEMPEL
100
AcDbCircle
 10
364.2818929403403
 20
482.9882361765899
 30
0.0
 40
27.5
100
AcDbArc
 50
110.0000000000065
 51
135.0
  0
LINE
  5
1A51
102
{ACAD_REACTORS
330
1C76
102
}
330
1E
100
AcDbEntity
  8
STEMPEL
100
AcDbLine
 10
329.5584536227129
 20
490.690830745035
 30
0.0
 11
329.5582671301527
 21
490.6910172375951
 31
0.0
  0
LINE
  5
1A52
102
{ACAD_REACTORS
330
1C76
102
}
330
1E
100
AcDbEntity
  8
STEMPEL
100
AcDbLine
 10
344.8364564577103
 20
502.4336726592199
 30
0.0
 11
331.3260340831191
 21
488.9232502846287
 31
0.0
  0
LINE
  5
1A53
102
{ACAD_REACTORS
330
1A75
330
1C76
102
}
330
1E
100
AcDbEntity
  8
STEMPEL
100
AcDbLine
 10
343.0686895047438
 20
504.2014396121863
 30
0.0
 11
329.5582671301527
 21
490.6910172375951
 31
0.0
  0
LINE
  5
1A54
102
{ACAD_REACTORS
330
1A75
102
}
330
1E
100
AcDbEntity
  8
STEMPEL
100
AcDbLine
 10
341.3733143369987
 20
502.5060644444411
 30
0.0
 11
337.6610037357693
 21
506.2183750456706
 31
0.0
  0
ARC
  5
1A56
102
{ACAD_REACTORS
330
1C76
102
}
330
1E
100
AcDbEntity
  8
STEMPEL
100
AcDbCircle
 10
305.6644218870781
 20
485.8890550865573
 30
0.0
 40
20.5
100
AcDbArc
 50
315.0
 51
340.2271443659088
  0
ARC
  5
1A57
102
{ACAD_REACTORS
330
1C76
102
}
330
1E
100
AcDbEntity
  8
STEMPEL
100
AcDbCircle
 10
305.6644218870781
 20
485.8890550865573
 30
0.0
 40
18.0
100
AcDbArc
 50
315.0
 51
340.007158336551
  0
ARC
  5
1A58
102
{ACAD_REACTORS
330
1C76
102
}
330
1E
100
AcDbEntity
  8
STEMPEL
100
AcDbCircle
 10
293.9971599974999
 20
455.8370168861292
 30
0.0
 40
10.0
100
AcDbArc
 50
315.0
 51
349.771944031949
  0
ARC
  5
1A59
102
{ACAD_REACTORS
330
1C76
102
}
330
1E
100
AcDbEntity
  8
STEMPEL
100
AcDbCircle
 10
321.5522057554268
 20
450.8651507094746
 30
0.0
 40
15.5
100
AcDbArc
 50
135.0
 51
169.771944031949
  0
ARC
  5
1A5A
102
{ACAD_REACTORS
330
1C76
102
}
330
1E
100
AcDbEntity
  8
STEMPEL
100
AcDbCircle
 10
321.5522057554268
 20
450.8651507094746
 30
0.0
 40
18.0
100
AcDbArc
 50
135.0
 51
169.771944031949
  0
LINE
  5
1A5B
102
{ACAD_REACTORS
330
1C76
102
}
330
1E
100
AcDbEntity
  8
STEMPEL
100
AcDbLine
 10
320.1601109014023
 20
471.393366072233
 30
0.0
 11
310.5920506470352
 21
461.8253058178661
 31
0.0
  0
LINE
  5
1A5C
102
{ACAD_REACTORS
330
1C76
102
}
330
1E
100
AcDbEntity
  8
STEMPEL
100
AcDbLine
 10
318.3923439484358
 20
473.1611330251994
 30
0.0
 11
308.8242836940688
 21
463.5930727708325
 31
0.0
  0
ARC
  5
1A5D
102
{ACAD_REACTORS
330
1C76
102
}
330
1E
100
AcDbEntity
  8
STEMPEL
100
AcDbCircle
 10
293.9971599974999
 20
455.8370168861292
 30
0.0
 40
12.5
100
AcDbArc
 50
315.0
 51
349.771944031949
  0
ARC
  5
1A5E
102
{ACAD_REACTORS
330
1C76
102
}
330
1E
100
AcDbEntity
  8
STEMPEL
100
AcDbCircle
 10
350.7714705657491
 20
469.4778138019987
 30
0.0
 40
27.5
100
AcDbArc
 50
135.0
 51
159.8431689300322
  0
ARC
  5
1A5F
102
{ACAD_REACTORS
330
1C76
102
}
330
1E
100
AcDbEntity
  8
STEMPEL
100
AcDbCircle
 10
350.7714705657491
 20
469.4778138019987
 30
0.0
 40
29.99973625969209
100
AcDbArc
 50
135.0
 51
160.0071583365509
  0
LINE
  5
1A68
102
{ACAD_REACTORS
330
1C76
102
}
330
1E
100
AcDbEntity
  8
STEMPEL
100
AcDbLine
 10
302.8359947623319
 20
446.9981821212972
 30
0.0
 11
270.2595699442638
 21
414.4217573032291
 31
0.0
  0
LINE
  5
1A69
102
{ACAD_REACTORS
330
1C76
330
1D35
102
}
330
1E
100
AcDbEntity
  8
STEMPEL
100
AcDbLine
 10
301.0682278093652
 20
448.7659490742637
 30
0.0
 11
270.2595699442638
 21
417.9572912091622
 31
0.0
  0
LINE
  5
1A6A
102
{ACAD_REACTORS
330
1C22
330
1D35
102
}
330
1E
100
AcDbEntity
  8
STEMPEL
100
AcDbLine
 10
346.924102569313
 20
519.5826932100962
 30
0.0
 11
300.259569944264
 21
472.9181605850472
 31
0.0
  0
LINE
  5
1A6B
102
{ACAD_REACTORS
330
1A75
330
1C22
102
}
330
1E
100
AcDbEntity
  8
STEMPEL
100
AcDbLine
 10
348.9747122347541
 20
517.5320835446552
 30
0.0
 11
300.259569944264
 21
468.8169412541653
 31
0.0
  0
LINE
  5
1A6C
330
1E
100
AcDbEntity
  8
HILF
100
AcDbLine
 10
324.4217242168893
 20
473.4627278211081
 30
0.0
 11
419.8102084540206
 21
378.0742435839767
 31
0.0
  0
LINE
  5
1A6D
330
1E
100
AcDbEntity
  8
HILF
100
AcDbLine
 10
306.545312696567
 20
448.5710782791151
 30
0.0
 11
394.9185589120277
 21
360.1978320636544
 31
0.0
  0
LINE
  5
1A6E
330
1E
100
AcDbEntity
  8
HILF
100
AcDbLine
 10
309.3106532037627
 20
456.5567577869926
 30
0.0
 11
402.9042384199053
 21
362.96317257085
 31
0.0
  0
LINE
  5
1A6F
102
{ACAD_REACTORS
330
1A75
330
1C22
330
1C76
102
}
330
1E
100
AcDbEntity
  8
STEMPEL
100
AcDbLine
 10
465.930173843009
 20
400.5766219364002
 30
0.0
 11
346.924102569313
 21
519.5826932100962
 31
0.0
  0
HATCH
  5
1A75
330
1E
100
AcDbEntity
  8
SCHRAFF
100
AcDbHatch
 10
0.0
 20
0.0
 30
0.0
210
0.0
220
0.0
230
1.0
  2
NET
 70
     0
 71
     1
 91
        2
 92
        7
 72
     1
 73
     1
 93
        6
 10
337.6610037357692
 20
506.2183750456704
 42
0.0
 10
341.3733143369986
 20
502.5060644444411
 42
0.0
 10
343.0686895047438
 20
504.2014396121863
 42
-0.1095178116832437
 10
354.0212886405703
 20
511.1790148001673
 42
0.0
 10
354.9791485013279
 20
511.5276472780815
 42
0.0
 10
348.974712234754
 20
517.5320835446552
 42
0.0
 97
        6
330
1A4E
330
1A6F
330
1A6B
330
1A54
330
1A53
330
1A4F
 92
        7
 72
     1
 73
     1
 93
        6
 10
463.8795641775679
 20
402.6272316018411
 42
0.0
 10
457.875127910994
 20
408.6316678684153
 42
0.0
 10
457.5264954330799
 20
407.6738080076577
 42
-0.1095178116832445
 10
450.548920245099
 20
396.721208871831
 42
0.0
 10
448.8535450773539
 20
395.0258337040859
 42
0.0
 10
452.5658556785834
 20
391.3135231028565
 42
0.0
 97
        6
330
1A6F
330
1A2D
330
1A30
330
1A33
330
1A31
330
1A4A
 75
     0
 76
     1
 52
-0.0000000000000127
 41
20.0
 77
     0
 78
     2
 53
360.0
 43
-360.3766040666825
 44
494.3061391101529
 45
0.0000000000000007
 46
2.5
 79
     0
 53
90.0
 43
-360.3766040666825
 44
494.3061391101529
 45
-2.5
 46
0.0000000000000007
 79
     0
 47
0.615751914332355
 98
        2
 10
346.1052428987528
 20
512.2014358782889
 10
459.3835968240552
 20
401.5354951400663
  0
DIMENSION
  5
1A78
330
1E
100
AcDbEntity
  8
BEM
100
AcDbDimension
  2
*D7
 10
476.1143972497061
 20
410.7608453430973
 30
0.0
 11
421.20755569057
 21
474.8600750576575
 31
0.0
 70
    32
  1
%%c<>
 71
     5
 42
168.3000000000002
  3
Standard
100
AcDbAlignedDimension
 13
346.924102569313
 23
519.5826932100962
 33
0.0
 14
465.930173843009
 24
400.5766219364002
 34
0.0
 50
315.0000000000005
100
AcDbRotatedDimension
1001
ACAD
1000
DSTYLE
1002
{
1070
    40
1040
2.0
1070
    41
1040
3.5
1070
    42
1040
1.0
1070
    43
1040
7.0
1070
    44
1040
1.0
1070
    73
1070
     0
1070
    74
1070
     0
1070
    77
1070
     1
1070
    78
1070
     8
1070
    79
1070
     2
1070
   140
1040
3.5
1070
   141
1040
1.5
1070
   146
1040
0.5142857142857144
1070
   147
1040
1.5
1070
   172
1070
     1
1070
   178
1070
     1
1070
   179
1070
     2
1070
   271
1070
     2
1070
   272
1070
     2
1070
   284
1070
     8
1070
   285
1070
     8
1070
   286
1070
     8
1070
   289
1070
     0
1070
   340
1005
24
1002
}
  0
TEXT
  5
1A7A
330
1E
100
AcDbEntity
  8
TEXT
 62
     1
100
AcDbText
 10
373.7451868892831
 20
440.2797079618892
 30
0.0
 40
7.0
  1
DN125
 50
44.99999999999999
 41
0.8
  7
GREEKS
100
AcDbText
  0
ELLIPSE
  5
1BEF
330
1E
100
AcDbEntity
  8
STEMPEL
100
AcDbEllipse
 10
267.759569944264
 20
283.2289670837842
 30
0.0
 11
-0.0000000000001953
 21
131.1927902194448
 31
0.0
210
0.0
220
0.0
230
1.0
 40
0.2910458887542415
 41
0.0
 42
1.570796326794896
  0
ELLIPSE
  5
1BF0
330
1E
100
AcDbEntity
  8
STEMPEL
100
AcDbEllipse
 10
267.759569944264
 20
283.2289670837842
 30
0.0
 11
0.0000000000000742
 21
-49.82654576431079
 31
0.0
210
0.0
220
0.0
230
1.0
 40
0.7663208765901755
 41
4.712388980384689
 42
6.283185307179586
  0
HATCH
  5
1C22
330
1E
100
AcDbEntity
  8
SCHRAFF
100
AcDbHatch
 10
0.0
 20
0.0
 30
0.0
210
0.0
220
0.0
230
1.0
  2
_USER
 70
     0
 71
     1
 91
        2
 92
        7
 72
     0
 73
     1
 93
        4
 10
348.974712234754
 20
517.5320835446552
 10
346.924102569313
 20
519.5826932100962
 10
300.259569944264
 20
472.9181605850471
 10
300.259569944264
 20
468.8169412541652
 97
        4
330
1A6F
330
1A6A
330
101C
330
1A6B
 92
        7
 72
     0
 73
     1
 93
        4
 10
465.9301738430089
 20
400.5766219364002
 10
463.8795641775678
 20
402.6272316018411
 10
300.259569944264
 20
239.007237368537
 10
300.259569944264
 20
234.9060180376553
 97
        4
330
1A6F
330
1A4A
330
10DA
330
1A49
 75
     0
 76
     0
 52
0.0
 41
2.0
 77
     0
 78
     1
 53
0.0
 43
0.0
 44
0.0
 45
0.0
 46
2.0
 79
     0
 47
0.885992514635425
 98
        2
 10
315.9238905506409
 20
486.0229225221781
 10
351.3886573505729
 20
287.5605990724348
  0
HATCH
  5
1C76
330
1E
100
AcDbEntity
  8
SCHRAFF
100
AcDbHatch
 10
0.0
 20
0.0
 30
0.0
210
0.0
220
0.0
230
1.0
  2
_USER
 70
     0
 71
     1
 91
        2
 92
        7
 72
     1
 73
     1
 93
       21
 10
302.8359947623319
 20
446.9981821212972
 42
0.1528962216020352
 10
306.2985197108601
 20
453.617433771551
 42
-0.1528962216020422
 10
310.5920506470352
 20
461.8253058178661
 42
0.0
 10
320.1601109014023
 20
471.393366072233
 42
0.1105209126118738
 10
324.9557653257156
 20
478.9540663819854
 42
-0.1088253511823017
 10
331.3260340831191
 20
488.9232502846287
 42
0.0
 10
344.8364564577103
 20
502.4336726592199
 42
-0.1095178116832403
 10
354.8763389988842
 20
508.8297832482025
 42
0.0
 10
356.9296635231026
 20
509.5771322563066
 42
0.0
 10
354.9791485013278
 20
511.5276472780814
 42
0.0
 10
354.0212886405703
 20
511.1790148001673
 42
0.1095178116832396
 10
343.0686895047442
 20
504.2014396121865
 42
0.0
 10
329.5582671301527
 20
490.691017237595
 42
0.0
 10
329.5584536227129
 20
490.690830745035
 42
0.109549420553767
 10
322.5796580838631
 20
479.7348057897727
 42
-0.1095494205537691
 10
318.3923439484358
 20
473.1611330251993
 42
0.0
 10
308.8242836940688
 20
463.5930727708325
 42
0.152896221602036
 10
303.8382477681882
 20
454.0613503944669
 42
-0.1528962216020377
 10
301.0682278093654
 20
448.7659490742639
 42
0.0
 10
270.2595699442638
 20
417.9572912091622
 42
0.0
 10
270.2595699442638
 20
414.4217573032291
 42
0.0
 97
       21
330
1A5D
330
1A59
330
1A5B
330
1A56
330
1A5E
330
1A52
330
1A50
330
1A4D
330
1A6F
330
1A4E
330
1A4F
330
1A53
330
1A51
330
1A5F
330
1A57
330
1A5C
330
1A5A
330
1A58
330
1A69
330
EB5
330
1A68
 92
        7
 72
     1
 73
     1
 93
       21
 10
270.2595699442641
 20
233.4024213194734
 42
0.0
 10
270.2595699442641
 20
229.8668874135407
 42
0.0
 10
395.1134297071762
 20
354.7207471764527
 42
-0.1528962216020424
 10
400.4088310273795
 20
357.4907671352753
 42
0.1528962216020353
 10
409.940553403745
 20
362.476803061156
 42
0.0
 10
419.5086136581121
 20
372.0448633155231
 42
-0.1095494205537237
 10
426.0822864226826
 20
376.2321774509492
 42
0.1095494205537917
 10
437.0383113779476
 20
383.2109729898
 42
0.0
 10
437.0384978705078
 20
383.2107864972399
 42
0.0
 10
450.548920245099
 20
396.721208871831
 42
0.1095178116832445
 10
457.5264954330799
 20
407.6738080076577
 42
0.0
 10
457.8751279109939
 20
408.6316678684152
 42
0.0
 10
455.9246128892192
 20
410.5821828901897
 42
0.0
 10
455.177263881115
 20
408.5288583659716
 42
-0.1095178116832442
 10
448.7811532921324
 20
398.4889758247973
 42
0.0
 10
435.2707309175413
 20
384.9785534502062
 42
-0.1088253511823343
 10
425.3015470148947
 20
378.6082846928015
 42
0.1105209126118289
 10
417.7408467051456
 20
373.8126302684896
 42
0.0
 10
408.1727864507787
 20
364.2445700141225
 42
-0.1528962216020404
 10
399.9649144044637
 20
359.9510390779474
 42
0.1528962216020385
 10
393.3456627542098
 20
356.4885141294191
 42
0.0
 97
       21
330
1A3C
330
1A37
330
1A38
330
1A36
330
1A3D
330
1A32
330
1A33
330
1A30
330
1A2D
330
1A6F
330
1A2E
330
1A2F
330
1A34
330
1A3E
330
1A35
330
1A39
330
1A3B
330
1A3A
330
1A48
330
E8A
330
1A47
 75
     0
 76
     0
 52
90.0
 41
2.0
 77
     0
 78
     1
 53
90.0
 43
0.0
 44
0.0
 45
-2.0
 46
0.0000000000000001
 79
     0
 47
0.885992514635425
 98
        2
 10
291.9851737325675
 20
437.293334696393
 10
323.9034607649815
 20
285.788613988625
  0
HATCH
  5
1CD0
330
1E
100
AcDbEntity
  8
SCHRAFF
100
AcDbHatch
 10
0.0
 20
0.0
 30
0.0
210
0.0
220
0.0
230
1.0
  2
_USER
 70
     0
 71
     1
 91
        3
 92
        7
 72
     1
 73
     1
 93
       22
 10
113.7595699442639
 20
456.8843413967467
 42
0.1528962216020391
 10
111.5274270871211
 20
464.0132339961535
 42
-0.1528962216020395
 10
108.7595699442639
 20
472.853060819418
 42
0.0
 10
108.7595699442639
 20
487.9120893113509
 42
0.1206909349745691
 10
106.4387989669437
 20
497.3865619690221
 42
-0.1211241773288499
 10
102.7595699442639
 20
512.4625993896654
 42
0.0
 10
102.7595699442639
 20
528.6289850934172
 42
-0.1095178116832389
 10
105.8045668655726
 20
542.3640785999896
 42
0.0
 10
106.7595699442641
 20
544.4120893113513
 42
0.0
 10
104.0011251468578
 20
544.4120893113513
 42
0.0
 10
103.538797397981
 20
543.4206242543414
 42
0.1095178116832388
 10
100.2595699442639
 20
528.6289850934172
 42
0.0
 10
100.2595699442639
 20
512.464694840528
 42
0.1211084169870768
 10
104.2218198178364
 20
496.2311384741841
 42
-0.1206909349745685
 10
106.2595699442639
 20
487.9120893113509
 42
0.0
 10
106.2595699442639
 20
472.853060819418
 42
0.1528962216020397
 10
109.4738556585496
 20
462.5874554762721
 42
-0.1528962216020413
 10
111.2595699442639
 20
456.8843413967466
 42
0.0
 10
111.2595699442639
 20
134.3029369540706
 42
0.0
 10
112.1249069856639
 20
124.4120893113512
 42
0.0
 10
114.6344565795224
 20
124.4120893113512
 42
0.0
 10
113.7595699442639
 20
134.4120893113418
 42
0.0
 97
       22
330
11D2
330
11D3
330
11D4
330
11D5
330
11D6
330
11D7
330
11D8
330
11D9
330
EC0
330
EAF
330
EB3
330
EB1
330
EB2
330
EB0
330
EBE
330
EBA
330
EBB
330
EB9
330
EA8
330
EC2
330
11DE
330
11D1
 92
        7
 72
     0
 73
     1
 93
        6
 10
267.7595699442639
 20
134.4120893113411
 10
266.8846833090057
 20
124.4120893113512
 10
269.3942329028641
 20
124.4120893113512
 10
270.2595699442639
 20
134.3029369540698
 10
270.2595699442641
 20
233.4024213194735
 10
267.7595699442641
 20
233.4024213194735
 97
        6
330
16AF
330
11DB
330
11DC
330
EC2
330
EA7
330
E8A
 92
        7
 72
     1
 73
     1
 93
       20
 10
267.7595699442637
 20
414.4217573032291
 42
0.0
 10
270.2595699442637
 20
414.4217573032289
 42
0.0
 10
270.2595699442638
 20
456.8843413967467
 42
-0.1528962216020417
 10
272.0452842299782
 20
462.5874554762723
 42
0.152896221602038
 10
275.2595699442638
 20
472.853060819418
 42
0.0
 10
275.2595699442638
 20
487.9120893113509
 42
-0.1206909349745684
 10
277.2973200706914
 20
496.2311384741841
 42
0.1211084169870766
 10
281.2595699442638
 20
512.464694840528
 42
0.0
 10
281.2595699442638
 20
528.6289850934172
 42
0.1095178116832392
 10
277.9803424905466
 20
543.4206242543414
 42
0.0
 10
277.5180147416699
 20
544.4120893113513
 42
0.0
 10
274.7595699442638
 20
544.4120893113513
 42
0.0
 10
275.7145730229549
 20
542.3640785999898
 42
-0.109517811683243
 10
278.7595699442638
 20
528.628985093417
 42
0.0
 10
278.7595699442638
 20
512.4625993896695
 42
-0.1211241773288816
 10
275.0803409215841
 20
497.3865619690221
 42
0.1206909349745692
 10
272.7595699442638
 20
487.9120893113509
 42
0.0
 10
272.7595699442638
 20
472.853060819418
 42
-0.1528962216020417
 10
269.9917128014066
 20
464.0132339961534
 42
0.1528962216020364
 10
267.7595699442638
 20
456.8843413967467
 42
0.0
 97
       20
330
EB8
330
EB7
330
EBF
330
EAC
330
EAD
330
EAB
330
EAE
330
EAA
330
EC0
330
11DA
330
11D0
330
11CF
330
11CE
330
11CC
330
11CB
330
11C9
330
11C7
330
11C6
330
16AE
330
EB5
 75
     0
 76
     0
 52
45.0
 41
2.0
 77
     0
 78
     1
 53
45.0
 43
0.0
 44
0.0
 45
-1.414213562373094
 46
1.414213562373095
 79
     0
 47
0.885992514635425
 98
        3
 10
112.8881029366721
 20
364.6419482391759
 10
268.9330737688492
 20
214.9092126152179
 10
268.9330737688492
 20
431.0913869030589
  0
HATCH
  5
1D28
330
1E
100
AcDbEntity
  8
SCHRAFF
100
AcDbHatch
 10
0.0
 20
0.0
 30
0.0
210
0.0
220
0.0
230
1.0
  2
HONEY
 70
     0
 71
     0
 91
        3
 92
        7
 72
     1
 73
     1
 93
       11
 10
111.2595699442639
 20
456.8843413967467
 42
0.1528962216020385
 10
109.4738556585496
 20
462.5874554762721
 42
-0.1528962216020397
 10
106.2595699442639
 20
472.853060819418
 42
0.0
 10
106.2595699442639
 20
487.9120893113509
 42
0.1206909349745685
 10
104.2218198178364
 20
496.2311384741841
 42
-0.1211084169870768
 10
100.2595699442639
 20
512.464694840528
 42
0.0
 10
100.2595699442639
 20
526.4120893113512
 42
0.0
 10
84.15956994426393
 20
526.4120893113511
 42
0.0
 10
84.15956994426391
 20
203.5620893113512
 42
0.0
 10
86.00956994426393
 20
205.4120893113512
 42
0.0
 10
111.2595699442639
 20
205.4120893113512
 42
0.0
 97
        0
 92
        7
 72
     1
 73
     1
 93
       20
 10
272.045284229978
 20
462.587455476272
 42
0.152896221602038
 10
270.2595699442638
 20
456.8843413967466
 42
0.0
 10
270.2595699442638
 20
417.9572912091622
 42
0.0
 10
301.0682278093652
 20
448.7659490742637
 42
0.1528962216020433
 10
303.8382477681881
 20
454.0613503944669
 42
-0.1528962216020365
 10
308.8242836940688
 20
463.5930727708325
 42
0.0
 10
318.3923439484358
 20
473.1611330251994
 42
0.1095494205537698
 10
322.5796580838632
 20
479.7348057897728
 42
-0.1095494205537659
 10
329.5584536227129
 20
490.690830745035
 42
0.0
 10
329.5582671301526
 20
490.691017237595
 42
0.0
 10
341.3733143369985
 20
502.506064444441
 42
0.0
 10
337.6610037357694
 20
506.2183750456705
 42
0.0
 10
300.2595699442637
 20
468.816941254165
 42
0.0
 10
297.3595699442639
 20
468.8169412541649
 42
0.0
 10
297.359569944264
 20
526.4120893113512
 42
0.0
 10
281.2595699442639
 20
526.4120893113513
 42
0.0
 10
281.2595699442638
 20
512.464694840528
 42
-0.1211084169870766
 10
277.2973200706914
 20
496.2311384741841
 42
0.1206909349745684
 10
275.2595699442638
 20
487.9120893113509
 42
0.0
 10
275.2595699442638
 20
472.853060819418
 42
-0.1528962216020418
 97
        0
 92
        7
 72
     1
 73
     1
 93
       15
 10
297.3595699442639
 20
239.0652470500101
 42
0.0
 10
300.3175796257372
 20
239.0652470500102
 42
0.0
 10
452.5658556785833
 20
391.3135231028565
 42
0.0
 10
448.8535450773539
 20
395.0258337040859
 42
0.0
 10
437.0384978705079
 20
383.21078649724
 42
0.0
 10
437.0383113779475
 20
383.2109729898001
 42
-0.1095494205537223
 10
426.0822864226903
 20
376.232177450952
 42
0.1095494205538391
 10
419.5086136581121
 20
372.0448633155231
 42
0.0
 10
409.940553403745
 20
362.476803061156
 42
-0.1528962216020418
 10
400.4088310273791
 20
357.4907671352752
 42
0.152896221602035
 10
395.1134297071761
 20
354.7207471764526
 42
0.0
 10
270.2595699442641
 20
229.8668874135407
 42
0.0
 10
270.2595699442641
 20
205.4120893113512
 42
0.0
 10
295.5095699442638
 20
205.4120893113512
 42
0.0
 10
297.3595699442639
 20
203.5620893113511
 42
0.0
 97
        0
 75
     0
 76
     1
 52
0.0
 41
30.0
 77
     0
 78
     3
 53
0.0
 43
0.0
 44
0.0
 45
5.625
 46
3.247595249999999
 79
     2
 49
3.75
 49
-7.5
 53
120.0
 43
0.0
 44
0.0
 45
-5.624999987709673
 46
3.247595271287468
 79
     2
 49
3.75
 49
-7.5
 53
60.0
 43
0.0
 44
0.0
 45
0.0000000122903263
 46
6.495190521287468
 79
     2
 49
-7.5
 49
3.75
 47
1.673175448804904
 98
        3
 10
100.2628445455238
 20
399.0853172130321
 10
286.1166742459023
 20
457.6464595189338
 10
284.442315447588
 20
225.0750707089662
  0
ARC
  5
1D2B
102
{ACAD_REACTORS
330
1D35
102
}
330
1E
100
AcDbEntity
  8
SCHRAFF
100
AcDbCircle
 10
298.2207116748081
 20
467.9959212991706
 30
0.0
 40
10.77377199837714
100
AcDbArc
 50
55.90859541644696
 51
79.0914045835524
  0
ARC
  5
1D2C
102
{ACAD_REACTORS
330
1D35
102
}
330
1E
100
AcDbEntity
  8
SCHRAFF
100
AcDbCircle
 10
268.220711674808
 20
413.0350519232856
 30
0.0
 40
10.77377199837714
100
AcDbArc
 50
55.90859541644696
 51
79.0914045835524
  0
HATCH
  5
1D35
330
1E
100
AcDbEntity
  8
SCHRAFF
100
AcDbHatch
 10
0.0
 20
0.0
 30
0.0
210
0.0
220
0.0
230
1.0
  2
_USER
 70
     0
 71
     1
 91
        2
 92
        7
 72
     1
 73
     1
 93
        3
 10
300.259569944264
 20
478.5750148345396
 42
0.0
 10
300.259569944264
 20
472.9181605850471
 42
0.0
 10
304.2595699442639
 20
476.9181605850471
 42
0.1015005133105043
 97
        3
330
101C
330
1A6A
330
1D2B
 92
        7
 72
     1
 73
     1
 93
        3
 10
270.2595699442638
 20
423.6141454586547
 42
0.0
 10
270.2595699442638
 20
417.9572912091622
 42
0.0
 10
274.2595699442638
 20
421.9572912091622
 42
0.101500513310505
 97
        3
330
EB5
330
1A69
330
1D2C
 75
     0
 76
     0
 52
0.0
 41
0.1
 77
     0
 78
     1
 53
0.0
 43
0.0
 44
0.0
 45
0.0
 46
0.1
 79
     0
 47
0.2569048944139501
 98
        2
 10
301.9802372412155
 20
477.0164296850569
 10
272.158191552433
 20
422.0387817896214
  0
ARC
  5
1D38
102
{ACAD_REACTORS
330
1D45
102
}
330
1E
100
AcDbEntity
  8
SCHRAFF
100
AcDbCircle
 10
263.5149702969119
 20
232.6605920602509
 30
0.0
 40
10.81210294351897
100
AcDbArc
 50
308.594231402973
 51
6.405768597026497
  0
ARC
  5
1D39
102
{ACAD_REACTORS
330
1D3F
102
}
330
1E
100
AcDbEntity
  8
SCHRAFF
100
AcDbCircle
 10
293.5149702969117
 20
237.6997226843654
 30
0.0
 40
10.81210294351897
100
AcDbArc
 50
308.594231402973
 51
6.405768597026497
  0
HATCH
  5
1D3F
330
1E
100
AcDbEntity
  8
SCHRAFF
100
AcDbHatch
 10
0.0
 20
0.0
 30
0.0
210
0.0
220
0.0
230
1.0
  2
_USER
 70
     0
 71
     1
 91
        1
 92
        7
 72
     1
 73
     1
 93
        3
 10
304.259569944264
 20
238.9060180376553
 42
0.0
 10
300.259569944264
 20
234.9060180376553
 42
0.0
 10
300.259569944264
 20
229.2491637881629
 42
0.2577404470271167
 97
        3
330
1A49
330
10DA
330
1D39
 75
     0
 76
     0
 52
0.0
 41
0.1
 77
     0
 78
     1
 53
0.0
 43
0.0
 44
0.0
 45
0.0
 46
0.1
 79
     0
 47
0.122960363070183
 98
        1
 10
302.4635553650687
 20
234.9219464732869
  0
HATCH
  5
1D45
330
1E
100
AcDbEntity
  8
SCHRAFF
100
AcDbHatch
 10
0.0
 20
0.0
 30
0.0
210
0.0
220
0.0
230
1.0
  2
_USER
 70
     0
 71
     1
 91
        1
 92
        7
 72
     1
 73
     1
 93
        3
 10
274.2595699442641
 20
233.8668874135407
 42
0.0
 10
270.2595699442641
 20
229.8668874135407
 42
0.0
 10
270.2595699442641
 20
224.2100331640484
 42
0.2577404470271147
 97
        3
330
1A47
330
E8A
330
1D38
 75
     0
 76
     0
 52
0.0
 41
0.1
 77
     0
 78
     1
 53
0.0
 43
0.0
 44
0.0
 45
0.0
 46
0.1
 79
     0
 47
0.122960363070183
 98
        1
 10
272.809149950293
 20
229.3887305831268
  0
HATCH
  5
1DF3
330
1E
100
AcDbEntity
  8
SCHRAFF
100
AcDbHatch
 10
0.0
 20
0.0
 30
0.0
210
0.0
220
0.0
230
1.0
  2
NET
 70
     0
 71
     0
 91
        2
 92
        7
 72
     0
 73
     1
 93
       11
 10
297.359569944264
 20
203.5620893113509
 10
295.5095699442638
 20
205.4120893113512
 10
270.2595699442639
 20
205.4120893113512
 10
270.2595699442639
 20
196.4120893113511
 10
277.5595699442639
 20
196.4120893113511
 10
281.6010218285912
 20
189.4120893113511
 10
292.7595699442638
 20
189.4120893113511
 10
292.7595699442639
 20
187.4120893113512
 10
300.2595699442639
 20
187.4120893113512
 10
300.2595699442639
 20
189.4120893113513
 10
297.359569944264
 20
189.4120893113513
 97
        0
 92
        7
 72
     0
 73
     1
 93
       11
 10
111.2595699442638
 20
205.4120893113512
 10
86.00956994426384
 20
205.4120893113512
 10
84.15956994426386
 20
203.5620893113512
 10
84.15956994426386
 20
189.4120893113511
 10
81.25956994426392
 20
189.4120893113511
 10
81.2595699442639
 20
187.4120893113512
 10
88.85956994426392
 20
187.4120893113512
 10
88.85956994426392
 20
189.4120893113513
 10
99.91811805993668
 20
189.4120893113513
 10
103.9595699442639
 20
196.4120893113511
 10
111.2595699442638
 20
196.4120893113511
 97
        0
 75
     0
 76
     1
 52
45.0
 41
20.0
 77
     0
 78
     2
 53
45.0
 43
-25.28028696003361
 44
-68.57616548640578
 45
-1.767766952966368
 46
1.767766952966368
 79
     0
 53
135.0
 43
-25.28028696003361
 44
-68.57616548640578
 45
-1.767766952966368
 46
-1.767766952966368
 79
     0
 47
0.2699286479089143
 98
        2
 10
288.2501901117585
 20
200.4641861244583
 10
91.8936777958989
 20
198.8446149122591
  0
LINE
  5
1DF4
330
1E
100
AcDbEntity
  8
STEMPEL
100
AcDbLine
 10
300.2595699442639
 20
187.4120893113512
 30
0.0
 11
270.259569944264
 21
187.4120893113513
 31
0.0
  0
LINE
  5
1DF5
330
1E
100
AcDbEntity
  8
STEMPEL
100
AcDbLine
 10
277.5595699442639
 20
196.4120893113511
 30
0.0
 11
281.6010218285914
 21
189.412089311351
 31
0.0
  0
LINE
  5
1DF6
330
1E
100
AcDbEntity
  8
STEMPEL
100
AcDbLine
 10
292.7595699442639
 20
189.4120893113511
 30
0.0
 11
270.259569944264
 21
189.4120893113511
 31
0.0
  0
LINE
  5
1DF7
330
1E
100
AcDbEntity
  8
STEMPEL
100
AcDbLine
 10
292.7595699442639
 20
187.4120893113511
 30
0.0
 11
292.7595699442638
 21
189.4120893113511
 31
0.0
  0
POINT
  5
1DF8
330
1E
100
AcDbEntity
  8
DEFPOINTS
  6
ByBlock
 62
     0
100
AcDbPoint
 10
282.7595699442639
 20
189.4120893113511
 30
0.0
  0
POINT
  5
1DF9
330
1E
100
AcDbEntity
  8
DEFPOINTS
  6
ByBlock
 62
     0
100
AcDbPoint
 10
292.7595699442639
 20
187.4120893113511
 30
0.0
  0
POINT
  5
1DFA
330
1E
100
AcDbEntity
  8
DEFPOINTS
  6
ByBlock
 62
     0
100
AcDbPoint
 10
281.6010218285914
 20
189.4120893113511
 30
0.0
  0
POINT
  5
1DFB
330
1E
100
AcDbEntity
  8
DEFPOINTS
  6
ByBlock
 62
     0
100
AcDbPoint
 10
281.6010218285914
 20
189.4120893113511
 30
0.0
  0
POINT
  5
1DFC
330
1E
100
AcDbEntity
  8
DEFPOINTS
  6
ByBlock
 62
     0
100
AcDbPoint
 10
281.6010218285914
 20
189.412089311351
 30
0.0
  0
POINT
  5
1DFD
330
1E
100
AcDbEntity
  8
DEFPOINTS
  6
ByBlock
 62
     0
100
AcDbPoint
 10
292.7595699442639
 20
187.4120893113511
 30
0.0
  0
LINE
  5
1DFE
330
1E
100
AcDbEntity
  8
STEMPEL
100
AcDbLine
 10
111.2595699442638
 20
187.4120893113512
 30
0.0
 11
81.2595699442639
 21
187.4120893113512
 31
0.0
  0
LINE
  5
1DFF
330
1E
100
AcDbEntity
  8
STEMPEL
100
AcDbLine
 10
111.2595699442638
 20
189.4120893113513
 30
0.0
 11
88.85956994426392
 21
189.4120893113513
 31
0.0
  0
LINE
  5
1E00
330
1E
100
AcDbEntity
  8
STEMPEL
100
AcDbLine
 10
88.85956994426392
 20
187.4120893113511
 30
0.0
 11
88.85956994426392
 21
189.4120893113511
 31
0.0
  0
LINE
  5
1E01
330
1E
100
AcDbEntity
  8
STEMPEL
100
AcDbLine
 10
103.9595699442639
 20
196.4120893113511
 30
0.0
 11
99.91811805993656
 21
189.412089311351
 31
0.0
  0
POINT
  5
1E02
330
1E
100
AcDbEntity
  8
DEFPOINTS
  6
ByBlock
 62
     0
100
AcDbPoint
 10
99.91811805993661
 20
189.4120893113511
 30
0.0
  0
POINT
  5
1E03
330
1E
100
AcDbEntity
  8
DEFPOINTS
  6
ByBlock
 62
     0
100
AcDbPoint
 10
88.85956994426392
 20
187.4120893113511
 30
0.0
  0
POINT
  5
1E04
330
1E
100
AcDbEntity
  8
DEFPOINTS
  6
ByBlock
 62
     0
100
AcDbPoint
 10
88.85956994426392
 20
189.4120893113511
 30
0.0
  0
LINE
  5
1E30
330
1E
100
AcDbEntity
  8
BEM
100
AcDbLine
 10
411.3768856744669
 20
465.0294050415541
 30
0.0
 11
414.3350611928338
 21
467.987580559921
 31
0.0
  0
LINE
  5
1E31
330
1E
100
AcDbEntity
  8
BEM
100
AcDbLine
 10
190.7595699442639
 20
551.4120893113512
 30
0.0
 11
190.7595699442639
 21
556.318306261664
 31
0.0
  0
ARC
  5
1E32
330
1E
100
AcDbEntity
  8
BEM
100
AcDbCircle
 10
190.7595699442639
 20
244.4120893113512
 30
0.0
 40
354.0411711944045
100
AcDbArc
 50
46.13285409237832
 51
88.86714590762167
  0
SOLID
  5
1E33
330
1E
100
AcDbEntity
  8
BEM
100
AcDbTrace
 10
436.9228070159717
 20
500.4906483983703
 30
0.0
 11
435.2892826484968
 21
498.8245023707635
 31
0.0
 12
441.1044829150546
 22
494.757002282142
 32
0.0
 13
441.1044829150546
 23
494.757002282142
 33
0.0
  0
SOLID
  5
1E34
330
1E
100
AcDbEntity
  8
BEM
100
AcDbTrace
 10
197.747694381846
 20
597.217449858456
 30
0.0
 11
197.7707613789388
 21
599.5506691704987
 31
0.0
 12
190.7595699442639
 22
598.4532605057558
 32
0.0
 13
190.7595699442639
 23
598.4532605057558
 33
0.0
  0
MTEXT
  5
1E35
330
1E
100
AcDbEntity
  8
BEM
 62
     1
100
AcDbMText
 10
328.7327028458681
 20
577.5086980055093
 30
0.0
 40
7.0
 41
0.0
 71
     5
 72
     1
  1
\A1;45°
 11
0.9238795325112867
 21
-0.3826834323650898
 31
0.0
 73
     1
 44
1.0
  0
LINE
  5
1E36
330
1E
100
AcDbEntity
  8
BEM
100
AcDbLine
 10
425.3166994148391
 20
478.9692187819264
 30
0.0
 11
442.5186964774277
 21
496.1712158445151
 31
0.0
  0
LINE
  5
1E37
330
1E
100
AcDbEntity
  8
BEM
100
AcDbLine
 10
190.7595699442639
 20
572.6580453990536
 30
0.0
 11
190.7595699442639
 21
600.4532605057558
 31
0.0
  0
ENDSEC
  0
SECTION
  2
OBJECTS
  0
DICTIONARY
  5
C
330
0
100
AcDbDictionary
281
     1
  3
ACAD_COLOR
350
11A
  3
ACAD_GROUP
350
D
  3
ACAD_LAYOUT
350
19
  3
ACAD_MATERIAL
350
119
  3
ACAD_MLINESTYLE
350
16
  3
ACAD_PLOTSETTINGS
350
18
  3
ACAD_PLOTSTYLENAME
350
E
  3
AcDbVariableDictionary
350
125
  0
DICTIONARY
  5
DB
330
1E
100
AcDbDictionary
280
     1
281
     1
  3
ACAD_LAYOUTSELFREF
360
10F
  0
DICTIONARY
  5
DD
330
1A
100
AcDbDictionary
280
     1
281
     1
  3
ACAD_LAYOUTSELFREF
360
10E
  0
DICTIONARY
  5
11A
102
{ACAD_REACTORS
330
C
102
}
330
C
100
AcDbDictionary
281
     1
  0
DICTIONARY
  5
D
102
{ACAD_REACTORS
330
C
102
}
330
C
100
AcDbDictionary
281
     1
  0
DICTIONARY
  5
19
102
{ACAD_REACTORS
330
C
102
}
330
C
100
AcDbDictionary
281
     1
  3
Layout1
350
1D
  3
Model
350
21
  0
DICTIONARY
  5
119
102
{ACAD_REACTORS
330
C
102
}
330
C
100
AcDbDictionary
281
     1
  0
DICTIONARY
  5
16
102
{ACAD_REACTORS
330
C
102
}
330
C
100
AcDbDictionary
281
     1
  3
Standard
350
17
  0
DICTIONARY
  5
18
102
{ACAD_REACTORS
330
C
102
}
330
C
100
AcDbDictionary
281
     1
  0
ACDBDICTIONARYWDFLT
  5
E
102
{ACAD_REACTORS
330
C
102
}
330
C
100
AcDbDictionary
281
     1
  3
Normal
350
F
100
AcDbDictionaryWithDefault
340
F
  0
DICTIONARY
  5
125
102
{ACAD_REACTORS
330
C
102
}
330
C
100
AcDbDictionary
281
     1
  3
DIMASSOC
350
126
  3
PROJECTNAME
350
127
  0
XRECORD
  5
10F
102
{ACAD_REACTORS
330
DB
102
}
330
DB
100
AcDbXrecord
280
     1
340
1E
  0
XRECORD
  5
10E
102
{ACAD_REACTORS
330
DD
102
}
330
DD
100
AcDbXrecord
280
     1
340
1A
  0
LAYOUT
  5
1D
102
{ACAD_REACTORS
330
19
102
}
330
19
100
AcDbPlotSettings
  1

  2
\\NT_WORK01\HP LaserJet 5000 PCL 6
  4

  6

 40
0.0
 41
0.0
 42
0.0
 43
0.0
 44
0.0
 45
0.0
 46
0.0
 47
0.0
 48
0.0
 49
0.0
140
0.0
141
0.0
142
1.0
143
1.0
 70
   688
 72
     0
 73
     0
 74
     5
  7

 75
    16
147
1.0
 76
     0
 77
     2
 78
   300
148
0.0
149
0.0
100
AcDbLayout
  1
Layout1
 70
     0
 71
     1
 10
0.0
 20
0.0
 11
12.0
 21
9.0
 12
0.0
 22
0.0
 32
0.0
 14
1.000000000000000E+20
 24
1.000000000000000E+20
 34
1.000000000000000E+20
 15
-1.000000000000000E+20
 25
-1.000000000000000E+20
 35
-1.000000000000000E+20
146
0.0
 13
0.0
 23
0.0
 33
0.0
 16
1.0
 26
0.0
 36
0.0
 17
0.0
 27
1.0
 37
0.0
 76
     0
330
1A
  0
LAYOUT
  5
21
102
{ACAD_REACTORS
330
19
102
}
330
19
100
AcDbPlotSettings
  1

  2
none_device
  4
Letter_(8.50_x_11.00_Inches)
  6

 40
6.349999904632568
 41
6.349999904632568
 42
6.350006103515625
 43
6.350006103515625
 44
215.8999938964844
 45
279.3999938964844
 46
0.0
 47
0.0
 48
0.0
 49
0.0
140
0.0
141
0.0
142
1.0
143
1.0
 70
 11952
 72
     0
 73
     1
 74
     0
  7

 75
     0
147
1.0
 76
     0
 77
     2
 78
   300
148
3232.979308760778
149
108.7792942125838
100
AcDbLayout
  1
Model
 70
     1
 71
     0
 10
0.0
 20
0.0
 11
12.0
 21
9.0
 12
0.0
 22
0.0
 32
0.0
 14
0.0
 24
0.0
 34
0.0
 15
0.0
 25
0.0
 35
0.0
146
0.0
 13
0.0
 23
0.0
 33
0.0
 16
1.0
 26
0.0
 36
0.0
 17
0.0
 27
1.0
 37
0.0
 76
     0
330
1E
  0
MLINESTYLE
  5
17
102
{ACAD_REACTORS
330
16
102
}
330
16
100
AcDbMlineStyle
  2
STANDARD
 70
     0
  3

 62
   256
 51
90.0
 52
90.0
 71
     2
 49
0.5
 62
   256
  6
BYLAYER
 49
-0.5
 62
   256
  6
BYLAYER
  0
ACDBPLACEHOLDER
  5
F
102
{ACAD_REACTORS
330
E
102
}
330
E
  0
DICTIONARYVAR
  5
126
102
{ACAD_REACTORS
330
125
102
}
330
125
100
DictionaryVariables
280
     0
  1
1
  0
DICTIONARYVAR
  5
127
102
{ACAD_REACTORS
330
125
102
}
330
125
100
DictionaryVariables
280
     0
  1

  0
ENDSEC
  0
EOF
