  0
SECTION
  2
HEADER
  9
$ACADVER
  1
AC1018
  9
$ACADMAINTVER
 70
     2
  9
$DWGCODEPAGE
  3
ANSI_1252
  9
$INSBASE
 10
0.0
 20
0.0
 30
0.0
  9
$EXTMIN
 10
-0.0090573584943741
 20
-0.0128083857496222
 30
-0.0000000000112498
  9
$EXTMAX
 10
594.0090656570853
 20
840.0128201211312
 30
0.0000000000002956
  9
$LIMMIN
 10
0.0
 20
0.0
  9
$LIMMAX
 10
594.0
 20
840.0
  9
$ORTHOMODE
 70
     0
  9
$REGENMODE
 70
     1
  9
$FILLMODE
 70
     1
  9
$QTEXTMODE
 70
     0
  9
$MIRRTEXT
 70
     1
  9
$LTSCALE
 40
20.0
  9
$ATTMODE
 70
     1
  9
$TEXTSIZE
 40
3.5
  9
$TRACEWID
 40
1.0
  9
$TEXTSTYLE
  7
STANDARD
  9
$CLAYER
  8
BEM
  9
$CELTYPE
  6
ByLayer
  9
$CECOLOR
 62
   256
  9
$CELTSCALE
 40
1.0
  9
$DISPSILH
 70
     0
  9
$DIMSCALE
 40
2.0
  9
$DIMASZ
 40
3.5
  9
$DIMEXO
 40
1.0
  9
$DIMDLI
 40
7.0
  9
$DIMRND
 40
0.0
  9
$DIMDLE
 40
0.0
  9
$DIMEXE
 40
1.0
  9
$DIMTP
 40
0.0
  9
$DIMTM
 40
0.0
  9
$DIMTXT
 40
3.5
  9
$DIMCEN
 40
1.5
  9
$DIMTSZ
 40
0.0
  9
$DIMTOL
 70
     0
  9
$DIMLIM
 70
     0
  9
$DIMTIH
 70
     0
  9
$DIMTOH
 70
     0
  9
$DIMSE1
 70
     0
  9
$DIMSE2
 70
     0
  9
$DIMTAD
 70
     1
  9
$DIMZIN
 70
     8
  9
$DIMBLK
  1

  9
$DIMASO
 70
     1
  9
$DIMSHO
 70
     0
  9
$DIMPOST
  1

  9
$DIMAPOST
  1

  9
$DIMALT
 70
     0
  9
$DIMALTD
 70
     2
  9
$DIMALTF
 40
25.4
  9
$DIMLFAC
 40
1.0
  9
$DIMTOFL
 70
     1
  9
$DIMTVP
 40
0.0
  9
$DIMTIX
 70
     0
  9
$DIMSOXD
 70
     0
  9
$DIMSAH
 70
     0
  9
$DIMBLK1
  1

  9
$DIMBLK2
  1

  9
$DIMSTYLE
  2
Standard
  9
$DIMCLRD
 70
     0
  9
$DIMCLRE
 70
     0
  9
$DIMCLRT
 70
     1
  9
$DIMTFAC
 40
0.5142857142857144
  9
$DIMGAP
 40
1.5
  9
$DIMJUST
 70
     0
  9
$DIMSD1
 70
     0
  9
$DIMSD2
 70
     0
  9
$DIMTOLJ
 70
     1
  9
$DIMTZIN
 70
     8
  9
$DIMALTZ
 70
     8
  9
$DIMALTTZ
 70
     8
  9
$DIMUPT
 70
     0
  9
$DIMDEC
 70
     2
  9
$DIMTDEC
 70
     2
  9
$DIMALTU
 70
     2
  9
$DIMALTTD
 70
     2
  9
$DIMTXSTY
  7
STANDARD
  9
$DIMAUNIT
 70
     0
  9
$DIMADEC
 70
     2
  9
$DIMALTRND
 40
0.0
  9
$DIMAZIN
 70
     2
  9
$DIMDSEP
 70
    46
  9
$DIMATFIT
 70
     3
  9
$DIMFRAC
 70
     0
  9
$DIMLDRBLK
  1

  9
$DIMLUNIT
 70
     2
  9
$DIMLWD
 70
    -2
  9
$DIMLWE
 70
    -2
  9
$DIMTMOVE
 70
     0
  9
$LUNITS
 70
     2
  9
$LUPREC
 70
     2
  9
$SKETCHINC
 40
1.0
  9
$FILLETRAD
 40
0.0
  9
$AUNITS
 70
     0
  9
$AUPREC
 70
     0
  9
$MENU
  1
ACAD
  9
$ELEVATION
 40
0.0
  9
$PELEVATION
 40
0.0
  9
$THICKNESS
 40
0.0
  9
$LIMCHECK
 70
     0
  9
$CHAMFERA
 40
0.0
  9
$CHAMFERB
 40
0.0
  9
$CHAMFERC
 40
0.0
  9
$CHAMFERD
 40
0.0
  9
$SKPOLY
 70
     0
  9
$TDCREATE
 40
2455397.825393172
  9
$TDUCREATE
 40
2455397.783726505
  9
$TDUPDATE
 40
2455532.495619595
  9
$TDUUPDATE
 40
2455532.453952928
  9
$TDINDWG
 40
0.1937837731
  9
$TDUSRTIMER
 40
0.1937837731
  9
$USRTIMER
 70
     1
  9
$ANGBASE
 50
0.0
  9
$ANGDIR
 70
     0
  9
$PDMODE
 70
     0
  9
$PDSIZE
 40
0.0
  9
$PLINEWID
 40
0.0
  9
$SPLFRAME
 70
     0
  9
$SPLINETYPE
 70
     6
  9
$SPLINESEGS
 70
     8
  9
$HANDSEED
  5
1A6E
  9
$SURFTAB1
 70
     6
  9
$SURFTAB2
 70
     6
  9
$SURFTYPE
 70
     6
  9
$SURFU
 70
     6
  9
$SURFV
 70
     6
  9
$UCSBASE
  2

  9
$UCSNAME
  2

  9
$UCSORG
 10
0.0
 20
0.0
 30
0.0
  9
$UCSXDIR
 10
1.0
 20
0.0
 30
0.0
  9
$UCSYDIR
 10
0.0
 20
1.0
 30
0.0
  9
$UCSORTHOREF
  2

  9
$UCSORTHOVIEW
 70
     0
  9
$UCSORGTOP
 10
0.0
 20
0.0
 30
0.0
  9
$UCSORGBOTTOM
 10
0.0
 20
0.0
 30
0.0
  9
$UCSORGLEFT
 10
0.0
 20
0.0
 30
0.0
  9
$UCSORGRIGHT
 10
0.0
 20
0.0
 30
0.0
  9
$UCSORGFRONT
 10
0.0
 20
0.0
 30
0.0
  9
$UCSORGBACK
 10
0.0
 20
0.0
 30
0.0
  9
$PUCSBASE
  2

  9
$PUCSNAME
  2

  9
$PUCSORG
 10
0.0
 20
0.0
 30
0.0
  9
$PUCSXDIR
 10
1.0
 20
0.0
 30
0.0
  9
$PUCSYDIR
 10
0.0
 20
1.0
 30
0.0
  9
$PUCSORTHOREF
  2

  9
$PUCSORTHOVIEW
 70
     0
  9
$PUCSORGTOP
 10
0.0
 20
0.0
 30
0.0
  9
$PUCSORGBOTTOM
 10
0.0
 20
0.0
 30
0.0
  9
$PUCSORGLEFT
 10
0.0
 20
0.0
 30
0.0
  9
$PUCSORGRIGHT
 10
0.0
 20
0.0
 30
0.0
  9
$PUCSORGFRONT
 10
0.0
 20
0.0
 30
0.0
  9
$PUCSORGBACK
 10
0.0
 20
0.0
 30
0.0
  9
$USERI1
 70
     0
  9
$USERI2
 70
     0
  9
$USERI3
 70
     0
  9
$USERI4
 70
     0
  9
$USERI5
 70
     0
  9
$USERR1
 40
0.0
  9
$USERR2
 40
0.0
  9
$USERR3
 40
0.0
  9
$USERR4
 40
0.0
  9
$USERR5
 40
0.0
  9
$WORLDVIEW
 70
     1
  9
$SHADEDGE
 70
     3
  9
$SHADEDIF
 70
    70
  9
$TILEMODE
 70
     1
  9
$MAXACTVP
 70
    16
  9
$PINSBASE
 10
0.0
 20
0.0
 30
0.0
  9
$PLIMCHECK
 70
     0
  9
$PEXTMIN
 10
1.000000000000000E+20
 20
1.000000000000000E+20
 30
1.000000000000000E+20
  9
$PEXTMAX
 10
-1.000000000000000E+20
 20
-1.000000000000000E+20
 30
-1.000000000000000E+20
  9
$PLIMMIN
 10
0.0
 20
0.0
  9
$PLIMMAX
 10
12.0
 20
9.0
  9
$UNITMODE
 70
     0
  9
$VISRETAIN
 70
     0
  9
$PLINEGEN
 70
     0
  9
$PSLTSCALE
 70
     0
  9
$TREEDEPTH
 70
  3020
  9
$CMLSTYLE
  2
Standard
  9
$CMLJUST
 70
     0
  9
$CMLSCALE
 40
1.0
  9
$PROXYGRAPHICS
 70
     1
  9
$MEASUREMENT
 70
     0
  9
$CELWEIGHT
370
    -1
  9
$ENDCAPS
280
     0
  9
$JOINSTYLE
280
     0
  9
$LWDISPLAY
290
     0
  9
$INSUNITS
 70
     0
  9
$HYPERLINKBASE
  1

  9
$STYLESHEET
  1
monochrome 1.ctb
  9
$XEDIT
290
     1
  9
$CEPSNTYPE
380
     0
  9
$PSTYLEMODE
290
     1
  9
$FINGERPRINTGUID
  2
{D68B0D0D-A558-11D7-B632-000102183313}
  9
$VERSIONGUID
  2
{71DDEFF6-AB22-4162-924C-ED9B4C74098C}
  9
$EXTNAMES
290
     1
  9
$PSVPSCALE
 40
0.0
  9
$OLESTARTUP
290
     0
  9
$SORTENTS
280
   127
  9
$INDEXCTL
280
     0
  9
$HIDETEXT
280
     0
  9
$XCLIPFRAME
290
     0
  9
$HALOGAP
280
     0
  9
$OBSCOLOR
 70
   257
  9
$OBSLTYPE
280
     0
  9
$INTERSECTIONDISPLAY
280
     0
  9
$INTERSECTIONCOLOR
 70
   257
  9
$DIMASSOC
280
     1
  9
$PROJECTNAME
  1

  0
ENDSEC
  0
SECTION
  2
CLASSES
  0
CLASS
  1
ACDBDICTIONARYWDFLT
  2
AcDbDictionaryWithDefault
  3
ObjectDBX Classes
 90
        0
 91
        1
280
     0
281
     0
  0
CLASS
  1
DICTIONARYVAR
  2
AcDbDictionaryVar
  3
ObjectDBX Classes
 90
        0
 91
        2
280
     0
281
     0
  0
ENDSEC
  0
SECTION
  2
TABLES
  0
TABLE
  2
VPORT
  5
8
330
0
100
AcDbSymbolTable
 70
     2
  0
VPORT
  5
1A6D
330
8
100
AcDbSymbolTableRecord
100
AcDbViewportTableRecord
  2
*Active
 70
     0
 10
0.0
 20
0.0
 11
1.0
 21
1.0
 12
297.0000041492954
 22
420.0000058676908
 13
0.0
 23
0.0
 14
1.0
 24
1.0
 15
10.0
 25
10.0
 16
0.0
 26
0.0
 36
1.0
 17
0.0
 27
0.0
 37
0.0
 40
846.8091463683093
 41
1.336927223719676
 42
50.0
 43
0.0
 44
0.0
 50
0.0
 51
0.0
 71
     0
 72
  1500
 73
     1
 74
     0
 75
     0
 76
     0
 77
     0
 78
     0
281
     0
 65
     1
110
0.0
120
0.0
130
0.0
111
1.0
121
0.0
131
0.0
112
0.0
122
1.0
132
0.0
 79
     0
146
0.0
  0
ENDTAB
  0
TABLE
  2
LTYPE
  5
5
330
0
100
AcDbSymbolTable
 70
     2
  0
LTYPE
  5
13
330
5
100
AcDbSymbolTableRecord
100
AcDbLinetypeTableRecord
  2
ByBlock
 70
     0
  3

 72
    65
 73
     0
 40
0.0
  0
LTYPE
  5
14
330
5
100
AcDbSymbolTableRecord
100
AcDbLinetypeTableRecord
  2
ByLayer
 70
     0
  3

 72
    65
 73
     0
 40
0.0
  0
LTYPE
  5
15
330
5
100
AcDbSymbolTableRecord
100
AcDbLinetypeTableRecord
  2
Continuous
 70
     0
  3
Solid line
 72
    65
 73
     0
 40
0.0
  0
LTYPE
  5
25
330
5
100
AcDbSymbolTableRecord
100
AcDbLinetypeTableRecord
  2
STRICHPUNKT
 70
     0
  3
__ . __ . __ . __ . __ . __ . __ . __ . __ . __
 72
    65
 73
     4
 40
1.0
 49
0.5
 74
     0
 49
-0.25
 74
     0
 49
0.0
 74
     0
 49
-0.25
 74
     0
  0
ENDTAB
  0
TABLE
  2
LAYER
  5
2
330
0
100
AcDbSymbolTable
 70
     9
  0
LAYER
  5
10
330
2
100
AcDbSymbolTableRecord
100
AcDbLayerTableRecord
  2
0
 70
     0
 62
     7
  6
Continuous
370
    -3
390
F
  0
LAYER
  5
2B
330
2
100
AcDbSymbolTableRecord
100
AcDbLayerTableRecord
  2
VOLL
 70
     0
 62
     1
  6
Continuous
370
    -3
390
F
  0
LAYER
  5
2C
330
2
100
AcDbSymbolTableRecord
100
AcDbLayerTableRecord
  2
HILF
 70
     0
 62
     2
  6
Continuous
370
    -3
390
F
  0
LAYER
  5
2D
330
2
100
AcDbSymbolTableRecord
100
AcDbLayerTableRecord
  2
MITTEL
 70
     0
 62
     2
  6
STRICHPUNKT
370
    -3
390
F
  0
LAYER
  5
2F
330
2
100
AcDbSymbolTableRecord
100
AcDbLayerTableRecord
  2
BEM
 70
     0
 62
     7
  6
Continuous
370
    -3
390
F
  0
LAYER
  5
30
330
2
100
AcDbSymbolTableRecord
100
AcDbLayerTableRecord
  2
STEMPEL
 70
     0
 62
     3
  6
Continuous
370
    -3
390
F
  0
LAYER
  5
33
330
2
100
AcDbSymbolTableRecord
100
AcDbLayerTableRecord
  2
TEXT
 70
     0
 62
     7
  6
Continuous
370
    -3
390
F
  0
LAYER
  5
184
330
2
100
AcDbSymbolTableRecord
100
AcDbLayerTableRecord
  2
SCHRAFF
 70
     0
 62
     7
  6
Continuous
370
    -3
390
F
  0
LAYER
  5
306
330
2
100
AcDbSymbolTableRecord
100
AcDbLayerTableRecord
  2
DEFPOINTS
 70
     0
 62
     7
  6
Continuous
290
     0
370
    -3
390
F
  0
ENDTAB
  0
TABLE
  2
STYLE
  5
3
330
0
100
AcDbSymbolTable
 70
     2
  0
STYLE
  5
11
330
3
100
AcDbSymbolTableRecord
100
AcDbTextStyleTableRecord
  2
STANDARD
 70
     0
 40
0.0
 41
0.8
 50
0.0
 71
     0
 42
3.5
  3
simplex.shx
  4

  0
STYLE
  5
24
330
3
100
AcDbSymbolTableRecord
100
AcDbTextStyleTableRecord
  2
GREEKS
 70
     0
 40
0.0
 41
0.8
 50
0.0
 71
     0
 42
2.5
  3
SIMPLEX.shx
  4

  0
ENDTAB
  0
TABLE
  2
VIEW
  5
6
330
0
100
AcDbSymbolTable
 70
     0
  0
ENDTAB
  0
TABLE
  2
UCS
  5
7
330
0
100
AcDbSymbolTable
 70
     0
  0
ENDTAB
  0
TABLE
  2
APPID
  5
9
330
0
100
AcDbSymbolTable
 70
     1
  0
APPID
  5
12
330
9
100
AcDbSymbolTableRecord
100
AcDbRegAppTableRecord
  2
ACAD
 70
     0
  0
ENDTAB
  0
TABLE
  2
DIMSTYLE
  5
A
330
0
100
AcDbSymbolTable
 70
     1
100
AcDbDimStyleTable
 71
     1
340
A2
  0
DIMSTYLE
105
A2
102
{ACAD_REACTORS
330
EA6
330
1019
330
10FD
330
1137
330
1578
330
159E
330
18FF
102
}
330
A
100
AcDbSymbolTableRecord
100
AcDbDimStyleTableRecord
  2
Standard
 70
     0
340
11
  0
ENDTAB
  0
TABLE
  2
BLOCK_RECORD
  5
1
330
0
100
AcDbSymbolTable
 70
     8
  0
BLOCK_RECORD
  5
1E
102
{ACAD_XDICTIONARY
360
DB
102
}
330
1
100
AcDbSymbolTableRecord
100
AcDbBlockTableRecord
  2
*Model_Space
340
21
  0
BLOCK_RECORD
  5
1A
102
{ACAD_XDICTIONARY
360
DD
102
}
330
1
100
AcDbSymbolTableRecord
100
AcDbBlockTableRecord
  2
*Paper_Space
340
1D
  0
BLOCK_RECORD
  5
22
330
1
100
AcDbSymbolTableRecord
100
AcDbBlockTableRecord
  2
LOGO
340
0
102
{BLKREFS
331
2AF
102
}
  0
BLOCK_RECORD
  5
EFA
330
1
100
AcDbSymbolTableRecord
100
AcDbBlockTableRecord
  2
*D1
340
0
  0
BLOCK_RECORD
  5
102A
330
1
100
AcDbSymbolTableRecord
100
AcDbBlockTableRecord
  2
*D2
340
0
  0
BLOCK_RECORD
  5
10FE
330
1
100
AcDbSymbolTableRecord
100
AcDbBlockTableRecord
  2
*D3
340
0
  0
BLOCK_RECORD
  5
1138
330
1
100
AcDbSymbolTableRecord
100
AcDbBlockTableRecord
  2
*D4
340
0
  0
BLOCK_RECORD
  5
15B4
330
1
100
AcDbSymbolTableRecord
100
AcDbBlockTableRecord
  2
*D5
340
0
  0
BLOCK_RECORD
  5
15DA
330
1
100
AcDbSymbolTableRecord
100
AcDbBlockTableRecord
  2
*D6
340
0
  0
BLOCK_RECORD
  5
1900
330
1
100
AcDbSymbolTableRecord
100
AcDbBlockTableRecord
  2
*D7
340
0
  0
ENDTAB
  0
ENDSEC
  0
SECTION
  2
BLOCKS
  0
BLOCK
  5
37
330
1E
100
AcDbEntity
  8
0
100
AcDbBlockBegin
  2
*Model_Space
 70
     0
 10
0.0
 20
0.0
 30
0.0
  3
*Model_Space
  1

  0
ENDBLK
  5
38
330
1E
100
AcDbEntity
  8
0
100
AcDbBlockEnd
  0
BLOCK
  5
35
330
1A
100
AcDbEntity
 67
     1
  8
0
100
AcDbBlockBegin
  2
*Paper_Space
 70
     0
 10
0.0
 20
0.0
 30
0.0
  3
*Paper_Space
  1

  0
ENDBLK
  5
36
330
1A
100
AcDbEntity
 67
     1
  8
0
100
AcDbBlockEnd
  0
BLOCK
  5
39
330
22
100
AcDbEntity
  8
0
100
AcDbBlockBegin
  2
LOGO
 70
     0
 10
0.0
 20
0.0
 30
0.0
  3
LOGO
  1

  0
ARC
  5
3A
330
22
100
AcDbEntity
  8
0
100
AcDbCircle
 10
11.59973089678112
 20
-9.271599258481501
 30
0.0
 40
4.5
100
AcDbArc
 50
270.0
 51
231.0575587310159
  0
LINE
  5
3B
330
22
100
AcDbEntity
  8
0
100
AcDbLine
 10
3.599730896781125
 20
-4.771599258481529
 30
0.0
 11
3.599730896781153
 21
-11.77159925848133
 31
0.0
  0
LINE
  5
3C
330
22
100
AcDbEntity
  8
0
100
AcDbLine
 10
2.599730896781125
 20
-4.771599258481529
 30
0.0
 11
2.599730896781153
 21
-11.77159925848133
 31
0.0
  0
CIRCLE
  5
3D
330
22
100
AcDbEntity
  8
0
100
AcDbCircle
 10
11.59973089678112
 20
-9.271599258481501
 30
0.0
 40
3.5
  0
ARC
  5
3E
330
22
100
AcDbEntity
  8
0
100
AcDbCircle
 10
31.59973089678115
 20
-9.271599258481472
 30
0.0
 40
4.5
100
AcDbArc
 50
270.0
 51
231.0575587310182
  0
LINE
  5
3F
330
22
100
AcDbEntity
  8
0
100
AcDbLine
 10
17.59973089678112
 20
-4.771599258481472
 30
0.0
 11
17.59973089678115
 21
-13.77159925848147
 31
0.0
  0
ARC
  5
40
330
22
100
AcDbEntity
  8
0
100
AcDbCircle
 10
22.59973089678116
 20
-7.271599258481472
 30
0.0
 40
2.5
100
AcDbArc
 50
293.1161887722295
 51
90.0
  0
CIRCLE
  5
41
330
22
100
AcDbEntity
  8
0
100
AcDbCircle
 10
31.59973089678115
 20
-9.271599258481472
 30
0.0
 40
3.5
  0
ARC
  5
42
330
22
100
AcDbEntity
  8
0
100
AcDbCircle
 10
4.599730896781153
 20
-11.77159925848133
 30
0.0
 40
1.0
100
AcDbArc
 50
180.0
 51
270.0
  0
ARC
  5
43
330
22
100
AcDbEntity
  8
0
100
AcDbCircle
 10
4.599730896781153
 20
-11.77159925848133
 30
0.0
 40
2.0
100
AcDbArc
 50
179.9999999999992
 51
270.0
  0
LINE
  5
44
330
22
100
AcDbEntity
  8
0
100
AcDbLine
 10
11.59973089678115
 20
-13.77159925848144
 30
0.0
 11
4.599730896781153
 21
-13.77159925848147
 31
0.0
  0
LINE
  5
45
330
22
100
AcDbEntity
  8
0
100
AcDbLine
 10
8.771303772034769
 20
-12.77159925848136
 30
0.0
 11
4.599730896781153
 21
-12.77159925848133
 31
0.0
  0
LINE
  5
46
330
22
100
AcDbEntity
  8
0
100
AcDbLine
 10
31.59973089678115
 20
-13.77159925848147
 30
0.0
 11
23.6715276665056
 21
-13.77159925848144
 31
0.0
  0
LINE
  5
47
330
22
100
AcDbEntity
  8
0
100
AcDbLine
 10
23.56565672307022
 20
-9.51278021337896
 30
0.0
 11
24.4388546544846
 21
-12.77159925848144
 31
0.0
  0
LINE
  5
48
330
22
100
AcDbEntity
  8
0
100
AcDbLine
 10
22.59973089678116
 20
-9.771599258481472
 30
0.0
 11
18.59973089678112
 21
-9.771599258481472
 31
0.0
  0
LINE
  5
49
330
22
100
AcDbEntity
  8
0
100
AcDbLine
 10
18.59973089678115
 20
-13.77159925848144
 30
0.0
 11
17.59973089678115
 21
-13.77159925848144
 31
0.0
  0
LINE
  5
4A
330
22
100
AcDbEntity
  8
0
100
AcDbLine
 10
18.59973089678115
 20
-9.771599258481472
 30
0.0
 11
18.59973089678115
 21
-13.77159925848144
 31
0.0
  0
LINE
  5
4B
330
22
100
AcDbEntity
  8
0
100
AcDbLine
 10
22.59973089678116
 20
-9.771599258481472
 30
0.0
 11
23.67152766650562
 21
-13.77159925848147
 31
0.0
  0
ARC
  5
4C
330
22
100
AcDbEntity
  8
0
100
AcDbCircle
 10
22.59973089678116
 20
-7.271599258481472
 30
0.0
 40
2.5
100
AcDbArc
 50
270.0
 51
270.0000000000007
  0
LINE
  5
4D
330
22
100
AcDbEntity
  8
0
100
AcDbLine
 10
28.77130377203494
 20
-12.77159925848147
 30
0.0
 11
24.43885465448463
 21
-12.77159925848144
 31
0.0
  0
LINE
  5
4E
330
22
100
AcDbEntity
  8
0
100
AcDbLine
 10
3.599730896781125
 20
-4.771599258481472
 30
0.0
 11
2.599730896781125
 21
-4.771599258481472
 31
0.0
  0
LINE
  5
4F
330
22
100
AcDbEntity
  8
0
100
AcDbLine
 10
22.59973089678116
 20
-8.771599258481472
 30
0.0
 11
18.59973089678115
 21
-8.771599258481472
 31
0.0
  0
LINE
  5
50
330
22
100
AcDbEntity
  8
0
100
AcDbLine
 10
22.59973089678116
 20
-5.771599258481472
 30
0.0
 11
18.59973089678115
 21
-5.771599258481472
 31
0.0
  0
LINE
  5
51
330
22
100
AcDbEntity
  8
0
100
AcDbLine
 10
22.59973089678116
 20
-4.771599258481472
 30
0.0
 11
17.59973089678115
 21
-4.771599258481472
 31
0.0
  0
LINE
  5
52
330
22
100
AcDbEntity
  8
0
100
AcDbLine
 10
18.59973089678115
 20
-5.771599258481472
 30
0.0
 11
18.59973089678115
 21
-8.771599258481472
 31
0.0
  0
ARC
  5
53
330
22
100
AcDbEntity
  8
0
100
AcDbCircle
 10
22.59973089678116
 20
-7.271599258481472
 30
0.0
 40
1.5
100
AcDbArc
 50
270.0
 51
90.0
  0
ENDBLK
  5
54
330
22
100
AcDbEntity
  8
0
100
AcDbBlockEnd
  0
BLOCK
  5
F04
330
EFA
100
AcDbEntity
  8
0
100
AcDbBlockBegin
  2
*D1
 70
     1
 10
0.0
 20
0.0
 30
0.0
  3
*D1
  1

  0
LINE
  5
19AD
330
EFA
100
AcDbEntity
  8
BEM
 62
     0
370
    -2
100
AcDbLine
 10
115.0688090430493
 20
198.2999210543344
 30
0.0
 11
115.0688090430493
 21
165.8789528259745
 31
0.0
  0
LINE
  5
19AE
330
EFA
100
AcDbEntity
  8
BEM
 62
     0
370
    -2
100
AcDbLine
 10
274.0688090430493
 20
198.2999210543339
 30
0.0
 11
274.0688090430493
 21
165.8789528259745
 31
0.0
  0
LINE
  5
19AF
330
EFA
100
AcDbEntity
  8
BEM
 62
     0
370
    -2
100
AcDbLine
 10
122.0688090430493
 20
167.8789528259746
 30
0.0
 11
267.0688090430493
 21
167.8789528259746
 31
0.0
  0
SOLID
  5
19B0
330
EFA
100
AcDbEntity
  8
BEM
 62
     0
100
AcDbTrace
 10
122.0688090430493
 20
169.0456194926412
 30
0.0
 11
122.0688090430493
 21
166.7122861593079
 31
0.0
 12
115.0688090430493
 22
167.8789528259746
 32
0.0
 13
115.0688090430493
 23
167.8789528259746
 33
0.0
  0
SOLID
  5
19B1
330
EFA
100
AcDbEntity
  8
BEM
 62
     0
100
AcDbTrace
 10
267.0688090430493
 20
169.0456194926412
 30
0.0
 11
267.0688090430493
 21
166.7122861593079
 31
0.0
 12
274.0688090430493
 22
167.8789528259746
 32
0.0
 13
274.0688090430493
 23
167.8789528259746
 33
0.0
  0
MTEXT
  5
19B2
330
EFA
100
AcDbEntity
  8
BEM
 62
     1
100
AcDbMText
 10
194.5688090430493
 20
174.3789528259745
 30
0.0
 40
7.0
 41
0.0
 71
     5
 72
     1
  1
\A1;%%C159
 73
     1
 44
1.0
  0
POINT
  5
19B3
330
EFA
100
AcDbEntity
  8
DEFPOINTS
 62
     0
100
AcDbPoint
 10
115.0688090430493
 20
200.2999210543344
 30
0.0
  0
POINT
  5
19B4
330
EFA
100
AcDbEntity
  8
DEFPOINTS
 62
     0
100
AcDbPoint
 10
274.0688090430493
 20
200.2999210543339
 30
0.0
  0
POINT
  5
19B5
330
EFA
100
AcDbEntity
  8
DEFPOINTS
 62
     0
100
AcDbPoint
 10
274.0688090430493
 20
167.8789528259746
 30
0.0
  0
ENDBLK
  5
F05
330
EFA
100
AcDbEntity
  8
0
100
AcDbBlockEnd
  0
BLOCK
  5
1034
330
102A
100
AcDbEntity
  8
0
100
AcDbBlockBegin
  2
*D2
 70
     1
 10
0.0
 20
0.0
 30
0.0
  3
*D2
  1

  0
LINE
  5
19FD
330
102A
100
AcDbEntity
  8
BEM
 62
     0
370
    -2
100
AcDbLine
 10
85.06880904304933
 20
562.4090734116148
 30
0.0
 11
85.06880904304933
 21
579.3009339980472
 31
0.0
  0
LINE
  5
19FE
330
102A
100
AcDbEntity
  8
BEM
 62
     0
370
    -2
100
AcDbLine
 10
304.0688090430492
 20
562.4090734116149
 30
0.0
 11
304.0688090430492
 21
579.3009339980472
 31
0.0
  0
LINE
  5
19FF
330
102A
100
AcDbEntity
  8
BEM
 62
     0
370
    -2
100
AcDbLine
 10
92.06880904304933
 20
577.3009339980473
 30
0.0
 11
297.0688090430492
 21
577.3009339980473
 31
0.0
  0
SOLID
  5
1A00
330
102A
100
AcDbEntity
  8
BEM
 62
     0
100
AcDbTrace
 10
92.06880904304933
 20
578.4676006647138
 30
0.0
 11
92.06880904304933
 21
576.1342673313806
 31
0.0
 12
85.06880904304933
 22
577.3009339980473
 32
0.0
 13
85.06880904304933
 23
577.3009339980473
 33
0.0
  0
SOLID
  5
1A01
330
102A
100
AcDbEntity
  8
BEM
 62
     0
100
AcDbTrace
 10
297.0688090430492
 20
578.4676006647138
 30
0.0
 11
297.0688090430492
 21
576.1342673313806
 31
0.0
 12
304.0688090430492
 22
577.3009339980473
 32
0.0
 13
304.0688090430492
 23
577.3009339980473
 33
0.0
  0
MTEXT
  5
1A02
330
102A
100
AcDbEntity
  8
BEM
 62
     1
100
AcDbMText
 10
194.5688090430492
 20
583.8009339980472
 30
0.0
 40
7.0
 41
0.0
 71
     5
 72
     1
  1
\A1;%%c219
  7
GREEKS
 73
     1
 44
1.0
  0
POINT
  5
1A03
330
102A
100
AcDbEntity
  8
DEFPOINTS
 62
     0
100
AcDbPoint
 10
85.06880904304933
 20
560.4090734116148
 30
0.0
  0
POINT
  5
1A04
330
102A
100
AcDbEntity
  8
DEFPOINTS
 62
     0
100
AcDbPoint
 10
304.0688090430492
 20
560.4090734116149
 30
0.0
  0
POINT
  5
1A05
330
102A
100
AcDbEntity
  8
DEFPOINTS
 62
     0
100
AcDbPoint
 10
304.0688090430492
 20
577.3009339980473
 30
0.0
  0
ENDBLK
  5
1035
330
102A
100
AcDbEntity
  8
0
100
AcDbBlockEnd
  0
BLOCK
  5
1108
330
10FE
100
AcDbEntity
  8
0
100
AcDbBlockBegin
  2
*D3
 70
     1
 10
0.0
 20
0.0
 30
0.0
  3
*D3
  1

  0
LINE
  5
1A38
330
10FE
100
AcDbEntity
  8
BEM
 62
     0
370
    -2
100
AcDbLine
 10
83.06880904304932
 20
255.4090734116148
 30
0.0
 11
72.97069118316676
 21
255.4090734116148
 31
0.0
  0
LINE
  5
1A39
330
10FE
100
AcDbEntity
  8
BEM
 62
     0
370
    -2
100
AcDbLine
 10
113.9341460844493
 20
190.4090734116149
 30
0.0
 11
72.97069118316675
 21
190.4090734116149
 31
0.0
  0
LINE
  5
1A3A
330
10FE
100
AcDbEntity
  8
BEM
 62
     0
370
    -2
100
AcDbLine
 10
74.97069118316677
 20
248.4090734116148
 30
0.0
 11
74.97069118316675
 21
197.4090734116149
 31
0.0
  0
SOLID
  5
1A3B
330
10FE
100
AcDbEntity
  8
BEM
 62
     0
100
AcDbTrace
 10
73.80402451650009
 20
248.4090734116148
 30
0.0
 11
76.13735784983344
 21
248.4090734116148
 31
0.0
 12
74.97069118316677
 22
255.4090734116148
 32
0.0
 13
74.97069118316677
 23
255.4090734116148
 33
0.0
  0
SOLID
  5
1A3C
330
10FE
100
AcDbEntity
  8
BEM
 62
     0
100
AcDbTrace
 10
73.80402451650008
 20
197.4090734116149
 30
0.0
 11
76.13735784983342
 21
197.4090734116149
 31
0.0
 12
74.97069118316675
 22
190.4090734116149
 32
0.0
 13
74.97069118316675
 23
190.4090734116149
 33
0.0
  0
MTEXT
  5
1A3D
330
10FE
100
AcDbEntity
  8
BEM
 62
     1
100
AcDbMText
 10
68.47069118316672
 20
222.9090734116149
 30
0.0
 40
7.0
 41
0.0
 71
     5
 72
     1
  1
\A1;65
 11
0.0000000000000001
 21
1.0
 31
0.0
 73
     1
 44
1.0
  0
POINT
  5
1A3E
330
10FE
100
AcDbEntity
  8
DEFPOINTS
 62
     0
100
AcDbPoint
 10
85.06880904304933
 20
255.4090734116148
 30
0.0
  0
POINT
  5
1A3F
330
10FE
100
AcDbEntity
  8
DEFPOINTS
 62
     0
100
AcDbPoint
 10
115.9341460844493
 20
190.4090734116149
 30
0.0
  0
POINT
  5
1A40
330
10FE
100
AcDbEntity
  8
DEFPOINTS
 62
     0
100
AcDbPoint
 10
74.97069118316675
 20
190.4090734116149
 30
0.0
  0
ENDBLK
  5
1109
330
10FE
100
AcDbEntity
  8
0
100
AcDbBlockEnd
  0
BLOCK
  5
1142
330
1138
100
AcDbEntity
  8
0
100
AcDbBlockBegin
  2
*D4
 70
     1
 10
0.0
 20
0.0
 30
0.0
  3
*D4
  1

  0
LINE
  5
1A4A
330
1138
100
AcDbEntity
  8
BEM
 62
     0
370
    -2
100
AcDbLine
 10
83.06880904304932
 20
560.409073411615
 30
0.0
 11
41.98120599691409
 21
560.409073411615
 31
0.0
  0
LINE
  5
1A4B
330
1138
100
AcDbEntity
  8
BEM
 62
     0
370
    -2
100
AcDbLine
 10
113.9341460844493
 20
190.4090734116149
 30
0.0
 11
41.98120599691401
 21
190.4090734116149
 31
0.0
  0
LINE
  5
1A4C
330
1138
100
AcDbEntity
  8
BEM
 62
     0
370
    -2
100
AcDbLine
 10
43.98120599691409
 20
553.409073411615
 30
0.0
 11
43.98120599691401
 21
197.4090734116149
 31
0.0
  0
SOLID
  5
1A4D
330
1138
100
AcDbEntity
  8
BEM
 62
     0
100
AcDbTrace
 10
42.81453933024742
 20
553.409073411615
 30
0.0
 11
45.14787266358076
 21
553.409073411615
 31
0.0
 12
43.98120599691409
 22
560.409073411615
 32
0.0
 13
43.98120599691409
 23
560.409073411615
 33
0.0
  0
SOLID
  5
1A4E
330
1138
100
AcDbEntity
  8
BEM
 62
     0
100
AcDbTrace
 10
42.81453933024734
 20
197.4090734116149
 30
0.0
 11
45.14787266358068
 21
197.4090734116149
 31
0.0
 12
43.98120599691401
 22
190.4090734116149
 32
0.0
 13
43.98120599691401
 23
190.4090734116149
 33
0.0
  0
MTEXT
  5
1A4F
330
1138
100
AcDbEntity
  8
BEM
 62
     1
100
AcDbMText
 10
37.48120599691399
 20
375.409073411615
 30
0.0
 40
7.0
 41
0.0
 71
     5
 72
     1
  1
\A1;370
 11
0.0000000000000001
 21
1.0
 31
0.0
 73
     1
 44
1.0
  0
POINT
  5
1A50
330
1138
100
AcDbEntity
  8
DEFPOINTS
 62
     0
100
AcDbPoint
 10
85.06880904304933
 20
560.409073411615
 30
0.0
  0
POINT
  5
1A51
330
1138
100
AcDbEntity
  8
DEFPOINTS
 62
     0
100
AcDbPoint
 10
115.9341460844493
 20
190.4090734116149
 30
0.0
  0
POINT
  5
1A52
330
1138
100
AcDbEntity
  8
DEFPOINTS
 62
     0
100
AcDbPoint
 10
43.98120599691401
 20
190.4090734116149
 30
0.0
  0
ENDBLK
  5
1143
330
1138
100
AcDbEntity
  8
0
100
AcDbBlockEnd
  0
BLOCK
  5
15BE
330
15B4
100
AcDbEntity
  8
0
100
AcDbBlockBegin
  2
*D5
 70
     1
 10
0.0
 20
0.0
 30
0.0
  3
*D5
  1

  0
LINE
  5
1963
330
15B4
100
AcDbEntity
  8
BEM
 62
     0
370
    -2
100
AcDbLine
 10
430.3889205687633
 20
424.3555559147716
 30
0.0
 11
443.852310046762
 21
410.8921664367727
 31
0.0
  0
LINE
  5
1964
330
15B4
100
AcDbEntity
  8
BEM
 62
     0
370
    -2
100
AcDbLine
 10
195.9830226054224
 20
283.9948598492418
 30
0.0
 11
256.4690130323261
 21
223.5088694223378
 31
0.0
  0
LINE
  5
1965
330
15B4
100
AcDbEntity
  8
BEM
 62
     0
370
    -2
100
AcDbLine
 10
437.4883490160832
 20
407.35663253084
 30
0.0
 11
260.0045469382589
 21
229.8728304530166
 31
0.0
  0
SOLID
  5
1966
330
15B4
100
AcDbEntity
  8
BEM
 62
     0
100
AcDbTrace
 10
436.6633911046988
 20
408.1815904422243
 30
0.0
 11
438.3133069274674
 21
406.5316746194556
 31
0.0
 12
442.438096484389
 22
412.3063799991458
 32
0.0
 13
442.438096484389
 23
412.3063799991458
 33
0.0
  0
SOLID
  5
1967
330
15B4
100
AcDbEntity
  8
BEM
 62
     0
100
AcDbTrace
 10
259.1795890268746
 20
230.697788364401
 30
0.0
 11
260.8295048496432
 21
229.0478725416324
 31
0.0
 12
255.0547994699531
 22
224.9230829847109
 32
0.0
 13
255.0547994699531
 23
224.9230829847109
 33
0.0
  0
MTEXT
  5
1968
330
15B4
100
AcDbEntity
  8
BEM
 62
     1
100
AcDbMText
 10
344.1502538994585
 20
323.210925569641
 30
0.0
 40
7.0
 41
0.0
 71
     5
 72
     1
  1
\A1;265
  7
GREEKS
 11
0.7071067811865493
 21
0.7071067811865458
 31
0.0
 73
     1
 44
1.0
  0
POINT
  5
1969
330
15B4
100
AcDbEntity
  8
DEFPOINTS
 62
     0
100
AcDbPoint
 10
428.9747070063902
 20
425.7697694771447
 30
0.0
  0
POINT
  5
196A
330
15B4
100
AcDbEntity
  8
DEFPOINTS
 62
     0
100
AcDbPoint
 10
194.5688090430493
 20
285.4090734116149
 30
0.0
  0
POINT
  5
196B
330
15B4
100
AcDbEntity
  8
DEFPOINTS
 62
     0
100
AcDbPoint
 10
255.0547994699531
 20
224.9230829847109
 30
0.0
  0
ENDBLK
  5
15BF
330
15B4
100
AcDbEntity
  8
0
100
AcDbBlockEnd
  0
BLOCK
  5
15E4
330
15DA
100
AcDbEntity
  8
0
100
AcDbBlockBegin
  2
*D6
 70
     1
 10
0.0
 20
0.0
 30
0.0
  3
*D6
  1

  0
LINE
  5
1A06
330
15DA
100
AcDbEntity
  8
BEM
 62
     0
370
    -2
100
AcDbLine
 10
336.3437186709526
 20
521.2291849373289
 30
0.0
 11
350.5329916504343
 21
535.4184579168106
 31
0.0
  0
LINE
  5
1A07
330
15DA
100
AcDbEntity
  8
BEM
 62
     0
370
    -2
100
AcDbLine
 10
430.3889205687635
 20
427.183983039518
 30
0.0
 11
444.5781935482454
 21
441.3732560189999
 31
0.0
  0
LINE
  5
1A08
330
15DA
100
AcDbEntity
  8
BEM
 62
     0
370
    -2
100
AcDbLine
 10
354.068525556367
 20
529.0544968861317
 30
0.0
 11
438.2142325175665
 21
444.9087899249327
 31
0.0
  0
SOLID
  5
1A09
330
15DA
100
AcDbEntity
  8
BEM
 62
     0
100
AcDbTrace
 10
354.8934834677514
 20
529.879454797516
 30
0.0
 11
353.2435676449827
 21
528.2295389747474
 31
0.0
 12
349.1187780880612
 22
534.0042443544375
 32
0.0
 13
349.1187780880612
 23
534.0042443544375
 33
0.0
  0
SOLID
  5
1A0A
330
15DA
100
AcDbEntity
  8
BEM
 62
     0
100
AcDbTrace
 10
439.0391904289508
 20
445.733747836317
 30
0.0
 11
437.3892746061821
 21
444.0838320135484
 31
0.0
 12
443.1639799858723
 22
439.9590424566269
 32
0.0
 13
443.1639799858723
 23
439.9590424566269
 33
0.0
  0
MTEXT
  5
1A0B
330
15DA
100
AcDbEntity
  8
BEM
 62
     1
100
AcDbMText
 10
400.7375731146793
 20
491.5778374832448
 30
0.0
 40
7.0
 41
0.0
 71
     5
 72
     1
  1
\A1;%%c133
  7
GREEKS
 11
0.7071067811865495
 21
-0.7071067811865456
 31
0.0
 73
     1
 44
1.0
  0
POINT
  5
1A0C
330
15DA
100
AcDbEntity
  8
DEFPOINTS
 62
     0
100
AcDbPoint
 10
334.9295051085795
 20
519.8149713749558
 30
0.0
  0
POINT
  5
1A0D
330
15DA
100
AcDbEntity
  8
DEFPOINTS
 62
     0
100
AcDbPoint
 10
428.9747070063904
 20
425.7697694771449
 30
0.0
  0
POINT
  5
1A0E
330
15DA
100
AcDbEntity
  8
DEFPOINTS
 62
     0
100
AcDbPoint
 10
443.1639799858723
 20
439.9590424566269
 30
0.0
  0
ENDBLK
  5
15E5
330
15DA
100
AcDbEntity
  8
0
100
AcDbBlockEnd
  0
BLOCK
  5
190A
330
1900
100
AcDbEntity
  8
0
100
AcDbBlockBegin
  2
*D7
 70
     1
 10
0.0
 20
0.0
 30
0.0
  3
*D7
  1

  0
LINE
  5
1A41
330
1900
100
AcDbEntity
  8
BEM
 62
     0
370
    -2
100
AcDbLine
 10
113.9341460844493
 20
190.4090734116149
 30
0.0
 11
58.0207108551317
 21
190.4090734116149
 31
0.0
  0
LINE
  5
1A42
330
1900
100
AcDbEntity
  8
BEM
 62
     0
370
    -2
100
AcDbLine
 10
192.5688090430493
 20
285.4090734116149
 30
0.0
 11
58.02071085513172
 21
285.409073411615
 31
0.0
  0
LINE
  5
1A43
330
1900
100
AcDbEntity
  8
BEM
 62
     0
370
    -2
100
AcDbLine
 10
60.0207108551317
 20
197.4090734116149
 30
0.0
 11
60.02071085513172
 21
278.409073411615
 31
0.0
  0
SOLID
  5
1A44
330
1900
100
AcDbEntity
  8
BEM
 62
     0
100
AcDbTrace
 10
58.85404418846504
 20
197.4090734116149
 30
0.0
 11
61.18737752179836
 21
197.4090734116149
 31
0.0
 12
60.0207108551317
 22
190.4090734116149
 32
0.0
 13
60.0207108551317
 23
190.4090734116149
 33
0.0
  0
SOLID
  5
1A45
330
1900
100
AcDbEntity
  8
BEM
 62
     0
100
AcDbTrace
 10
58.85404418846506
 20
278.409073411615
 30
0.0
 11
61.18737752179839
 21
278.409073411615
 31
0.0
 12
60.02071085513172
 22
285.409073411615
 32
0.0
 13
60.02071085513172
 23
285.409073411615
 33
0.0
  0
MTEXT
  5
1A46
330
1900
100
AcDbEntity
  8
BEM
 62
     1
100
AcDbMText
 10
53.52071085513167
 20
237.9090734116149
 30
0.0
 40
7.0
 41
0.0
 71
     5
 72
     1
  1
\A1;95
 11
0.0000000000000001
 21
1.0
 31
0.0
 73
     1
 44
1.0
  0
POINT
  5
1A47
330
1900
100
AcDbEntity
  8
DEFPOINTS
 62
     0
100
AcDbPoint
 10
115.9341460844493
 20
190.4090734116149
 30
0.0
  0
POINT
  5
1A48
330
1900
100
AcDbEntity
  8
DEFPOINTS
 62
     0
100
AcDbPoint
 10
194.5688090430493
 20
285.4090734116149
 30
0.0
  0
POINT
  5
1A49
330
1900
100
AcDbEntity
  8
DEFPOINTS
 62
     0
100
AcDbPoint
 10
60.02071085513172
 20
285.409073411615
 30
0.0
  0
ENDBLK
  5
190B
330
1900
100
AcDbEntity
  8
0
100
AcDbBlockEnd
  0
ENDSEC
  0
SECTION
  2
ENTITIES
  0
LINE
  5
59
330
1E
100
AcDbEntity
  8
STEMPEL
100
AcDbLine
 10
484.0
 20
460.0
 30
0.0
 11
584.0
 21
459.9999999999998
 31
0.0
  0
LINE
  5
87
330
1E
100
AcDbEntity
  8
HILF
100
AcDbLine
 10
594.0
 20
-0.0000000000000568
 30
0.0
 11
594.0
 21
840.0
 31
0.0
  0
LINE
  5
88
330
1E
100
AcDbEntity
  8
HILF
100
AcDbLine
 10
594.0
 20
840.0
 30
0.0
 11
0.0
 21
840.0
 31
0.0
  0
LINE
  5
89
330
1E
100
AcDbEntity
  8
HILF
100
AcDbLine
 10
0.0
 20
840.0
 30
0.0
 11
0.0
 21
0.0
 31
0.0
  0
LINE
  5
8B
330
1E
100
AcDbEntity
  8
STEMPEL
100
AcDbLine
 10
10.0
 20
830.0
 30
0.0
 11
10.0
 21
39.99999999999995
 31
0.0
  0
LINE
  5
8D
330
1E
100
AcDbEntity
  8
STEMPEL
100
AcDbLine
 10
584.0
 20
39.99999999999995
 30
0.0
 11
584.0
 21
830.0
 31
0.0
  0
LINE
  5
8E
330
1E
100
AcDbEntity
  8
STEMPEL
100
AcDbLine
 10
584.0
 20
830.0
 30
0.0
 11
10.0
 21
830.0
 31
0.0
  0
LINE
  5
9C
330
1E
100
AcDbEntity
  8
BEM
100
AcDbLine
 10
594.0
 20
455.9999999999999
 30
0.0
 11
584.0
 21
455.9999999999999
 31
0.0
  0
LINE
  5
13E
330
1E
100
AcDbEntity
  8
HILF
100
AcDbLine
 10
594.0
 20
-0.0000000000000568
 30
0.0
 11
0.0
 21
0.0
 31
0.0
  0
LINE
  5
13F
330
1E
100
AcDbEntity
  8
STEMPEL
100
AcDbLine
 10
584.0
 20
39.99999999999995
 30
0.0
 11
10.0
 21
39.99999999999995
 31
0.0
  0
LINE
  5
14A
330
1E
100
AcDbEntity
  8
HILF
100
AcDbLine
 10
297.0
 20
-0.0000000000000568
 30
0.0
 11
297.0
 21
39.99999999999995
 31
0.0
  0
TEXT
  5
15B
330
1E
100
AcDbEntity
  8
BEM
100
AcDbText
 10
583.8320989200114
 20
837.3022923857165
 30
0.0
 40
4.0
  1
Diese Zeichnung ist urheberrechtlich geschützt und bleibt unser Eigentum. Sie darf weder ganz noch teilweise verfielfältigt und nicht an Dritte weitergegeben werden.
 50
180.0
 41
0.8
  7
GREEKS
100
AcDbText
  0
INSERT
  5
2AF
330
1E
100
AcDbEntity
  8
STEMPEL
100
AcDbBlockReference
  2
LOGO
 10
548.9789472355168
 20
560.9955485457795
 30
0.0
 41
2.0
 42
2.0
 43
2.0
 50
90.0
  0
TEXT
  5
2B0
330
1E
100
AcDbEntity
  8
TEXT
100
AcDbText
 10
503.2363615897698
 20
602.626132208084
 30
0.0
 40
4.0
  1
DIN EN1123-2
 50
90.0
 41
0.8
  7
GREEKS
 72
     1
 11
503.2363615897698
 21
619.6166083985602
 31
0.0
100
AcDbText
  0
TEXT
  5
2B1
330
1E
100
AcDbEntity
  8
TEXT
100
AcDbText
 10
551.3702584697737
 20
644.9837501577826
 30
0.0
 40
4.0
  1
58025FD0W.DWG
 50
90.0
 41
0.8
  7
GREEKS
100
AcDbText
  0
TEXT
  5
2B2
330
1E
100
AcDbEntity
  8
TEXT
100
AcDbText
 10
542.3598805695784
 20
645.1296391125315
 30
0.0
 40
5.0
  1
EDV-Art.Nr. 58025.FD0X
 50
90.0
 41
0.8
  7
GREEKS
100
AcDbText
  0
TEXT
  5
2B3
330
1E
100
AcDbEntity
  8
TEXT
100
AcDbText
 10
522.4966558241471
 20
645.1296391125315
 30
0.0
 40
5.0
  1
Red.-Abzweig 45°
 50
90.0
 41
0.8
  7
GREEKS
100
AcDbText
  0
TEXT
  5
2B4
330
1E
100
AcDbEntity
  8
TEXT
 62
     1
100
AcDbText
 10
506.5825121074622
 20
644.9367181557188
 30
0.0
 40
7.0
  1
Verbundrohr DN150/100
 50
90.0
 41
0.8
  7
GREEKS
100
AcDbText
  0
TEXT
  5
2B5
330
1E
100
AcDbEntity
  8
TEXT
100
AcDbText
 10
530.8923495917427
 20
580.3989971082361
 30
0.0
 40
4.0
  1
05.03.
 50
90.0
 41
0.8
  7
GREEKS
 72
     1
 11
530.8923495917427
 21
587.4085209177599
 31
0.0
100
AcDbText
  0
TEXT
  5
2B6
330
1E
100
AcDbEntity
  8
TEXT
 62
     1
100
AcDbText
 10
505.8509857108604
 20
570.5006306481887
 30
0.0
 40
7.0
  1
1:2
 50
90.0
 41
0.8
  7
GREEKS
100
AcDbText
  0
TEXT
  5
2B7
330
1E
100
AcDbEntity
  8
TEXT
 62
     1
100
AcDbText
 10
505.8509857108604
 20
765.4791900623816
 30
0.0
 40
7.0
  1
58025FD0W
 50
90.0
 41
0.8
  7
GREEKS
 72
     1
 11
505.8509857108604
 21
789.3458567290483
 31
0.0
100
AcDbText
  0
TEXT
  5
2B8
330
1E
100
AcDbEntity
  8
TEXT
100
AcDbText
 10
530.9103608027649
 20
614.4216048581257
 30
0.0
 40
4.0
  1
Koeh
 50
90.0
 41
0.8
  7
GREEKS
 72
     1
 11
530.9103608027649
 21
619.6787477152686
 31
0.0
100
AcDbText
  0
TEXT
  5
2B9
330
1E
100
AcDbEntity
  8
TEXT
100
AcDbText
 10
482.3280000000001
 20
461.8550995097767
 30
0.0
 40
5.0
  1
Erstellt mit AUTOCAD 2004
 50
90.0
 41
0.8
  7
GREEKS
100
AcDbText
  0
TEXT
  5
2BA
330
1E
100
AcDbEntity
  8
TEXT
100
AcDbText
 10
520.8597452884832
 20
558.622109822104
 30
0.0
 40
4.0
  1
2007
 50
90.0
 41
0.8
  7
GREEKS
100
AcDbText
  0
TEXT
  5
2BC
330
1E
100
AcDbEntity
  8
TEXT
100
AcDbText
 10
541.925838221214
 20
757.2400861497006
 30
0.0
 40
5.0
  1
ersetzt durch:
 50
90.0
 41
0.8
  7
GREEKS
100
AcDbText
  0
TEXT
  5
2BE
330
1E
100
AcDbEntity
  8
TEXT
100
AcDbText
 10
550.4705361035019
 20
557.6006777387304
 30
0.0
 40
4.0
  1
Norm.
 50
90.0
 41
0.8
  7
GREEKS
100
AcDbText
  0
TEXT
  5
2BF
330
1E
100
AcDbEntity
  8
TEXT
100
AcDbText
 10
540.3107370857163
 20
557.5515086571672
 30
0.0
 40
4.0
  1
Gepr.
 50
90.0
 41
0.8
  7
GREEKS
100
AcDbText
  0
TEXT
  5
2C0
330
1E
100
AcDbEntity
  8
TEXT
100
AcDbText
 10
530.3700963038203
 20
557.5836127167615
 30
0.0
 40
4.0
  1
Gez.
 50
90.0
 41
0.8
  7
GREEKS
100
AcDbText
  0
TEXT
  5
2C1
330
1E
100
AcDbEntity
  8
TEXT
100
AcDbText
 10
520.6903890808478
 20
612.4626584226295
 30
0.0
 40
4.0
  1
Name
 50
90.0
 41
0.8
  7
GREEKS
100
AcDbText
  0
TEXT
  5
2C2
330
1E
100
AcDbEntity
  8
TEXT
100
AcDbText
 10
520.6811949877008
 20
582.331167315365
 30
0.0
 40
4.0
  1
Tag
 50
90.0
 41
0.8
  7
GREEKS
100
AcDbText
  0
TEXT
  5
2C3
330
1E
100
AcDbEntity
  8
TEXT
100
AcDbText
 10
575.4067578303359
 20
539.0122744386594
 30
0.0
 40
4.0
  1
Name
 50
90.0
 41
0.8
  7
GREEKS
 72
     1
 11
575.4067578303359
 21
545.3360839624687
 31
0.0
100
AcDbText
  0
TEXT
  5
2C4
330
1E
100
AcDbEntity
  8
TEXT
100
AcDbText
 10
575.3284373066019
 20
520.0934676075481
 30
0.0
 40
4.0
  1
Tag
 50
90.0
 41
0.8
  7
GREEKS
 72
     1
 11
575.3284373066019
 21
523.8268009408813
 31
0.0
100
AcDbText
  0
TEXT
  5
2C5
330
1E
100
AcDbEntity
  8
TEXT
100
AcDbText
 10
580.3453415397281
 20
468.2664110704576
 30
0.0
 40
4.0
  1
Index
 50
180.0
 41
0.8
  7
GREEKS
100
AcDbText
  0
TEXT
  5
2C6
330
1E
100
AcDbEntity
  8
TEXT
100
AcDbText
 10
520.8188176290002
 20
756.7238616296992
 30
0.0
 40
5.0
  1
Ersatz für:
 50
90.0
 41
0.8
  7
GREEKS
100
AcDbText
  0
TEXT
  5
2C7
330
1E
100
AcDbEntity
  8
TEXT
100
AcDbText
 10
563.1543942980694
 20
644.742238391136
 30
0.0
 40
5.0
  1
Bauvorhaben
 50
90.0
 41
0.8
  7
GREEKS
100
AcDbText
  0
TEXT
  5
2C8
330
1E
100
AcDbEntity
  8
TEXT
100
AcDbText
 10
491.6867965462863
 20
756.178754957634
 30
0.0
 40
5.0
  1
Zeichnungs Nr.
 50
90.0
 41
0.8
  7
GREEKS
100
AcDbText
  0
TEXT
  5
2C9
330
1E
100
AcDbEntity
  8
TEXT
100
AcDbText
 10
491.4510671988221
 20
644.877940380901
 30
0.0
 40
5.0
  1
Benennung
 50
90.0
 41
0.8
  7
GREEKS
100
AcDbText
  0
TEXT
  5
2CA
330
1E
100
AcDbEntity
  8
TEXT
100
AcDbText
 10
491.581583156518
 20
604.2858954734051
 30
0.0
 40
5.0
  1
Zul. Abw.
 50
90.0
 41
0.8
  7
GREEKS
100
AcDbText
  0
TEXT
  5
2CB
330
1E
100
AcDbEntity
  8
TEXT
100
AcDbText
 10
491.537910491291
 20
563.5163572150377
 30
0.0
 40
5.0
  1
Maßstab
 50
90.0
 41
0.8
  7
GREEKS
100
AcDbText
  0
TEXT
  5
2CC
330
1E
100
AcDbEntity
  8
TEXT
100
AcDbText
 10
575.3261810501586
 20
483.8616597963182
 30
0.0
 40
4.0
  1
Änderung
 50
90.0
 41
0.8
  7
GREEKS
 72
     1
 11
575.3261810501586
 21
494.6045169391753
 31
0.0
100
AcDbText
  0
LINE
  5
2CD
330
1E
100
AcDbEntity
  8
HILF
100
AcDbLine
 10
579.1060174197168
 20
643.4909699289885
 30
0.0
 11
579.1060174197168
 21
824.8588839326728
 31
0.0
  0
LINE
  5
2CE
330
1E
100
AcDbEntity
  8
HILF
100
AcDbLine
 10
510.2201636304418
 20
756.7238616296992
 30
0.0
 11
510.2201636304418
 21
824.8588839326728
 31
0.0
  0
LINE
  5
2CF
330
1E
100
AcDbEntity
  8
VOLL
100
AcDbLine
 10
534.0
 20
752.0
 30
0.0
 11
534.0
 21
830.0
 31
0.0
  0
LINE
  5
2D0
330
1E
100
AcDbEntity
  8
HILF
100
AcDbLine
 10
544.0
 20
644.7736801096947
 30
0.0
 11
544.0
 21
744.8353916556309
 31
0.0
  0
LINE
  5
2D1
330
1E
100
AcDbEntity
  8
HILF
100
AcDbLine
 10
534.0
 20
644.7736801096947
 30
0.0
 11
534.0
 21
744.8353916556309
 31
0.0
  0
LINE
  5
2D2
330
1E
100
AcDbEntity
  8
HILF
100
AcDbLine
 10
524.0000000000001
 20
644.7736801096947
 30
0.0
 11
524.0000000000001
 21
744.8353916556309
 31
0.0
  0
LINE
  5
2D3
330
1E
100
AcDbEntity
  8
HILF
100
AcDbLine
 10
509.9624175243587
 20
644.7736801096947
 30
0.0
 11
509.9624175243588
 21
744.835391655631
 31
0.0
  0
LINE
  5
2D4
330
1E
100
AcDbEntity
  8
HILF
100
AcDbLine
 10
544.0
 20
556.0000000000001
 30
0.0
 11
544.0
 21
640.0
 31
0.0
  0
LINE
  5
2D5
330
1E
100
AcDbEntity
  8
HILF
100
AcDbLine
 10
534.0
 20
556.0000000000001
 30
0.0
 11
534.0
 21
640.0
 31
0.0
  0
LINE
  5
2D6
330
1E
100
AcDbEntity
  8
HILF
100
AcDbLine
 10
524.0000000000001
 20
556.0000000000001
 30
0.0
 11
524.0000000000001
 21
640.0
 31
0.0
  0
LINE
  5
2D7
330
1E
100
AcDbEntity
  8
HILF
100
AcDbLine
 10
554.0
 20
460.0000000000001
 30
0.0
 11
554.0
 21
556.0000000000001
 31
0.0
  0
LINE
  5
2D8
330
1E
100
AcDbEntity
  8
HILF
100
AcDbLine
 10
544.0
 20
460.0000000000001
 30
0.0
 11
544.0
 21
556.0000000000001
 31
0.0
  0
LINE
  5
2D9
330
1E
100
AcDbEntity
  8
HILF
100
AcDbLine
 10
534.0
 20
460.0000000000001
 30
0.0
 11
534.0
 21
556.0000000000001
 31
0.0
  0
LINE
  5
2DA
330
1E
100
AcDbEntity
  8
HILF
100
AcDbLine
 10
524.0000000000001
 20
460.0000000000001
 30
0.0
 11
524.0000000000001
 21
556.0000000000001
 31
0.0
  0
LINE
  5
2DB
330
1E
100
AcDbEntity
  8
HILF
100
AcDbLine
 10
514.0
 20
460.0000000000001
 30
0.0
 11
514.0
 21
556.0000000000001
 31
0.0
  0
LINE
  5
2DC
330
1E
100
AcDbEntity
  8
HILF
100
AcDbLine
 10
504.0
 20
460.0000000000001
 30
0.0
 11
504.0
 21
556.0000000000001
 31
0.0
  0
LINE
  5
2DD
330
1E
100
AcDbEntity
  8
HILF
100
AcDbLine
 10
494.0
 20
460.0000000000001
 30
0.0
 11
494.0
 21
556.0000000000001
 31
0.0
  0
LINE
  5
2DE
330
1E
100
AcDbEntity
  8
VOLL
100
AcDbLine
 10
484.0000000000002
 20
600.0
 30
0.0
 11
554.0
 21
600.0
 31
0.0
  0
LINE
  5
2DF
330
1E
100
AcDbEntity
  8
VOLL
100
AcDbLine
 10
514.0
 20
574.0000000000001
 30
0.0
 11
554.0
 21
574.0000000000001
 31
0.0
  0
LINE
  5
2E0
330
1E
100
AcDbEntity
  8
VOLL
100
AcDbLine
 10
484.0
 20
534.0000000000001
 30
0.0
 11
584.0
 21
534.0
 31
0.0
  0
LINE
  5
2E1
330
1E
100
AcDbEntity
  8
VOLL
100
AcDbLine
 10
484.0
 20
514.0000000000001
 30
0.0
 11
584.0
 21
514.0
 31
0.0
  0
LINE
  5
2E2
330
1E
100
AcDbEntity
  8
VOLL
100
AcDbLine
 10
484.0
 20
474.0000000000001
 30
0.0
 11
584.0
 21
474.0
 31
0.0
  0
LINE
  5
2E3
330
1E
100
AcDbEntity
  8
STEMPEL
100
AcDbLine
 10
514.0000000000001
 20
830.0
 30
0.0
 11
514.0
 21
556.0000000000001
 31
0.0
  0
LINE
  5
2E4
330
1E
100
AcDbEntity
  8
STEMPEL
100
AcDbLine
 10
554.0
 20
830.0
 30
0.0
 11
554.0
 21
556.0000000000001
 31
0.0
  0
LINE
  5
2E5
330
1E
100
AcDbEntity
  8
STEMPEL
100
AcDbLine
 10
564.0
 20
555.9999999999998
 30
0.0
 11
564.0
 21
460.0
 31
0.0
  0
LINE
  5
2E6
330
1E
100
AcDbEntity
  8
STEMPEL
100
AcDbLine
 10
484.0000000000003
 20
752.0
 30
0.0
 11
554.0
 21
752.0
 31
0.0
  0
LINE
  5
2E7
330
1E
100
AcDbEntity
  8
STEMPEL
100
AcDbLine
 10
484.0
 20
640.0
 30
0.0
 11
584.0
 21
640.0
 31
0.0
  0
LINE
  5
2E8
330
1E
100
AcDbEntity
  8
STEMPEL
100
AcDbLine
 10
484.0
 20
556.0000000000001
 30
0.0
 11
584.0
 21
556.0
 31
0.0
  0
LINE
  5
2E9
330
1E
100
AcDbEntity
  8
STEMPEL
100
AcDbLine
 10
484.0000000000001
 20
830.0
 30
0.0
 11
484.0
 21
460.0
 31
0.0
  0
TEXT
  5
865
330
1E
100
AcDbEntity
  8
TEXT
 62
     1
100
AcDbText
 10
288.9900755782059
 20
174.7159866845467
 30
0.0
 40
7.0
  1
Rohrende leicht eingezogen
 41
0.8
  7
GREEKS
100
AcDbText
  0
LINE
  5
E8A
102
{ACAD_REACTORS
330
173B
330
176C
330
17BA
102
}
330
1E
100
AcDbEntity
  8
STEMPEL
  6
Continuous
100
AcDbLine
 10
274.0688090430495
 20
295.6126088553335
 30
0.0
 11
274.0688090430493
 21
200.2999210543339
 31
0.0
  0
DIMENSION
  5
EA6
330
1E
100
AcDbEntity
  8
BEM
100
AcDbDimension
  2
*D1
 10
274.0688090430493
 20
167.8789528259746
 30
0.0
 11
194.5688090430493
 21
174.3789528259745
 31
0.0
 70
    32
  1
%%C<>
 71
     5
 42
159.0
  3
Standard
100
AcDbAlignedDimension
 13
115.0688090430493
 23
200.2999210543344
 33
0.0
 14
274.0688090430493
 24
200.2999210543339
 34
0.0
100
AcDbRotatedDimension
1001
ACAD
1000
DSTYLE
1002
{
1070
    40
1040
2.0
1070
    41
1040
3.5
1070
    42
1040
1.0
1070
    43
1040
7.0
1070
    44
1040
1.0
1070
    73
1070
     0
1070
    74
1070
     0
1070
    77
1070
     1
1070
    78
1070
     8
1070
    79
1070
     2
1070
   140
1040
3.5
1070
   141
1040
1.5
1070
   146
1040
0.5142857142857144
1070
   147
1040
1.5
1070
   172
1070
     1
1070
   178
1070
     1
1070
   179
1070
     2
1070
   271
1070
     2
1070
   272
1070
     2
1070
   284
1070
     8
1070
   285
1070
     8
1070
   286
1070
     8
1002
}
  0
LINE
  5
EA7
102
{ACAD_REACTORS
330
173B
102
}
330
1E
100
AcDbEntity
  8
STEMPEL
100
AcDbLine
 10
274.0688090430493
 20
200.2999210543339
 30
0.0
 11
273.2034720016494
 21
190.4090734116149
 31
0.0
  0
LINE
  5
EA8
102
{ACAD_REACTORS
330
173B
102
}
330
1E
100
AcDbEntity
  8
STEMPEL
100
AcDbLine
 10
115.0688090430493
 20
200.2999210543344
 30
0.0
 11
115.9341460844493
 21
190.4090734116149
 31
0.0
  0
LINE
  5
EA9
330
1E
100
AcDbEntity
  8
HILF
100
AcDbLine
 10
269.0592594491918
 20
200.4090734116148
 30
0.0
 11
120.0783586369069
 21
200.4090734116149
 31
0.0
  0
LINE
  5
EAA
102
{ACAD_REACTORS
330
1374
330
173B
102
}
330
1E
100
AcDbEntity
  8
STEMPEL
  6
Continuous
100
AcDbLine
 10
281.3272538404555
 20
560.4090734116147
 30
0.0
 11
281.789581589332
 21
559.4176083546051
 31
0.0
  0
LINE
  5
EAB
102
{ACAD_REACTORS
330
1374
330
173B
330
17BA
102
}
330
1E
100
AcDbEntity
  8
STEMPEL
  6
Continuous
100
AcDbLine
 10
285.0688090430492
 20
544.6259691936809
 30
0.0
 11
285.0688090430492
 21
528.4616789407918
 31
0.0
  0
ARC
  5
EAC
102
{ACAD_REACTORS
330
173B
330
17BA
102
}
330
1E
100
AcDbEntity
  8
STEMPEL
  6
Continuous
100
AcDbCircle
 10
297.0688090430492
 20
503.9090734116147
 30
0.0
 40
18.0
100
AcDbArc
 50
152.472816379448
 51
180.0
  0
ARC
  5
EAD
102
{ACAD_REACTORS
330
173B
330
17BA
102
}
330
1E
100
AcDbEntity
  8
STEMPEL
  6
Continuous
100
AcDbCircle
 10
250.0688090430492
 20
528.4040734116147
 30
0.0
 40
35.00004740563918
100
AcDbArc
 50
332.472816379448
 51
0.0943014490918197
  0
ARC
  5
EAE
102
{ACAD_REACTORS
330
1374
330
173B
102
}
330
1E
100
AcDbEntity
  8
STEMPEL
  6
Continuous
100
AcDbCircle
 10
250.0688090430492
 20
544.6259691936809
 30
0.0
 40
35.0
100
AcDbArc
 50
0.0
 51
24.99999999998774
  0
LINE
  5
EAF
102
{ACAD_REACTORS
330
1374
330
173B
102
}
330
1E
100
AcDbEntity
  8
STEMPEL
  6
Continuous
100
AcDbLine
 10
107.8103642456431
 20
560.4090734116147
 30
0.0
 11
107.3480364967664
 21
559.4176083546051
 31
0.0
  0
ARC
  5
EB0
102
{ACAD_REACTORS
330
173B
330
17BA
102
}
330
1E
100
AcDbEntity
  8
STEMPEL
  6
Continuous
100
AcDbCircle
 10
92.06880904304933
 20
503.9090734116147
 30
0.0
 40
18.0
100
AcDbArc
 50
0.0
 51
27.52718362055197
  0
LINE
  5
EB1
102
{ACAD_REACTORS
330
1374
330
173B
330
17BA
102
}
330
1E
100
AcDbEntity
  8
STEMPEL
  6
Continuous
100
AcDbLine
 10
104.0688090430493
 20
544.6259691936809
 30
0.0
 11
104.0688090430493
 21
528.4616789407918
 31
0.0
  0
ARC
  5
EB2
102
{ACAD_REACTORS
330
173B
330
17BA
102
}
330
1E
100
AcDbEntity
  8
STEMPEL
  6
Continuous
100
AcDbCircle
 10
139.0688090430493
 20
528.4040734116147
 30
0.0
 40
35.00004740563918
100
AcDbArc
 50
179.9056985509081
 51
207.527183620552
  0
ARC
  5
EB3
102
{ACAD_REACTORS
330
1374
330
173B
102
}
330
1E
100
AcDbEntity
  8
STEMPEL
  6
Continuous
100
AcDbCircle
 10
139.0688090430493
 20
544.6259691936809
 30
0.0
 40
35.0
100
AcDbArc
 50
155.0000000000065
 51
180.0
  0
LINE
  5
EB4
330
1E
100
AcDbEntity
  8
HILF
  6
Continuous
100
AcDbLine
 10
114.5321828974673
 20
508.8483886553151
 30
0.0
 11
274.6054351886312
 21
508.848388655315
 31
0.0
  0
LINE
  5
EB5
102
{ACAD_REACTORS
330
16EA
330
173B
330
176C
330
17BA
102
}
330
1E
100
AcDbEntity
  8
STEMPEL
  6
Continuous
100
AcDbLine
 10
274.0688090430492
 20
472.8813254970105
 30
0.0
 11
274.0688090430492
 21
434.2055379678962
 31
0.0
  0
ARC
  5
EB7
102
{ACAD_REACTORS
330
173B
330
17BA
102
}
330
1E
100
AcDbEntity
  8
STEMPEL
  6
Continuous
100
AcDbCircle
 10
261.0688090430492
 20
488.8500449196818
 30
0.0
 40
18.0
100
AcDbArc
 50
325.228055968051
 51
0.0
  0
ARC
  5
EB8
102
{ACAD_REACTORS
330
173B
330
17BA
102
}
330
1E
100
AcDbEntity
  8
STEMPEL
  6
Continuous
100
AcDbCircle
 10
284.0688090430492
 20
472.8813254970105
 30
0.0
 40
10.0
100
AcDbArc
 50
145.2280559680509
 51
180.0
  0
LINE
  5
EB9
102
{ACAD_REACTORS
330
173B
330
17BA
102
}
330
1E
100
AcDbEntity
  8
STEMPEL
  6
Continuous
100
AcDbLine
 10
115.0688090430493
 20
472.8813254970105
 30
0.0
 11
115.0688090430493
 21
200.2999210543344
 31
0.0
  0
ARC
  5
EBA
102
{ACAD_REACTORS
330
173B
330
17BA
102
}
330
1E
100
AcDbEntity
  8
STEMPEL
  6
Continuous
100
AcDbCircle
 10
128.0688090430493
 20
488.8500449196818
 30
0.0
 40
18.0
100
AcDbArc
 50
180.0
 51
214.7719440319491
  0
ARC
  5
EBB
102
{ACAD_REACTORS
330
173B
330
17BA
102
}
330
1E
100
AcDbEntity
  8
STEMPEL
  6
Continuous
100
AcDbCircle
 10
105.0688090430493
 20
472.8813254970105
 30
0.0
 40
10.0
100
AcDbArc
 50
0.0
 51
34.77194403194904
  0
LINE
  5
EBC
330
1E
100
AcDbEntity
  8
HILF
  6
Continuous
100
AcDbLine
 10
115.9218297007248
 20
484.218534058511
 30
0.0
 11
273.2157883853737
 21
484.2185340585109
 31
0.0
  0
LINE
  5
EBD
330
1E
100
AcDbEntity
  8
HILF
  6
Continuous
100
AcDbLine
 10
119.5963383286112
 20
476.6164149011805
 30
0.0
 11
269.5412797574874
 21
476.6164149011805
 31
0.0
  0
LINE
  5
EBE
102
{ACAD_REACTORS
330
173B
330
17BA
102
}
330
1E
100
AcDbEntity
  8
STEMPEL
  6
Continuous
100
AcDbLine
 10
110.0688090430493
 20
503.9090734116147
 30
0.0
 11
110.0688090430493
 21
488.8500449196818
 31
0.0
  0
LINE
  5
EBF
102
{ACAD_REACTORS
330
173B
330
17BA
102
}
330
1E
100
AcDbEntity
  8
STEMPEL
  6
Continuous
100
AcDbLine
 10
279.0688090430492
 20
503.9090734116147
 30
0.0
 11
279.0688090430492
 21
488.8500449196818
 31
0.0
  0
LINE
  5
EC0
102
{ACAD_REACTORS
330
129E
330
1374
330
173B
102
}
330
1E
100
AcDbEntity
  8
STEMPEL
100
AcDbLine
 10
85.06880904304933
 20
560.409073411615
 30
0.0
 11
304.0688090430493
 21
560.4090734116149
 31
0.0
  0
TEXT
  5
EC1
330
1E
100
AcDbEntity
  8
VOLL
100
AcDbText
 10
184.6960187056381
 20
524.0724002700869
 30
0.0
 40
7.0
  1
DN150
 50
90.0
 41
0.8
  7
GREEKS
100
AcDbText
  0
LINE
  5
EC2
102
{ACAD_REACTORS
330
173B
102
}
330
1E
100
AcDbEntity
  8
STEMPEL
100
AcDbLine
 10
273.2034720016494
 20
190.4090734116149
 30
0.0
 11
115.9341460844493
 21
190.4090734116149
 31
0.0
  0
LINE
  5
EC3
330
1E
100
AcDbEntity
  8
MITTEL
100
AcDbLine
 10
194.5688090430493
 20
565.4090734116151
 30
0.0
 11
194.5688090430493
 21
185.4090734116149
 31
0.0
  0
LINE
  5
1015
102
{ACAD_REACTORS
330
129E
330
1374
330
17BA
102
}
330
1E
100
AcDbEntity
  8
STEMPEL
100
AcDbLine
 10
87.96880904304931
 20
560.4090734116148
 30
0.0
 11
87.96880904304931
 21
255.4090734116148
 31
0.0
  0
LINE
  5
1016
102
{ACAD_REACTORS
330
129E
102
}
330
1E
100
AcDbEntity
  8
STEMPEL
100
AcDbLine
 10
85.06880904304933
 20
560.4090734116148
 30
0.0
 11
85.06880904304933
 21
253.4090734116149
 31
0.0
  0
LINE
  5
1017
102
{ACAD_REACTORS
330
1374
330
17BA
102
}
330
1E
100
AcDbEntity
  8
STEMPEL
  6
Continuous
100
AcDbLine
 10
104.0688090430493
 20
542.4090734116147
 30
0.0
 11
87.96880904304918
 21
542.4090734116147
 31
0.0
  0
DIMENSION
  5
1019
330
1E
100
AcDbEntity
  8
BEM
100
AcDbDimension
  2
*D2
 10
304.0688090430492
 20
577.3009339980473
 30
0.0
 11
194.5688090430492
 21
583.8009339980472
 31
0.0
 70
    32
  1
%%c<>
 71
     5
 42
218.9999999999999
  3
Standard
100
AcDbAlignedDimension
 13
85.06880904304933
 23
560.4090734116148
 33
0.0
 14
304.0688090430492
 24
560.4090734116149
 34
0.0
100
AcDbRotatedDimension
1001
ACAD
1000
DSTYLE
1002
{
1070
    40
1040
2.0
1070
    41
1040
3.5
1070
    42
1040
1.0
1070
    43
1040
7.0
1070
    44
1040
1.0
1070
    73
1070
     0
1070
    74
1070
     0
1070
    77
1070
     1
1070
    78
1070
     8
1070
    79
1070
     2
1070
   140
1040
3.5
1070
   141
1040
1.5
1070
   146
1040
0.5142857142857144
1070
   147
1040
1.5
1070
   172
1070
     1
1070
   178
1070
     1
1070
   179
1070
     2
1070
   271
1070
     2
1070
   272
1070
     2
1070
   284
1070
     8
1070
   285
1070
     8
1070
   286
1070
     8
1070
   289
1070
     0
1070
   340
1005
24
1002
}
  0
LINE
  5
101B
102
{ACAD_REACTORS
330
129E
330
1374
330
17BA
102
}
330
1E
100
AcDbEntity
  8
STEMPEL
100
AcDbLine
 10
301.1688090430494
 20
560.4090734116149
 30
0.0
 11
301.1688090430493
 21
485.4187414034929
 31
0.0
  0
LINE
  5
101C
102
{ACAD_REACTORS
330
129E
330
177D
102
}
330
1E
100
AcDbEntity
  8
STEMPEL
100
AcDbLine
 10
304.0688090430493
 20
560.4090734116149
 30
0.0
 11
304.0688090430493
 21
485.4187414034929
 31
0.0
  0
LINE
  5
101D
102
{ACAD_REACTORS
330
1374
330
17BA
102
}
330
1E
100
AcDbEntity
  8
STEMPEL
  6
Continuous
100
AcDbLine
 10
301.1688090430494
 20
542.4090734116149
 30
0.0
 11
285.0688090430492
 21
542.4090734116149
 31
0.0
  0
LINE
  5
10B7
102
{ACAD_REACTORS
330
17BA
102
}
330
1E
100
AcDbEntity
  8
STEMPEL
100
AcDbLine
 10
301.1688090430494
 20
269.5590734116148
 30
0.0
 11
299.3188090430492
 21
271.4090734116149
 31
0.0
  0
LINE
  5
10B9
330
1E
100
AcDbEntity
  8
STEMPEL
100
AcDbLine
 10
274.0688090430491
 20
262.4090734116149
 30
0.0
 11
281.3688090430493
 21
262.4090734116149
 31
0.0
  0
LINE
  5
10BA
102
{ACAD_REACTORS
330
129E
102
}
330
1E
100
AcDbEntity
  8
STEMPEL
  6
Continuous
100
AcDbLine
 10
304.0688090430493
 20
255.409073411615
 30
0.0
 11
301.1688090430492
 21
255.409073411615
 31
0.0
  0
LINE
  5
10BB
102
{ACAD_REACTORS
330
17BA
102
}
330
1E
100
AcDbEntity
  8
STEMPEL
100
AcDbLine
 10
274.0688090430491
 20
271.4090734116149
 30
0.0
 11
299.3188090430495
 21
271.4090734116149
 31
0.0
  0
LINE
  5
10BC
330
1E
100
AcDbEntity
  8
STEMPEL
100
AcDbLine
 10
107.7688090430493
 20
262.4090734116149
 30
0.0
 11
115.0688090430495
 21
262.4090734116149
 31
0.0
  0
LINE
  5
10BE
102
{ACAD_REACTORS
330
17BA
102
}
330
1E
100
AcDbEntity
  8
STEMPEL
100
AcDbLine
 10
87.96880904304925
 20
269.5590734116148
 30
0.0
 11
89.81880904304928
 21
271.4090734116149
 31
0.0
  0
LINE
  5
10BF
102
{ACAD_REACTORS
330
129E
102
}
330
1E
100
AcDbEntity
  8
STEMPEL
  6
Continuous
100
AcDbLine
 10
87.96880904304932
 20
255.4090734116148
 30
0.0
 11
85.06880904304933
 21
255.4090734116148
 31
0.0
  0
LINE
  5
10C0
102
{ACAD_REACTORS
330
17BA
102
}
330
1E
100
AcDbEntity
  8
STEMPEL
100
AcDbLine
 10
89.81880904304928
 20
271.4090734116149
 30
0.0
 11
115.0688090430495
 21
271.4090734116149
 31
0.0
  0
LINE
  5
10D7
102
{ACAD_REACTORS
330
129E
330
17BA
102
}
330
1E
100
AcDbEntity
  8
STEMPEL
100
AcDbLine
 10
304.0688090430493
 20
485.4187414034931
 30
0.0
 11
301.1688090430493
 21
485.4187414034929
 31
0.0
  0
LINE
  5
10D8
102
{ACAD_REACTORS
330
129E
330
17BA
102
}
330
1E
100
AcDbEntity
  8
STEMPEL
100
AcDbLine
 10
304.0688090430493
 20
304.3994054197367
 30
0.0
 11
301.1688090430494
 21
304.3994054197367
 31
0.0
  0
LINE
  5
10D9
102
{ACAD_REACTORS
330
129E
330
17BA
102
}
330
1E
100
AcDbEntity
  8
STEMPEL
100
AcDbLine
 10
301.1688090430494
 20
304.3994054197367
 30
0.0
 11
301.1688090430493
 21
255.409073411615
 31
0.0
  0
LINE
  5
10DA
102
{ACAD_REACTORS
330
129E
330
16F8
330
177D
102
}
330
1E
100
AcDbEntity
  8
STEMPEL
100
AcDbLine
 10
304.0688090430493
 20
304.3994054197367
 30
0.0
 11
304.0688090430493
 21
253.409073411615
 31
0.0
  0
DIMENSION
  5
10FD
330
1E
100
AcDbEntity
  8
BEM
100
AcDbDimension
  2
*D3
 10
74.97069118316675
 20
190.4090734116149
 30
0.0
 11
68.47069118316672
 21
222.9090734116149
 31
0.0
 70
    32
 71
     5
 42
64.99999999999994
  3
Standard
100
AcDbAlignedDimension
 13
85.06880904304933
 23
255.4090734116148
 33
0.0
 14
115.9341460844493
 24
190.4090734116149
 34
0.0
 50
90.0
100
AcDbRotatedDimension
1001
ACAD
1000
DSTYLE
1002
{
1070
   279
1070
     1
1070
    40
1040
2.0
1070
    41
1040
3.5
1070
    42
1040
1.0
1070
    43
1040
7.0
1070
    44
1040
1.0
1070
    73
1070
     0
1070
    74
1070
     0
1070
    77
1070
     1
1070
    78
1070
     8
1070
    79
1070
     2
1070
   140
1040
3.5
1070
   141
1040
1.5
1070
   146
1040
0.5142857142857144
1070
   147
1040
1.5
1070
   172
1070
     1
1070
   178
1070
     1
1070
   179
1070
     2
1070
   271
1070
     2
1070
   272
1070
     2
1070
   284
1070
     8
1070
   285
1070
     8
1070
   286
1070
     8
1002
}
  0
DIMENSION
  5
1137
330
1E
100
AcDbEntity
  8
BEM
100
AcDbDimension
  2
*D4
 10
43.98120599691401
 20
190.4090734116149
 30
0.0
 11
37.48120599691399
 21
375.409073411615
 31
0.0
 70
    32
 71
     5
 42
370.0000000000001
  3
Standard
100
AcDbAlignedDimension
 13
85.06880904304933
 23
560.409073411615
 33
0.0
 14
115.9341460844493
 24
190.4090734116149
 34
0.0
 50
90.0
100
AcDbRotatedDimension
1001
ACAD
1000
DSTYLE
1002
{
1070
    40
1040
2.0
1070
    41
1040
3.5
1070
    42
1040
1.0
1070
    43
1040
7.0
1070
    44
1040
1.0
1070
    73
1070
     0
1070
    74
1070
     0
1070
    77
1070
     1
1070
    78
1070
     8
1070
    79
1070
     2
1070
   140
1040
3.5
1070
   141
1040
1.5
1070
   146
1040
0.5142857142857144
1070
   147
1040
1.5
1070
   172
1070
     1
1070
   178
1070
     1
1070
   179
1070
     2
1070
   271
1070
     2
1070
   272
1070
     2
1070
   284
1070
     8
1070
   285
1070
     8
1070
   286
1070
     8
1002
}
  0
TEXT
  5
11A2
330
1E
100
AcDbEntity
  8
TEXT
 62
     1
100
AcDbText
 10
453.8968625714335
 20
599.9488360260309
 30
0.0
 40
7.0
  1
und innenbeschichtet
 50
90.0
 41
0.8
  7
GREEKS
100
AcDbText
  0
TEXT
  5
11A3
330
1E
100
AcDbEntity
  8
TEXT
 62
     1
100
AcDbText
 10
466.4916979568156
 20
544.79989650532
 30
0.0
 40
7.0
  1
Dämmung: 2 K-PU-Schaum
 50
90.0
 41
0.8
  7
GREEKS
100
AcDbText
  0
TEXT
  5
11A4
330
1E
100
AcDbEntity
  8
TEXT
 62
     1
100
AcDbText
 10
442.6278087322077
 20
552.2943071500171
 30
0.0
 40
7.0
  1
Innenrohr: E195 EN10305 feuerverzinkt
 50
90.0
 41
0.8
  7
GREEKS
100
AcDbText
  0
TEXT
  5
11A5
330
1E
100
AcDbEntity
  8
TEXT
 62
     1
100
AcDbText
 10
431.2747406958528
 20
548.5220897791531
 30
0.0
 40
7.0
  1
Außenrohr: P235 TR1 EN10217-1, E195 EN10305 feuerverzinkt
 50
90.0
 41
0.8
  7
GREEKS
100
AcDbText
  0
LINE
  5
11C6
102
{ACAD_REACTORS
330
173B
102
}
330
1E
100
AcDbEntity
  8
STEMPEL
  6
Continuous
100
AcDbLine
 10
271.5688090430492
 20
472.8813254970105
 30
0.0
 11
271.5688090430492
 21
434.2055379678962
 31
0.0
  0
ARC
  5
11C7
102
{ACAD_REACTORS
330
173B
102
}
330
1E
100
AcDbEntity
  8
STEMPEL
  6
Continuous
100
AcDbCircle
 10
284.0688090430492
 20
472.8813254970105
 30
0.0
 40
12.5
100
AcDbArc
 50
145.2280559680509
 51
180.0
  0
ARC
  5
11C9
102
{ACAD_REACTORS
330
173B
102
}
330
1E
100
AcDbEntity
  8
STEMPEL
  6
Continuous
100
AcDbCircle
 10
261.0688090430492
 20
488.8500449196818
 30
0.0
 40
15.5
100
AcDbArc
 50
325.228055968051
 51
0.0
  0
LINE
  5
11CB
102
{ACAD_REACTORS
330
173B
102
}
330
1E
100
AcDbEntity
  8
STEMPEL
  6
Continuous
100
AcDbLine
 10
276.5688090430492
 20
503.9090734116147
 30
0.0
 11
276.5688090430492
 21
488.8500449196818
 31
0.0
  0
ARC
  5
11CC
102
{ACAD_REACTORS
330
173B
102
}
330
1E
100
AcDbEntity
  8
STEMPEL
  6
Continuous
100
AcDbCircle
 10
297.0688090430492
 20
503.9090734116147
 30
0.0
 40
20.5
100
AcDbArc
 50
152.472816379448
 51
180.0
  0
ARC
  5
11CE
102
{ACAD_REACTORS
330
173B
102
}
330
1E
100
AcDbEntity
  8
STEMPEL
  6
Continuous
100
AcDbCircle
 10
250.0688090430492
 20
528.4040734116147
 30
0.0
 40
32.50004740563918
100
AcDbArc
 50
332.472816379448
 51
0.0943014490918197
  0
LINE
  5
11CF
102
{ACAD_REACTORS
330
173B
102
}
330
1E
100
AcDbEntity
  8
STEMPEL
  6
Continuous
100
AcDbLine
 10
282.5688090430492
 20
544.6259691936809
 30
0.0
 11
282.5688090430492
 21
528.4616789407918
 31
0.0
  0
ARC
  5
11D0
102
{ACAD_REACTORS
330
173B
102
}
330
1E
100
AcDbEntity
  8
STEMPEL
  6
Continuous
100
AcDbCircle
 10
250.0688090430492
 20
544.6259691936809
 30
0.0
 40
32.5
100
AcDbArc
 50
0.0
 51
24.99999999998774
  0
LINE
  5
11D1
102
{ACAD_REACTORS
330
173B
102
}
330
1E
100
AcDbEntity
  8
STEMPEL
  6
Continuous
100
AcDbLine
 10
117.5688090430493
 20
472.8813254970105
 30
0.0
 11
117.5688090430493
 21
200.4090734116056
 31
0.0
  0
ARC
  5
11D2
102
{ACAD_REACTORS
330
173B
102
}
330
1E
100
AcDbEntity
  8
STEMPEL
  6
Continuous
100
AcDbCircle
 10
105.0688090430493
 20
472.8813254970105
 30
0.0
 40
12.5
100
AcDbArc
 50
0.0
 51
34.77194403194904
  0
ARC
  5
11D3
102
{ACAD_REACTORS
330
173B
102
}
330
1E
100
AcDbEntity
  8
STEMPEL
  6
Continuous
100
AcDbCircle
 10
128.0688090430493
 20
488.8500449196818
 30
0.0
 40
15.5
100
AcDbArc
 50
180.0
 51
214.7719440319491
  0
LINE
  5
11D4
102
{ACAD_REACTORS
330
173B
102
}
330
1E
100
AcDbEntity
  8
STEMPEL
  6
Continuous
100
AcDbLine
 10
112.5688090430493
 20
503.9090734116147
 30
0.0
 11
112.5688090430493
 21
488.8500449196818
 31
0.0
  0
ARC
  5
11D5
102
{ACAD_REACTORS
330
173B
102
}
330
1E
100
AcDbEntity
  8
STEMPEL
  6
Continuous
100
AcDbCircle
 10
92.06880904304933
 20
503.9090734116147
 30
0.0
 40
20.5
100
AcDbArc
 50
0.0
 51
27.52718362055197
  0
ARC
  5
11D6
102
{ACAD_REACTORS
330
173B
102
}
330
1E
100
AcDbEntity
  8
STEMPEL
  6
Continuous
100
AcDbCircle
 10
139.0688090430493
 20
528.4040734116147
 30
0.0
 40
32.50004740563918
100
AcDbArc
 50
179.9056985509081
 51
207.527183620552
  0
LINE
  5
11D7
102
{ACAD_REACTORS
330
173B
102
}
330
1E
100
AcDbEntity
  8
STEMPEL
  6
Continuous
100
AcDbLine
 10
106.5688090430493
 20
544.6259691936809
 30
0.0
 11
106.5688090430493
 21
528.4616789407918
 31
0.0
  0
ARC
  5
11D8
102
{ACAD_REACTORS
330
173B
102
}
330
1E
100
AcDbEntity
  8
STEMPEL
  6
Continuous
100
AcDbCircle
 10
139.0688090430493
 20
544.6259691936809
 30
0.0
 40
32.5
100
AcDbArc
 50
155.0000000000065
 51
180.0
  0
LINE
  5
11D9
102
{ACAD_REACTORS
330
173B
102
}
330
1E
100
AcDbEntity
  8
STEMPEL
  6
Continuous
100
AcDbLine
 10
110.5688090430494
 20
560.4090734116149
 30
0.0
 11
109.613805964358
 21
558.3610627002533
 31
0.0
  0
LINE
  5
11DA
102
{ACAD_REACTORS
330
173B
102
}
330
1E
100
AcDbEntity
  8
STEMPEL
  6
Continuous
100
AcDbLine
 10
278.5688090430492
 20
560.4090734116149
 30
0.0
 11
279.5238121217403
 21
558.3610627002535
 31
0.0
  0
LINE
  5
11DB
102
{ACAD_REACTORS
330
173B
102
}
330
1E
100
AcDbEntity
  8
STEMPEL
  6
Continuous
100
AcDbLine
 10
271.5688090430494
 20
295.6126088553335
 30
0.0
 11
271.5688090430493
 21
200.4090734116052
 31
0.0
  0
LINE
  5
11DC
102
{ACAD_REACTORS
330
173B
102
}
330
1E
100
AcDbEntity
  8
STEMPEL
100
AcDbLine
 10
271.5688090430493
 20
200.4090734116052
 30
0.0
 11
270.693922407791
 21
190.4090734116149
 31
0.0
  0
LINE
  5
11DE
102
{ACAD_REACTORS
330
173B
102
}
330
1E
100
AcDbEntity
  8
STEMPEL
100
AcDbLine
 10
117.5688090430493
 20
200.4090734116056
 30
0.0
 11
118.4436956783078
 21
190.4090734116149
 31
0.0
  0
HATCH
  5
129E
330
1E
100
AcDbEntity
  8
SCHRAFF
100
AcDbHatch
 10
0.0
 20
0.0
 30
0.0
210
0.0
220
0.0
230
1.0
  2
_USER
 70
     0
 71
     1
 91
        3
 92
        7
 72
     0
 73
     1
 93
        4
 10
304.0688090430493
 20
560.409073411615
 10
301.1688090430493
 20
560.4090734116152
 10
301.1688090430493
 20
485.4187414034929
 10
304.0688090430493
 20
485.418741403493
 97
        4
330
EC0
330
101B
330
10D7
330
101C
 92
        7
 72
     0
 73
     1
 93
        4
 10
87.96880904304932
 20
560.4090734116152
 10
85.06880904304933
 20
560.4090734116152
 10
85.06880904304933
 20
255.4090734116148
 10
87.96880904304932
 20
255.4090734116148
 97
        4
330
EC0
330
1016
330
10BF
330
1015
 92
        7
 72
     0
 73
     1
 93
        4
 10
301.1688090430492
 20
255.409073411615
 10
304.0688090430493
 20
255.409073411615
 10
304.0688090430493
 20
304.3994054197366
 10
301.1688090430493
 20
304.3994054197367
 97
        4
330
10D8
330
10D9
330
10BA
330
10DA
 75
     0
 76
     0
 52
135.0
 41
2.0
 77
     0
 78
     1
 53
135.0
 43
29.58382007639648
 44
-20.07933032926553
 45
-1.414213562373095
 46
-1.414213562373094
 79
     0
 47
0.9317325446634274
 98
        3
 10
303.0853513630536
 20
526.0566641525922
 10
86.77135584053621
 20
485.0604307566897
 10
303.0853513630536
 20
180.3838871938226
  0
HATCH
  5
1374
330
1E
100
AcDbEntity
  8
SCHRAFF
100
AcDbHatch
 10
0.0
 20
0.0
 30
0.0
210
0.0
220
0.0
230
1.0
  2
NET
 70
     0
 71
     1
 91
        2
 92
        7
 72
     1
 73
     1
 93
        6
 10
285.0688090430492
 20
544.6259691936806
 42
0.0
 10
285.0688090430492
 20
542.4090734116149
 42
0.0
 10
301.1688090430494
 20
542.409073411615
 42
0.0
 10
301.1688090430494
 20
560.4090734116152
 42
0.0
 10
281.3272538404552
 20
560.4090734116152
 42
0.0
 10
281.789581589332
 20
559.4176083546051
 42
-0.1095178116832409
 97
        6
330
EC0
330
EAA
330
EAE
330
EAB
330
101D
330
101B
 92
        7
 72
     1
 73
     1
 93
        6
 10
87.96880904304931
 20
542.4090734116147
 42
0.0
 10
104.0688090430493
 20
542.4090734116147
 42
0.0
 10
104.0688090430493
 20
544.6259691936809
 42
-0.1095178116832388
 10
107.3480364967664
 20
559.4176083546051
 42
0.0
 10
107.8103642456432
 20
560.409073411615
 42
0.0
 10
87.96880904304932
 20
560.4090734116152
 42
0.0
 97
        6
330
EAF
330
EC0
330
1015
330
1017
330
EB1
330
EB3
 75
     0
 76
     1
 52
45.0
 41
20.0
 77
     0
 78
     2
 53
45.0
 43
29.58382007639648
 44
-20.07933032926553
 45
-1.767766952966368
 46
1.767766952966368
 79
     0
 53
135.0
 43
29.58382007639648
 44
-20.07933032926553
 45
-1.767766952966368
 46
-1.767766952966368
 79
     0
 47
0.9350132912257434
 98
        2
 10
289.6527279811094
 20
551.7520738887808
 10
95.96883623874782
 20
551.7520738887808
  0
LINE
  5
155C
102
{ACAD_REACTORS
330
159B
330
17BA
102
}
330
1E
100
AcDbEntity
  8
STEMPEL
100
AcDbLine
 10
413.7719112108796
 20
421.173575399432
 30
0.0
 11
417.3074451168123
 21
417.6380414934994
 31
0.0
  0
LINE
  5
155D
102
{ACAD_REACTORS
330
159B
330
176C
102
}
330
1E
100
AcDbEntity
  8
STEMPEL
100
AcDbLine
 10
421.342730868385
 20
433.4017456151501
 30
0.0
 11
420.5731469031201
 21
431.2873310482106
 31
0.0
  0
LINE
  5
155E
102
{ACAD_REACTORS
330
176C
102
}
330
1E
100
AcDbEntity
  8
STEMPEL
100
AcDbLine
 10
419.7823188509651
 20
434.9621576325699
 30
0.0
 11
418.6937616615482
 21
431.971371334862
 31
0.0
  0
ARC
  5
155F
102
{ACAD_REACTORS
330
176C
102
}
330
1E
100
AcDbEntity
  8
STEMPEL
100
AcDbCircle
 10
397.0808313834724
 20
439.8378346313524
 30
0.0
 40
23.0
100
AcDbArc
 50
315.0
 51
339.9999999999934
  0
ARC
  5
1560
102
{ACAD_REACTORS
330
159B
330
176C
102
}
330
1E
100
AcDbEntity
  8
STEMPEL
100
AcDbCircle
 10
397.0808313834724
 20
439.8378346313524
 30
0.0
 40
25.0
100
AcDbArc
 50
315.0
 51
339.9999999999934
  0
LINE
  5
1561
102
{ACAD_REACTORS
330
159B
330
176C
330
17BA
102
}
330
1E
100
AcDbEntity
  8
STEMPEL
100
AcDbLine
 10
414.758500913136
 20
422.1601651016888
 30
0.0
 11
401.9159936073294
 21
409.3176577958821
 31
0.0
  0
LINE
  5
1562
102
{ACAD_REACTORS
330
176C
102
}
330
1E
100
AcDbEntity
  8
STEMPEL
100
AcDbLine
 10
413.344287350763
 20
423.5743786640618
 30
0.0
 11
400.5016382483516
 21
410.7317295616504
 31
0.0
  0
ARC
  5
1563
102
{ACAD_REACTORS
330
176C
102
}
330
1E
100
AcDbEntity
  8
STEMPEL
100
AcDbCircle
 10
395.7406882906224
 20
391.8286439801903
 30
0.0
 40
14.0
100
AcDbArc
 50
107.949631436622
 51
135.0
  0
ARC
  5
1564
102
{ACAD_REACTORS
330
176C
330
17BA
102
}
330
1E
100
AcDbEntity
  8
STEMPEL
100
AcDbCircle
 10
395.7406882906224
 20
391.8286439801903
 30
0.0
 40
12.0
100
AcDbArc
 50
108.1119523822754
 51
135.0
  0
ARC
  5
1565
102
{ACAD_REACTORS
330
176C
102
}
330
1E
100
AcDbEntity
  8
STEMPEL
100
AcDbCircle
 10
365.6373769833725
 20
399.9090988570139
 30
0.0
 40
13.0
100
AcDbArc
 50
280.6988472432076
 51
315.0
  0
ARC
  5
1566
102
{ACAD_REACTORS
330
176C
330
17BA
102
}
330
1E
100
AcDbEntity
  8
STEMPEL
100
AcDbCircle
 10
365.6373769833725
 20
399.9090988570139
 30
0.0
 40
15.0
100
AcDbArc
 50
280.6988472432076
 51
315.0
  0
ARC
  5
1567
102
{ACAD_REACTORS
330
176C
330
17BA
102
}
330
1E
100
AcDbEntity
  8
STEMPEL
100
AcDbCircle
 10
369.907254436005
 20
377.308918624558
 30
0.0
 40
8.0
100
AcDbArc
 50
100.6988472432075
 51
135.0
  0
LINE
  5
1568
102
{ACAD_REACTORS
330
176C
330
17BA
102
}
330
1E
100
AcDbEntity
  8
STEMPEL
100
AcDbLine
 10
387.255406916384
 20
400.3139253544289
 30
0.0
 11
376.2439787011705
 21
389.3024971392159
 31
0.0
  0
LINE
  5
1569
102
{ACAD_REACTORS
330
176C
102
}
330
1E
100
AcDbEntity
  8
STEMPEL
100
AcDbLine
 10
385.8411933540109
 20
401.728138916802
 30
0.0
 11
374.8297651387976
 21
390.7167107015888
 31
0.0
  0
ARC
  5
156A
102
{ACAD_REACTORS
330
176C
102
}
330
1E
100
AcDbEntity
  8
STEMPEL
100
AcDbCircle
 10
369.907254436005
 20
377.308918624558
 30
0.0
 40
10.0
100
AcDbArc
 50
100.6988472432075
 51
135.0
  0
ARC
  5
156B
102
{ACAD_REACTORS
330
176C
330
17BA
102
}
330
1E
100
AcDbEntity
  8
STEMPEL
100
AcDbCircle
 10
384.2383240776657
 20
426.9953273255457
 30
0.0
 40
25.0
100
AcDbArc
 50
288.1119523822754
 51
315.0
  0
ARC
  5
156C
102
{ACAD_REACTORS
330
176C
102
}
330
1E
100
AcDbEntity
  8
STEMPEL
100
AcDbCircle
 10
384.238182281061
 20
426.995185528941
 30
0.0
 40
23.0
100
AcDbArc
 50
288.2112018947927
 51
315.0
  0
LINE
  5
1575
102
{ACAD_REACTORS
330
176C
330
17BA
102
}
330
1E
100
AcDbEntity
  8
STEMPEL
100
AcDbLine
 10
364.2504001865126
 20
382.9657728740504
 30
0.0
 11
274.0688090430494
 21
292.7841817305871
 31
0.0
  0
LINE
  5
1576
102
{ACAD_REACTORS
330
176C
102
}
330
1E
100
AcDbEntity
  8
STEMPEL
100
AcDbLine
 10
362.8361866241395
 20
384.3799864364235
 30
0.0
 11
274.0688090430495
 21
295.6126088553335
 31
0.0
  0
LINE
  5
1577
330
1E
100
AcDbEntity
  8
MITTEL
100
AcDbLine
 10
385.4876399634178
 20
476.327904331983
 30
0.0
 11
194.5688090430492
 21
285.4090734116148
 31
0.0
  0
DIMENSION
  5
1578
330
1E
100
AcDbEntity
  8
BEM
100
AcDbDimension
  2
*D5
 10
255.0547994699531
 20
224.9230829847109
 30
0.0
 11
344.1502538994585
 21
323.210925569641
 31
0.0
 70
    32
 71
     5
 42
265.0000000000006
  3
Standard
100
AcDbAlignedDimension
 13
428.9747070063903
 23
425.7697694771447
 33
0.0
 14
194.5688090430493
 24
285.4090734116149
 34
0.0
 50
44.99999999999985
100
AcDbRotatedDimension
1001
ACAD
1000
DSTYLE
1002
{
1070
    40
1040
2.0
1070
    41
1040
3.5
1070
    42
1040
1.0
1070
    43
1040
7.0
1070
    44
1040
1.0
1070
    73
1070
     0
1070
    74
1070
     0
1070
    77
1070
     1
1070
    78
1070
     8
1070
    79
1070
     2
1070
   140
1040
3.5
1070
   141
1040
1.5
1070
   146
1040
0.5142857142857144
1070
   147
1040
1.5
1070
   172
1070
     1
1070
   178
1070
     1
1070
   179
1070
     2
1070
   271
1070
     2
1070
   272
1070
     2
1070
   284
1070
     8
1070
   285
1070
     8
1070
   286
1070
     8
1070
   289
1070
     0
1070
   340
1005
24
1002
}
  0
LINE
  5
1579
102
{ACAD_REACTORS
330
159B
330
177D
330
17BA
102
}
330
1E
100
AcDbEntity
  8
STEMPEL
100
AcDbLine
 10
427.2069400534241
 20
427.5375364301111
 30
0.0
 11
304.0688090430493
 21
304.3994054197367
 31
0.0
  0
LINE
  5
157A
102
{ACAD_REACTORS
330
16F8
330
177D
102
}
330
1E
100
AcDbEntity
  8
STEMPEL
100
AcDbLine
 10
428.9747070063903
 20
425.7697694771447
 30
0.0
 11
304.0688090430494
 21
300.8638715138041
 31
0.0
  0
LINE
  5
157B
102
{ACAD_REACTORS
330
176C
102
}
330
1E
100
AcDbEntity
  8
STEMPEL
100
AcDbLine
 10
344.1218932640046
 20
510.6225832195307
 30
0.0
 11
341.1311069662968
 21
509.5340260301136
 31
0.0
  0
LINE
  5
157C
102
{ACAD_REACTORS
330
159B
330
17BA
102
}
330
1E
100
AcDbEntity
  8
STEMPEL
100
AcDbLine
 10
326.7977771249341
 20
508.1477094853778
 30
0.0
 11
330.333311030867
 21
504.6121755794449
 31
0.0
  0
ARC
  5
157D
102
{ACAD_REACTORS
330
159B
330
176C
102
}
330
1E
100
AcDbEntity
  8
STEMPEL
100
AcDbCircle
 10
348.997570262787
 20
487.9210957520378
 30
0.0
 40
25.0
100
AcDbArc
 50
110.0000000000065
 51
135.0
  0
ARC
  5
157E
102
{ACAD_REACTORS
330
176C
102
}
330
1E
100
AcDbEntity
  8
STEMPEL
100
AcDbCircle
 10
348.997570262787
 20
487.9210957520378
 30
0.0
 40
23.0
100
AcDbArc
 50
110.0000000000065
 51
135.0
  0
LINE
  5
157F
102
{ACAD_REACTORS
330
159B
330
176C
102
}
330
1E
100
AcDbEntity
  8
STEMPEL
100
AcDbLine
 10
342.5614812465849
 20
512.1829952369505
 30
0.0
 11
340.4470666796454
 21
511.4134112716856
 31
0.0
  0
LINE
  5
1580
102
{ACAD_REACTORS
330
159B
330
176C
330
17BA
102
}
330
1E
100
AcDbEntity
  8
STEMPEL
100
AcDbLine
 10
331.3199007331234
 20
505.5987652817016
 30
0.0
 11
318.4773934273168
 21
492.7562579758948
 31
0.0
  0
LINE
  5
1581
102
{ACAD_REACTORS
330
176C
102
}
330
1E
100
AcDbEntity
  8
STEMPEL
100
AcDbLine
 10
332.7341142954965
 20
504.1845517193284
 30
0.0
 11
319.8914651930852
 21
491.341902616917
 31
0.0
  0
ARC
  5
1583
102
{ACAD_REACTORS
330
176C
102
}
330
1E
100
AcDbEntity
  8
STEMPEL
100
AcDbCircle
 10
300.9883796116252
 20
486.5809526591879
 30
0.0
 40
14.0
100
AcDbArc
 50
315.0
 51
342.050368563378
  0
ARC
  5
1584
102
{ACAD_REACTORS
330
176C
330
17BA
102
}
330
1E
100
AcDbEntity
  8
STEMPEL
100
AcDbCircle
 10
300.9883796116252
 20
486.5809526591879
 30
0.0
 40
12.0
100
AcDbArc
 50
315.0
 51
341.8880476177246
  0
ARC
  5
1585
102
{ACAD_REACTORS
330
176C
330
17BA
102
}
330
1E
100
AcDbEntity
  8
STEMPEL
100
AcDbCircle
 10
309.0688344884486
 20
456.4776413519378
 30
0.0
 40
15.0
100
AcDbArc
 50
135.0
 51
169.3011527567924
  0
ARC
  5
1586
102
{ACAD_REACTORS
330
176C
102
}
330
1E
100
AcDbEntity
  8
STEMPEL
100
AcDbCircle
 10
309.0688344884486
 20
456.4776413519378
 30
0.0
 40
13.0
100
AcDbArc
 50
135.0
 51
169.3011527567924
  0
ARC
  5
1587
102
{ACAD_REACTORS
330
176C
330
17BA
102
}
330
1E
100
AcDbEntity
  8
STEMPEL
100
AcDbCircle
 10
286.4686542559925
 20
460.7475188045706
 30
0.0
 40
8.0
100
AcDbArc
 50
315.0
 51
349.3011527567924
  0
ARC
  5
1588
102
{ACAD_REACTORS
330
176C
102
}
330
1E
100
AcDbEntity
  8
STEMPEL
100
AcDbCircle
 10
286.4686542559925
 20
460.7475188045706
 30
0.0
 40
10.0
100
AcDbArc
 50
315.0
 51
349.3011527567924
  0
LINE
  5
1589
102
{ACAD_REACTORS
330
176C
330
17BA
102
}
330
1E
100
AcDbEntity
  8
STEMPEL
100
AcDbLine
 10
309.4736609858637
 20
478.0956712849493
 30
0.0
 11
298.4622327706505
 21
467.0842430697359
 31
0.0
  0
LINE
  5
158A
102
{ACAD_REACTORS
330
176C
102
}
330
1E
100
AcDbEntity
  8
STEMPEL
100
AcDbLine
 10
310.8878745482368
 20
476.6814577225763
 30
0.0
 11
299.8764463330235
 21
465.670029507363
 31
0.0
  0
ARC
  5
158B
102
{ACAD_REACTORS
330
176C
102
}
330
1E
100
AcDbEntity
  8
STEMPEL
100
AcDbCircle
 10
336.1549211603757
 20
475.0784466496263
 30
0.0
 40
23.0
100
AcDbArc
 50
135.0
 51
161.7887981052072
  0
ARC
  5
158C
102
{ACAD_REACTORS
330
176C
330
17BA
102
}
330
1E
100
AcDbEntity
  8
STEMPEL
100
AcDbCircle
 10
336.1550629569805
 20
475.0785884462313
 30
0.0
 40
25.0
100
AcDbArc
 50
135.0
 51
161.8880476177246
  0
LINE
  5
1595
102
{ACAD_REACTORS
330
16EA
330
176C
330
17BA
102
}
330
1E
100
AcDbEntity
  8
STEMPEL
100
AcDbLine
 10
292.1255085054851
 20
455.0906645550782
 30
0.0
 11
274.0688090430493
 21
437.0339650926425
 31
0.0
  0
LINE
  5
1596
102
{ACAD_REACTORS
330
176C
102
}
330
1E
100
AcDbEntity
  8
STEMPEL
100
AcDbLine
 10
293.5397220678582
 20
453.6764509927051
 30
0.0
 11
274.0688090430493
 21
434.2055379678962
 31
0.0
  0
LINE
  5
1597
102
{ACAD_REACTORS
330
159B
330
177D
330
17BA
102
}
330
1E
100
AcDbEntity
  8
STEMPEL
100
AcDbLine
 10
336.6972720615458
 20
518.0472044219896
 30
0.0
 11
304.0688090430493
 21
485.4187414034931
 31
0.0
  0
LINE
  5
1598
102
{ACAD_REACTORS
330
177D
102
}
330
1E
100
AcDbEntity
  8
STEMPEL
100
AcDbLine
 10
334.9295051085795
 20
519.8149713749558
 30
0.0
 11
304.0688090430493
 21
488.9542753094256
 31
0.0
  0
HATCH
  5
159B
330
1E
100
AcDbEntity
  8
SCHRAFF
100
AcDbHatch
 10
0.0
 20
0.0
 30
0.0
210
0.0
220
0.0
230
1.0
  2
NET
 70
     0
 71
     1
 91
        2
 92
        7
 72
     1
 73
     1
 93
        6
 10
427.2069400534242
 20
427.5375364301113
 42
0.0
 10
421.3427308683851
 20
433.4017456151504
 42
0.0
 10
420.5731469031201
 20
431.2873310482106
 42
-0.1095178116832401
 10
414.758500913136
 20
422.1601651016888
 42
0.0
 10
413.7719112108795
 20
421.1735753994322
 42
0.0
 10
417.3074451168123
 20
417.6380414934994
 42
0.0
 97
        6
330
15A2
330
155D
330
1560
330
1561
330
155C
330
1579
 92
        7
 72
     1
 73
     1
 93
        6
 10
326.7977771249341
 20
508.1477094853778
 42
0.0
 10
330.3333110308669
 20
504.6121755794451
 42
0.0
 10
331.3199007331234
 20
505.5987652817016
 42
-0.1095178116832421
 10
340.4470666796454
 20
511.4134112716856
 42
0.0
 10
342.561481246585
 20
512.1829952369505
 42
0.0
 10
336.6972720615458
 20
518.0472044219896
 42
0.0
 97
        6
330
157F
330
15A2
330
1597
330
157C
330
1580
330
157D
 75
     0
 76
     1
 52
-0.0000000000000127
 41
20.0
 77
     0
 78
     2
 53
360.0
 43
-330.628575366108
 44
528.0283397702417
 45
0.0000000000000007
 46
2.5
 79
     0
 53
90.0
 43
-330.628575366108
 44
528.0283397702417
 45
-2.5
 46
0.0000000000000007
 79
     0
 47
0.2497795766399111
 98
        2
 10
422.3746011115207
 20
426.715901940005
 10
332.9470756016655
 20
511.5512855892368
  0
DIMENSION
  5
159E
330
1E
100
AcDbEntity
  8
BEM
100
AcDbDimension
  2
*D6
 10
443.1639799858723
 20
439.9590424566269
 30
0.0
 11
400.7375731146793
 21
491.5778374832448
 31
0.0
 70
    32
  1
%%c<>
 71
     5
 42
133.0000000000001
  3
Standard
100
AcDbAlignedDimension
 13
334.9295051085795
 23
519.8149713749558
 33
0.0
 14
428.9747070063904
 24
425.7697694771449
 34
0.0
 50
315.0000000000002
100
AcDbRotatedDimension
1001
ACAD
1000
DSTYLE
1002
{
1070
    40
1040
2.0
1070
    41
1040
3.5
1070
    42
1040
1.0
1070
    43
1040
7.0
1070
    44
1040
1.0
1070
    73
1070
     0
1070
    74
1070
     0
1070
    77
1070
     1
1070
    78
1070
     8
1070
    79
1070
     2
1070
   140
1040
3.5
1070
   141
1040
1.5
1070
   146
1040
0.5142857142857144
1070
   147
1040
1.5
1070
   172
1070
     1
1070
   178
1070
     1
1070
   179
1070
     2
1070
   271
1070
     2
1070
   272
1070
     2
1070
   284
1070
     8
1070
   285
1070
     8
1070
   286
1070
     8
1070
   289
1070
     0
1070
   340
1005
24
1002
}
  0
LINE
  5
15A2
102
{ACAD_REACTORS
330
159B
330
176C
330
177D
102
}
330
1E
100
AcDbEntity
  8
STEMPEL
100
AcDbLine
 10
334.9295051085795
 20
519.8149713749558
 30
0.0
 11
428.9747070063904
 21
425.7697694771449
 31
0.0
  0
LINE
  5
15A4
330
1E
100
AcDbEntity
  8
HILF
100
AcDbLine
 10
314.3778847975162
 20
477.8218915863905
 30
0.0
 11
386.9816272178253
 21
405.2181491660816
 31
0.0
  0
LINE
  5
15A5
330
1E
100
AcDbEntity
  8
HILF
100
AcDbLine
 10
370.217243345926
 20
389.9078577289766
 30
0.0
 11
299.067593360411
 21
461.0575077144914
 31
0.0
  0
LINE
  5
15A6
330
1E
100
AcDbEntity
  8
HILF
100
AcDbLine
 10
296.7788925548719
 20
454.6075687868326
 30
0.0
 11
363.7673044182672
 21
387.6191569234374
 31
0.0
  0
TEXT
  5
15A7
330
1E
100
AcDbEntity
  8
TEXT
 62
     1
100
AcDbText
 10
351.5086201983709
 20
455.2308862724551
 30
0.0
 40
7.0
  1
DN100
 50
44.99999999999999
 41
0.8
  7
GREEKS
100
AcDbText
  0
LINE
  5
16AE
102
{ACAD_REACTORS
330
173B
102
}
330
1E
100
AcDbEntity
  8
STEMPEL
100
AcDbLine
 10
274.0688090430492
 20
434.2055379678962
 30
0.0
 11
271.5688090430492
 21
434.2055379678962
 31
0.0
  0
LINE
  5
16AF
102
{ACAD_REACTORS
330
173B
102
}
330
1E
100
AcDbEntity
  8
STEMPEL
100
AcDbLine
 10
274.0688090430495
 20
295.6126088553335
 30
0.0
 11
271.5688090430494
 21
295.6126088553335
 31
0.0
  0
ELLIPSE
  5
16BE
330
1E
100
AcDbEntity
  8
STEMPEL
100
AcDbEllipse
 10
271.5688090430494
 20
344.8060430312848
 30
0.0
 11
-0.0000000000001589
 21
49.19343417595138
 31
0.0
210
0.0
220
0.0
230
1.0
 40
0.3578329237468733
 41
1.570796326794896
 42
3.141592653589793
  0
ELLIPSE
  5
16BF
330
1E
100
AcDbEntity
  8
STEMPEL
100
AcDbEllipse
 10
271.5688090430494
 20
344.8060430312848
 30
0.0
 11
0.0
 21
-89.3994949366114
 31
0.0
210
0.0
220
0.0
230
1.0
 40
0.1969030182196384
 41
3.141592653589793
 42
4.712388980384689
  0
ARC
  5
16E4
102
{ACAD_REACTORS
330
16EA
330
17BA
102
}
330
1E
100
AcDbEntity
  8
SCHRAFF
100
AcDbCircle
 10
268.6977110745224
 20
424.066987532191
 30
0.0
 40
19.38287400445528
100
AcDbArc
 50
61.0875182936568
 51
73.91248170634225
  0
HATCH
  5
16EA
330
1E
100
AcDbEntity
  8
SCHRAFF
100
AcDbHatch
 10
0.0
 20
0.0
 30
0.0
210
0.0
220
0.0
230
1.0
  2
_USER
 70
     0
 71
     1
 91
        1
 92
        7
 72
     1
 73
     1
 93
        3
 10
278.0688090430493
 20
441.0339650926424
 42
0.0560179443818132
 10
274.0688090430492
 20
442.6908193421349
 42
0.0
 10
274.0688090430493
 20
437.0339650926424
 42
0.0
 97
        3
330
16E4
330
EB5
330
1595
 75
     0
 76
     0
 52
0.0
 41
0.1
 77
     0
 78
     1
 53
0.0
 43
14.51458780404528
 44
-20.07933032926553
 45
0.0
 46
0.1
 79
     0
 47
0.0860918799700649
 98
        1
 10
276.3035540936403
 20
440.6401113652787
  0
HATCH
  5
16ED
330
1E
100
AcDbEntity
  8
SCHRAFF
100
AcDbHatch
 10
0.0
 20
0.0
 30
0.0
210
0.0
220
0.0
230
1.0
  2
_USER
 70
     0
 71
     0
 91
        1
 92
        7
 72
     1
 73
     1
 93
        3
 10
308.0688090430493
 20
492.9542753094255
 42
0.0560179443818118
 10
304.0688090430493
 20
494.611129558918
 42
0.0
 10
304.0688090430493
 20
488.9542753094256
 42
0.0
 97
        0
 75
     0
 76
     0
 52
0.0
 41
0.1
 77
     0
 78
     1
 53
0.0
 43
44.51458780404533
 44
31.84097988751762
 45
0.0
 46
0.1
 79
     0
 47
0.0860918799700649
 98
        1
 10
306.3035540936403
 20
492.5604215820619
  0
ARC
  5
16EE
330
1E
100
AcDbEntity
  8
SCHRAFF
100
AcDbCircle
 10
298.6977110745225
 20
475.9872977489742
 30
0.0
 40
19.38287400445528
100
AcDbArc
 50
61.0875182936568
 51
73.91248170634225
  0
ARC
  5
16F1
102
{ACAD_REACTORS
330
16F8
102
}
330
1E
100
AcDbEntity
  8
SCHRAFF
100
AcDbCircle
 10
292.8152860505656
 20
305.5252333617682
 30
0.0
 40
15.26785391520934
100
AcDbArc
 50
317.4826739397417
 51
357.5173260602583
  0
HATCH
  5
16F8
330
1E
100
AcDbEntity
  8
SCHRAFF
100
AcDbHatch
 10
0.0
 20
0.0
 30
0.0
210
0.0
220
0.0
230
1.0
  2
_USER
 70
     0
 71
     1
 91
        1
 92
        7
 72
     1
 73
     1
 93
        3
 10
304.0688090430493
 20
300.863871513804
 42
0.0
 10
304.0688090430493
 20
295.2070172643116
 42
0.1764828842053339
 10
308.0688090430493
 20
304.863871513804
 42
0.0
 97
        3
330
157A
330
10DA
330
16F1
 75
     0
 76
     0
 52
0.0
 41
0.1
 77
     0
 78
     1
 53
0.0
 43
14.51458780404528
 44
-20.07933032926553
 45
0.0
 46
0.1
 79
     0
 47
0.0866164077812602
 98
        1
 10
305.539124350576
 20
301.132557800011
  0
HATCH
  5
16F9
330
1E
100
AcDbEntity
  8
SCHRAFF
100
AcDbHatch
 10
0.0
 20
0.0
 30
0.0
210
0.0
220
0.0
230
1.0
  2
_USER
 70
     0
 71
     0
 91
        1
 92
        7
 72
     1
 73
     1
 93
        3
 10
278.0688090430493
 20
296.784181730587
 42
0.0
 10
274.0688090430493
 20
292.7841817305871
 42
0.0
 10
274.0688090430493
 20
287.1273274810946
 42
0.1764828842053326
 97
        0
 75
     0
 76
     0
 52
0.0
 41
0.1
 77
     0
 78
     1
 53
0.0
 43
-15.48541219595472
 44
-28.1590201124825
 45
0.0
 46
0.1
 79
     0
 47
0.0866164077812602
 98
        1
 10
275.539124350576
 20
293.052868016794
  0
ARC
  5
16FA
102
{ACAD_REACTORS
330
17BA
102
}
330
1E
100
AcDbEntity
  8
SCHRAFF
100
AcDbCircle
 10
262.8152860505656
 20
297.4455435785512
 30
0.0
 40
15.26785391520934
100
AcDbArc
 50
317.4826739397417
 51
357.5173260602583
  0
HATCH
  5
173B
330
1E
100
AcDbEntity
  8
SCHRAFF
100
AcDbHatch
 10
0.0
 20
0.0
 30
0.0
210
0.0
220
0.0
230
1.0
  2
_USER
 70
     0
 71
     1
 91
        3
 92
        7
 72
     1
 73
     1
 93
       20
 10
271.5688090430492
 20
434.2055379678963
 42
0.0
 10
274.0688090430492
 20
434.2055379678962
 42
0.0
 10
274.0688090430492
 20
472.8813254970105
 42
-0.1528962216020417
 10
275.8545233287636
 20
478.584439576536
 42
0.152896221602038
 10
279.0688090430492
 20
488.8500449196818
 42
0.0
 10
279.0688090430492
 20
503.9090734116147
 42
-0.1206909349745684
 10
281.1065591694767
 20
512.2281225744479
 42
0.1202734944247557
 10
285.0688090430492
 20
528.3464678824498
 42
0.0
 10
285.0688090430492
 20
544.6259691936809
 42
0.1095178116832392
 10
281.789581589332
 20
559.4176083546051
 42
0.0
 10
281.3272538404553
 20
560.409073411615
 42
0.0
 10
278.5688090430491
 20
560.409073411615
 42
0.0
 10
279.5238121217403
 20
558.3610627002535
 42
-0.109517811683243
 10
282.5688090430492
 20
544.6259691936806
 42
0.0
 10
282.5688090430492
 20
528.4595834899354
 42
-0.1211241773288985
 10
278.8895800203694
 20
513.3835460692857
 42
0.12069093497457
 10
276.5688090430492
 20
503.9090734116146
 42
0.0
 10
276.5688090430492
 20
488.8500449196818
 42
-0.1528962216020417
 10
273.800951900192
 20
480.0102180964172
 42
0.1528962216020364
 10
271.5688090430492
 20
472.8813254970105
 42
0.0
 97
       20
330
EB8
330
EB7
330
EBF
330
EAC
330
EAD
330
EAB
330
EAE
330
EAA
330
EC0
330
11DA
330
11D0
330
11CF
330
11CE
330
11CC
330
11CB
330
11C9
330
11C7
330
11C6
330
16AE
330
EB5
 92
        7
 72
     1
 73
     1
 93
       22
 10
117.5688090430493
 20
472.8813254970105
 42
0.1528962216020391
 10
115.3366661859065
 20
480.0102180964173
 42
-0.1528962216020395
 10
112.5688090430493
 20
488.8500449196818
 42
0.0
 10
112.5688090430493
 20
503.9090734116147
 42
0.1206909349745683
 10
110.2480380657291
 20
513.3835460692857
 42
-0.121124177328738
 10
106.5688090430493
 20
528.4595834899148
 42
0.0
 10
106.5688090430493
 20
544.6259691936809
 42
-0.1095178116832389
 10
109.613805964358
 20
558.3610627002533
 42
0.0
 10
110.5688090430495
 20
560.409073411615
 42
0.0
 10
107.8103642456432
 20
560.4090734116149
 42
0.0
 10
107.3480364967664
 20
559.4176083546051
 42
0.1095178116832388
 10
104.0688090430493
 20
544.6259691936809
 42
0.0
 10
104.0688090430493
 20
528.3464678824477
 42
0.120273494424741
 10
108.0310589166218
 20
512.2281225744479
 42
-0.1206909349745685
 10
110.0688090430493
 20
503.9090734116147
 42
0.0
 10
110.0688090430493
 20
488.8500449196818
 42
0.1528962216020397
 10
113.283094757335
 20
478.5844395765359
 42
-0.1528962216020413
 10
115.0688090430493
 20
472.8813254970104
 42
0.0
 10
115.0688090430493
 20
200.2999210543345
 42
0.0
 10
115.9341460844493
 20
190.4090734116149
 42
0.0
 10
118.4436956783078
 20
190.4090734116148
 42
0.0
 10
117.5688090430493
 20
200.4090734116055
 42
0.0
 97
       22
330
11D2
330
11D3
330
11D4
330
11D5
330
11D6
330
11D7
330
11D8
330
11D9
330
EC0
330
EAF
330
EB3
330
EB1
330
EB2
330
EB0
330
EBE
330
EBA
330
EBB
330
EB9
330
EA8
330
EC2
330
11DE
330
11D1
 92
        7
 72
     0
 73
     1
 93
        6
 10
274.0688090430495
 20
295.6126088553335
 10
271.5688090430494
 20
295.6126088553334
 10
271.5688090430493
 20
200.4090734116054
 10
270.693922407791
 20
190.4090734116149
 10
273.2034720016494
 20
190.4090734116149
 10
274.0688090430493
 20
200.299921054334
 97
        6
330
16AF
330
11DB
330
11DC
330
EC2
330
EA7
330
E8A
 75
     0
 76
     0
 52
45.0
 41
2.0
 77
     0
 78
     1
 53
45.0
 43
14.51458780404528
 44
-20.07933032926553
 45
-1.414213562373094
 46
1.414213562373095
 79
     0
 47
0.783889285420525
 98
        3
 10
272.4473214373375
 20
452.8727319346375
 10
116.3430238064088
 20
436.4110569602849
 10
273.2317659042706
 20
267.8748587210714
  0
HATCH
  5
176C
330
1E
100
AcDbEntity
  8
SCHRAFF
100
AcDbHatch
 10
0.0
 20
0.0
 30
0.0
210
0.0
220
0.0
230
1.0
  2
_USER
 70
     0
 71
     1
 91
        2
 92
        7
 72
     1
 73
     1
 93
       20
 10
310.8878745482368
 20
476.6814577225763
 42
0.1171420130216352
 10
314.2822663406889
 20
482.1908984869909
 42
-0.1182991460896106
 10
319.8914651930852
 20
491.341902616917
 42
0.0
 10
332.7341142954965
 20
504.1845517193284
 42
-0.1095178116832408
 10
341.1311069662968
 20
509.5340260301136
 42
0.0
 10
344.1218932640045
 20
510.6225832195307
 42
0.0
 10
342.5614812465848
 20
512.1829952369504
 42
0.0
 10
340.4470666796454
 20
511.4134112716856
 42
0.1095178116832437
 10
331.3199007331233
 20
505.5987652817015
 42
0.0
 10
318.4773934273168
 20
492.7562579758948
 42
0.1178625008509374
 10
312.3937904263349
 20
482.8504561576884
 42
-0.1178625008509333
 10
309.4736609858637
 20
478.0956712849493
 42
0.0
 10
298.4622327706505
 20
467.0842430697359
 42
0.1507946423587051
 10
294.3295865107598
 20
459.2623440384373
 42
-0.1507946423587026
 10
292.1255085054849
 20
455.0906645550781
 42
0.0
 10
274.0688090430492
 20
437.0339650926425
 42
0.0
 10
274.0688090430492
 20
434.2055379678962
 42
0.0
 10
293.5397220678582
 20
453.6764509927051
 42
0.1507946423586988
 10
296.2948195744517
 20
458.891050346904
 42
-0.1507946423587056
 10
299.8764463330235
 20
465.670029507363
 42
0.0
 97
       20
330
1583
330
158B
330
1581
330
157E
330
157B
330
15A2
330
157F
330
157D
330
1580
330
158C
330
1584
330
1589
330
1585
330
1587
330
1595
330
EB5
330
1596
330
1588
330
1586
330
158A
 92
        7
 72
     1
 73
     1
 93
       20
 10
364.2504001865126
 20
382.9657728740504
 42
-0.1507946423587095
 10
368.422079669872
 20
385.1698508793254
 42
0.1507946423587019
 10
376.2439787011705
 20
389.3024971392159
 42
0.0
 10
387.255406916384
 20
400.3139253544289
 42
-0.1178625008509344
 10
392.010191789123
 20
403.2340547949002
 42
0.1178625008509373
 10
401.9159936073294
 20
409.3176577958821
 42
0.0
 10
414.758500913136
 20
422.1601651016888
 42
0.1095178116832401
 10
420.5731469031201
 20
431.2873310482106
 42
0.0
 10
421.342730868385
 20
433.4017456151503
 42
0.0
 10
419.7823188509652
 20
434.96215763257
 42
0.0
 10
418.6937616615482
 20
431.971371334862
 42
-0.1095178116832425
 10
413.3442873507629
 20
423.5743786640617
 42
0.0
 10
400.5016382483516
 20
410.7317295616504
 42
-0.1182991460893179
 10
391.3506341184508
 20
405.1225307092624
 42
0.1171420130221181
 10
385.8411933540108
 20
401.7281389168019
 42
0.0
 10
374.8297651387976
 20
390.7167107015888
 42
-0.1507946423587067
 10
368.0507859783386
 20
387.135083943017
 42
0.1507946423587118
 10
362.8361866241393
 20
384.3799864364233
 42
0.0
 10
274.0688090430495
 20
295.6126088553335
 42
0.0
 10
274.0688090430495
 20
292.7841817305871
 42
0.0
 97
       20
330
1567
330
1566
330
1568
330
1564
330
156B
330
1561
330
1560
330
155D
330
15A2
330
155E
330
155F
330
1562
330
156C
330
1563
330
1569
330
1565
330
156A
330
1576
330
E8A
330
1575
 75
     0
 76
     0
 52
0.0
 41
2.0
 77
     0
 78
     1
 53
0.0
 43
14.51458780404528
 44
-20.07933032926553
 45
0.0
 46
2.0
 79
     0
 47
0.4953316181466959
 98
        2
 10
305.0719972094271
 20
472.06953319699
 10
357.118602716776
 20
376.9658615155417
  0
HATCH
  5
177D
330
1E
100
AcDbEntity
  8
SCHRAFF
100
AcDbHatch
 10
0.0
 20
0.0
 30
0.0
210
0.0
220
0.0
230
1.0
  2
_USER
 70
     0
 71
     1
 91
        2
 92
        7
 72
     0
 73
     1
 93
        4
 10
304.0688090430493
 20
488.9542753094257
 10
304.0688090430494
 20
485.4187414034932
 10
336.6972720615458
 20
518.0472044219896
 10
334.9295051085795
 20
519.8149713749558
 97
        4
330
15A2
330
1598
330
101C
330
1597
 92
        7
 72
     0
 73
     1
 93
        4
 10
304.0688090430493
 20
304.3994054197366
 10
304.0688090430494
 20
300.8638715138041
 10
428.9747070063905
 20
425.7697694771449
 10
427.2069400534242
 20
427.5375364301113
 97
        4
330
15A2
330
1579
330
10DA
330
157A
 75
     0
 76
     0
 52
90.0
 41
2.0
 77
     0
 78
     1
 53
90.0
 43
14.51458780404528
 44
-20.07933032926553
 45
-2.0
 46
0.0000000000000001
 79
     0
 47
0.4953316181466959
 98
        2
 10
313.4985916876503
 20
496.8361140342035
 10
362.0754239061798
 20
361.1152489089727
  0
HATCH
  5
17BA
330
1E
100
AcDbEntity
  8
SCHRAFF
100
AcDbHatch
 10
0.0
 20
0.0
 30
0.0
210
0.0
220
0.0
230
1.0
  2
HONEY
 70
     0
 71
     1
 91
        3
 92
        7
 72
     1
 73
     1
 93
       20
 10
275.8545233287634
 20
478.5844395765358
 42
0.152896221602038
 10
274.0688090430492
 20
472.8813254970104
 42
0.0
 10
274.0688090430492
 20
442.6908193421349
 42
-0.0560179443818125
 10
278.0688090430492
 20
441.0339650926424
 42
0.0
 10
292.1255085054851
 20
455.0906645550782
 42
0.1507946423586974
 10
294.3295865107598
 20
459.2623440384373
 42
-0.1507946423587037
 10
298.4622327706505
 20
467.0842430697359
 42
0.0
 10
309.4736609858637
 20
478.0956712849493
 42
0.1178625008509372
 10
312.393790426335
 20
482.8504561576885
 42
-0.1178625008509355
 10
318.4773934273168
 20
492.7562579758948
 42
0.0
 10
330.3333110308669
 20
504.6121755794451
 42
0.0
 10
326.7977771249342
 20
508.1477094853779
 42
0.0
 10
304.0688090430493
 20
485.4187414034931
 42
0.0
 10
301.1688090430492
 20
485.4187414034929
 42
0.0
 10
301.1688090430494
 20
542.409073411615
 42
0.0
 10
285.0688090430493
 20
542.409073411615
 42
0.0
 10
285.0688090430492
 20
528.4616789407918
 42
-0.1211084169870766
 10
281.1065591694767
 20
512.2281225744479
 42
0.1206909349745684
 10
279.0688090430492
 20
503.9090734116147
 42
0.0
 10
279.0688090430492
 20
488.8500449196818
 42
-0.1528962216020418
 97
       20
330
158C
330
1580
330
157C
330
1597
330
10D7
330
101B
330
101D
330
EAB
330
EAD
330
EAC
330
EBF
330
EB7
330
EB8
330
EB5
330
16E4
330
1595
330
1587
330
1585
330
1589
330
1584
 92
        7
 72
     1
 73
     1
 93
       11
 10
115.0688090430493
 20
472.8813254970105
 42
0.1528962216020385
 10
113.283094757335
 20
478.5844395765359
 42
-0.1528962216020397
 10
110.0688090430493
 20
488.8500449196818
 42
0.0
 10
110.0688090430493
 20
503.9090734116147
 42
0.1206909349745685
 10
108.0310589166218
 20
512.2281225744479
 42
-0.1211084169870768
 10
104.0688090430493
 20
528.4616789407918
 42
0.0
 10
104.0688090430493
 20
542.4090734116149
 42
0.0
 10
87.96880904304929
 20
542.4090734116147
 42
0.0
 10
87.96880904304931
 20
269.559073411615
 42
0.0
 10
89.81880904304928
 20
271.4090734116149
 42
0.0
 10
115.0688090430493
 20
271.4090734116148
 42
0.0
 97
       11
330
EBB
330
EBA
330
EBE
330
EB0
330
EB2
330
EB1
330
1017
330
1015
330
10BE
330
10C0
330
EB9
 92
        7
 72
     1
 73
     1
 93
       15
 10
274.0688090430495
 20
287.1273274810948
 42
0.0
 10
274.0688090430495
 20
271.4090734116149
 42
0.0
 10
299.3188090430491
 20
271.4090734116149
 42
0.0
 10
301.1688090430494
 20
269.5590734116148
 42
0.0
 10
301.1688090430494
 20
304.3994054197367
 42
0.0
 10
304.0688090430493
 20
304.3994054197366
 42
0.0
 10
417.3074451168124
 20
417.6380414934994
 42
0.0
 10
413.7719112108794
 20
421.1735753994322
 42
0.0
 10
401.9159936073294
 20
409.3176577958821
 42
-0.1178625008509407
 10
392.0101917891227
 20
403.2340547949001
 42
0.1178625008509258
 10
387.255406916384
 20
400.313925354429
 42
0.0
 10
376.2439787011705
 20
389.3024971392159
 42
-0.1507946423587056
 10
368.4220796698719
 20
385.1698508793252
 42
0.1507946423587103
 10
364.2504001865124
 20
382.9657728740502
 42
0.0
 10
278.0688090430493
 20
296.784181730587
 42
-0.1764828842053289
 97
       15
330
10D8
330
1579
330
155C
330
1561
330
156B
330
1564
330
1568
330
1566
330
1567
330
1575
330
16FA
330
E8A
330
10BB
330
10B7
330
10D9
 75
     0
 76
     1
 52
0.0
 41
30.0
 77
     0
 78
     3
 53
0.0
 43
14.51458780404528
 44
-20.07933032926553
 45
5.625
 46
3.247595249999999
 79
     2
 49
3.75
 49
-7.5
 53
120.0
 43
14.51458780404528
 44
-20.07933032926553
 45
-5.624999987709673
 46
3.247595271287468
 79
     2
 49
3.749999999999999
 49
-7.499999999999998
 53
60.0
 43
14.51458780404528
 44
-20.07933032926553
 45
0.0000000122903263
 46
6.495190521287468
 79
     2
 49
-7.5
 49
3.75
 47
0.7048416256008485
 98
        3
 10
282.3220826099682
 20
481.9820320282452
 10
102.4603460342491
 20
427.7092265336423
 10
287.2594647400461
 20
290.2651087740366
  0
DIMENSION
  5
18FF
330
1E
100
AcDbEntity
  8
BEM
100
AcDbDimension
  2
*D7
 10
60.02071085513172
 20
285.409073411615
 30
0.0
 11
53.52071085513167
 21
237.9090734116149
 31
0.0
 70
    32
 71
     5
 42
95.00000000000008
  3
Standard
100
AcDbAlignedDimension
 13
115.9341460844493
 23
190.4090734116149
 33
0.0
 14
194.5688090430493
 24
285.4090734116149
 34
0.0
 50
90.0
100
AcDbRotatedDimension
1001
ACAD
1000
DSTYLE
1002
{
1070
    40
1040
2.0
1070
    41
1040
3.5
1070
    42
1040
1.0
1070
    43
1040
7.0
1070
    44
1040
1.0
1070
    73
1070
     0
1070
    74
1070
     0
1070
    77
1070
     1
1070
    78
1070
     8
1070
    79
1070
     2
1070
   140
1040
3.5
1070
   141
1040
1.5
1070
   146
1040
0.5142857142857144
1070
   147
1040
1.5
1070
   172
1070
     1
1070
   178
1070
     1
1070
   179
1070
     2
1070
   271
1070
     2
1070
   272
1070
     2
1070
   284
1070
     8
1070
   285
1070
     8
1070
   286
1070
     8
1002
}
  0
HATCH
  5
19E1
330
1E
100
AcDbEntity
  8
SCHRAFF
100
AcDbHatch
 10
0.0
 20
0.0
 30
0.0
210
0.0
220
0.0
230
1.0
  2
NET
 70
     0
 71
     0
 91
        2
 92
        7
 72
     0
 73
     1
 93
       11
 10
301.1688090430494
 20
269.5590734116146
 10
299.3188090430492
 20
271.4090734116149
 10
274.0688090430493
 20
271.4090734116149
 10
274.0688090430493
 20
262.4090734116149
 10
281.3688090430493
 20
262.4090734116149
 10
285.4102609273766
 20
255.4090734116149
 10
296.5688090430492
 20
255.4090734116149
 10
296.5688090430493
 20
253.409073411615
 10
304.0688090430493
 20
253.409073411615
 10
304.0688090430493
 20
255.409073411615
 10
301.1688090430494
 20
255.409073411615
 97
        0
 92
        7
 72
     0
 73
     1
 93
       11
 10
115.0688090430492
 20
271.4090734116149
 10
89.81880904304922
 20
271.4090734116149
 10
87.96880904304925
 20
269.5590734116149
 10
87.96880904304925
 20
255.4090734116148
 10
85.0688090430493
 20
255.4090734116148
 10
85.06880904304928
 20
253.409073411615
 10
92.66880904304931
 20
253.4090734116149
 10
92.66880904304931
 20
255.409073411615
 10
103.727357158722
 20
255.409073411615
 10
107.7688090430493
 20
262.4090734116149
 10
115.0688090430492
 20
262.4090734116149
 97
        0
 75
     0
 76
     1
 52
45.0
 41
20.0
 77
     0
 78
     2
 53
45.0
 43
-21.47104786124822
 44
-2.579181386142067
 45
-1.767766952966368
 46
1.767766952966368
 79
     0
 53
135.0
 43
-21.47104786124822
 44
-2.579181386142067
 45
-1.767766952966368
 46
-1.767766952966368
 79
     0
 47
0.2699286479089143
 98
        2
 10
292.0594292105439
 20
266.461170224722
 10
95.70291689468428
 20
264.8415990125228
  0
LINE
  5
19E2
330
1E
100
AcDbEntity
  8
STEMPEL
100
AcDbLine
 10
304.0688090430493
 20
253.409073411615
 30
0.0
 11
274.0688090430494
 21
253.409073411615
 31
0.0
  0
LINE
  5
19E3
330
1E
100
AcDbEntity
  8
STEMPEL
100
AcDbLine
 10
281.3688090430493
 20
262.4090734116149
 30
0.0
 11
285.4102609273767
 21
255.4090734116148
 31
0.0
  0
LINE
  5
19E4
330
1E
100
AcDbEntity
  8
STEMPEL
100
AcDbLine
 10
296.5688090430493
 20
255.4090734116149
 30
0.0
 11
274.0688090430494
 21
255.4090734116149
 31
0.0
  0
LINE
  5
19E5
330
1E
100
AcDbEntity
  8
STEMPEL
100
AcDbLine
 10
296.5688090430493
 20
253.4090734116149
 30
0.0
 11
296.5688090430492
 21
255.4090734116149
 31
0.0
  0
POINT
  5
19E6
330
1E
100
AcDbEntity
  8
DEFPOINTS
  6
ByBlock
 62
     0
100
AcDbPoint
 10
286.5688090430493
 20
255.4090734116149
 30
0.0
  0
POINT
  5
19E7
330
1E
100
AcDbEntity
  8
DEFPOINTS
  6
ByBlock
 62
     0
100
AcDbPoint
 10
296.5688090430493
 20
253.4090734116149
 30
0.0
  0
POINT
  5
19E8
330
1E
100
AcDbEntity
  8
DEFPOINTS
  6
ByBlock
 62
     0
100
AcDbPoint
 10
285.4102609273767
 20
255.4090734116149
 30
0.0
  0
POINT
  5
19E9
330
1E
100
AcDbEntity
  8
DEFPOINTS
  6
ByBlock
 62
     0
100
AcDbPoint
 10
285.4102609273767
 20
255.4090734116149
 30
0.0
  0
POINT
  5
19EA
330
1E
100
AcDbEntity
  8
DEFPOINTS
  6
ByBlock
 62
     0
100
AcDbPoint
 10
285.4102609273767
 20
255.4090734116148
 30
0.0
  0
POINT
  5
19EB
330
1E
100
AcDbEntity
  8
DEFPOINTS
  6
ByBlock
 62
     0
100
AcDbPoint
 10
296.5688090430493
 20
253.4090734116149
 30
0.0
  0
LINE
  5
19EC
330
1E
100
AcDbEntity
  8
STEMPEL
100
AcDbLine
 10
115.0688090430492
 20
253.4090734116149
 30
0.0
 11
85.06880904304928
 21
253.4090734116149
 31
0.0
  0
LINE
  5
19ED
330
1E
100
AcDbEntity
  8
STEMPEL
100
AcDbLine
 10
115.0688090430492
 20
255.409073411615
 30
0.0
 11
92.6688090430493
 21
255.409073411615
 31
0.0
  0
LINE
  5
19EE
330
1E
100
AcDbEntity
  8
STEMPEL
100
AcDbLine
 10
92.6688090430493
 20
253.4090734116149
 30
0.0
 11
92.6688090430493
 21
255.4090734116149
 31
0.0
  0
LINE
  5
19EF
330
1E
100
AcDbEntity
  8
STEMPEL
100
AcDbLine
 10
107.7688090430493
 20
262.4090734116149
 30
0.0
 11
103.7273571587219
 21
255.4090734116148
 31
0.0
  0
POINT
  5
19F0
330
1E
100
AcDbEntity
  8
DEFPOINTS
  6
ByBlock
 62
     0
100
AcDbPoint
 10
103.727357158722
 20
255.4090734116149
 30
0.0
  0
POINT
  5
19F1
330
1E
100
AcDbEntity
  8
DEFPOINTS
  6
ByBlock
 62
     0
100
AcDbPoint
 10
92.6688090430493
 20
253.4090734116149
 30
0.0
  0
POINT
  5
19F2
330
1E
100
AcDbEntity
  8
DEFPOINTS
  6
ByBlock
 62
     0
100
AcDbPoint
 10
92.6688090430493
 20
255.4090734116149
 30
0.0
  0
LINE
  5
1A1E
330
1E
100
AcDbEntity
  8
BEM
100
AcDbLine
 10
386.9018535257909
 20
477.7421178943561
 30
0.0
 11
392.5779377568475
 21
483.4182021254126
 31
0.0
  0
LINE
  5
1A1F
330
1E
100
AcDbEntity
  8
BEM
100
AcDbLine
 10
194.5688090430493
 20
567.409073411615
 30
0.0
 11
194.5688090430494
 21
573.0541918116968
 31
0.0
  0
ARC
  5
1A20
330
1E
100
AcDbEntity
  8
BEM
100
AcDbCircle
 10
194.5688090430493
 20
285.4090734116149
 30
0.0
 40
326.0545266248976
100
AcDbArc
 50
46.23009535713086
 51
88.76990464286906
  0
SOLID
  5
1A21
330
1E
100
AcDbEntity
  8
BEM
100
AcDbTrace
 10
420.9376359477663
 20
521.6945357480394
 30
0.0
 11
419.3055260433327
 21
520.0270041278611
 31
0.0
 12
425.1241758560842
 22
515.9644402246495
 32
0.0
 13
425.1241758560842
 23
515.9644402246495
 33
0.0
  0
SOLID
  5
1A22
330
1E
100
AcDbEntity
  8
BEM
100
AcDbTrace
 10
201.5558822679606
 20
610.2218597815307
 30
0.0
 11
201.580929203365
 21
612.5550586790684
 31
0.0
 12
194.5688090430495
 22
611.4636000365126
 32
0.0
 13
194.5688090430495
 23
611.4636000365126
 33
0.0
  0
MTEXT
  5
1A23
330
1E
100
AcDbEntity
  8
BEM
 62
     1
100
AcDbMText
 10
321.831916740413
 20
592.6493940043375
 30
0.0
 40
7.0
 41
0.0
 71
     5
 72
     1
  1
\A1;45°
 11
0.9238795325112864
 21
-0.3826834323650904
 31
0.0
 73
     1
 44
1.0
  0
LINE
  5
1A24
330
1E
100
AcDbEntity
  8
BEM
100
AcDbLine
 10
194.5688090430495
 20
591.0046965451187
 30
0.0
 11
194.5688090430496
 21
613.4636000365126
 31
0.0
  0
LINE
  5
1A25
330
1E
100
AcDbEntity
  8
BEM
100
AcDbLine
 10
406.6063193503308
 20
497.4465837188961
 30
0.0
 11
426.5383894184574
 21
517.3786537870227
 31
0.0
  0
ENDSEC
  0
SECTION
  2
OBJECTS
  0
DICTIONARY
  5
C
330
0
100
AcDbDictionary
281
     1
  3
ACAD_COLOR
350
11A
  3
ACAD_GROUP
350
D
  3
ACAD_LAYOUT
350
19
  3
ACAD_MATERIAL
350
119
  3
ACAD_MLINESTYLE
350
16
  3
ACAD_PLOTSETTINGS
350
18
  3
ACAD_PLOTSTYLENAME
350
E
  3
AcDbVariableDictionary
350
125
  0
DICTIONARY
  5
DB
330
1E
100
AcDbDictionary
280
     1
281
     1
  3
ACAD_LAYOUTSELFREF
360
10F
  0
DICTIONARY
  5
DD
330
1A
100
AcDbDictionary
280
     1
281
     1
  3
ACAD_LAYOUTSELFREF
360
10E
  0
DICTIONARY
  5
11A
102
{ACAD_REACTORS
330
C
102
}
330
C
100
AcDbDictionary
281
     1
  0
DICTIONARY
  5
D
102
{ACAD_REACTORS
330
C
102
}
330
C
100
AcDbDictionary
281
     1
  0
DICTIONARY
  5
19
102
{ACAD_REACTORS
330
C
102
}
330
C
100
AcDbDictionary
281
     1
  3
Layout1
350
1D
  3
Model
350
21
  0
DICTIONARY
  5
119
102
{ACAD_REACTORS
330
C
102
}
330
C
100
AcDbDictionary
281
     1
  0
DICTIONARY
  5
16
102
{ACAD_REACTORS
330
C
102
}
330
C
100
AcDbDictionary
281
     1
  3
Standard
350
17
  0
DICTIONARY
  5
18
102
{ACAD_REACTORS
330
C
102
}
330
C
100
AcDbDictionary
281
     1
  0
ACDBDICTIONARYWDFLT
  5
E
102
{ACAD_REACTORS
330
C
102
}
330
C
100
AcDbDictionary
281
     1
  3
Normal
350
F
100
AcDbDictionaryWithDefault
340
F
  0
DICTIONARY
  5
125
102
{ACAD_REACTORS
330
C
102
}
330
C
100
AcDbDictionary
281
     1
  3
DIMASSOC
350
126
  3
PROJECTNAME
350
127
  0
XRECORD
  5
10F
102
{ACAD_REACTORS
330
DB
102
}
330
DB
100
AcDbXrecord
280
     1
340
1E
  0
XRECORD
  5
10E
102
{ACAD_REACTORS
330
DD
102
}
330
DD
100
AcDbXrecord
280
     1
340
1A
  0
LAYOUT
  5
1D
102
{ACAD_REACTORS
330
19
102
}
330
19
100
AcDbPlotSettings
  1

  2
\\NT_WORK01\HP LaserJet 5000 PCL 6
  4

  6

 40
0.0
 41
0.0
 42
0.0
 43
0.0
 44
0.0
 45
0.0
 46
0.0
 47
0.0
 48
0.0
 49
0.0
140
0.0
141
0.0
142
1.0
143
1.0
 70
   688
 72
     0
 73
     0
 74
     5
  7

 75
    16
147
1.0
 76
     0
 77
     2
 78
   300
148
0.0
149
0.0
100
AcDbLayout
  1
Layout1
 70
     0
 71
     1
 10
0.0
 20
0.0
 11
12.0
 21
9.0
 12
0.0
 22
0.0
 32
0.0
 14
1.000000000000000E+20
 24
1.000000000000000E+20
 34
1.000000000000000E+20
 15
-1.000000000000000E+20
 25
-1.000000000000000E+20
 35
-1.000000000000000E+20
146
0.0
 13
0.0
 23
0.0
 33
0.0
 16
1.0
 26
0.0
 36
0.0
 17
0.0
 27
1.0
 37
0.0
 76
     0
330
1A
  0
LAYOUT
  5
21
102
{ACAD_REACTORS
330
19
102
}
330
19
100
AcDbPlotSettings
  1

  2
none_device
  4
Letter_(8.50_x_11.00_Inches)
  6

 40
6.349999904632568
 41
6.349999904632568
 42
6.350006103515625
 43
6.350006103515625
 44
215.8999938964844
 45
279.3999938964844
 46
0.0
 47
0.0
 48
0.0
 49
0.0
140
0.0
141
0.0
142
1.0
143
1.0
 70
 11952
 72
     0
 73
     1
 74
     0
  7

 75
     0
147
1.0
 76
     0
 77
     2
 78
   300
148
3232.979308760778
149
108.7792942125838
100
AcDbLayout
  1
Model
 70
     1
 71
     0
 10
0.0
 20
0.0
 11
12.0
 21
9.0
 12
0.0
 22
0.0
 32
0.0
 14
0.0
 24
0.0
 34
0.0
 15
0.0
 25
0.0
 35
0.0
146
0.0
 13
0.0
 23
0.0
 33
0.0
 16
1.0
 26
0.0
 36
0.0
 17
0.0
 27
1.0
 37
0.0
 76
     0
330
1E
  0
MLINESTYLE
  5
17
102
{ACAD_REACTORS
330
16
102
}
330
16
100
AcDbMlineStyle
  2
STANDARD
 70
     0
  3

 62
   256
 51
90.0
 52
90.0
 71
     2
 49
0.5
 62
   256
  6
BYLAYER
 49
-0.5
 62
   256
  6
BYLAYER
  0
ACDBPLACEHOLDER
  5
F
102
{ACAD_REACTORS
330
E
102
}
330
E
  0
DICTIONARYVAR
  5
126
102
{ACAD_REACTORS
330
125
102
}
330
125
100
DictionaryVariables
280
     0
  1
1
  0
DICTIONARYVAR
  5
127
102
{ACAD_REACTORS
330
125
102
}
330
125
100
DictionaryVariables
280
     0
  1

  0
ENDSEC
  0
EOF
