  0
SECTION
  2
HEADER
  9
$ACADVER
  1
AC1018
  9
$ACADMAINTVER
 70
     2
  9
$DWGCODEPAGE
  3
ANSI_1252
  9
$INSBASE
 10
0.0
 20
0.0
 30
0.0
  9
$EXTMIN
 10
-0.0090573584943741
 20
-0.0128083857496222
 30
-0.0000000000112498
  9
$EXTMAX
 10
594.0090656570853
 20
840.0128201211312
 30
0.0000000000002956
  9
$LIMMIN
 10
0.0
 20
0.0
  9
$LIMMAX
 10
594.0
 20
840.0
  9
$ORTHOMODE
 70
     1
  9
$REGENMODE
 70
     1
  9
$FILLMODE
 70
     1
  9
$QTEXTMODE
 70
     0
  9
$MIRRTEXT
 70
     1
  9
$LTSCALE
 40
20.0
  9
$ATTMODE
 70
     1
  9
$TEXTSIZE
 40
3.5
  9
$TRACEWID
 40
1.0
  9
$TEXTSTYLE
  7
STANDARD
  9
$CLAYER
  8
BEM
  9
$CELTYPE
  6
ByLayer
  9
$CECOLOR
 62
   256
  9
$CELTSCALE
 40
1.0
  9
$DISPSILH
 70
     0
  9
$DIMSCALE
 40
2.0
  9
$DIMASZ
 40
3.5
  9
$DIMEXO
 40
1.0
  9
$DIMDLI
 40
7.0
  9
$DIMRND
 40
0.0
  9
$DIMDLE
 40
0.0
  9
$DIMEXE
 40
1.0
  9
$DIMTP
 40
0.0
  9
$DIMTM
 40
0.0
  9
$DIMTXT
 40
3.5
  9
$DIMCEN
 40
1.5
  9
$DIMTSZ
 40
0.0
  9
$DIMTOL
 70
     0
  9
$DIMLIM
 70
     0
  9
$DIMTIH
 70
     0
  9
$DIMTOH
 70
     0
  9
$DIMSE1
 70
     0
  9
$DIMSE2
 70
     0
  9
$DIMTAD
 70
     1
  9
$DIMZIN
 70
     8
  9
$DIMBLK
  1

  9
$DIMASO
 70
     1
  9
$DIMSHO
 70
     0
  9
$DIMPOST
  1

  9
$DIMAPOST
  1

  9
$DIMALT
 70
     0
  9
$DIMALTD
 70
     2
  9
$DIMALTF
 40
25.4
  9
$DIMLFAC
 40
1.0
  9
$DIMTOFL
 70
     1
  9
$DIMTVP
 40
0.0
  9
$DIMTIX
 70
     0
  9
$DIMSOXD
 70
     0
  9
$DIMSAH
 70
     0
  9
$DIMBLK1
  1

  9
$DIMBLK2
  1

  9
$DIMSTYLE
  2
Standard
  9
$DIMCLRD
 70
     0
  9
$DIMCLRE
 70
     0
  9
$DIMCLRT
 70
     1
  9
$DIMTFAC
 40
0.5142857142857144
  9
$DIMGAP
 40
1.5
  9
$DIMJUST
 70
     0
  9
$DIMSD1
 70
     0
  9
$DIMSD2
 70
     0
  9
$DIMTOLJ
 70
     1
  9
$DIMTZIN
 70
     8
  9
$DIMALTZ
 70
     8
  9
$DIMALTTZ
 70
     8
  9
$DIMUPT
 70
     0
  9
$DIMDEC
 70
     2
  9
$DIMTDEC
 70
     2
  9
$DIMALTU
 70
     2
  9
$DIMALTTD
 70
     2
  9
$DIMTXSTY
  7
STANDARD
  9
$DIMAUNIT
 70
     0
  9
$DIMADEC
 70
     2
  9
$DIMALTRND
 40
0.0
  9
$DIMAZIN
 70
     2
  9
$DIMDSEP
 70
    46
  9
$DIMATFIT
 70
     3
  9
$DIMFRAC
 70
     0
  9
$DIMLDRBLK
  1

  9
$DIMLUNIT
 70
     2
  9
$DIMLWD
 70
    -2
  9
$DIMLWE
 70
    -2
  9
$DIMTMOVE
 70
     0
  9
$LUNITS
 70
     2
  9
$LUPREC
 70
     2
  9
$SKETCHINC
 40
1.0
  9
$FILLETRAD
 40
0.0
  9
$AUNITS
 70
     0
  9
$AUPREC
 70
     0
  9
$MENU
  1
ACAD
  9
$ELEVATION
 40
0.0
  9
$PELEVATION
 40
0.0
  9
$THICKNESS
 40
0.0
  9
$LIMCHECK
 70
     0
  9
$CHAMFERA
 40
0.0
  9
$CHAMFERB
 40
0.0
  9
$CHAMFERC
 40
0.0
  9
$CHAMFERD
 40
0.0
  9
$SKPOLY
 70
     0
  9
$TDCREATE
 40
2455397.825393172
  9
$TDUCREATE
 40
2455397.783726505
  9
$TDUPDATE
 40
2455532.495448322
  9
$TDUUPDATE
 40
2455532.453781655
  9
$TDINDWG
 40
0.1346975810
  9
$TDUSRTIMER
 40
0.1346975810
  9
$USRTIMER
 70
     1
  9
$ANGBASE
 50
0.0
  9
$ANGDIR
 70
     0
  9
$PDMODE
 70
     0
  9
$PDSIZE
 40
0.0
  9
$PLINEWID
 40
0.0
  9
$SPLFRAME
 70
     0
  9
$SPLINETYPE
 70
     6
  9
$SPLINESEGS
 70
     8
  9
$HANDSEED
  5
137A
  9
$SURFTAB1
 70
     6
  9
$SURFTAB2
 70
     6
  9
$SURFTYPE
 70
     6
  9
$SURFU
 70
     6
  9
$SURFV
 70
     6
  9
$UCSBASE
  2

  9
$UCSNAME
  2

  9
$UCSORG
 10
0.0
 20
0.0
 30
0.0
  9
$UCSXDIR
 10
1.0
 20
0.0
 30
0.0
  9
$UCSYDIR
 10
0.0
 20
1.0
 30
0.0
  9
$UCSORTHOREF
  2

  9
$UCSORTHOVIEW
 70
     0
  9
$UCSORGTOP
 10
0.0
 20
0.0
 30
0.0
  9
$UCSORGBOTTOM
 10
0.0
 20
0.0
 30
0.0
  9
$UCSORGLEFT
 10
0.0
 20
0.0
 30
0.0
  9
$UCSORGRIGHT
 10
0.0
 20
0.0
 30
0.0
  9
$UCSORGFRONT
 10
0.0
 20
0.0
 30
0.0
  9
$UCSORGBACK
 10
0.0
 20
0.0
 30
0.0
  9
$PUCSBASE
  2

  9
$PUCSNAME
  2

  9
$PUCSORG
 10
0.0
 20
0.0
 30
0.0
  9
$PUCSXDIR
 10
1.0
 20
0.0
 30
0.0
  9
$PUCSYDIR
 10
0.0
 20
1.0
 30
0.0
  9
$PUCSORTHOREF
  2

  9
$PUCSORTHOVIEW
 70
     0
  9
$PUCSORGTOP
 10
0.0
 20
0.0
 30
0.0
  9
$PUCSORGBOTTOM
 10
0.0
 20
0.0
 30
0.0
  9
$PUCSORGLEFT
 10
0.0
 20
0.0
 30
0.0
  9
$PUCSORGRIGHT
 10
0.0
 20
0.0
 30
0.0
  9
$PUCSORGFRONT
 10
0.0
 20
0.0
 30
0.0
  9
$PUCSORGBACK
 10
0.0
 20
0.0
 30
0.0
  9
$USERI1
 70
     0
  9
$USERI2
 70
     0
  9
$USERI3
 70
     0
  9
$USERI4
 70
     0
  9
$USERI5
 70
     0
  9
$USERR1
 40
0.0
  9
$USERR2
 40
0.0
  9
$USERR3
 40
0.0
  9
$USERR4
 40
0.0
  9
$USERR5
 40
0.0
  9
$WORLDVIEW
 70
     1
  9
$SHADEDGE
 70
     3
  9
$SHADEDIF
 70
    70
  9
$TILEMODE
 70
     1
  9
$MAXACTVP
 70
    16
  9
$PINSBASE
 10
0.0
 20
0.0
 30
0.0
  9
$PLIMCHECK
 70
     0
  9
$PEXTMIN
 10
1.000000000000000E+20
 20
1.000000000000000E+20
 30
1.000000000000000E+20
  9
$PEXTMAX
 10
-1.000000000000000E+20
 20
-1.000000000000000E+20
 30
-1.000000000000000E+20
  9
$PLIMMIN
 10
0.0
 20
0.0
  9
$PLIMMAX
 10
12.0
 20
9.0
  9
$UNITMODE
 70
     0
  9
$VISRETAIN
 70
     0
  9
$PLINEGEN
 70
     0
  9
$PSLTSCALE
 70
     0
  9
$TREEDEPTH
 70
  3020
  9
$CMLSTYLE
  2
Standard
  9
$CMLJUST
 70
     0
  9
$CMLSCALE
 40
1.0
  9
$PROXYGRAPHICS
 70
     1
  9
$MEASUREMENT
 70
     0
  9
$CELWEIGHT
370
    -1
  9
$ENDCAPS
280
     0
  9
$JOINSTYLE
280
     0
  9
$LWDISPLAY
290
     0
  9
$INSUNITS
 70
     0
  9
$HYPERLINKBASE
  1

  9
$STYLESHEET
  1
monochrome 1.ctb
  9
$XEDIT
290
     1
  9
$CEPSNTYPE
380
     0
  9
$PSTYLEMODE
290
     1
  9
$FINGERPRINTGUID
  2
{D68B0D0D-A558-11D7-B632-000102183313}
  9
$VERSIONGUID
  2
{9F5DAA1B-0537-4387-8B8B-3CD5DE6DFD62}
  9
$EXTNAMES
290
     1
  9
$PSVPSCALE
 40
0.0
  9
$OLESTARTUP
290
     0
  9
$SORTENTS
280
   127
  9
$INDEXCTL
280
     0
  9
$HIDETEXT
280
     0
  9
$XCLIPFRAME
290
     0
  9
$HALOGAP
280
     0
  9
$OBSCOLOR
 70
   257
  9
$OBSLTYPE
280
     0
  9
$INTERSECTIONDISPLAY
280
     0
  9
$INTERSECTIONCOLOR
 70
   257
  9
$DIMASSOC
280
     1
  9
$PROJECTNAME
  1

  0
ENDSEC
  0
SECTION
  2
CLASSES
  0
CLASS
  1
ACDBDICTIONARYWDFLT
  2
AcDbDictionaryWithDefault
  3
ObjectDBX Classes
 90
        0
 91
        1
280
     0
281
     0
  0
CLASS
  1
DICTIONARYVAR
  2
AcDbDictionaryVar
  3
ObjectDBX Classes
 90
        0
 91
        2
280
     0
281
     0
  0
ENDSEC
  0
SECTION
  2
TABLES
  0
TABLE
  2
VPORT
  5
8
330
0
100
AcDbSymbolTable
 70
     2
  0
VPORT
  5
1379
330
8
100
AcDbSymbolTableRecord
100
AcDbViewportTableRecord
  2
*Active
 70
     0
 10
0.0
 20
0.0
 11
1.0
 21
1.0
 12
297.0000041492954
 22
420.0000058676908
 13
0.0
 23
0.0
 14
1.0
 24
1.0
 15
10.0
 25
10.0
 16
0.0
 26
0.0
 36
1.0
 17
0.0
 27
0.0
 37
0.0
 40
846.8091463683093
 41
1.336927223719676
 42
50.0
 43
0.0
 44
0.0
 50
0.0
 51
0.0
 71
     0
 72
  1500
 73
     1
 74
     0
 75
     0
 76
     0
 77
     0
 78
     0
281
     0
 65
     1
110
0.0
120
0.0
130
0.0
111
1.0
121
0.0
131
0.0
112
0.0
122
1.0
132
0.0
 79
     0
146
0.0
  0
ENDTAB
  0
TABLE
  2
LTYPE
  5
5
330
0
100
AcDbSymbolTable
 70
     2
  0
LTYPE
  5
13
330
5
100
AcDbSymbolTableRecord
100
AcDbLinetypeTableRecord
  2
ByBlock
 70
     0
  3

 72
    65
 73
     0
 40
0.0
  0
LTYPE
  5
14
330
5
100
AcDbSymbolTableRecord
100
AcDbLinetypeTableRecord
  2
ByLayer
 70
     0
  3

 72
    65
 73
     0
 40
0.0
  0
LTYPE
  5
15
330
5
100
AcDbSymbolTableRecord
100
AcDbLinetypeTableRecord
  2
Continuous
 70
     0
  3
Solid line
 72
    65
 73
     0
 40
0.0
  0
LTYPE
  5
25
330
5
100
AcDbSymbolTableRecord
100
AcDbLinetypeTableRecord
  2
STRICHPUNKT
 70
     0
  3
__ . __ . __ . __ . __ . __ . __ . __ . __ . __
 72
    65
 73
     4
 40
1.0
 49
0.5
 74
     0
 49
-0.25
 74
     0
 49
0.0
 74
     0
 49
-0.25
 74
     0
  0
ENDTAB
  0
TABLE
  2
LAYER
  5
2
330
0
100
AcDbSymbolTable
 70
     9
  0
LAYER
  5
10
330
2
100
AcDbSymbolTableRecord
100
AcDbLayerTableRecord
  2
0
 70
     0
 62
     7
  6
Continuous
370
    -3
390
F
  0
LAYER
  5
2B
330
2
100
AcDbSymbolTableRecord
100
AcDbLayerTableRecord
  2
VOLL
 70
     0
 62
     1
  6
Continuous
370
    -3
390
F
  0
LAYER
  5
2C
330
2
100
AcDbSymbolTableRecord
100
AcDbLayerTableRecord
  2
HILF
 70
     0
 62
     2
  6
Continuous
370
    -3
390
F
  0
LAYER
  5
2D
330
2
100
AcDbSymbolTableRecord
100
AcDbLayerTableRecord
  2
MITTEL
 70
     0
 62
     2
  6
STRICHPUNKT
370
    -3
390
F
  0
LAYER
  5
2F
330
2
100
AcDbSymbolTableRecord
100
AcDbLayerTableRecord
  2
BEM
 70
     0
 62
     7
  6
Continuous
370
    -3
390
F
  0
LAYER
  5
30
330
2
100
AcDbSymbolTableRecord
100
AcDbLayerTableRecord
  2
STEMPEL
 70
     0
 62
     3
  6
Continuous
370
    -3
390
F
  0
LAYER
  5
33
330
2
100
AcDbSymbolTableRecord
100
AcDbLayerTableRecord
  2
TEXT
 70
     0
 62
     7
  6
Continuous
370
    -3
390
F
  0
LAYER
  5
184
330
2
100
AcDbSymbolTableRecord
100
AcDbLayerTableRecord
  2
SCHRAFF
 70
     0
 62
     7
  6
Continuous
370
    -3
390
F
  0
LAYER
  5
306
330
2
100
AcDbSymbolTableRecord
100
AcDbLayerTableRecord
  2
DEFPOINTS
 70
     0
 62
     7
  6
Continuous
290
     0
370
    -3
390
F
  0
ENDTAB
  0
TABLE
  2
STYLE
  5
3
330
0
100
AcDbSymbolTable
 70
     2
  0
STYLE
  5
11
330
3
100
AcDbSymbolTableRecord
100
AcDbTextStyleTableRecord
  2
STANDARD
 70
     0
 40
0.0
 41
0.8
 50
0.0
 71
     0
 42
3.5
  3
simplex.shx
  4

  0
STYLE
  5
24
330
3
100
AcDbSymbolTableRecord
100
AcDbTextStyleTableRecord
  2
GREEKS
 70
     0
 40
0.0
 41
0.8
 50
0.0
 71
     0
 42
2.5
  3
SIMPLEX.shx
  4

  0
ENDTAB
  0
TABLE
  2
VIEW
  5
6
330
0
100
AcDbSymbolTable
 70
     0
  0
ENDTAB
  0
TABLE
  2
UCS
  5
7
330
0
100
AcDbSymbolTable
 70
     0
  0
ENDTAB
  0
TABLE
  2
APPID
  5
9
330
0
100
AcDbSymbolTable
 70
     1
  0
APPID
  5
12
330
9
100
AcDbSymbolTableRecord
100
AcDbRegAppTableRecord
  2
ACAD
 70
     0
  0
ENDTAB
  0
TABLE
  2
DIMSTYLE
  5
A
330
0
100
AcDbSymbolTable
 70
     1
100
AcDbDimStyleTable
 71
     1
340
A2
  0
DIMSTYLE
105
A2
102
{ACAD_REACTORS
330
83E
330
844
330
979
330
CE9
330
CF6
330
EAC
330
ED4
102
}
330
A
100
AcDbSymbolTableRecord
100
AcDbDimStyleTableRecord
  2
Standard
 70
     0
340
11
  0
ENDTAB
  0
TABLE
  2
BLOCK_RECORD
  5
1
330
0
100
AcDbSymbolTable
 70
     8
  0
BLOCK_RECORD
  5
1E
102
{ACAD_XDICTIONARY
360
DB
102
}
330
1
100
AcDbSymbolTableRecord
100
AcDbBlockTableRecord
  2
*Model_Space
340
21
  0
BLOCK_RECORD
  5
1A
102
{ACAD_XDICTIONARY
360
DD
102
}
330
1
100
AcDbSymbolTableRecord
100
AcDbBlockTableRecord
  2
*Paper_Space
340
1D
  0
BLOCK_RECORD
  5
22
330
1
100
AcDbSymbolTableRecord
100
AcDbBlockTableRecord
  2
LOGO
340
0
102
{BLKREFS
331
2AF
102
}
  0
BLOCK_RECORD
  5
8A4
330
1
100
AcDbSymbolTableRecord
100
AcDbBlockTableRecord
  2
*D1
340
0
  0
BLOCK_RECORD
  5
8B0
330
1
100
AcDbSymbolTableRecord
100
AcDbBlockTableRecord
  2
*D2
340
0
  0
BLOCK_RECORD
  5
994
330
1
100
AcDbSymbolTableRecord
100
AcDbBlockTableRecord
  2
*D3
340
0
  0
BLOCK_RECORD
  5
CEA
330
1
100
AcDbSymbolTableRecord
100
AcDbBlockTableRecord
  2
*D4
340
0
  0
BLOCK_RECORD
  5
CF7
330
1
100
AcDbSymbolTableRecord
100
AcDbBlockTableRecord
  2
*D5
340
0
  0
BLOCK_RECORD
  5
EDB
330
1
100
AcDbSymbolTableRecord
100
AcDbBlockTableRecord
  2
*D6
340
0
  0
BLOCK_RECORD
  5
F0D
330
1
100
AcDbSymbolTableRecord
100
AcDbBlockTableRecord
  2
*D7
340
0
  0
ENDTAB
  0
ENDSEC
  0
SECTION
  2
BLOCKS
  0
BLOCK
  5
37
330
1E
100
AcDbEntity
  8
0
100
AcDbBlockBegin
  2
*Model_Space
 70
     0
 10
0.0
 20
0.0
 30
0.0
  3
*Model_Space
  1

  0
ENDBLK
  5
38
330
1E
100
AcDbEntity
  8
0
100
AcDbBlockEnd
  0
BLOCK
  5
35
330
1A
100
AcDbEntity
 67
     1
  8
0
100
AcDbBlockBegin
  2
*Paper_Space
 70
     0
 10
0.0
 20
0.0
 30
0.0
  3
*Paper_Space
  1

  0
ENDBLK
  5
36
330
1A
100
AcDbEntity
 67
     1
  8
0
100
AcDbBlockEnd
  0
BLOCK
  5
39
330
22
100
AcDbEntity
  8
0
100
AcDbBlockBegin
  2
LOGO
 70
     0
 10
0.0
 20
0.0
 30
0.0
  3
LOGO
  1

  0
ARC
  5
3A
330
22
100
AcDbEntity
  8
0
100
AcDbCircle
 10
11.59973089678112
 20
-9.271599258481501
 30
0.0
 40
4.5
100
AcDbArc
 50
270.0
 51
231.0575587310159
  0
LINE
  5
3B
330
22
100
AcDbEntity
  8
0
100
AcDbLine
 10
3.599730896781125
 20
-4.771599258481529
 30
0.0
 11
3.599730896781153
 21
-11.77159925848133
 31
0.0
  0
LINE
  5
3C
330
22
100
AcDbEntity
  8
0
100
AcDbLine
 10
2.599730896781125
 20
-4.771599258481529
 30
0.0
 11
2.599730896781153
 21
-11.77159925848133
 31
0.0
  0
CIRCLE
  5
3D
330
22
100
AcDbEntity
  8
0
100
AcDbCircle
 10
11.59973089678112
 20
-9.271599258481501
 30
0.0
 40
3.5
  0
ARC
  5
3E
330
22
100
AcDbEntity
  8
0
100
AcDbCircle
 10
31.59973089678115
 20
-9.271599258481472
 30
0.0
 40
4.5
100
AcDbArc
 50
270.0
 51
231.0575587310182
  0
LINE
  5
3F
330
22
100
AcDbEntity
  8
0
100
AcDbLine
 10
17.59973089678112
 20
-4.771599258481472
 30
0.0
 11
17.59973089678115
 21
-13.77159925848147
 31
0.0
  0
ARC
  5
40
330
22
100
AcDbEntity
  8
0
100
AcDbCircle
 10
22.59973089678116
 20
-7.271599258481472
 30
0.0
 40
2.5
100
AcDbArc
 50
293.1161887722295
 51
90.0
  0
CIRCLE
  5
41
330
22
100
AcDbEntity
  8
0
100
AcDbCircle
 10
31.59973089678115
 20
-9.271599258481472
 30
0.0
 40
3.5
  0
ARC
  5
42
330
22
100
AcDbEntity
  8
0
100
AcDbCircle
 10
4.599730896781153
 20
-11.77159925848133
 30
0.0
 40
1.0
100
AcDbArc
 50
180.0
 51
270.0
  0
ARC
  5
43
330
22
100
AcDbEntity
  8
0
100
AcDbCircle
 10
4.599730896781153
 20
-11.77159925848133
 30
0.0
 40
2.0
100
AcDbArc
 50
179.9999999999992
 51
270.0
  0
LINE
  5
44
330
22
100
AcDbEntity
  8
0
100
AcDbLine
 10
11.59973089678115
 20
-13.77159925848144
 30
0.0
 11
4.599730896781153
 21
-13.77159925848147
 31
0.0
  0
LINE
  5
45
330
22
100
AcDbEntity
  8
0
100
AcDbLine
 10
8.771303772034769
 20
-12.77159925848136
 30
0.0
 11
4.599730896781153
 21
-12.77159925848133
 31
0.0
  0
LINE
  5
46
330
22
100
AcDbEntity
  8
0
100
AcDbLine
 10
31.59973089678115
 20
-13.77159925848147
 30
0.0
 11
23.6715276665056
 21
-13.77159925848144
 31
0.0
  0
LINE
  5
47
330
22
100
AcDbEntity
  8
0
100
AcDbLine
 10
23.56565672307022
 20
-9.51278021337896
 30
0.0
 11
24.4388546544846
 21
-12.77159925848144
 31
0.0
  0
LINE
  5
48
330
22
100
AcDbEntity
  8
0
100
AcDbLine
 10
22.59973089678116
 20
-9.771599258481472
 30
0.0
 11
18.59973089678112
 21
-9.771599258481472
 31
0.0
  0
LINE
  5
49
330
22
100
AcDbEntity
  8
0
100
AcDbLine
 10
18.59973089678115
 20
-13.77159925848144
 30
0.0
 11
17.59973089678115
 21
-13.77159925848144
 31
0.0
  0
LINE
  5
4A
330
22
100
AcDbEntity
  8
0
100
AcDbLine
 10
18.59973089678115
 20
-9.771599258481472
 30
0.0
 11
18.59973089678115
 21
-13.77159925848144
 31
0.0
  0
LINE
  5
4B
330
22
100
AcDbEntity
  8
0
100
AcDbLine
 10
22.59973089678116
 20
-9.771599258481472
 30
0.0
 11
23.67152766650562
 21
-13.77159925848147
 31
0.0
  0
ARC
  5
4C
330
22
100
AcDbEntity
  8
0
100
AcDbCircle
 10
22.59973089678116
 20
-7.271599258481472
 30
0.0
 40
2.5
100
AcDbArc
 50
270.0
 51
270.0000000000007
  0
LINE
  5
4D
330
22
100
AcDbEntity
  8
0
100
AcDbLine
 10
28.77130377203494
 20
-12.77159925848147
 30
0.0
 11
24.43885465448463
 21
-12.77159925848144
 31
0.0
  0
LINE
  5
4E
330
22
100
AcDbEntity
  8
0
100
AcDbLine
 10
3.599730896781125
 20
-4.771599258481472
 30
0.0
 11
2.599730896781125
 21
-4.771599258481472
 31
0.0
  0
LINE
  5
4F
330
22
100
AcDbEntity
  8
0
100
AcDbLine
 10
22.59973089678116
 20
-8.771599258481472
 30
0.0
 11
18.59973089678115
 21
-8.771599258481472
 31
0.0
  0
LINE
  5
50
330
22
100
AcDbEntity
  8
0
100
AcDbLine
 10
22.59973089678116
 20
-5.771599258481472
 30
0.0
 11
18.59973089678115
 21
-5.771599258481472
 31
0.0
  0
LINE
  5
51
330
22
100
AcDbEntity
  8
0
100
AcDbLine
 10
22.59973089678116
 20
-4.771599258481472
 30
0.0
 11
17.59973089678115
 21
-4.771599258481472
 31
0.0
  0
LINE
  5
52
330
22
100
AcDbEntity
  8
0
100
AcDbLine
 10
18.59973089678115
 20
-5.771599258481472
 30
0.0
 11
18.59973089678115
 21
-8.771599258481472
 31
0.0
  0
ARC
  5
53
330
22
100
AcDbEntity
  8
0
100
AcDbCircle
 10
22.59973089678116
 20
-7.271599258481472
 30
0.0
 40
1.5
100
AcDbArc
 50
270.0
 51
90.0
  0
ENDBLK
  5
54
330
22
100
AcDbEntity
  8
0
100
AcDbBlockEnd
  0
BLOCK
  5
8AE
330
8A4
100
AcDbEntity
  8
0
100
AcDbBlockBegin
  2
*D1
 70
     1
 10
0.0
 20
0.0
 30
0.0
  3
*D1
  1

  0
LINE
  5
1366
330
8A4
100
AcDbEntity
  8
BEM
 62
     0
370
    -2
100
AcDbLine
 10
126.1314004479801
 20
212.9253553238523
 30
0.0
 11
75.94149384094547
 21
212.9253553238523
 31
0.0
  0
LINE
  5
1367
330
8A4
100
AcDbEntity
  8
BEM
 62
     0
370
    -2
100
AcDbLine
 10
191.9410407336312
 20
317.9253553238524
 30
0.0
 11
75.94149384094549
 21
317.9253553238524
 31
0.0
  0
LINE
  5
1368
330
8A4
100
AcDbEntity
  8
BEM
 62
     0
370
    -2
100
AcDbLine
 10
77.94149384094547
 20
219.9253553238523
 30
0.0
 11
77.94149384094549
 21
310.9253553238525
 31
0.0
  0
SOLID
  5
1369
330
8A4
100
AcDbEntity
  8
BEM
 62
     0
100
AcDbTrace
 10
76.7748271742788
 20
219.9253553238523
 30
0.0
 11
79.10816050761214
 21
219.9253553238523
 31
0.0
 12
77.94149384094547
 22
212.9253553238523
 32
0.0
 13
77.94149384094547
 23
212.9253553238523
 33
0.0
  0
SOLID
  5
136A
330
8A4
100
AcDbEntity
  8
BEM
 62
     0
100
AcDbTrace
 10
76.77482717427882
 20
310.9253553238525
 30
0.0
 11
79.10816050761217
 21
310.9253553238525
 31
0.0
 12
77.94149384094549
 22
317.9253553238524
 32
0.0
 13
77.94149384094549
 23
317.9253553238524
 33
0.0
  0
MTEXT
  5
136B
330
8A4
100
AcDbEntity
  8
BEM
 62
     1
100
AcDbMText
 10
71.44149384094544
 20
269.2308974635441
 30
0.0
 40
7.0
 41
0.0
 71
     5
 72
     1
  1
\A1;105
 11
0.0000000000000001
 21
1.0
 31
0.0
 73
     1
 44
1.0
  0
POINT
  5
136C
330
8A4
100
AcDbEntity
  8
DEFPOINTS
 62
     0
100
AcDbPoint
 10
128.1314004479801
 20
212.9253553238523
 30
0.0
  0
POINT
  5
136D
330
8A4
100
AcDbEntity
  8
DEFPOINTS
 62
     0
100
AcDbPoint
 10
193.9410407336312
 20
317.9253553238524
 30
0.0
  0
POINT
  5
136E
330
8A4
100
AcDbEntity
  8
DEFPOINTS
 62
     0
100
AcDbPoint
 10
77.94149384094549
 20
317.9253553238524
 30
0.0
  0
ENDBLK
  5
8AF
330
8A4
100
AcDbEntity
  8
0
100
AcDbBlockEnd
  0
BLOCK
  5
8BA
330
8B0
100
AcDbEntity
  8
0
100
AcDbBlockBegin
  2
*D2
 70
     1
 10
0.0
 20
0.0
 30
0.0
  3
*D2
  1

  0
LINE
  5
1279
330
8B0
100
AcDbEntity
  8
BEM
 62
     0
370
    -2
100
AcDbLine
 10
127.4410407336308
 20
218.8162029665846
 30
0.0
 11
127.4410407336308
 21
189.5722806264797
 31
0.0
  0
LINE
  5
127A
330
8B0
100
AcDbEntity
  8
BEM
 62
     0
370
    -2
100
AcDbLine
 10
260.4410407336311
 20
218.816202966581
 30
0.0
 11
260.4410407336311
 21
189.5722806264797
 31
0.0
  0
LINE
  5
127B
330
8B0
100
AcDbEntity
  8
BEM
 62
     0
370
    -2
100
AcDbLine
 10
134.4410407336309
 20
191.5722806264797
 30
0.0
 11
253.4410407336311
 21
191.5722806264797
 31
0.0
  0
SOLID
  5
127C
330
8B0
100
AcDbEntity
  8
BEM
 62
     0
100
AcDbTrace
 10
134.4410407336309
 20
192.7389472931464
 30
0.0
 11
134.4410407336309
 21
190.405613959813
 31
0.0
 12
127.4410407336308
 22
191.5722806264797
 32
0.0
 13
127.4410407336308
 23
191.5722806264797
 33
0.0
  0
SOLID
  5
127D
330
8B0
100
AcDbEntity
  8
BEM
 62
     0
100
AcDbTrace
 10
253.4410407336311
 20
192.7389472931464
 30
0.0
 11
253.4410407336311
 21
190.405613959813
 31
0.0
 12
260.4410407336311
 22
191.5722806264797
 32
0.0
 13
260.4410407336311
 23
191.5722806264797
 33
0.0
  0
MTEXT
  5
127E
330
8B0
100
AcDbEntity
  8
BEM
 62
     1
100
AcDbMText
 10
193.941040733631
 20
198.0722806264797
 30
0.0
 40
7.0
 41
0.0
 71
     5
 72
     1
  1
\A1;%%C133
 73
     1
 44
1.0
  0
POINT
  5
127F
330
8B0
100
AcDbEntity
  8
DEFPOINTS
 62
     0
100
AcDbPoint
 10
127.4410407336308
 20
220.8162029665846
 30
0.0
  0
POINT
  5
1280
330
8B0
100
AcDbEntity
  8
DEFPOINTS
 62
     0
100
AcDbPoint
 10
260.4410407336311
 20
220.816202966581
 30
0.0
  0
POINT
  5
1281
330
8B0
100
AcDbEntity
  8
DEFPOINTS
 62
     0
100
AcDbPoint
 10
260.4410407336311
 20
191.5722806264797
 30
0.0
  0
ENDBLK
  5
8BB
330
8B0
100
AcDbEntity
  8
0
100
AcDbBlockEnd
  0
BLOCK
  5
99E
330
994
100
AcDbEntity
  8
0
100
AcDbBlockBegin
  2
*D3
 70
     1
 10
0.0
 20
0.0
 30
0.0
  3
*D3
  1

  0
LINE
  5
12F5
330
994
100
AcDbEntity
  8
BEM
 62
     0
370
    -2
100
AcDbLine
 10
109.7910407336312
 20
579.9253553238522
 30
0.0
 11
109.7910407336312
 21
593.692582915796
 31
0.0
  0
LINE
  5
12F6
330
994
100
AcDbEntity
  8
BEM
 62
     0
370
    -2
100
AcDbLine
 10
278.0910407336313
 20
579.9253553238521
 30
0.0
 11
278.0910407336313
 21
593.692582915796
 31
0.0
  0
LINE
  5
12F7
330
994
100
AcDbEntity
  8
BEM
 62
     0
370
    -2
100
AcDbLine
 10
116.7910407336312
 20
591.692582915796
 30
0.0
 11
271.0910407336313
 21
591.692582915796
 31
0.0
  0
SOLID
  5
12F8
330
994
100
AcDbEntity
  8
BEM
 62
     0
100
AcDbTrace
 10
116.7910407336312
 20
592.8592495824626
 30
0.0
 11
116.7910407336312
 21
590.5259162491294
 31
0.0
 12
109.7910407336312
 22
591.692582915796
 32
0.0
 13
109.7910407336312
 23
591.692582915796
 33
0.0
  0
SOLID
  5
12F9
330
994
100
AcDbEntity
  8
BEM
 62
     0
100
AcDbTrace
 10
271.0910407336313
 20
592.8592495824626
 30
0.0
 11
271.0910407336313
 21
590.5259162491294
 31
0.0
 12
278.0910407336313
 22
591.692582915796
 32
0.0
 13
278.0910407336313
 23
591.692582915796
 33
0.0
  0
MTEXT
  5
12FA
330
994
100
AcDbEntity
  8
BEM
 62
     1
100
AcDbMText
 10
193.9410407336312
 20
598.192582915796
 30
0.0
 40
7.0
 41
0.0
 71
     5
 72
     1
  1
\A1;%%c168.3
  7
GREEKS
 73
     1
 44
1.0
  0
POINT
  5
12FB
330
994
100
AcDbEntity
  8
DEFPOINTS
 62
     0
100
AcDbPoint
 10
109.7910407336312
 20
577.9253553238523
 30
0.0
  0
POINT
  5
12FC
330
994
100
AcDbEntity
  8
DEFPOINTS
 62
     0
100
AcDbPoint
 10
278.0910407336313
 20
577.9253553238521
 30
0.0
  0
POINT
  5
12FD
330
994
100
AcDbEntity
  8
DEFPOINTS
 62
     0
100
AcDbPoint
 10
278.0910407336313
 20
591.692582915796
 30
0.0
  0
ENDBLK
  5
99F
330
994
100
AcDbEntity
  8
0
100
AcDbBlockEnd
  0
BLOCK
  5
CF4
330
CEA
100
AcDbEntity
  8
0
100
AcDbBlockBegin
  2
*D4
 70
     1
 10
0.0
 20
0.0
 30
0.0
  3
*D4
  1

  0
LINE
  5
1330
330
CEA
100
AcDbEntity
  8
BEM
 62
     0
370
    -2
100
AcDbLine
 10
107.7910407336313
 20
272.9253553238522
 30
0.0
 11
91.99582398702251
 21
272.9253553238522
 31
0.0
  0
LINE
  5
1331
330
CEA
100
AcDbEntity
  8
BEM
 62
     0
370
    -2
100
AcDbLine
 10
126.1314004479801
 20
212.9253553238523
 30
0.0
 11
91.99582398702249
 21
212.9253553238523
 31
0.0
  0
LINE
  5
1332
330
CEA
100
AcDbEntity
  8
BEM
 62
     0
370
    -2
100
AcDbLine
 10
93.9958239870225
 20
265.9253553238522
 30
0.0
 11
93.99582398702248
 21
219.9253553238523
 31
0.0
  0
SOLID
  5
1333
330
CEA
100
AcDbEntity
  8
BEM
 62
     0
100
AcDbTrace
 10
92.82915732035583
 20
265.9253553238522
 30
0.0
 11
95.16249065368917
 21
265.9253553238522
 31
0.0
 12
93.9958239870225
 22
272.9253553238522
 32
0.0
 13
93.9958239870225
 23
272.9253553238522
 33
0.0
  0
SOLID
  5
1334
330
CEA
100
AcDbEntity
  8
BEM
 62
     0
100
AcDbTrace
 10
92.82915732035581
 20
219.9253553238523
 30
0.0
 11
95.16249065368915
 21
219.9253553238523
 31
0.0
 12
93.99582398702248
 22
212.9253553238523
 32
0.0
 13
93.99582398702248
 23
212.9253553238523
 33
0.0
  0
MTEXT
  5
1335
330
CEA
100
AcDbEntity
  8
BEM
 62
     1
100
AcDbMText
 10
87.49582398702246
 20
242.9253553238523
 30
0.0
 40
7.0
 41
0.0
 71
     5
 72
     1
  1
\A1;60
 11
0.0000000000000001
 21
1.0
 31
0.0
 73
     1
 44
1.0
  0
POINT
  5
1336
330
CEA
100
AcDbEntity
  8
DEFPOINTS
 62
     0
100
AcDbPoint
 10
109.7910407336313
 20
272.9253553238522
 30
0.0
  0
POINT
  5
1337
330
CEA
100
AcDbEntity
  8
DEFPOINTS
 62
     0
100
AcDbPoint
 10
128.1314004479801
 20
212.9253553238523
 30
0.0
  0
POINT
  5
1338
330
CEA
100
AcDbEntity
  8
DEFPOINTS
 62
     0
100
AcDbPoint
 10
93.99582398702248
 20
212.9253553238523
 30
0.0
  0
ENDBLK
  5
CF5
330
CEA
100
AcDbEntity
  8
0
100
AcDbBlockEnd
  0
BLOCK
  5
D01
330
CF7
100
AcDbEntity
  8
0
100
AcDbBlockBegin
  2
*D5
 70
     1
 10
0.0
 20
0.0
 30
0.0
  3
*D5
  1

  0
LINE
  5
1342
330
CF7
100
AcDbEntity
  8
BEM
 62
     0
370
    -2
100
AcDbLine
 10
107.7910407336312
 20
577.9253553238524
 30
0.0
 11
59.83987644279304
 21
577.9253553238524
 31
0.0
  0
LINE
  5
1343
330
CF7
100
AcDbEntity
  8
BEM
 62
     0
370
    -2
100
AcDbLine
 10
126.1314004479801
 20
212.9253553238523
 30
0.0
 11
59.83987644279296
 21
212.9253553238523
 31
0.0
  0
LINE
  5
1344
330
CF7
100
AcDbEntity
  8
BEM
 62
     0
370
    -2
100
AcDbLine
 10
61.83987644279304
 20
570.9253553238523
 30
0.0
 11
61.83987644279296
 21
219.9253553238523
 31
0.0
  0
SOLID
  5
1345
330
CF7
100
AcDbEntity
  8
BEM
 62
     0
100
AcDbTrace
 10
60.67320977612638
 20
570.9253553238523
 30
0.0
 11
63.0065431094597
 21
570.9253553238523
 31
0.0
 12
61.83987644279304
 22
577.9253553238524
 32
0.0
 13
61.83987644279304
 23
577.9253553238524
 33
0.0
  0
SOLID
  5
1346
330
CF7
100
AcDbEntity
  8
BEM
 62
     0
100
AcDbTrace
 10
60.6732097761263
 20
219.9253553238523
 30
0.0
 11
63.00654310945962
 21
219.9253553238523
 31
0.0
 12
61.83987644279296
 22
212.9253553238523
 32
0.0
 13
61.83987644279296
 23
212.9253553238523
 33
0.0
  0
MTEXT
  5
1347
330
CF7
100
AcDbEntity
  8
BEM
 62
     1
100
AcDbMText
 10
55.33987644279293
 20
395.4253553238523
 30
0.0
 40
7.0
 41
0.0
 71
     5
 72
     1
  1
\A1;365
 11
0.0000000000000001
 21
1.0
 31
0.0
 73
     1
 44
1.0
  0
POINT
  5
1348
330
CF7
100
AcDbEntity
  8
DEFPOINTS
 62
     0
100
AcDbPoint
 10
109.7910407336312
 20
577.9253553238524
 30
0.0
  0
POINT
  5
1349
330
CF7
100
AcDbEntity
  8
DEFPOINTS
 62
     0
100
AcDbPoint
 10
128.1314004479801
 20
212.9253553238523
 30
0.0
  0
POINT
  5
134A
330
CF7
100
AcDbEntity
  8
DEFPOINTS
 62
     0
100
AcDbPoint
 10
61.83987644279296
 20
212.9253553238523
 30
0.0
  0
ENDBLK
  5
D02
330
CF7
100
AcDbEntity
  8
0
100
AcDbBlockEnd
  0
BLOCK
  5
EE5
330
EDB
100
AcDbEntity
  8
0
100
AcDbBlockBegin
  2
*D6
 70
     1
 10
0.0
 20
0.0
 30
0.0
  3
*D6
  1

  0
LINE
  5
1243
330
EDB
100
AcDbEntity
  8
BEM
 62
     0
370
    -2
100
AcDbLine
 10
416.3261234168005
 20
443.4368089844642
 30
0.0
 11
437.629697041453
 21
422.1332353598117
 31
0.0
  0
LINE
  5
1244
330
EDB
100
AcDbEntity
  8
BEM
 62
     0
370
    -2
100
AcDbLine
 10
195.3552542960042
 20
316.5111417614792
 30
0.0
 11
263.681428869562
 21
248.1849671879212
 31
0.0
  0
LINE
  5
1245
330
EDB
100
AcDbEntity
  8
BEM
 62
     0
370
    -2
100
AcDbLine
 10
431.2657360107741
 20
418.597701453879
 30
0.0
 11
267.2169627754948
 21
254.5489282186002
 31
0.0
  0
SOLID
  5
1246
330
EDB
100
AcDbEntity
  8
BEM
 62
     0
100
AcDbTrace
 10
430.4407780993897
 20
419.4226593652633
 30
0.0
 11
432.0906939221583
 21
417.7727435424946
 31
0.0
 12
436.2154834790799
 22
423.5474489221848
 32
0.0
 13
436.2154834790799
 23
423.5474489221848
 33
0.0
  0
SOLID
  5
1247
330
EDB
100
AcDbEntity
  8
BEM
 62
     0
100
AcDbTrace
 10
266.3920048641104
 20
255.3738861299845
 30
0.0
 11
268.0419206868791
 21
253.7239703072158
 31
0.0
 12
262.2672153071889
 22
249.5991807502943
 32
0.0
 13
262.2672153071889
 23
249.5991807502943
 33
0.0
  0
MTEXT
  5
1248
330
EDB
100
AcDbEntity
  8
BEM
 62
     1
100
AcDbMText
 10
344.6451553154219
 20
341.1695089139521
 30
0.0
 40
7.0
 41
0.0
 71
     5
 72
     1
  1
\A1;246
  7
GREEKS
 11
0.7071067811865487
 21
0.7071067811865465
 31
0.0
 73
     1
 44
1.0
  0
POINT
  5
1249
330
EDB
100
AcDbEntity
  8
DEFPOINTS
 62
     0
100
AcDbPoint
 10
414.9119098544274
 20
444.8510225468374
 30
0.0
  0
POINT
  5
124A
330
EDB
100
AcDbEntity
  8
DEFPOINTS
 62
     0
100
AcDbPoint
 10
193.9410407336311
 20
317.9253553238523
 30
0.0
  0
POINT
  5
124B
330
EDB
100
AcDbEntity
  8
DEFPOINTS
 62
     0
100
AcDbPoint
 10
262.2672153071889
 20
249.5991807502943
 30
0.0
  0
ENDBLK
  5
EE6
330
EDB
100
AcDbEntity
  8
0
100
AcDbBlockEnd
  0
BLOCK
  5
F17
330
F0D
100
AcDbEntity
  8
0
100
AcDbBlockBegin
  2
*D7
 70
     1
 10
0.0
 20
0.0
 30
0.0
  3
*D7
  1

  0
LINE
  5
12FE
330
F0D
100
AcDbEntity
  8
BEM
 62
     0
370
    -2
100
AcDbLine
 10
322.2809215189895
 20
540.3104380070215
 30
0.0
 11
331.2177631189077
 21
549.2472796069396
 31
0.0
  0
LINE
  5
12FF
330
F0D
100
AcDbEntity
  8
BEM
 62
     0
370
    -2
100
AcDbLine
 10
416.3261234168004
 20
446.2652361092104
 30
0.0
 11
425.2629650167188
 21
455.2020777091287
 31
0.0
  0
LINE
  5
1300
330
F0D
100
AcDbEntity
  8
BEM
 62
     0
370
    -2
100
AcDbLine
 10
334.7532970248404
 20
542.8833185762607
 30
0.0
 11
418.8990039860398
 21
458.7376116150615
 31
0.0
  0
SOLID
  5
1301
330
F0D
100
AcDbEntity
  8
BEM
 62
     0
100
AcDbTrace
 10
335.5782549362247
 20
543.7082764876449
 30
0.0
 11
333.9283391134562
 21
542.0583606648764
 31
0.0
 12
329.8035495565346
 22
547.8330660445664
 32
0.0
 13
329.8035495565346
 23
547.8330660445664
 33
0.0
  0
SOLID
  5
1302
330
F0D
100
AcDbEntity
  8
BEM
 62
     0
100
AcDbTrace
 10
419.7239618974241
 20
459.5625695264457
 30
0.0
 11
418.0740460746555
 21
457.9126537036771
 31
0.0
 12
423.8487514543456
 22
453.7878641467556
 32
0.0
 13
423.8487514543456
 23
453.7878641467556
 33
0.0
  0
MTEXT
  5
1303
330
F0D
100
AcDbEntity
  8
BEM
 62
     1
100
AcDbMText
 10
381.4223445831527
 20
505.4066591733737
 30
0.0
 40
7.0
 41
0.0
 71
     5
 72
     1
  1
\A1;%%c133
  7
GREEKS
 11
0.7071067811865481
 21
-0.707106781186547
 31
0.0
 73
     1
 44
1.0
  0
POINT
  5
1304
330
F0D
100
AcDbEntity
  8
DEFPOINTS
 62
     0
100
AcDbPoint
 10
320.8667079566164
 20
538.8962244446483
 30
0.0
  0
POINT
  5
1305
330
F0D
100
AcDbEntity
  8
DEFPOINTS
 62
     0
100
AcDbPoint
 10
414.9119098544273
 20
444.8510225468373
 30
0.0
  0
POINT
  5
1306
330
F0D
100
AcDbEntity
  8
DEFPOINTS
 62
     0
100
AcDbPoint
 10
423.8487514543456
 20
453.7878641467556
 30
0.0
  0
ENDBLK
  5
F18
330
F0D
100
AcDbEntity
  8
0
100
AcDbBlockEnd
  0
ENDSEC
  0
SECTION
  2
ENTITIES
  0
LINE
  5
59
330
1E
100
AcDbEntity
  8
STEMPEL
100
AcDbLine
 10
484.0
 20
460.0
 30
0.0
 11
584.0
 21
459.9999999999998
 31
0.0
  0
LINE
  5
87
330
1E
100
AcDbEntity
  8
HILF
100
AcDbLine
 10
594.0
 20
-0.0000000000000568
 30
0.0
 11
594.0
 21
840.0
 31
0.0
  0
LINE
  5
88
330
1E
100
AcDbEntity
  8
HILF
100
AcDbLine
 10
594.0
 20
840.0
 30
0.0
 11
0.0
 21
840.0
 31
0.0
  0
LINE
  5
89
330
1E
100
AcDbEntity
  8
HILF
100
AcDbLine
 10
0.0
 20
840.0
 30
0.0
 11
0.0
 21
0.0
 31
0.0
  0
LINE
  5
8B
330
1E
100
AcDbEntity
  8
STEMPEL
100
AcDbLine
 10
10.0
 20
830.0
 30
0.0
 11
10.0
 21
39.99999999999995
 31
0.0
  0
LINE
  5
8D
330
1E
100
AcDbEntity
  8
STEMPEL
100
AcDbLine
 10
584.0
 20
39.99999999999995
 30
0.0
 11
584.0
 21
830.0
 31
0.0
  0
LINE
  5
8E
330
1E
100
AcDbEntity
  8
STEMPEL
100
AcDbLine
 10
584.0
 20
830.0
 30
0.0
 11
10.0
 21
830.0
 31
0.0
  0
LINE
  5
9C
330
1E
100
AcDbEntity
  8
BEM
100
AcDbLine
 10
594.0
 20
455.9999999999999
 30
0.0
 11
584.0
 21
455.9999999999999
 31
0.0
  0
LINE
  5
13E
330
1E
100
AcDbEntity
  8
HILF
100
AcDbLine
 10
594.0
 20
-0.0000000000000568
 30
0.0
 11
0.0
 21
0.0
 31
0.0
  0
LINE
  5
13F
330
1E
100
AcDbEntity
  8
STEMPEL
100
AcDbLine
 10
584.0
 20
39.99999999999995
 30
0.0
 11
10.0
 21
39.99999999999995
 31
0.0
  0
LINE
  5
14A
330
1E
100
AcDbEntity
  8
HILF
100
AcDbLine
 10
297.0
 20
-0.0000000000000568
 30
0.0
 11
297.0
 21
39.99999999999995
 31
0.0
  0
TEXT
  5
15B
330
1E
100
AcDbEntity
  8
BEM
100
AcDbText
 10
583.8320989200114
 20
837.3022923857165
 30
0.0
 40
4.0
  1
Diese Zeichnung ist urheberrechtlich geschützt und bleibt unser Eigentum. Sie darf weder ganz noch teilweise verfielfältigt und nicht an Dritte weitergegeben werden.
 50
180.0
 41
0.8
  7
GREEKS
100
AcDbText
  0
TEXT
  5
269
330
1E
100
AcDbEntity
  8
TEXT
 62
     1
100
AcDbText
 10
420.066688680902
 20
602.923736708658
 30
0.0
 40
7.0
  1
Außenrohr: P235 TR1 EN10217-1, E195 EN10305
 50
90.0
 41
0.8
  7
GREEKS
100
AcDbText
  0
TEXT
  5
26A
330
1E
100
AcDbEntity
  8
TEXT
 62
     1
100
AcDbText
 10
444.6794675959798
 20
606.6959540795221
 30
0.0
 40
7.0
  1
Innenrohr: E195 EN10305 feuerverzinkt
 50
90.0
 41
0.8
  7
GREEKS
100
AcDbText
  0
TEXT
  5
26B
330
1E
100
AcDbEntity
  8
TEXT
 62
     1
100
AcDbText
 10
468.5433568205875
 20
599.201543434825
 30
0.0
 40
7.0
  1
Dämmung: 2 K-PU-Schaum
 50
90.0
 41
0.8
  7
GREEKS
100
AcDbText
  0
TEXT
  5
26C
330
1E
100
AcDbEntity
  8
TEXT
 62
     1
100
AcDbText
 10
455.9485214352055
 20
654.3504849345181
 30
0.0
 40
7.0
  1
und innenbeschichtet
 50
90.0
 41
0.8
  7
GREEKS
100
AcDbText
  0
INSERT
  5
2AF
330
1E
100
AcDbEntity
  8
STEMPEL
100
AcDbBlockReference
  2
LOGO
 10
548.9789472355168
 20
560.9955485457795
 30
0.0
 41
2.0
 42
2.0
 43
2.0
 50
90.0
  0
TEXT
  5
2B0
330
1E
100
AcDbEntity
  8
TEXT
100
AcDbText
 10
503.2363615897698
 20
602.626132208084
 30
0.0
 40
4.0
  1
DIN EN1123-2
 50
90.0
 41
0.8
  7
GREEKS
 72
     1
 11
503.2363615897698
 21
619.6166083985602
 31
0.0
100
AcDbText
  0
TEXT
  5
2B1
330
1E
100
AcDbEntity
  8
TEXT
100
AcDbText
 10
551.3702584697737
 20
644.9837501577826
 30
0.0
 40
4.0
  1
58025ED0W.DWG
 50
90.0
 41
0.8
  7
GREEKS
100
AcDbText
  0
TEXT
  5
2B2
330
1E
100
AcDbEntity
  8
TEXT
100
AcDbText
 10
542.3598805695784
 20
645.1296391125315
 30
0.0
 40
5.0
  1
EDV-Art.Nr. 58025.ED0X
 50
90.0
 41
0.8
  7
GREEKS
100
AcDbText
  0
TEXT
  5
2B3
330
1E
100
AcDbEntity
  8
TEXT
100
AcDbText
 10
522.4966558241471
 20
645.1296391125315
 30
0.0
 40
5.0
  1
Red.-Abzweig 45°
 50
90.0
 41
0.8
  7
GREEKS
100
AcDbText
  0
TEXT
  5
2B4
330
1E
100
AcDbEntity
  8
TEXT
 62
     1
100
AcDbText
 10
506.5825121074622
 20
644.9367181557188
 30
0.0
 40
7.0
  1
Verbundrohr DN125/100
 50
90.0
 41
0.8
  7
GREEKS
100
AcDbText
  0
TEXT
  5
2B5
330
1E
100
AcDbEntity
  8
TEXT
100
AcDbText
 10
530.8923495917427
 20
580.3989971082361
 30
0.0
 40
4.0
  1
24.09.
 50
90.0
 41
0.8
  7
GREEKS
 72
     1
 11
530.8923495917427
 21
587.4085209177599
 31
0.0
100
AcDbText
  0
TEXT
  5
2B6
330
1E
100
AcDbEntity
  8
TEXT
 62
     1
100
AcDbText
 10
505.8509857108604
 20
570.5006306481887
 30
0.0
 40
7.0
  1
1:2
 50
90.0
 41
0.8
  7
GREEKS
100
AcDbText
  0
TEXT
  5
2B7
330
1E
100
AcDbEntity
  8
TEXT
 62
     1
100
AcDbText
 10
505.8509857108604
 20
765.3458567290483
 30
0.0
 40
7.0
  1
58025ED0W
 50
90.0
 41
0.8
  7
GREEKS
 72
     1
 11
505.8509857108604
 21
789.3458567290483
 31
0.0
100
AcDbText
  0
TEXT
  5
2B8
330
1E
100
AcDbEntity
  8
TEXT
100
AcDbText
 10
530.9103608027649
 20
614.4216048581257
 30
0.0
 40
4.0
  1
Koeh
 50
90.0
 41
0.8
  7
GREEKS
 72
     1
 11
530.9103608027649
 21
619.6787477152686
 31
0.0
100
AcDbText
  0
TEXT
  5
2B9
330
1E
100
AcDbEntity
  8
TEXT
100
AcDbText
 10
482.3280000000001
 20
461.8550995097767
 30
0.0
 40
5.0
  1
Erstellt mit AUTOCAD 2004
 50
90.0
 41
0.8
  7
GREEKS
100
AcDbText
  0
TEXT
  5
2BA
330
1E
100
AcDbEntity
  8
TEXT
100
AcDbText
 10
520.8597452884832
 20
558.622109822104
 30
0.0
 40
4.0
  1
2007
 50
90.0
 41
0.8
  7
GREEKS
100
AcDbText
  0
TEXT
  5
2BC
330
1E
100
AcDbEntity
  8
TEXT
100
AcDbText
 10
541.925838221214
 20
757.2400861497006
 30
0.0
 40
5.0
  1
ersetzt durch:
 50
90.0
 41
0.8
  7
GREEKS
100
AcDbText
  0
TEXT
  5
2BE
330
1E
100
AcDbEntity
  8
TEXT
100
AcDbText
 10
550.4705361035019
 20
557.6006777387304
 30
0.0
 40
4.0
  1
Norm.
 50
90.0
 41
0.8
  7
GREEKS
100
AcDbText
  0
TEXT
  5
2BF
330
1E
100
AcDbEntity
  8
TEXT
100
AcDbText
 10
540.3107370857163
 20
557.5515086571672
 30
0.0
 40
4.0
  1
Gepr.
 50
90.0
 41
0.8
  7
GREEKS
100
AcDbText
  0
TEXT
  5
2C0
330
1E
100
AcDbEntity
  8
TEXT
100
AcDbText
 10
530.3700963038203
 20
557.5836127167615
 30
0.0
 40
4.0
  1
Gez.
 50
90.0
 41
0.8
  7
GREEKS
100
AcDbText
  0
TEXT
  5
2C1
330
1E
100
AcDbEntity
  8
TEXT
100
AcDbText
 10
520.6903890808478
 20
612.4626584226295
 30
0.0
 40
4.0
  1
Name
 50
90.0
 41
0.8
  7
GREEKS
100
AcDbText
  0
TEXT
  5
2C2
330
1E
100
AcDbEntity
  8
TEXT
100
AcDbText
 10
520.6811949877008
 20
582.331167315365
 30
0.0
 40
4.0
  1
Tag
 50
90.0
 41
0.8
  7
GREEKS
100
AcDbText
  0
TEXT
  5
2C3
330
1E
100
AcDbEntity
  8
TEXT
100
AcDbText
 10
575.4067578303359
 20
539.0122744386594
 30
0.0
 40
4.0
  1
Name
 50
90.0
 41
0.8
  7
GREEKS
 72
     1
 11
575.4067578303359
 21
545.3360839624687
 31
0.0
100
AcDbText
  0
TEXT
  5
2C4
330
1E
100
AcDbEntity
  8
TEXT
100
AcDbText
 10
575.3284373066019
 20
520.0934676075481
 30
0.0
 40
4.0
  1
Tag
 50
90.0
 41
0.8
  7
GREEKS
 72
     1
 11
575.3284373066019
 21
523.8268009408813
 31
0.0
100
AcDbText
  0
TEXT
  5
2C5
330
1E
100
AcDbEntity
  8
TEXT
100
AcDbText
 10
580.3453415397281
 20
468.2664110704576
 30
0.0
 40
4.0
  1
Index
 50
180.0
 41
0.8
  7
GREEKS
100
AcDbText
  0
TEXT
  5
2C6
330
1E
100
AcDbEntity
  8
TEXT
100
AcDbText
 10
520.8188176290002
 20
756.7238616296992
 30
0.0
 40
5.0
  1
Ersatz für:
 50
90.0
 41
0.8
  7
GREEKS
100
AcDbText
  0
TEXT
  5
2C7
330
1E
100
AcDbEntity
  8
TEXT
100
AcDbText
 10
563.1543942980694
 20
644.742238391136
 30
0.0
 40
5.0
  1
Bauvorhaben
 50
90.0
 41
0.8
  7
GREEKS
100
AcDbText
  0
TEXT
  5
2C8
330
1E
100
AcDbEntity
  8
TEXT
100
AcDbText
 10
491.6867965462863
 20
756.178754957634
 30
0.0
 40
5.0
  1
Zeichnungs Nr.
 50
90.0
 41
0.8
  7
GREEKS
100
AcDbText
  0
TEXT
  5
2C9
330
1E
100
AcDbEntity
  8
TEXT
100
AcDbText
 10
491.4510671988221
 20
644.877940380901
 30
0.0
 40
5.0
  1
Benennung
 50
90.0
 41
0.8
  7
GREEKS
100
AcDbText
  0
TEXT
  5
2CA
330
1E
100
AcDbEntity
  8
TEXT
100
AcDbText
 10
491.581583156518
 20
604.2858954734051
 30
0.0
 40
5.0
  1
Zul. Abw.
 50
90.0
 41
0.8
  7
GREEKS
100
AcDbText
  0
TEXT
  5
2CB
330
1E
100
AcDbEntity
  8
TEXT
100
AcDbText
 10
491.537910491291
 20
563.5163572150377
 30
0.0
 40
5.0
  1
Maßstab
 50
90.0
 41
0.8
  7
GREEKS
100
AcDbText
  0
TEXT
  5
2CC
330
1E
100
AcDbEntity
  8
TEXT
100
AcDbText
 10
575.3261810501586
 20
483.8616597963182
 30
0.0
 40
4.0
  1
Änderung
 50
90.0
 41
0.8
  7
GREEKS
 72
     1
 11
575.3261810501586
 21
494.6045169391753
 31
0.0
100
AcDbText
  0
LINE
  5
2CD
330
1E
100
AcDbEntity
  8
HILF
100
AcDbLine
 10
579.1060174197168
 20
643.4909699289885
 30
0.0
 11
579.1060174197168
 21
824.8588839326728
 31
0.0
  0
LINE
  5
2CE
330
1E
100
AcDbEntity
  8
HILF
100
AcDbLine
 10
510.2201636304418
 20
756.7238616296992
 30
0.0
 11
510.2201636304418
 21
824.8588839326728
 31
0.0
  0
LINE
  5
2CF
330
1E
100
AcDbEntity
  8
VOLL
100
AcDbLine
 10
534.0
 20
752.0
 30
0.0
 11
534.0
 21
830.0
 31
0.0
  0
LINE
  5
2D0
330
1E
100
AcDbEntity
  8
HILF
100
AcDbLine
 10
544.0
 20
644.7736801096947
 30
0.0
 11
544.0
 21
744.8353916556309
 31
0.0
  0
LINE
  5
2D1
330
1E
100
AcDbEntity
  8
HILF
100
AcDbLine
 10
534.0
 20
644.7736801096947
 30
0.0
 11
534.0
 21
744.8353916556309
 31
0.0
  0
LINE
  5
2D2
330
1E
100
AcDbEntity
  8
HILF
100
AcDbLine
 10
524.0000000000001
 20
644.7736801096947
 30
0.0
 11
524.0000000000001
 21
744.8353916556309
 31
0.0
  0
LINE
  5
2D3
330
1E
100
AcDbEntity
  8
HILF
100
AcDbLine
 10
509.9624175243587
 20
644.7736801096947
 30
0.0
 11
509.9624175243588
 21
744.835391655631
 31
0.0
  0
LINE
  5
2D4
330
1E
100
AcDbEntity
  8
HILF
100
AcDbLine
 10
544.0
 20
556.0000000000001
 30
0.0
 11
544.0
 21
640.0
 31
0.0
  0
LINE
  5
2D5
330
1E
100
AcDbEntity
  8
HILF
100
AcDbLine
 10
534.0
 20
556.0000000000001
 30
0.0
 11
534.0
 21
640.0
 31
0.0
  0
LINE
  5
2D6
330
1E
100
AcDbEntity
  8
HILF
100
AcDbLine
 10
524.0000000000001
 20
556.0000000000001
 30
0.0
 11
524.0000000000001
 21
640.0
 31
0.0
  0
LINE
  5
2D7
330
1E
100
AcDbEntity
  8
HILF
100
AcDbLine
 10
554.0
 20
460.0000000000001
 30
0.0
 11
554.0
 21
556.0000000000001
 31
0.0
  0
LINE
  5
2D8
330
1E
100
AcDbEntity
  8
HILF
100
AcDbLine
 10
544.0
 20
460.0000000000001
 30
0.0
 11
544.0
 21
556.0000000000001
 31
0.0
  0
LINE
  5
2D9
330
1E
100
AcDbEntity
  8
HILF
100
AcDbLine
 10
534.0
 20
460.0000000000001
 30
0.0
 11
534.0
 21
556.0000000000001
 31
0.0
  0
LINE
  5
2DA
330
1E
100
AcDbEntity
  8
HILF
100
AcDbLine
 10
524.0000000000001
 20
460.0000000000001
 30
0.0
 11
524.0000000000001
 21
556.0000000000001
 31
0.0
  0
LINE
  5
2DB
330
1E
100
AcDbEntity
  8
HILF
100
AcDbLine
 10
514.0
 20
460.0000000000001
 30
0.0
 11
514.0
 21
556.0000000000001
 31
0.0
  0
LINE
  5
2DC
330
1E
100
AcDbEntity
  8
HILF
100
AcDbLine
 10
504.0
 20
460.0000000000001
 30
0.0
 11
504.0
 21
556.0000000000001
 31
0.0
  0
LINE
  5
2DD
330
1E
100
AcDbEntity
  8
HILF
100
AcDbLine
 10
494.0
 20
460.0000000000001
 30
0.0
 11
494.0
 21
556.0000000000001
 31
0.0
  0
LINE
  5
2DE
330
1E
100
AcDbEntity
  8
VOLL
100
AcDbLine
 10
484.0000000000002
 20
600.0
 30
0.0
 11
554.0
 21
600.0
 31
0.0
  0
LINE
  5
2DF
330
1E
100
AcDbEntity
  8
VOLL
100
AcDbLine
 10
514.0
 20
574.0000000000001
 30
0.0
 11
554.0
 21
574.0000000000001
 31
0.0
  0
LINE
  5
2E0
330
1E
100
AcDbEntity
  8
VOLL
100
AcDbLine
 10
484.0
 20
534.0000000000001
 30
0.0
 11
584.0
 21
534.0
 31
0.0
  0
LINE
  5
2E1
330
1E
100
AcDbEntity
  8
VOLL
100
AcDbLine
 10
484.0
 20
514.0000000000001
 30
0.0
 11
584.0
 21
514.0
 31
0.0
  0
LINE
  5
2E2
330
1E
100
AcDbEntity
  8
VOLL
100
AcDbLine
 10
484.0
 20
474.0000000000001
 30
0.0
 11
584.0
 21
474.0
 31
0.0
  0
LINE
  5
2E3
330
1E
100
AcDbEntity
  8
STEMPEL
100
AcDbLine
 10
514.0000000000001
 20
830.0
 30
0.0
 11
514.0
 21
556.0000000000001
 31
0.0
  0
LINE
  5
2E4
330
1E
100
AcDbEntity
  8
STEMPEL
100
AcDbLine
 10
554.0
 20
830.0
 30
0.0
 11
554.0
 21
556.0000000000001
 31
0.0
  0
LINE
  5
2E5
330
1E
100
AcDbEntity
  8
STEMPEL
100
AcDbLine
 10
564.0
 20
555.9999999999998
 30
0.0
 11
564.0
 21
460.0
 31
0.0
  0
LINE
  5
2E6
330
1E
100
AcDbEntity
  8
STEMPEL
100
AcDbLine
 10
484.0000000000003
 20
752.0
 30
0.0
 11
554.0
 21
752.0
 31
0.0
  0
LINE
  5
2E7
330
1E
100
AcDbEntity
  8
STEMPEL
100
AcDbLine
 10
484.0
 20
640.0
 30
0.0
 11
584.0
 21
640.0
 31
0.0
  0
LINE
  5
2E8
330
1E
100
AcDbEntity
  8
STEMPEL
100
AcDbLine
 10
484.0
 20
556.0000000000001
 30
0.0
 11
584.0
 21
556.0
 31
0.0
  0
LINE
  5
2E9
330
1E
100
AcDbEntity
  8
STEMPEL
100
AcDbLine
 10
484.0000000000001
 20
830.0
 30
0.0
 11
484.0
 21
460.0
 31
0.0
  0
LINE
  5
83D
102
{ACAD_REACTORS
330
10C2
330
10F4
330
121B
102
}
330
1E
100
AcDbEntity
  8
STEMPEL
100
AcDbLine
 10
260.4410407336311
 20
315.1288907675705
 30
0.0
 11
260.4410407336311
 21
220.816202966581
 31
0.0
  0
DIMENSION
  5
83E
330
1E
100
AcDbEntity
  8
BEM
100
AcDbDimension
  2
*D1
 10
77.94149384094549
 20
317.9253553238524
 30
0.0
 11
77.94149384094544
 21
269.2308974635441
 31
0.0
 70
   160
 71
     5
 42
105.0000000000001
  3
Standard
100
AcDbAlignedDimension
 13
128.1314004479801
 23
212.9253553238523
 33
0.0
 14
193.9410407336312
 24
317.9253553238524
 34
0.0
 50
90.0
100
AcDbRotatedDimension
1001
ACAD
1000
DSTYLE
1002
{
1070
    40
1040
2.0
1070
    41
1040
3.5
1070
    42
1040
1.0
1070
    43
1040
7.0
1070
    44
1040
1.0
1070
    73
1070
     0
1070
    74
1070
     0
1070
    77
1070
     1
1070
    78
1070
     8
1070
    79
1070
     2
1070
   140
1040
3.5
1070
   141
1040
1.5
1070
   146
1040
0.5142857142857144
1070
   147
1040
1.5
1070
   172
1070
     1
1070
   178
1070
     1
1070
   179
1070
     2
1070
   271
1070
     2
1070
   272
1070
     2
1070
   284
1070
     8
1070
   285
1070
     8
1070
   286
1070
     8
1002
}
  0
DIMENSION
  5
844
330
1E
100
AcDbEntity
  8
BEM
100
AcDbDimension
  2
*D2
 10
260.4410407336311
 20
191.5722806264797
 30
0.0
 11
193.941040733631
 21
198.0722806264797
 31
0.0
 70
    32
  1
%%C<>
 71
     5
 42
133.0000000000002
  3
Standard
100
AcDbAlignedDimension
 13
127.4410407336308
 23
220.8162029665846
 33
0.0
 14
260.4410407336311
 24
220.816202966581
 34
0.0
100
AcDbRotatedDimension
1001
ACAD
1000
DSTYLE
1002
{
1070
    40
1040
2.0
1070
    41
1040
3.5
1070
    42
1040
1.0
1070
    43
1040
7.0
1070
    44
1040
1.0
1070
    73
1070
     0
1070
    74
1070
     0
1070
    77
1070
     1
1070
    78
1070
     8
1070
    79
1070
     2
1070
   140
1040
3.5
1070
   141
1040
1.5
1070
   146
1040
0.5142857142857144
1070
   147
1040
1.5
1070
   172
1070
     1
1070
   178
1070
     1
1070
   179
1070
     2
1070
   271
1070
     2
1070
   272
1070
     2
1070
   284
1070
     8
1070
   285
1070
     8
1070
   286
1070
     8
1002
}
  0
LINE
  5
846
102
{ACAD_REACTORS
330
10C2
102
}
330
1E
100
AcDbEntity
  8
STEMPEL
100
AcDbLine
 10
260.4410407336311
 20
220.816202966581
 30
0.0
 11
259.7506810192821
 21
212.9253553238523
 31
0.0
  0
LINE
  5
847
102
{ACAD_REACTORS
330
11B0
102
}
330
1E
100
AcDbEntity
  8
STEMPEL
100
AcDbLine
 10
127.4410407336308
 20
220.8162029665846
 30
0.0
 11
128.1314004479801
 21
212.9253553238523
 31
0.0
  0
LINE
  5
848
330
1E
100
AcDbEntity
  8
HILF
100
AcDbLine
 10
255.4314911397728
 20
220.9253553238523
 30
0.0
 11
132.4505903274895
 21
220.9253553238523
 31
0.0
  0
LINE
  5
849
102
{ACAD_REACTORS
330
C8F
330
10B2
102
}
330
1E
100
AcDbEntity
  8
STEMPEL
100
AcDbLine
 10
266.6994855310374
 20
577.9253553238524
 30
0.0
 11
267.1302743447307
 21
577.0015257316093
 31
0.0
  0
ARC
  5
84A
102
{ACAD_REACTORS
330
C8F
330
10B2
102
}
330
1E
100
AcDbEntity
  8
STEMPEL
100
AcDbCircle
 10
239.9410407336312
 20
564.322977879388
 30
0.0
 40
30.0
100
AcDbArc
 50
0.0
 51
24.99999999999246
  0
LINE
  5
84B
102
{ACAD_REACTORS
330
C8F
330
11B0
102
}
330
1E
100
AcDbEntity
  8
STEMPEL
100
AcDbLine
 10
121.182595936225
 20
577.9253553238524
 30
0.0
 11
120.7518071225317
 21
577.0015257316093
 31
0.0
  0
ARC
  5
84C
102
{ACAD_REACTORS
330
C8F
330
11B0
102
}
330
1E
100
AcDbEntity
  8
STEMPEL
100
AcDbCircle
 10
147.9410407336312
 20
564.3229778793881
 30
0.0
 40
30.0
100
AcDbArc
 50
155.0000000000074
 51
180.0
  0
LINE
  5
84D
102
{ACAD_REACTORS
330
10B2
330
121B
102
}
330
1E
100
AcDbEntity
  8
STEMPEL
100
AcDbLine
 10
269.9407769933233
 20
545.2163553238523
 30
0.0
 11
269.9410407336312
 21
545.2163553238523
 31
0.0
  0
ARC
  5
84E
102
{ACAD_REACTORS
330
10B2
330
121B
102
}
330
1E
100
AcDbEntity
  8
STEMPEL
100
AcDbCircle
 10
239.9410407336312
 20
545.2163553238523
 30
0.0
 40
29.99973625969209
100
AcDbArc
 50
334.9928416634572
 51
0.0
  0
ARC
  5
84F
102
{ACAD_REACTORS
330
10B2
330
121B
102
}
330
1E
100
AcDbEntity
  8
STEMPEL
100
AcDbCircle
 10
283.4410407336312
 20
524.9253553238523
 30
0.0
 40
18.0
100
AcDbArc
 50
154.9928416634572
 51
180.0
  0
ARC
  5
850
102
{ACAD_REACTORS
330
10B2
330
121B
102
}
330
1E
100
AcDbEntity
  8
STEMPEL
100
AcDbCircle
 10
247.4410407336312
 20
511.3940747465234
 30
0.0
 40
18.0
100
AcDbArc
 50
325.2280559680515
 51
0.0
  0
ARC
  5
851
102
{ACAD_REACTORS
330
10B2
330
121B
102
}
330
1E
100
AcDbEntity
  8
STEMPEL
100
AcDbCircle
 10
270.4410407336312
 20
495.4253553238523
 30
0.0
 40
10.0
100
AcDbArc
 50
145.2280559680515
 51
180.0
  0
LINE
  5
852
102
{ACAD_REACTORS
330
10B2
330
121B
102
}
330
1E
100
AcDbEntity
  8
STEMPEL
100
AcDbLine
 10
265.4410407336312
 20
524.9253553238523
 30
0.0
 11
265.4410407336312
 21
511.3940747465234
 31
0.0
  0
LINE
  5
854
102
{ACAD_REACTORS
330
10B2
330
10F4
330
121B
102
}
330
1E
100
AcDbEntity
  8
STEMPEL
100
AcDbLine
 10
260.4410407336312
 20
495.4253553238523
 30
0.0
 11
260.4410407336312
 21
453.7218198801337
 31
0.0
  0
LINE
  5
855
102
{ACAD_REACTORS
330
11B0
330
121B
102
}
330
1E
100
AcDbEntity
  8
STEMPEL
100
AcDbLine
 10
117.9413044739391
 20
545.2163553238524
 30
0.0
 11
117.9410407336312
 21
545.2163553238524
 31
0.0
  0
ARC
  5
856
102
{ACAD_REACTORS
330
11B0
330
121B
102
}
330
1E
100
AcDbEntity
  8
STEMPEL
100
AcDbCircle
 10
147.9410407336312
 20
545.2163553238524
 30
0.0
 40
29.99973625969209
100
AcDbArc
 50
180.0
 51
205.0071583365429
  0
ARC
  5
857
102
{ACAD_REACTORS
330
11B0
330
121B
102
}
330
1E
100
AcDbEntity
  8
STEMPEL
100
AcDbCircle
 10
104.4410407336312
 20
524.9253553238523
 30
0.0
 40
18.0
100
AcDbArc
 50
0.0
 51
25.00715833654288
  0
ARC
  5
858
102
{ACAD_REACTORS
330
11B0
330
121B
102
}
330
1E
100
AcDbEntity
  8
STEMPEL
100
AcDbCircle
 10
117.4410407336311
 20
495.4253553238523
 30
0.0
 40
10.0
100
AcDbArc
 50
0.0
 51
34.77194403194851
  0
ARC
  5
859
102
{ACAD_REACTORS
330
11B0
330
121B
102
}
330
1E
100
AcDbEntity
  8
STEMPEL
100
AcDbCircle
 10
140.4410407336312
 20
511.3940747465236
 30
0.0
 40
18.0
100
AcDbArc
 50
180.0
 51
214.7719440319485
  0
LINE
  5
85A
102
{ACAD_REACTORS
330
11B0
330
121B
102
}
330
1E
100
AcDbEntity
  8
STEMPEL
100
AcDbLine
 10
122.4410407336312
 20
524.9253553238523
 30
0.0
 11
122.4410407336311
 21
511.3940747465236
 31
0.0
  0
LINE
  5
85B
102
{ACAD_REACTORS
330
11B0
330
121B
102
}
330
1E
100
AcDbEntity
  8
STEMPEL
100
AcDbLine
 10
127.4410407336311
 20
495.4253553238523
 30
0.0
 11
127.4410407336308
 21
220.8162029665846
 31
0.0
  0
LINE
  5
85C
330
1E
100
AcDbEntity
  8
HILF
100
AcDbLine
 10
128.2940613913067
 20
506.7625638853528
 30
0.0
 11
259.5880200759557
 21
506.7625638853528
 31
0.0
  0
LINE
  5
85D
330
1E
100
AcDbEntity
  8
HILF
100
AcDbLine
 10
131.9685700191929
 20
499.1604447280222
 30
0.0
 11
255.9135114480693
 21
499.1604447280222
 31
0.0
  0
LINE
  5
85E
330
1E
100
AcDbEntity
  8
HILF
100
AcDbLine
 10
127.0011687777539
 20
529.4020307233857
 30
0.0
 11
260.8809126895085
 21
529.4020307233859
 31
0.0
  0
LINE
  5
85F
102
{ACAD_REACTORS
330
C8F
330
11B0
330
121B
102
}
330
1E
100
AcDbEntity
  8
STEMPEL
100
AcDbLine
 10
117.9410407336312
 20
564.3229778793881
 30
0.0
 11
117.9410407336312
 21
545.2163553238524
 31
0.0
  0
LINE
  5
860
102
{ACAD_REACTORS
330
C8F
330
10B2
330
121B
102
}
330
1E
100
AcDbEntity
  8
STEMPEL
100
AcDbLine
 10
269.9410407336312
 20
564.322977879388
 30
0.0
 11
269.9410407336312
 21
545.2163553238523
 31
0.0
  0
LINE
  5
861
102
{ACAD_REACTORS
330
BDA
330
C8F
102
}
330
1E
100
AcDbEntity
  8
STEMPEL
100
AcDbLine
 10
109.7910407336312
 20
577.9253553238524
 30
0.0
 11
278.0910407336313
 21
577.9253553238524
 31
0.0
  0
TEXT
  5
862
330
1E
100
AcDbEntity
  8
VOLL
100
AcDbText
 10
184.06825039622
 20
541.7262932605629
 30
0.0
 40
7.0
  1
DN125
 50
90.0
 41
0.8
  7
GREEKS
100
AcDbText
  0
LINE
  5
863
102
{ACAD_REACTORS
330
10C2
102
}
330
1E
100
AcDbEntity
  8
STEMPEL
100
AcDbLine
 10
259.7506810192821
 20
212.9253553238523
 30
0.0
 11
128.1314004479801
 21
212.9253553238523
 31
0.0
  0
LINE
  5
864
330
1E
100
AcDbEntity
  8
MITTEL
100
AcDbLine
 10
193.9410407336312
 20
582.9253553238524
 30
0.0
 11
193.9410407336312
 21
207.9253553238524
 31
0.0
  0
TEXT
  5
865
330
1E
100
AcDbEntity
  8
TEXT
 62
     1
100
AcDbText
 10
339.4505957737345
 20
181.1817564952797
 30
0.0
 40
7.0
  1
Rohrende leicht eingezogen
 41
0.8
  7
GREEKS
100
AcDbText
  0
DIMENSION
  5
979
330
1E
100
AcDbEntity
  8
BEM
100
AcDbDimension
  2
*D3
 10
278.0910407336313
 20
591.692582915796
 30
0.0
 11
193.9410407336312
 21
598.192582915796
 31
0.0
 70
    32
  1
%%c<>
 71
     5
 42
168.3
  3
Standard
100
AcDbAlignedDimension
 13
109.7910407336312
 23
577.9253553238523
 33
0.0
 14
278.0910407336313
 24
577.9253553238521
 34
0.0
100
AcDbRotatedDimension
1001
ACAD
1000
DSTYLE
1002
{
1070
    40
1040
2.0
1070
    41
1040
3.5
1070
    42
1040
1.0
1070
    43
1040
7.0
1070
    44
1040
1.0
1070
    73
1070
     0
1070
    74
1070
     0
1070
    77
1070
     1
1070
    78
1070
     8
1070
    79
1070
     2
1070
   140
1040
3.5
1070
   141
1040
1.5
1070
   146
1040
0.5142857142857144
1070
   147
1040
1.5
1070
   172
1070
     1
1070
   178
1070
     1
1070
   179
1070
     2
1070
   271
1070
     2
1070
   272
1070
     2
1070
   284
1070
     8
1070
   285
1070
     8
1070
   286
1070
     8
1070
   289
1070
     0
1070
   340
1005
24
1002
}
  0
LINE
  5
9C8
102
{ACAD_REACTORS
330
C8F
330
121B
102
}
330
1E
100
AcDbEntity
  8
STEMPEL
100
AcDbLine
 10
117.9410407336312
 20
561.9253553238523
 30
0.0
 11
112.6910407336311
 21
561.9253553238523
 31
0.0
  0
LINE
  5
9C9
102
{ACAD_REACTORS
330
BDA
102
}
330
1E
100
AcDbEntity
  8
STEMPEL
100
AcDbLine
 10
109.7910407336312
 20
577.9253553238523
 30
0.0
 11
109.7910407336313
 21
270.9253553238523
 31
0.0
  0
LINE
  5
9CA
102
{ACAD_REACTORS
330
BDA
330
C8F
330
121B
102
}
330
1E
100
AcDbEntity
  8
STEMPEL
100
AcDbLine
 10
112.6910407336312
 20
577.9253553238523
 30
0.0
 11
112.6910407336312
 21
272.9253553238522
 31
0.0
  0
LINE
  5
9CB
102
{ACAD_REACTORS
330
C8F
330
121B
102
}
330
1E
100
AcDbEntity
  8
STEMPEL
100
AcDbLine
 10
275.1910407336313
 20
561.9253553238523
 30
0.0
 11
269.9410407336312
 21
561.9253553238523
 31
0.0
  0
LINE
  5
9CC
102
{ACAD_REACTORS
330
BDA
330
FBA
330
1106
102
}
330
1E
100
AcDbEntity
  8
STEMPEL
100
AcDbLine
 10
278.0910407336313
 20
577.9253553238524
 30
0.0
 11
278.0910407336313
 21
492.5850233157304
 31
0.0
  0
LINE
  5
9CD
102
{ACAD_REACTORS
330
BDA
330
C8F
330
121B
102
}
330
1E
100
AcDbEntity
  8
STEMPEL
100
AcDbLine
 10
275.1910407336313
 20
577.9253553238523
 30
0.0
 11
275.1910407336314
 21
492.5850233157304
 31
0.0
  0
LINE
  5
AAD
102
{ACAD_REACTORS
330
121B
102
}
330
1E
100
AcDbEntity
  8
STEMPEL
100
AcDbLine
 10
275.0910407336312
 20
286.9253553238523
 30
0.0
 11
273.0910407336312
 21
288.9253553238523
 31
0.0
  0
LINE
  5
AAF
102
{ACAD_REACTORS
330
121B
102
}
330
1E
100
AcDbEntity
  8
STEMPEL
100
AcDbLine
 10
273.0910407336312
 20
288.9253553238523
 30
0.0
 11
260.4410407336311
 21
288.9253553238523
 31
0.0
  0
LINE
  5
AB0
330
1E
100
AcDbEntity
  8
STEMPEL
100
AcDbLine
 10
267.7974471941823
 20
278.9253553238523
 30
0.0
 11
260.4410407336311
 21
278.9253553238523
 31
0.0
  0
LINE
  5
AB1
102
{ACAD_REACTORS
330
BDA
102
}
330
1E
100
AcDbEntity
  8
STEMPEL
100
AcDbLine
 10
278.091040733631
 20
272.9253553238521
 30
0.0
 11
275.1910407336315
 21
272.9253553238521
 31
0.0
  0
LINE
  5
AB3
102
{ACAD_REACTORS
330
121B
102
}
330
1E
100
AcDbEntity
  8
STEMPEL
100
AcDbLine
 10
127.4410407336315
 20
288.9253553238523
 30
0.0
 11
114.7910407336313
 21
288.9253553238523
 31
0.0
  0
LINE
  5
AB4
330
1E
100
AcDbEntity
  8
STEMPEL
100
AcDbLine
 10
127.4410407336315
 20
278.9253553238523
 30
0.0
 11
120.0846342730803
 21
278.9253553238523
 31
0.0
  0
LINE
  5
AB5
102
{ACAD_REACTORS
330
BDA
102
}
330
1E
100
AcDbEntity
  8
STEMPEL
100
AcDbLine
 10
112.6910407336313
 20
272.9253553238522
 30
0.0
 11
109.7910407336309
 21
272.9253553238522
 31
0.0
  0
LINE
  5
AB6
102
{ACAD_REACTORS
330
121B
102
}
330
1E
100
AcDbEntity
  8
STEMPEL
100
AcDbLine
 10
112.6910407336312
 20
286.8253553238523
 30
0.0
 11
114.7910407336313
 21
288.9253553238523
 31
0.0
  0
LINE
  5
ACD
102
{ACAD_REACTORS
330
BDA
330
121B
102
}
330
1E
100
AcDbEntity
  8
STEMPEL
100
AcDbLine
 10
278.0910407336313
 20
492.5850233157304
 30
0.0
 11
275.1910407336314
 21
492.5850233157304
 31
0.0
  0
LINE
  5
ACE
102
{ACAD_REACTORS
330
BDA
330
121B
102
}
330
1E
100
AcDbEntity
  8
STEMPEL
100
AcDbLine
 10
278.0910407336314
 20
311.5656873319744
 30
0.0
 11
275.1910407336315
 21
311.5656873319744
 31
0.0
  0
LINE
  5
ACF
102
{ACAD_REACTORS
330
BDA
330
FC4
330
1106
102
}
330
1E
100
AcDbEntity
  8
STEMPEL
100
AcDbLine
 10
278.0910407336314
 20
311.5656873319744
 30
0.0
 11
278.0910407336314
 21
270.9253553238512
 31
0.0
  0
LINE
  5
AD0
102
{ACAD_REACTORS
330
BDA
330
121B
102
}
330
1E
100
AcDbEntity
  8
STEMPEL
100
AcDbLine
 10
275.1910407336315
 20
311.5656873319744
 30
0.0
 11
275.1910407336315
 21
272.9253553238522
 31
0.0
  0
LINE
  5
AEA
102
{ACAD_REACTORS
330
10B2
102
}
330
1E
100
AcDbEntity
  8
STEMPEL
100
AcDbLine
 10
257.9410407336312
 20
495.4253553238523
 30
0.0
 11
257.9410407336311
 21
453.7218198801337
 31
0.0
  0
ARC
  5
AEB
102
{ACAD_REACTORS
330
10B2
102
}
330
1E
100
AcDbEntity
  8
STEMPEL
100
AcDbCircle
 10
270.4410407336312
 20
495.4253553238523
 30
0.0
 40
12.5
100
AcDbArc
 50
145.2280559680518
 51
180.0
  0
ARC
  5
AED
102
{ACAD_REACTORS
330
10B2
102
}
330
1E
100
AcDbEntity
  8
STEMPEL
100
AcDbCircle
 10
247.4410407336312
 20
511.3940747465234
 30
0.0
 40
15.5
100
AcDbArc
 50
325.2280559680518
 51
0.0
  0
LINE
  5
AEF
102
{ACAD_REACTORS
330
10B2
102
}
330
1E
100
AcDbEntity
  8
STEMPEL
100
AcDbLine
 10
262.9410407336312
 20
524.9253553238523
 30
0.0
 11
262.9410407336312
 21
511.3940747465234
 31
0.0
  0
ARC
  5
AF0
102
{ACAD_REACTORS
330
10B2
102
}
330
1E
100
AcDbEntity
  8
STEMPEL
100
AcDbCircle
 10
283.4410407336312
 20
524.9253553238523
 30
0.0
 40
20.5
100
AcDbArc
 50
154.9928416634474
 51
180.0
  0
ARC
  5
AF2
102
{ACAD_REACTORS
330
10B2
102
}
330
1E
100
AcDbEntity
  8
STEMPEL
100
AcDbCircle
 10
239.9410407336312
 20
545.2163553238523
 30
0.0
 40
27.4997362596921
100
AcDbArc
 50
334.9928416634479
 51
0.0
  0
LINE
  5
AF3
102
{ACAD_REACTORS
330
10B2
102
}
330
1E
100
AcDbEntity
  8
STEMPEL
100
AcDbLine
 10
267.4410407336312
 20
564.322977879388
 30
0.0
 11
267.4410407336312
 21
545.2163553238523
 31
0.0
  0
ARC
  5
AF4
102
{ACAD_REACTORS
330
10B2
102
}
330
1E
100
AcDbEntity
  8
STEMPEL
100
AcDbCircle
 10
239.9410407336312
 20
564.322977879388
 30
0.0
 40
27.5
100
AcDbArc
 50
0.0
 51
25.00000000000455
  0
ARC
  5
AF5
102
{ACAD_REACTORS
330
11B0
102
}
330
1E
100
AcDbEntity
  8
STEMPEL
100
AcDbCircle
 10
147.9410407336312
 20
564.3229778793881
 30
0.0
 40
27.5
100
AcDbArc
 50
155.0000000000074
 51
180.0
  0
LINE
  5
AF6
102
{ACAD_REACTORS
330
11B0
102
}
330
1E
100
AcDbEntity
  8
STEMPEL
100
AcDbLine
 10
120.4410407336312
 20
564.3229778793881
 30
0.0
 11
120.4410407336312
 21
545.2163553238524
 31
0.0
  0
ARC
  5
AF7
102
{ACAD_REACTORS
330
11B0
102
}
330
1E
100
AcDbEntity
  8
STEMPEL
100
AcDbCircle
 10
147.9410407336312
 20
545.2163553238524
 30
0.0
 40
27.4997362596921
100
AcDbArc
 50
180.0
 51
205.0071583365429
  0
ARC
  5
AF8
102
{ACAD_REACTORS
330
11B0
102
}
330
1E
100
AcDbEntity
  8
STEMPEL
100
AcDbCircle
 10
104.4410407336312
 20
524.9253553238523
 30
0.0
 40
20.5
100
AcDbArc
 50
0.0
 51
25.00715833654288
  0
LINE
  5
AFA
102
{ACAD_REACTORS
330
11B0
102
}
330
1E
100
AcDbEntity
  8
STEMPEL
100
AcDbLine
 10
124.9410407336312
 20
524.9253553238523
 30
0.0
 11
124.9410407336311
 21
511.3940747465237
 31
0.0
  0
ARC
  5
AFB
102
{ACAD_REACTORS
330
11B0
102
}
330
1E
100
AcDbEntity
  8
STEMPEL
100
AcDbCircle
 10
140.4410407336312
 20
511.3940747465236
 30
0.0
 40
15.5
100
AcDbArc
 50
179.9999999999996
 51
214.7719440319482
  0
ARC
  5
AFD
102
{ACAD_REACTORS
330
11B0
102
}
330
1E
100
AcDbEntity
  8
STEMPEL
100
AcDbCircle
 10
117.4410407336311
 20
495.4253553238523
 30
0.0
 40
12.5
100
AcDbArc
 50
0.0
 51
34.77194403194873
  0
LINE
  5
AFF
102
{ACAD_REACTORS
330
11B0
102
}
330
1E
100
AcDbEntity
  8
STEMPEL
100
AcDbLine
 10
129.9410407336311
 20
495.4253553238523
 30
0.0
 11
129.9410407336308
 21
220.9253553238558
 31
0.0
  0
LINE
  5
B00
102
{ACAD_REACTORS
330
10B2
102
}
330
1E
100
AcDbEntity
  8
STEMPEL
100
AcDbLine
 10
263.9410407336311
 20
577.9253553238524
 30
0.0
 11
264.8645048771382
 21
575.9449800772593
 31
0.0
  0
LINE
  5
B01
102
{ACAD_REACTORS
330
11B0
102
}
330
1E
100
AcDbEntity
  8
STEMPEL
100
AcDbLine
 10
123.9410407336312
 20
577.9253553238523
 30
0.0
 11
123.0175765901233
 21
575.9449800772574
 31
0.0
  0
LINE
  5
B02
102
{ACAD_REACTORS
330
10C2
102
}
330
1E
100
AcDbEntity
  8
STEMPEL
100
AcDbLine
 10
257.9410407336311
 20
315.1288907675705
 30
0.0
 11
257.9410407336311
 21
220.9253553238525
 31
0.0
  0
LINE
  5
B03
102
{ACAD_REACTORS
330
11B0
102
}
330
1E
100
AcDbEntity
  8
STEMPEL
100
AcDbLine
 10
129.9410407336308
 20
220.9253553238558
 30
0.0
 11
130.6409500418385
 21
212.9253553238523
 31
0.0
  0
LINE
  5
B05
102
{ACAD_REACTORS
330
10C2
102
}
330
1E
100
AcDbEntity
  8
STEMPEL
100
AcDbLine
 10
257.9410407336311
 20
220.9253553238525
 30
0.0
 11
257.2411314254237
 21
212.9253553238523
 31
0.0
  0
HATCH
  5
BDA
330
1E
100
AcDbEntity
  8
SCHRAFF
100
AcDbHatch
 10
0.0
 20
0.0
 30
0.0
210
0.0
220
0.0
230
1.0
  2
_USER
 70
     0
 71
     1
 91
        3
 92
        7
 72
     0
 73
     1
 93
        4
 10
275.1910407336314
 20
492.5850233157304
 10
278.0910407336313
 20
492.5850233157306
 10
278.0910407336313
 20
577.9253553238524
 10
275.1910407336313
 20
577.9253553238524
 97
        4
330
861
330
9CD
330
ACD
330
9CC
 92
        7
 72
     0
 73
     1
 93
        4
 10
112.6910407336312
 20
577.9253553238524
 10
109.7910407336312
 20
577.9253553238524
 10
109.7910407336313
 20
272.9253553238522
 10
112.6910407336312
 20
272.9253553238522
 97
        4
330
861
330
9C9
330
AB5
330
9CA
 92
        7
 72
     0
 73
     1
 93
        4
 10
275.1910407336314
 20
272.9253553238521
 10
278.0910407336314
 20
272.9253553238521
 10
278.0910407336313
 20
311.5656873319744
 10
275.1910407336314
 20
311.5656873319744
 97
        4
330
ACE
330
AD0
330
AB1
330
ACF
 75
     0
 76
     0
 52
135.0
 41
2.0
 77
     0
 78
     1
 53
135.0
 43
12.42585365679497
 44
-36.80986025602988
 45
-1.414213562373095
 46
-1.414213562373094
 79
     0
 47
0.9744120165665425
 98
        3
 10
276.0936124530612
 20
557.1948684658091
 10
111.3021509933132
 20
383.7495289724379
 10
276.0936124530612
 20
271.6921454920482
  0
HATCH
  5
C8F
330
1E
100
AcDbEntity
  8
SCHRAFF
100
AcDbHatch
 10
0.0
 20
0.0
 30
0.0
210
0.0
220
0.0
230
1.0
  2
NET
 70
     0
 71
     1
 91
        2
 92
        7
 72
     1
 73
     1
 93
        6
 10
269.9410407336312
 20
564.3229778793879
 42
0.0
 10
269.9410407336312
 20
561.9253553238523
 42
0.0
 10
275.1910407336313
 20
561.9253553238521
 42
0.0
 10
275.1910407336313
 20
577.9253553238524
 42
0.0
 10
266.6994855310374
 20
577.9253553238524
 42
0.0
 10
267.1302743447307
 20
577.0015257316093
 42
-0.1095178116832449
 97
        6
330
861
330
849
330
84A
330
860
330
9CB
330
9CD
 92
        7
 72
     1
 73
     1
 93
        6
 10
120.7518071225317
 20
577.0015257316093
 42
0.0
 10
121.182595936225
 20
577.9253553238524
 42
0.0
 10
112.6910407336312
 20
577.9253553238524
 42
0.0
 10
112.6910407336312
 20
561.9253553238523
 42
0.0
 10
117.9410407336312
 20
561.9253553238523
 42
0.0
 10
117.9410407336312
 20
564.3229778793881
 42
-0.1095178116832436
 97
        6
330
84B
330
861
330
9CA
330
9C8
330
85F
330
84C
 75
     0
 76
     1
 52
45.0
 41
15.0
 77
     0
 78
     2
 53
45.0
 43
12.42585365679497
 44
-61.80986025602988
 45
-1.325825214724776
 46
1.325825214724776
 79
     0
 53
135.0
 43
12.42585365679497
 44
-61.80986025602988
 45
-1.325825214724776
 46
-1.325825214724776
 79
     0
 47
0.9744120165665425
 98
        2
 10
271.0605358354101
 20
574.92463958611
 10
116.0200460408446
 20
572.0014025484833
  0
DIMENSION
  5
CE9
330
1E
100
AcDbEntity
  8
BEM
100
AcDbDimension
  2
*D4
 10
93.99582398702248
 20
212.9253553238523
 30
0.0
 11
87.49582398702246
 21
242.9253553238523
 31
0.0
 70
    32
 71
     5
 42
59.99999999999992
  3
Standard
100
AcDbAlignedDimension
 13
109.7910407336313
 23
272.9253553238522
 33
0.0
 14
128.1314004479801
 24
212.9253553238523
 34
0.0
 50
90.0
100
AcDbRotatedDimension
1001
ACAD
1000
DSTYLE
1002
{
1070
   279
1070
     1
1070
    40
1040
2.0
1070
    41
1040
3.5
1070
    42
1040
1.0
1070
    43
1040
7.0
1070
    44
1040
1.0
1070
    73
1070
     0
1070
    74
1070
     0
1070
    77
1070
     1
1070
    78
1070
     8
1070
    79
1070
     2
1070
   140
1040
3.5
1070
   141
1040
1.5
1070
   146
1040
0.5142857142857144
1070
   147
1040
1.5
1070
   172
1070
     1
1070
   178
1070
     1
1070
   179
1070
     2
1070
   271
1070
     2
1070
   272
1070
     2
1070
   284
1070
     8
1070
   285
1070
     8
1070
   286
1070
     8
1002
}
  0
DIMENSION
  5
CF6
330
1E
100
AcDbEntity
  8
BEM
100
AcDbDimension
  2
*D5
 10
61.83987644279296
 20
212.9253553238523
 30
0.0
 11
55.33987644279293
 21
395.4253553238523
 31
0.0
 70
    32
 71
     5
 42
365.0000000000001
  3
Standard
100
AcDbAlignedDimension
 13
109.7910407336312
 23
577.9253553238524
 33
0.0
 14
128.1314004479801
 24
212.9253553238523
 34
0.0
 50
90.0
100
AcDbRotatedDimension
1001
ACAD
1000
DSTYLE
1002
{
1070
    40
1040
2.0
1070
    41
1040
3.5
1070
    42
1040
1.0
1070
    43
1040
7.0
1070
    44
1040
1.0
1070
    73
1070
     0
1070
    74
1070
     0
1070
    77
1070
     1
1070
    78
1070
     8
1070
    79
1070
     2
1070
   140
1040
3.5
1070
   141
1040
1.5
1070
   146
1040
0.5142857142857144
1070
   147
1040
1.5
1070
   172
1070
     1
1070
   178
1070
     1
1070
   179
1070
     2
1070
   271
1070
     2
1070
   272
1070
     2
1070
   284
1070
     8
1070
   285
1070
     8
1070
   286
1070
     8
1002
}
  0
HATCH
  5
DCC
330
1E
100
AcDbEntity
  8
SCHRAFF
100
AcDbHatch
 10
0.0
 20
0.0
 30
0.0
210
0.0
220
0.0
230
1.0
  2
_USER
 70
     0
 71
     0
 91
        1
 92
        7
 72
     1
 73
     1
 93
        3
 10
260.4410407336312
 20
456.5502470048802
 42
0.0
 10
264.6836814207505
 20
460.7928876919995
 42
0.1989123673796574
 10
260.4410407336312
 20
462.5502470048802
 42
0.0
 97
        0
 75
     0
 76
     0
 52
0.0
 41
0.1
 77
     0
 78
     1
 53
0.0
 43
20.18832778761169
 44
20.01131479837778
 45
0.0
 46
0.1
 79
     0
 47
0.0730646231471459
 98
        1
 10
261.4556007084942
 20
460.1028447423521
  0
ARC
  5
DCD
102
{ACAD_REACTORS
330
121B
102
}
330
1E
100
AcDbEntity
  8
SCHRAFF
100
AcDbCircle
 10
260.4410407336312
 20
456.5502470048802
 30
0.0
 40
6.0
100
AcDbArc
 50
45.0
 51
90.0
  0
HATCH
  5
DD0
330
1E
100
AcDbEntity
  8
SCHRAFF
100
AcDbHatch
 10
0.0
 20
0.0
 30
0.0
210
0.0
220
0.0
230
1.0
  2
_USER
 70
     0
 71
     0
 91
        1
 92
        7
 72
     1
 73
     1
 93
        3
 10
260.4410407336312
 20
312.3004636428254
 42
0.0
 10
260.4410407336312
 20
308.3004636428253
 42
0.387248754539159
 10
263.2694678583773
 20
315.1288907675716
 42
0.0
 97
        0
 75
     0
 76
     0
 52
0.0
 41
0.1
 77
     0
 78
     1
 53
0.0
 43
20.18832778761169
 44
20.01131479837778
 45
0.0
 46
0.1
 79
     0
 47
0.0526845570734348
 98
        1
 10
261.3206729800048
 20
312.0475175579414
  0
ARC
  5
DD1
102
{ACAD_REACTORS
330
121B
102
}
330
1E
100
AcDbEntity
  8
SCHRAFF
100
AcDbCircle
 10
258.1080341861961
 20
313.2668265958782
 30
0.0
 40
5.487046612872128
100
AcDbArc
 50
295.1623350292793
 51
19.8376649707218
  0
LINE
  5
E96
102
{ACAD_REACTORS
330
ED1
330
121B
102
}
330
1E
100
AcDbEntity
  8
STEMPEL
100
AcDbLine
 10
399.7091140589167
 20
440.2548284691246
 30
0.0
 11
403.2446479648492
 21
436.7192945631919
 31
0.0
  0
LINE
  5
E97
102
{ACAD_REACTORS
330
ED1
330
10F4
102
}
330
1E
100
AcDbEntity
  8
STEMPEL
100
AcDbLine
 10
407.2799337164218
 20
452.4829986848425
 30
0.0
 11
406.510349751157
 21
450.3685841179031
 31
0.0
  0
LINE
  5
E98
102
{ACAD_REACTORS
330
10F4
102
}
330
1E
100
AcDbEntity
  8
STEMPEL
100
AcDbLine
 10
405.7195216990022
 20
454.0434107022623
 30
0.0
 11
404.6309645095851
 21
451.0526244045545
 31
0.0
  0
ARC
  5
E99
102
{ACAD_REACTORS
330
10F4
102
}
330
1E
100
AcDbEntity
  8
STEMPEL
100
AcDbCircle
 10
383.0180342315094
 20
458.9190877010448
 30
0.0
 40
23.0
100
AcDbArc
 50
315.0
 51
339.9999999999934
  0
ARC
  5
E9A
102
{ACAD_REACTORS
330
ED1
330
10F4
102
}
330
1E
100
AcDbEntity
  8
STEMPEL
100
AcDbCircle
 10
383.0180342315094
 20
458.9190877010448
 30
0.0
 40
25.0
100
AcDbArc
 50
315.0
 51
339.9999999999934
  0
LINE
  5
E9B
102
{ACAD_REACTORS
330
ED1
330
10F4
330
121B
102
}
330
1E
100
AcDbEntity
  8
STEMPEL
100
AcDbLine
 10
400.6957037611731
 20
441.2414181713812
 30
0.0
 11
387.8531964553665
 21
428.3989108655745
 31
0.0
  0
LINE
  5
E9C
102
{ACAD_REACTORS
330
10F4
102
}
330
1E
100
AcDbEntity
  8
STEMPEL
100
AcDbLine
 10
399.2814901988
 20
442.6556317337543
 30
0.0
 11
386.4388410963887
 21
429.8129826313428
 31
0.0
  0
ARC
  5
E9D
102
{ACAD_REACTORS
330
10F4
102
}
330
1E
100
AcDbEntity
  8
STEMPEL
100
AcDbCircle
 10
381.6778911386596
 20
410.9098970498829
 30
0.0
 40
14.0
100
AcDbArc
 50
107.949631436622
 51
135.0
  0
ARC
  5
E9E
102
{ACAD_REACTORS
330
10F4
330
121B
102
}
330
1E
100
AcDbEntity
  8
STEMPEL
100
AcDbCircle
 10
381.6778911386596
 20
410.9098970498829
 30
0.0
 40
12.0
100
AcDbArc
 50
108.1119523822754
 51
135.0
  0
ARC
  5
E9F
102
{ACAD_REACTORS
330
10F4
102
}
330
1E
100
AcDbEntity
  8
STEMPEL
100
AcDbCircle
 10
351.5745798314094
 20
418.9903519267063
 30
0.0
 40
13.0
100
AcDbArc
 50
280.6988472432076
 51
315.0
  0
ARC
  5
EA0
102
{ACAD_REACTORS
330
10F4
330
121B
102
}
330
1E
100
AcDbEntity
  8
STEMPEL
100
AcDbCircle
 10
351.5745798314094
 20
418.9903519267063
 30
0.0
 40
15.0
100
AcDbArc
 50
280.6988472432076
 51
315.0
  0
ARC
  5
EA1
102
{ACAD_REACTORS
330
10F4
330
121B
102
}
330
1E
100
AcDbEntity
  8
STEMPEL
100
AcDbCircle
 10
355.8444572840419
 20
396.3901716942505
 30
0.0
 40
8.0
100
AcDbArc
 50
100.6988472432075
 51
135.0
  0
LINE
  5
EA2
102
{ACAD_REACTORS
330
10F4
330
121B
102
}
330
1E
100
AcDbEntity
  8
STEMPEL
100
AcDbLine
 10
373.1926097644211
 20
419.3951784241215
 30
0.0
 11
362.1811815492075
 21
408.3837502089083
 31
0.0
  0
LINE
  5
EA3
102
{ACAD_REACTORS
330
10F4
102
}
330
1E
100
AcDbEntity
  8
STEMPEL
100
AcDbLine
 10
371.778396202048
 20
420.8093919864945
 30
0.0
 11
360.7669679868346
 21
409.7979637712813
 31
0.0
  0
ARC
  5
EA4
102
{ACAD_REACTORS
330
10F4
102
}
330
1E
100
AcDbEntity
  8
STEMPEL
100
AcDbCircle
 10
355.8444572840419
 20
396.3901716942505
 30
0.0
 40
10.0
100
AcDbArc
 50
100.6988472432075
 51
135.0
  0
ARC
  5
EA5
102
{ACAD_REACTORS
330
10F4
330
121B
102
}
330
1E
100
AcDbEntity
  8
STEMPEL
100
AcDbCircle
 10
370.1755269257028
 20
446.0765803952383
 30
0.0
 40
25.0
100
AcDbArc
 50
288.1119523822754
 51
315.0
  0
ARC
  5
EA6
102
{ACAD_REACTORS
330
10F4
102
}
330
1E
100
AcDbEntity
  8
STEMPEL
100
AcDbCircle
 10
370.1753851290981
 20
446.0764385986336
 30
0.0
 40
23.0
100
AcDbArc
 50
288.2112018947927
 51
315.0
  0
DIMENSION
  5
EAC
330
1E
100
AcDbEntity
  8
BEM
100
AcDbDimension
  2
*D6
 10
262.2672153071889
 20
249.5991807502943
 30
0.0
 11
344.6451553154219
 21
341.1695089139521
 31
0.0
 70
    32
 71
     5
 42
246.0000000000001
  3
Standard
100
AcDbAlignedDimension
 13
414.9119098544274
 23
444.8510225468373
 33
0.0
 14
193.9410407336311
 24
317.9253553238523
 34
0.0
 50
44.99999999999992
100
AcDbRotatedDimension
1001
ACAD
1000
DSTYLE
1002
{
1070
    40
1040
2.0
1070
    41
1040
3.5
1070
    42
1040
1.0
1070
    43
1040
7.0
1070
    44
1040
1.0
1070
    73
1070
     0
1070
    74
1070
     0
1070
    77
1070
     1
1070
    78
1070
     8
1070
    79
1070
     2
1070
   140
1040
3.5
1070
   141
1040
1.5
1070
   146
1040
0.5142857142857144
1070
   147
1040
1.5
1070
   172
1070
     1
1070
   178
1070
     1
1070
   179
1070
     2
1070
   271
1070
     2
1070
   272
1070
     2
1070
   284
1070
     8
1070
   285
1070
     8
1070
   286
1070
     8
1070
   289
1070
     0
1070
   340
1005
24
1002
}
  0
LINE
  5
EAD
102
{ACAD_REACTORS
330
10F4
330
121B
102
}
330
1E
100
AcDbEntity
  8
STEMPEL
100
AcDbLine
 10
350.1876030345496
 20
402.0470259437428
 30
0.0
 11
260.4410407336311
 21
312.3004636428242
 31
0.0
  0
LINE
  5
EAE
102
{ACAD_REACTORS
330
10F4
102
}
330
1E
100
AcDbEntity
  8
STEMPEL
100
AcDbLine
 10
348.7733894721765
 20
403.4612395061158
 30
0.0
 11
260.4410407336311
 21
315.1288907675704
 31
0.0
  0
LINE
  5
EAF
330
1E
100
AcDbEntity
  8
MITTEL
100
AcDbLine
 10
371.4248428114548
 20
495.4091574016754
 30
0.0
 11
193.9410407336312
 21
317.9253553238523
 31
0.0
  0
LINE
  5
EB1
102
{ACAD_REACTORS
330
ED1
330
1106
330
121B
102
}
330
1E
100
AcDbEntity
  8
STEMPEL
100
AcDbLine
 10
413.1441429014609
 20
446.6187894998035
 30
0.0
 11
278.0910407336314
 21
311.5656873319744
 31
0.0
  0
LINE
  5
EB2
102
{ACAD_REACTORS
330
FC4
330
1106
102
}
330
1E
100
AcDbEntity
  8
STEMPEL
100
AcDbLine
 10
414.9119098544273
 20
444.8510225468372
 30
0.0
 11
278.0910407336314
 21
308.0301534260416
 31
0.0
  0
LINE
  5
EB3
102
{ACAD_REACTORS
330
10F4
102
}
330
1E
100
AcDbEntity
  8
STEMPEL
100
AcDbLine
 10
330.0590961120416
 20
529.703836289223
 30
0.0
 11
327.0683098143337
 21
528.6152790998062
 31
0.0
  0
LINE
  5
EB4
102
{ACAD_REACTORS
330
ED1
330
121B
102
}
330
1E
100
AcDbEntity
  8
STEMPEL
100
AcDbLine
 10
312.734979972971
 20
527.2289625550702
 30
0.0
 11
316.2705138789039
 21
523.6934286491373
 31
0.0
  0
ARC
  5
EB5
102
{ACAD_REACTORS
330
ED1
330
10F4
102
}
330
1E
100
AcDbEntity
  8
STEMPEL
100
AcDbCircle
 10
334.934773110824
 20
507.0023488217302
 30
0.0
 40
25.0
100
AcDbArc
 50
110.0000000000065
 51
135.0
  0
ARC
  5
EB6
102
{ACAD_REACTORS
330
10F4
102
}
330
1E
100
AcDbEntity
  8
STEMPEL
100
AcDbCircle
 10
334.934773110824
 20
507.0023488217302
 30
0.0
 40
23.0
100
AcDbArc
 50
110.0000000000065
 51
135.0
  0
LINE
  5
EB7
102
{ACAD_REACTORS
330
ED1
330
10F4
102
}
330
1E
100
AcDbEntity
  8
STEMPEL
100
AcDbLine
 10
328.4986840946218
 20
531.2642483066428
 30
0.0
 11
326.3842695276824
 21
530.494664341378
 31
0.0
  0
LINE
  5
EB8
102
{ACAD_REACTORS
330
ED1
330
10F4
330
121B
102
}
330
1E
100
AcDbEntity
  8
STEMPEL
100
AcDbLine
 10
317.2571035811606
 20
524.6800183513939
 30
0.0
 11
304.4145962753539
 21
511.8375110455873
 31
0.0
  0
LINE
  5
EB9
102
{ACAD_REACTORS
330
10F4
102
}
330
1E
100
AcDbEntity
  8
STEMPEL
100
AcDbLine
 10
318.6713171435337
 20
523.2658047890208
 30
0.0
 11
305.8286680411222
 21
510.4231556866095
 31
0.0
  0
ARC
  5
EBB
102
{ACAD_REACTORS
330
10F4
102
}
330
1E
100
AcDbEntity
  8
STEMPEL
100
AcDbCircle
 10
286.9255824596621
 20
505.6622057288803
 30
0.0
 40
14.0
100
AcDbArc
 50
315.0
 51
342.050368563378
  0
ARC
  5
EBC
102
{ACAD_REACTORS
330
10F4
330
121B
102
}
330
1E
100
AcDbEntity
  8
STEMPEL
100
AcDbCircle
 10
286.9255824596621
 20
505.6622057288803
 30
0.0
 40
12.0
100
AcDbArc
 50
315.0
 51
341.8880476177246
  0
ARC
  5
EBD
102
{ACAD_REACTORS
330
10F4
330
121B
102
}
330
1E
100
AcDbEntity
  8
STEMPEL
100
AcDbCircle
 10
295.0060373364855
 20
475.5588944216302
 30
0.0
 40
15.0
100
AcDbArc
 50
135.0
 51
169.3011527567924
  0
ARC
  5
EBE
102
{ACAD_REACTORS
330
10F4
102
}
330
1E
100
AcDbEntity
  8
STEMPEL
100
AcDbCircle
 10
295.0060373364855
 20
475.5588944216302
 30
0.0
 40
13.0
100
AcDbArc
 50
135.0
 51
169.3011527567924
  0
ARC
  5
EBF
102
{ACAD_REACTORS
330
10F4
330
121B
102
}
330
1E
100
AcDbEntity
  8
STEMPEL
100
AcDbCircle
 10
272.4058571040296
 20
479.828771874263
 30
0.0
 40
8.0
100
AcDbArc
 50
315.0
 51
349.3011527567924
  0
ARC
  5
EC0
102
{ACAD_REACTORS
330
10F4
102
}
330
1E
100
AcDbEntity
  8
STEMPEL
100
AcDbCircle
 10
272.4058571040296
 20
479.828771874263
 30
0.0
 40
10.0
100
AcDbArc
 50
315.0
 51
349.3011527567924
  0
LINE
  5
EC1
102
{ACAD_REACTORS
330
10F4
330
121B
102
}
330
1E
100
AcDbEntity
  8
STEMPEL
100
AcDbLine
 10
295.4108638339008
 20
497.1769243546418
 30
0.0
 11
284.3994356186875
 21
486.1654961394284
 31
0.0
  0
LINE
  5
EC2
102
{ACAD_REACTORS
330
10F4
102
}
330
1E
100
AcDbEntity
  8
STEMPEL
100
AcDbLine
 10
296.8250773962738
 20
495.7627107922688
 30
0.0
 11
285.8136491810604
 21
484.7512825770555
 31
0.0
  0
ARC
  5
EC3
102
{ACAD_REACTORS
330
10F4
102
}
330
1E
100
AcDbEntity
  8
STEMPEL
100
AcDbCircle
 10
322.0921240084128
 20
494.1596997193189
 30
0.0
 40
23.0
100
AcDbArc
 50
135.0
 51
161.7887981052072
  0
ARC
  5
EC4
102
{ACAD_REACTORS
330
10F4
330
121B
102
}
330
1E
100
AcDbEntity
  8
STEMPEL
100
AcDbCircle
 10
322.0922658050174
 20
494.1598415159237
 30
0.0
 40
25.0
100
AcDbArc
 50
135.0
 51
161.8880476177246
  0
LINE
  5
ECB
102
{ACAD_REACTORS
330
10F4
330
121B
102
}
330
1E
100
AcDbEntity
  8
STEMPEL
100
AcDbLine
 10
278.062711353522
 20
474.1719176247706
 30
0.0
 11
260.4410407336312
 21
456.5502470048798
 31
0.0
  0
LINE
  5
ECC
102
{ACAD_REACTORS
330
10F4
102
}
330
1E
100
AcDbEntity
  8
STEMPEL
100
AcDbLine
 10
279.4769249158951
 20
472.7577040623976
 30
0.0
 11
260.4410407336312
 21
453.7218198801337
 31
0.0
  0
LINE
  5
ECD
102
{ACAD_REACTORS
330
ED1
330
1106
330
121B
102
}
330
1E
100
AcDbEntity
  8
STEMPEL
100
AcDbLine
 10
322.6344749095828
 20
537.128457491682
 30
0.0
 11
278.0910407336313
 21
492.5850233157304
 31
0.0
  0
LINE
  5
ECE
102
{ACAD_REACTORS
330
FBA
330
1106
102
}
330
1E
100
AcDbEntity
  8
STEMPEL
100
AcDbLine
 10
320.8667079566164
 20
538.8962244446483
 30
0.0
 11
278.0910407336314
 21
496.1205572216632
 31
0.0
  0
HATCH
  5
ED1
330
1E
100
AcDbEntity
  8
SCHRAFF
100
AcDbHatch
 10
0.0
 20
0.0
 30
0.0
210
0.0
220
0.0
230
1.0
  2
NET
 70
     0
 71
     1
 91
        2
 92
        7
 72
     1
 73
     1
 93
        6
 10
413.1441429014611
 20
446.6187894998037
 42
0.0
 10
407.2799337164219
 20
452.4829986848429
 42
0.0
 10
406.510349751157
 20
450.3685841179031
 42
-0.1095178116832423
 10
400.6957037611729
 20
441.241418171381
 42
0.0
 10
399.7091140589166
 20
440.2548284691246
 42
0.0
 10
403.2446479648491
 20
436.7192945631919
 42
0.0
 97
        6
330
ED5
330
E97
330
E9A
330
E9B
330
E96
330
EB1
 92
        7
 72
     1
 73
     1
 93
        6
 10
312.7349799729711
 20
527.22896255507
 42
0.0
 10
316.2705138789039
 20
523.6934286491374
 42
0.0
 10
317.2571035811606
 20
524.6800183513939
 42
-0.1095178116832407
 10
326.3842695276824
 20
530.494664341378
 42
0.0
 10
328.4986840946219
 20
531.2642483066428
 42
0.0
 10
322.6344749095828
 20
537.128457491682
 42
0.0
 97
        6
330
EB7
330
ED5
330
ECD
330
EB4
330
EB8
330
EB5
 75
     0
 76
     1
 52
-0.0000000000000127
 41
20.0
 77
     0
 78
     2
 53
360.0
 43
-344.691372518071
 44
547.109592839934
 45
0.0000000000000007
 46
2.5
 79
     0
 53
90.0
 43
-344.691372518071
 44
547.109592839934
 45
-2.5
 46
0.0000000000000007
 79
     0
 47
0.2497795766399111
 98
        2
 10
408.3118039595576
 20
445.7971550096974
 10
318.8842784497025
 20
530.6325386589292
  0
DIMENSION
  5
ED4
330
1E
100
AcDbEntity
  8
BEM
100
AcDbDimension
  2
*D7
 10
423.8487514543456
 20
453.7878641467556
 30
0.0
 11
381.4223445831527
 21
505.4066591733737
 31
0.0
 70
    32
  1
%%c<>
 71
     5
 42
133.0000000000003
  3
Standard
100
AcDbAlignedDimension
 13
320.8667079566164
 23
538.8962244446483
 33
0.0
 14
414.9119098544274
 24
444.8510225468373
 34
0.0
 50
315.0000000000001
100
AcDbRotatedDimension
1001
ACAD
1000
DSTYLE
1002
{
1070
    40
1040
2.0
1070
    41
1040
3.5
1070
    42
1040
1.0
1070
    43
1040
7.0
1070
    44
1040
1.0
1070
    73
1070
     0
1070
    74
1070
     0
1070
    77
1070
     1
1070
    78
1070
     8
1070
    79
1070
     2
1070
   140
1040
3.5
1070
   141
1040
1.5
1070
   146
1040
0.5142857142857144
1070
   147
1040
1.5
1070
   172
1070
     1
1070
   178
1070
     1
1070
   179
1070
     2
1070
   271
1070
     2
1070
   272
1070
     2
1070
   284
1070
     8
1070
   285
1070
     8
1070
   286
1070
     8
1070
   289
1070
     0
1070
   340
1005
24
1002
}
  0
LINE
  5
ED5
102
{ACAD_REACTORS
330
ED1
330
10F4
330
1106
102
}
330
1E
100
AcDbEntity
  8
STEMPEL
100
AcDbLine
 10
320.8667079566164
 20
538.8962244446483
 30
0.0
 11
414.9119098544274
 21
444.8510225468373
 31
0.0
  0
LINE
  5
ED7
330
1E
100
AcDbEntity
  8
HILF
100
AcDbLine
 10
300.3150876455533
 20
496.903144656083
 30
0.0
 11
372.9188300658622
 21
424.299402235774
 31
0.0
  0
LINE
  5
ED8
330
1E
100
AcDbEntity
  8
HILF
100
AcDbLine
 10
356.1544461939631
 20
408.9891107986691
 30
0.0
 11
285.0047962084481
 21
480.138760784184
 31
0.0
  0
LINE
  5
ED9
330
1E
100
AcDbEntity
  8
HILF
100
AcDbLine
 10
282.716095402909
 20
473.6888218565249
 30
0.0
 11
349.7045072663042
 21
406.7004099931298
 31
0.0
  0
TEXT
  5
EDA
330
1E
100
AcDbEntity
  8
TEXT
 62
     1
100
AcDbText
 10
337.4458230464079
 20
474.3121393421476
 30
0.0
 40
7.0
  1
DN100
 50
44.99999999999999
 41
0.8
  7
GREEKS
100
AcDbText
  0
LINE
  5
FB3
330
1E
100
AcDbEntity
  8
STEMPEL
100
AcDbLine
 10
260.4410407336312
 20
453.7218198801337
 30
0.0
 11
257.9410407336311
 21
453.7218198801337
 31
0.0
  0
LINE
  5
FB4
102
{ACAD_REACTORS
330
10C2
102
}
330
1E
100
AcDbEntity
  8
STEMPEL
100
AcDbLine
 10
260.4410407336311
 20
315.1288907675705
 30
0.0
 11
257.941040733631
 21
315.1288907675705
 31
0.0
  0
ARC
  5
FB6
102
{ACAD_REACTORS
330
FBA
102
}
330
1E
100
AcDbEntity
  8
SCHRAFF
100
AcDbCircle
 10
278.0910407336313
 20
496.1205572216631
 30
0.0
 40
4.0
100
AcDbArc
 50
45.00000000000057
 51
90.0
  0
HATCH
  5
FBA
330
1E
100
AcDbEntity
  8
SCHRAFF
100
AcDbHatch
 10
0.0
 20
0.0
 30
0.0
210
0.0
220
0.0
230
1.0
  2
_USER
 70
     0
 71
     1
 91
        1
 92
        7
 72
     1
 73
     1
 93
        3
 10
278.0910407336313
 20
500.1205572216631
 42
0.0
 10
278.0910407336314
 20
496.1205572216631
 42
0.0
 10
280.9194678583775
 20
498.9489843464093
 42
0.1989123673796554
 97
        3
330
9CC
330
ECE
330
FB6
 75
     0
 76
     0
 52
0.0
 41
0.1
 77
     0
 78
     1
 53
0.0
 43
12.42585365679497
 44
-36.80986025602988
 45
0.0
 46
0.1
 79
     0
 47
0.0552789008926723
 98
        1
 10
279.1006187911835
 20
499.1870858786658
  0
ARC
  5
FBD
102
{ACAD_REACTORS
330
FC4
102
}
330
1E
100
AcDbEntity
  8
SCHRAFF
100
AcDbCircle
 10
269.4450601179964
 20
311.6114358570525
 30
0.0
 40
12.65291073759697
100
AcDbArc
 50
313.1035881025919
 51
1.896411897408045
  0
HATCH
  5
FC4
330
1E
100
AcDbEntity
  8
SCHRAFF
100
AcDbHatch
 10
0.0
 20
0.0
 30
0.0
210
0.0
220
0.0
230
1.0
  2
_USER
 70
     0
 71
     1
 91
        1
 92
        7
 72
     1
 73
     1
 93
        3
 10
278.0910407336314
 20
302.3732991765491
 42
0.2161748773578117
 10
282.0910407336315
 20
312.0301534260417
 42
0.0
 10
278.0910407336314
 20
308.0301534260415
 42
0.0
 97
        3
330
EB2
330
ACF
330
FBD
 75
     0
 76
     0
 52
0.0
 41
0.1
 77
     0
 78
     1
 53
0.0
 43
12.42585365679497
 44
-36.80986025602988
 45
0.0
 46
0.1
 79
     0
 47
0.0552789008926718
 98
        1
 10
279.2665701888477
 20
306.3743088602048
  0
ELLIPSE
  5
FCC
330
1E
100
AcDbEntity
  8
STEMPEL
100
AcDbEllipse
 10
257.9410407336311
 20
359.0957330243299
 30
0.0
 11
0.0
 21
43.96684225675943
 31
0.0
210
0.0
220
0.0
230
1.0
 40
0.519246348559686
 41
1.570796326794896
 42
3.141592653589793
  0
ELLIPSE
  5
FCE
330
1E
100
AcDbEntity
  8
STEMPEL
100
AcDbEllipse
 10
257.9410407336311
 20
359.0957330243299
 30
0.0
 11
0.0
 21
-94.62608685580379
 31
0.0
210
0.0
220
0.0
230
1.0
 40
0.2412614011431229
 41
3.141592653589793
 42
4.712388980384689
  0
HATCH
  5
10B2
330
1E
100
AcDbEntity
  8
SCHRAFF
100
AcDbHatch
 10
0.0
 20
0.0
 30
0.0
210
0.0
220
0.0
230
1.0
  2
_USER
 70
     0
 71
     1
 91
        1
 92
       33
 93
       19
 72
     1
 10
263.9410407336311
 20
577.9253553238524
 11
264.8645048771382
 21
575.9449800772593
 72
     2
 10
239.9410407336312
 20
564.322977879388
 40
27.5
 50
0.0
 51
25.00000000000455
 73
     1
 72
     1
 10
267.4410407336312
 20
564.322977879388
 11
267.4410407336312
 21
545.2163553238523
 72
     2
 10
239.9410407336312
 20
545.2163553238523
 40
27.4997362596921
 50
334.9928416634479
 51
360.0
 73
     1
 72
     1
 10
269.9410407336312
 20
564.322977879388
 11
269.9410407336312
 21
545.2163553238523
 72
     2
 10
239.9410407336312
 20
545.2163553238523
 40
29.99973625969209
 50
334.9928416634572
 51
360.0
 73
     1
 72
     1
 10
269.9407769933233
 20
545.2163553238523
 11
269.9410407336312
 21
545.2163553238523
 72
     2
 10
239.9410407336312
 20
564.322977879388
 40
30.0
 50
0.0
 51
24.99999999999246
 73
     1
 72
     1
 10
266.6994855310374
 20
577.9253553238524
 11
267.1302743447307
 21
577.0015257316093
 72
     2
 10
283.4410407336312
 20
524.9253553238523
 40
20.5
 50
154.9928416634474
 51
180.0
 73
     1
 72
     1
 10
262.9410407336312
 20
524.9253553238523
 11
262.9410407336312
 21
511.3940747465234
 72
     2
 10
247.4410407336312
 20
511.3940747465234
 40
15.5
 50
325.2280559680518
 51
360.0
 73
     1
 72
     2
 10
270.4410407336312
 20
495.4253553238523
 40
12.5
 50
145.2280559680518
 51
180.0
 73
     1
 72
     1
 10
265.4410407336312
 20
524.9253553238523
 11
265.4410407336312
 21
511.3940747465234
 72
     2
 10
270.4410407336312
 20
495.4253553238523
 40
10.0
 50
145.2280559680515
 51
180.0
 73
     1
 72
     2
 10
247.4410407336312
 20
511.3940747465234
 40
18.0
 50
325.2280559680515
 51
360.0
 73
     1
 72
     2
 10
283.4410407336312
 20
524.9253553238523
 40
18.0
 50
154.9928416634572
 51
180.0
 73
     1
 72
     1
 10
257.9410407336312
 20
495.4253553238523
 11
257.9410407336311
 21
453.7218198801337
 72
     1
 10
260.4410407336312
 20
495.4253553238523
 11
260.4410407336312
 21
453.7218198801337
 97
       19
330
B00
330
AF4
330
AF3
330
AF2
330
860
330
84E
330
84D
330
84A
330
849
330
AF0
330
AEF
330
AED
330
AEB
330
852
330
851
330
850
330
84F
330
AEA
330
854
 75
     0
 76
     0
 52
45.0
 41
2.0
 77
     0
 78
     1
 53
45.0
 43
0.0
 44
-61.80986025602988
 45
-1.414213562373094
 46
1.414213562373095
 79
     0
 98
        1
 10
0.0
 20
-61.80986025602988
  0
HATCH
  5
10C2
330
1E
100
AcDbEntity
  8
BEM
100
AcDbHatch
 10
0.0
 20
0.0
 30
0.0
210
0.0
220
0.0
230
1.0
  2
_USER
 70
     0
 71
     1
 91
        1
 92
        7
 72
     0
 73
     1
 93
        6
 10
260.4410407336311
 20
315.1288907675705
 10
257.9410407336311
 20
315.1288907675705
 10
257.9410407336311
 20
220.9253553238523
 10
257.2411314254237
 20
212.9253553238523
 10
259.7506810192821
 20
212.9253553238523
 10
260.4410407336311
 20
220.8162029665804
 97
        6
330
FB4
330
B02
330
B05
330
863
330
846
330
83D
 75
     0
 76
     0
 52
45.0
 41
2.0
 77
     0
 78
     1
 53
45.0
 43
0.0
 44
-11.80986025602988
 45
-1.414213562373094
 46
1.414213562373095
 79
     0
 47
0.3377760154004632
 98
        1
 10
259.2504956088815
 20
302.5080298233704
  0
HATCH
  5
10F4
330
1E
100
AcDbEntity
  8
BEM
100
AcDbHatch
 10
0.0
 20
0.0
 30
0.0
210
0.0
220
0.0
230
1.0
  2
_USER
 70
     0
 71
     1
 91
        2
 92
        7
 72
     1
 73
     1
 93
       20
 10
279.4769249158951
 20
472.7577040623976
 42
0.1507946423587009
 10
282.2320224224887
 20
477.9723034165965
 42
-0.1507946423587051
 10
285.8136491810604
 20
484.7512825770555
 42
0.0
 10
296.8250773962738
 20
495.7627107922688
 42
0.1171420130222247
 10
300.2194691887361
 20
501.2721515567144
 42
-0.1182991460892519
 10
305.8286680411222
 20
510.4231556866095
 42
0.0
 10
318.6713171435337
 20
523.2658047890208
 42
-0.1095178116832397
 10
327.0683098143337
 20
528.6152790998062
 42
0.0
 10
330.0590961120418
 20
529.703836289223
 42
0.0
 10
328.4986840946218
 20
531.2642483066428
 42
0.0
 10
326.3842695276824
 20
530.494664341378
 42
0.1095178116832423
 10
317.2571035811604
 20
524.6800183513938
 42
0.0
 10
304.4145962753539
 20
511.8375110455873
 42
0.1178625008509392
 10
298.3309932743718
 20
501.9317092273807
 42
-0.1178625008509317
 10
295.4108638339007
 20
497.1769243546417
 42
0.0
 10
284.3994356186875
 20
486.1654961394284
 42
0.150794642358706
 10
280.2667893587968
 20
478.3435971081297
 42
-0.1507946423586983
 10
278.062711353522
 20
474.1719176247706
 42
0.0
 10
260.4410407336313
 20
456.5502470048799
 42
0.0
 10
260.4410407336312
 20
453.7218198801337
 42
0.0
 97
       20
330
EC0
330
EBE
330
EC2
330
EBB
330
EC3
330
EB9
330
EB6
330
EB3
330
ED5
330
EB7
330
EB5
330
EB8
330
EC4
330
EBC
330
EC1
330
EBD
330
EBF
330
ECB
330
854
330
ECC
 92
        7
 72
     1
 73
     1
 93
       20
 10
350.1876030345496
 20
402.0470259437428
 42
-0.1507946423587061
 10
354.3592825179089
 20
404.2511039490178
 42
0.1507946423587032
 10
362.1811815492075
 20
408.3837502089083
 42
0.0
 10
373.1926097644211
 20
419.3951784241215
 42
-0.1178625008509365
 10
377.9473946371602
 20
422.3153078645927
 42
0.1178625008509357
 10
387.8531964553665
 20
428.3989108655745
 42
0.0
 10
400.6957037611731
 20
441.2414181713812
 42
0.1095178116832394
 10
406.510349751157
 20
450.3685841179031
 42
0.0
 10
407.2799337164219
 20
452.4829986848429
 42
0.0
 10
405.7195216990023
 20
454.0434107022624
 42
0.0
 10
404.6309645095851
 20
451.0526244045545
 42
-0.1095178116832436
 10
399.2814901987998
 20
442.655631733754
 42
0.0
 10
386.4388410963887
 20
429.8129826313428
 42
-0.1182991460890332
 10
377.2878369665124
 20
424.203783778963
 42
0.117142013022583
 10
371.778396202048
 20
420.8093919864945
 42
0.0
 10
360.7669679868346
 20
409.7979637712813
 42
-0.1507946423587099
 10
353.9879888263755
 20
406.2163370127094
 42
0.1507946423587112
 10
348.7733894721762
 20
403.4612395061156
 42
0.0
 10
260.4410407336311
 20
315.1288907675704
 42
0.0
 10
260.4410407336311
 20
312.3004636428242
 42
0.0
 97
       20
330
EA1
330
EA0
330
EA2
330
E9E
330
EA5
330
E9B
330
E9A
330
E97
330
ED5
330
E98
330
E99
330
E9C
330
EA6
330
E9D
330
EA3
330
E9F
330
EA4
330
EAE
330
83D
330
EAD
 75
     0
 76
     0
 52
90.0
 41
2.0
 77
     0
 78
     1
 53
90.0
 43
0.0
 44
-36.80986025602988
 45
-2.0
 46
0.0000000000000001
 79
     0
 47
0.4623950932218309
 98
        2
 10
270.7976210384781
 20
464.9131831319143
 10
319.3834441306981
 20
372.4341630072069
  0
HATCH
  5
1106
330
1E
100
AcDbEntity
  8
BEM
100
AcDbHatch
 10
0.0
 20
0.0
 30
0.0
210
0.0
220
0.0
230
1.0
  2
_USER
 70
     0
 71
     1
 91
        2
 92
        7
 72
     0
 73
     1
 93
        4
 10
322.6344749095828
 20
537.128457491682
 10
320.8667079566164
 20
538.8962244446485
 10
278.0910407336313
 20
496.1205572216631
 10
278.0910407336313
 20
492.5850233157304
 97
        4
330
ED5
330
ECE
330
9CC
330
ECD
 92
        7
 72
     0
 73
     1
 93
        4
 10
414.9119098544274
 20
444.8510225468373
 10
413.1441429014611
 20
446.6187894998036
 10
278.0910407336314
 20
311.5656873319744
 10
278.0910407336314
 20
308.0301534260416
 97
        4
330
ED5
330
EB1
330
ACF
330
EB2
 75
     0
 76
     0
 52
0.0
 41
2.0
 77
     0
 78
     1
 53
0.0
 43
0.0
 44
-36.80986025602988
 45
0.0
 46
2.0
 79
     0
 47
0.4623950932218309
 98
        2
 10
299.9491148938105
 20
515.7766427162666
 10
350.3858291312317
 20
383.0692497773278
  0
HATCH
  5
11B0
330
1E
100
AcDbEntity
  8
SCHRAFF
100
AcDbHatch
 10
0.0
 20
0.0
 30
0.0
210
0.0
220
0.0
230
1.0
  2
_USER
 70
     0
 71
     1
 91
        1
 92
       33
 93
       21
 72
     1
 10
129.9410407336311
 20
495.4253553238523
 11
129.9410407336308
 21
220.9253553238558
 72
     1
 10
127.4410407336311
 20
495.4253553238523
 11
127.4410407336308
 21
220.8162029665846
 72
     1
 10
129.9410407336308
 20
220.9253553238558
 11
130.6409500418385
 21
212.9253553238523
 72
     1
 10
127.4410407336308
 20
220.8162029665846
 11
128.1314004479801
 21
212.9253553238523
 72
     1
 10
123.9410407336312
 20
577.9253553238523
 11
123.0175765901233
 21
575.9449800772574
 72
     2
 10
117.4410407336311
 20
495.4253553238523
 40
12.5
 50
0.0
 51
34.77194403194873
 73
     1
 72
     2
 10
140.4410407336312
 20
511.3940747465236
 40
15.5
 50
179.9999999999996
 51
214.7719440319482
 73
     1
 72
     1
 10
124.9410407336312
 20
524.9253553238523
 11
124.9410407336311
 21
511.3940747465237
 72
     2
 10
104.4410407336312
 20
524.9253553238523
 40
20.5
 50
0.0
 51
25.00715833654288
 73
     1
 72
     2
 10
147.9410407336312
 20
545.2163553238524
 40
27.4997362596921
 50
180.0
 51
205.0071583365429
 73
     1
 72
     1
 10
120.4410407336312
 20
564.3229778793881
 11
120.4410407336312
 21
545.2163553238524
 72
     2
 10
147.9410407336312
 20
564.3229778793881
 40
27.5
 50
155.0000000000074
 51
180.0
 73
     1
 72
     1
 10
117.9410407336312
 20
564.3229778793881
 11
117.9410407336312
 21
545.2163553238524
 72
     1
 10
122.4410407336312
 20
524.9253553238523
 11
122.4410407336311
 21
511.3940747465236
 72
     2
 10
140.4410407336312
 20
511.3940747465236
 40
18.0
 50
180.0
 51
214.7719440319485
 73
     1
 72
     2
 10
117.4410407336311
 20
495.4253553238523
 40
10.0
 50
0.0
 51
34.77194403194851
 73
     1
 72
     2
 10
104.4410407336312
 20
524.9253553238523
 40
18.0
 50
0.0
 51
25.00715833654288
 73
     1
 72
     2
 10
147.9410407336312
 20
545.2163553238524
 40
29.99973625969209
 50
180.0
 51
205.0071583365429
 73
     1
 72
     1
 10
117.9413044739391
 20
545.2163553238524
 11
117.9410407336312
 21
545.2163553238524
 72
     2
 10
147.9410407336312
 20
564.3229778793881
 40
30.0
 50
155.0000000000074
 51
180.0
 73
     1
 72
     1
 10
121.182595936225
 20
577.9253553238524
 11
120.7518071225317
 21
577.0015257316093
 97
       21
330
AFF
330
85B
330
B03
330
847
330
B01
330
AFD
330
AFB
330
AFA
330
AF8
330
AF7
330
AF6
330
AF5
330
85F
330
85A
330
859
330
858
330
857
330
856
330
855
330
84C
330
84B
 75
     0
 76
     0
 52
45.0
 41
2.0
 77
     0
 78
     1
 53
45.0
 43
0.0
 44
-36.80986025602988
 45
-1.414213562373094
 46
1.414213562373095
 79
     0
 98
        1
 10
0.0
 20
-36.80986025602988
  0
HATCH
  5
121B
330
1E
100
AcDbEntity
  8
SCHRAFF
100
AcDbHatch
 10
0.0
 20
0.0
 30
0.0
210
0.0
220
0.0
230
1.0
  2
HONEY
 70
     0
 71
     1
 91
        3
 92
        7
 72
     1
 73
     1
 93
       21
 10
260.4410407336312
 20
462.5502470048802
 42
-0.1989123673796709
 10
264.6836814207507
 20
460.7928876919993
 42
0.0
 10
278.062711353522
 20
474.1719176247706
 42
0.1507946423587
 10
280.2667893587968
 20
478.3435971081298
 42
-0.1507946423587051
 10
284.3994356186875
 20
486.1654961394284
 42
0.0
 10
295.4108638339008
 20
497.1769243546418
 42
0.1178625008509332
 10
298.3309932743718
 20
501.9317092273809
 42
-0.1178625008509376
 10
304.4145962753539
 20
511.8375110455873
 42
0.0
 10
316.270513878904
 20
523.6934286491374
 42
0.0
 10
312.7349799729711
 20
527.2289625550702
 42
0.0
 10
278.0910407336313
 20
492.5850233157304
 42
0.0
 10
275.1910407336314
 20
492.5850233157305
 42
0.0
 10
275.1910407336313
 20
561.9253553238521
 42
0.0
 10
269.9410407336312
 20
561.9253553238521
 42
0.0
 10
269.9410407336312
 20
545.2163553238523
 42
0.0
 10
269.9407769933233
 20
545.2163553238523
 42
-0.1095494205537241
 10
267.1284511026456
 20
532.5345221331068
 42
0.1095494205538386
 10
265.4410407336312
 20
524.9253553238522
 42
0.0
 10
265.4410407336312
 20
511.3940747465234
 42
-0.1528962216020395
 10
262.2267550193455
 20
501.1284694033776
 42
0.1528962216020395
 10
260.4410407336312
 20
495.4253553238523
 42
0.0
 97
       21
330
EBC
330
EC4
330
EB8
330
EB4
330
ECD
330
ACD
330
9CD
330
9CB
330
860
330
84D
330
84E
330
84F
330
852
330
850
330
851
330
854
330
DCD
330
ECB
330
EBF
330
EBD
330
EC1
 92
        7
 72
     1
 73
     1
 93
       12
 10
127.4410407336311
 20
495.4253553238523
 42
0.1528962216020391
 10
125.6553264479168
 20
501.1284694033778
 42
-0.1528962216020397
 10
122.4410407336311
 20
511.3940747465236
 42
0.0
 10
122.4410407336312
 20
524.9253553238523
 42
0.1095494205537669
 10
120.7536303646189
 20
532.5345221331023
 42
-0.1095494205537669
 10
117.9413044739391
 20
545.2163553238524
 42
0.0
 10
117.9410407336312
 20
545.2163553238524
 42
0.0
 10
117.9410407336312
 20
561.9253553238523
 42
0.0
 10
112.6910407336312
 20
561.9253553238523
 42
0.0
 10
112.6910407336313
 20
286.8253553238523
 42
0.0
 10
114.7910407336313
 20
288.9253553238523
 42
0.0
 10
127.4410407336309
 20
288.9253553238523
 42
0.0
 97
       12
330
858
330
859
330
85A
330
857
330
856
330
855
330
85F
330
9C8
330
9CA
330
AB6
330
AB3
330
85B
 92
        7
 72
     1
 73
     1
 93
       15
 10
260.4410407336311
 20
308.3004636428253
 42
0.0
 10
260.4410407336311
 20
288.9253553238523
 42
0.0
 10
273.0910407336311
 20
288.9253553238523
 42
0.0
 10
275.1910407336314
 20
286.825355323852
 42
0.0
 10
275.1910407336315
 20
311.5656873319744
 42
0.0
 10
278.0910407336314
 20
311.5656873319744
 42
0.0
 10
403.2446479648491
 20
436.7192945631918
 42
0.0
 10
399.7091140589167
 20
440.2548284691247
 42
0.0
 10
387.8531964553665
 20
428.3989108655745
 42
-0.1178625008509384
 10
377.9473946371599
 20
422.3153078645927
 42
0.1178625008509241
 10
373.1926097644213
 20
419.3951784241217
 42
0.0
 10
362.1811815492075
 20
408.3837502089083
 42
-0.1507946423587073
 10
354.3592825179088
 20
404.2511039490175
 42
0.1507946423587137
 10
350.1876030345493
 20
402.0470259437424
 42
0.0
 10
263.2694678583777
 20
315.1288907675708
 42
-0.3872487545391246
 97
       15
330
ACE
330
EB1
330
E96
330
E9B
330
EA5
330
E9E
330
EA2
330
EA0
330
EA1
330
EAD
330
DD1
330
83D
330
AAF
330
AAD
330
AD0
 75
     0
 76
     1
 52
0.0
 41
30.0
 77
     0
 78
     3
 53
0.0
 43
0.0
 44
-36.80986025602988
 45
5.625
 46
3.247595249999999
 79
     2
 49
3.75
 49
-7.5
 53
120.0
 43
0.0
 44
-36.80986025602988
 45
-5.624999987709673
 46
3.247595271287468
 79
     2
 49
3.749999999999999
 49
-7.499999999999999
 53
60.0
 43
0.0
 44
-36.80986025602988
 45
0.0000000122903263
 46
6.495190521287468
 79
     2
 49
-7.5
 49
3.75
 47
0.7147225850261262
 98
        3
 10
264.7636579831469
 20
489.4911372313461
 10
120.2875827214984
 20
429.4544396840053
 10
267.6245712816522
 20
305.807433218552
  0
TEXT
  5
1225
330
1E
100
AcDbEntity
  8
TEXT
 62
     1
100
AcDbText
 10
430.8148736607861
 20
654.3504849345181
 30
0.0
 40
7.0
  1
feuerverzinkt
 50
90.0
 41
0.8
  7
GREEKS
100
AcDbText
  0
LINE
  5
12E6
330
1E
100
AcDbEntity
  8
STEMPEL
100
AcDbLine
 10
269.9410407336312
 20
270.9253553238513
 30
0.0
 11
267.7974471941819
 21
278.9253553238523
 31
0.0
  0
LINE
  5
12E7
330
1E
100
AcDbEntity
  8
STEMPEL
100
AcDbLine
 10
278.0910407336309
 20
270.9253553238512
 30
0.0
 11
260.4410407336307
 21
270.9253553238513
 31
0.0
  0
HATCH
  5
12E8
330
1E
100
AcDbEntity
  8
SCHRAFF
100
AcDbHatch
 10
0.0
 20
0.0
 30
0.0
210
0.0
220
0.0
230
1.0
  2
NET
 70
     0
 71
     0
 91
        2
 92
        7
 72
     0
 73
     1
 93
        9
 10
267.7974471941819
 20
278.9253553238524
 10
269.9410407336312
 20
270.9253553238513
 10
278.0910407336309
 20
270.9253553238512
 10
278.0910407336309
 20
272.9253553238522
 10
275.1910407336308
 20
272.9253553238521
 10
275.1910407336309
 20
286.8253553238525
 10
273.0910407336308
 20
288.9253553238523
 10
260.4410407336307
 20
288.9253553238524
 10
260.4410407336308
 20
278.9253553238524
 97
        0
 92
        7
 72
     0
 73
     1
 93
        9
 10
120.0846342730799
 20
278.9253553238523
 10
127.4410407336307
 20
278.9253553238523
 10
127.4410407336307
 20
288.9253553238523
 10
114.7910407336309
 20
288.9253553238523
 10
112.6910407336308
 20
286.8253553238521
 10
112.6910407336308
 20
272.9253553238522
 10
109.7910407336308
 20
272.9253553238522
 10
109.7910407336308
 20
270.9253553238523
 10
117.9410407336308
 20
270.9253553238522
 97
        0
 75
     0
 76
     1
 52
45.0
 41
20.0
 77
     0
 78
     2
 53
45.0
 43
-31.05895926636919
 44
-40.66025512777474
 45
-1.767766952966368
 46
1.767766952966368
 79
     0
 53
135.0
 43
-31.05895926636919
 44
-40.66025512777474
 45
-1.767766952966368
 46
-1.767766952966368
 79
     0
 47
0.2115359210124944
 98
        2
 10
270.1008042689445
 20
281.3186130126439
 10
118.7613776282191
 20
283.0109004945893
  0
LINE
  5
12E9
330
1E
100
AcDbEntity
  8
STEMPEL
100
AcDbLine
 10
117.9410407336309
 20
270.9253553238523
 30
0.0
 11
120.08463427308
 21
278.9253553238523
 31
0.0
  0
LINE
  5
12EA
330
1E
100
AcDbEntity
  8
STEMPEL
100
AcDbLine
 10
127.4410407336306
 20
270.9253553238522
 30
0.0
 11
109.7910407336308
 21
270.9253553238523
 31
0.0
  0
LINE
  5
1316
330
1E
100
AcDbEntity
  8
BEM
100
AcDbLine
 10
372.8390563738279
 20
496.8233709640485
 30
0.0
 11
374.4715939854994
 21
498.45590857572
 31
0.0
  0
LINE
  5
1317
330
1E
100
AcDbEntity
  8
BEM
100
AcDbLine
 10
193.9410407336312
 20
584.9253553238526
 30
0.0
 11
193.9410407336312
 21
589.6730576387954
 31
0.0
  0
ARC
  5
1318
330
1E
100
AcDbEntity
  8
BEM
100
AcDbCircle
 10
193.9410407336312
 20
317.9253553238523
 30
0.0
 40
302.0690567215681
100
AcDbArc
 50
46.32777397205376
 51
88.67222602794617
  0
SOLID
  5
1319
330
1E
100
AcDbEntity
  8
BEM
100
AcDbTrace
 10
403.3446963693855
 20
537.2469585256334
 30
0.0
 11
401.7140084728811
 21
535.5780362899858
 31
0.0
 12
407.536119128076
 22
531.5204337182966
 32
0.0
 13
407.536119128076
 23
531.5204337182966
 33
0.0
  0
SOLID
  5
131A
330
1E
100
AcDbEntity
  8
BEM
100
AcDbTrace
 10
200.9270529525394
 20
618.746716414115
 30
0.0
 11
200.9540887130218
 21
621.0798931138314
 31
0.0
 12
193.9410407336314
 22
619.9944120454203
 32
0.0
 13
193.9410407336314
 23
619.9944120454203
 33
0.0
  0
MTEXT
  5
131B
330
1E
100
AcDbEntity
  8
BEM
 62
     1
100
AcDbMText
 10
312.0253064814991
 20
603.0059911952232
 30
0.0
 40
7.0
 41
0.0
 71
     5
 72
     1
  1
\A1;45°
 11
0.9238795325112864
 21
-0.3826834323650904
 31
0.0
 73
     1
 44
1.0
  0
LINE
  5
131C
330
1E
100
AcDbEntity
  8
BEM
100
AcDbLine
 10
193.9410407336313
 20
605.4025379310673
 30
0.0
 11
193.9410407336314
 21
621.9944120454203
 31
0.0
  0
LINE
  5
131D
330
1E
100
AcDbEntity
  8
BEM
100
AcDbLine
 10
386.950446429994
 20
510.9347610202147
 30
0.0
 11
408.950332690449
 21
532.9346472806698
 31
0.0
  0
ENDSEC
  0
SECTION
  2
OBJECTS
  0
DICTIONARY
  5
C
330
0
100
AcDbDictionary
281
     1
  3
ACAD_COLOR
350
11A
  3
ACAD_GROUP
350
D
  3
ACAD_LAYOUT
350
19
  3
ACAD_MATERIAL
350
119
  3
ACAD_MLINESTYLE
350
16
  3
ACAD_PLOTSETTINGS
350
18
  3
ACAD_PLOTSTYLENAME
350
E
  3
AcDbVariableDictionary
350
125
  0
DICTIONARY
  5
DB
330
1E
100
AcDbDictionary
280
     1
281
     1
  3
ACAD_LAYOUTSELFREF
360
10F
  0
DICTIONARY
  5
DD
330
1A
100
AcDbDictionary
280
     1
281
     1
  3
ACAD_LAYOUTSELFREF
360
10E
  0
DICTIONARY
  5
11A
102
{ACAD_REACTORS
330
C
102
}
330
C
100
AcDbDictionary
281
     1
  0
DICTIONARY
  5
D
102
{ACAD_REACTORS
330
C
102
}
330
C
100
AcDbDictionary
281
     1
  0
DICTIONARY
  5
19
102
{ACAD_REACTORS
330
C
102
}
330
C
100
AcDbDictionary
281
     1
  3
Layout1
350
1D
  3
Model
350
21
  0
DICTIONARY
  5
119
102
{ACAD_REACTORS
330
C
102
}
330
C
100
AcDbDictionary
281
     1
  0
DICTIONARY
  5
16
102
{ACAD_REACTORS
330
C
102
}
330
C
100
AcDbDictionary
281
     1
  3
Standard
350
17
  0
DICTIONARY
  5
18
102
{ACAD_REACTORS
330
C
102
}
330
C
100
AcDbDictionary
281
     1
  0
ACDBDICTIONARYWDFLT
  5
E
102
{ACAD_REACTORS
330
C
102
}
330
C
100
AcDbDictionary
281
     1
  3
Normal
350
F
100
AcDbDictionaryWithDefault
340
F
  0
DICTIONARY
  5
125
102
{ACAD_REACTORS
330
C
102
}
330
C
100
AcDbDictionary
281
     1
  3
DIMASSOC
350
126
  3
PROJECTNAME
350
127
  0
XRECORD
  5
10F
102
{ACAD_REACTORS
330
DB
102
}
330
DB
100
AcDbXrecord
280
     1
340
1E
  0
XRECORD
  5
10E
102
{ACAD_REACTORS
330
DD
102
}
330
DD
100
AcDbXrecord
280
     1
340
1A
  0
LAYOUT
  5
1D
102
{ACAD_REACTORS
330
19
102
}
330
19
100
AcDbPlotSettings
  1

  2
\\NT_WORK01\HP LaserJet 5000 PCL 6
  4

  6

 40
0.0
 41
0.0
 42
0.0
 43
0.0
 44
0.0
 45
0.0
 46
0.0
 47
0.0
 48
0.0
 49
0.0
140
0.0
141
0.0
142
1.0
143
1.0
 70
   688
 72
     0
 73
     0
 74
     5
  7

 75
    16
147
1.0
 76
     0
 77
     2
 78
   300
148
0.0
149
0.0
100
AcDbLayout
  1
Layout1
 70
     0
 71
     1
 10
0.0
 20
0.0
 11
12.0
 21
9.0
 12
0.0
 22
0.0
 32
0.0
 14
1.000000000000000E+20
 24
1.000000000000000E+20
 34
1.000000000000000E+20
 15
-1.000000000000000E+20
 25
-1.000000000000000E+20
 35
-1.000000000000000E+20
146
0.0
 13
0.0
 23
0.0
 33
0.0
 16
1.0
 26
0.0
 36
0.0
 17
0.0
 27
1.0
 37
0.0
 76
     0
330
1A
  0
LAYOUT
  5
21
102
{ACAD_REACTORS
330
19
102
}
330
19
100
AcDbPlotSettings
  1

  2
none_device
  4
Letter_(8.50_x_11.00_Inches)
  6

 40
6.349999904632568
 41
6.349999904632568
 42
6.350006103515625
 43
6.350006103515625
 44
215.8999938964844
 45
279.3999938964844
 46
0.0
 47
0.0
 48
0.0
 49
0.0
140
0.0
141
0.0
142
1.0
143
1.0
 70
 11952
 72
     0
 73
     1
 74
     0
  7

 75
     0
147
1.0
 76
     0
 77
     2
 78
   300
148
3232.979308760778
149
108.7792942125838
100
AcDbLayout
  1
Model
 70
     1
 71
     0
 10
0.0
 20
0.0
 11
12.0
 21
9.0
 12
0.0
 22
0.0
 32
0.0
 14
0.0
 24
0.0
 34
0.0
 15
0.0
 25
0.0
 35
0.0
146
0.0
 13
0.0
 23
0.0
 33
0.0
 16
1.0
 26
0.0
 36
0.0
 17
0.0
 27
1.0
 37
0.0
 76
     0
330
1E
  0
MLINESTYLE
  5
17
102
{ACAD_REACTORS
330
16
102
}
330
16
100
AcDbMlineStyle
  2
STANDARD
 70
     0
  3

 62
   256
 51
90.0
 52
90.0
 71
     2
 49
0.5
 62
   256
  6
BYLAYER
 49
-0.5
 62
   256
  6
BYLAYER
  0
ACDBPLACEHOLDER
  5
F
102
{ACAD_REACTORS
330
E
102
}
330
E
  0
DICTIONARYVAR
  5
126
102
{ACAD_REACTORS
330
125
102
}
330
125
100
DictionaryVariables
280
     0
  1
1
  0
DICTIONARYVAR
  5
127
102
{ACAD_REACTORS
330
125
102
}
330
125
100
DictionaryVariables
280
     0
  1

  0
ENDSEC
  0
EOF
