  0
SECTION
  2
HEADER
  9
$ACADVER
  1
AC1027
  9
$ACADMAINTVER
 70
    10
  9
$DWGCODEPAGE
  3
ANSI_1252
  9
$LASTSAVEDBY
  1
w.koehlhoff
  9
$REQUIREDVERSIONS
160
                 0
  9
$INSBASE
 10
0.0
 20
0.0
 30
0.0
  9
$EXTMIN
 10
-0.0192209888436992
 20
-0.0271839699362317
 30
-0.0000000000000058
  9
$EXTMAX
 10
420.0192288123714
 20
594.0271950346398
 30
0.0000000000000104
  9
$LIMMIN
 10
0.0
 20
0.0
  9
$LIMMAX
 10
419.9999999999999
 20
594.0
  9
$ORTHOMODE
 70
     1
  9
$REGENMODE
 70
     1
  9
$FILLMODE
 70
     1
  9
$QTEXTMODE
 70
     0
  9
$MIRRTEXT
 70
     1
  9
$LTSCALE
 40
20.0
  9
$ATTMODE
 70
     1
  9
$TEXTSIZE
 40
3.5
  9
$TRACEWID
 40
0.5
  9
$TEXTSTYLE
  7
STANDARD
  9
$CLAYER
  8
HILF
  9
$CELTYPE
  6
ByLayer
  9
$CECOLOR
 62
   256
  9
$CELTSCALE
 40
1.0
  9
$DISPSILH
 70
     0
  9
$DIMSCALE
 40
2.0
  9
$DIMASZ
 40
3.5
  9
$DIMEXO
 40
1.0
  9
$DIMDLI
 40
7.0
  9
$DIMRND
 40
0.0
  9
$DIMDLE
 40
0.0
  9
$DIMEXE
 40
1.0
  9
$DIMTP
 40
0.0
  9
$DIMTM
 40
0.0
  9
$DIMTXT
 40
3.5
  9
$DIMCEN
 40
1.5
  9
$DIMTSZ
 40
0.0
  9
$DIMTOL
 70
     0
  9
$DIMLIM
 70
     0
  9
$DIMTIH
 70
     0
  9
$DIMTOH
 70
     0
  9
$DIMSE1
 70
     0
  9
$DIMSE2
 70
     0
  9
$DIMTAD
 70
     1
  9
$DIMZIN
 70
     8
  9
$DIMBLK
  1

  9
$DIMASO
 70
     1
  9
$DIMSHO
 70
     0
  9
$DIMPOST
  1

  9
$DIMAPOST
  1

  9
$DIMALT
 70
     0
  9
$DIMALTD
 70
     2
  9
$DIMALTF
 40
25.4
  9
$DIMLFAC
 40
1.0
  9
$DIMTOFL
 70
     1
  9
$DIMTVP
 40
0.0
  9
$DIMTIX
 70
     0
  9
$DIMSOXD
 70
     0
  9
$DIMSAH
 70
     0
  9
$DIMBLK1
  1

  9
$DIMBLK2
  1

  9
$DIMSTYLE
  2
Standard
  9
$DIMCLRD
 70
     0
  9
$DIMCLRE
 70
     0
  9
$DIMCLRT
 70
     1
  9
$DIMTFAC
 40
0.5142857142857144
  9
$DIMGAP
 40
1.5
  9
$DIMJUST
 70
     0
  9
$DIMSD1
 70
     0
  9
$DIMSD2
 70
     0
  9
$DIMTOLJ
 70
     1
  9
$DIMTZIN
 70
     8
  9
$DIMALTZ
 70
     8
  9
$DIMALTTZ
 70
     8
  9
$DIMUPT
 70
     0
  9
$DIMDEC
 70
     2
  9
$DIMTDEC
 70
     2
  9
$DIMALTU
 70
     2
  9
$DIMALTTD
 70
     2
  9
$DIMTXSTY
  7
STANDARD
  9
$DIMAUNIT
 70
     0
  9
$DIMADEC
 70
     2
  9
$DIMALTRND
 40
0.0
  9
$DIMAZIN
 70
     2
  9
$DIMDSEP
 70
    46
  9
$DIMATFIT
 70
     3
  9
$DIMFRAC
 70
     0
  9
$DIMLDRBLK
  1

  9
$DIMLUNIT
 70
     2
  9
$DIMLWD
 70
    -2
  9
$DIMLWE
 70
    -2
  9
$DIMTMOVE
 70
     0
  9
$DIMFXL
 40
1.0
  9
$DIMFXLON
 70
     0
  9
$DIMJOGANG
 40
0.7853981633974483
  9
$DIMTFILL
 70
     0
  9
$DIMTFILLCLR
 70
     0
  9
$DIMARCSYM
 70
     0
  9
$DIMLTYPE
  6

  9
$DIMLTEX1
  6

  9
$DIMLTEX2
  6

  9
$DIMTXTDIRECTION
 70
     0
  9
$LUNITS
 70
     2
  9
$LUPREC
 70
     2
  9
$SKETCHINC
 40
1.0
  9
$FILLETRAD
 40
0.0
  9
$AUNITS
 70
     0
  9
$AUPREC
 70
     0
  9
$MENU
  1
ACAD
  9
$ELEVATION
 40
0.0
  9
$PELEVATION
 40
0.0
  9
$THICKNESS
 40
0.0
  9
$LIMCHECK
 70
     0
  9
$CHAMFERA
 40
0.0
  9
$CHAMFERB
 40
0.0
  9
$CHAMFERC
 40
0.0
  9
$CHAMFERD
 40
0.0
  9
$SKPOLY
 70
     0
  9
$TDCREATE
 40
2455397.864709028
  9
$TDUCREATE
 40
2455397.781375695
  9
$TDUPDATE
 40
2456393.315556609
  9
$TDUUPDATE
 40
2456393.232223275
  9
$TDINDWG
 40
0.2401554167
  9
$TDUSRTIMER
 40
0.2401554167
  9
$USRTIMER
 70
     1
  9
$ANGBASE
 50
0.0
  9
$ANGDIR
 70
     0
  9
$PDMODE
 70
     0
  9
$PDSIZE
 40
0.0
  9
$PLINEWID
 40
0.0
  9
$SPLFRAME
 70
     0
  9
$SPLINETYPE
 70
     6
  9
$SPLINESEGS
 70
     8
  9
$HANDSEED
  5
273E
  9
$SURFTAB1
 70
     6
  9
$SURFTAB2
 70
     6
  9
$SURFTYPE
 70
     6
  9
$SURFU
 70
     6
  9
$SURFV
 70
     6
  9
$UCSBASE
  2

  9
$UCSNAME
  2

  9
$UCSORG
 10
0.0
 20
0.0
 30
0.0
  9
$UCSXDIR
 10
1.0
 20
0.0
 30
0.0
  9
$UCSYDIR
 10
0.0
 20
1.0
 30
0.0
  9
$UCSORTHOREF
  2

  9
$UCSORTHOVIEW
 70
     0
  9
$UCSORGTOP
 10
0.0
 20
0.0
 30
0.0
  9
$UCSORGBOTTOM
 10
0.0
 20
0.0
 30
0.0
  9
$UCSORGLEFT
 10
0.0
 20
0.0
 30
0.0
  9
$UCSORGRIGHT
 10
0.0
 20
0.0
 30
0.0
  9
$UCSORGFRONT
 10
0.0
 20
0.0
 30
0.0
  9
$UCSORGBACK
 10
0.0
 20
0.0
 30
0.0
  9
$PUCSBASE
  2

  9
$PUCSNAME
  2

  9
$PUCSORG
 10
0.0
 20
0.0
 30
0.0
  9
$PUCSXDIR
 10
1.0
 20
0.0
 30
0.0
  9
$PUCSYDIR
 10
0.0
 20
1.0
 30
0.0
  9
$PUCSORTHOREF
  2

  9
$PUCSORTHOVIEW
 70
     0
  9
$PUCSORGTOP
 10
0.0
 20
0.0
 30
0.0
  9
$PUCSORGBOTTOM
 10
0.0
 20
0.0
 30
0.0
  9
$PUCSORGLEFT
 10
0.0
 20
0.0
 30
0.0
  9
$PUCSORGRIGHT
 10
0.0
 20
0.0
 30
0.0
  9
$PUCSORGFRONT
 10
0.0
 20
0.0
 30
0.0
  9
$PUCSORGBACK
 10
0.0
 20
0.0
 30
0.0
  9
$USERI1
 70
     0
  9
$USERI2
 70
     0
  9
$USERI3
 70
     0
  9
$USERI4
 70
     0
  9
$USERI5
 70
     0
  9
$USERR1
 40
0.0
  9
$USERR2
 40
0.0
  9
$USERR3
 40
0.0
  9
$USERR4
 40
0.0
  9
$USERR5
 40
0.0
  9
$WORLDVIEW
 70
     1
  9
$SHADEDGE
 70
     3
  9
$SHADEDIF
 70
    70
  9
$TILEMODE
 70
     1
  9
$MAXACTVP
 70
    16
  9
$PINSBASE
 10
0.0
 20
0.0
 30
0.0
  9
$PLIMCHECK
 70
     0
  9
$PEXTMIN
 10
1.000000000000000E+20
 20
1.000000000000000E+20
 30
1.000000000000000E+20
  9
$PEXTMAX
 10
-1.000000000000000E+20
 20
-1.000000000000000E+20
 30
-1.000000000000000E+20
  9
$PLIMMIN
 10
0.0
 20
0.0
  9
$PLIMMAX
 10
12.0
 20
9.0
  9
$UNITMODE
 70
     0
  9
$VISRETAIN
 70
     0
  9
$PLINEGEN
 70
     0
  9
$PSLTSCALE
 70
     0
  9
$TREEDEPTH
 70
  3020
  9
$CMLSTYLE
  2
Standard
  9
$CMLJUST
 70
     0
  9
$CMLSCALE
 40
1.0
  9
$PROXYGRAPHICS
 70
     1
  9
$MEASUREMENT
 70
     0
  9
$CELWEIGHT
370
    -1
  9
$ENDCAPS
280
     0
  9
$JOINSTYLE
280
     0
  9
$LWDISPLAY
290
     0
  9
$INSUNITS
 70
     0
  9
$HYPERLINKBASE
  1

  9
$STYLESHEET
  1
monochrome1.ctb
  9
$XEDIT
290
     1
  9
$CEPSNTYPE
380
     0
  9
$PSTYLEMODE
290
     1
  9
$FINGERPRINTGUID
  2
{D68B0D02-A558-11D7-B632-000102183313}
  9
$VERSIONGUID
  2
{21206E37-D214-455E-8250-8B0F0D333E6E}
  9
$EXTNAMES
290
     1
  9
$PSVPSCALE
 40
0.0
  9
$OLESTARTUP
290
     0
  9
$SORTENTS
280
   127
  9
$INDEXCTL
280
     0
  9
$HIDETEXT
280
     0
  9
$XCLIPFRAME
280
     2
  9
$HALOGAP
280
     0
  9
$OBSCOLOR
 70
   257
  9
$OBSLTYPE
280
     0
  9
$INTERSECTIONDISPLAY
280
     0
  9
$INTERSECTIONCOLOR
 70
   257
  9
$DIMASSOC
280
     1
  9
$PROJECTNAME
  1

  9
$CAMERADISPLAY
290
     0
  9
$LENSLENGTH
 40
50.0
  9
$CAMERAHEIGHT
 40
0.0
  9
$STEPSPERSEC
 40
2.0
  9
$STEPSIZE
 40
6.0
  9
$3DDWFPREC
 40
2.0
  9
$PSOLWIDTH
 40
0.25
  9
$PSOLHEIGHT
 40
4.0
  9
$LOFTANG1
 40
1.570796326794896
  9
$LOFTANG2
 40
1.570796326794896
  9
$LOFTMAG1
 40
0.0
  9
$LOFTMAG2
 40
0.0
  9
$LOFTPARAM
 70
     7
  9
$LOFTNORMALS
280
     1
  9
$LATITUDE
 40
37.795
  9
$LONGITUDE
 40
-122.394
  9
$NORTHDIRECTION
 40
0.0
  9
$TIMEZONE
 70
 -8000
  9
$LIGHTGLYPHDISPLAY
280
     1
  9
$TILEMODELIGHTSYNCH
280
     1
  9
$CMATERIAL
347
1CD8
  9
$SOLIDHIST
280
     0
  9
$SHOWHIST
280
     1
  9
$DWFFRAME
280
     2
  9
$DGNFRAME
280
     0
  9
$REALWORLDSCALE
290
     1
  9
$INTERFERECOLOR
 62
     1
  9
$INTERFEREOBJVS
345
1CFA
  9
$INTERFEREVPVS
346
1CF7
  9
$CSHADOW
280
     0
  9
$SHADOWPLANELOCATION
 40
0.0
  0
ENDSEC
  0
SECTION
  2
CLASSES
  0
CLASS
  1
ACDBDICTIONARYWDFLT
  2
AcDbDictionaryWithDefault
  3
ObjectDBX Classes
 90
        0
 91
        1
280
     0
281
     0
  0
CLASS
  1
DICTIONARYVAR
  2
AcDbDictionaryVar
  3
ObjectDBX Classes
 90
        0
 91
       14
280
     0
281
     0
  0
CLASS
  1
MATERIAL
  2
AcDbMaterial
  3
ObjectDBX Classes
 90
     1153
 91
        3
280
     0
281
     0
  0
CLASS
  1
VISUALSTYLE
  2
AcDbVisualStyle
  3
ObjectDBX Classes
 90
     4095
 91
       24
280
     0
281
     0
  0
CLASS
  1
TABLESTYLE
  2
AcDbTableStyle
  3
ObjectDBX Classes
 90
     4095
 91
        1
280
     0
281
     0
  0
CLASS
  1
SCALE
  2
AcDbScale
  3
ObjectDBX Classes
 90
     1153
 91
       17
280
     0
281
     0
  0
CLASS
  1
MLEADERSTYLE
  2
AcDbMLeaderStyle
  3
ACDB_MLEADERSTYLE_CLASS
 90
     4095
 91
        1
280
     0
281
     0
  0
CLASS
  1
ACDBSECTIONVIEWSTYLE
  2
AcDbSectionViewStyle
  3
ObjectDBX Classes
 90
     1025
 91
        1
280
     0
281
     0
  0
CLASS
  1
ACDBDETAILVIEWSTYLE
  2
AcDbDetailViewStyle
  3
ObjectDBX Classes
 90
     1025
 91
        1
280
     0
281
     0
  0
CLASS
  1
CELLSTYLEMAP
  2
AcDbCellStyleMap
  3
ObjectDBX Classes
 90
     1152
 91
        4
280
     0
281
     0
  0
CLASS
  1
SORTENTSTABLE
  2
AcDbSortentsTable
  3
ObjectDBX Classes
 90
        0
 91
        1
280
     0
281
     0
  0
CLASS
  1
ACARRAYJIGENTITY
  2
AcArrayJigEntity
  3
ACAD_ARRAY
 90
      129
 91
        0
280
     0
281
     1
  0
CLASS
  1
ACDBASSOCNETWORK
  2
AcDbAssocNetwork
  3
ObjectDBX Classes
 90
     1025
 91
        0
280
     0
281
     0
  0
CLASS
  1
ACDBASSOCACTION
  2
AcDbAssocAction
  3
ObjectDBX Classes
 90
     1025
 91
        0
280
     0
281
     0
  0
CLASS
  1
ACDBASSOCARRAYACTIONBODY
  2
AcDbAssocArrayActionBody
  3
ObjectDBX Classes
 90
     1025
 91
        0
280
     0
281
     0
  0
CLASS
  1
ACDBASSOCVERTEXACTIONPARAM
  2
AcDbAssocVertexActionParam
  3
ObjectDBX Classes
 90
     1025
 91
        0
280
     0
281
     0
  0
CLASS
  1
ACDBASSOCDEPENDENCY
  2
AcDbAssocDependency
  3
ObjectDBX Classes
 90
     1025
 91
        0
280
     0
281
     0
  0
CLASS
  1
ACDBASSOCARRAYPOLARPARAMETERS
  2
AcDbAssocArrayPolarParameters
  3
ObjectDBX Classes
 90
     1025
 91
        0
280
     0
281
     0
  0
ENDSEC
  0
SECTION
  2
TABLES
  0
TABLE
  2
VPORT
  5
8
102
{ACAD_XDICTIONARY
360
254B
102
}
330
0
100
AcDbSymbolTable
 70
     1
  0
VPORT
  5
1CCF
330
8
100
AcDbSymbolTableRecord
100
AcDbViewportTableRecord
  2
*Active
 70
     0
 10
0.0
 20
0.0
 11
1.0
 21
1.0
 12
210.0000039117638
 22
297.0000055323517
 13
0.0
 23
0.0
 14
1.0
 24
1.0
 15
10.0
 25
10.0
 16
0.0
 26
0.0
 36
1.0
 17
0.0
 27
0.0
 37
0.0
 40
598.0637448921209
 41
1.699324324324324
 42
50.0
 43
0.0
 44
0.0
 50
0.0
 51
0.0
 71
     0
 72
  1500
 73
     1
 74
     0
 75
     0
 76
     0
 77
     0
 78
     0
281
     0
 65
     1
110
0.0
120
0.0
130
0.0
111
1.0
121
0.0
131
0.0
112
0.0
122
1.0
132
0.0
 79
     0
146
0.0
348
1CF6
 60
     3
 61
     5
292
     1
282
     1
141
0.0
142
0.0
 63
   250
421
  3355443
1001
ACAD_NAV_VCDISPLAY
1070
     3
  0
ENDTAB
  0
TABLE
  2
LTYPE
  5
5
330
0
100
AcDbSymbolTable
 70
     5
  0
LTYPE
  5
13
330
5
100
AcDbSymbolTableRecord
100
AcDbLinetypeTableRecord
  2
ByBlock
 70
     0
  3

 72
    65
 73
     0
 40
0.0
  0
LTYPE
  5
14
330
5
100
AcDbSymbolTableRecord
100
AcDbLinetypeTableRecord
  2
ByLayer
 70
     0
  3

 72
    65
 73
     0
 40
0.0
  0
LTYPE
  5
15
330
5
100
AcDbSymbolTableRecord
100
AcDbLinetypeTableRecord
  2
Continuous
 70
     0
  3
Solid line
 72
    65
 73
     0
 40
0.0
  0
LTYPE
  5
25
330
5
100
AcDbSymbolTableRecord
100
AcDbLinetypeTableRecord
  2
STRICHPUNKT
 70
     0
  3
__ . __ . __ . __ . __ . __ . __ . __ . __ . __
 72
    65
 73
     4
 40
1.0
 49
0.5
 74
     0
 49
-0.25
 74
     0
 49
0.0
 74
     0
 49
-0.25
 74
     0
  0
LTYPE
  5
1D20
330
5
100
AcDbSymbolTableRecord
100
AcDbLinetypeTableRecord
  2
PHANTOM2
 70
     0
  3
Phantom (.5x) ___ _ _ ___ _ _ ___ _ _ ___ _ _
 72
    65
 73
     6
 40
1.25
 49
0.625
 74
     0
 49
-0.125
 74
     0
 49
0.125
 74
     0
 49
-0.125
 74
     0
 49
0.125
 74
     0
 49
-0.125
 74
     0
  0
LTYPE
  5
1D7C
330
5
100
AcDbSymbolTableRecord
100
AcDbLinetypeTableRecord
  2
AUSGEZOGEN
 70
     0
  3
Ausgezogene Linie
 72
    65
 73
     0
 40
0.0
  0
ENDTAB
  0
TABLE
  2
LAYER
  5
2
102
{ACAD_XDICTIONARY
360
1DEF
102
}
330
0
100
AcDbSymbolTable
 70
     9
  0
LAYER
  5
10
102
{ACAD_XDICTIONARY
360
1D28
102
}
330
2
100
AcDbSymbolTableRecord
100
AcDbLayerTableRecord
  2
0
 70
     0
 62
     7
  6
Continuous
370
    -3
390
F
347
1CE8
348
0
  0
LAYER
  5
2A
102
{ACAD_XDICTIONARY
360
1D2A
102
}
330
2
100
AcDbSymbolTableRecord
100
AcDbLayerTableRecord
  2
VOLL
 70
     0
 62
     1
  6
Continuous
370
    -3
390
F
347
1CE8
348
0
  0
LAYER
  5
2B
102
{ACAD_XDICTIONARY
360
1D2C
102
}
330
2
100
AcDbSymbolTableRecord
100
AcDbLayerTableRecord
  2
HILF
 70
     0
 62
     2
  6
Continuous
370
    -3
390
F
347
1CE8
348
0
  0
LAYER
  5
2C
102
{ACAD_XDICTIONARY
360
1D2E
102
}
330
2
100
AcDbSymbolTableRecord
100
AcDbLayerTableRecord
  2
MITTEL
 70
     0
 62
     2
  6
STRICHPUNKT
370
    -3
390
F
347
1CE8
348
0
  0
LAYER
  5
2F
102
{ACAD_XDICTIONARY
360
1D30
102
}
330
2
100
AcDbSymbolTableRecord
100
AcDbLayerTableRecord
  2
BEM
 70
     0
 62
     7
  6
Continuous
370
    -3
390
F
347
1CE8
348
0
  0
LAYER
  5
30
102
{ACAD_XDICTIONARY
360
1D32
102
}
330
2
100
AcDbSymbolTableRecord
100
AcDbLayerTableRecord
  2
STEMPEL
 70
     0
 62
     3
  6
Continuous
370
    -3
390
F
347
1CE8
348
0
  0
LAYER
  5
31
102
{ACAD_XDICTIONARY
360
1D34
102
}
330
2
100
AcDbSymbolTableRecord
100
AcDbLayerTableRecord
  2
TEXT
 70
     0
 62
     7
  6
Continuous
370
    -3
390
F
347
1CE8
348
0
  0
LAYER
  5
1BC
330
2
100
AcDbSymbolTableRecord
100
AcDbLayerTableRecord
  2
Defpoints
 70
     0
 62
     7
  6
Continuous
290
     0
370
    -3
390
F
347
1CE8
348
0
  0
LAYER
  5
1BD
102
{ACAD_XDICTIONARY
360
1D36
102
}
330
2
100
AcDbSymbolTableRecord
100
AcDbLayerTableRecord
  2
SCHRAFF
 70
     0
 62
     7
  6
Continuous
370
    -3
390
F
347
1CE8
348
0
  0
ENDTAB
  0
TABLE
  2
STYLE
  5
3
330
0
100
AcDbSymbolTable
 70
     4
  0
STYLE
  5
11
330
3
100
AcDbSymbolTableRecord
100
AcDbTextStyleTableRecord
  2
STANDARD
 70
     0
 40
0.0
 41
0.8
 50
0.0
 71
     0
 42
3.5
  3
simplex.shx
  4

  0
STYLE
  5
24
330
3
100
AcDbSymbolTableRecord
100
AcDbTextStyleTableRecord
  2
GREEKS
 70
     0
 40
0.0
 41
0.8
 50
0.0
 71
     0
 42
2.5
  3
SIMPLEX.shx
  4

  0
ENDTAB
  0
TABLE
  2
VIEW
  5
6
330
0
100
AcDbSymbolTable
 70
     1
  0
ENDTAB
  0
TABLE
  2
UCS
  5
7
330
0
100
AcDbSymbolTable
 70
     0
  0
ENDTAB
  0
TABLE
  2
APPID
  5
9
330
0
100
AcDbSymbolTable
 70
     8
  0
APPID
  5
12
330
9
100
AcDbSymbolTableRecord
100
AcDbRegAppTableRecord
  2
ACAD
 70
     0
  0
APPID
  5
1D26
330
9
100
AcDbSymbolTableRecord
100
AcDbRegAppTableRecord
  2
ACAD_EXEMPT_FROM_CAD_STANDARDS
 70
     0
  0
APPID
  5
1D38
330
9
100
AcDbSymbolTableRecord
100
AcDbRegAppTableRecord
  2
ACAD_NAV_VCDISPLAY
 70
     0
  0
APPID
  5
1D7E
330
9
100
AcDbSymbolTableRecord
100
AcDbRegAppTableRecord
  2
AcadAnnotative
 70
     0
  0
APPID
  5
1F9E
330
9
100
AcDbSymbolTableRecord
100
AcDbRegAppTableRecord
  2
GradientColor1ACI
 70
     0
  0
APPID
  5
1F9F
330
9
100
AcDbSymbolTableRecord
100
AcDbRegAppTableRecord
  2
GradientColor2ACI
 70
     0
  0
APPID
  5
2121
330
9
100
AcDbSymbolTableRecord
100
AcDbRegAppTableRecord
  2
AcadAnnoMonitorAlertIconDisabled
 70
     0
  0
APPID
  5
2583
330
9
100
AcDbSymbolTableRecord
100
AcDbRegAppTableRecord
  2
ACAD_MLEADERVER
 70
     0
  0
ENDTAB
  0
TABLE
  2
DIMSTYLE
  5
A
330
0
100
AcDbSymbolTable
 70
     3
100
AcDbDimStyleTable
 71
     1
340
9D
  0
DIMSTYLE
105
9D
102
{ACAD_REACTORS
330
1465
330
142E
330
1483
330
16DE
330
16E0
330
1796
330
1797
330
1799
330
1C0B
330
1C39
330
260F
102
}
330
A
100
AcDbSymbolTableRecord
100
AcDbDimStyleTableRecord
  2
Standard
 70
     0
340
11
  0
ENDTAB
  0
TABLE
  2
BLOCK_RECORD
  5
1
330
0
100
AcDbSymbolTable
 70
    23
  0
BLOCK_RECORD
  5
1E
102
{ACAD_XDICTIONARY
360
A0
102
}
330
1
100
AcDbSymbolTableRecord
100
AcDbBlockTableRecord
  2
*Model_Space
340
21
 70
     0
280
     1
281
     0
  0
BLOCK_RECORD
  5
1A
102
{ACAD_XDICTIONARY
360
A2
102
}
330
1
100
AcDbSymbolTableRecord
100
AcDbBlockTableRecord
  2
*Paper_Space
340
1D
 70
     0
280
     1
281
     0
  0
BLOCK_RECORD
  5
22
330
1
100
AcDbSymbolTableRecord
100
AcDbBlockTableRecord
  2
LOGO
340
0
102
{BLKREFS
331
9B
102
}
 70
     0
280
     1
281
     0
  0
BLOCK_RECORD
  5
14B6
330
1
100
AcDbSymbolTableRecord
100
AcDbBlockTableRecord
  2
*D1
340
0
 70
     0
280
     1
281
     0
  0
BLOCK_RECORD
  5
14EA
330
1
100
AcDbSymbolTableRecord
100
AcDbBlockTableRecord
  2
*D2
340
0
 70
     0
280
     1
281
     0
  0
BLOCK_RECORD
  5
1503
330
1
100
AcDbSymbolTableRecord
100
AcDbBlockTableRecord
  2
*D3
340
0
 70
     0
280
     1
281
     0
  0
BLOCK_RECORD
  5
16E8
330
1
100
AcDbSymbolTableRecord
100
AcDbBlockTableRecord
  2
*D4
340
0
 70
     0
280
     1
281
     0
  0
BLOCK_RECORD
  5
1702
330
1
100
AcDbSymbolTableRecord
100
AcDbBlockTableRecord
  2
*D6
340
0
 70
     0
280
     1
281
     0
  0
BLOCK_RECORD
  5
17BA
330
1
100
AcDbSymbolTableRecord
100
AcDbBlockTableRecord
  2
*D9
340
0
 70
     0
280
     1
281
     0
  0
BLOCK_RECORD
  5
17C6
330
1
100
AcDbSymbolTableRecord
100
AcDbBlockTableRecord
  2
*D10
340
0
 70
     0
280
     1
281
     0
  0
BLOCK_RECORD
  5
17E0
330
1
100
AcDbSymbolTableRecord
100
AcDbBlockTableRecord
  2
*D12
340
0
 70
     0
280
     1
281
     0
  0
BLOCK_RECORD
  5
1C0C
330
1
100
AcDbSymbolTableRecord
100
AcDbBlockTableRecord
  2
*D15
340
0
 70
     0
280
     1
281
     0
  0
BLOCK_RECORD
  5
1C3A
330
1
100
AcDbSymbolTableRecord
100
AcDbBlockTableRecord
  2
*D17
340
0
 70
     0
280
     1
281
     0
  0
BLOCK_RECORD
  5
2610
330
1
100
AcDbSymbolTableRecord
100
AcDbBlockTableRecord
  2
*D20
340
0
 70
     0
280
     1
281
     0
  0
ENDTAB
  0
ENDSEC
  0
SECTION
  2
BLOCKS
  0
BLOCK
  5
35
330
1E
100
AcDbEntity
  8
0
100
AcDbBlockBegin
  2
*Model_Space
 70
     0
 10
0.0
 20
0.0
 30
0.0
  3
*Model_Space
  1

  0
ENDBLK
  5
36
330
1E
100
AcDbEntity
  8
0
100
AcDbBlockEnd
  0
BLOCK
  5
33
330
1A
100
AcDbEntity
 67
     1
  8
0
100
AcDbBlockBegin
  2
*Paper_Space
 70
     0
 10
0.0
 20
0.0
 30
0.0
  3
*Paper_Space
  1

  0
ENDBLK
  5
34
330
1A
100
AcDbEntity
 67
     1
  8
0
100
AcDbBlockEnd
  0
BLOCK
  5
37
330
22
100
AcDbEntity
  8
0
100
AcDbBlockBegin
  2
LOGO
 70
     0
 10
0.0
 20
0.0
 30
0.0
  3
LOGO
  1

  0
ARC
  5
38
330
22
100
AcDbEntity
  8
0
100
AcDbCircle
 10
11.59973089678112
 20
-9.271599258481501
 30
0.0
 40
4.5
100
AcDbArc
 50
270.0
 51
231.0575587310159
  0
LINE
  5
39
330
22
100
AcDbEntity
  8
0
100
AcDbLine
 10
3.599730896781125
 20
-4.771599258481529
 30
0.0
 11
3.599730896781153
 21
-11.77159925848133
 31
0.0
  0
LINE
  5
3A
330
22
100
AcDbEntity
  8
0
100
AcDbLine
 10
2.599730896781125
 20
-4.771599258481529
 30
0.0
 11
2.599730896781153
 21
-11.77159925848133
 31
0.0
  0
CIRCLE
  5
3B
330
22
100
AcDbEntity
  8
0
100
AcDbCircle
 10
11.59973089678112
 20
-9.271599258481501
 30
0.0
 40
3.5
  0
ARC
  5
3C
330
22
100
AcDbEntity
  8
0
100
AcDbCircle
 10
31.59973089678115
 20
-9.271599258481472
 30
0.0
 40
4.5
100
AcDbArc
 50
270.0
 51
231.0575587310182
  0
LINE
  5
3D
330
22
100
AcDbEntity
  8
0
100
AcDbLine
 10
17.59973089678112
 20
-4.771599258481472
 30
0.0
 11
17.59973089678115
 21
-13.77159925848147
 31
0.0
  0
ARC
  5
3E
330
22
100
AcDbEntity
  8
0
100
AcDbCircle
 10
22.59973089678116
 20
-7.271599258481472
 30
0.0
 40
2.5
100
AcDbArc
 50
293.1161887722295
 51
90.0
  0
CIRCLE
  5
3F
330
22
100
AcDbEntity
  8
0
100
AcDbCircle
 10
31.59973089678115
 20
-9.271599258481472
 30
0.0
 40
3.5
  0
ARC
  5
40
330
22
100
AcDbEntity
  8
0
100
AcDbCircle
 10
4.599730896781153
 20
-11.77159925848133
 30
0.0
 40
1.0
100
AcDbArc
 50
180.0
 51
270.0
  0
ARC
  5
41
330
22
100
AcDbEntity
  8
0
100
AcDbCircle
 10
4.599730896781153
 20
-11.77159925848133
 30
0.0
 40
2.0
100
AcDbArc
 50
179.9999999999992
 51
270.0
  0
LINE
  5
42
330
22
100
AcDbEntity
  8
0
100
AcDbLine
 10
11.59973089678115
 20
-13.77159925848144
 30
0.0
 11
4.599730896781153
 21
-13.77159925848147
 31
0.0
  0
LINE
  5
43
330
22
100
AcDbEntity
  8
0
100
AcDbLine
 10
8.771303772034769
 20
-12.77159925848136
 30
0.0
 11
4.599730896781153
 21
-12.77159925848133
 31
0.0
  0
LINE
  5
44
330
22
100
AcDbEntity
  8
0
100
AcDbLine
 10
31.59973089678115
 20
-13.77159925848147
 30
0.0
 11
23.6715276665056
 21
-13.77159925848144
 31
0.0
  0
LINE
  5
45
330
22
100
AcDbEntity
  8
0
100
AcDbLine
 10
23.56565672307022
 20
-9.51278021337896
 30
0.0
 11
24.4388546544846
 21
-12.77159925848144
 31
0.0
  0
LINE
  5
46
330
22
100
AcDbEntity
  8
0
100
AcDbLine
 10
22.59973089678116
 20
-9.771599258481472
 30
0.0
 11
18.59973089678112
 21
-9.771599258481472
 31
0.0
  0
LINE
  5
47
330
22
100
AcDbEntity
  8
0
100
AcDbLine
 10
18.59973089678115
 20
-13.77159925848144
 30
0.0
 11
17.59973089678115
 21
-13.77159925848144
 31
0.0
  0
LINE
  5
48
330
22
100
AcDbEntity
  8
0
100
AcDbLine
 10
18.59973089678115
 20
-9.771599258481472
 30
0.0
 11
18.59973089678115
 21
-13.77159925848144
 31
0.0
  0
LINE
  5
49
330
22
100
AcDbEntity
  8
0
100
AcDbLine
 10
22.59973089678116
 20
-9.771599258481472
 30
0.0
 11
23.67152766650562
 21
-13.77159925848147
 31
0.0
  0
ARC
  5
4A
330
22
100
AcDbEntity
  8
0
100
AcDbCircle
 10
22.59973089678116
 20
-7.271599258481472
 30
0.0
 40
2.5
100
AcDbArc
 50
270.0
 51
270.0000000000007
  0
LINE
  5
4B
330
22
100
AcDbEntity
  8
0
100
AcDbLine
 10
28.77130377203494
 20
-12.77159925848147
 30
0.0
 11
24.43885465448463
 21
-12.77159925848144
 31
0.0
  0
LINE
  5
4C
330
22
100
AcDbEntity
  8
0
100
AcDbLine
 10
3.599730896781125
 20
-4.771599258481472
 30
0.0
 11
2.599730896781125
 21
-4.771599258481472
 31
0.0
  0
LINE
  5
4D
330
22
100
AcDbEntity
  8
0
100
AcDbLine
 10
22.59973089678116
 20
-8.771599258481472
 30
0.0
 11
18.59973089678115
 21
-8.771599258481472
 31
0.0
  0
LINE
  5
4E
330
22
100
AcDbEntity
  8
0
100
AcDbLine
 10
22.59973089678116
 20
-5.771599258481472
 30
0.0
 11
18.59973089678115
 21
-5.771599258481472
 31
0.0
  0
LINE
  5
4F
330
22
100
AcDbEntity
  8
0
100
AcDbLine
 10
22.59973089678116
 20
-4.771599258481472
 30
0.0
 11
17.59973089678115
 21
-4.771599258481472
 31
0.0
  0
LINE
  5
50
330
22
100
AcDbEntity
  8
0
100
AcDbLine
 10
18.59973089678115
 20
-5.771599258481472
 30
0.0
 11
18.59973089678115
 21
-8.771599258481472
 31
0.0
  0
ARC
  5
51
330
22
100
AcDbEntity
  8
0
100
AcDbCircle
 10
22.59973089678116
 20
-7.271599258481472
 30
0.0
 40
1.5
100
AcDbArc
 50
270.0
 51
90.0
  0
ENDBLK
  5
52
330
22
100
AcDbEntity
  8
0
100
AcDbBlockEnd
  0
BLOCK
  5
14C0
330
14B6
100
AcDbEntity
  8
0
100
AcDbBlockBegin
  2
*D1
 70
     1
 10
0.0
 20
0.0
 30
0.0
  3
*D1
  1

  0
LINE
  5
2663
330
14B6
100
AcDbEntity
  8
BEM
 62
     0
440
 16777216
370
    -2
100
AcDbLine
 10
156.5801732314589
 20
240.1707976743592
 30
0.0
 11
93.07420357636287
 21
240.1707976743592
 31
0.0
  0
LINE
  5
2664
330
14B6
100
AcDbEntity
  8
BEM
 62
     0
440
 16777216
370
    -2
100
AcDbLine
 10
132.6484596701444
 20
467.1676757939795
 30
0.0
 11
93.07420357636292
 21
467.1676757939795
 31
0.0
  0
LINE
  5
2665
330
14B6
100
AcDbEntity
  8
BEM
 62
     0
440
 16777216
370
    -2
100
AcDbLine
 10
95.07420357636288
 20
247.1707976743592
 30
0.0
 11
95.07420357636291
 21
460.1676757939795
 31
0.0
  0
SOLID
  5
2666
330
14B6
100
AcDbEntity
  8
BEM
 62
     0
440
 16777216
100
AcDbTrace
 10
93.90753690969621
 20
247.1707976743592
 30
0.0
 11
96.24087024302955
 21
247.1707976743592
 31
0.0
 12
95.07420357636288
 22
240.1707976743592
 32
0.0
 13
95.07420357636288
 23
240.1707976743592
 33
0.0
  0
SOLID
  5
2667
330
14B6
100
AcDbEntity
  8
BEM
 62
     0
440
 16777216
100
AcDbTrace
 10
93.90753690969624
 20
460.1676757939795
 30
0.0
 11
96.24087024302959
 21
460.1676757939795
 31
0.0
 12
95.07420357636291
 22
467.1676757939795
 32
0.0
 13
95.07420357636291
 23
467.1676757939795
 33
0.0
  0
MTEXT
  5
2668
330
14B6
100
AcDbEntity
  8
BEM
 62
     1
440
 16777216
100
AcDbMText
 10
88.57420357636284
 20
353.6692367341694
 30
0.0
 40
7.0
 41
0.0
 46
0.0
 71
     5
 72
     1
  1
\A1;227
 11
0.0000000000000001
 21
1.0
 31
0.0
 73
     1
 44
1.0
  0
POINT
  5
2669
330
14B6
100
AcDbEntity
  8
Defpoints
 62
     0
440
 16777216
100
AcDbPoint
 10
158.5801732314589
 20
240.1707976743592
 30
0.0
  0
POINT
  5
266A
330
14B6
100
AcDbEntity
  8
Defpoints
 62
     0
440
 16777216
100
AcDbPoint
 10
134.6484596701444
 20
467.1676757939795
 30
0.0
  0
POINT
  5
266B
330
14B6
100
AcDbEntity
  8
Defpoints
 62
     0
440
 16777216
100
AcDbPoint
 10
95.07420357636291
 20
467.1676757939795
 30
0.0
  0
ENDBLK
  5
14C1
330
14B6
100
AcDbEntity
  8
0
100
AcDbBlockEnd
  0
BLOCK
  5
14F4
330
14EA
100
AcDbEntity
  8
0
100
AcDbBlockBegin
  2
*D2
 70
     1
 10
0.0
 20
0.0
 30
0.0
  3
*D2
  1

  0
LINE
  5
2651
330
14EA
100
AcDbEntity
  8
BEM
 62
     0
440
 16777216
370
    -2
100
AcDbLine
 10
156.5801732314589
 20
240.1707976743592
 30
0.0
 11
106.5348804628561
 21
240.1707976743592
 31
0.0
  0
LINE
  5
2652
330
14EA
100
AcDbEntity
  8
BEM
 62
     0
440
 16777216
370
    -2
100
AcDbLine
 10
177.1484596701443
 20
314.1707976743592
 30
0.0
 11
106.5348804628561
 21
314.1707976743592
 31
0.0
  0
LINE
  5
2653
330
14EA
100
AcDbEntity
  8
BEM
 62
     0
440
 16777216
370
    -2
100
AcDbLine
 10
108.5348804628561
 20
247.1707976743592
 30
0.0
 11
108.5348804628561
 21
307.1707976743592
 31
0.0
  0
SOLID
  5
2654
330
14EA
100
AcDbEntity
  8
BEM
 62
     0
440
 16777216
100
AcDbTrace
 10
107.3682137961895
 20
247.1707976743592
 30
0.0
 11
109.7015471295228
 21
247.1707976743592
 31
0.0
 12
108.5348804628561
 22
240.1707976743592
 32
0.0
 13
108.5348804628561
 23
240.1707976743592
 33
0.0
  0
SOLID
  5
2655
330
14EA
100
AcDbEntity
  8
BEM
 62
     0
440
 16777216
100
AcDbTrace
 10
107.3682137961895
 20
307.1707976743592
 30
0.0
 11
109.7015471295228
 21
307.1707976743592
 31
0.0
 12
108.5348804628561
 22
314.1707976743592
 32
0.0
 13
108.5348804628561
 23
314.1707976743592
 33
0.0
  0
MTEXT
  5
2656
330
14EA
100
AcDbEntity
  8
BEM
 62
     1
440
 16777216
100
AcDbMText
 10
102.0348804628561
 20
280.1571117548656
 30
0.0
 40
7.0
 41
0.0
 46
0.0
 71
     5
 72
     1
  1
\A1;74
 11
0.0000000000000001
 21
1.0
 31
0.0
 73
     1
 44
1.0
  0
POINT
  5
2657
330
14EA
100
AcDbEntity
  8
Defpoints
 62
     0
440
 16777216
100
AcDbPoint
 10
158.5801732314589
 20
240.1707976743592
 30
0.0
  0
POINT
  5
2658
330
14EA
100
AcDbEntity
  8
Defpoints
 62
     0
440
 16777216
100
AcDbPoint
 10
179.1484596701443
 20
314.1707976743592
 30
0.0
  0
POINT
  5
2659
330
14EA
100
AcDbEntity
  8
Defpoints
 62
     0
440
 16777216
100
AcDbPoint
 10
108.5348804628561
 20
314.1707976743592
 30
0.0
  0
ENDBLK
  5
14F5
330
14EA
100
AcDbEntity
  8
0
100
AcDbBlockEnd
  0
BLOCK
  5
150D
330
1503
100
AcDbEntity
  8
0
100
AcDbBlockBegin
  2
*D3
 70
     1
 10
0.0
 20
0.0
 30
0.0
  3
*D3
  1

  0
LINE
  5
220E
330
1503
100
AcDbEntity
  8
BEM
 62
     0
440
 16777216
370
    -2
100
AcDbLine
 10
158.1484596701443
 20
243.1053062599965
 30
0.0
 11
158.1484596701443
 21
216.7963323962528
 31
0.0
  0
LINE
  5
220F
330
1503
100
AcDbEntity
  8
BEM
 62
     0
440
 16777216
370
    -2
100
AcDbLine
 10
200.1484596701444
 20
243.1053062599949
 30
0.0
 11
200.1484596701444
 21
216.7963323962528
 31
0.0
  0
LINE
  5
2210
330
1503
100
AcDbEntity
  8
BEM
 62
     0
440
 16777216
370
    -2
100
AcDbLine
 10
165.1484596701443
 20
218.7963323962527
 30
0.0
 11
193.1484596701444
 21
218.7963323962527
 31
0.0
  0
SOLID
  5
2211
330
1503
100
AcDbEntity
  8
BEM
 62
     0
440
 16777216
100
AcDbTrace
 10
165.1484596701443
 20
219.9629990629194
 30
0.0
 11
165.1484596701443
 21
217.6296657295861
 31
0.0
 12
158.1484596701443
 22
218.7963323962527
 32
0.0
 13
158.1484596701443
 23
218.7963323962527
 33
0.0
  0
SOLID
  5
2212
330
1503
100
AcDbEntity
  8
BEM
 62
     0
440
 16777216
100
AcDbTrace
 10
193.1484596701444
 20
219.9629990629194
 30
0.0
 11
193.1484596701444
 21
217.6296657295861
 31
0.0
 12
200.1484596701444
 22
218.7963323962527
 32
0.0
 13
200.1484596701444
 23
218.7963323962527
 33
0.0
  0
MTEXT
  5
2213
330
1503
100
AcDbEntity
  8
BEM
 62
     1
440
 16777216
100
AcDbMText
 10
179.1484596701443
 20
225.2963323962528
 30
0.0
 40
7.0
 41
0.0
 46
0.0
 71
     5
 72
     1
  1
\A1;%%c42
 73
     1
 44
1.0
  0
POINT
  5
2214
330
1503
100
AcDbEntity
  8
Defpoints
 62
     0
440
 16777216
100
AcDbPoint
 10
158.1484596701443
 20
245.1053062599965
 30
0.0
  0
POINT
  5
2215
330
1503
100
AcDbEntity
  8
Defpoints
 62
     0
440
 16777216
100
AcDbPoint
 10
200.1484596701444
 20
245.1053062599949
 30
0.0
  0
POINT
  5
2216
330
1503
100
AcDbEntity
  8
Defpoints
 62
     0
440
 16777216
100
AcDbPoint
 10
200.1484596701444
 20
218.7963323962527
 30
0.0
  0
ENDBLK
  5
150E
330
1503
100
AcDbEntity
  8
0
100
AcDbBlockEnd
  0
BLOCK
  5
16F2
330
16E8
100
AcDbEntity
  8
0
100
AcDbBlockBegin
  2
*D4
 70
     1
 10
0.0
 20
0.0
 30
0.0
  3
*D4
  1

  0
LINE
  5
1DE3
330
16E8
100
AcDbEntity
  8
BEM
 62
     0
440
 16777216
370
    -2
100
AcDbLine
 10
314.9129616579614
 20
425.8936691018336
 30
0.0
 11
322.7339654520412
 21
433.7146728959133
 31
0.0
  0
LINE
  5
1DE4
330
16E8
100
AcDbEntity
  8
BEM
 62
     0
440
 16777216
370
    -2
100
AcDbLine
 10
290.871331097619
 20
449.9352996621762
 30
0.0
 11
298.6923348916985
 21
457.7563034562559
 31
0.0
  0
LINE
  5
1DE5
330
16E8
100
AcDbEntity
  8
BEM
 62
     0
440
 16777216
370
    -2
100
AcDbLine
 10
316.3700044213622
 20
437.250206801846
 30
0.0
 11
302.2278687976313
 21
451.392342425577
 31
0.0
  0
SOLID
  5
1DE6
330
16E8
100
AcDbEntity
  8
BEM
 62
     0
440
 16777216
100
AcDbTrace
 10
317.1949623327465
 20
438.0751647132304
 30
0.0
 11
315.545046509978
 21
436.4252488904618
 31
0.0
 12
321.3197518896681
 22
432.3004593335403
 32
0.0
 13
321.3197518896681
 23
432.3004593335403
 33
0.0
  0
SOLID
  5
1DE7
330
16E8
100
AcDbEntity
  8
BEM
 62
     0
440
 16777216
100
AcDbTrace
 10
303.0528267090156
 20
452.2173003369612
 30
0.0
 11
301.402910886247
 21
450.5673845141926
 31
0.0
 12
297.2781213293255
 22
456.3420898938828
 32
0.0
 13
297.2781213293255
 23
456.3420898938828
 33
0.0
  0
MTEXT
  5
1DE8
330
16E8
100
AcDbEntity
  8
BEM
 62
     1
440
 16777216
100
AcDbMText
 10
313.8951306872094
 20
448.9174686914241
 30
0.0
 40
7.0
 41
0.0
 46
0.0
 71
     5
 72
     1
  1
\A1;%%c34
  7
GREEKS
 11
0.7071067811865495
 21
-0.7071067811865457
 31
0.0
 73
     1
 44
1.0
  0
POINT
  5
1DE9
330
16E8
100
AcDbEntity
  8
Defpoints
 62
     0
440
 16777216
100
AcDbPoint
 10
313.4987480955883
 20
424.4794555394604
 30
0.0
  0
POINT
  5
1DEA
330
16E8
100
AcDbEntity
  8
Defpoints
 62
     0
440
 16777216
100
AcDbPoint
 10
289.4571175352459
 20
448.5210860998032
 30
0.0
  0
POINT
  5
1DEB
330
16E8
100
AcDbEntity
  8
Defpoints
 62
     0
440
 16777216
100
AcDbPoint
 10
297.2781213293255
 20
456.3420898938828
 30
0.0
  0
ENDBLK
  5
16F3
330
16E8
100
AcDbEntity
  8
0
100
AcDbBlockEnd
  0
BLOCK
  5
170C
330
1702
100
AcDbEntity
  8
0
100
AcDbBlockBegin
  2
*D6
 70
     1
 10
0.0
 20
0.0
 30
0.0
  3
*D6
  1

  0
LINE
  5
25F3
330
1702
100
AcDbEntity
  8
BEM
 62
     0
440
 16777216
370
    -2
100
AcDbLine
 10
271.4258946149887
 20
469.3807361448063
 30
0.0
 11
288.1691791753986
 21
486.1240207052163
 31
0.0
  0
LINE
  5
25F4
330
1702
100
AcDbEntity
  8
BEM
 62
     0
440
 16777216
370
    -2
100
AcDbLine
 10
334.3583981405916
 20
406.4482326192035
 30
0.0
 11
351.1016827010017
 21
423.1915171796137
 31
0.0
  0
LINE
  5
25F5
330
1702
100
AcDbEntity
  8
BEM
 62
     0
440
 16777216
370
    -2
100
AcDbLine
 10
291.7047130813314
 20
479.7600596745374
 30
0.0
 11
344.7377216703227
 21
426.7270510855464
 31
0.0
  0
SOLID
  5
25F6
330
1702
100
AcDbEntity
  8
BEM
 62
     0
440
 16777216
100
AcDbTrace
 10
292.5296709927156
 20
480.5850175859218
 30
0.0
 11
290.8797551699471
 21
478.9351017631531
 31
0.0
 12
286.7549656130255
 22
484.7098071428432
 32
0.0
 13
286.7549656130255
 23
484.7098071428432
 33
0.0
  0
SOLID
  5
25F7
330
1702
100
AcDbEntity
  8
BEM
 62
     0
440
 16777216
100
AcDbTrace
 10
345.562679581707
 20
427.5520089969307
 30
0.0
 11
343.9127637589384
 21
425.9020931741621
 31
0.0
 12
349.6874691386286
 22
421.7773036172406
 32
0.0
 13
349.6874691386286
 23
421.7773036172406
 33
0.0
  0
MTEXT
  5
25F8
330
1702
100
AcDbEntity
  8
BEM
 62
     1
440
 16777216
100
AcDbMText
 10
322.8174114535396
 20
457.8397494577544
 30
0.0
 40
7.0
 41
0.0
 46
0.0
 71
     5
 72
     1
  1
\A1;%%c89
  7
GREEKS
 11
0.7071067811865495
 21
-0.7071067811865457
 31
0.0
 73
     1
 44
1.0
  0
POINT
  5
25F9
330
1702
100
AcDbEntity
  8
Defpoints
 62
     0
440
 16777216
100
AcDbPoint
 10
270.0116810526156
 20
467.9665225824333
 30
0.0
  0
POINT
  5
25FA
330
1702
100
AcDbEntity
  8
Defpoints
 62
     0
440
 16777216
100
AcDbPoint
 10
332.9441845782185
 20
405.0340190568304
 30
0.0
  0
POINT
  5
25FB
330
1702
100
AcDbEntity
  8
Defpoints
 62
     0
440
 16777216
100
AcDbPoint
 10
349.6874691386286
 20
421.7773036172406
 30
0.0
  0
ENDBLK
  5
170D
330
1702
100
AcDbEntity
  8
0
100
AcDbBlockEnd
  0
BLOCK
  5
17C4
330
17BA
100
AcDbEntity
  8
0
100
AcDbBlockBegin
  2
*D9
 70
     1
 10
0.0
 20
0.0
 30
0.0
  3
*D9
  1

  0
LINE
  5
25E1
330
17BA
100
AcDbEntity
  8
BEM
 62
     0
440
 16777216
370
    -2
100
AcDbLine
 10
134.6484596701444
 20
469.1676757939794
 30
0.0
 11
134.6484596701444
 21
492.1093598679021
 31
0.0
  0
LINE
  5
25E2
330
17BA
100
AcDbEntity
  8
BEM
 62
     0
440
 16777216
370
    -2
100
AcDbLine
 10
223.6484596701443
 20
469.1676757939791
 30
0.0
 11
223.6484596701443
 21
492.1093598679021
 31
0.0
  0
LINE
  5
25E3
330
17BA
100
AcDbEntity
  8
BEM
 62
     0
440
 16777216
370
    -2
100
AcDbLine
 10
141.6484596701444
 20
490.1093598679022
 30
0.0
 11
216.6484596701443
 21
490.1093598679022
 31
0.0
  0
SOLID
  5
25E4
330
17BA
100
AcDbEntity
  8
BEM
 62
     0
440
 16777216
100
AcDbTrace
 10
141.6484596701444
 20
491.2760265345688
 30
0.0
 11
141.6484596701444
 21
488.9426932012354
 31
0.0
 12
134.6484596701444
 22
490.1093598679022
 32
0.0
 13
134.6484596701444
 23
490.1093598679022
 33
0.0
  0
SOLID
  5
25E5
330
17BA
100
AcDbEntity
  8
BEM
 62
     0
440
 16777216
100
AcDbTrace
 10
216.6484596701443
 20
491.2760265345688
 30
0.0
 11
216.6484596701443
 21
488.9426932012354
 31
0.0
 12
223.6484596701443
 22
490.1093598679022
 32
0.0
 13
223.6484596701443
 23
490.1093598679022
 33
0.0
  0
MTEXT
  5
25E6
330
17BA
100
AcDbEntity
  8
BEM
 62
     1
440
 16777216
100
AcDbMText
 10
179.1484596701443
 20
496.6093598679021
 30
0.0
 40
7.0
 41
0.0
 46
0.0
 71
     5
 72
     1
  1
\A1;%%c89
  7
GREEKS
 73
     1
 44
1.0
  0
POINT
  5
25E7
330
17BA
100
AcDbEntity
  8
Defpoints
 62
     0
440
 16777216
100
AcDbPoint
 10
134.6484596701444
 20
467.1676757939795
 30
0.0
  0
POINT
  5
25E8
330
17BA
100
AcDbEntity
  8
Defpoints
 62
     0
440
 16777216
100
AcDbPoint
 10
223.6484596701443
 20
467.1676757939791
 30
0.0
  0
POINT
  5
25E9
330
17BA
100
AcDbEntity
  8
Defpoints
 62
     0
440
 16777216
100
AcDbPoint
 10
223.6484596701443
 20
490.1093598679022
 30
0.0
  0
ENDBLK
  5
17C5
330
17BA
100
AcDbEntity
  8
0
100
AcDbBlockEnd
  0
BLOCK
  5
17D0
330
17C6
100
AcDbEntity
  8
0
100
AcDbBlockBegin
  2
*D10
 70
     1
 10
0.0
 20
0.0
 30
0.0
  3
*D10
  1

  0
LINE
  5
26DE
330
17C6
100
AcDbEntity
  8
BEM
 62
     0
440
 16777216
370
    -2
100
AcDbLine
 10
156.6484596701444
 20
469.1676757939793
 30
0.0
 11
156.6484596701444
 21
479.2877972817868
 31
0.0
  0
LINE
  5
26DF
330
17C6
100
AcDbEntity
  8
BEM
 62
     0
440
 16777216
370
    -2
100
AcDbLine
 10
201.6484596701444
 20
469.1676757939791
 30
0.0
 11
201.6484596701444
 21
479.2877972817868
 31
0.0
  0
LINE
  5
26E0
330
17C6
100
AcDbEntity
  8
BEM
 62
     0
440
 16777216
370
    -2
100
AcDbLine
 10
163.6484596701444
 20
477.2877972817868
 30
0.0
 11
194.6484596701444
 21
477.2877972817868
 31
0.0
  0
SOLID
  5
26E1
330
17C6
100
AcDbEntity
  8
BEM
 62
     0
440
 16777216
100
AcDbTrace
 10
163.6484596701444
 20
478.4544639484535
 30
0.0
 11
163.6484596701444
 21
476.1211306151201
 31
0.0
 12
156.6484596701444
 22
477.2877972817868
 32
0.0
 13
156.6484596701444
 23
477.2877972817868
 33
0.0
  0
SOLID
  5
26E2
330
17C6
100
AcDbEntity
  8
BEM
 62
     0
440
 16777216
100
AcDbTrace
 10
194.6484596701444
 20
478.4544639484535
 30
0.0
 11
194.6484596701444
 21
476.1211306151201
 31
0.0
 12
201.6484596701444
 22
477.2877972817868
 32
0.0
 13
201.6484596701444
 23
477.2877972817868
 33
0.0
  0
MTEXT
  5
26E3
330
17C6
100
AcDbEntity
  8
BEM
 62
     1
440
 16777216
100
AcDbMText
 10
179.1484596701444
 20
483.7877972817868
 30
0.0
 40
7.0
 41
0.0
 46
0.0
 71
     5
 72
     1
  1
\A1;%%C45
  7
GREEKS
 73
     1
 44
1.0
  0
POINT
  5
26E4
330
17C6
100
AcDbEntity
  8
Defpoints
 62
     0
440
 16777216
100
AcDbPoint
 10
156.6484596701444
 20
467.1676757939793
 30
0.0
  0
POINT
  5
26E5
330
17C6
100
AcDbEntity
  8
Defpoints
 62
     0
440
 16777216
100
AcDbPoint
 10
201.6484596701444
 20
467.1676757939791
 30
0.0
  0
POINT
  5
26E6
330
17C6
100
AcDbEntity
  8
Defpoints
 62
     0
440
 16777216
100
AcDbPoint
 10
201.6484596701444
 20
477.2877972817868
 30
0.0
  0
ENDBLK
  5
17D1
330
17C6
100
AcDbEntity
  8
0
100
AcDbBlockEnd
  0
BLOCK
  5
17EA
330
17E0
100
AcDbEntity
  8
0
100
AcDbBlockBegin
  2
*D12
 70
     1
 10
0.0
 20
0.0
 30
0.0
  3
*D12
  1

  0
LINE
  5
25EA
330
17E0
100
AcDbEntity
  8
BEM
 62
     0
440
 16777216
370
    -2
100
AcDbLine
 10
134.6484596701444
 20
469.1676757939794
 30
0.0
 11
134.6484596701444
 21
492.1093598679021
 31
0.0
  0
LINE
  5
25EB
330
17E0
100
AcDbEntity
  8
BEM
 62
     0
440
 16777216
370
    -2
100
AcDbLine
 10
223.6484596701443
 20
469.1676757939791
 30
0.0
 11
223.6484596701443
 21
492.1093598679021
 31
0.0
  0
LINE
  5
25EC
330
17E0
100
AcDbEntity
  8
BEM
 62
     0
440
 16777216
370
    -2
100
AcDbLine
 10
141.6484596701444
 20
490.1093598679022
 30
0.0
 11
216.6484596701443
 21
490.1093598679022
 31
0.0
  0
SOLID
  5
25ED
330
17E0
100
AcDbEntity
  8
BEM
 62
     0
440
 16777216
100
AcDbTrace
 10
141.6484596701444
 20
491.2760265345688
 30
0.0
 11
141.6484596701444
 21
488.9426932012354
 31
0.0
 12
134.6484596701444
 22
490.1093598679022
 32
0.0
 13
134.6484596701444
 23
490.1093598679022
 33
0.0
  0
SOLID
  5
25EE
330
17E0
100
AcDbEntity
  8
BEM
 62
     0
440
 16777216
100
AcDbTrace
 10
216.6484596701443
 20
491.2760265345688
 30
0.0
 11
216.6484596701443
 21
488.9426932012354
 31
0.0
 12
223.6484596701443
 22
490.1093598679022
 32
0.0
 13
223.6484596701443
 23
490.1093598679022
 33
0.0
  0
MTEXT
  5
25EF
330
17E0
100
AcDbEntity
  8
BEM
 62
     1
440
 16777216
100
AcDbMText
 10
179.1484596701443
 20
496.6093598679021
 30
0.0
 40
7.0
 41
0.0
 46
0.0
 71
     5
 72
     1
  1
\A1;%%c89
  7
GREEKS
 73
     1
 44
1.0
  0
POINT
  5
25F0
330
17E0
100
AcDbEntity
  8
Defpoints
 62
     0
440
 16777216
100
AcDbPoint
 10
134.6484596701444
 20
467.1676757939795
 30
0.0
  0
POINT
  5
25F1
330
17E0
100
AcDbEntity
  8
Defpoints
 62
     0
440
 16777216
100
AcDbPoint
 10
223.6484596701443
 20
467.1676757939791
 30
0.0
  0
POINT
  5
25F2
330
17E0
100
AcDbEntity
  8
Defpoints
 62
     0
440
 16777216
100
AcDbPoint
 10
223.6484596701443
 20
490.1093598679022
 30
0.0
  0
ENDBLK
  5
17EB
330
17E0
100
AcDbEntity
  8
0
100
AcDbBlockEnd
  0
BLOCK
  5
1C16
330
1C0C
100
AcDbEntity
  8
0
100
AcDbBlockBegin
  2
*D15
 70
     1
 10
0.0
 20
0.0
 30
0.0
  3
*D15
  1

  0
LINE
  5
1C88
330
1C0C
100
AcDbEntity
  8
SCHRAFF
 62
     0
440
 16777216
370
    -2
100
AcDbLine
 10
180.5626732325174
 20
312.756584111986
 30
0.0
 11
228.9351855019732
 21
264.3840718425303
 31
0.0
  0
LINE
  5
1C89
330
1C0C
100
AcDbEntity
  8
SCHRAFF
 62
     0
440
 16777216
370
    -2
100
AcDbLine
 10
334.3583981405915
 20
403.6198054944573
 30
0.0
 11
351.2646586472459
 21
386.713544987803
 31
0.0
  0
LINE
  5
1C8A
330
1C0C
100
AcDbEntity
  8
SCHRAFF
 62
     0
440
 16777216
370
    -2
100
AcDbLine
 10
232.470719407906
 20
270.7480328732092
 30
0.0
 11
344.900697616567
 21
383.1780110818702
 31
0.0
  0
SOLID
  5
1C8B
330
1C0C
100
AcDbEntity
  8
SCHRAFF
 62
     0
440
 16777216
100
AcDbTrace
 10
231.6457614965217
 20
271.5729907845934
 30
0.0
 11
233.2956773192903
 21
269.9230749618248
 31
0.0
 12
227.5209719396001
 22
265.7982854049033
 32
0.0
 13
227.5209719396001
 23
265.7982854049033
 33
0.0
  0
SOLID
  5
1C8C
330
1C0C
100
AcDbEntity
  8
SCHRAFF
 62
     0
440
 16777216
100
AcDbTrace
 10
344.0757397051826
 20
384.0029689932545
 30
0.0
 11
345.7256555279513
 21
382.3530531704859
 31
0.0
 12
349.8504450848728
 22
388.1277585501761
 32
0.0
 13
349.8504450848728
 23
388.1277585501761
 33
0.0
  0
MTEXT
  5
1C8D
330
1C0C
100
AcDbEntity
  8
SCHRAFF
 62
     1
440
 16777216
100
AcDbMText
 10
284.0895144345239
 20
331.5592160552522
 30
0.0
 40
7.0
 41
0.0
 46
0.0
 71
     5
 72
     1
  1
\A1;173
 11
0.7071067811865474
 21
0.7071067811865478
 31
0.0
 73
     1
 44
1.0
  0
POINT
  5
1C8E
330
1C0C
100
AcDbEntity
  8
Defpoints
 62
     0
440
 16777216
100
AcDbPoint
 10
179.1484596701443
 20
314.1707976743591
 30
0.0
  0
POINT
  5
1C8F
330
1C0C
100
AcDbEntity
  8
Defpoints
 62
     0
440
 16777216
100
AcDbPoint
 10
332.9441845782184
 20
405.0340190568304
 30
0.0
  0
POINT
  5
1C90
330
1C0C
100
AcDbEntity
  8
Defpoints
 62
     0
440
 16777216
100
AcDbPoint
 10
349.8504450848728
 20
388.1277585501761
 30
0.0
  0
ENDBLK
  5
1C17
330
1C0C
100
AcDbEntity
  8
0
100
AcDbBlockEnd
  0
BLOCK
  5
1C44
330
1C3A
100
AcDbEntity
  8
0
100
AcDbBlockBegin
  2
*D17
 70
     1
 10
0.0
 20
0.0
 30
0.0
  3
*D17
  1

  0
LINE
  5
265A
330
1C3A
100
AcDbEntity
  8
BEM
 62
     0
440
 16777216
370
    -2
100
AcDbLine
 10
132.6484596701447
 20
270.1707976743593
 30
0.0
 11
119.3359387425603
 21
270.1707976743593
 31
0.0
  0
LINE
  5
265B
330
1C3A
100
AcDbEntity
  8
BEM
 62
     0
440
 16777216
370
    -2
100
AcDbLine
 10
156.5801732314589
 20
240.1707976743592
 30
0.0
 11
119.3359387425603
 21
240.1707976743592
 31
0.0
  0
LINE
  5
265C
330
1C3A
100
AcDbEntity
  8
BEM
 62
     0
440
 16777216
370
    -2
100
AcDbLine
 10
121.3359387425603
 20
263.1707976743594
 30
0.0
 11
121.3359387425603
 21
247.1707976743592
 31
0.0
  0
SOLID
  5
265D
330
1C3A
100
AcDbEntity
  8
BEM
 62
     0
440
 16777216
100
AcDbTrace
 10
120.1692720758936
 20
263.1707976743594
 30
0.0
 11
122.5026054092269
 21
263.1707976743594
 31
0.0
 12
121.3359387425603
 22
270.1707976743593
 32
0.0
 13
121.3359387425603
 23
270.1707976743593
 33
0.0
  0
SOLID
  5
265E
330
1C3A
100
AcDbEntity
  8
BEM
 62
     0
440
 16777216
100
AcDbTrace
 10
120.1692720758936
 20
247.1707976743592
 30
0.0
 11
122.5026054092269
 21
247.1707976743592
 31
0.0
 12
121.3359387425603
 22
240.1707976743592
 32
0.0
 13
121.3359387425603
 23
240.1707976743592
 33
0.0
  0
MTEXT
  5
265F
330
1C3A
100
AcDbEntity
  8
BEM
 62
     1
440
 16777216
100
AcDbMText
 10
114.8359387425602
 20
255.1707976743593
 30
0.0
 40
7.0
 41
0.0
 46
0.0
 71
     5
 72
     1
  1
\A1;30
 11
0.0000000000000001
 21
1.0
 31
0.0
 73
     1
 44
1.0
  0
POINT
  5
2660
330
1C3A
100
AcDbEntity
  8
Defpoints
 62
     0
440
 16777216
100
AcDbPoint
 10
134.6484596701447
 20
270.1707976743593
 30
0.0
  0
POINT
  5
2661
330
1C3A
100
AcDbEntity
  8
Defpoints
 62
     0
440
 16777216
100
AcDbPoint
 10
158.5801732314589
 20
240.1707976743592
 30
0.0
  0
POINT
  5
2662
330
1C3A
100
AcDbEntity
  8
Defpoints
 62
     0
440
 16777216
100
AcDbPoint
 10
121.3359387425603
 20
240.1707976743592
 30
0.0
  0
ENDBLK
  5
1C45
330
1C3A
100
AcDbEntity
  8
0
100
AcDbBlockEnd
  0
BLOCK
  5
2611
330
2610
100
AcDbEntity
  8
0
100
AcDbBlockBegin
  2
*D20
 70
     1
 10
0.0
 20
0.0
 30
0.0
  3
*D20
  1

  0
LINE
  5
2634
330
2610
100
AcDbEntity
  8
BEM
 62
     0
440
 16777216
370
    -2
100
AcDbLine
 10
328.2790486638555
 20
463.3013866680697
 30
0.0
 11
334.69690916116
 21
469.719247165374
 31
0.0
  0
LINE
  5
2635
330
2610
100
AcDbEntity
  8
BEM
 62
     0
440
 16777216
370
    -2
100
AcDbLine
 10
179.148459670145
 20
504.4850257275903
 30
0.0
 11
179.1484596701454
 21
534.1495245506616
 31
0.0
  0
ARC
  5
2636
330
2610
100
AcDbEntity
  8
BEM
 62
     0
440
 16777216
370
    -2
100
AcDbCircle
 10
179.1484596701409
 20
314.1707976743592
 30
0.0
 40
217.9787268763024
100
AcDbArc
 50
46.84003135530494
 51
88.15996864469312
  0
SOLID
  5
2637
330
2610
100
AcDbEntity
  8
BEM
 62
     0
440
 16777216
100
AcDbTrace
 10
329.0657155841739
 20
474.0127643839212
 30
0.0
 11
327.4425045208815
 21
472.336569201835
 31
0.0
 12
333.2826955987868
 22
468.3050336030009
 32
0.0
 13
333.2826955987868
 23
468.3050336030009
 33
0.0
  0
SOLID
  5
2638
330
2610
100
AcDbEntity
  8
BEM
 62
     0
440
 16777216
100
AcDbTrace
 10
186.1288245452879
 20
530.8706119965798
 30
0.0
 11
186.1662899749823
 21
533.2036445265764
 31
0.0
 12
179.1484596701454
 22
532.1495245506617
 32
0.0
 13
179.1484596701454
 23
532.1495245506617
 33
0.0
  0
MTEXT
  5
2639
330
2610
100
AcDbEntity
  8
BEM
 62
     1
440
 16777216
100
AcDbMText
 10
265.0527493641134
 20
521.5620989195648
 30
0.0
 40
7.0
 41
0.0
 46
0.0
 71
     5
 72
     1
  1
\A1;45\U+00B0
 11
0.92387953251128
 21
-0.3826834323651059
 31
0.0
 73
     1
 44
1.0
  0
POINT
  5
263A
330
2610
100
AcDbEntity
  8
Defpoints
 62
     0
440
 16777216
100
AcDbPoint
 10
288.1378231082952
 20
502.9459126338251
 30
0.0
  0
POINT
  5
263B
330
2610
100
AcDbEntity
  8
Defpoints
 62
     0
440
 16777216
100
AcDbPoint
 10
179.1484596701444
 20
474.1676757939792
 30
0.0
  0
POINT
  5
263C
330
2610
100
AcDbEntity
  8
Defpoints
 62
     0
440
 16777216
100
AcDbPoint
 10
306.4276802837229
 20
441.4500182879377
 30
0.0
  0
POINT
  5
263D
330
2610
100
AcDbEntity
  8
Defpoints
 62
     0
440
 16777216
100
AcDbPoint
 10
326.8648351014824
 20
461.8871731056966
 30
0.0
  0
POINT
  5
263E
330
2610
100
AcDbEntity
  8
Defpoints
 62
     0
440
 16777216
100
AcDbPoint
 10
179.148459670145
 20
502.4850257275903
 30
0.0
  0
ENDBLK
  5
2612
330
2610
100
AcDbEntity
  8
0
100
AcDbBlockEnd
  0
ENDSEC
  0
SECTION
  2
ENTITIES
  0
LINE
  5
57
330
1E
100
AcDbEntity
  8
STEMPEL
100
AcDbLine
 10
410.0
 20
110.0
 30
0.0
 11
39.99999999999997
 21
110.0
 31
0.0
  0
LINE
  5
58
330
1E
100
AcDbEntity
  8
STEMPEL
100
AcDbLine
 10
136.0000000000001
 20
109.9999999999999
 30
0.0
 11
136.0
 21
9.999999999999971
 31
0.0
  0
LINE
  5
59
330
1E
100
AcDbEntity
  8
STEMPEL
100
AcDbLine
 10
220.0
 20
110.0
 30
0.0
 11
220.0
 21
9.999999999999971
 31
0.0
  0
LINE
  5
5A
330
1E
100
AcDbEntity
  8
STEMPEL
100
AcDbLine
 10
332.0
 20
109.9999999999997
 30
0.0
 11
332.0
 21
40.0
 31
0.0
  0
LINE
  5
5B
330
1E
100
AcDbEntity
  8
STEMPEL
100
AcDbLine
 10
135.9999999999999
 20
29.99999999999997
 30
0.0
 11
39.99999999999997
 21
29.99999999999997
 31
0.0
  0
LINE
  5
5C
330
1E
100
AcDbEntity
  8
STEMPEL
100
AcDbLine
 10
410.0
 20
40.0
 30
0.0
 11
136.0000000000001
 21
39.99999999999997
 31
0.0
  0
LINE
  5
5D
330
1E
100
AcDbEntity
  8
STEMPEL
100
AcDbLine
 10
410.0
 20
80.0
 30
0.0
 11
136.0000000000001
 21
79.99999999999994
 31
0.0
  0
LINE
  5
5E
330
1E
100
AcDbEntity
  8
VOLL
100
AcDbLine
 10
54.00000000000009
 20
110.0
 30
0.0
 11
53.99999999999997
 21
9.999999999999971
 31
0.0
  0
LINE
  5
5F
330
1E
100
AcDbEntity
  8
VOLL
100
AcDbLine
 10
94.00000000000011
 20
109.9999999999999
 30
0.0
 11
94.0
 21
9.999999999999971
 31
0.0
  0
LINE
  5
60
330
1E
100
AcDbEntity
  8
VOLL
100
AcDbLine
 10
114.0000000000001
 20
109.9999999999999
 30
0.0
 11
114.0
 21
9.999999999999971
 31
0.0
  0
LINE
  5
61
330
1E
100
AcDbEntity
  8
VOLL
100
AcDbLine
 10
154.0000000000001
 20
79.99999999999994
 30
0.0
 11
154.0000000000001
 21
39.99999999999997
 31
0.0
  0
LINE
  5
62
330
1E
100
AcDbEntity
  8
VOLL
100
AcDbLine
 10
180.0000000000001
 20
109.9999999999998
 30
0.0
 11
180.0
 21
39.99999999999997
 31
0.0
  0
LINE
  5
63
330
1E
100
AcDbEntity
  8
HILF
100
AcDbLine
 10
40.00000000000008
 20
100.0
 30
0.0
 11
136.0000000000001
 21
100.0
 31
0.0
  0
LINE
  5
64
330
1E
100
AcDbEntity
  8
HILF
100
AcDbLine
 10
40.00000000000008
 20
90.00000000000005
 30
0.0
 11
136.0000000000001
 21
90.00000000000005
 31
0.0
  0
LINE
  5
65
330
1E
100
AcDbEntity
  8
HILF
100
AcDbLine
 10
40.00000000000008
 20
79.99999999999994
 30
0.0
 11
136.0000000000001
 21
79.99999999999994
 31
0.0
  0
LINE
  5
66
330
1E
100
AcDbEntity
  8
HILF
100
AcDbLine
 10
40.00000000000008
 20
69.99999999999994
 30
0.0
 11
136.0000000000001
 21
69.99999999999994
 31
0.0
  0
LINE
  5
67
330
1E
100
AcDbEntity
  8
HILF
100
AcDbLine
 10
40.00000000000008
 20
59.99999999999997
 30
0.0
 11
136.0000000000001
 21
59.99999999999997
 31
0.0
  0
LINE
  5
68
330
1E
100
AcDbEntity
  8
HILF
100
AcDbLine
 10
40.00000000000008
 20
49.99999999999997
 30
0.0
 11
136.0000000000001
 21
49.99999999999997
 31
0.0
  0
LINE
  5
69
330
1E
100
AcDbEntity
  8
HILF
100
AcDbLine
 10
40.00000000000008
 20
39.99999999999997
 30
0.0
 11
136.0000000000001
 21
39.99999999999997
 31
0.0
  0
LINE
  5
6A
330
1E
100
AcDbEntity
  8
HILF
100
AcDbLine
 10
136.0000000000001
 20
69.99999999999994
 30
0.0
 11
220.0
 21
69.99999999999994
 31
0.0
  0
LINE
  5
6B
330
1E
100
AcDbEntity
  8
HILF
100
AcDbLine
 10
136.0000000000001
 20
59.99999999999997
 30
0.0
 11
220.0
 21
59.99999999999997
 31
0.0
  0
LINE
  5
6C
330
1E
100
AcDbEntity
  8
HILF
100
AcDbLine
 10
136.0000000000001
 20
49.99999999999997
 30
0.0
 11
220.0
 21
49.99999999999997
 31
0.0
  0
LINE
  5
6D
330
1E
100
AcDbEntity
  8
HILF
100
AcDbLine
 10
224.7736801096948
 20
84.03758247564139
 30
0.0
 11
324.8353916556311
 21
84.03758247564139
 31
0.0
  0
LINE
  5
6E
330
1E
100
AcDbEntity
  8
HILF
100
AcDbLine
 10
224.7736801096948
 20
69.99999999999994
 30
0.0
 11
324.835391655631
 21
69.99999999999994
 31
0.0
  0
LINE
  5
6F
330
1E
100
AcDbEntity
  8
HILF
100
AcDbLine
 10
224.7736801096948
 20
59.99999999999997
 30
0.0
 11
324.835391655631
 21
59.99999999999997
 31
0.0
  0
LINE
  5
70
330
1E
100
AcDbEntity
  8
HILF
100
AcDbLine
 10
224.7736801096948
 20
49.99999999999997
 30
0.0
 11
324.835391655631
 21
49.99999999999997
 31
0.0
  0
LINE
  5
71
330
1E
100
AcDbEntity
  8
VOLL
100
AcDbLine
 10
332.0
 20
60.0
 30
0.0
 11
410.0
 21
60.0
 31
0.0
  0
LINE
  5
72
330
1E
100
AcDbEntity
  8
HILF
100
AcDbLine
 10
336.7238616296993
 20
83.77983636955827
 30
0.0
 11
404.8588839326728
 21
83.77983636955827
 31
0.0
  0
LINE
  5
73
330
1E
100
AcDbEntity
  8
HILF
100
AcDbLine
 10
223.4909699289885
 20
14.89398258028314
 30
0.0
 11
404.8588839326728
 21
14.89398258028314
 31
0.0
  0
TEXT
  5
74
330
1E
100
AcDbEntity
  8
TEXT
100
AcDbText
 10
63.86165979631819
 20
18.67381894984132
 30
0.0
 40
4.0
  1
Änderung
 41
0.8
  7
GREEKS
 72
     1
 11
74.60451693917534
 21
18.67381894984132
 31
0.0
100
AcDbText
  0
TEXT
  5
75
330
1E
100
AcDbEntity
  8
TEXT
100
AcDbText
 10
143.5163572150377
 20
102.4620895087088
 30
0.0
 40
5.0
  1
Maßstab
 41
0.8
  7
GREEKS
100
AcDbText
  0
TEXT
  5
76
330
1E
100
AcDbEntity
  8
TEXT
100
AcDbText
 10
184.2858954734051
 20
102.4184168434819
 30
0.0
 40
5.0
  1
Zul. Abw.
 41
0.8
  7
GREEKS
100
AcDbText
  0
TEXT
  5
77
330
1E
100
AcDbEntity
  8
TEXT
100
AcDbText
 10
224.877940380901
 20
102.5489328011779
 30
0.0
 40
5.0
  1
Benennung
 41
0.8
  7
GREEKS
100
AcDbText
  0
TEXT
  5
78
330
1E
100
AcDbEntity
  8
TEXT
100
AcDbText
 10
336.178754957634
 20
102.3132034537136
 30
0.0
 40
5.0
  1
Zeichnungs Nr.
 41
0.8
  7
GREEKS
100
AcDbText
  0
TEXT
  5
79
330
1E
100
AcDbEntity
  8
TEXT
100
AcDbText
 10
224.742238391136
 20
30.84560570193057
 30
0.0
 40
5.0
  1
Bauvorhaben
 41
0.8
  7
GREEKS
100
AcDbText
  0
TEXT
  5
7A
330
1E
100
AcDbEntity
  8
TEXT
100
AcDbText
 10
336.7238616296993
 20
73.1811823709997
 30
0.0
 40
5.0
  1
Ersatz für:
 41
0.8
  7
GREEKS
100
AcDbText
  0
TEXT
  5
7B
330
1E
100
AcDbEntity
  8
TEXT
100
AcDbText
 10
48.26641107045756
 20
13.65465846027192
 30
0.0
 40
4.0
  1
Index
 50
90.0
 41
0.8
  7
GREEKS
100
AcDbText
  0
TEXT
  5
7C
330
1E
100
AcDbEntity
  8
TEXT
100
AcDbText
 10
100.0934676075481
 20
18.6715626933981
 30
0.0
 40
4.0
  1
Tag
 41
0.8
  7
GREEKS
 72
     1
 11
103.8268009408814
 21
18.6715626933981
 31
0.0
100
AcDbText
  0
TEXT
  5
7D
330
1E
100
AcDbEntity
  8
TEXT
100
AcDbText
 10
119.0122744386592
 20
18.59324216966408
 30
0.0
 40
4.0
  1
Name
 41
0.8
  7
GREEKS
 72
     1
 11
125.3360839624688
 21
18.59324216966408
 31
0.0
100
AcDbText
  0
TEXT
  5
7E
330
1E
100
AcDbEntity
  8
TEXT
100
AcDbText
 10
162.3311673153651
 20
73.31880501229926
 30
0.0
 40
4.0
  1
Tag
 41
0.8
  7
GREEKS
100
AcDbText
  0
TEXT
  5
7F
330
1E
100
AcDbEntity
  8
TEXT
100
AcDbText
 10
192.4626584226295
 20
73.30961091915225
 30
0.0
 40
4.0
  1
Name
 41
0.8
  7
GREEKS
100
AcDbText
  0
TEXT
  5
80
330
1E
100
AcDbEntity
  8
TEXT
100
AcDbText
 10
137.5836127167615
 20
63.62990369617964
 30
0.0
 40
4.0
  1
Gez.
 41
0.8
  7
GREEKS
100
AcDbText
  0
TEXT
  5
81
330
1E
100
AcDbEntity
  8
TEXT
100
AcDbText
 10
137.5515086571672
 20
53.68926291428377
 30
0.0
 40
4.0
  1
Gepr.
 41
0.8
  7
GREEKS
100
AcDbText
  0
TEXT
  5
82
330
1E
100
AcDbEntity
  8
TEXT
100
AcDbText
 10
137.6006777387304
 20
43.52946389649807
 30
0.0
 40
4.0
  1
Norm.
 41
0.8
  7
GREEKS
100
AcDbText
  0
LINE
  5
83
330
1E
100
AcDbEntity
  8
STEMPEL
100
AcDbLine
 10
49.99999999999989
 20
10.0
 30
0.0
 11
410.0
 21
10.0
 31
0.0
  0
TEXT
  5
84
330
1E
100
AcDbEntity
  8
TEXT
100
AcDbText
 10
337.2400861497006
 20
52.07416177878602
 30
0.0
 40
5.0
  1
ersetzt durch:
 41
0.8
  7
GREEKS
100
AcDbText
  0
LINE
  5
85
330
1E
100
AcDbEntity
  8
STEMPEL
100
AcDbLine
 10
410.0
 20
10.0
 30
0.0
 11
39.99999999999989
 21
10.0
 31
0.0
  0
LINE
  5
86
330
1E
100
AcDbEntity
  8
STEMPEL
100
AcDbLine
 10
410.0
 20
10.0
 30
0.0
 11
410.0
 21
584.0
 31
0.0
  0
LINE
  5
87
330
1E
100
AcDbEntity
  8
STEMPEL
100
AcDbLine
 10
40.0
 20
10.0
 30
0.0
 11
39.99999999999989
 21
584.0
 31
0.0
  0
LINE
  5
88
330
1E
100
AcDbEntity
  8
STEMPEL
100
AcDbLine
 10
410.0
 20
584.0
 30
0.0
 11
39.99999999999989
 21
584.0
 31
0.0
  0
LINE
  5
89
330
1E
100
AcDbEntity
  8
HILF
100
AcDbLine
 10
0.0
 20
0.0
 30
0.0
 11
-0.0000000000001137
 21
594.0
 31
0.0
  0
LINE
  5
8A
330
1E
100
AcDbEntity
  8
HILF
100
AcDbLine
 10
419.9999999999999
 20
594.0000000000002
 30
0.0
 11
0.0
 21
594.0
 31
0.0
  0
LINE
  5
8B
330
1E
100
AcDbEntity
  8
HILF
100
AcDbLine
 10
420.0
 20
0.0
 30
0.0
 11
0.0
 21
0.0
 31
0.0
  0
LINE
  5
8C
330
1E
100
AcDbEntity
  8
HILF
100
AcDbLine
 10
31.08767135713856
 20
297.0
 30
0.0
 11
0.0000000000001137
 21
297.0
 31
0.0
  0
TEXT
  5
8D
330
1E
100
AcDbEntity
  8
TEXT
100
AcDbText
 10
138.622109822104
 20
73.14025471151666
 30
0.0
 40
4.0
  1
2013
 41
0.8
  7
GREEKS
100
AcDbText
  0
LINE
  5
8E
330
1E
100
AcDbEntity
  8
HILF
100
AcDbLine
 10
420.0
 20
-0.0000000000001137
 30
0.0
 11
419.9999999999999
 21
594.0
 31
0.0
  0
TEXT
  5
8F
330
1E
100
AcDbEntity
  8
VOLL
100
AcDbText
 10
78.07675471698113
 20
31.02594776470585
 30
0.0
 40
1.8
  1

  7
GREEKS
100
AcDbText
  0
TEXT
  5
90
330
1E
100
AcDbEntity
  8
TEXT
100
AcDbText
 10
41.85509950977674
 20
111.6719999999999
 30
0.0
 40
5.0
  1
Erstellt mit AUTOCAD 2004
 41
0.8
  7
GREEKS
100
AcDbText
  0
TEXT
  5
91
330
1E
100
AcDbEntity
  8
TEXT
100
AcDbText
 10
194.4216048581257
 20
63.0896391972351
 30
0.0
 40
4.0
  1
Koeh
 41
0.8
  7
GREEKS
 72
     1
 11
199.6787477152685
 21
63.0896391972351
 31
0.0
100
AcDbText
  0
TEXT
  5
92
330
1E
100
AcDbEntity
  8
TEXT
 62
     1
100
AcDbText
 10
345.4791900623816
 20
88.14901428913959
 30
0.0
 40
7.0
  1
58025AL0W
 41
0.8
  7
GREEKS
 72
     1
 11
369.3458567290483
 21
88.14901428913959
 31
0.0
100
AcDbText
  0
TEXT
  5
93
330
1E
100
AcDbEntity
  8
TEXT
 62
     1
100
AcDbText
 10
150.5006306481887
 20
88.14901428913959
 30
0.0
 40
7.0
  1
1:2
 41
0.8
  7
GREEKS
100
AcDbText
  0
TEXT
  5
94
330
1E
100
AcDbEntity
  8
TEXT
100
AcDbText
 10
160.7037590129979
 20
63.10765040825732
 30
0.0
 40
4.0
  1
10.04.
 41
0.8
  7
GREEKS
 72
     1
 11
167.4085209177598
 21
63.10765040825732
 31
0.0
100
AcDbText
  0
TEXT
  5
95
330
1E
100
AcDbEntity
  8
TEXT
 62
     1
100
AcDbText
 10
226.8935731057402
 20
87.41748789253779
 30
0.0
 40
7.0
  1
Verbundrohr DN40/32
 41
0.8
  7
GREEKS
100
AcDbText
  0
TEXT
  5
96
330
1E
100
AcDbEntity
  8
TEXT
100
AcDbText
 10
225.1296391125315
 20
71.50334417585288
 30
0.0
 40
5.0
  1
Red.-Abzweig 45°
 41
0.8
  7
GREEKS
100
AcDbText
  0
TEXT
  5
98
330
1E
100
AcDbEntity
  8
TEXT
100
AcDbText
 10
225.1296391125315
 20
51.64011943042158
 30
0.0
 40
5.0
  1
EDV-Art.Nr. 58025.AL0X
 41
0.8
  7
GREEKS
100
AcDbText
  0
TEXT
  5
99
330
1E
100
AcDbEntity
  8
TEXT
100
AcDbText
 10
224.9837501577827
 20
42.62974153022632
 30
0.0
 40
4.0
  1
58025AL0W.DWG
 41
0.8
  7
GREEKS
100
AcDbText
  0
TEXT
  5
9A
330
1E
100
AcDbEntity
  8
TEXT
100
AcDbText
 10
182.626132208084
 20
90.76363841023022
 30
0.0
 40
4.0
  1
DIN EN1123-2
 41
0.8
  7
GREEKS
 72
     1
 11
199.6166083985602
 21
90.76363841023022
 31
0.0
100
AcDbText
  0
INSERT
  5
9B
330
1E
100
AcDbEntity
  8
STEMPEL
100
AcDbBlockReference
  2
LOGO
 10
140.9955485457794
 20
45.02105276448322
 30
0.0
 41
2.0
 42
2.0
 43
2.0
  0
TEXT
  5
118
330
1E
100
AcDbEntity
  8
BEM
100
AcDbText
 10
417.3022923857165
 20
10.16790107998849
 30
0.0
 40
4.0
  1
Diese Zeichnung ist urheberrechtlich geschützt und bleibt unser Eigentum. Sie darf weder ganz noch teilweise verfielfältigt und nicht an Dritte weitergegeben werden.
 50
90.0
 41
0.8
  7
GREEKS
100
AcDbText
  0
TEXT
  5
422
330
1E
100
AcDbEntity
  8
VOLL
100
AcDbText
 10
513.181667332345
 20
218.2094568136298
 30
0.0
 40
1.8
  1

  7
GREEKS
100
AcDbText
  0
TEXT
  5
430
330
1E
100
AcDbEntity
  8
BEM
100
AcDbText
 10
987.7858805324283
 20
233.0575201688864
 30
0.0
 40
2.5
  1

 41
0.8
  7
GREEKS
 72
     4
 11
987.7858805324283
 21
233.0575201688864
 31
0.0
100
AcDbText
  0
TEXT
  5
431
330
1E
100
AcDbEntity
  8
BEM
100
AcDbText
 10
1026.267416198392
 20
203.9734875438834
 30
0.0
 40
2.5
  1

 41
0.8
  7
GREEKS
 72
     4
 11
1026.267416198392
 21
203.9734875438834
 31
0.0
100
AcDbText
  0
TEXT
  5
782
330
1E
100
AcDbEntity
  8
TEXT
 62
     1
100
AcDbText
 10
237.3454174862374
 20
136.9482077018606
 30
0.0
 40
7.0
  1
und innenbeschichtet
 41
0.8
  7
GREEKS
100
AcDbText
  0
TEXT
  5
783
330
1E
100
AcDbEntity
  8
TEXT
 62
     1
100
AcDbText
 10
182.1964779655266
 20
124.3533723164785
 30
0.0
 40
7.0
  1
Dämmung: 2 K-PU-Schaum
 41
0.8
  7
GREEKS
100
AcDbText
  0
TEXT
  5
784
330
1E
100
AcDbEntity
  8
TEXT
 62
     1
100
AcDbText
 10
189.6908886102237
 20
148.2172615410863
 30
0.0
 40
7.0
  1
Innenrohr: E195 EN10305 feuerverzinkt
 41
0.8
  7
GREEKS
100
AcDbText
  0
TEXT
  5
785
330
1E
100
AcDbEntity
  8
TEXT
 62
     1
100
AcDbText
 10
185.9186712393597
 20
159.5703295774414
 30
0.0
 40
7.0
  1
Außenrohr: E195 EN10305 feuerverzinkt
 41
0.8
  7
GREEKS
100
AcDbText
  0
TEXT
  5
E07
330
1E
100
AcDbEntity
  8
TEXT
 62
     1
100
AcDbText
 10
174.3000433883717
 20
396.4885520252928
 30
0.0
 40
7.0
  1
DN40
 50
90.0
 41
0.8
  7
GREEKS
100
AcDbText
  0
DIMENSION
  5
142E
330
1E
100
AcDbEntity
  8
BEM
100
AcDbDimension
280
     0
  2
*D1
 10
95.07420357636291
 20
467.1676757939795
 30
0.0
 11
88.57420357636284
 21
353.6692367341694
 31
0.0
 70
    32
 71
     5
 42
226.9968781196203
 73
     0
 74
     0
 75
     0
  3
Standard
100
AcDbAlignedDimension
 13
158.5801732314589
 23
240.1707976743592
 33
0.0
 14
134.6484596701444
 24
467.1676757939795
 34
0.0
 50
90.0
100
AcDbRotatedDimension
1001
ACAD
1000
DSTYLE
1002
{
1070
    40
1040
2.0
1070
    41
1040
3.5
1070
    42
1040
1.0
1070
    43
1040
7.0
1070
    44
1040
1.0
1070
    73
1070
     0
1070
    74
1070
     0
1070
    77
1070
     1
1070
    78
1070
     8
1070
    79
1070
     2
1070
   140
1040
3.5
1070
   141
1040
1.5
1070
   146
1040
0.5142857142857144
1070
   147
1040
1.5
1070
   172
1070
     1
1070
   178
1070
     1
1070
   179
1070
     2
1070
   271
1070
     2
1070
   272
1070
     2
1070
   284
1070
     8
1070
   285
1070
     8
1070
   286
1070
     8
1002
}
  0
LINE
  5
144C
102
{ACAD_REACTORS
330
1B17
330
23DC
330
2469
102
}
330
1E
100
AcDbEntity
  8
STEMPEL
  6
Continuous
100
AcDbLine
 10
332.9441845782184
 20
405.0340190568304
 30
0.0
 11
270.0116810526158
 21
467.9665225824333
 31
0.0
  0
LINE
  5
1451
330
1E
100
AcDbEntity
  8
MITTEL
100
AcDbLine
 10
305.0134667213498
 20
440.0358047255646
 30
0.0
 11
179.1484596701443
 21
314.1707976743591
 31
0.0
  0
LINE
  5
1461
102
{ACAD_REACTORS
330
2382
330
23DC
330
2429
330
2469
330
2480
102
}
330
1E
100
AcDbEntity
  8
STEMPEL
100
AcDbLine
 10
200.1484596701444
 20
313.9575942387633
 30
0.0
 11
200.1484596701444
 21
245.1053062599949
 31
0.0
  0
DIMENSION
  5
1465
330
1E
100
AcDbEntity
  8
BEM
100
AcDbDimension
280
     0
  2
*D2
 10
108.5348804628561
 20
314.1707976743592
 30
0.0
 11
108.5348804628561
 21
280.1571117548656
 31
0.0
 70
   160
 71
     5
 42
74.00000000000003
 73
     0
 74
     0
 75
     0
  3
Standard
100
AcDbAlignedDimension
 13
158.5801732314589
 23
240.1707976743592
 33
0.0
 14
179.1484596701443
 24
314.1707976743592
 34
0.0
 50
90.0
100
AcDbRotatedDimension
1001
ACAD
1000
DSTYLE
1002
{
1070
    40
1040
2.0
1070
    41
1040
3.5
1070
    42
1040
1.0
1070
    43
1040
7.0
1070
    44
1040
1.0
1070
    73
1070
     0
1070
    74
1070
     0
1070
    77
1070
     1
1070
    78
1070
     8
1070
    79
1070
     2
1070
   140
1040
3.5
1070
   141
1040
1.5
1070
   146
1040
0.5142857142857144
1070
   147
1040
1.5
1070
   172
1070
     1
1070
   178
1070
     1
1070
   179
1070
     2
1070
   271
1070
     2
1070
   272
1070
     2
1070
   284
1070
     8
1070
   285
1070
     8
1070
   286
1070
     8
1002
}
  0
LINE
  5
1469
102
{ACAD_REACTORS
330
1A6B
330
2382
330
2429
102
}
330
1E
100
AcDbEntity
  8
STEMPEL
  6
Continuous
100
AcDbLine
 10
223.6484596701442
 20
467.167675793979
 30
0.0
 11
134.6484596701444
 21
467.1676757939795
 31
0.0
  0
LINE
  5
1471
330
1E
100
AcDbEntity
  8
STEMPEL
  6
Continuous
100
AcDbLine
 10
134.6477679708899
 20
467.1676757939793
 30
0.0
 11
134.5818109728666
 21
467.0262305552621
 31
0.0
  0
LINE
  5
147A
330
1E
100
AcDbEntity
  8
MITTEL
100
AcDbLine
 10
179.1484596701444
 20
472.1676757939792
 30
0.0
 11
179.1484596701442
 21
235.1707976743591
 31
0.0
  0
LINE
  5
147B
102
{ACAD_REACTORS
330
2429
102
}
330
1E
100
AcDbEntity
  8
STEMPEL
100
AcDbLine
 10
199.7167461088297
 20
240.170797674359
 30
0.0
 11
158.5801732314589
 21
240.1707976743592
 31
0.0
  0
LINE
  5
147D
330
1E
100
AcDbEntity
  8
HILF
100
AcDbLine
 10
197.1427299138295
 20
245.1707976743592
 30
0.0
 11
161.1541894264593
 21
245.1707976743592
 31
0.0
  0
LINE
  5
147E
102
{ACAD_REACTORS
330
2429
102
}
330
1E
100
AcDbEntity
  8
STEMPEL
100
AcDbLine
 10
158.1484596701443
 20
245.1053062599965
 30
0.0
 11
158.5801732314589
 21
240.1707976743592
 31
0.0
  0
LINE
  5
147F
102
{ACAD_REACTORS
330
2429
102
}
330
1E
100
AcDbEntity
  8
STEMPEL
100
AcDbLine
 10
200.1484596701444
 20
245.1053062599949
 30
0.0
 11
199.7167461088297
 21
240.170797674359
 31
0.0
  0
LINE
  5
1480
102
{ACAD_REACTORS
330
2382
330
23DC
330
2429
102
}
330
1E
100
AcDbEntity
  8
STEMPEL
100
AcDbLine
 10
158.1484596701443
 20
432.6621221213868
 30
0.0
 11
158.1484596701443
 21
245.1053062599965
 31
0.0
  0
LINE
  5
1481
102
{ACAD_REACTORS
330
23DC
330
2429
330
2469
330
2474
102
}
330
1E
100
AcDbEntity
  8
STEMPEL
100
AcDbLine
 10
200.1484596701445
 20
432.6621221213868
 30
0.0
 11
200.1484596701444
 21
356.3840011099547
 31
0.0
  0
DIMENSION
  5
1483
330
1E
100
AcDbEntity
  8
BEM
100
AcDbDimension
280
     0
  2
*D3
 10
200.1484596701444
 20
218.7963323962527
 30
0.0
 11
179.1484596701443
 21
225.2963323962528
 31
0.0
 70
    32
  1
%%c<>
 71
     5
 42
42.00000000000005
 73
     0
 74
     0
 75
     0
  3
Standard
100
AcDbAlignedDimension
 13
158.1484596701443
 23
245.1053062599965
 33
0.0
 14
200.1484596701444
 24
245.1053062599949
 34
0.0
100
AcDbRotatedDimension
1001
ACAD
1000
DSTYLE
1002
{
1070
    40
1040
2.0
1070
    41
1040
3.5
1070
    42
1040
1.0
1070
    43
1040
7.0
1070
    44
1040
1.0
1070
    73
1070
     0
1070
    74
1070
     0
1070
    77
1070
     1
1070
    78
1070
     8
1070
    79
1070
     2
1070
   140
1040
3.5
1070
   141
1040
1.5
1070
   146
1040
0.5142857142857144
1070
   147
1040
1.5
1070
   172
1070
     1
1070
   178
1070
     1
1070
   179
1070
     2
1070
   271
1070
     2
1070
   272
1070
     2
1070
   284
1070
     8
1070
   285
1070
     8
1070
   286
1070
     8
1002
}
  0
TEXT
  5
16A8
330
1E
100
AcDbEntity
  8
TEXT
 62
     1
100
AcDbText
 10
255.3033954329838
 20
395.6015033706963
 30
0.0
 40
7.0
  1
DN32
 50
44.99999999999999
 41
0.8
  7
GREEKS
100
AcDbText
  0
DIMENSION
  5
16DE
330
1E
100
AcDbEntity
  8
BEM
100
AcDbDimension
280
     0
  2
*D4
 10
297.2781213293255
 20
456.3420898938828
 30
0.0
 11
313.8951306872094
 21
448.9174686914241
 31
0.0
 70
    32
  1
%%c<>
 71
     5
 42
33.99999999999997
 73
     0
 74
     0
 75
     0
  3
Standard
100
AcDbAlignedDimension
 13
313.4987480955884
 23
424.4794555394605
 33
0.0
 14
289.4571175352459
 24
448.5210860998032
 34
0.0
 50
315.0000000000002
100
AcDbRotatedDimension
1001
ACAD
1000
DSTYLE
1002
{
1070
    40
1040
2.0
1070
    41
1040
3.5
1070
    42
1040
1.0
1070
    43
1040
7.0
1070
    44
1040
1.0
1070
    73
1070
     0
1070
    74
1070
     0
1070
    77
1070
     1
1070
    78
1070
     8
1070
    79
1070
     2
1070
   140
1040
3.5
1070
   141
1040
1.5
1070
   146
1040
0.5142857142857144
1070
   147
1040
1.5
1070
   172
1070
     1
1070
   178
1070
     1
1070
   179
1070
     2
1070
   271
1070
     2
1070
   272
1070
     2
1070
   284
1070
     8
1070
   285
1070
     8
1070
   286
1070
     8
1070
   289
1070
     0
1070
   340
1005
24
1002
}
  0
DIMENSION
  5
16E0
330
1E
100
AcDbEntity
  8
BEM
100
AcDbDimension
280
     0
  2
*D6
 10
349.6874691386286
 20
421.7773036172406
 30
0.0
 11
322.8174114535396
 21
457.8397494577544
 31
0.0
 70
    32
  1
%%c<>
 71
     5
 42
89.00000000000019
 73
     0
 74
     0
 75
     0
  3
Standard
100
AcDbAlignedDimension
 13
270.0116810526156
 23
467.9665225824333
 33
0.0
 14
332.9441845782185
 24
405.0340190568304
 34
0.0
 50
315.0000000000002
100
AcDbRotatedDimension
1001
ACAD
1000
DSTYLE
1002
{
1070
    40
1040
2.0
1070
    41
1040
3.5
1070
    42
1040
1.0
1070
    43
1040
7.0
1070
    44
1040
1.0
1070
    73
1070
     0
1070
    74
1070
     0
1070
    77
1070
     1
1070
    78
1070
     8
1070
    79
1070
     2
1070
   140
1040
3.5
1070
   141
1040
1.5
1070
   146
1040
0.5142857142857144
1070
   147
1040
1.5
1070
   172
1070
     1
1070
   178
1070
     1
1070
   179
1070
     2
1070
   271
1070
     2
1070
   272
1070
     2
1070
   284
1070
     8
1070
   285
1070
     8
1070
   286
1070
     8
1070
   289
1070
     0
1070
   340
1005
24
1002
}
  0
LINE
  5
16E2
102
{ACAD_REACTORS
330
1A1B
330
1B17
102
}
330
1E
100
AcDbEntity
  8
STEMPEL
100
AcDbLine
 10
270.0116810526158
 20
467.9665225824333
 30
0.0
 11
223.6484596701444
 21
421.6033011999619
 31
0.0
  0
LINE
  5
16E3
102
{ACAD_REACTORS
330
1B17
330
23DC
102
}
330
1E
100
AcDbEntity
  8
STEMPEL
100
AcDbLine
 10
271.1430519025142
 20
466.8351517325347
 30
0.0
 11
223.6484596701444
 21
419.3405595001648
 31
0.0
  0
LINE
  5
16E5
102
{ACAD_REACTORS
330
1A21
330
1B17
102
}
330
1E
100
AcDbEntity
  8
STEMPEL
100
AcDbLine
 10
332.9441845782184
 20
405.0340190568304
 30
0.0
 11
223.6484596701445
 21
295.7382941487567
 31
0.0
  0
LINE
  5
16E6
102
{ACAD_REACTORS
330
1B17
330
23DC
102
}
330
1E
100
AcDbEntity
  8
STEMPEL
100
AcDbLine
 10
331.81281372832
 20
406.165389906729
 30
0.0
 11
223.6484596701445
 21
298.0010358485536
 31
0.0
  0
LINE
  5
178E
330
1E
100
AcDbEntity
  8
STEMPEL
100
AcDbLine
 10
222.0484596701443
 20
453.1676757939792
 30
0.0
 11
210.6214722809096
 21
453.1676757939792
 31
0.0
  0
LINE
  5
178F
330
1E
100
AcDbEntity
  8
STEMPEL
100
AcDbLine
 10
223.6484596701443
 20
467.1676757939791
 30
0.0
 11
223.6484596701444
 21
419.3405595001649
 31
0.0
  0
LINE
  5
1790
330
1E
100
AcDbEntity
  8
STEMPEL
100
AcDbLine
 10
222.0484596701443
 20
467.1676757939791
 30
0.0
 11
222.0484596701443
 21
419.3405595001649
 31
0.0
  0
LINE
  5
1791
102
{ACAD_REACTORS
330
2382
330
23DC
102
}
330
1E
100
AcDbEntity
  8
STEMPEL
100
AcDbLine
 10
222.0484596701443
 20
453.1676757939792
 30
0.0
 11
204.5077422270419
 21
453.1676757939792
 31
0.0
  0
LINE
  5
1792
102
{ACAD_REACTORS
330
1A1B
330
1A6B
330
1B17
102
}
330
1E
100
AcDbEntity
  8
STEMPEL
100
AcDbLine
 10
223.6484596701442
 20
467.167675793979
 30
0.0
 11
223.6484596701444
 21
419.3405595001649
 31
0.0
  0
LINE
  5
1793
102
{ACAD_REACTORS
330
1A6B
330
2382
330
23DC
102
}
330
1E
100
AcDbEntity
  8
STEMPEL
100
AcDbLine
 10
222.0484596701443
 20
467.1676757939791
 30
0.0
 11
222.0484596701443
 21
419.3405595001649
 31
0.0
  0
DIMENSION
  5
1796
330
1E
100
AcDbEntity
  8
BEM
100
AcDbDimension
280
     0
  2
*D9
 10
223.6484596701443
 20
490.1093598679022
 30
0.0
 11
179.1484596701443
 21
496.6093598679021
 31
0.0
 70
    32
  1
%%c<>
 71
     5
 42
88.99999999999989
 73
     0
 74
     0
 75
     0
  3
Standard
100
AcDbAlignedDimension
 13
134.6484596701444
 23
467.1676757939795
 33
0.0
 14
223.6484596701443
 24
467.1676757939791
 34
0.0
100
AcDbRotatedDimension
1001
ACAD
1000
DSTYLE
1002
{
1070
    40
1040
2.0
1070
    41
1040
3.5
1070
    42
1040
1.0
1070
    43
1040
7.0
1070
    44
1040
1.0
1070
    73
1070
     0
1070
    74
1070
     0
1070
    77
1070
     1
1070
    78
1070
     8
1070
    79
1070
     2
1070
   140
1040
3.5
1070
   141
1040
1.5
1070
   146
1040
0.5142857142857144
1070
   147
1040
1.5
1070
   172
1070
     1
1070
   178
1070
     1
1070
   179
1070
     2
1070
   271
1070
     2
1070
   272
1070
     2
1070
   284
1070
     8
1070
   285
1070
     8
1070
   286
1070
     8
1070
   289
1070
     0
1070
   340
1005
24
1002
}
  0
DIMENSION
  5
1797
330
1E
100
AcDbEntity
  8
BEM
100
AcDbDimension
280
     0
  2
*D10
 10
201.6484596701444
 20
477.2877972817868
 30
0.0
 11
179.1484596701444
 21
483.7877972817868
 31
0.0
 70
    32
  1
%%C<>
 71
     5
 42
44.99999999999997
 73
     0
 74
     0
 75
     0
  3
Standard
100
AcDbAlignedDimension
 13
156.6484596701444
 23
467.1676757939793
 33
0.0
 14
201.6484596701444
 24
467.1676757939791
 34
0.0
100
AcDbRotatedDimension
1001
ACAD
1000
DSTYLE
1002
{
1070
    40
1040
2.0
1070
    41
1040
3.5
1070
    42
1040
1.0
1070
    43
1040
7.0
1070
    44
1040
1.0
1070
    73
1070
     0
1070
    74
1070
     0
1070
    77
1070
     1
1070
    78
1070
     8
1070
    79
1070
     2
1070
   140
1040
3.5
1070
   141
1040
1.5
1070
   146
1040
0.5142857142857144
1070
   147
1040
1.5
1070
   172
1070
     1
1070
   178
1070
     1
1070
   179
1070
     2
1070
   271
1070
     2
1070
   272
1070
     2
1070
   284
1070
     8
1070
   285
1070
     8
1070
   286
1070
     8
1070
   289
1070
     0
1070
   340
1005
24
1002
}
  0
DIMENSION
  5
1799
330
1E
100
AcDbEntity
  8
BEM
100
AcDbDimension
280
     0
  2
*D12
 10
223.6484596701443
 20
490.1093598679022
 30
0.0
 11
179.1484596701443
 21
496.6093598679021
 31
0.0
 70
    32
  1
%%c<>
 71
     5
 42
88.99999999999989
 73
     0
 74
     0
 75
     0
  3
Standard
100
AcDbAlignedDimension
 13
134.6484596701444
 23
467.1676757939795
 33
0.0
 14
223.6484596701443
 24
467.1676757939791
 34
0.0
100
AcDbRotatedDimension
1001
ACAD
1000
DSTYLE
1002
{
1070
    40
1040
2.0
1070
    41
1040
3.5
1070
    42
1040
1.0
1070
    43
1040
7.0
1070
    44
1040
1.0
1070
    73
1070
     0
1070
    74
1070
     0
1070
    77
1070
     1
1070
    78
1070
     8
1070
    79
1070
     2
1070
   140
1040
3.5
1070
   141
1040
1.5
1070
   146
1040
0.5142857142857144
1070
   147
1040
1.5
1070
   172
1070
     1
1070
   178
1070
     1
1070
   179
1070
     2
1070
   271
1070
     2
1070
   272
1070
     2
1070
   284
1070
     8
1070
   285
1070
     8
1070
   286
1070
     8
1070
   289
1070
     0
1070
   340
1005
24
1002
}
  0
LINE
  5
179A
330
1E
100
AcDbEntity
  8
STEMPEL
100
AcDbLine
 10
147.6754470593792
 20
453.1676757939794
 30
0.0
 11
136.2484596701445
 21
453.1676757939794
 31
0.0
  0
LINE
  5
179B
330
1E
100
AcDbEntity
  8
STEMPEL
100
AcDbLine
 10
134.6484596701444
 20
467.1676757939795
 30
0.0
 11
134.6484596701447
 21
270.1707976743593
 31
0.0
  0
LINE
  5
179C
330
1E
100
AcDbEntity
  8
STEMPEL
100
AcDbLine
 10
136.2484596701444
 20
467.1676757939795
 30
0.0
 11
136.2484596701447
 21
270.1707976743593
 31
0.0
  0
LINE
  5
179D
102
{ACAD_REACTORS
330
2382
330
23DC
102
}
330
1E
100
AcDbEntity
  8
STEMPEL
100
AcDbLine
 10
153.7891771132468
 20
453.1676757939793
 30
0.0
 11
136.2484596701445
 21
453.1676757939794
 31
0.0
  0
LINE
  5
179E
102
{ACAD_REACTORS
330
1A6B
330
2382
102
}
330
1E
100
AcDbEntity
  8
STEMPEL
100
AcDbLine
 10
134.6484596701444
 20
467.1676757939795
 30
0.0
 11
134.6484596701447
 21
268.1707976743593
 31
0.0
  0
LINE
  5
179F
102
{ACAD_REACTORS
330
1A6B
330
2382
330
23DC
102
}
330
1E
100
AcDbEntity
  8
STEMPEL
100
AcDbLine
 10
136.2484596701444
 20
467.1676757939795
 30
0.0
 11
136.2484596701447
 21
270.1707976743593
 31
0.0
  0
LINE
  5
185D
330
1E
100
AcDbEntity
  8
STEMPEL
100
AcDbLine
 10
222.0484596701442
 20
270.1707976743592
 30
0.0
 11
221.4897273582763
 21
286.1707976743592
 31
0.0
  0
LINE
  5
185F
330
1E
100
AcDbEntity
  8
STEMPEL
100
AcDbLine
 10
209.6484596701443
 20
276.1707976743592
 30
0.0
 11
200.1484596701444
 21
276.1707976743592
 31
0.0
  0
LINE
  5
1860
330
1E
100
AcDbEntity
  8
STEMPEL
100
AcDbLine
 10
223.6484596701433
 20
270.1707976743589
 30
0.0
 11
222.0484596701445
 21
270.1707976743589
 31
0.0
  0
LINE
  5
1861
330
1E
100
AcDbEntity
  8
STEMPEL
100
AcDbLine
 10
221.4897273582763
 20
286.1707976743592
 30
0.0
 11
200.1484596701444
 21
286.1707976743592
 31
0.0
  0
LINE
  5
1862
330
1E
100
AcDbEntity
  8
STEMPEL
100
AcDbLine
 10
148.6484596701442
 20
276.1707976743592
 30
0.0
 11
158.1484596701442
 21
276.1707976743592
 31
0.0
  0
LINE
  5
1863
330
1E
100
AcDbEntity
  8
STEMPEL
100
AcDbLine
 10
136.2484596701443
 20
270.1707976743592
 30
0.0
 11
136.8071919820122
 21
286.1707976743592
 31
0.0
  0
LINE
  5
1864
330
1E
100
AcDbEntity
  8
STEMPEL
100
AcDbLine
 10
136.2484596701447
 20
270.1707976743593
 30
0.0
 11
134.6484596701434
 21
270.1707976743593
 31
0.0
  0
LINE
  5
1866
330
1E
100
AcDbEntity
  8
STEMPEL
100
AcDbLine
 10
136.8071919820122
 20
286.1707976743592
 30
0.0
 11
158.1484596701442
 21
286.1707976743592
 31
0.0
  0
LINE
  5
1867
102
{ACAD_REACTORS
330
2382
330
23DC
102
}
330
1E
100
AcDbEntity
  8
STEMPEL
100
AcDbLine
 10
222.0484596701442
 20
270.1707976743592
 30
0.0
 11
221.4897273582763
 21
286.1707976743592
 31
0.0
  0
LINE
  5
1869
102
{ACAD_REACTORS
330
2382
102
}
330
1E
100
AcDbEntity
  8
STEMPEL
100
AcDbLine
 10
209.6484596701443
 20
276.1707976743592
 30
0.0
 11
200.1484596701444
 21
276.1707976743592
 31
0.0
  0
LINE
  5
186A
102
{ACAD_REACTORS
330
1A6B
330
2382
102
}
330
1E
100
AcDbEntity
  8
STEMPEL
100
AcDbLine
 10
223.6484596701433
 20
270.1707976743589
 30
0.0
 11
222.0484596701445
 21
270.1707976743589
 31
0.0
  0
LINE
  5
186B
102
{ACAD_REACTORS
330
2382
330
23DC
102
}
330
1E
100
AcDbEntity
  8
STEMPEL
100
AcDbLine
 10
221.4897273582763
 20
286.1707976743592
 30
0.0
 11
200.1484596701444
 21
286.1707976743592
 31
0.0
  0
LINE
  5
186C
102
{ACAD_REACTORS
330
2382
102
}
330
1E
100
AcDbEntity
  8
STEMPEL
100
AcDbLine
 10
148.6484596701442
 20
276.1707976743592
 30
0.0
 11
158.1484596701442
 21
276.1707976743592
 31
0.0
  0
LINE
  5
186D
102
{ACAD_REACTORS
330
2382
330
23DC
102
}
330
1E
100
AcDbEntity
  8
STEMPEL
100
AcDbLine
 10
136.2484596701443
 20
270.1707976743592
 30
0.0
 11
136.8071919820122
 21
286.1707976743592
 31
0.0
  0
LINE
  5
186E
102
{ACAD_REACTORS
330
1A6B
330
2382
102
}
330
1E
100
AcDbEntity
  8
STEMPEL
100
AcDbLine
 10
136.2484596701447
 20
270.1707976743593
 30
0.0
 11
134.6484596701434
 21
270.1707976743593
 31
0.0
  0
LINE
  5
1870
102
{ACAD_REACTORS
330
2382
330
23DC
102
}
330
1E
100
AcDbEntity
  8
STEMPEL
100
AcDbLine
 10
136.8071919820122
 20
286.1707976743592
 30
0.0
 11
158.1484596701442
 21
286.1707976743592
 31
0.0
  0
LINE
  5
1916
102
{ACAD_REACTORS
330
1A6B
330
23DC
102
}
330
1E
100
AcDbEntity
  8
STEMPEL
100
AcDbLine
 10
223.6484596701444
 20
419.3405595001648
 30
0.0
 11
222.0484596701443
 21
419.3405595001649
 31
0.0
  0
LINE
  5
1917
102
{ACAD_REACTORS
330
1A6B
330
23DC
102
}
330
1E
100
AcDbEntity
  8
STEMPEL
100
AcDbLine
 10
223.6484596701445
 20
298.0010358485536
 30
0.0
 11
222.0484596701444
 21
298.0010358485536
 31
0.0
  0
LINE
  5
1918
330
1E
100
AcDbEntity
  8
STEMPEL
100
AcDbLine
 10
222.0484596701444
 20
298.0010358485536
 30
0.0
 11
222.0484596701445
 21
270.1707976743589
 31
0.0
  0
LINE
  5
1919
102
{ACAD_REACTORS
330
1A6B
330
23DC
102
}
330
1E
100
AcDbEntity
  8
STEMPEL
100
AcDbLine
 10
222.0484596701444
 20
298.0010358485536
 30
0.0
 11
222.0484596701445
 21
270.1707976743589
 31
0.0
  0
LINE
  5
191A
330
1E
100
AcDbEntity
  8
STEMPEL
100
AcDbLine
 10
223.6484596701445
 20
298.0010358485536
 30
0.0
 11
223.6484596701445
 21
270.1707976743589
 31
0.0
  0
LINE
  5
191B
102
{ACAD_REACTORS
330
1A21
330
1A6B
330
1B17
330
2382
102
}
330
1E
100
AcDbEntity
  8
STEMPEL
100
AcDbLine
 10
223.6484596701445
 20
298.0010358485536
 30
0.0
 11
223.6484596701445
 21
268.1707976743588
 31
0.0
  0
LINE
  5
1A00
102
{ACAD_REACTORS
330
2429
102
}
330
1E
100
AcDbEntity
  8
STEMPEL
100
AcDbLine
 10
198.6484596701444
 20
432.6621221213868
 30
0.0
 11
198.6484596701443
 21
356.3840011099547
 31
0.0
  0
LINE
  5
1A0B
102
{ACAD_REACTORS
330
2429
102
}
330
1E
100
AcDbEntity
  8
STEMPEL
100
AcDbLine
 10
159.6484596701443
 20
432.6621221213868
 30
0.0
 11
159.6484596701443
 21
245.1707976743587
 31
0.0
  0
LINE
  5
1A0F
102
{ACAD_REACTORS
330
2429
102
}
330
1E
100
AcDbEntity
  8
STEMPEL
100
AcDbLine
 10
198.6484596701444
 20
313.9575942387633
 30
0.0
 11
198.6484596701444
 21
245.1707976743582
 31
0.0
  0
LINE
  5
1A13
102
{ACAD_REACTORS
330
2429
102
}
330
1E
100
AcDbEntity
  8
STEMPEL
100
AcDbLine
 10
159.6484596701443
 20
245.1707976743587
 30
0.0
 11
160.0859029877739
 21
240.1707976743592
 31
0.0
  0
LINE
  5
1A15
102
{ACAD_REACTORS
330
2429
102
}
330
1E
100
AcDbEntity
  8
STEMPEL
100
AcDbLine
 10
198.6484596701444
 20
245.1707976743582
 30
0.0
 11
198.2110163525147
 21
240.170797674359
 31
0.0
  0
ARC
  5
1A17
102
{ACAD_REACTORS
330
1A1B
102
}
330
1E
100
AcDbEntity
  8
SCHRAFF
100
AcDbCircle
 10
223.6484596701444
 20
421.603301199962
 30
0.0
 40
4.0
100
AcDbArc
 50
45.00000000000057
 51
90.0
  0
HATCH
  5
1A1B
330
1E
100
AcDbEntity
  8
SCHRAFF
100
AcDbHatch
 10
0.0
 20
0.0
 30
0.0
210
0.0
220
0.0
230
1.0
  2
_USER
 70
     0
 71
     1
 91
        1
 92
        7
 72
     1
 73
     1
 93
        3
 10
223.6484596701444
 20
421.6033011999619
 42
0.0
 10
226.4768867948906
 20
424.4317283247082
 42
0.1989123673796591
 10
223.6484596701444
 20
425.603301199962
 42
0.0
 97
        3
330
1792
330
16E2
330
1A17
 75
     0
 76
     0
 52
0.0
 41
0.1
 77
     0
 78
     1
 53
0.0
 43
-18.90702556216502
 44
0.0
 45
0.0
 46
0.1
 79
     0
 47
0.0555149037304536
 98
        1
 10
224.508226836439
 20
424.4997768864943
  0
ARC
  5
1A1D
102
{ACAD_REACTORS
330
1A21
102
}
330
1E
100
AcDbEntity
  8
SCHRAFF
100
AcDbCircle
 10
221.2951215869596
 20
296.7130786996611
 30
0.0
 40
5.503333668031028
100
AcDbArc
 50
295.3166431700921
 51
19.68335682990691
  0
HATCH
  5
1A21
330
1E
100
AcDbEntity
  8
SCHRAFF
100
AcDbHatch
 10
0.0
 20
0.0
 30
0.0
210
0.0
220
0.0
230
1.0
  2
_USER
 70
     0
 71
     1
 91
        1
 92
        7
 72
     1
 73
     1
 93
        3
 10
226.4768867948907
 20
298.5667212735029
 42
0.0
 10
223.6484596701444
 20
295.7382941487566
 42
0.0
 10
223.6484596701444
 20
291.7382941487568
 42
0.3857010309574361
 97
        3
330
16E5
330
191B
330
1A1D
 75
     0
 76
     0
 52
0.0
 41
0.1
 77
     0
 78
     1
 53
0.0
 43
-18.90702556216502
 44
0.0
 45
0.0
 46
0.1
 79
     0
 47
0.0555149037304541
 98
        1
 10
224.7304422061729
 20
293.8926866370916
  0
HATCH
  5
1A6B
330
1E
100
AcDbEntity
  8
SCHRAFF
100
AcDbHatch
 10
0.0
 20
0.0
 30
0.0
210
0.0
220
0.0
230
1.0
  2
_USER
 70
     0
 71
     1
 91
        3
 92
        7
 72
     0
 73
     1
 93
        4
 10
223.6484596701443
 20
467.167675793979
 10
222.0484596701442
 20
467.1676757939789
 10
222.0484596701444
 20
419.3405595001649
 10
223.6484596701445
 20
419.3405595001648
 97
        4
330
1469
330
1793
330
1916
330
1792
 92
        7
 72
     0
 73
     1
 93
        4
 10
136.2484596701444
 20
467.1676757939794
 10
134.6484596701444
 20
467.1676757939795
 10
134.6484596701446
 20
270.1707976743592
 10
136.2484596701447
 20
270.1707976743592
 97
        4
330
1469
330
179E
330
186E
330
179F
 92
        7
 72
     0
 73
     1
 93
        4
 10
223.6484596701444
 20
298.0010358485536
 10
222.0484596701444
 20
298.0010358485536
 10
222.0484596701445
 20
270.1707976743589
 10
223.6484596701445
 20
270.1707976743589
 97
        4
330
1917
330
1919
330
186A
330
191B
 75
     0
 76
     0
 52
135.0
 41
2.0
 77
     0
 78
     1
 53
135.0
 43
-18.90702556216502
 44
0.0
 45
-1.414213562373095
 46
-1.414213562373094
 79
     0
 47
0.4987909246646025
 98
        3
 10
223.1262748906575
 20
443.1074679368398
 10
135.7764644132012
 20
432.6328581339906
 10
223.1262748906575
 20
289.9786531025754
  0
HATCH
  5
1B17
330
1E
100
AcDbEntity
  8
SCHRAFF
100
AcDbHatch
 10
0.0
 20
0.0
 30
0.0
210
0.0
220
0.0
230
1.0
  2
_USER
 70
     0
 71
     1
 91
        2
 92
        7
 72
     0
 73
     1
 93
        4
 10
271.1430519025143
 20
466.8351517325348
 10
270.0116810526157
 20
467.9665225824333
 10
223.6484596701444
 20
421.603301199962
 10
223.6484596701444
 20
419.3405595001648
 97
        4
330
144C
330
16E2
330
1792
330
16E3
 92
        7
 72
     0
 73
     1
 93
        4
 10
332.9441845782185
 20
405.0340190568304
 10
331.81281372832
 20
406.165389906729
 10
223.6484596701444
 20
298.0010358485534
 10
223.6484596701445
 20
295.7382941487567
 97
        4
330
144C
330
16E6
330
191B
330
16E5
 75
     0
 76
     0
 52
0.0
 41
2.0
 77
     0
 78
     1
 53
0.0
 43
-18.90702556216502
 44
0.0
 45
0.0
 46
2.0
 79
     0
 47
0.3572735013301889
 98
        2
 10
248.2563200367999
 20
444.7627576209525
 10
281.5061270821516
 20
355.0871086303689
  0
DIMENSION
  5
1C0B
330
1E
100
AcDbEntity
  8
SCHRAFF
100
AcDbDimension
280
     0
  2
*D15
 10
349.8504450848728
 20
388.1277585501761
 30
0.0
 11
284.0895144345239
 21
331.5592160552522
 31
0.0
 70
    32
 71
     5
 42
172.9999999999999
 73
     0
 74
     0
 75
     0
 51
315.0
  3
Standard
100
AcDbAlignedDimension
 13
179.1484596701443
 23
314.1707976743591
 33
0.0
 14
332.9441845782184
 24
405.0340190568304
 34
0.0
 50
45.00000000000001
100
AcDbRotatedDimension
1001
ACAD
1000
DSTYLE
1002
{
1070
    40
1040
2.0
1070
    41
1040
3.5
1070
    42
1040
1.0
1070
    43
1040
7.0
1070
    44
1040
1.0
1070
    73
1070
     0
1070
    74
1070
     0
1070
    77
1070
     1
1070
    78
1070
     8
1070
    79
1070
     2
1070
   140
1040
3.5
1070
   141
1040
1.5
1070
   146
1040
0.5142857142857144
1070
   147
1040
1.5
1070
   172
1070
     1
1070
   178
1070
     1
1070
   179
1070
     2
1070
   271
1070
     2
1070
   272
1070
     2
1070
   284
1070
     8
1070
   285
1070
     8
1070
   286
1070
     8
1002
}
  0
DIMENSION
  5
1C39
330
1E
100
AcDbEntity
  8
BEM
100
AcDbDimension
280
     0
  2
*D17
 10
121.3359387425603
 20
240.1707976743592
 30
0.0
 11
114.8359387425602
 21
255.1707976743593
 31
0.0
 70
    32
 71
     5
 42
30.00000000000014
 73
     0
 74
     0
 75
     0
  3
Standard
100
AcDbAlignedDimension
 13
134.6484596701447
 23
270.1707976743593
 33
0.0
 14
158.5801732314589
 24
240.1707976743592
 34
0.0
 50
90.0
100
AcDbRotatedDimension
1001
ACAD
1000
DSTYLE
1002
{
1070
   279
1070
     1
1070
    40
1040
2.0
1070
    41
1040
3.5
1070
    42
1040
1.0
1070
    43
1040
7.0
1070
    44
1040
1.0
1070
    73
1070
     0
1070
    74
1070
     0
1070
    77
1070
     1
1070
    78
1070
     8
1070
    79
1070
     2
1070
   140
1040
3.5
1070
   141
1040
1.5
1070
   146
1040
0.5142857142857144
1070
   147
1040
1.5
1070
   172
1070
     1
1070
   178
1070
     1
1070
   179
1070
     2
1070
   271
1070
     2
1070
   272
1070
     2
1070
   284
1070
     8
1070
   285
1070
     8
1070
   286
1070
     8
1002
}
  0
LINE
  5
1CC1
102
{ACAD_REACTORS
330
2382
102
}
330
1E
100
AcDbEntity
  8
STEMPEL
100
AcDbLine
 10
217.6484596701433
 20
270.170797674359
 30
0.0
 11
200.1484596701439
 21
270.170797674359
 31
0.0
  0
POINT
  5
1CC2
330
1E
100
AcDbEntity
  8
STEMPEL
100
AcDbPoint
 10
217.6484596701433
 20
268.1707976743591
 30
0.0
  0
LINE
  5
1CC3
102
{ACAD_REACTORS
330
2382
102
}
330
1E
100
AcDbEntity
  8
STEMPEL
100
AcDbLine
 10
217.6484596701433
 20
270.1707976743591
 30
0.0
 11
217.6484596701433
 21
268.1707976743591
 31
0.0
  0
LINE
  5
1CC4
102
{ACAD_REACTORS
330
2382
102
}
330
1E
100
AcDbEntity
  8
STEMPEL
100
AcDbLine
 10
223.6484596701441
 20
268.1707976743588
 30
0.0
 11
200.1484596701439
 21
268.1707976743589
 31
0.0
  0
LINE
  5
1CC5
330
1E
100
AcDbEntity
  8
STEMPEL
100
AcDbLine
 10
209.6484596701443
 20
276.1707976743592
 30
0.0
 11
213.112561285282
 21
270.1707976743592
 31
0.0
  0
LINE
  5
1CC6
102
{ACAD_REACTORS
330
2382
102
}
330
1E
100
AcDbEntity
  8
STEMPEL
100
AcDbLine
 10
209.6484596701443
 20
276.1707976743592
 30
0.0
 11
213.112561285282
 21
270.1707976743592
 31
0.0
  0
LINE
  5
1CC7
102
{ACAD_REACTORS
330
2382
102
}
330
1E
100
AcDbEntity
  8
STEMPEL
100
AcDbLine
 10
158.1484596701506
 20
268.1707976743592
 30
0.0
 11
134.6484596701442
 21
268.1707976743593
 31
0.0
  0
POINT
  5
1CC8
330
1E
100
AcDbEntity
  8
STEMPEL
100
AcDbPoint
 10
140.6484596701432
 20
268.1707976743591
 30
0.0
  0
LINE
  5
1CC9
102
{ACAD_REACTORS
330
2382
102
}
330
1E
100
AcDbEntity
  8
STEMPEL
100
AcDbLine
 10
140.6484596701432
 20
270.1707976743591
 30
0.0
 11
140.6484596701432
 21
268.1707976743591
 31
0.0
  0
LINE
  5
1CCA
330
1E
100
AcDbEntity
  8
STEMPEL
100
AcDbLine
 10
158.1484596701504
 20
270.1707976743592
 30
0.0
 11
140.6484596701432
 21
270.1707976743593
 31
0.0
  0
LINE
  5
1CCB
330
1E
100
AcDbEntity
  8
STEMPEL
100
AcDbLine
 10
148.6484596701442
 20
276.1707976743592
 30
0.0
 11
145.1843580550064
 21
270.1707976743592
 31
0.0
  0
LINE
  5
1CCC
102
{ACAD_REACTORS
330
2382
102
}
330
1E
100
AcDbEntity
  8
STEMPEL
100
AcDbLine
 10
158.1484596701504
 20
270.1707976743592
 30
0.0
 11
140.6484596701432
 21
270.1707976743593
 31
0.0
  0
LINE
  5
1CCD
102
{ACAD_REACTORS
330
2382
102
}
330
1E
100
AcDbEntity
  8
STEMPEL
100
AcDbLine
 10
148.6484596701442
 20
276.1707976743592
 30
0.0
 11
145.1843580550064
 21
270.1707976743592
 31
0.0
  0
LINE
  5
1DAE
102
{ACAD_REACTORS
330
23DC
330
2469
330
2480
102
}
330
1E
100
AcDbEntity
  8
STEMPEL
  6
AUSGEZOGEN
100
AcDbLine
 10
292.7645020559682
 20
405.1594230622134
 30
0.0
 11
200.1484596701444
 21
312.5433806763897
 31
0.0
  0
LINE
  5
1DAF
102
{ACAD_REACTORS
330
2469
102
}
330
1E
100
AcDbEntity
  8
STEMPEL
  6
AUSGEZOGEN
100
AcDbLine
 10
292.0573952747816
 20
405.8665298433998
 30
0.0
 11
200.1484596701444
 21
313.9575942387633
 31
0.0
  0
LINE
  5
1DB0
102
{ACAD_REACTORS
330
23DC
330
2469
330
2474
102
}
330
1E
100
AcDbEntity
  8
STEMPEL
  6
AUSGEZOGEN
100
AcDbLine
 10
270.1370850579986
 20
427.7868400601829
 30
0.0
 11
200.1484596701443
 21
357.7982146723281
 31
0.0
  0
LINE
  5
1DB1
102
{ACAD_REACTORS
330
2469
102
}
330
1E
100
AcDbEntity
  8
STEMPEL
  6
AUSGEZOGEN
100
AcDbLine
 10
270.8441918391851
 20
427.0797332789964
 30
0.0
 11
200.1484596701443
 21
356.3840011099547
 31
0.0
  0
LINE
  5
1DB5
330
1E
100
AcDbEntity
  8
HILF
  6
AUSGEZOGEN
100
AcDbLine
 10
278.5427505739644
 20
436.3298175391379
 30
0.0
 11
301.307479534923
 21
413.5650885781791
 31
0.0
  0
LINE
  5
1DB6
330
1E
100
AcDbEntity
  8
HILF
  6
AUSGEZOGEN
100
AcDbLine
 10
273.8914951175965
 20
431.084763079783
 30
0.0
 11
296.0624250755683
 21
408.9138331218113
 31
0.0
  0
ARC
  5
1DB8
102
{ACAD_REACTORS
330
23DC
330
2469
102
}
330
1E
100
AcDbEntity
  8
STEMPEL
  6
AUSGEZOGEN
100
AcDbCircle
 10
291.2948880595496
 20
432.6811870944433
 30
0.0
 40
14.99987002457764
100
AcDbArc
 50
135.0
 51
157.3307385238633
  0
ARC
  5
1DB9
102
{ACAD_REACTORS
330
2469
102
}
330
1E
100
AcDbEntity
  8
STEMPEL
  6
AUSGEZOGEN
100
AcDbCircle
 10
291.2948880595496
 20
432.6811870944433
 30
0.0
 40
13.99987002457766
100
AcDbArc
 50
135.0
 51
157.3307385238633
  0
ARC
  5
1DBA
102
{ACAD_REACTORS
330
2469
102
}
330
1E
100
AcDbEntity
  8
STEMPEL
  6
AUSGEZOGEN
100
AcDbCircle
 10
266.6015511520659
 20
431.3223739661157
 30
0.0
 40
6.0
100
AcDbArc
 50
315.0
 51
347.2042275039723
  0
ARC
  5
1DBB
102
{ACAD_REACTORS
330
23DC
330
2469
102
}
330
1E
100
AcDbEntity
  8
STEMPEL
  6
AUSGEZOGEN
100
AcDbCircle
 10
266.6015511520659
 20
431.3223739661157
 30
0.0
 40
5.0
100
AcDbArc
 50
315.0
 51
347.2042275039723
  0
LINE
  5
1DBC
102
{ACAD_REACTORS
330
2469
102
}
330
1E
100
AcDbEntity
  8
STEMPEL
  6
AUSGEZOGEN
100
AcDbLine
 10
277.0827488644811
 20
436.1467174290384
 30
0.0
 11
274.3289577623784
 21
433.3929263269358
 31
0.0
  0
LINE
  5
1DBD
102
{ACAD_REACTORS
330
23DC
330
2469
102
}
330
1E
100
AcDbEntity
  8
STEMPEL
  6
AUSGEZOGEN
100
AcDbLine
 10
276.3756420832946
 20
436.8538242102251
 30
0.0
 11
273.6218509811919
 21
434.1000331081223
 31
0.0
  0
ARC
  5
1DBE
102
{ACAD_REACTORS
330
2469
102
}
330
1E
100
AcDbEntity
  8
STEMPEL
  6
AUSGEZOGEN
100
AcDbCircle
 10
279.2787052306843
 20
428.4431788586299
 30
0.0
 40
7.0
100
AcDbArc
 50
135.0
 51
167.2042275039722
  0
ARC
  5
1DBF
102
{ACAD_REACTORS
330
23DC
330
2469
102
}
330
1E
100
AcDbEntity
  8
STEMPEL
  6
AUSGEZOGEN
100
AcDbCircle
 10
279.2787052306843
 20
428.4431788586299
 30
0.0
 40
8.0
100
AcDbArc
 50
135.0
 51
167.2042275039722
  0
ARC
  5
1DC0
102
{ACAD_REACTORS
330
2469
102
}
330
1E
100
AcDbEntity
  8
STEMPEL
  6
AUSGEZOGEN
100
AcDbCircle
 10
272.8401081773618
 20
440.3893581161578
 30
0.0
 40
6.0
100
AcDbArc
 50
315.0
 51
337.3307385238634
  0
ARC
  5
1DC1
102
{ACAD_REACTORS
330
23DC
330
2469
102
}
330
1E
100
AcDbEntity
  8
STEMPEL
  6
AUSGEZOGEN
100
AcDbCircle
 10
272.8401081773618
 20
440.3893581161578
 30
0.0
 40
5.0
100
AcDbArc
 50
315.0
 51
337.3307385238634
  0
ARC
  5
1DC2
102
{ACAD_REACTORS
330
23DC
330
2469
102
}
330
1E
100
AcDbEntity
  8
STEMPEL
  6
AUSGEZOGEN
100
AcDbCircle
 10
294.3770390129581
 20
434.3491244854788
 30
0.0
 40
16.0
100
AcDbArc
 50
110.8651087923772
 51
135.0
  0
ARC
  5
1DC3
102
{ACAD_REACTORS
330
2469
102
}
330
1E
100
AcDbEntity
  8
STEMPEL
  6
AUSGEZOGEN
100
AcDbCircle
 10
294.3770390129581
 20
434.3491244854788
 30
0.0
 40
15.0
100
AcDbArc
 50
110.0000000000052
 51
135.0
  0
LINE
  5
1DC4
102
{ACAD_REACTORS
330
2469
102
}
330
1E
100
AcDbEntity
  8
STEMPEL
  6
AUSGEZOGEN
100
AcDbLine
 10
283.7704372951598
 20
444.955726203277
 30
0.0
 11
281.3953931229379
 21
442.5806820310549
 31
0.0
  0
LINE
  5
1DC5
102
{ACAD_REACTORS
330
23DC
330
2469
102
}
330
1E
100
AcDbEntity
  8
STEMPEL
  6
AUSGEZOGEN
100
AcDbLine
 10
283.0633305139734
 20
445.6628329844636
 30
0.0
 11
280.6882863417513
 21
443.2877888122415
 31
0.0
  0
LINE
  5
1DC6
102
{ACAD_REACTORS
330
23DC
330
2469
102
}
330
1E
100
AcDbEntity
  8
STEMPEL
  6
AUSGEZOGEN
100
AcDbLine
 10
280.6883782482539
 20
443.2876969057389
 30
0.0
 11
280.6882863417513
 21
443.2877888122415
 31
0.0
  0
LINE
  5
1DC7
102
{ACAD_REACTORS
330
2469
102
}
330
1E
100
AcDbEntity
  8
STEMPEL
  6
AUSGEZOGEN
100
AcDbLine
 10
289.4571175352457
 20
448.5210860998031
 30
0.0
 11
289.2467368630731
 21
448.4445137972673
 31
0.0
  0
ARC
  5
1DC8
102
{ACAD_REACTORS
330
2469
102
}
330
1E
100
AcDbEntity
  8
STEMPEL
  6
AUSGEZOGEN
100
AcDbCircle
 10
297.6588490902285
 20
426.3172260637643
 30
0.0
 40
13.99987002457766
100
AcDbArc
 50
292.6692614761376
 51
315.0
  0
ARC
  5
1DC9
102
{ACAD_REACTORS
330
23DC
330
2469
102
}
330
1E
100
AcDbEntity
  8
STEMPEL
  6
AUSGEZOGEN
100
AcDbCircle
 10
297.6588490902285
 20
426.3172260637643
 30
0.0
 40
14.99987002457764
100
AcDbArc
 50
292.6692614761376
 51
315.0
  0
ARC
  5
1DCA
102
{ACAD_REACTORS
330
23DC
330
2469
102
}
330
1E
100
AcDbEntity
  8
STEMPEL
  6
AUSGEZOGEN
100
AcDbCircle
 10
296.3000359619009
 20
401.6238891562807
 30
0.0
 40
5.0
100
AcDbArc
 50
102.7957724960285
 51
135.0
  0
ARC
  5
1DCB
102
{ACAD_REACTORS
330
2469
102
}
330
1E
100
AcDbEntity
  8
STEMPEL
  6
AUSGEZOGEN
100
AcDbCircle
 10
296.3000359619009
 20
401.6238891562807
 30
0.0
 40
6.0
100
AcDbArc
 50
102.7957724960285
 51
135.0
  0
LINE
  5
1DCC
330
1E
100
AcDbEntity
  8
HILF
  6
AUSGEZOGEN
100
AcDbLine
 10
272.5860941142797
 20
427.6912246255601
 30
0.0
 11
292.6688866213453
 21
407.6084321184945
 31
0.0
  0
ARC
  5
1DCD
102
{ACAD_REACTORS
330
2469
102
}
330
1E
100
AcDbEntity
  8
STEMPEL
  6
AUSGEZOGEN
100
AcDbCircle
 10
293.4208408544152
 20
414.3010432348991
 30
0.0
 40
7.0
100
AcDbArc
 50
282.7957724960285
 51
315.0
  0
LINE
  5
1DCE
102
{ACAD_REACTORS
330
23DC
330
2469
102
}
330
1E
100
AcDbEntity
  8
STEMPEL
  6
AUSGEZOGEN
100
AcDbLine
 10
301.8314862060103
 20
411.3979800875093
 30
0.0
 11
299.0776951039076
 21
408.6441889854066
 31
0.0
  0
LINE
  5
1DCF
102
{ACAD_REACTORS
330
2469
102
}
330
1E
100
AcDbEntity
  8
STEMPEL
  6
AUSGEZOGEN
100
AcDbLine
 10
301.1243794248238
 20
412.1050868686959
 30
0.0
 11
298.370588322721
 21
409.3512957665932
 31
0.0
  0
ARC
  5
1DD0
102
{ACAD_REACTORS
330
23DC
330
2469
102
}
330
1E
100
AcDbEntity
  8
STEMPEL
  6
AUSGEZOGEN
100
AcDbCircle
 10
293.4208408544152
 20
414.3010432348991
 30
0.0
 40
8.0
100
AcDbArc
 50
282.7957724960285
 51
315.0
  0
ARC
  5
1DD1
102
{ACAD_REACTORS
330
23DC
330
2469
102
}
330
1E
100
AcDbEntity
  8
STEMPEL
  6
AUSGEZOGEN
100
AcDbCircle
 10
305.367020111943
 20
407.8624461815766
 30
0.0
 40
5.0
100
AcDbArc
 50
112.6692614761376
 51
135.0
  0
ARC
  5
1DD2
102
{ACAD_REACTORS
330
2469
102
}
330
1E
100
AcDbEntity
  8
STEMPEL
  6
AUSGEZOGEN
100
AcDbCircle
 10
305.367020111943
 20
407.8624461815766
 30
0.0
 40
6.0
100
AcDbArc
 50
112.6692614761376
 51
135.0
  0
ARC
  5
1DD3
102
{ACAD_REACTORS
330
2469
102
}
330
1E
100
AcDbEntity
  8
STEMPEL
  6
AUSGEZOGEN
100
AcDbCircle
 10
299.326786481264
 20
429.3993770171729
 30
0.0
 40
15.0
100
AcDbArc
 50
315.0
 51
339.9999999999896
  0
ARC
  5
1DD4
102
{ACAD_REACTORS
330
23DC
330
2469
102
}
330
1E
100
AcDbEntity
  8
STEMPEL
  6
AUSGEZOGEN
100
AcDbCircle
 10
299.326786481264
 20
429.3993770171729
 30
0.0
 40
16.0
100
AcDbArc
 50
315.0
 51
339.1348912076213
  0
LINE
  5
1DD5
102
{ACAD_REACTORS
330
23DC
330
2469
102
}
330
1E
100
AcDbEntity
  8
STEMPEL
  6
AUSGEZOGEN
100
AcDbLine
 10
310.6404949802488
 20
418.0856685181882
 30
0.0
 11
308.2654508080267
 21
415.7106243459661
 31
0.0
  0
LINE
  5
1DD6
102
{ACAD_REACTORS
330
2469
102
}
330
1E
100
AcDbEntity
  8
STEMPEL
  6
AUSGEZOGEN
100
AcDbLine
 10
309.9333881990621
 20
418.7927752993746
 30
0.0
 11
307.5583440268401
 21
416.4177311271527
 31
0.0
  0
LINE
  5
1DD7
330
1E
100
AcDbEntity
  8
STEMPEL
  6
AUSGEZOGEN
100
AcDbLine
 10
308.2653589015242
 20
415.7107162524686
 30
0.0
 11
308.2654508080267
 21
415.7106243459661
 31
0.0
  0
LINE
  5
1DD8
102
{ACAD_REACTORS
330
2469
102
}
330
1E
100
AcDbEntity
  8
STEMPEL
  6
AUSGEZOGEN
100
AcDbLine
 10
313.4987480955884
 20
424.4794555394605
 30
0.0
 11
313.4221757930526
 21
424.2690748672878
 31
0.0
  0
LINE
  5
2289
102
{ACAD_REACTORS
330
2429
102
}
330
1E
100
AcDbEntity
  8
STEMPEL
100
AcDbLine
 10
200.1484596701444
 20
356.3840011099547
 30
0.0
 11
198.6484596701443
 21
356.3840011099547
 31
0.0
  0
LINE
  5
228A
102
{ACAD_REACTORS
330
2429
102
}
330
1E
100
AcDbEntity
  8
STEMPEL
100
AcDbLine
 10
200.1484596701444
 20
313.9575942387633
 30
0.0
 11
198.6484596701444
 21
313.9575942387633
 31
0.0
  0
LINE
  5
2317
330
1E
100
AcDbEntity
  8
HILF
  6
AUSGEZOGEN
100
AcDbLine
 10
160.8505607095485
 20
434.958518755246
 30
0.0
 11
197.4463586307402
 21
434.958518755246
 31
0.0
  0
LINE
  5
2318
330
1E
100
AcDbEntity
  8
HILF
  6
AUSGEZOGEN
100
AcDbLine
 10
158.6502628048593
 20
439.3869183227685
 30
0.0
 11
199.6466565354293
 21
439.3869183227685
 31
0.0
  0
LINE
  5
2319
330
1E
100
AcDbEntity
  8
HILF
  6
AUSGEZOGEN
100
AcDbLine
 10
158.0206807275204
 20
447.9858960914252
 30
0.0
 11
200.2762386127683
 21
447.9858960914252
 31
0.0
  0
ARC
  5
231B
102
{ACAD_REACTORS
330
2382
330
23DC
330
2429
102
}
330
1E
100
AcDbEntity
  8
STEMPEL
  6
AUSGEZOGEN
100
AcDbCircle
 10
173.6484596701443
 20
455.5346757939791
 30
0.0
 40
19.99984481626531
100
AcDbArc
 50
180.0
 51
198.1939705983848
  0
ARC
  5
231C
102
{ACAD_REACTORS
330
2429
102
}
330
1E
100
AcDbEntity
  8
STEMPEL
  6
AUSGEZOGEN
100
AcDbCircle
 10
173.6484596701443
 20
455.5346757939791
 30
0.0
 40
18.49984481626528
100
AcDbArc
 50
180.0
 51
198.1939705983848
  0
ARC
  5
231D
102
{ACAD_REACTORS
330
23DC
330
2429
102
}
330
1E
100
AcDbEntity
  8
STEMPEL
  6
AUSGEZOGEN
100
AcDbCircle
 10
165.1484596701443
 20
441.9895011744755
 30
0.0
 40
10.0
100
AcDbArc
 50
180.0
 51
215.6590876961389
  0
ARC
  5
231E
102
{ACAD_REACTORS
330
2429
102
}
330
1E
100
AcDbEntity
  8
STEMPEL
  6
AUSGEZOGEN
100
AcDbCircle
 10
165.1484596701443
 20
441.9895011744755
 30
0.0
 40
8.5
100
AcDbArc
 50
180.0
 51
215.6590876961389
  0
ARC
  5
231F
102
{ACAD_REACTORS
330
2429
102
}
330
1E
100
AcDbEntity
  8
STEMPEL
  6
AUSGEZOGEN
100
AcDbCircle
 10
152.1484596701443
 20
432.6621221213868
 30
0.0
 40
7.5
100
AcDbArc
 50
0.0
 51
35.6590876961389
  0
ARC
  5
2320
102
{ACAD_REACTORS
330
23DC
330
2429
102
}
330
1E
100
AcDbEntity
  8
STEMPEL
  6
AUSGEZOGEN
100
AcDbCircle
 10
152.1484596701443
 20
432.6621221213868
 30
0.0
 40
6.0
100
AcDbArc
 50
0.0
 51
35.6590876961389
  0
LINE
  5
2321
102
{ACAD_REACTORS
330
2429
102
}
330
1E
100
AcDbEntity
  8
STEMPEL
  6
AUSGEZOGEN
100
AcDbLine
 10
156.6484596701443
 20
446.1676757939791
 30
0.0
 11
156.6484596701443
 21
441.9895011744755
 31
0.0
  0
LINE
  5
2322
102
{ACAD_REACTORS
330
23DC
330
2429
102
}
330
1E
100
AcDbEntity
  8
STEMPEL
  6
AUSGEZOGEN
100
AcDbLine
 10
155.1484596701443
 20
446.1676757939791
 30
0.0
 11
155.1484596701443
 21
441.9895011744755
 31
0.0
  0
ARC
  5
2323
102
{ACAD_REACTORS
330
23DC
330
2429
102
}
330
1E
100
AcDbEntity
  8
STEMPEL
  6
AUSGEZOGEN
100
AcDbCircle
 10
145.1484596701443
 20
446.1676757939791
 30
0.0
 40
10.0
100
AcDbArc
 50
0.0
 51
18.19397059838486
  0
ARC
  5
2324
102
{ACAD_REACTORS
330
2429
102
}
330
1E
100
AcDbEntity
  8
STEMPEL
  6
AUSGEZOGEN
100
AcDbCircle
 10
145.1484596701443
 20
446.1676757939791
 30
0.0
 40
11.5
100
AcDbArc
 50
0.0
 51
18.19397059838486
  0
ARC
  5
2325
102
{ACAD_REACTORS
330
2382
330
2429
102
}
330
1E
100
AcDbEntity
  8
STEMPEL
  6
AUSGEZOGEN
100
AcDbCircle
 10
170.1484596701443
 20
460.6254954735708
 30
0.0
 40
16.5
100
AcDbArc
 50
156.6407054553586
 51
180.0
  0
ARC
  5
2326
102
{ACAD_REACTORS
330
2429
102
}
330
1E
100
AcDbEntity
  8
STEMPEL
  6
AUSGEZOGEN
100
AcDbCircle
 10
170.1484596701443
 20
460.6254954735708
 30
0.0
 40
15.0
100
AcDbArc
 50
155.0000000000057
 51
180.0
  0
LINE
  5
2327
102
{ACAD_REACTORS
330
2382
330
2429
102
}
330
1E
100
AcDbEntity
  8
STEMPEL
  6
AUSGEZOGEN
100
AcDbLine
 10
153.6484596701443
 20
460.6254954735706
 30
0.0
 11
153.6484596701444
 21
455.5346757939791
 31
0.0
  0
LINE
  5
2328
102
{ACAD_REACTORS
330
2429
102
}
330
1E
100
AcDbEntity
  8
STEMPEL
  6
AUSGEZOGEN
100
AcDbLine
 10
155.1484596701443
 20
460.6254954735708
 30
0.0
 11
155.1484596701443
 21
455.5346757939791
 31
0.0
  0
LINE
  5
2329
102
{ACAD_REACTORS
330
2382
330
2429
102
}
330
1E
100
AcDbEntity
  8
STEMPEL
  6
AUSGEZOGEN
100
AcDbLine
 10
153.648614853879
 20
455.5346757939791
 30
0.0
 11
153.6484596701443
 21
455.5346757939791
 31
0.0
  0
LINE
  5
232A
102
{ACAD_REACTORS
330
2429
102
}
330
1E
100
AcDbEntity
  8
STEMPEL
  6
AUSGEZOGEN
100
AcDbLine
 10
155.148614853879
 20
455.5346757939791
 30
0.0
 11
155.1484596701444
 21
455.5346757939791
 31
0.0
  0
LINE
  5
232B
102
{ACAD_REACTORS
330
2429
102
}
330
1E
100
AcDbEntity
  8
STEMPEL
  6
AUSGEZOGEN
100
AcDbLine
 10
156.6484596701444
 20
467.1676757939792
 30
0.0
 11
156.5538428645947
 21
466.9647693996812
 31
0.0
  0
ARC
  5
232C
102
{ACAD_REACTORS
330
2429
102
}
330
1E
100
AcDbEntity
  8
STEMPEL
  6
AUSGEZOGEN
100
AcDbCircle
 10
184.6484596701444
 20
455.5346757939791
 30
0.0
 40
18.49984481626528
100
AcDbArc
 50
341.8060294016151
 51
0.0
  0
ARC
  5
232D
102
{ACAD_REACTORS
330
2382
330
23DC
330
2429
102
}
330
1E
100
AcDbEntity
  8
STEMPEL
  6
AUSGEZOGEN
100
AcDbCircle
 10
184.6484596701444
 20
455.5346757939791
 30
0.0
 40
19.99984481626531
100
AcDbArc
 50
341.8060294016151
 51
0.0
  0
ARC
  5
232E
102
{ACAD_REACTORS
330
2429
102
}
330
1E
100
AcDbEntity
  8
STEMPEL
  6
AUSGEZOGEN
100
AcDbCircle
 10
193.1484596701444
 20
441.9895011744755
 30
0.0
 40
8.5
100
AcDbArc
 50
324.3409123038611
 51
0.0
  0
ARC
  5
232F
102
{ACAD_REACTORS
330
23DC
330
2429
102
}
330
1E
100
AcDbEntity
  8
STEMPEL
  6
AUSGEZOGEN
100
AcDbCircle
 10
193.1484596701444
 20
441.9895011744755
 30
0.0
 40
10.0
100
AcDbArc
 50
324.3409123038611
 51
0.0
  0
ARC
  5
2330
102
{ACAD_REACTORS
330
23DC
330
2429
102
}
330
1E
100
AcDbEntity
  8
STEMPEL
  6
AUSGEZOGEN
100
AcDbCircle
 10
206.1484596701445
 20
432.6621221213868
 30
0.0
 40
6.0
100
AcDbArc
 50
144.3409123038611
 51
180.0
  0
ARC
  5
2331
102
{ACAD_REACTORS
330
2429
102
}
330
1E
100
AcDbEntity
  8
STEMPEL
  6
AUSGEZOGEN
100
AcDbCircle
 10
206.1484596701445
 20
432.6621221213868
 30
0.0
 40
7.5
100
AcDbArc
 50
144.3409123038611
 51
180.0
  0
LINE
  5
2332
102
{ACAD_REACTORS
330
23DC
330
2429
102
}
330
1E
100
AcDbEntity
  8
STEMPEL
  6
AUSGEZOGEN
100
AcDbLine
 10
203.1484596701444
 20
446.1676757939791
 30
0.0
 11
203.1484596701444
 21
441.9895011744755
 31
0.0
  0
LINE
  5
2333
102
{ACAD_REACTORS
330
2429
102
}
330
1E
100
AcDbEntity
  8
STEMPEL
  6
AUSGEZOGEN
100
AcDbLine
 10
201.6484596701444
 20
446.1676757939791
 30
0.0
 11
201.6484596701444
 21
441.9895011744755
 31
0.0
  0
ARC
  5
2334
102
{ACAD_REACTORS
330
2429
102
}
330
1E
100
AcDbEntity
  8
STEMPEL
  6
AUSGEZOGEN
100
AcDbCircle
 10
213.1484596701444
 20
446.1676757939791
 30
0.0
 40
11.5
100
AcDbArc
 50
161.8060294016151
 51
180.0
  0
ARC
  5
2335
102
{ACAD_REACTORS
330
23DC
330
2429
102
}
330
1E
100
AcDbEntity
  8
STEMPEL
  6
AUSGEZOGEN
100
AcDbCircle
 10
213.1484596701444
 20
446.1676757939791
 30
0.0
 40
10.0
100
AcDbArc
 50
161.8060294016151
 51
180.0
  0
ARC
  5
2336
102
{ACAD_REACTORS
330
2429
102
}
330
1E
100
AcDbEntity
  8
STEMPEL
  6
AUSGEZOGEN
100
AcDbCircle
 10
188.1484596701444
 20
460.6254954735708
 30
0.0
 40
15.0
100
AcDbArc
 50
0.0
 51
24.99999999999059
  0
ARC
  5
2337
102
{ACAD_REACTORS
330
2382
330
2429
102
}
330
1E
100
AcDbEntity
  8
STEMPEL
  6
AUSGEZOGEN
100
AcDbCircle
 10
188.1484596701444
 20
460.6254954735708
 30
0.0
 40
16.5
100
AcDbArc
 50
0.0
 51
23.35929454463984
  0
LINE
  5
2338
102
{ACAD_REACTORS
330
2429
102
}
330
1E
100
AcDbEntity
  8
STEMPEL
  6
AUSGEZOGEN
100
AcDbLine
 10
203.1484596701444
 20
460.6254954735707
 30
0.0
 11
203.1484596701444
 21
455.5346757939791
 31
0.0
  0
LINE
  5
2339
102
{ACAD_REACTORS
330
2382
330
2429
102
}
330
1E
100
AcDbEntity
  8
STEMPEL
  6
AUSGEZOGEN
100
AcDbLine
 10
204.6484596701444
 20
460.6254954735705
 30
0.0
 11
204.6484596701443
 21
455.5346757939791
 31
0.0
  0
LINE
  5
233A
330
1E
100
AcDbEntity
  8
STEMPEL
  6
AUSGEZOGEN
100
AcDbLine
 10
203.1483044864097
 20
455.5346757939791
 30
0.0
 11
203.1484596701444
 21
455.5346757939791
 31
0.0
  0
LINE
  5
233B
330
1E
100
AcDbEntity
  8
STEMPEL
  6
AUSGEZOGEN
100
AcDbLine
 10
204.6483044864097
 20
455.5346757939791
 30
0.0
 11
204.6484596701444
 21
455.5346757939791
 31
0.0
  0
LINE
  5
233C
102
{ACAD_REACTORS
330
2429
102
}
330
1E
100
AcDbEntity
  8
STEMPEL
  6
AUSGEZOGEN
100
AcDbLine
 10
201.6484596701444
 20
467.1676757939792
 30
0.0
 11
201.7430764756941
 21
466.9647693996812
 31
0.0
  0
HATCH
  5
2382
330
1E
100
AcDbEntity
  8
SCHRAFF
100
AcDbHatch
 10
0.0
 20
0.0
 30
0.0
210
0.0
220
0.0
230
1.0
  2
NET
 70
     0
 71
     1
 91
        4
 92
        7
 72
     1
 73
     1
 93
        7
 10
153.6484596701443
 20
460.6254954735703
 42
-0.1022785704675363
 10
155.0008566698258
 20
467.1676757939793
 42
0.0
 10
136.2484596701444
 20
467.1676757939795
 42
0.0
 10
136.2484596701444
 20
453.1676757939794
 42
0.0
 10
153.7891771132468
 20
453.1676757939793
 42
-0.0296659389587095
 10
153.648614853879
 20
455.5346757939791
 42
0.0
 10
153.6484596701444
 20
455.5346757939791
 42
0.0
 97
        7
330
2325
330
1469
330
179F
330
179D
330
231B
330
2329
330
2327
 92
        7
 72
     1
 73
     1
 93
        6
 10
222.0484596701443
 20
467.167675793979
 42
0.0
 10
203.296062670463
 20
467.1676757939791
 42
-0.10227857046753
 10
204.6484596701444
 20
460.6254954735706
 42
0.0
 10
204.6483044864097
 20
455.534675793979
 42
-0.0296659389587073
 10
204.5077422270419
 20
453.1676757939792
 42
0.0
 10
222.0484596701443
 20
453.1676757939792
 42
0.0
 97
        6
330
1469
330
2337
330
2339
330
232D
330
1791
330
1793
 92
        7
 72
     0
 73
     1
 93
       10
 10
221.4897273582763
 20
286.1707976743592
 10
200.1484596701444
 20
286.1707976743592
 10
200.1484596701444
 20
276.1707976743592
 10
209.6484596701443
 20
276.1707976743592
 10
213.1125612852821
 20
270.1707976743591
 10
217.6484596701433
 20
270.170797674359
 10
217.6484596701433
 20
268.1707976743588
 10
223.6484596701445
 20
268.1707976743587
 10
223.6484596701445
 20
270.1707976743589
 10
222.0484596701442
 20
270.1707976743589
 97
       10
330
186B
330
1461
330
1869
330
1CC6
330
1CC1
330
1CC3
330
1CC4
330
191B
330
186A
330
1867
 92
        7
 72
     0
 73
     1
 93
       10
 10
158.1484596701443
 20
286.1707976743592
 10
136.8071919820122
 20
286.1707976743592
 10
136.2484596701443
 20
270.1707976743593
 10
134.6484596701447
 20
270.1707976743593
 10
134.6484596701447
 20
268.1707976743593
 10
140.6484596701432
 20
268.1707976743593
 10
140.6484596701432
 20
270.1707976743593
 10
145.1843580550065
 20
270.1707976743593
 10
148.6484596701442
 20
276.1707976743592
 10
158.1484596701443
 20
276.1707976743592
 97
       10
330
1870
330
186D
330
186E
330
179E
330
1CC7
330
1CC9
330
1CCC
330
1CCD
330
186C
330
1480
 75
     1
 76
     1
 52
45.0
 41
20.0
 77
     0
 78
     2
 53
45.0
 43
0.0
 44
0.0
 45
-1.767766952966368
 46
1.767766952966368
 79
     0
 53
135.0
 43
0.0
 44
0.0
 45
-1.767766952966368
 46
-1.767766952966368
 79
     0
 47
0.4316305429734652
 98
        4
 10
149.1412350990685
 20
459.5188197027471
 10
215.6431233261141
 20
460.813711821994
 10
216.074952485173
 20
281.6870357210851
 10
146.1184209739103
 20
279.9605142925386
1001
GradientColor1ACI
1070
     5
1001
GradientColor2ACI
1070
     2
1001
ACAD
1010
0.0
1020
0.0
1030
0.0
  0
HATCH
  5
23DC
330
1E
100
AcDbEntity
  8
SCHRAFF
100
AcDbHatch
 10
0.0
 20
0.0
 30
0.0
210
0.0
220
0.0
230
1.0
  2
HONEY
 70
     0
 71
     1
 91
        3
 92
        7
 72
     1
 73
     1
 93
       20
 10
270.1370850579986
 20
427.7868400601829
 42
0.1414496603262312
 10
271.4773796438422
 20
430.2149912324673
 42
-0.141449660326234
 10
273.621850981192
 20
434.1000331081223
 42
0.0
 10
276.3756420832946
 20
436.8538242102251
 42
0.0977457506731773
 10
277.4538331314513
 20
438.462302837238
 42
-0.097745750673178
 10
280.6883782482539
 20
443.2876969057389
 42
0.0
 10
280.6882863417513
 20
443.2877888122416
 42
0.0
 10
283.0633305139734
 20
445.6628329844635
 42
-0.1056993479927641
 10
288.6783344685866
 20
449.2998691664623
 42
0.0
 10
271.1430519025143
 20
466.8351517325348
 42
0.0
 10
223.6484596701444
 20
419.3405595001648
 42
0.0
 10
222.0484596701443
 20
419.3405595001649
 42
0.0
 10
222.0484596701443
 20
453.1676757939792
 42
0.0
 10
204.5077422270419
 20
453.1676757939792
 42
-0.0497699651211774
 10
203.6484105283742
 20
449.2900252785743
 42
0.0795533624515006
 10
203.1484596701444
 20
446.1676757939791
 42
0.0
 10
203.1484596701444
 20
441.9895011744755
 42
-0.1568599726812969
 10
201.2734596701444
 20
436.1598892662951
 42
0.1568599726812966
 10
200.1484596701445
 20
432.6621221213868
 42
0.0
 10
200.1484596701444
 20
357.7982146723282
 42
0.0
 97
       20
330
1DBB
330
1DBF
330
1DBD
330
1DC1
330
1DB8
330
1DC6
330
1DC5
330
1DC2
330
144C
330
16E3
330
1916
330
1793
330
1791
330
232D
330
2335
330
2332
330
232F
330
2330
330
1481
330
1DB0
 92
        7
 72
     1
 73
     1
 93
       10
 10
158.1484596701443
 20
432.6621221213868
 42
0.1568599726812968
 10
157.0234596701443
 20
436.1598892662951
 42
-0.1568599726812978
 10
155.1484596701443
 20
441.9895011744755
 42
0.0
 10
155.1484596701443
 20
446.1676757939791
 42
0.0795533624514995
 10
154.6485088119145
 20
449.2900252785743
 42
-0.0497699651211786
 10
153.7891771132468
 20
453.1676757939793
 42
0.0
 10
136.2484596701444
 20
453.1676757939794
 42
0.0
 10
136.2484596701447
 20
270.1707976743707
 42
0.0
 10
136.8071919820122
 20
286.1707976743592
 42
0.0
 10
158.1484596701443
 20
286.1707976743592
 42
0.0
 97
       10
330
2320
330
231D
330
2322
330
2323
330
231B
330
179D
330
179F
330
186D
330
1870
330
1480
 92
        7
 72
     1
 73
     1
 93
       15
 10
331.8128137283199
 20
406.1653899067289
 42
0.0
 10
314.2775311622476
 20
423.7006724728013
 42
-0.1056993479927578
 10
310.6404949802489
 20
418.0856685181884
 42
0.0
 10
308.2653589015243
 20
415.7107162524686
 42
-0.0977457506731848
 10
303.4399648330231
 20
412.476171135666
 42
0.0977457506731838
 10
301.8314862060102
 20
411.3979800875092
 42
0.0
 10
299.0776951039076
 20
408.6441889854068
 42
-0.1414496603262365
 10
295.1926532282525
 20
406.499717648057
 42
0.1414496603262339
 10
292.7645020559682
 20
405.1594230622134
 42
0.0
 10
200.1484596701444
 20
312.5433806763897
 42
0.0
 10
200.1484596701444
 20
286.1707976743592
 42
0.0
 10
221.4897273582763
 20
286.1707976743592
 42
0.0
 10
222.0484596701445
 20
270.1707976743518
 42
0.0
 10
222.0484596701444
 20
298.0010358485536
 42
0.0
 10
223.6484596701445
 20
298.0010358485536
 42
0.0
 97
       15
330
144C
330
1DD4
330
1DD5
330
1DC9
330
1DD1
330
1DCE
330
1DD0
330
1DCA
330
1DAE
330
1461
330
186B
330
1867
330
1919
330
1917
330
16E6
 75
     1
 76
     1
 52
0.0
 41
25.0
 77
     0
 78
     3
 53
0.0
 43
0.0
 44
0.0
 45
4.6875
 46
2.70632938682637
 79
     2
 49
3.125
 49
-6.25
 53
120.0
 43
0.0
 44
0.0
 45
-4.687499999999998
 46
2.706329386826371
 79
     2
 49
3.124999999999999
 49
-6.249999999999999
 53
60.0
 43
0.0
 44
0.0
 45
0.000000000000001
 46
5.412658773652742
 79
     2
 49
-6.25
 49
3.125
 47
0.4316305429734652
 98
        3
 10
209.5974975787349
 20
399.52217526195
 10
148.277574278014
 20
399.9538045712493
 10
245.4394229039522
 20
337.7990065983738
1001
GradientColor1ACI
1070
     5
1001
GradientColor2ACI
1070
     2
1001
ACAD
1010
0.0
1020
0.0
1030
0.0
  0
HATCH
  5
2429
330
1E
100
AcDbEntity
  8
SCHRAFF
100
AcDbHatch
 10
0.0
 20
0.0
 30
0.0
210
0.0
220
0.0
230
1.0
  2
_USER
 70
     0
 71
     1
 91
        3
 92
        7
 72
     1
 73
     1
 93
       19
 10
200.1484596701445
 20
432.6621221213868
 42
-0.1568599726812965
 10
201.2734596701445
 20
436.1598892662951
 42
0.156859972681297
 10
203.1484596701444
 20
441.9895011744755
 42
0.0
 10
203.1484596701444
 20
446.1676757939792
 42
-0.0795533624515002
 10
203.6484105283742
 20
449.2900252785743
 42
0.0795533624514972
 10
204.6483044864097
 20
455.534675793979
 42
0.0
 10
204.6484596701444
 20
460.6254954737129
 42
0.10227857046535
 10
203.296062670463
 20
467.1676757939791
 42
0.0
 10
201.6484596701445
 20
467.1676757939791
 42
0.0
 10
201.7430764756957
 20
466.9647693996778
 42
-0.109517811683178
 10
203.1484596701444
 20
460.6254954735708
 42
0.0
 10
203.1483044864097
 20
455.5346757939791
 42
-0.0795533624515007
 10
202.2234031571087
 20
449.7583777012635
 42
0.0795533624515
 10
201.6484596701444
 20
446.1676757939791
 42
0.0
 10
201.6484596701444
 20
441.9895011744755
 42
-0.1568599726812967
 10
200.0547096701444
 20
437.0343310525221
 42
0.1568599726812969
 10
198.6484596701444
 20
432.6621221213868
 42
0.0
 10
198.6484596701443
 20
356.3840011099547
 42
0.0
 10
200.1484596701444
 20
356.3840011099547
 42
0.0
 97
       19
330
2330
330
232F
330
2332
330
2335
330
232D
330
2339
330
2337
330
1469
330
233C
330
2336
330
2338
330
232C
330
2334
330
2333
330
232E
330
2331
330
1A00
330
2289
330
1481
 92
        7
 72
     1
 73
     1
 93
       23
 10
159.6484596701443
 20
432.6621221213868
 42
0.1568599726812969
 10
158.2422096701443
 20
437.0343310525221
 42
-0.1568599726812971
 10
156.6484596701443
 20
441.9895011744755
 42
0.0
 10
156.6484596701443
 20
446.1676757939791
 42
0.0795533624515003
 10
156.0735161831801
 20
449.7583777012635
 42
-0.079553362451501
 10
155.148614853879
 20
455.5346757939791
 42
0.0
 10
155.1484596701443
 20
455.5346757939791
 42
0.0
 10
155.1484596701443
 20
460.6254954735708
 42
-0.1095178116831856
 10
156.5538428645932
 20
466.9647693996783
 42
0.0
 10
156.6484596701444
 20
467.1676757939793
 42
0.0
 10
155.0008566698258
 20
467.1676757939793
 42
0.1022785704675364
 10
153.6484596701443
 20
460.6254954735703
 42
0.0
 10
153.6484596701444
 20
455.5346757939791
 42
0.0
 10
153.648614853879
 20
455.5346757939791
 42
0.0795533624515008
 10
154.6485088119145
 20
449.2900252785743
 42
-0.079553362451499
 10
155.1484596701443
 20
446.1676757939792
 42
0.0
 10
155.1484596701443
 20
441.9895011744755
 42
0.1568599726812971
 10
157.0234596701443
 20
436.1598892662951
 42
-0.1568599726812974
 10
158.1484596701443
 20
432.6621221213868
 42
0.0
 10
158.1484596701443
 20
245.1053062599964
 42
0.0
 10
158.5801732314589
 20
240.1707976743591
 42
0.0
 10
160.0859029877739
 20
240.1707976743591
 42
0.0
 10
159.6484596701443
 20
245.1707976743588
 42
0.0
 97
       23
330
231F
330
231E
330
2321
330
2324
330
231C
330
232A
330
2328
330
2326
330
232B
330
1469
330
2325
330
2327
330
2329
330
231B
330
2323
330
2322
330
231D
330
2320
330
1480
330
147E
330
147B
330
1A13
330
1A0B
 92
        7
 72
     0
 73
     1
 93
        6
 10
200.1484596701444
 20
313.9575942387633
 10
198.6484596701444
 20
313.9575942387633
 10
198.6484596701444
 20
245.1707976743582
 10
198.2110163525147
 20
240.170797674359
 10
199.7167461088297
 20
240.170797674359
 10
200.1484596701444
 20
245.1053062599949
 97
        6
330
228A
330
1A0F
330
1A15
330
147B
330
147F
330
1461
 75
     1
 76
     0
 52
45.0
 41
2.0
 77
     0
 78
     1
 53
45.0
 43
0.0
 44
0.0
 45
-1.414213562373094
 46
1.414213562373095
 79
     0
 47
0.2710757265236688
 98
        3
 10
199.0641289259315
 20
373.7969857184239
 10
158.9263408255392
 20
385.4532417950711
 10
199.0641289259315
 20
280.0047833204644
1001
GradientColor1ACI
1070
     5
1001
GradientColor2ACI
1070
     2
1001
ACAD
1010
0.0
1020
0.0
1030
0.0
  0
HATCH
  5
2469
330
1E
100
AcDbEntity
  8
SCHRAFF
100
AcDbHatch
 10
0.0
 20
0.0
 30
0.0
210
0.0
220
0.0
230
1.0
  2
_USER
 70
     0
 71
     1
 91
        2
 92
        7
 72
     1
 73
     1
 93
       20
 10
270.8441918391853
 20
427.0797332789965
 42
0.1414496603262293
 10
272.4525453421975
 20
429.9935146857377
 42
-0.1414496603262304
 10
274.3289577623785
 20
433.3929263269357
 42
0.0
 10
277.0827488644812
 20
436.1467174290386
 42
0.0977457506731754
 10
278.3765781222692
 20
438.0768917814541
 42
-0.0977457506731776
 10
281.3954850294404
 20
442.5805901245524
 42
0.0
 10
283.7696164454909
 20
444.9549052900771
 42
-0.1095373921528339
 10
289.2467368630705
 20
448.4445137972665
 42
0.0
 10
289.4571175352459
 20
448.5210860998032
 42
0.0
 10
288.6783344685866
 20
449.2998691664623
 42
0.1056993479927647
 10
283.0633305139734
 20
445.6628329844635
 42
0.0
 10
280.6882863417513
 20
443.2877888122415
 42
0.0
 10
280.6883782482539
 20
443.2876969057389
 42
0.0977457506731781
 10
277.4538331314512
 20
438.462302837238
 42
-0.0977457506731813
 10
276.3756420832946
 20
436.8538242102251
 42
0.0
 10
273.6218509811919
 20
434.1000331081223
 42
0.1414496603262317
 10
271.4773796438422
 20
430.2149912324673
 42
-0.1414496603262304
 10
270.1370850579986
 20
427.7868400601829
 42
0.0
 10
200.1484596701444
 20
357.7982146723282
 42
0.0
 10
200.1484596701444
 20
356.3840011099547
 42
0.0
 97
       20
330
1DBA
330
1DBE
330
1DBC
330
1DC0
330
1DB9
330
1DC4
330
1DC3
330
1DC7
330
144C
330
1DC2
330
1DC5
330
1DC6
330
1DB8
330
1DC1
330
1DBD
330
1DBF
330
1DBB
330
1DB0
330
1481
330
1DB1
 92
        7
 72
     1
 73
     1
 93
       19
 10
292.7645020559682
 20
405.1594230622134
 42
-0.1414496603262344
 10
295.1926532282525
 20
406.499717648057
 42
0.1414496603262366
 10
299.0776951039076
 20
408.6441889854068
 42
0.0
 10
301.8314862060102
 20
411.3979800875092
 42
-0.0977457506731794
 10
303.4399648330231
 20
412.476171135666
 42
0.0977457506731843
 10
308.2653589015243
 20
415.7107162524686
 42
0.0
 10
310.6404949802801
 20
418.0856685182194
 42
0.1056993479920623
 10
314.2775311622476
 20
423.7006724728013
 42
0.0
 10
313.4987480955884
 20
424.4794555394605
 42
0.0
 10
313.422175793051
 20
424.2690748672832
 42
-0.1095178116831641
 10
309.933388199062
 20
418.7927752993744
 42
0.0
 10
307.5582521203376
 20
416.417823033655
 42
-0.0977457506731727
 10
303.0545537772393
 20
413.398916126484
 42
0.0977457506731788
 10
301.1243794248238
 20
412.105086868696
 42
0.0
 10
298.370588322721
 20
409.3512957665932
 42
-0.1414496603262326
 10
294.9711766815229
 20
407.4748833464122
 42
0.1414496603262314
 10
292.0573952747817
 20
405.8665298434
 42
0.0
 10
200.1484596701444
 20
313.9575942387633
 42
0.0
 10
200.1484596701444
 20
312.5433806763897
 42
0.0
 97
       19
330
1DCA
330
1DD0
330
1DCE
330
1DD1
330
1DC9
330
1DD5
330
1DD4
330
144C
330
1DD8
330
1DD3
330
1DD6
330
1DC8
330
1DD2
330
1DCF
330
1DCD
330
1DCB
330
1DAF
330
1461
330
1DAE
 75
     1
 76
     0
 52
90.0
 41
2.0
 77
     0
 78
     1
 53
90.0
 43
0.0
 44
0.0
 45
-2.0
 46
0.0000000000000001
 79
     0
 47
0.273011144155373
 98
        2
 10
259.5115435245043
 20
416.6676776349647
 10
263.3354700835762
 20
376.5350389270821
1001
GradientColor1ACI
1070
     5
1001
GradientColor2ACI
1070
     2
1001
ACAD
1010
0.0
1020
0.0
1030
0.0
  0
ARC
  5
246A
102
{ACAD_REACTORS
330
2474
102
}
330
1E
100
AcDbEntity
  8
SCHRAFF
100
AcDbCircle
 10
200.1484596701444
 20
357.7982146723282
 30
0.0
 40
3.0
100
AcDbArc
 50
45.0
 51
89.99999999999946
  0
HATCH
  5
2474
330
1E
100
AcDbEntity
  8
SCHRAFF
100
AcDbHatch
 10
0.0
 20
0.0
 30
0.0
210
0.0
220
0.0
230
1.0
  2
_USER
 70
     0
 71
     1
 91
        1
 92
        7
 72
     1
 73
     1
 93
        3
 10
200.1484596701444
 20
360.7982146723282
 42
0.0
 10
200.1484596701444
 20
357.7982146723282
 42
0.0
 10
202.2697800137041
 20
359.9195350158879
 42
0.1989123673796594
 97
        3
330
1481
330
1DB0
330
246A
 75
     1
 76
     0
 52
0.0
 41
0.1
 77
     0
 78
     1
 53
0.0
 43
0.0
 44
0.0
 45
0.0
 46
0.1
 79
     0
 47
0.0159147394224804
 98
        1
 10
200.656702469998
 20
360.0256855310734
1001
GradientColor1ACI
1070
     5
1001
GradientColor2ACI
1070
     2
1001
ACAD
1010
0.0
1020
0.0
1030
0.0
  0
ARC
  5
2476
102
{ACAD_REACTORS
330
2480
102
}
330
1E
100
AcDbEntity
  8
SCHRAFF
100
AcDbCircle
 10
197.3980252843687
 20
313.6826479013952
 30
0.0
 40
4.96975074530532
100
AcDbArc
 50
303.6029942721356
 51
11.39700572786618
  0
HATCH
  5
2480
330
1E
100
AcDbEntity
  8
SCHRAFF
100
AcDbHatch
 10
0.0
 20
0.0
 30
0.0
210
0.0
220
0.0
230
1.0
  2
_USER
 70
     0
 71
     1
 91
        1
 92
        7
 72
     1
 73
     1
 93
        3
 10
202.2697800137041
 20
314.6647010199493
 42
0.0
 10
200.1484596701444
 20
312.5433806763897
 42
0.0
 10
200.1484596701444
 20
309.5433806763896
 42
0.3047481451521237
 97
        3
330
1DAE
330
1461
330
2476
 75
     1
 76
     0
 52
0.0
 41
0.1
 77
     0
 78
     1
 53
0.0
 43
0.0
 44
0.0
 45
0.0
 46
0.1
 79
     0
 47
0.0160055755029143
 98
        1
 10
202.0719779927977
 20
312.93969107521
1001
GradientColor1ACI
1070
     5
1001
GradientColor2ACI
1070
     2
1001
ACAD
1010
0.0
1020
0.0
1030
0.0
  0
SPLINE
  5
2535
330
1E
100
AcDbEntity
  8
STEMPEL
100
AcDbSpline
210
0.0
220
0.0
230
1.0
 70
  1064
 71
     3
 72
    12
 73
     8
 74
     6
 42
0.000000001
 43
0.0000000001
 44
0.0000000001
 40
0.0
 40
0.0
 40
0.0
 40
0.0
 40
5.129611331395578
 40
18.126228224323
 40
32.25008043856038
 40
41.36117240613965
 40
47.7068387993854
 40
47.7068387993854
 40
47.7068387993854
 40
47.7068387993854
 10
198.6484596701443
 20
356.3840011099547
 30
0.0
 10
198.0731963890545
 20
354.7754799918101
 30
0.0
 10
196.0404198591277
 20
349.0915365100337
 30
0.0
 10
192.6283063194146
 20
338.7942385485177
 30
0.0
 10
189.500660987589
 20
327.5210153083075
 30
0.0
 10
191.1756054578513
 20
316.0990988176485
 30
0.0
 10
196.4734612297659
 20
314.5808860877434
 30
0.0
 10
198.6484596701444
 20
313.9575942387633
 30
0.0
 11
198.6484596701443
 21
356.3840011099547
 31
0.0
 11
196.931878913923
 21
351.5501348604033
 31
0.0
 11
192.8688824041565
 21
339.2049289073562
 31
0.0
 11
190.2952080749482
 21
325.317546079163
 31
0.0
 11
192.8688824041565
 21
316.5775119093865
 31
0.0
 11
198.6484596701444
 21
313.9575942387633
 31
0.0
  0
SPLINE
  5
253F
330
1E
100
AcDbEntity
  8
STEMPEL
100
AcDbSpline
210
0.0
220
0.0
230
1.0
 70
  1064
 71
     3
 72
    12
 73
     8
 74
     6
 42
0.000000001
 43
0.0000000001
 44
0.0000000001
 40
0.0
 40
0.0
 40
0.0
 40
0.0
 40
5.129611331395578
 40
18.126228224323
 40
32.25008043856038
 40
41.36117240613965
 40
47.7068387993854
 40
47.7068387993854
 40
47.7068387993854
 40
47.7068387993854
 10
200.0626732325175
 20
356.3840011099543
 30
0.0
 10
199.4874099514276
 20
354.7754799918098
 30
0.0
 10
197.4546334215008
 20
349.0915365100334
 30
0.0
 10
194.0425198817876
 20
338.7942385485172
 30
0.0
 10
190.9148745499622
 20
327.521015308307
 30
0.0
 10
192.5898190202244
 20
316.0990988176483
 30
0.0
 10
197.887674792139
 20
314.580886087743
 30
0.0
 10
200.0626732325176
 20
313.9575942387629
 30
0.0
 11
200.0626732325175
 21
356.3840011099543
 31
0.0
 11
198.3460924762961
 21
351.5501348604029
 31
0.0
 11
194.2830959665296
 21
339.2049289073558
 31
0.0
 11
191.7094216373213
 21
325.3175460791626
 31
0.0
 11
194.2830959665296
 21
316.5775119093861
 31
0.0
 11
200.0626732325176
 21
313.9575942387629
 31
0.0
  0
DIMENSION
  5
260F
330
1E
100
AcDbEntity
  8
BEM
100
AcDbDimension
280
     0
  2
*D20
 10
179.1484596701449
 20
502.4850257275902
 30
0.0
 11
265.0527493641134
 21
521.5620989195648
 31
0.0
 70
    34
 71
     5
 42
0.7853981633974412
 73
     0
 74
     0
 75
     0
  3
Standard
100
AcDb2LineAngularDimension
 13
306.4276802837229
 23
441.4500182879377
 33
0.0
 14
326.8648351014824
 24
461.8871731056966
 34
0.0
 15
179.1484596701444
 25
474.1676757939791
 35
0.0
 16
288.1378231082952
 26
502.9459126338251
 36
0.0
1001
ACAD
1000
DSTYLE
1002
{
1070
    40
1040
2.0
1070
    41
1040
3.5
1070
    42
1040
1.0
1070
    43
1040
7.0
1070
    44
1040
1.0
1070
    73
1070
     0
1070
    74
1070
     0
1070
    77
1070
     1
1070
    78
1070
     8
1070
    79
1070
     2
1070
   140
1040
3.5
1070
   141
1040
1.5
1070
   146
1040
0.5142857142857144
1070
   147
1040
1.5
1070
   172
1070
     1
1070
   178
1070
     1
1070
   179
1070
     2
1070
   271
1070
     2
1070
   272
1070
     2
1070
   284
1070
     8
1070
   285
1070
     8
1070
   286
1070
     8
1002
}
  0
ENDSEC
  0
SECTION
  2
OBJECTS
  0
DICTIONARY
  5
C
330
0
100
AcDbDictionary
281
     1
  3
ACAD_CIP_PREVIOUS_PRODUCT_INFO
350
1D25
  3
ACAD_COLOR
350
DF
  3
ACAD_DETAILVIEWSTYLE
350
1D22
  3
ACAD_GROUP
350
D
  3
ACAD_LAYOUT
350
19
  3
ACAD_MATERIAL
350
DE
  3
ACAD_MLEADERSTYLE
350
1D1D
  3
ACAD_MLINESTYLE
350
16
  3
ACAD_PLOTSETTINGS
350
18
  3
ACAD_PLOTSTYLENAME
350
E
  3
ACAD_SCALELIST
350
1D0B
  3
ACAD_SECTIONVIEWSTYLE
350
1D1F
  3
ACAD_TABLESTYLE
350
1D09
  3
ACAD_VISUALSTYLE
350
1CF0
  3
ACDB_RECOMPOSE_DATA
350
273D
  3
AcDbVariableDictionary
350
EA
  0
DICTIONARY
  5
254B
330
8
100
AcDbDictionary
280
     1
281
     1
  0
DICTIONARY
  5
1DEF
330
2
100
AcDbDictionary
280
     1
281
     1
  3
ACAD_LAYERSTATES
360
1DF0
  0
DICTIONARY
  5
1D28
330
10
100
AcDbDictionary
280
     1
281
     1
  3
ADSK_XREC_LAYER_RECONCILED
360
1D29
  0
DICTIONARY
  5
1D2A
330
2A
100
AcDbDictionary
280
     1
281
     1
  3
ADSK_XREC_LAYER_RECONCILED
360
1D2B
  0
DICTIONARY
  5
1D2C
330
2B
100
AcDbDictionary
280
     1
281
     1
  3
ADSK_XREC_LAYER_RECONCILED
360
1D2D
  0
DICTIONARY
  5
1D2E
330
2C
100
AcDbDictionary
280
     1
281
     1
  3
ADSK_XREC_LAYER_RECONCILED
360
1D2F
  0
DICTIONARY
  5
1D30
330
2F
100
AcDbDictionary
280
     1
281
     1
  3
ADSK_XREC_LAYER_RECONCILED
360
1D31
  0
DICTIONARY
  5
1D32
330
30
100
AcDbDictionary
280
     1
281
     1
  3
ADSK_XREC_LAYER_RECONCILED
360
1D33
  0
DICTIONARY
  5
1D34
330
31
100
AcDbDictionary
280
     1
281
     1
  3
ADSK_XREC_LAYER_RECONCILED
360
1D35
  0
DICTIONARY
  5
1D36
330
1BD
100
AcDbDictionary
280
     1
281
     1
  3
ADSK_XREC_LAYER_RECONCILED
360
1D37
  0
DICTIONARY
  5
A0
330
1E
100
AcDbDictionary
280
     1
281
     1
  3
ACAD_LAYOUTSELFREF
360
D4
  3
ACAD_SORTENTS
360
1DD9
  0
DICTIONARY
  5
A2
330
1A
100
AcDbDictionary
280
     1
281
     1
  3
ACAD_LAYOUTSELFREF
360
D3
  0
XRECORD
  5
1D25
102
{ACAD_REACTORS
330
C
102
}
330
C
100
AcDbXrecord
280
     1
300
ACD
300
2013
300
ACD_F_S
  0
DICTIONARY
  5
DF
102
{ACAD_REACTORS
330
C
102
}
330
C
100
AcDbDictionary
281
     1
  0
DICTIONARY
  5
1D22
102
{ACAD_REACTORS
330
C
102
}
330
C
100
AcDbDictionary
281
     1
  3
Imperial24
350
1D23
  0
DICTIONARY
  5
D
102
{ACAD_REACTORS
330
C
102
}
330
C
100
AcDbDictionary
281
     1
  0
DICTIONARY
  5
19
102
{ACAD_REACTORS
330
C
102
}
330
C
100
AcDbDictionary
281
     1
  3
Layout1
350
1D
  3
Model
350
21
  0
DICTIONARY
  5
DE
102
{ACAD_REACTORS
330
C
102
}
330
C
100
AcDbDictionary
281
     1
  3
ByBlock
350
1CE0
  3
ByLayer
350
1CD8
  3
Global
350
1CE8
  0
DICTIONARY
  5
1D1D
102
{ACAD_REACTORS
330
C
102
}
330
C
100
AcDbDictionary
281
     1
  3
Standard
350
1D1E
  0
DICTIONARY
  5
16
102
{ACAD_REACTORS
330
C
102
}
330
C
100
AcDbDictionary
281
     1
  3
Standard
350
17
  0
DICTIONARY
  5
18
102
{ACAD_REACTORS
330
C
102
}
330
C
100
AcDbDictionary
281
     1
  0
ACDBDICTIONARYWDFLT
  5
E
102
{ACAD_REACTORS
330
C
102
}
330
C
100
AcDbDictionary
281
     1
  3
Normal
350
F
100
AcDbDictionaryWithDefault
340
F
  0
DICTIONARY
  5
1D0B
102
{ACAD_REACTORS
330
C
102
}
330
C
100
AcDbDictionary
281
     1
  3
A0
350
1D0C
  3
A1
350
1D0D
  3
A2
350
1D0E
  3
A3
350
1D0F
  3
A4
350
1D10
  3
A5
350
1D11
  3
A6
350
1D12
  3
A7
350
1D13
  3
A8
350
1D14
  3
A9
350
1D15
  3
B0
350
1D16
  3
B1
350
1D17
  3
B2
350
1D18
  3
B3
350
1D19
  3
B4
350
1D1A
  3
B5
350
1D1B
  3
B6
350
1D1C
  0
DICTIONARY
  5
1D1F
102
{ACAD_REACTORS
330
C
102
}
330
C
100
AcDbDictionary
281
     1
  3
Imperial24
350
1D21
  0
DICTIONARY
  5
1D09
102
{ACAD_REACTORS
330
C
102
}
330
C
100
AcDbDictionary
281
     1
  3
Standard
350
1D0A
  0
DICTIONARY
  5
1CF0
102
{ACAD_REACTORS
330
C
102
}
330
C
100
AcDbDictionary
281
     1
  3
2dWireframe
350
1CF6
  3
Basic
350
1CF5
  3
Brighten
350
1CFC
  3
ColorChange
350
1D00
  3
Conceptual
350
1CF9
  3
Dim
350
1CFB
  3
EdgeColorOff
350
1D08
  3
Facepattern
350
1CFF
  3
Flat
350
1CF1
  3
FlatWithEdges
350
1CF2
  3
Gouraud
350
1CF3
  3
GouraudWithEdges
350
1CF4
  3
Hidden
350
1CF8
  3
JitterOff
350
1D06
  3
Linepattern
350
1CFE
  3
OverhangOff
350
1D07
  3
Realistic
350
1CFA
  3
Shaded
350
1D05
  3
Shaded with edges
350
1D04
  3
Shades of Gray
350
1D01
  3
Sketchy
350
1D02
  3
Thicken
350
1CFD
  3
Wireframe
350
1CF7
  3
X-Ray
350
1D03
  0
XRECORD
  5
273D
102
{ACAD_REACTORS
330
C
102
}
330
C
100
AcDbXrecord
280
     1
 90
        1
330
1D0A
  0
DICTIONARY
  5
EA
102
{ACAD_REACTORS
330
C
102
}
330
C
100
AcDbDictionary
281
     1
  3
CANNOSCALE
350
258A
  3
CMLEADERSTYLE
350
2587
  3
CTABLESTYLE
350
2586
  3
CVIEWDETAILSTYLE
350
2588
  3
CVIEWSECTIONSTYLE
350
2589
  3
DIMASSOC
350
EB
  3
LAYEREVAL
350
273A
  3
LAYERNOTIFY
350
273B
  3
LIGHTINGUNITS
350
2739
  3
MSLTSCALE
350
2738
  3
PROJECTNAME
350
EC
  0
DICTIONARY
  5
1DF0
102
{ACAD_REACTORS
330
1DEF
102
}
330
1DEF
100
AcDbDictionary
281
     1
  0
XRECORD
  5
1D29
102
{ACAD_REACTORS
330
1D28
102
}
330
1D28
100
AcDbXrecord
280
     1
290
     1
  0
XRECORD
  5
1D2B
102
{ACAD_REACTORS
330
1D2A
102
}
330
1D2A
100
AcDbXrecord
280
     1
290
     1
  0
XRECORD
  5
1D2D
102
{ACAD_REACTORS
330
1D2C
102
}
330
1D2C
100
AcDbXrecord
280
     1
290
     1
  0
XRECORD
  5
1D2F
102
{ACAD_REACTORS
330
1D2E
102
}
330
1D2E
100
AcDbXrecord
280
     1
290
     1
  0
XRECORD
  5
1D31
102
{ACAD_REACTORS
330
1D30
102
}
330
1D30
100
AcDbXrecord
280
     1
290
     1
  0
XRECORD
  5
1D33
102
{ACAD_REACTORS
330
1D32
102
}
330
1D32
100
AcDbXrecord
280
     1
290
     1
  0
XRECORD
  5
1D35
102
{ACAD_REACTORS
330
1D34
102
}
330
1D34
100
AcDbXrecord
280
     1
290
     1
  0
XRECORD
  5
1D37
102
{ACAD_REACTORS
330
1D36
102
}
330
1D36
100
AcDbXrecord
280
     1
290
     1
  0
XRECORD
  5
D4
102
{ACAD_REACTORS
330
A0
102
}
330
A0
100
AcDbXrecord
280
     1
340
1E
  0
SORTENTSTABLE
  5
1DD9
102
{ACAD_REACTORS
330
A0
102
}
330
A0
100
AcDbSortentsTable
330
1E
331
77
  5
77
331
1480
  5
186E
331
73
  5
73
331
1796
  5
1A03
331
1792
  5
19FE
331
178E
  5
19F8
331
1A1B
  5
1DBE
331
232E
  5
239B
331
232A
  5
234C
331
1DC5
  5
2318
331
2326
  5
2340
331
1DC1
  5
226A
331
2322
  5
233A
331
6F
  5
6F
331
785
  5
785
331
6B
  5
6B
331
67
  5
67
331
63
  5
63
331
431
  5
431
331
9A
  5
9A
331
1A17
  5
1DBD
331
1A13
  5
1DBB
331
1870
  5
1CCA
331
1A0F
  5
1DBA
331
1DBD
  5
2008
331
186C
  5
1CC7
331
1A0B
  5
1DB9
331
231E
  5
2336
331
1DB9
  5
1FC9
331
2469
  5
179C
331
1DB5
  5
1F6B
331
1DB1
  5
1F6A
331
2429
  5
185F
331
5F
  5
5F
331
96
  5
96
331
5B
  5
5B
331
92
  5
92
331
57
  5
57
331
8E
  5
8E
331
1CCB
  5
1F57
331
8A
  5
8A
331
1CC7
  5
1DD7
331
1864
  5
1CC0
331
1CC3
  5
1DD3
331
1860
  5
1C21
331
191B
  5
1DB5
331
228A
  5
232F
331
1DD8
  5
232C
331
86
  5
86
331
82
  5
82
331
144C
  5
179D
331
7E
  5
7E
331
7A
  5
7A
331
16E6
  5
19F7
331
1917
  5
1DAE
331
16E2
  5
191A
331
16DE
  5
1917
331
179D
  5
1A13
331
1799
  5
1A07
331
1DD4
  5
2328
331
2339
  5
246F
331
1DD0
  5
2324
331
2335
  5
243E
331
1DCC
  5
2320
331
2331
  5
23E1
331
1DC8
  5
231C
331
2480
  5
1861
331
1483
  5
1872
331
76
  5
76
331
147F
  5
186D
331
72
  5
72
331
147B
  5
1869
331
1791
  5
19FC
331
232D
  5
239A
331
2329
  5
234B
331
1DC4
  5
2317
331
2474
  5
1870
331
2325
  5
233E
331
1DC0
  5
200C
331
2321
  5
2339
331
6E
  5
6E
331
784
  5
784
331
6A
  5
6A
331
66
  5
66
331
62
  5
62
331
430
  5
430
331
99
  5
99
331
1DBC
  5
1FCE
331
186B
  5
1CC6
331
231D
  5
2335
331
1DB8
  5
1FA4
331
2319
  5
2332
331
1DB0
  5
1F69
331
5E
  5
5E
331
95
  5
95
331
5A
  5
5A
331
91
  5
91
331
8D
  5
8D
331
1CCA
  5
1F56
331
89
  5
89
331
1867
  5
1CC2
331
1CC6
  5
1DD6
331
1863
  5
1C39
331
1CC2
  5
1DD2
331
185F
  5
1C20
331
191A
  5
1DB1
331
23DC
  5
1799
331
2289
  5
232E
331
85
  5
85
331
118
  5
118
331
81
  5
81
331
7D
  5
7D
331
79
  5
79
331
16E5
  5
19F6
331
1916
  5
1CCD
331
1A21
  5
1DC0
331
179C
  5
1A0F
331
1DD7
  5
232B
331
233C
  5
2478
331
1DD3
  5
2327
331
2338
  5
246C
331
1DCF
  5
2323
331
2334
  5
242E
331
1DCB
  5
231F
331
2330
  5
23DF
331
75
  5
75
331
E07
  5
E07
331
71
  5
71
331
147E
  5
186C
331
147A
  5
1867
331
1790
  5
19FA
331
1A1D
  5
1DBF
331
232C
  5
2387
331
1DC7
  5
231B
331
2328
  5
234A
331
1DC3
  5
228A
331
2324
  5
233C
331
2320
  5
2338
331
6D
  5
6D
331
69
  5
69
331
783
  5
783
331
65
  5
65
331
61
  5
61
331
1C0B
  5
1DC3
331
98
  5
98
331
1A15
  5
1DBC
331
1DBF
  5
200B
331
186E
  5
1CC9
331
1DBB
  5
1FCD
331
186A
  5
1CC4
331
231C
  5
2334
331
2318
  5
2331
331
5D
  5
5D
331
59
  5
59
331
94
  5
94
331
90
  5
90
331
1CCD
  5
1F62
331
8C
  5
8C
331
1CC9
  5
1F55
331
88
  5
88
331
1866
  5
1CC1
331
1CC5
  5
1DD5
331
1862
  5
1C2C
331
1DAF
  5
1F66
331
1CC1
  5
1DD1
331
1919
  5
1DB0
331
84
  5
84
331
80
  5
80
331
7C
  5
7C
331
142E
  5
1473
331
78
  5
78
331
16E0
  5
1919
331
179F
  5
1A17
331
179B
  5
1A0B
331
1DD6
  5
232A
331
233B
  5
2476
331
1DD2
  5
2326
331
2337
  5
246A
331
1DCE
  5
2322
331
2333
  5
242B
331
1DCA
  5
231E
331
74
  5
74
331
1481
  5
1871
331
70
  5
70
331
147D
  5
186A
331
1797
  5
1A04
331
16A8
  5
1916
331
1793
  5
1A00
331
178F
  5
19F9
331
232F
  5
23DE
331
232B
  5
2384
331
1DC6
  5
2319
331
2476
  5
247B
331
2327
  5
2341
331
1DC2
  5
2289
331
2323
  5
233B
331
6C
  5
6C
331
68
  5
68
331
782
  5
782
331
64
  5
64
331
1471
  5
1866
331
60
  5
60
331
9B
  5
9B
331
1469
  5
1864
331
1DBE
  5
200A
331
1C39
  5
1DCF
331
186D
  5
1CC8
331
231F
  5
2337
331
1DBA
  5
1FCC
331
1869
  5
1CC3
331
246A
  5
247A
331
231B
  5
2333
331
1DB6
  5
1FA2
331
2317
  5
2330
331
5C
  5
5C
331
58
  5
58
331
422
  5
422
331
1465
  5
1863
331
93
  5
93
331
1461
  5
1862
331
8F
  5
8F
331
1CCC
  5
1F61
331
8B
  5
8B
331
1B17
  5
1DC2
331
1CC8
  5
1DD8
331
1451
  5
179E
331
1CC4
  5
1DD4
331
1861
  5
1C22
331
1A00
  5
1DB6
331
1DAE
  5
1F64
331
185D
  5
1C0B
331
1918
  5
1DAF
331
2382
  5
185D
331
87
  5
87
331
83
  5
83
331
7F
  5
7F
331
1A6B
  5
1DC1
331
7B
  5
7B
331
16E3
  5
191B
331
179E
  5
1A15
331
179A
  5
1A09
331
1DD5
  5
2329
331
233A
  5
2470
331
1DD1
  5
2325
331
2336
  5
243F
331
1DCD
  5
2321
331
2332
  5
23F4
331
1DC9
  5
231D
  0
XRECORD
  5
D3
102
{ACAD_REACTORS
330
A2
102
}
330
A2
100
AcDbXrecord
280
     1
340
1A
  0
ACDBDETAILVIEWSTYLE
  5
1D23
102
{ACAD_REACTORS
330
1D22
102
}
330
1D22
100
AcDbModelDocViewStyle
 70
     0
  3
Imperial24
290
     0
100
AcDbDetailViewStyle
 70
     0
 71
     0
 90
        3
 71
     1
340
11
 62
   256
 40
0.24
340
0
 62
   256
 40
0.24
300

 40
0.36
280
     3
 71
     2
340
15
 90
       25
 62
   256
 71
     3
340
11
 62
   256
 40
0.24
 90
        1
 40
0.75
 90
        1
300
%<\AcVar ViewType \f "%tc1">% %<\AcVar ViewDetailId>%\PVARIA %<\AcVar ViewScale \f "%sn">%
 71
     4
340
15
 90
       25
 62
   256
340
15
 90
       25
 62
   256
280
     0
  0
LAYOUT
  5
1D
102
{ACAD_REACTORS
330
19
102
}
330
19
100
AcDbPlotSettings
  1

  2
\\NT_WORK01\HP LaserJet 5000 PCL 6
  4

  6

 40
0.0
 41
0.0
 42
0.0
 43
0.0
 44
0.0
 45
0.0
 46
0.0
 47
0.0
 48
0.0
 49
0.0
140
0.0
141
0.0
142
1.0
143
1.0
 70
   688
 72
     0
 73
     0
 74
     5
  7

 75
    16
147
1.0
 76
     0
 77
     2
 78
   300
148
0.0
149
0.0
100
AcDbLayout
  1
Layout1
 70
     0
 71
     1
 10
0.0
 20
0.0
 11
12.0
 21
9.0
 12
0.0
 22
0.0
 32
0.0
 14
1.000000000000000E+20
 24
1.000000000000000E+20
 34
1.000000000000000E+20
 15
-1.000000000000000E+20
 25
-1.000000000000000E+20
 35
-1.000000000000000E+20
146
0.0
 13
0.0
 23
0.0
 33
0.0
 16
1.0
 26
0.0
 36
0.0
 17
0.0
 27
1.0
 37
0.0
 76
     0
330
1A
  0
LAYOUT
  5
21
102
{ACAD_XDICTIONARY
360
254D
102
}
102
{ACAD_REACTORS
330
19
102
}
330
19
100
AcDbPlotSettings
  1

  2
none_device
  4
Letter_(8.50_x_11.00_Inches)
  6

 40
6.349999904632568
 41
6.349999904632568
 42
6.350006103515625
 43
6.350006103515625
 44
215.8999938964844
 45
279.3999938964844
 46
0.0
 47
0.0
 48
0.0
 49
0.0
140
0.0
141
0.0
142
1.0
143
1.0
 70
 11952
 72
     0
 73
     1
 74
     0
  7

 75
     0
147
1.0
 76
     0
 77
     2
 78
   300
148
2299.19079060625
149
89.3907803160642
100
AcDbLayout
  1
Model
 70
     1
 71
     0
 10
0.0
 20
0.0
 11
12.0
 21
9.0
 12
0.0
 22
0.0
 32
0.0
 14
0.0
 24
0.0
 34
0.0
 15
0.0
 25
0.0
 35
0.0
146
0.0
 13
0.0
 23
0.0
 33
0.0
 16
1.0
 26
0.0
 36
0.0
 17
0.0
 27
1.0
 37
0.0
 76
     0
330
1E
331
1CCF
  0
MATERIAL
  5
1CE0
102
{ACAD_XDICTIONARY
360
1CE1
102
}
102
{ACAD_REACTORS
330
DE
102
}
330
DE
100
AcDbMaterial
  1
ByBlock
 72
     0
 43
0.0208333333333333
 43
0.0
 43
0.0
 43
0.0
 43
0.0
 43
0.0208333333333333
 43
0.0
 43
0.0
 43
0.0
 43
0.0
 43
1.0
 43
0.0
 43
0.0
 43
0.0
 43
0.0
 43
1.0
 77
     0
 47
0.0208333333333333
 47
0.0
 47
0.0
 47
0.0
 47
0.0
 47
0.0208333333333333
 47
0.0
 47
0.0
 47
0.0
 47
0.0
 47
1.0
 47
0.0
 47
0.0
 47
0.0
 47
0.0
 47
1.0
171
     0
 49
0.0208333333333333
 49
0.0
 49
0.0
 49
0.0
 49
0.0
 49
0.0208333333333333
 49
0.0
 49
0.0
 49
0.0
 49
0.0
 49
1.0
 49
0.0
 49
0.0
 49
0.0
 49
0.0
 49
1.0
175
     0
142
0.0208333333333333
142
0.0
142
0.0
142
0.0
142
0.0
142
0.0208333333333333
142
0.0
142
0.0
142
0.0
142
0.0
142
1.0
142
0.0
142
0.0
142
0.0
142
0.0
142
1.0
179
     0
144
0.0208333333333333
144
0.0
144
0.0
144
0.0
144
0.0
144
0.0208333333333333
144
0.0
144
0.0
144
0.0
144
0.0
144
1.0
144
0.0
144
0.0
144
0.0
144
0.0
144
1.0
147
0.0208333333333333
147
0.0
147
0.0
147
0.0
147
0.0
147
0.0208333333333333
147
0.0
147
0.0
147
0.0
147
0.0
147
1.0
147
0.0
147
0.0
147
0.0
147
0.0
147
1.0
  0
MATERIAL
  5
1CD8
102
{ACAD_XDICTIONARY
360
1CD9
102
}
102
{ACAD_REACTORS
330
DE
102
}
330
DE
100
AcDbMaterial
  1
ByLayer
 72
     0
 43
0.0208333333333333
 43
0.0
 43
0.0
 43
0.0
 43
0.0
 43
0.0208333333333333
 43
0.0
 43
0.0
 43
0.0
 43
0.0
 43
1.0
 43
0.0
 43
0.0
 43
0.0
 43
0.0
 43
1.0
 77
     0
 47
0.0208333333333333
 47
0.0
 47
0.0
 47
0.0
 47
0.0
 47
0.0208333333333333
 47
0.0
 47
0.0
 47
0.0
 47
0.0
 47
1.0
 47
0.0
 47
0.0
 47
0.0
 47
0.0
 47
1.0
171
     0
 49
0.0208333333333333
 49
0.0
 49
0.0
 49
0.0
 49
0.0
 49
0.0208333333333333
 49
0.0
 49
0.0
 49
0.0
 49
0.0
 49
1.0
 49
0.0
 49
0.0
 49
0.0
 49
0.0
 49
1.0
175
     0
142
0.0208333333333333
142
0.0
142
0.0
142
0.0
142
0.0
142
0.0208333333333333
142
0.0
142
0.0
142
0.0
142
0.0
142
1.0
142
0.0
142
0.0
142
0.0
142
0.0
142
1.0
179
     0
144
0.0208333333333333
144
0.0
144
0.0
144
0.0
144
0.0
144
0.0208333333333333
144
0.0
144
0.0
144
0.0
144
0.0
144
1.0
144
0.0
144
0.0
144
0.0
144
0.0
144
1.0
147
0.0208333333333333
147
0.0
147
0.0
147
0.0
147
0.0
147
0.0208333333333333
147
0.0
147
0.0
147
0.0
147
0.0
147
1.0
147
0.0
147
0.0
147
0.0
147
0.0
147
1.0
  0
MATERIAL
  5
1CE8
102
{ACAD_XDICTIONARY
360
1CE9
102
}
102
{ACAD_REACTORS
330
DE
102
}
330
DE
100
AcDbMaterial
  1
Global
 72
     0
 43
0.0208333333333333
 43
0.0
 43
0.0
 43
0.0
 43
0.0
 43
0.0208333333333333
 43
0.0
 43
0.0
 43
0.0
 43
0.0
 43
1.0
 43
0.0
 43
0.0
 43
0.0
 43
0.0
 43
1.0
 77
     0
 47
0.0208333333333333
 47
0.0
 47
0.0
 47
0.0
 47
0.0
 47
0.0208333333333333
 47
0.0
 47
0.0
 47
0.0
 47
0.0
 47
1.0
 47
0.0
 47
0.0
 47
0.0
 47
0.0
 47
1.0
171
     0
 49
0.0208333333333333
 49
0.0
 49
0.0
 49
0.0
 49
0.0
 49
0.0208333333333333
 49
0.0
 49
0.0
 49
0.0
 49
0.0
 49
1.0
 49
0.0
 49
0.0
 49
0.0
 49
0.0
 49
1.0
175
     0
142
0.0208333333333333
142
0.0
142
0.0
142
0.0
142
0.0
142
0.0208333333333333
142
0.0
142
0.0
142
0.0
142
0.0
142
1.0
142
0.0
142
0.0
142
0.0
142
0.0
142
1.0
179
     0
144
0.0208333333333333
144
0.0
144
0.0
144
0.0
144
0.0
144
0.0208333333333333
144
0.0
144
0.0
144
0.0
144
0.0
144
1.0
144
0.0
144
0.0
144
0.0
144
0.0
144
1.0
147
0.0208333333333333
147
0.0
147
0.0
147
0.0
147
0.0
147
0.0208333333333333
147
0.0
147
0.0
147
0.0
147
0.0
147
1.0
147
0.0
147
0.0
147
0.0
147
0.0
147
1.0
  0
MLEADERSTYLE
  5
1D1E
102
{ACAD_REACTORS
330
1D1D
102
}
330
1D1D
100
AcDbMLeaderStyle
179
     2
170
     2
171
     1
172
     0
 90
        2
 40
0.0
 41
0.0
173
     1
 91
-1056964608
340
13
 92
       -2
290
     1
 42
0.09
291
     1
 43
0.36
  3
Standard
 44
0.18
300

342
11
174
     1
178
     6
175
     1
176
     0
 93
-1056964608
 45
0.18
292
     0
297
     0
 46
0.18
 94
-1056964608
 47
1.0
 49
1.0
140
1.0
293
     1
141
0.0
294
     1
177
     0
142
1.0
295
     0
296
     0
143
0.125
271
     0
272
     9
273
     9
298
     1
  0
MLINESTYLE
  5
17
102
{ACAD_REACTORS
330
16
102
}
330
16
100
AcDbMlineStyle
  2
STANDARD
 70
     0
  3

 62
   256
 51
90.0
 52
90.0
 71
     2
 49
0.5
 62
   256
  6
BYLAYER
 49
-0.5
 62
   256
  6
BYLAYER
  0
ACDBPLACEHOLDER
  5
F
102
{ACAD_REACTORS
330
E
102
}
330
E
  0
SCALE
  5
1D0C
102
{ACAD_REACTORS
330
1D0B
102
}
330
1D0B
100
AcDbScale
 70
     0
300
1:1
140
1.0
141
1.0
290
     1
  0
SCALE
  5
1D0D
102
{ACAD_REACTORS
330
1D0B
102
}
330
1D0B
100
AcDbScale
 70
     0
300
1/128" = 1'-0"
140
0.0078125
141
12.0
290
     0
  0
SCALE
  5
1D0E
102
{ACAD_REACTORS
330
1D0B
102
}
330
1D0B
100
AcDbScale
 70
     0
300
1/64" = 1'-0"
140
0.015625
141
12.0
290
     0
  0
SCALE
  5
1D0F
102
{ACAD_REACTORS
330
1D0B
102
}
330
1D0B
100
AcDbScale
 70
     0
300
1/32" = 1'-0"
140
0.03125
141
12.0
290
     0
  0
SCALE
  5
1D10
102
{ACAD_REACTORS
330
1D0B
102
}
330
1D0B
100
AcDbScale
 70
     0
300
1/16" = 1'-0"
140
0.0625
141
12.0
290
     0
  0
SCALE
  5
1D11
102
{ACAD_REACTORS
330
1D0B
102
}
330
1D0B
100
AcDbScale
 70
     0
300
3/32" = 1'-0"
140
0.09375
141
12.0
290
     0
  0
SCALE
  5
1D12
102
{ACAD_REACTORS
330
1D0B
102
}
330
1D0B
100
AcDbScale
 70
     0
300
1/8" = 1'-0"
140
0.125
141
12.0
290
     0
  0
SCALE
  5
1D13
102
{ACAD_REACTORS
330
1D0B
102
}
330
1D0B
100
AcDbScale
 70
     0
300
3/16" = 1'-0"
140
0.1875
141
12.0
290
     0
  0
SCALE
  5
1D14
102
{ACAD_REACTORS
330
1D0B
102
}
330
1D0B
100
AcDbScale
 70
     0
300
1/4" = 1'-0"
140
0.25
141
12.0
290
     0
  0
SCALE
  5
1D15
102
{ACAD_REACTORS
330
1D0B
102
}
330
1D0B
100
AcDbScale
 70
     0
300
3/8" = 1'-0"
140
0.375
141
12.0
290
     0
  0
SCALE
  5
1D16
102
{ACAD_REACTORS
330
1D0B
102
}
330
1D0B
100
AcDbScale
 70
     0
300
1/2" = 1'-0"
140
0.5
141
12.0
290
     0
  0
SCALE
  5
1D17
102
{ACAD_REACTORS
330
1D0B
102
}
330
1D0B
100
AcDbScale
 70
     0
300
3/4" = 1'-0"
140
0.75
141
12.0
290
     0
  0
SCALE
  5
1D18
102
{ACAD_REACTORS
330
1D0B
102
}
330
1D0B
100
AcDbScale
 70
     0
300
1" = 1'-0"
140
1.0
141
12.0
290
     0
  0
SCALE
  5
1D19
102
{ACAD_REACTORS
330
1D0B
102
}
330
1D0B
100
AcDbScale
 70
     0
300
1-1/2" = 1'-0"
140
1.5
141
12.0
290
     0
  0
SCALE
  5
1D1A
102
{ACAD_REACTORS
330
1D0B
102
}
330
1D0B
100
AcDbScale
 70
     0
300
3" = 1'-0"
140
3.0
141
12.0
290
     0
  0
SCALE
  5
1D1B
102
{ACAD_REACTORS
330
1D0B
102
}
330
1D0B
100
AcDbScale
 70
     0
300
6" = 1'-0"
140
6.0
141
12.0
290
     0
  0
SCALE
  5
1D1C
102
{ACAD_REACTORS
330
1D0B
102
}
330
1D0B
100
AcDbScale
 70
     0
300
1'-0" = 1'-0"
140
12.0
141
12.0
290
     0
  0
ACDBSECTIONVIEWSTYLE
  5
1D21
102
{ACAD_REACTORS
330
1D1F
102
}
330
1D1F
100
AcDbModelDocViewStyle
 70
     0
  3
Imperial24
290
     0
100
AcDbSectionViewStyle
 70
     0
 71
     0
 90
       78
 71
     1
340
11
 62
   256
 40
0.24
340
0
340
0
 62
   256
 40
0.24
300
I, O, Q, S, X, Z
 40
0.48
 90
        3
 40
0.18
 90
        1
 71
     2
340
1D20
 90
       25
 62
   256
340
15
 90
       50
 62
   256
 40
0.24
 40
0.0
 40
0.24
 71
     3
340
11
 62
   256
 40
0.24
 90
        1
 40
0.75
 90
        1
300
%<\AcVar ViewType \f "%tc1">% %<\AcVar ViewSectionStartId>%-%<\AcVar ViewSectionEndId>%\PVARIA %<\AcVar ViewScale \f "%sn">%
 71
     4
 62
   256
 62
   257
300
ANSI31
 40
1.0
 90
        0
290
     0
290
     0
 90
        6
 40
0.0
 40
1.570796326794896
 40
0.2617993877991494
 40
1.308996938995747
 40
-0.2617993877991494
 40
1.832595714594046
  0
TABLESTYLE
  5
1D0A
102
{ACAD_XDICTIONARY
360
2540
102
}
102
{ACAD_REACTORS
330
1D09
102
}
330
1D09
100
AcDbTableStyle
280
     0
  3
Standard
 70
     0
 71
     0
 40
0.06
 41
0.06
280
     0
281
     0
  7
STANDARD
140
0.18
170
     2
 62
     0
 63
     7
283
     0
 90
      512
 91
        0
  1

274
    -2
284
     1
 64
     0
275
    -2
285
     1
 65
     0
276
    -2
286
     1
 66
     0
277
    -2
287
     1
 67
     0
278
    -2
288
     1
 68
     0
279
    -2
289
     1
 69
     0
  7
STANDARD
140
0.25
170
     5
 62
     0
 63
     7
283
     0
 90
      512
 91
        0
  1

274
    -2
284
     1
 64
     0
275
    -2
285
     1
 65
     0
276
    -2
286
     1
 66
     0
277
    -2
287
     1
 67
     0
278
    -2
288
     1
 68
     0
279
    -2
289
     1
 69
     0
  7
STANDARD
140
0.18
170
     5
 62
     0
 63
     7
283
     0
 90
      512
 91
        0
  1

274
    -2
284
     1
 64
     0
275
    -2
285
     1
 65
     0
276
    -2
286
     1
 66
     0
277
    -2
287
     1
 67
     0
278
    -2
288
     1
 68
     0
279
    -2
289
     1
 69
     0
  0
VISUALSTYLE
  5
1CF6
102
{ACAD_REACTORS
330
1CF0
102
}
330
1CF0
100
AcDbVisualStyle
  2
2dWireframe
 70
     4
177
     3
291
     0
 70
    58
 90
        0
176
     1
 90
        2
176
     1
 90
        0
176
     1
 90
        0
176
     1
 40
0.6
176
     1
 40
30.0
176
     1
 62
     7
420
 16777215
176
     1
 90
        1
176
     1
 90
        4
176
     1
 62
     7
176
     1
 62
   257
176
     1
 90
        1
176
     1
 90
        1
176
     1
 40
1.0
176
     1
 90
        0
176
     1
 62
   257
176
     1
 40
1.0
176
     1
 90
        1
176
     1
 90
        6
176
     1
 90
        2
176
     1
 62
     7
176
     1
 90
        5
176
     1
 90
        0
176
     1
 90
        0
176
     1
290
     0
176
     1
 90
        1
176
     1
 40
0.0
176
     1
 90
        0
176
     1
290
     1
176
     1
290
     1
176
     1
290
     0
176
     1
290
     0
176
     1
290
     0
176
     1
290
     0
176
     1
290
     0
176
     1
290
     0
176
     1
290
     0
176
     1
 90
       50
176
     1
 40
0.0
176
     1
 40
1.0
176
     1
 90
        0
176
     1
 62
    18
420
        0
176
     1
 90
       50
176
     1
 90
        3
176
     1
 62
     5
420
      255
176
     1
290
     0
176
     1
 90
       50
176
     1
 90
       50
176
     1
 90
       50
176
     1
290
     0
176
     1
 90
       50
176
     1
 62
   256
176
     0
 40
1.0
176
     0
 90
        2
176
     1
  1
strokes_ogs.tif
176
     1
290
     0
176
     1
 40
1.0
176
     1
 40
1.0
176
     1
  0
VISUALSTYLE
  5
1CF5
102
{ACAD_REACTORS
330
1CF0
102
}
330
1CF0
100
AcDbVisualStyle
  2
Basic
 70
     7
177
     3
291
     1
 70
    58
 90
        1
176
     1
 90
        0
176
     1
 90
        1
176
     1
 90
        0
176
     1
 40
0.6
176
     1
 40
30.0
176
     1
 62
     7
420
 16777215
176
     1
 90
        0
176
     1
 90
        4
176
     1
 62
     7
176
     1
 62
   257
176
     1
 90
        1
176
     1
 90
        1
176
     1
 40
1.0
176
     1
 90
        8
176
     1
 62
     7
176
     1
 40
1.0
176
     1
 90
        1
176
     1
 90
        6
176
     1
 90
        2
176
     1
 62
     7
176
     1
 90
        5
176
     1
 90
        0
176
     1
 90
        0
176
     1
290
     0
176
     1
 90
        1
176
     1
 40
0.0
176
     1
 90
        0
176
     1
290
     0
176
     1
290
     1
176
     1
290
     1
176
     1
290
     0
176
     1
290
     0
176
     1
290
     0
176
     1
290
     0
176
     1
290
     0
176
     1
290
     0
176
     1
 90
       50
176
     1
 40
0.0
176
     1
 40
1.0
176
     1
 90
        0
176
     1
 62
    18
420
        0
176
     1
 90
       50
176
     1
 90
        3
176
     1
 62
     5
420
      255
176
     1
290
     0
176
     1
 90
       50
176
     1
 90
       50
176
     1
 90
       50
176
     1
290
     0
176
     1
 90
       50
176
     1
 62
   256
176
     0
 40
1.0
176
     0
 90
        2
176
     1
  1
strokes_ogs.tif
176
     1
290
     0
176
     1
 40
1.0
176
     1
 40
1.0
176
     1
  0
VISUALSTYLE
  5
1CFC
102
{ACAD_REACTORS
330
1CF0
102
}
330
1CF0
100
AcDbVisualStyle
  2
Brighten
 70
    12
177
     3
291
     1
 70
    58
 90
        2
176
     1
 90
        2
176
     1
 90
        0
176
     1
 90
        0
176
     1
 40
0.6
176
     1
 40
30.0
176
     1
 62
     7
420
 16777215
176
     1
 90
        1
176
     1
 90
        4
176
     1
 62
     7
176
     1
 62
   257
176
     1
 90
        1
176
     1
 90
        1
176
     1
 40
1.0
176
     1
 90
        8
176
     1
 62
     7
176
     1
 40
1.0
176
     1
 90
        1
176
     1
 90
        6
176
     1
 90
        2
176
     1
 62
     7
176
     1
 90
        5
176
     1
 90
        0
176
     1
 90
        0
176
     1
290
     0
176
     1
 90
        1
176
     1
 40
50.0
176
     1
 90
        0
176
     1
290
     0
176
     1
290
     1
176
     1
290
     1
176
     1
290
     0
176
     1
290
     0
176
     1
290
     0
176
     1
290
     0
176
     1
290
     0
176
     1
290
     0
176
     1
 90
       50
176
     1
 40
0.0
176
     1
 40
1.0
176
     1
 90
        0
176
     1
 62
    18
420
        0
176
     1
 90
       50
176
     1
 90
        3
176
     1
 62
     5
420
      255
176
     1
290
     0
176
     1
 90
       50
176
     1
 90
       50
176
     1
 90
       50
176
     1
290
     0
176
     1
 90
       50
176
     1
 62
   256
176
     0
 40
1.0
176
     0
 90
        2
176
     1
  1
strokes_ogs.tif
176
     1
290
     0
176
     1
 40
1.0
176
     1
 40
1.0
176
     1
  0
VISUALSTYLE
  5
1D00
102
{ACAD_REACTORS
330
1CF0
102
}
330
1CF0
100
AcDbVisualStyle
  2
ColorChange
 70
    16
177
     3
291
     1
 70
    58
 90
        2
176
     1
 90
        2
176
     1
 90
        3
176
     1
 90
        0
176
     1
 40
0.6
176
     1
 40
30.0
176
     1
 62
     8
420
  8421504
176
     1
 90
        1
176
     1
 90
        4
176
     1
 62
     7
176
     1
 62
   257
176
     1
 90
        1
176
     1
 90
        1
176
     1
 40
1.0
176
     1
 90
        8
176
     1
 62
     8
420
  8421504
176
     1
 40
1.0
176
     1
 90
        1
176
     1
 90
        6
176
     1
 90
        2
176
     1
 62
     7
176
     1
 90
        5
176
     1
 90
        0
176
     1
 90
        0
176
     1
290
     0
176
     1
 90
        1
176
     1
 40
0.0
176
     1
 90
        0
176
     1
290
     0
176
     1
290
     1
176
     1
290
     1
176
     1
290
     0
176
     1
290
     0
176
     1
290
     0
176
     1
290
     0
176
     1
290
     0
176
     1
290
     0
176
     1
 90
       50
176
     1
 40
0.0
176
     1
 40
1.0
176
     1
 90
        0
176
     1
 62
    18
420
        0
176
     1
 90
       50
176
     1
 90
        3
176
     1
 62
     5
420
      255
176
     1
290
     0
176
     1
 90
       50
176
     1
 90
       50
176
     1
 90
       50
176
     1
290
     0
176
     1
 90
       50
176
     1
 62
   256
176
     0
 40
1.0
176
     0
 90
        2
176
     1
  1
strokes_ogs.tif
176
     1
290
     0
176
     1
 40
1.0
176
     1
 40
1.0
176
     1
  0
VISUALSTYLE
  5
1CF9
102
{ACAD_REACTORS
330
1CF0
102
}
330
1CF0
100
AcDbVisualStyle
  2
Conceptual
 70
     9
177
     3
291
     0
 70
    58
 90
        3
176
     1
 90
        2
176
     1
 90
        0
176
     1
 90
        0
176
     1
 40
0.6
176
     1
 40
30.0
176
     1
 62
     7
420
 16777215
176
     1
 90
        2
176
     1
 90
        2
176
     1
 62
     7
176
     1
 62
   257
176
     1
 90
        1
176
     1
 90
        1
176
     1
 40
179.0
176
     1
 90
        8
176
     1
 62
     7
176
     1
 40
1.0
176
     1
 90
        1
176
     1
 90
        6
176
     1
 90
        2
176
     1
 62
     7
176
     1
 90
        3
176
     1
 90
        0
176
     1
 90
        0
176
     1
290
     0
176
     1
 90
        1
176
     1
 40
0.0
176
     1
 90
        0
176
     1
290
     0
176
     1
290
     1
176
     1
290
     1
176
     1
290
     0
176
     1
290
     0
176
     1
290
     0
176
     1
290
     0
176
     1
290
     0
176
     1
290
     0
176
     1
 90
       50
176
     1
 40
0.0
176
     1
 40
1.0
176
     1
 90
        0
176
     1
 62
    18
420
        0
176
     1
 90
       50
176
     1
 90
        3
176
     1
 62
     5
420
      255
176
     1
290
     0
176
     1
 90
       50
176
     1
 90
       50
176
     1
 90
       50
176
     1
290
     0
176
     1
 90
       50
176
     1
 62
   256
176
     0
 40
1.0
176
     0
 90
        2
176
     1
  1
strokes_ogs.tif
176
     1
290
     0
176
     1
 40
1.0
176
     1
 40
1.0
176
     1
  0
VISUALSTYLE
  5
1CFB
102
{ACAD_REACTORS
330
1CF0
102
}
330
1CF0
100
AcDbVisualStyle
  2
Dim
 70
    11
177
     3
291
     1
 70
    58
 90
        2
176
     1
 90
        2
176
     1
 90
        0
176
     1
 90
        0
176
     1
 40
0.6
176
     1
 40
30.0
176
     1
 62
     7
420
 16777215
176
     1
 90
        1
176
     1
 90
        4
176
     1
 62
     7
176
     1
 62
   257
176
     1
 90
        1
176
     1
 90
        1
176
     1
 40
1.0
176
     1
 90
        8
176
     1
 62
     7
176
     1
 40
1.0
176
     1
 90
        1
176
     1
 90
        6
176
     1
 90
        2
176
     1
 62
     7
176
     1
 90
        5
176
     1
 90
        0
176
     1
 90
        0
176
     1
290
     0
176
     1
 90
        1
176
     1
 40
-50.0
176
     1
 90
        0
176
     1
290
     0
176
     1
290
     1
176
     1
290
     1
176
     1
290
     0
176
     1
290
     0
176
     1
290
     0
176
     1
290
     0
176
     1
290
     0
176
     1
290
     0
176
     1
 90
       50
176
     1
 40
0.0
176
     1
 40
1.0
176
     1
 90
        0
176
     1
 62
    18
420
        0
176
     1
 90
       50
176
     1
 90
        3
176
     1
 62
     5
420
      255
176
     1
290
     0
176
     1
 90
       50
176
     1
 90
       50
176
     1
 90
       50
176
     1
290
     0
176
     1
 90
       50
176
     1
 62
   256
176
     0
 40
1.0
176
     0
 90
        2
176
     1
  1
strokes_ogs.tif
176
     1
290
     0
176
     1
 40
1.0
176
     1
 40
1.0
176
     1
  0
VISUALSTYLE
  5
1D08
102
{ACAD_REACTORS
330
1CF0
102
}
330
1CF0
100
AcDbVisualStyle
  2
EdgeColorOff
 70
    22
177
     3
291
     1
 70
    58
 90
        2
176
     0
 90
        2
176
     0
 90
        0
176
     0
 90
        0
176
     0
 40
0.6
176
     0
 40
30.0
176
     0
 62
     7
420
 16777215
176
     0
 90
        1
176
     0
 90
        4
176
     0
 62
     7
176
     0
 62
   257
176
     0
 90
        1
176
     0
 90
        1
176
     0
 40
1.0
176
     0
 90
        8
176
     2
 62
     7
176
     0
 40
1.0
176
     0
 90
        1
176
     0
 90
        6
176
     0
 90
        2
176
     0
 62
     7
176
     0
 90
        5
176
     0
 90
        0
176
     0
 90
        0
176
     0
290
     0
176
     0
 90
        1
176
     0
 40
0.0
176
     0
 90
        0
176
     0
290
     0
176
     0
290
     1
176
     0
290
     1
176
     0
290
     0
176
     0
290
     0
176
     0
290
     0
176
     0
290
     0
176
     0
290
     0
176
     0
290
     0
176
     0
 90
       50
176
     0
 40
0.0
176
     0
 40
1.0
176
     0
 90
        0
176
     0
 62
    18
420
        0
176
     0
 90
       50
176
     0
 90
        3
176
     0
 62
     5
420
      255
176
     0
290
     0
176
     0
 90
       50
176
     0
 90
       50
176
     0
 90
       50
176
     0
290
     0
176
     0
 90
       50
176
     0
 62
   256
176
     0
 40
1.0
176
     0
 90
        2
176
     0
  1
strokes_ogs.tif
176
     0
290
     0
176
     0
 40
1.0
176
     0
 40
1.0
176
     0
  0
VISUALSTYLE
  5
1CFF
102
{ACAD_REACTORS
330
1CF0
102
}
330
1CF0
100
AcDbVisualStyle
  2
Facepattern
 70
    15
177
     3
291
     1
 70
    58
 90
        2
176
     1
 90
        2
176
     1
 90
        0
176
     1
 90
        0
176
     1
 40
0.6
176
     1
 40
30.0
176
     1
 62
     7
420
 16777215
176
     1
 90
        1
176
     1
 90
        4
176
     1
 62
     7
176
     1
 62
   257
176
     1
 90
        1
176
     1
 90
        1
176
     1
 40
1.0
176
     1
 90
        8
176
     1
 62
     7
176
     1
 40
1.0
176
     1
 90
        1
176
     1
 90
        6
176
     1
 90
        2
176
     1
 62
     7
176
     1
 90
        5
176
     1
 90
        0
176
     1
 90
        0
176
     1
290
     0
176
     1
 90
        1
176
     1
 40
0.0
176
     1
 90
        0
176
     1
290
     0
176
     1
290
     1
176
     1
290
     1
176
     1
290
     0
176
     1
290
     0
176
     1
290
     0
176
     1
290
     0
176
     1
290
     0
176
     1
290
     0
176
     1
 90
       50
176
     1
 40
0.0
176
     1
 40
1.0
176
     1
 90
        0
176
     1
 62
    18
420
        0
176
     1
 90
       50
176
     1
 90
        3
176
     1
 62
     5
420
      255
176
     1
290
     0
176
     1
 90
       50
176
     1
 90
       50
176
     1
 90
       50
176
     1
290
     0
176
     1
 90
       50
176
     1
 62
   256
176
     0
 40
1.0
176
     0
 90
        2
176
     1
  1
strokes_ogs.tif
176
     1
290
     0
176
     1
 40
1.0
176
     1
 40
1.0
176
     1
  0
VISUALSTYLE
  5
1CF1
102
{ACAD_REACTORS
330
1CF0
102
}
330
1CF0
100
AcDbVisualStyle
  2
Flat
 70
     0
177
     3
291
     1
 70
    58
 90
        2
176
     1
 90
        1
176
     1
 90
        1
176
     1
 90
        2
176
     1
 40
0.6
176
     1
 40
30.0
176
     1
 62
     7
420
 16777215
176
     1
 90
        0
176
     1
 90
        0
176
     1
 62
     7
176
     1
 62
   257
176
     1
 90
        1
176
     1
 90
        1
176
     1
 40
1.0
176
     1
 90
        8
176
     1
 62
     7
176
     1
 40
1.0
176
     1
 90
        1
176
     1
 90
        6
176
     1
 90
        2
176
     1
 62
     7
176
     1
 90
        5
176
     1
 90
        0
176
     1
 90
        0
176
     1
290
     0
176
     1
 90
       13
176
     1
 40
0.0
176
     1
 90
        0
176
     1
290
     0
176
     1
290
     1
176
     1
290
     1
176
     1
290
     0
176
     1
290
     0
176
     1
290
     0
176
     1
290
     0
176
     1
290
     0
176
     1
290
     0
176
     1
 90
       50
176
     1
 40
0.0
176
     1
 40
1.0
176
     1
 90
        0
176
     1
 62
    18
420
        0
176
     1
 90
       50
176
     1
 90
        3
176
     1
 62
     5
420
      255
176
     1
290
     0
176
     1
 90
       50
176
     1
 90
       50
176
     1
 90
       50
176
     1
290
     0
176
     1
 90
       50
176
     1
 62
   256
176
     0
 40
1.0
176
     0
 90
        2
176
     1
  1
strokes_ogs.tif
176
     1
290
     0
176
     1
 40
1.0
176
     1
 40
1.0
176
     1
  0
VISUALSTYLE
  5
1CF2
102
{ACAD_REACTORS
330
1CF0
102
}
330
1CF0
100
AcDbVisualStyle
  2
FlatWithEdges
 70
     1
177
     3
291
     1
 70
    58
 90
        2
176
     1
 90
        1
176
     1
 90
        1
176
     1
 90
        2
176
     1
 40
0.6
176
     1
 40
30.0
176
     1
 62
     7
420
 16777215
176
     1
 90
        1
176
     1
 90
        0
176
     1
 62
     7
176
     1
 62
   257
176
     1
 90
        1
176
     1
 90
        1
176
     1
 40
1.0
176
     1
 90
        0
176
     1
 62
   257
176
     1
 40
1.0
176
     1
 90
        1
176
     1
 90
        6
176
     1
 90
        2
176
     1
 62
     7
176
     1
 90
        5
176
     1
 90
        0
176
     1
 90
        0
176
     1
290
     0
176
     1
 90
       13
176
     1
 40
0.0
176
     1
 90
        0
176
     1
290
     0
176
     1
290
     1
176
     1
290
     1
176
     1
290
     0
176
     1
290
     0
176
     1
290
     0
176
     1
290
     0
176
     1
290
     0
176
     1
290
     0
176
     1
 90
       50
176
     1
 40
0.0
176
     1
 40
1.0
176
     1
 90
        0
176
     1
 62
    18
420
        0
176
     1
 90
       50
176
     1
 90
        3
176
     1
 62
     5
420
      255
176
     1
290
     0
176
     1
 90
       50
176
     1
 90
       50
176
     1
 90
       50
176
     1
290
     0
176
     1
 90
       50
176
     1
 62
   256
176
     0
 40
1.0
176
     0
 90
        2
176
     1
  1
strokes_ogs.tif
176
     1
290
     0
176
     1
 40
1.0
176
     1
 40
1.0
176
     1
  0
VISUALSTYLE
  5
1CF3
102
{ACAD_REACTORS
330
1CF0
102
}
330
1CF0
100
AcDbVisualStyle
  2
Gouraud
 70
     2
177
     3
291
     1
 70
    58
 90
        2
176
     1
 90
        2
176
     1
 90
        1
176
     1
 90
        2
176
     1
 40
0.6
176
     1
 40
30.0
176
     1
 62
     7
420
 16777215
176
     1
 90
        0
176
     1
 90
        0
176
     1
 62
     7
176
     1
 62
   257
176
     1
 90
        1
176
     1
 90
        1
176
     1
 40
1.0
176
     1
 90
        0
176
     1
 62
     7
176
     1
 40
1.0
176
     1
 90
        1
176
     1
 90
        6
176
     1
 90
        2
176
     1
 62
     7
176
     1
 90
        5
176
     1
 90
        0
176
     1
 90
        0
176
     1
290
     0
176
     1
 90
       13
176
     1
 40
0.0
176
     1
 90
        0
176
     1
290
     0
176
     1
290
     1
176
     1
290
     1
176
     1
290
     0
176
     1
290
     0
176
     1
290
     0
176
     1
290
     0
176
     1
290
     0
176
     1
290
     0
176
     1
 90
       50
176
     1
 40
0.0
176
     1
 40
1.0
176
     1
 90
        0
176
     1
 62
    18
420
        0
176
     1
 90
       50
176
     1
 90
        3
176
     1
 62
     5
420
      255
176
     1
290
     0
176
     1
 90
       50
176
     1
 90
       50
176
     1
 90
       50
176
     1
290
     0
176
     1
 90
       50
176
     1
 62
   256
176
     0
 40
1.0
176
     0
 90
        2
176
     1
  1
strokes_ogs.tif
176
     1
290
     0
176
     1
 40
1.0
176
     1
 40
1.0
176
     1
  0
VISUALSTYLE
  5
1CF4
102
{ACAD_REACTORS
330
1CF0
102
}
330
1CF0
100
AcDbVisualStyle
  2
GouraudWithEdges
 70
     3
177
     3
291
     1
 70
    58
 90
        2
176
     1
 90
        2
176
     1
 90
        1
176
     1
 90
        2
176
     1
 40
0.6
176
     1
 40
30.0
176
     1
 62
     7
420
 16777215
176
     1
 90
        1
176
     1
 90
        0
176
     1
 62
     7
176
     1
 62
   257
176
     1
 90
        1
176
     1
 90
        1
176
     1
 40
1.0
176
     1
 90
        0
176
     1
 62
   257
176
     1
 40
1.0
176
     1
 90
        1
176
     1
 90
        6
176
     1
 90
        2
176
     1
 62
     7
176
     1
 90
        5
176
     1
 90
        0
176
     1
 90
        0
176
     1
290
     0
176
     1
 90
       13
176
     1
 40
0.0
176
     1
 90
        0
176
     1
290
     0
176
     1
290
     1
176
     1
290
     1
176
     1
290
     0
176
     1
290
     0
176
     1
290
     0
176
     1
290
     0
176
     1
290
     0
176
     1
290
     0
176
     1
 90
       50
176
     1
 40
0.0
176
     1
 40
1.0
176
     1
 90
        0
176
     1
 62
    18
420
        0
176
     1
 90
       50
176
     1
 90
        3
176
     1
 62
     5
420
      255
176
     1
290
     0
176
     1
 90
       50
176
     1
 90
       50
176
     1
 90
       50
176
     1
290
     0
176
     1
 90
       50
176
     1
 62
   256
176
     0
 40
1.0
176
     0
 90
        2
176
     1
  1
strokes_ogs.tif
176
     1
290
     0
176
     1
 40
1.0
176
     1
 40
1.0
176
     1
  0
VISUALSTYLE
  5
1CF8
102
{ACAD_REACTORS
330
1CF0
102
}
330
1CF0
100
AcDbVisualStyle
  2
Hidden
 70
     6
177
     3
291
     0
 70
    58
 90
        1
176
     1
 90
        2
176
     1
 90
        2
176
     1
 90
        0
176
     1
 40
0.6
176
     1
 40
30.0
176
     1
 62
     7
420
 16777215
176
     1
 90
        2
176
     1
 90
        2
176
     1
 62
     7
176
     1
 62
   257
176
     1
 90
        2
176
     1
 90
        1
176
     1
 40
40.0
176
     1
 90
        0
176
     1
 62
   257
176
     1
 40
1.0
176
     1
 90
        1
176
     1
 90
        6
176
     1
 90
        2
176
     1
 62
     7
176
     1
 90
        3
176
     1
 90
        0
176
     1
 90
        0
176
     1
290
     0
176
     1
 90
        1
176
     1
 40
0.0
176
     1
 90
        0
176
     1
290
     0
176
     1
290
     1
176
     1
290
     1
176
     1
290
     0
176
     1
290
     0
176
     1
290
     0
176
     1
290
     0
176
     1
290
     0
176
     1
290
     0
176
     1
 90
       50
176
     1
 40
0.0
176
     1
 40
1.0
176
     1
 90
        0
176
     1
 62
    18
420
        0
176
     1
 90
       50
176
     1
 90
        3
176
     1
 62
     5
420
      255
176
     1
290
     0
176
     1
 90
       50
176
     1
 90
       50
176
     1
 90
       50
176
     1
290
     0
176
     1
 90
       50
176
     1
 62
   256
176
     0
 40
1.0
176
     0
 90
        2
176
     1
  1
strokes_ogs.tif
176
     1
290
     0
176
     1
 40
1.0
176
     1
 40
1.0
176
     1
  0
VISUALSTYLE
  5
1D06
102
{ACAD_REACTORS
330
1CF0
102
}
330
1CF0
100
AcDbVisualStyle
  2
JitterOff
 70
    20
177
     3
291
     1
 70
    58
 90
        2
176
     0
 90
        2
176
     0
 90
        0
176
     0
 90
        0
176
     0
 40
0.6
176
     0
 40
30.0
176
     0
 62
     7
420
 16777215
176
     0
 90
        1
176
     0
 90
        4
176
     0
 62
     7
176
     0
 62
   257
176
     0
 90
        1
176
     0
 90
        1
176
     0
 40
1.0
176
     0
 90
       10
176
     2
 62
     7
176
     0
 40
1.0
176
     0
 90
        1
176
     0
 90
        6
176
     0
 90
        2
176
     0
 62
     7
176
     0
 90
        5
176
     0
 90
        0
176
     0
 90
        0
176
     0
290
     0
176
     0
 90
        1
176
     0
 40
0.0
176
     0
 90
        0
176
     0
290
     0
176
     0
290
     1
176
     0
290
     1
176
     0
290
     0
176
     0
290
     0
176
     0
290
     0
176
     0
290
     0
176
     0
290
     0
176
     0
290
     0
176
     0
 90
       50
176
     0
 40
0.0
176
     0
 40
1.0
176
     0
 90
        0
176
     0
 62
    18
420
        0
176
     0
 90
       50
176
     0
 90
        3
176
     0
 62
     5
420
      255
176
     0
290
     0
176
     0
 90
       50
176
     0
 90
       50
176
     0
 90
       50
176
     0
290
     0
176
     0
 90
       50
176
     0
 62
   256
176
     0
 40
1.0
176
     0
 90
        2
176
     0
  1
strokes_ogs.tif
176
     0
290
     0
176
     0
 40
1.0
176
     0
 40
1.0
176
     0
  0
VISUALSTYLE
  5
1CFE
102
{ACAD_REACTORS
330
1CF0
102
}
330
1CF0
100
AcDbVisualStyle
  2
Linepattern
 70
    14
177
     3
291
     1
 70
    58
 90
        2
176
     1
 90
        2
176
     1
 90
        0
176
     1
 90
        0
176
     1
 40
0.6
176
     1
 40
30.0
176
     1
 62
     7
420
 16777215
176
     1
 90
        1
176
     1
 90
        4
176
     1
 62
     7
176
     1
 62
   257
176
     1
 90
        7
176
     1
 90
        7
176
     1
 40
1.0
176
     1
 90
        8
176
     1
 62
     7
176
     1
 40
1.0
176
     1
 90
        1
176
     1
 90
        6
176
     1
 90
        2
176
     1
 62
     7
176
     1
 90
        5
176
     1
 90
        0
176
     1
 90
        0
176
     1
290
     0
176
     1
 90
        1
176
     1
 40
0.0
176
     1
 90
        0
176
     1
290
     0
176
     1
290
     1
176
     1
290
     1
176
     1
290
     0
176
     1
290
     0
176
     1
290
     0
176
     1
290
     0
176
     1
290
     0
176
     1
290
     0
176
     1
 90
       50
176
     1
 40
0.0
176
     1
 40
1.0
176
     1
 90
        0
176
     1
 62
    18
420
        0
176
     1
 90
       50
176
     1
 90
        3
176
     1
 62
     5
420
      255
176
     1
290
     0
176
     1
 90
       50
176
     1
 90
       50
176
     1
 90
       50
176
     1
290
     0
176
     1
 90
       50
176
     1
 62
   256
176
     0
 40
1.0
176
     0
 90
        2
176
     1
  1
strokes_ogs.tif
176
     1
290
     0
176
     1
 40
1.0
176
     1
 40
1.0
176
     1
  0
VISUALSTYLE
  5
1D07
102
{ACAD_REACTORS
330
1CF0
102
}
330
1CF0
100
AcDbVisualStyle
  2
OverhangOff
 70
    21
177
     3
291
     1
 70
    58
 90
        2
176
     0
 90
        2
176
     0
 90
        0
176
     0
 90
        0
176
     0
 40
0.6
176
     0
 40
30.0
176
     0
 62
     7
420
 16777215
176
     0
 90
        1
176
     0
 90
        4
176
     0
 62
     7
176
     0
 62
   257
176
     0
 90
        1
176
     0
 90
        1
176
     0
 40
1.0
176
     0
 90
        9
176
     2
 62
     7
176
     0
 40
1.0
176
     0
 90
        1
176
     0
 90
        6
176
     0
 90
        2
176
     0
 62
     7
176
     0
 90
        5
176
     0
 90
        0
176
     0
 90
        0
176
     0
290
     0
176
     0
 90
        1
176
     0
 40
0.0
176
     0
 90
        0
176
     0
290
     0
176
     0
290
     1
176
     0
290
     1
176
     0
290
     0
176
     0
290
     0
176
     0
290
     0
176
     0
290
     0
176
     0
290
     0
176
     0
290
     0
176
     0
 90
       50
176
     0
 40
0.0
176
     0
 40
1.0
176
     0
 90
        0
176
     0
 62
    18
420
        0
176
     0
 90
       50
176
     0
 90
        3
176
     0
 62
     5
420
      255
176
     0
290
     0
176
     0
 90
       50
176
     0
 90
       50
176
     0
 90
       50
176
     0
290
     0
176
     0
 90
       50
176
     0
 62
   256
176
     0
 40
1.0
176
     0
 90
        2
176
     0
  1
strokes_ogs.tif
176
     0
290
     0
176
     0
 40
1.0
176
     0
 40
1.0
176
     0
  0
VISUALSTYLE
  5
1CFA
102
{ACAD_REACTORS
330
1CF0
102
}
330
1CF0
100
AcDbVisualStyle
  2
Realistic
 70
     8
177
     3
291
     0
 70
    58
 90
        2
176
     1
 90
        2
176
     1
 90
        0
176
     1
 90
        2
176
     1
 40
0.6
176
     1
 40
30.0
176
     1
 62
     7
420
 16777215
176
     1
 90
        0
176
     1
 90
        0
176
     1
 62
     7
176
     1
 62
   257
176
     1
 90
        1
176
     1
 90
        1
176
     1
 40
1.0
176
     1
 90
        8
176
     1
 62
   257
176
     1
 40
1.0
176
     1
 90
        1
176
     1
 90
        6
176
     1
 90
        2
176
     1
 62
     7
176
     1
 90
        3
176
     1
 90
        0
176
     1
 90
        0
176
     1
290
     0
176
     1
 90
       13
176
     1
 40
0.0
176
     1
 90
        0
176
     1
290
     0
176
     1
290
     1
176
     1
290
     1
176
     1
290
     0
176
     1
290
     0
176
     1
290
     0
176
     1
290
     0
176
     1
290
     0
176
     1
290
     0
176
     1
 90
       50
176
     1
 40
0.0
176
     1
 40
1.0
176
     1
 90
        0
176
     1
 62
    18
420
        0
176
     1
 90
       50
176
     1
 90
        3
176
     1
 62
     5
420
      255
176
     1
290
     0
176
     1
 90
       50
176
     1
 90
       50
176
     1
 90
       50
176
     1
290
     0
176
     1
 90
       50
176
     1
 62
   256
176
     0
 40
1.0
176
     0
 90
        2
176
     1
  1
strokes_ogs.tif
176
     1
290
     0
176
     1
 40
1.0
176
     1
 40
1.0
176
     1
  0
VISUALSTYLE
  5
1D05
102
{ACAD_REACTORS
330
1CF0
102
}
330
1CF0
100
AcDbVisualStyle
  2
Shaded
 70
    27
177
     3
291
     0
 70
    58
 90
        2
176
     1
 90
        2
176
     1
 90
        1
176
     1
 90
        2
176
     1
 40
0.6
176
     1
 40
30.0
176
     1
 62
     7
420
 16777215
176
     1
 90
        0
176
     1
 90
        4
176
     1
 62
     7
176
     1
 62
   257
176
     1
 90
        1
176
     1
 90
        1
176
     1
 40
1.0
176
     1
 90
        8
176
     1
 62
   257
176
     1
 40
1.0
176
     1
 90
        1
176
     1
 90
        6
176
     1
 90
        2
176
     1
 62
     8
420
  7895160
176
     1
 90
        3
176
     1
 90
        0
176
     1
 90
        0
176
     1
290
     0
176
     1
 90
        5
176
     1
 40
0.0
176
     1
 90
        0
176
     1
290
     0
176
     1
290
     1
176
     1
290
     1
176
     1
290
     0
176
     1
290
     0
176
     1
290
     0
176
     1
290
     0
176
     1
290
     0
176
     1
290
     0
176
     1
 90
       50
176
     1
 40
0.0
176
     1
 40
1.0
176
     1
 90
        0
176
     1
 62
    18
420
        0
176
     1
 90
       50
176
     1
 90
        3
176
     1
 62
     5
420
      255
176
     1
290
     0
176
     1
 90
       50
176
     1
 90
       50
176
     1
 90
       50
176
     1
290
     0
176
     1
 90
       50
176
     1
 62
   256
176
     0
 40
1.0
176
     0
 90
        2
176
     1
  1
strokes_ogs.tif
176
     1
290
     0
176
     1
 40
1.0
176
     1
 40
1.0
176
     1
  0
VISUALSTYLE
  5
1D04
102
{ACAD_REACTORS
330
1CF0
102
}
330
1CF0
100
AcDbVisualStyle
  2
Shaded with edges
 70
    26
177
     3
291
     0
 70
    58
 90
        2
176
     1
 90
        2
176
     1
 90
        1
176
     1
 90
        2
176
     1
 40
0.6
176
     1
 40
30.0
176
     1
 62
     7
420
 16777215
176
     1
 90
        1
176
     1
 90
       10
176
     1
 62
     7
176
     1
 62
   257
176
     1
 90
        2
176
     1
 90
        1
176
     1
 40
1.0
176
     1
 90
        8
176
     1
 62
   257
176
     1
 40
1.0
176
     1
 90
        1
176
     1
 90
        6
176
     1
 90
        2
176
     1
 62
     7
176
     1
 90
        3
176
     1
 90
        0
176
     1
 90
        0
176
     1
290
     0
176
     1
 90
        5
176
     1
 40
0.0
176
     1
 90
        0
176
     1
290
     0
176
     1
290
     1
176
     1
290
     1
176
     1
290
     0
176
     1
290
     0
176
     1
290
     0
176
     1
290
     0
176
     1
290
     0
176
     1
290
     0
176
     1
 90
       50
176
     1
 40
0.0
176
     1
 40
1.0
176
     1
 90
        0
176
     1
 62
    18
420
        0
176
     1
 90
       50
176
     1
 90
        3
176
     1
 62
     5
420
      255
176
     1
290
     0
176
     1
 90
       50
176
     1
 90
       50
176
     1
 90
       50
176
     1
290
     0
176
     1
 90
       50
176
     1
 62
   256
176
     0
 40
1.0
176
     0
 90
        2
176
     1
  1
strokes_ogs.tif
176
     1
290
     0
176
     1
 40
1.0
176
     1
 40
1.0
176
     1
  0
VISUALSTYLE
  5
1D01
102
{ACAD_REACTORS
330
1CF0
102
}
330
1CF0
100
AcDbVisualStyle
  2
Shades of Gray
 70
    23
177
     3
291
     0
 70
    58
 90
        2
176
     1
 90
        2
176
     1
 90
        3
176
     1
 90
        0
176
     1
 40
0.6
176
     1
 40
30.0
176
     1
 62
     7
420
 16777215
176
     1
 90
        2
176
     1
 90
        2
176
     1
 62
     7
176
     1
 62
     7
176
     1
 90
        1
176
     1
 90
        1
176
     1
 40
40.0
176
     1
 90
        8
176
     1
 62
     7
176
     1
 40
1.0
176
     1
 90
        1
176
     1
 90
        6
176
     1
 90
        2
176
     1
 62
     7
176
     1
 90
        3
176
     1
 90
        0
176
     1
 90
        0
176
     1
290
     0
176
     1
 90
        1
176
     1
 40
0.0
176
     1
 90
        0
176
     1
290
     0
176
     1
290
     1
176
     1
290
     1
176
     1
290
     0
176
     1
290
     0
176
     1
290
     0
176
     1
290
     0
176
     1
290
     0
176
     1
290
     0
176
     1
 90
       50
176
     1
 40
0.0
176
     1
 40
1.0
176
     1
 90
        0
176
     1
 62
    18
420
        0
176
     1
 90
       50
176
     1
 90
        3
176
     1
 62
     5
420
      255
176
     1
290
     0
176
     1
 90
       50
176
     1
 90
       50
176
     1
 90
       50
176
     1
290
     0
176
     1
 90
       50
176
     1
 62
   256
176
     0
 40
1.0
176
     0
 90
        2
176
     1
  1
strokes_ogs.tif
176
     1
290
     0
176
     1
 40
1.0
176
     1
 40
1.0
176
     1
  0
VISUALSTYLE
  5
1D02
102
{ACAD_REACTORS
330
1CF0
102
}
330
1CF0
100
AcDbVisualStyle
  2
Sketchy
 70
    24
177
     3
291
     0
 70
    58
 90
        1
176
     1
 90
        2
176
     1
 90
        2
176
     1
 90
        0
176
     1
 40
0.6
176
     1
 40
30.0
176
     1
 62
     7
420
 16777215
176
     1
 90
        2
176
     1
 90
        2
176
     1
 62
     7
176
     1
 62
     7
176
     1
 90
        1
176
     1
 90
        1
176
     1
 40
40.0
176
     1
 90
       11
176
     1
 62
     7
176
     1
 40
1.0
176
     1
 90
        1
176
     1
 90
        6
176
     1
 90
        2
176
     1
 62
     7
176
     1
 90
        6
176
     1
 90
        0
176
     1
 90
        0
176
     1
290
     0
176
     1
 90
        1
176
     1
 40
0.0
176
     1
 90
        0
176
     1
290
     0
176
     1
290
     1
176
     1
290
     1
176
     1
290
     0
176
     1
290
     0
176
     1
290
     0
176
     1
290
     0
176
     1
290
     0
176
     1
290
     0
176
     1
 90
       50
176
     1
 40
0.0
176
     1
 40
1.0
176
     1
 90
        0
176
     1
 62
    18
420
        0
176
     1
 90
       50
176
     1
 90
        3
176
     1
 62
     5
420
      255
176
     1
290
     0
176
     1
 90
       50
176
     1
 90
       50
176
     1
 90
       50
176
     1
290
     0
176
     1
 90
       50
176
     1
 62
   256
176
     0
 40
1.0
176
     0
 90
        2
176
     1
  1
strokes_ogs.tif
176
     1
290
     0
176
     1
 40
1.0
176
     1
 40
1.0
176
     1
  0
VISUALSTYLE
  5
1CFD
102
{ACAD_REACTORS
330
1CF0
102
}
330
1CF0
100
AcDbVisualStyle
  2
Thicken
 70
    13
177
     3
291
     1
 70
    58
 90
        2
176
     1
 90
        2
176
     1
 90
        0
176
     1
 90
        0
176
     1
 40
0.6
176
     1
 40
30.0
176
     1
 62
     7
420
 16777215
176
     1
 90
        1
176
     1
 90
        4
176
     1
 62
     7
176
     1
 62
   257
176
     1
 90
        1
176
     1
 90
        1
176
     1
 40
1.0
176
     1
 90
       12
176
     1
 62
     7
176
     1
 40
1.0
176
     1
 90
        1
176
     1
 90
        6
176
     1
 90
        2
176
     1
 62
     7
176
     1
 90
        5
176
     1
 90
        0
176
     1
 90
        0
176
     1
290
     0
176
     1
 90
        1
176
     1
 40
0.0
176
     1
 90
        0
176
     1
290
     0
176
     1
290
     1
176
     1
290
     1
176
     1
290
     0
176
     1
290
     0
176
     1
290
     0
176
     1
290
     0
176
     1
290
     0
176
     1
290
     0
176
     1
 90
       50
176
     1
 40
0.0
176
     1
 40
1.0
176
     1
 90
        0
176
     1
 62
    18
420
        0
176
     1
 90
       50
176
     1
 90
        3
176
     1
 62
     5
420
      255
176
     1
290
     0
176
     1
 90
       50
176
     1
 90
       50
176
     1
 90
       50
176
     1
290
     0
176
     1
 90
       50
176
     1
 62
   256
176
     0
 40
1.0
176
     0
 90
        2
176
     1
  1
strokes_ogs.tif
176
     1
290
     0
176
     1
 40
1.0
176
     1
 40
1.0
176
     1
  0
VISUALSTYLE
  5
1CF7
102
{ACAD_REACTORS
330
1CF0
102
}
330
1CF0
100
AcDbVisualStyle
  2
Wireframe
 70
     5
177
     3
291
     0
 70
    58
 90
        0
176
     1
 90
        2
176
     1
 90
        0
176
     1
 90
        0
176
     1
 40
0.6
176
     1
 40
30.0
176
     1
 62
     7
420
 16777215
176
     1
 90
        1
176
     1
 90
        4
176
     1
 62
     7
176
     1
 62
   257
176
     1
 90
        1
176
     1
 90
        1
176
     1
 40
1.0
176
     1
 90
        0
176
     1
 62
   257
176
     1
 40
1.0
176
     1
 90
        1
176
     1
 90
        6
176
     1
 90
        2
176
     1
 62
     7
176
     1
 90
        3
176
     1
 90
        0
176
     1
 90
        0
176
     1
290
     0
176
     1
 90
        1
176
     1
 40
0.0
176
     1
 90
        0
176
     1
290
     0
176
     1
290
     1
176
     1
290
     1
176
     1
290
     0
176
     1
290
     0
176
     1
290
     0
176
     1
290
     0
176
     1
290
     0
176
     1
290
     0
176
     1
 90
       50
176
     1
 40
0.0
176
     1
 40
1.0
176
     1
 90
        0
176
     1
 62
    18
420
        0
176
     1
 90
       50
176
     1
 90
        3
176
     1
 62
     5
420
      255
176
     1
290
     0
176
     1
 90
       50
176
     1
 90
       50
176
     1
 90
       50
176
     1
290
     0
176
     1
 90
       50
176
     1
 62
   256
176
     0
 40
1.0
176
     0
 90
        2
176
     1
  1
strokes_ogs.tif
176
     1
290
     0
176
     1
 40
1.0
176
     1
 40
1.0
176
     1
  0
VISUALSTYLE
  5
1D03
102
{ACAD_REACTORS
330
1CF0
102
}
330
1CF0
100
AcDbVisualStyle
  2
X-Ray
 70
    25
177
     3
291
     0
 70
    58
 90
        2
176
     1
 90
        2
176
     1
 90
        1
176
     1
 90
        1
176
     1
 40
0.5
176
     1
 40
30.0
176
     1
 62
     7
420
 16777215
176
     1
 90
        1
176
     1
 90
        0
176
     1
 62
     7
176
     1
 62
   257
176
     1
 90
        1
176
     1
 90
        1
176
     1
 40
1.0
176
     1
 90
        8
176
     1
 62
     7
176
     1
 40
1.0
176
     1
 90
        1
176
     1
 90
        6
176
     1
 90
        2
176
     1
 62
     7
176
     1
 90
        3
176
     1
 90
        0
176
     1
 90
        0
176
     1
290
     0
176
     1
 90
       13
176
     1
 40
0.0
176
     1
 90
        0
176
     1
290
     0
176
     1
290
     1
176
     1
290
     1
176
     1
290
     0
176
     1
290
     0
176
     1
290
     0
176
     1
290
     0
176
     1
290
     0
176
     1
290
     0
176
     1
 90
       50
176
     1
 40
0.0
176
     1
 40
1.0
176
     1
 90
        0
176
     1
 62
    18
420
        0
176
     1
 90
       50
176
     1
 90
        3
176
     1
 62
     5
420
      255
176
     1
290
     0
176
     1
 90
       50
176
     1
 90
       50
176
     1
 90
       50
176
     1
290
     0
176
     1
 90
       50
176
     1
 62
   256
176
     0
 40
1.0
176
     0
 90
        2
176
     1
  1
strokes_ogs.tif
176
     1
290
     0
176
     1
 40
1.0
176
     1
 40
1.0
176
     1
  0
DICTIONARYVAR
  5
258A
102
{ACAD_REACTORS
330
EA
102
}
330
EA
100
DictionaryVariables
280
     0
  1
1:1
  0
DICTIONARYVAR
  5
2587
102
{ACAD_REACTORS
330
EA
102
}
330
EA
100
DictionaryVariables
280
     0
  1
STANDARD
  0
DICTIONARYVAR
  5
2586
102
{ACAD_REACTORS
330
EA
102
}
330
EA
100
DictionaryVariables
280
     0
  1
STANDARD
  0
DICTIONARYVAR
  5
2588
102
{ACAD_REACTORS
330
EA
102
}
330
EA
100
DictionaryVariables
280
     0
  1
Imperial24
  0
DICTIONARYVAR
  5
2589
102
{ACAD_REACTORS
330
EA
102
}
330
EA
100
DictionaryVariables
280
     0
  1
Imperial24
  0
DICTIONARYVAR
  5
EB
102
{ACAD_REACTORS
330
EA
102
}
330
EA
100
DictionaryVariables
280
     0
  1
1
  0
DICTIONARYVAR
  5
273A
102
{ACAD_REACTORS
330
EA
102
}
330
EA
100
DictionaryVariables
280
     0
  1
1
  0
DICTIONARYVAR
  5
273B
102
{ACAD_REACTORS
330
EA
102
}
330
EA
100
DictionaryVariables
280
     0
  1
15
  0
DICTIONARYVAR
  5
2739
102
{ACAD_REACTORS
330
EA
102
}
330
EA
100
DictionaryVariables
280
     0
  1
0
  0
DICTIONARYVAR
  5
2738
102
{ACAD_REACTORS
330
EA
102
}
330
EA
100
DictionaryVariables
280
     0
  1
0
  0
DICTIONARYVAR
  5
EC
102
{ACAD_REACTORS
330
EA
102
}
330
EA
100
DictionaryVariables
280
     0
  1

  0
DICTIONARY
  5
254D
330
21
100
AcDbDictionary
280
     1
281
     1
  0
DICTIONARY
  5
1CE1
330
1CE0
100
AcDbDictionary
280
     1
281
     1
  3
BUMPTILE
360
1CE3
  3
DIFFUSETILE
360
1CE2
  3
OPACITYTILE
360
1CE6
  3
REFLECTIONTILE
360
1CE5
  3
REFRACTIONTILE
360
1CE7
  3
SPECULARTILE
360
1CE4
  0
DICTIONARY
  5
1CD9
330
1CD8
100
AcDbDictionary
280
     1
281
     1
  3
BUMPTILE
360
1CDB
  3
DIFFUSETILE
360
1CDA
  3
OPACITYTILE
360
1CDE
  3
REFLECTIONTILE
360
1CDD
  3
REFRACTIONTILE
360
1CDF
  3
SPECULARTILE
360
1CDC
  0
DICTIONARY
  5
1CE9
330
1CE8
100
AcDbDictionary
280
     1
281
     1
  3
BUMPTILE
360
1CEB
  3
DIFFUSETILE
360
1CEA
  3
OPACITYTILE
360
1CEE
  3
REFLECTIONTILE
360
1CED
  3
REFRACTIONTILE
360
1CEF
  3
SPECULARTILE
360
1CEC
  0
DICTIONARY
  5
2540
330
1D0A
100
AcDbDictionary
280
     1
281
     1
  3
ACAD_ROUNDTRIP_2008_TABLESTYLE_CELLSTYLEMAP
360
273C
  0
XRECORD
  5
1CE3
102
{ACAD_REACTORS
330
1CE1
102
}
330
1CE1
100
AcDbXrecord
280
     1
270
     1
271
     1
  0
XRECORD
  5
1CE2
102
{ACAD_REACTORS
330
1CE1
102
}
330
1CE1
100
AcDbXrecord
280
     1
270
     1
271
     1
  0
XRECORD
  5
1CE6
102
{ACAD_REACTORS
330
1CE1
102
}
330
1CE1
100
AcDbXrecord
280
     1
270
     1
271
     1
  0
XRECORD
  5
1CE5
102
{ACAD_REACTORS
330
1CE1
102
}
330
1CE1
100
AcDbXrecord
280
     1
270
     1
271
     1
  0
XRECORD
  5
1CE7
102
{ACAD_REACTORS
330
1CE1
102
}
330
1CE1
100
AcDbXrecord
280
     1
270
     1
271
     1
  0
XRECORD
  5
1CE4
102
{ACAD_REACTORS
330
1CE1
102
}
330
1CE1
100
AcDbXrecord
280
     1
270
     1
271
     1
  0
XRECORD
  5
1CDB
102
{ACAD_REACTORS
330
1CD9
102
}
330
1CD9
100
AcDbXrecord
280
     1
270
     1
271
     1
  0
XRECORD
  5
1CDA
102
{ACAD_REACTORS
330
1CD9
102
}
330
1CD9
100
AcDbXrecord
280
     1
270
     1
271
     1
  0
XRECORD
  5
1CDE
102
{ACAD_REACTORS
330
1CD9
102
}
330
1CD9
100
AcDbXrecord
280
     1
270
     1
271
     1
  0
XRECORD
  5
1CDD
102
{ACAD_REACTORS
330
1CD9
102
}
330
1CD9
100
AcDbXrecord
280
     1
270
     1
271
     1
  0
XRECORD
  5
1CDF
102
{ACAD_REACTORS
330
1CD9
102
}
330
1CD9
100
AcDbXrecord
280
     1
270
     1
271
     1
  0
XRECORD
  5
1CDC
102
{ACAD_REACTORS
330
1CD9
102
}
330
1CD9
100
AcDbXrecord
280
     1
270
     1
271
     1
  0
XRECORD
  5
1CEB
102
{ACAD_REACTORS
330
1CE9
102
}
330
1CE9
100
AcDbXrecord
280
     1
270
     1
271
     1
  0
XRECORD
  5
1CEA
102
{ACAD_REACTORS
330
1CE9
102
}
330
1CE9
100
AcDbXrecord
280
     1
270
     1
271
     1
  0
XRECORD
  5
1CEE
102
{ACAD_REACTORS
330
1CE9
102
}
330
1CE9
100
AcDbXrecord
280
     1
270
     1
271
     1
  0
XRECORD
  5
1CED
102
{ACAD_REACTORS
330
1CE9
102
}
330
1CE9
100
AcDbXrecord
280
     1
270
     1
271
     1
  0
XRECORD
  5
1CEF
102
{ACAD_REACTORS
330
1CE9
102
}
330
1CE9
100
AcDbXrecord
280
     1
270
     1
271
     1
  0
XRECORD
  5
1CEC
102
{ACAD_REACTORS
330
1CE9
102
}
330
1CE9
100
AcDbXrecord
280
     1
270
     1
271
     1
  0
CELLSTYLEMAP
  5
273C
102
{ACAD_REACTORS
330
2540
102
}
330
2540
100
AcDbCellStyleMap
 90
        3
300
CELLSTYLE
  1
TABLEFORMAT_BEGIN
 90
        5
170
     1
 91
        0
 92
    32768
 62
   257
 93
        1
300
CONTENTFORMAT
  1
CONTENTFORMAT_BEGIN
 90
        0
 91
        0
 92
      512
 93
        0
300

 40
0.0
140
1.0
 94
        5
 62
     0
340
11
144
0.25
309
CONTENTFORMAT_END
171
     0
 94
        0
309
TABLEFORMAT_END
  1
CELLSTYLE_BEGIN
 90
        1
 91
        1
300
_TITLE
309
CELLSTYLE_END
300
CELLSTYLE
  1
TABLEFORMAT_BEGIN
 90
        5
170
     1
 91
        0
 92
        0
 62
   257
 93
        1
300
CONTENTFORMAT
  1
CONTENTFORMAT_BEGIN
 90
        0
 91
        0
 92
      512
 93
        0
300

 40
0.0
140
1.0
 94
        5
 62
     0
340
11
144
0.18
309
CONTENTFORMAT_END
171
     0
 94
        0
309
TABLEFORMAT_END
  1
CELLSTYLE_BEGIN
 90
        2
 91
        1
300
_HEADER
309
CELLSTYLE_END
300
CELLSTYLE
  1
TABLEFORMAT_BEGIN
 90
        5
170
     1
 91
        0
 92
        0
 62
   257
 93
        1
300
CONTENTFORMAT
  1
CONTENTFORMAT_BEGIN
 90
        0
 91
        0
 92
      512
 93
        0
300

 40
0.0
140
1.0
 94
        2
 62
     0
340
11
144
0.18
309
CONTENTFORMAT_END
171
     0
 94
        0
309
TABLEFORMAT_END
  1
CELLSTYLE_BEGIN
 90
        3
 91
        2
300
_DATA
309
CELLSTYLE_END
  0
ENDSEC
  0
SECTION
  2
ACDSDATA
 70
     2
 71
     3
  0
ACDSSCHEMA
 90
        0
  1
AcDb_Thumbnail_Schema
  2
AcDbDs::ID
280
    10
 91
        8
  2
Thumbnail_Data
280
    15
 91
        0
101
ACDSRECORD
 95
        0
 90
        1
  2
AcDbDs::TreatedAsObjectData
280
     1
291
     1
101
ACDSRECORD
 95
        0
 90
        2
  2
AcDbDs::Legacy
280
     1
291
     1
101
ACDSRECORD
  1
AcDbDs::ID
 90
        3
  2
AcDs:Indexable
280
     1
291
     1
101
ACDSRECORD
  1
AcDbDs::ID
 90
        4
  2
AcDbDs::HandleAttribute
280
     7
282
     1
  0
ACDSSCHEMA
 90
        1
  1
AcDbDs::TreatedAsObjectDataSchema
  2
AcDbDs::TreatedAsObjectData
280
     1
 91
        0
  0
ACDSSCHEMA
 90
        2
  1
AcDbDs::LegacySchema
  2
AcDbDs::Legacy
280
     1
 91
        0
  0
ACDSSCHEMA
 90
        3
  1
AcDbDs::IndexedPropertySchema
  2
AcDs:Indexable
280
     1
 91
        0
  0
ACDSSCHEMA
 90
        4
  1
AcDbDs::HandleAttributeSchema
  2
AcDbDs::HandleAttribute
280
     7
 91
        1
284
     1
  0
ACDSRECORD
 90
        0
  2
AcDbDs::ID
280
    10
320
21
  2
Thumbnail_Data
280
    15
 94
     2123
310
89504E470D0A1A0A0000000D494844520000010000000096080300000006E4A6BE00000300504C5445000000000000C8C8C80000000000000000000000000000000000000000000000000000330000660000990000CC0000FF0033000033330033660033990033CC0033FF0066000066330066660066990066CC0066FF0099
310
000099330099660099990099CC0099FF00CC0000CC3300CC6600CC9900CCCC00CCFF00FF0000FF3300FF6600FF9900FFCC00FFFF3300003300333300663300993300CC3300FF3333003333333333663333993333CC3333FF3366003366333366663366993366CC3366FF3399003399333399663399993399CC3399FF33CC00
310
33CC3333CC6633CC9933CCCC33CCFF33FF0033FF3333FF6633FF9933FFCC33FFFF6600006600336600666600996600CC6600FF6633006633336633666633996633CC6633FF6666006666336666666666996666CC6666FF6699006699336699666699996699CC6699FF66CC0066CC3366CC6666CC9966CCCC66CCFF66FF0066
310
FF3366FF6666FF9966FFCC66FFFF9900009900339900669900999900CC9900FF9933009933339933669933999933CC9933FF9966009966339966669966999966CC9966FF9999009999339999669999999999CC9999FF99CC0099CC3399CC6699CC9999CCCC99CCFF99FF0099FF3399FF6699FF9999FFCC99FFFFCC0000CC00
310
33CC0066CC0099CC00CCCC00FFCC3300CC3333CC3366CC3399CC33CCCC33FFCC6600CC6633CC6666CC6699CC66CCCC66FFCC9900CC9933CC9966CC9999CC99CCCC99FFCCCC00CCCC33CCCC66CCCC99CCCCCCCCCCFFCCFF00CCFF33CCFF66CCFF99CCFFCCCCFFFFFF0000FF0033FF0066FF0099FF00CCFF00FFFF3300FF3333
310
FF3366FF3399FF33CCFF33FFFF6600FF6633FF6666FF6699FF66CCFF66FFFF9900FF9933FF9966FF9999FF99CCFF99FFFFCC00FFCC33FFCC66FFCC99FFCCCCFFCCFFFFFF00FFFF33FFFF66FFFF99FFFFCCFFFFFF0000000D0D0D1A1A1A2828283535354343435050505D5D5D6B6B6B787878868686939393A1A1A1AEAEAEBB
310
BBBBC9C9C9D6D6D6E4E4E4F1F1F1FFFFFF00000000000000000000000000000000000000000000000000000000000008F1915C000005064944415478DAED9DDD79EB200C86358EF61F8049BC86EE8FF917186C93D3F4A924B86813DB69AA571F4260C000BBFC58397EADFC5500EABEE8E3FF0BBF5A2400F8E6D76C001BC006
310
B0016C001BC006B0016C001B806800641E402AE615D0507056AB4082E0CE6237069C0C6C03F008DED8AFBB15781315953783CF04D4E7014F085400B80F77F7080C00B8472019404EFF428357DED05AA62C1BC05501743196EE35201A00AF026EE2ED6C3A6905E0351FED4FA6527F0DDD06020D00DADA7F01704F403E807AF1
310
004073681820C501E01EAF77388FFA920651F2260EC85300352C10D9C5D83683FE74F9906F295554017A0DE07C9508F848384B96F42A20579340E274BF46007182033386C5000A02387F2085A101473A154058E7FA2053000F94106B80963CA007502FC6E0EC921D408801183FEFFD4F7614C0FC1FFEC0910E2B0470BABD02
310
48B53EDB0F49FF7060CA8248A302EA59CC7673011CFE2F619B372A0410630064E3530CA0E33C112642E2B44380447A00505730D89F02E4A4BB2C1D003400A0A904FECC71C493353F50A880B38D1F29007DE6130410DA071C0701250080C780F80B5D047312F0F643203008825A1510ED3F20F93F1C1A8E0728880115408D01
310
D9FFA1F6175528043051003B887CC84C79152831C07F22DB5F55A13608769960931A607FC38414C6802E0F68EDAFD9E13815D49709DEFA5F792A0CA103D8D9DF4C9CD21904B9021EFCAF330FA8B63411016B5A38B7FFFC90A2EEF0BAFF95558187F80F0A003483BB3D8068CA92FFE503686AFD5AFC57A58032E873E9FF3CD8
310
AFA90AF8578BFAD7950A63DBFED143FBA7AE15C8CBA07BFFBBFBE5148A008CDBBFE94D4175DD611CFBFF69CEBC9E1880C3F6EFC1FF8AAA80BFFFB716FF750108F7FF5EF67FE40368678A257F2377FF6BFB8502B8C4803C2178D97EF100721520E0C3E2EFED5703C01F2BB7C717ECD70300A82860C5FEBF0CA06CF4F4220678
310
5A848D005EDAA54401F5FDA2FDB20160992959C604F34488D756090450B2DBE18D91C93C083B00A61302750268AB40EA0A2D6DA7203506B00513F5BA1002686D3B09B900CA367B5C01DD9211E50092DB2B80B50650320036CC73050026009075009D02C00E00EA62005B306048010D006355802E53C2D906B12614D095CBD2
310
599B004250B40B20DDFEB10DC0990540B7BB87E807F0BF6503D80036800D6003D80036800D6003D800CC0250B2B9BA8B6302713BE9D83D74B9401D43E5AF7529C0D57201D0159500B8B92305A80770AB00F3009C4500A5528011054C60CC2D570F000C03B09809723F977A5F0FDB020003F95B54003005C806409437C323BE
310
579A9D1870D9258F4C02E0BB0475F30210DDE74F9D9511031CEBF5E41F80757EB8A35C4FF046223850903200A413C0F333B3DDAB2603E53683130594B911AED9452C5FE44AFB18D322ECFA091A1490CC707523D936096AC649B0EB27695200BB7804802B005401B8C680635A46E7645701FF841D0C2B855CD83534B5EB4818
310
97D4629F2E8C26174A56800710278DBAF294C1660171D7188E9A48D10AC842E865414734F3FCD5CA5D5933189EB0133DEF203F43C5521E109EB26502C03C06D2E428AB07F5AAD8FE9DD0283E712314F90AE89B411A94F61CA8E90B4C75D19712048502F85401168220990030537B1D0AB23A2284089D39808BA3862200700F
310
3BE670C0C200CA7B8D004AAC1B2900F822625CBE8F260740F26A48FD62FED72A20BF31050078558822D00BE07640043ECC9A0E2941F08B4500002D5FB4FA7FFD5A815D7EACFC03E5A1FA3CCA42EACD0000000049454E44AE426082
  0
ENDSEC
  0
EOF
