  0
SECTION
  2
HEADER
  9
$ACADVER
  1
AC1018
  9
$ACADMAINTVER
 70
   104
  9
$DWGCODEPAGE
  3
ANSI_1252
  9
$LASTSAVEDBY
  1
w.koehlhoff
  9
$INSBASE
 10
0.0
 20
0.0
 30
0.0
  9
$EXTMIN
 10
-0.0090483683015918
 20
-0.0127956723461011
 30
-0.0000000000000053
  9
$EXTMAX
 10
594.0090698065177
 20
840.0128259890157
 30
0.0000000000000099
  9
$LIMMIN
 10
0.0
 20
0.0
  9
$LIMMAX
 10
594.0
 20
840.0
  9
$ORTHOMODE
 70
     0
  9
$REGENMODE
 70
     1
  9
$FILLMODE
 70
     1
  9
$QTEXTMODE
 70
     0
  9
$MIRRTEXT
 70
     1
  9
$LTSCALE
 40
20.0
  9
$ATTMODE
 70
     1
  9
$TEXTSIZE
 40
3.5
  9
$TRACEWID
 40
1.0
  9
$TEXTSTYLE
  7
STANDARD
  9
$CLAYER
  8
VOLL
  9
$CELTYPE
  6
ByLayer
  9
$CECOLOR
 62
   256
  9
$CELTSCALE
 40
1.0
  9
$DISPSILH
 70
     0
  9
$DIMSCALE
 40
2.0
  9
$DIMASZ
 40
3.5
  9
$DIMEXO
 40
1.0
  9
$DIMDLI
 40
7.0
  9
$DIMRND
 40
0.0
  9
$DIMDLE
 40
0.0
  9
$DIMEXE
 40
1.0
  9
$DIMTP
 40
0.0
  9
$DIMTM
 40
0.0
  9
$DIMTXT
 40
3.5
  9
$DIMCEN
 40
1.5
  9
$DIMTSZ
 40
0.0
  9
$DIMTOL
 70
     0
  9
$DIMLIM
 70
     0
  9
$DIMTIH
 70
     0
  9
$DIMTOH
 70
     0
  9
$DIMSE1
 70
     0
  9
$DIMSE2
 70
     0
  9
$DIMTAD
 70
     1
  9
$DIMZIN
 70
     8
  9
$DIMBLK
  1

  9
$DIMASO
 70
     1
  9
$DIMSHO
 70
     0
  9
$DIMPOST
  1

  9
$DIMAPOST
  1

  9
$DIMALT
 70
     0
  9
$DIMALTD
 70
     2
  9
$DIMALTF
 40
25.4
  9
$DIMLFAC
 40
1.0
  9
$DIMTOFL
 70
     1
  9
$DIMTVP
 40
0.0
  9
$DIMTIX
 70
     0
  9
$DIMSOXD
 70
     0
  9
$DIMSAH
 70
     0
  9
$DIMBLK1
  1

  9
$DIMBLK2
  1

  9
$DIMSTYLE
  2
Standard
  9
$DIMCLRD
 70
     0
  9
$DIMCLRE
 70
     0
  9
$DIMCLRT
 70
     1
  9
$DIMTFAC
 40
0.5142857142857144
  9
$DIMGAP
 40
1.5
  9
$DIMJUST
 70
     0
  9
$DIMSD1
 70
     0
  9
$DIMSD2
 70
     0
  9
$DIMTOLJ
 70
     1
  9
$DIMTZIN
 70
     8
  9
$DIMALTZ
 70
     8
  9
$DIMALTTZ
 70
     8
  9
$DIMUPT
 70
     0
  9
$DIMDEC
 70
     2
  9
$DIMTDEC
 70
     2
  9
$DIMALTU
 70
     2
  9
$DIMALTTD
 70
     2
  9
$DIMTXSTY
  7
STANDARD
  9
$DIMAUNIT
 70
     0
  9
$DIMADEC
 70
     2
  9
$DIMALTRND
 40
0.0
  9
$DIMAZIN
 70
     2
  9
$DIMDSEP
 70
    46
  9
$DIMATFIT
 70
     3
  9
$DIMFRAC
 70
     0
  9
$DIMLDRBLK
  1

  9
$DIMLUNIT
 70
     2
  9
$DIMLWD
 70
    -2
  9
$DIMLWE
 70
    -2
  9
$DIMTMOVE
 70
     0
  9
$LUNITS
 70
     2
  9
$LUPREC
 70
     2
  9
$SKETCHINC
 40
1.0
  9
$FILLETRAD
 40
0.0
  9
$AUNITS
 70
     0
  9
$AUPREC
 70
     0
  9
$MENU
  1
ACAD
  9
$ELEVATION
 40
0.0
  9
$PELEVATION
 40
0.0
  9
$THICKNESS
 40
0.0
  9
$LIMCHECK
 70
     0
  9
$CHAMFERA
 40
0.0
  9
$CHAMFERB
 40
0.0
  9
$CHAMFERC
 40
0.0
  9
$CHAMFERD
 40
0.0
  9
$SKPOLY
 70
     0
  9
$TDCREATE
 40
2455397.867059838
  9
$TDUCREATE
 40
2455397.783726505
  9
$TDUPDATE
 40
2456797.407243009
  9
$TDUUPDATE
 40
2456797.323909676
  9
$TDINDWG
 40
0.1502911458
  9
$TDUSRTIMER
 40
0.1502911458
  9
$USRTIMER
 70
     1
  9
$ANGBASE
 50
0.0
  9
$ANGDIR
 70
     0
  9
$PDMODE
 70
     0
  9
$PDSIZE
 40
0.0
  9
$PLINEWID
 40
0.0
  9
$SPLFRAME
 70
     0
  9
$SPLINETYPE
 70
     6
  9
$SPLINESEGS
 70
     8
  9
$HANDSEED
  5
13C7
  9
$SURFTAB1
 70
     6
  9
$SURFTAB2
 70
     6
  9
$SURFTYPE
 70
     6
  9
$SURFU
 70
     6
  9
$SURFV
 70
     6
  9
$UCSBASE
  2

  9
$UCSNAME
  2

  9
$UCSORG
 10
0.0
 20
0.0
 30
0.0
  9
$UCSXDIR
 10
1.0
 20
0.0
 30
0.0
  9
$UCSYDIR
 10
0.0
 20
1.0
 30
0.0
  9
$UCSORTHOREF
  2

  9
$UCSORTHOVIEW
 70
     0
  9
$UCSORGTOP
 10
0.0
 20
0.0
 30
0.0
  9
$UCSORGBOTTOM
 10
0.0
 20
0.0
 30
0.0
  9
$UCSORGLEFT
 10
0.0
 20
0.0
 30
0.0
  9
$UCSORGRIGHT
 10
0.0
 20
0.0
 30
0.0
  9
$UCSORGFRONT
 10
0.0
 20
0.0
 30
0.0
  9
$UCSORGBACK
 10
0.0
 20
0.0
 30
0.0
  9
$PUCSBASE
  2

  9
$PUCSNAME
  2

  9
$PUCSORG
 10
0.0
 20
0.0
 30
0.0
  9
$PUCSXDIR
 10
1.0
 20
0.0
 30
0.0
  9
$PUCSYDIR
 10
0.0
 20
1.0
 30
0.0
  9
$PUCSORTHOREF
  2

  9
$PUCSORTHOVIEW
 70
     0
  9
$PUCSORGTOP
 10
0.0
 20
0.0
 30
0.0
  9
$PUCSORGBOTTOM
 10
0.0
 20
0.0
 30
0.0
  9
$PUCSORGLEFT
 10
0.0
 20
0.0
 30
0.0
  9
$PUCSORGRIGHT
 10
0.0
 20
0.0
 30
0.0
  9
$PUCSORGFRONT
 10
0.0
 20
0.0
 30
0.0
  9
$PUCSORGBACK
 10
0.0
 20
0.0
 30
0.0
  9
$USERI1
 70
     0
  9
$USERI2
 70
     0
  9
$USERI3
 70
     0
  9
$USERI4
 70
     0
  9
$USERI5
 70
     0
  9
$USERR1
 40
0.0
  9
$USERR2
 40
0.0
  9
$USERR3
 40
0.0
  9
$USERR4
 40
0.0
  9
$USERR5
 40
0.0
  9
$WORLDVIEW
 70
     1
  9
$SHADEDGE
 70
     3
  9
$SHADEDIF
 70
    70
  9
$TILEMODE
 70
     1
  9
$MAXACTVP
 70
    16
  9
$PINSBASE
 10
0.0
 20
0.0
 30
0.0
  9
$PLIMCHECK
 70
     0
  9
$PEXTMIN
 10
1.000000000000000E+20
 20
1.000000000000000E+20
 30
1.000000000000000E+20
  9
$PEXTMAX
 10
-1.000000000000000E+20
 20
-1.000000000000000E+20
 30
-1.000000000000000E+20
  9
$PLIMMIN
 10
0.0
 20
0.0
  9
$PLIMMAX
 10
12.0
 20
9.0
  9
$UNITMODE
 70
     0
  9
$VISRETAIN
 70
     0
  9
$PLINEGEN
 70
     0
  9
$PSLTSCALE
 70
     0
  9
$TREEDEPTH
 70
  3020
  9
$CMLSTYLE
  2
Standard
  9
$CMLJUST
 70
     0
  9
$CMLSCALE
 40
1.0
  9
$PROXYGRAPHICS
 70
     1
  9
$MEASUREMENT
 70
     0
  9
$CELWEIGHT
370
    -1
  9
$ENDCAPS
280
     0
  9
$JOINSTYLE
280
     0
  9
$LWDISPLAY
290
     0
  9
$INSUNITS
 70
     0
  9
$HYPERLINKBASE
  1

  9
$STYLESHEET
  1
monochrome1.ctb
  9
$XEDIT
290
     1
  9
$CEPSNTYPE
380
     0
  9
$PSTYLEMODE
290
     1
  9
$FINGERPRINTGUID
  2
{D68B0D0D-A558-11D7-B632-000102183313}
  9
$VERSIONGUID
  2
{7162F304-2E3B-492E-AEE2-E037DD501531}
  9
$EXTNAMES
290
     1
  9
$PSVPSCALE
 40
0.0
  9
$OLESTARTUP
290
     0
  9
$SORTENTS
280
   127
  9
$INDEXCTL
280
     0
  9
$HIDETEXT
280
     0
  9
$XCLIPFRAME
290
     0
  9
$HALOGAP
280
     0
  9
$OBSCOLOR
 70
   257
  9
$OBSLTYPE
280
     0
  9
$INTERSECTIONDISPLAY
280
     0
  9
$INTERSECTIONCOLOR
 70
   257
  9
$DIMASSOC
280
     1
  9
$PROJECTNAME
  1

  0
ENDSEC
  0
SECTION
  2
CLASSES
  0
CLASS
  1
ACDBDICTIONARYWDFLT
  2
AcDbDictionaryWithDefault
  3
ObjectDBX Classes
 90
        0
 91
        1
280
     0
281
     0
  0
CLASS
  1
DICTIONARYVAR
  2
AcDbDictionaryVar
  3
ObjectDBX Classes
 90
        0
 91
       14
280
     0
281
     0
  0
CLASS
  1
MATERIAL
  2
AcDbMaterial
  3
ObjectDBX Classes
 90
     1153
 91
        3
280
     0
281
     0
  0
CLASS
  1
VISUALSTYLE
  2
AcDbVisualStyle
  3
ObjectDBX Classes
 90
     4095
 91
       24
280
     0
281
     0
  0
CLASS
  1
TABLESTYLE
  2
AcDbTableStyle
  3
ObjectDBX Classes
 90
     4095
 91
        1
280
     0
281
     0
  0
CLASS
  1
SCALE
  2
AcDbScale
  3
ObjectDBX Classes
 90
     1153
 91
       17
280
     0
281
     0
  0
CLASS
  1
MLEADERSTYLE
  2
AcDbMLeaderStyle
  3
ACDB_MLEADERSTYLE_CLASS
 90
     4095
 91
        1
280
     0
281
     0
  0
CLASS
  1
ACDBSECTIONVIEWSTYLE
  2
AcDbSectionViewStyle
  3
ObjectDBX Classes
 90
     1025
 91
        1
280
     0
281
     0
  0
CLASS
  1
ACDBDETAILVIEWSTYLE
  2
AcDbDetailViewStyle
  3
ObjectDBX Classes
 90
     1025
 91
        1
280
     0
281
     0
  0
CLASS
  1
FIELD
  2
AcDbField
  3
ObjectDBX Classes
 90
     1152
 91
        0
280
     0
281
     0
  0
CLASS
  1
FIELDLIST
  2
AcDbFieldList
  3
ObjectDBX Classes
 90
     1152
 91
        1
280
     0
281
     0
  0
CLASS
  1
SORTENTSTABLE
  2
AcDbSortentsTable
  3
ObjectDBX Classes
 90
        0
 91
        2
280
     0
281
     0
  0
CLASS
  1
CELLSTYLEMAP
  2
AcDbCellStyleMap
  3
ObjectDBX Classes
 90
     1152
 91
        3
280
     0
281
     0
  0
CLASS
  1
ACARRAYJIGENTITY
  2
AcArrayJigEntity
  3
ACAD_ARRAY
 90
      129
 91
        0
280
     0
281
     1
  0
CLASS
  1
ACDBASSOCNETWORK
  2
AcDbAssocNetwork
  3
ObjectDBX Classes
 90
     1025
 91
        0
280
     0
281
     0
  0
CLASS
  1
ACDBASSOCACTION
  2
AcDbAssocAction
  3
ObjectDBX Classes
 90
     1025
 91
        0
280
     0
281
     0
  0
CLASS
  1
ACDBASSOCARRAYACTIONBODY
  2
AcDbAssocArrayActionBody
  3
ObjectDBX Classes
 90
     1025
 91
        0
280
     0
281
     0
  0
CLASS
  1
ACDBASSOCVERTEXACTIONPARAM
  2
AcDbAssocVertexActionParam
  3
ObjectDBX Classes
 90
     1025
 91
        0
280
     0
281
     0
  0
CLASS
  1
ACDBASSOCDEPENDENCY
  2
AcDbAssocDependency
  3
ObjectDBX Classes
 90
     1025
 91
        0
280
     0
281
     0
  0
CLASS
  1
ACDBASSOCARRAYPOLARPARAMETERS
  2
AcDbAssocArrayPolarParameters
  3
ObjectDBX Classes
 90
     1025
 91
        0
280
     0
281
     0
  0
ENDSEC
  0
SECTION
  2
TABLES
  0
TABLE
  2
VPORT
  5
8
102
{ACAD_XDICTIONARY
360
115C
102
}
330
0
100
AcDbSymbolTable
 70
     1
  0
VPORT
  5
D45
330
8
100
AcDbSymbolTableRecord
100
AcDbViewportTableRecord
  2
*Active
 70
     0
 10
0.0
 20
0.0
 11
1.0
 21
1.0
 12
297.0000107191081
 22
420.0000151583347
 13
0.0
 23
0.0
 14
1.0
 24
1.0
 15
10.0
 25
10.0
 16
0.0
 26
0.0
 36
1.0
 17
0.0
 27
0.0
 37
0.0
 40
845.6950859245431
 41
1.771396396396396
 42
50.0
 43
0.0
 44
0.0
 50
0.0
 51
0.0
 71
     0
 72
  1500
 73
     1
 74
     0
 75
     0
 76
     0
 77
     0
 78
     0
281
     0
 65
     1
110
0.0
120
0.0
130
0.0
111
1.0
121
0.0
131
0.0
112
0.0
122
1.0
132
0.0
 79
     0
146
0.0
1001
ACAD_NAV_VCDISPLAY
1070
     3
  0
ENDTAB
  0
TABLE
  2
LTYPE
  5
5
330
0
100
AcDbSymbolTable
 70
     4
  0
LTYPE
  5
13
330
5
100
AcDbSymbolTableRecord
100
AcDbLinetypeTableRecord
  2
ByBlock
 70
     0
  3

 72
    65
 73
     0
 40
0.0
  0
LTYPE
  5
14
330
5
100
AcDbSymbolTableRecord
100
AcDbLinetypeTableRecord
  2
ByLayer
 70
     0
  3

 72
    65
 73
     0
 40
0.0
  0
LTYPE
  5
15
330
5
100
AcDbSymbolTableRecord
100
AcDbLinetypeTableRecord
  2
Continuous
 70
     0
  3
Solid line
 72
    65
 73
     0
 40
0.0
  0
LTYPE
  5
25
330
5
100
AcDbSymbolTableRecord
100
AcDbLinetypeTableRecord
  2
STRICHPUNKT
 70
     0
  3
__ . __ . __ . __ . __ . __ . __ . __ . __ . __
 72
    65
 73
     4
 40
1.0
 49
0.5
 74
     0
 49
-0.25
 74
     0
 49
0.0
 74
     0
 49
-0.25
 74
     0
  0
ENDTAB
  0
TABLE
  2
LAYER
  5
2
102
{ACAD_XDICTIONARY
360
D9D
102
}
330
0
100
AcDbSymbolTable
 70
     9
  0
LAYER
  5
10
102
{ACAD_XDICTIONARY
360
ED4
102
}
330
2
100
AcDbSymbolTableRecord
100
AcDbLayerTableRecord
  2
0
 70
     0
 62
     7
  6
Continuous
370
    -3
390
F
  0
LAYER
  5
2B
102
{ACAD_XDICTIONARY
360
ED6
102
}
330
2
100
AcDbSymbolTableRecord
100
AcDbLayerTableRecord
  2
VOLL
 70
     0
 62
     1
  6
Continuous
370
    -3
390
F
  0
LAYER
  5
2C
102
{ACAD_XDICTIONARY
360
ED8
102
}
330
2
100
AcDbSymbolTableRecord
100
AcDbLayerTableRecord
  2
HILF
 70
     0
 62
     2
  6
Continuous
370
    -3
390
F
  0
LAYER
  5
2D
102
{ACAD_XDICTIONARY
360
EDA
102
}
330
2
100
AcDbSymbolTableRecord
100
AcDbLayerTableRecord
  2
MITTEL
 70
     0
 62
     2
  6
STRICHPUNKT
370
    -3
390
F
  0
LAYER
  5
2F
102
{ACAD_XDICTIONARY
360
EDC
102
}
330
2
100
AcDbSymbolTableRecord
100
AcDbLayerTableRecord
  2
BEM
 70
     0
 62
     7
  6
Continuous
370
    -3
390
F
  0
LAYER
  5
30
102
{ACAD_XDICTIONARY
360
EDE
102
}
330
2
100
AcDbSymbolTableRecord
100
AcDbLayerTableRecord
  2
STEMPEL
 70
     0
 62
     3
  6
Continuous
370
    -3
390
F
  0
LAYER
  5
33
102
{ACAD_XDICTIONARY
360
EE0
102
}
330
2
100
AcDbSymbolTableRecord
100
AcDbLayerTableRecord
  2
TEXT
 70
     0
 62
     7
  6
Continuous
370
    -3
390
F
  0
LAYER
  5
184
102
{ACAD_XDICTIONARY
360
EE2
102
}
330
2
100
AcDbSymbolTableRecord
100
AcDbLayerTableRecord
  2
SCHRAFF
 70
     0
 62
     7
  6
Continuous
370
    -3
390
F
  0
LAYER
  5
306
330
2
100
AcDbSymbolTableRecord
100
AcDbLayerTableRecord
  2
DEFPOINTS
 70
     0
 62
     7
  6
Continuous
290
     0
370
    -3
390
F
  0
ENDTAB
  0
TABLE
  2
STYLE
  5
3
330
0
100
AcDbSymbolTable
 70
     3
  0
STYLE
  5
11
330
3
100
AcDbSymbolTableRecord
100
AcDbTextStyleTableRecord
  2
STANDARD
 70
     0
 40
0.0
 41
0.8
 50
0.0
 71
     0
 42
3.5
  3
simplex.shx
  4

  0
STYLE
  5
24
330
3
100
AcDbSymbolTableRecord
100
AcDbTextStyleTableRecord
  2
GREEKS
 70
     0
 40
0.0
 41
0.8
 50
0.0
 71
     0
 42
2.5
  3
SIMPLEX.shx
  4

  0
ENDTAB
  0
TABLE
  2
VIEW
  5
6
330
0
100
AcDbSymbolTable
 70
     0
  0
ENDTAB
  0
TABLE
  2
UCS
  5
7
330
0
100
AcDbSymbolTable
 70
     0
  0
ENDTAB
  0
TABLE
  2
APPID
  5
9
330
0
100
AcDbSymbolTable
 70
     6
  0
APPID
  5
12
330
9
100
AcDbSymbolTableRecord
100
AcDbRegAppTableRecord
  2
ACAD
 70
     0
  0
APPID
  5
D9B
330
9
100
AcDbSymbolTableRecord
100
AcDbRegAppTableRecord
  2
ACAD_NAV_VCDISPLAY
 70
     0
  0
APPID
  5
D9C
330
9
100
AcDbSymbolTableRecord
100
AcDbRegAppTableRecord
  2
ACAD_PSEXT
 70
     0
  0
APPID
  5
DCC
330
9
100
AcDbSymbolTableRecord
100
AcDbRegAppTableRecord
  2
ACAD_EXEMPT_FROM_CAD_STANDARDS
 70
     0
  0
APPID
  5
DE0
330
9
100
AcDbSymbolTableRecord
100
AcDbRegAppTableRecord
  2
AcadAnnoMonitorAlertIconDisabled
 70
     0
  0
APPID
  5
1194
330
9
100
AcDbSymbolTableRecord
100
AcDbRegAppTableRecord
  2
ACAD_MLEADERVER
 70
     0
  0
ENDTAB
  0
TABLE
  2
DIMSTYLE
  5
A
330
0
100
AcDbSymbolTable
 70
     2
100
AcDbDimStyleTable
 71
     1
340
A2
  0
DIMSTYLE
105
A2
102
{ACAD_REACTORS
330
834
330
83B
330
93C
330
A31
330
C95
330
CA2
330
CAF
330
CFB
330
113C
102
}
330
A
100
AcDbSymbolTableRecord
100
AcDbDimStyleTableRecord
  2
Standard
 70
     0
340
11
  0
ENDTAB
  0
TABLE
  2
BLOCK_RECORD
  5
1
330
0
100
AcDbSymbolTable
 70
    22
  0
BLOCK_RECORD
  5
1E
102
{ACAD_XDICTIONARY
360
DB
102
}
330
1
100
AcDbSymbolTableRecord
100
AcDbBlockTableRecord
  2
*Model_Space
340
21
  0
BLOCK_RECORD
  5
1A
102
{ACAD_XDICTIONARY
360
DD
102
}
330
1
100
AcDbSymbolTableRecord
100
AcDbBlockTableRecord
  2
*Paper_Space
340
1D
  0
BLOCK_RECORD
  5
22
330
1
100
AcDbSymbolTableRecord
100
AcDbBlockTableRecord
  2
LOGO
340
0
102
{BLKREFS
331
2AF
102
}
  0
BLOCK_RECORD
  5
8AE
330
1
100
AcDbSymbolTableRecord
100
AcDbBlockTableRecord
  2
*D2
340
0
  0
BLOCK_RECORD
  5
8C7
330
1
100
AcDbSymbolTableRecord
100
AcDbBlockTableRecord
  2
*D3
340
0
  0
BLOCK_RECORD
  5
94E
330
1
100
AcDbSymbolTableRecord
100
AcDbBlockTableRecord
  2
*D5
340
0
  0
BLOCK_RECORD
  5
A3B
330
1
100
AcDbSymbolTableRecord
100
AcDbBlockTableRecord
  2
*D8
340
0
  0
BLOCK_RECORD
  5
C96
330
1
100
AcDbSymbolTableRecord
100
AcDbBlockTableRecord
  2
*D11
340
0
  0
BLOCK_RECORD
  5
CA3
330
1
100
AcDbSymbolTableRecord
100
AcDbBlockTableRecord
  2
*D12
340
0
  0
BLOCK_RECORD
  5
CB0
330
1
100
AcDbSymbolTableRecord
100
AcDbBlockTableRecord
  2
*D13
340
0
  0
BLOCK_RECORD
  5
CFC
330
1
100
AcDbSymbolTableRecord
100
AcDbBlockTableRecord
  2
*D14
340
0
  0
BLOCK_RECORD
  5
113D
330
1
100
AcDbSymbolTableRecord
100
AcDbBlockTableRecord
  2
*D17
340
0
  0
ENDTAB
  0
ENDSEC
  0
SECTION
  2
BLOCKS
  0
BLOCK
  5
37
330
1E
100
AcDbEntity
  8
0
100
AcDbBlockBegin
  2
*Model_Space
 70
     0
 10
0.0
 20
0.0
 30
0.0
  3
*Model_Space
  1

  0
ENDBLK
  5
38
330
1E
100
AcDbEntity
  8
0
100
AcDbBlockEnd
  0
BLOCK
  5
35
330
1A
100
AcDbEntity
 67
     1
  8
0
100
AcDbBlockBegin
  2
*Paper_Space
 70
     0
 10
0.0
 20
0.0
 30
0.0
  3
*Paper_Space
  1

  0
ENDBLK
  5
36
330
1A
100
AcDbEntity
 67
     1
  8
0
100
AcDbBlockEnd
  0
BLOCK
  5
39
330
22
100
AcDbEntity
  8
0
100
AcDbBlockBegin
  2
LOGO
 70
     0
 10
0.0
 20
0.0
 30
0.0
  3
LOGO
  1

  0
ARC
  5
3A
330
22
100
AcDbEntity
  8
0
100
AcDbCircle
 10
11.59973089678112
 20
-9.271599258481501
 30
0.0
 40
4.5
100
AcDbArc
 50
270.0
 51
231.0575587310159
  0
LINE
  5
3B
330
22
100
AcDbEntity
  8
0
100
AcDbLine
 10
3.599730896781125
 20
-4.771599258481529
 30
0.0
 11
3.599730896781153
 21
-11.77159925848133
 31
0.0
  0
LINE
  5
3C
330
22
100
AcDbEntity
  8
0
100
AcDbLine
 10
2.599730896781125
 20
-4.771599258481529
 30
0.0
 11
2.599730896781153
 21
-11.77159925848133
 31
0.0
  0
CIRCLE
  5
3D
330
22
100
AcDbEntity
  8
0
100
AcDbCircle
 10
11.59973089678112
 20
-9.271599258481501
 30
0.0
 40
3.5
  0
ARC
  5
3E
330
22
100
AcDbEntity
  8
0
100
AcDbCircle
 10
31.59973089678115
 20
-9.271599258481472
 30
0.0
 40
4.5
100
AcDbArc
 50
270.0
 51
231.0575587310182
  0
LINE
  5
3F
330
22
100
AcDbEntity
  8
0
100
AcDbLine
 10
17.59973089678112
 20
-4.771599258481472
 30
0.0
 11
17.59973089678115
 21
-13.77159925848147
 31
0.0
  0
ARC
  5
40
330
22
100
AcDbEntity
  8
0
100
AcDbCircle
 10
22.59973089678116
 20
-7.271599258481472
 30
0.0
 40
2.5
100
AcDbArc
 50
293.1161887722295
 51
90.0
  0
CIRCLE
  5
41
330
22
100
AcDbEntity
  8
0
100
AcDbCircle
 10
31.59973089678115
 20
-9.271599258481472
 30
0.0
 40
3.5
  0
ARC
  5
42
330
22
100
AcDbEntity
  8
0
100
AcDbCircle
 10
4.599730896781153
 20
-11.77159925848133
 30
0.0
 40
1.0
100
AcDbArc
 50
180.0
 51
270.0
  0
ARC
  5
43
330
22
100
AcDbEntity
  8
0
100
AcDbCircle
 10
4.599730896781153
 20
-11.77159925848133
 30
0.0
 40
2.0
100
AcDbArc
 50
179.9999999999992
 51
270.0
  0
LINE
  5
44
330
22
100
AcDbEntity
  8
0
100
AcDbLine
 10
11.59973089678115
 20
-13.77159925848144
 30
0.0
 11
4.599730896781153
 21
-13.77159925848147
 31
0.0
  0
LINE
  5
45
330
22
100
AcDbEntity
  8
0
100
AcDbLine
 10
8.771303772034769
 20
-12.77159925848136
 30
0.0
 11
4.599730896781153
 21
-12.77159925848133
 31
0.0
  0
LINE
  5
46
330
22
100
AcDbEntity
  8
0
100
AcDbLine
 10
31.59973089678115
 20
-13.77159925848147
 30
0.0
 11
23.6715276665056
 21
-13.77159925848144
 31
0.0
  0
LINE
  5
47
330
22
100
AcDbEntity
  8
0
100
AcDbLine
 10
23.56565672307022
 20
-9.51278021337896
 30
0.0
 11
24.4388546544846
 21
-12.77159925848144
 31
0.0
  0
LINE
  5
48
330
22
100
AcDbEntity
  8
0
100
AcDbLine
 10
22.59973089678116
 20
-9.771599258481472
 30
0.0
 11
18.59973089678112
 21
-9.771599258481472
 31
0.0
  0
LINE
  5
49
330
22
100
AcDbEntity
  8
0
100
AcDbLine
 10
18.59973089678115
 20
-13.77159925848144
 30
0.0
 11
17.59973089678115
 21
-13.77159925848144
 31
0.0
  0
LINE
  5
4A
330
22
100
AcDbEntity
  8
0
100
AcDbLine
 10
18.59973089678115
 20
-9.771599258481472
 30
0.0
 11
18.59973089678115
 21
-13.77159925848144
 31
0.0
  0
LINE
  5
4B
330
22
100
AcDbEntity
  8
0
100
AcDbLine
 10
22.59973089678116
 20
-9.771599258481472
 30
0.0
 11
23.67152766650562
 21
-13.77159925848147
 31
0.0
  0
ARC
  5
4C
330
22
100
AcDbEntity
  8
0
100
AcDbCircle
 10
22.59973089678116
 20
-7.271599258481472
 30
0.0
 40
2.5
100
AcDbArc
 50
270.0
 51
270.0000000000007
  0
LINE
  5
4D
330
22
100
AcDbEntity
  8
0
100
AcDbLine
 10
28.77130377203494
 20
-12.77159925848147
 30
0.0
 11
24.43885465448463
 21
-12.77159925848144
 31
0.0
  0
LINE
  5
4E
330
22
100
AcDbEntity
  8
0
100
AcDbLine
 10
3.599730896781125
 20
-4.771599258481472
 30
0.0
 11
2.599730896781125
 21
-4.771599258481472
 31
0.0
  0
LINE
  5
4F
330
22
100
AcDbEntity
  8
0
100
AcDbLine
 10
22.59973089678116
 20
-8.771599258481472
 30
0.0
 11
18.59973089678115
 21
-8.771599258481472
 31
0.0
  0
LINE
  5
50
330
22
100
AcDbEntity
  8
0
100
AcDbLine
 10
22.59973089678116
 20
-5.771599258481472
 30
0.0
 11
18.59973089678115
 21
-5.771599258481472
 31
0.0
  0
LINE
  5
51
330
22
100
AcDbEntity
  8
0
100
AcDbLine
 10
22.59973089678116
 20
-4.771599258481472
 30
0.0
 11
17.59973089678115
 21
-4.771599258481472
 31
0.0
  0
LINE
  5
52
330
22
100
AcDbEntity
  8
0
100
AcDbLine
 10
18.59973089678115
 20
-5.771599258481472
 30
0.0
 11
18.59973089678115
 21
-8.771599258481472
 31
0.0
  0
ARC
  5
53
330
22
100
AcDbEntity
  8
0
100
AcDbCircle
 10
22.59973089678116
 20
-7.271599258481472
 30
0.0
 40
1.5
100
AcDbArc
 50
270.0
 51
90.0
  0
ENDBLK
  5
54
330
22
100
AcDbEntity
  8
0
100
AcDbBlockEnd
  0
BLOCK
  5
8B8
330
8AE
100
AcDbEntity
  8
0
100
AcDbBlockBegin
  2
*D2
 70
     1
 10
0.0
 20
0.0
 30
0.0
  3
*D2
  1

  0
LINE
  5
1118
330
8AE
100
AcDbEntity
  8
BEM
 62
     0
440
 16777216
370
    -2
100
AcDbLine
 10
211.6632717484244
 20
425.5927002222653
 30
0.0
 11
86.48667635577824
 21
425.5927002222654
 31
0.0
  0
LINE
  5
1119
330
8AE
100
AcDbEntity
  8
BEM
 62
     0
440
 16777216
370
    -2
100
AcDbLine
 10
133.0286087898244
 20
270.5927002222653
 30
0.0
 11
86.48667635577821
 21
270.5927002222654
 31
0.0
  0
LINE
  5
111A
330
8AE
100
AcDbEntity
  8
BEM
 62
     0
440
 16777216
370
    -2
100
AcDbLine
 10
88.48667635577823
 20
418.5927002222654
 30
0.0
 11
88.4866763557782
 21
277.5927002222654
 31
0.0
  0
SOLID
  5
111B
330
8AE
100
AcDbEntity
  8
BEM
 62
     0
440
 16777216
100
AcDbTrace
 10
87.32000968911156
 20
418.5927002222654
 30
0.0
 11
89.65334302244491
 21
418.5927002222654
 31
0.0
 12
88.48667635577823
 22
425.5927002222654
 32
0.0
 13
88.48667635577823
 23
425.5927002222654
 33
0.0
  0
SOLID
  5
111C
330
8AE
100
AcDbEntity
  8
BEM
 62
     0
440
 16777216
100
AcDbTrace
 10
87.32000968911153
 20
277.5927002222654
 30
0.0
 11
89.65334302244487
 21
277.5927002222654
 31
0.0
 12
88.4866763557782
 22
270.5927002222654
 32
0.0
 13
88.4866763557782
 23
270.5927002222654
 33
0.0
  0
MTEXT
  5
111D
330
8AE
100
AcDbEntity
  8
BEM
 62
     1
440
 16777216
100
AcDbMText
 10
81.98667635577816
 20
348.0927002222654
 30
0.0
 40
7.0
 41
0.0
 71
     5
 72
     1
  1
\A1;155
 11
0.0000000000000001
 21
1.0
 31
0.0
 73
     1
 44
1.0
  0
POINT
  5
111E
330
8AE
100
AcDbEntity
  8
DEFPOINTS
 62
     0
440
 16777216
100
AcDbPoint
 10
213.6632717484244
 20
425.5927002222653
 30
0.0
  0
POINT
  5
111F
330
8AE
100
AcDbEntity
  8
DEFPOINTS
 62
     0
440
 16777216
100
AcDbPoint
 10
135.0286087898244
 20
270.5927002222653
 30
0.0
  0
POINT
  5
1120
330
8AE
100
AcDbEntity
  8
DEFPOINTS
 62
     0
440
 16777216
100
AcDbPoint
 10
88.4866763557782
 20
270.5927002222654
 30
0.0
  0
ENDBLK
  5
8B9
330
8AE
100
AcDbEntity
  8
0
100
AcDbBlockEnd
  0
BLOCK
  5
8D1
330
8C7
100
AcDbEntity
  8
0
100
AcDbBlockBegin
  2
*D3
 70
     1
 10
0.0
 20
0.0
 30
0.0
  3
*D3
  1

  0
LINE
  5
1053
330
8C7
100
AcDbEntity
  8
BEM
 62
     0
440
 16777216
370
    -2
100
AcDbLine
 10
134.1632717484243
 20
278.4835478649849
 30
0.0
 11
134.1632717484243
 21
246.062579636625
 31
0.0
  0
LINE
  5
1054
330
8C7
100
AcDbEntity
  8
BEM
 62
     0
440
 16777216
370
    -2
100
AcDbLine
 10
293.1632717484244
 20
278.4835478649843
 30
0.0
 11
293.1632717484244
 21
246.062579636625
 31
0.0
  0
LINE
  5
1055
330
8C7
100
AcDbEntity
  8
BEM
 62
     0
440
 16777216
370
    -2
100
AcDbLine
 10
141.1632717484243
 20
248.062579636625
 30
0.0
 11
286.1632717484243
 21
248.062579636625
 31
0.0
  0
SOLID
  5
1056
330
8C7
100
AcDbEntity
  8
BEM
 62
     0
440
 16777216
100
AcDbTrace
 10
141.1632717484243
 20
249.2292463032917
 30
0.0
 11
141.1632717484243
 21
246.8959129699583
 31
0.0
 12
134.1632717484243
 22
248.062579636625
 32
0.0
 13
134.1632717484243
 23
248.062579636625
 33
0.0
  0
SOLID
  5
1057
330
8C7
100
AcDbEntity
  8
BEM
 62
     0
440
 16777216
100
AcDbTrace
 10
286.1632717484243
 20
249.2292463032917
 30
0.0
 11
286.1632717484243
 21
246.8959129699583
 31
0.0
 12
293.1632717484244
 22
248.062579636625
 32
0.0
 13
293.1632717484244
 23
248.062579636625
 33
0.0
  0
MTEXT
  5
1058
330
8C7
100
AcDbEntity
  8
BEM
 62
     1
440
 16777216
100
AcDbMText
 10
213.6632717484243
 20
254.562579636625
 30
0.0
 40
7.0
 41
0.0
 71
     5
 72
     1
  1
\A1;%%C159
 73
     1
 44
1.0
  0
POINT
  5
1059
330
8C7
100
AcDbEntity
  8
DEFPOINTS
 62
     0
440
 16777216
100
AcDbPoint
 10
134.1632717484243
 20
280.4835478649849
 30
0.0
  0
POINT
  5
105A
330
8C7
100
AcDbEntity
  8
DEFPOINTS
 62
     0
440
 16777216
100
AcDbPoint
 10
293.1632717484244
 20
280.4835478649843
 30
0.0
  0
POINT
  5
105B
330
8C7
100
AcDbEntity
  8
DEFPOINTS
 62
     0
440
 16777216
100
AcDbPoint
 10
293.1632717484244
 20
248.062579636625
 30
0.0
  0
ENDBLK
  5
8D2
330
8C7
100
AcDbEntity
  8
0
100
AcDbBlockEnd
  0
BLOCK
  5
958
330
94E
100
AcDbEntity
  8
0
100
AcDbBlockBegin
  2
*D5
 70
     1
 10
0.0
 20
0.0
 30
0.0
  3
*D5
  1

  0
LINE
  5
1341
330
94E
100
AcDbEntity
  8
BEM
 62
     0
440
 16777216
370
    -2
100
AcDbLine
 10
104.1632717484245
 20
607.5927002222653
 30
0.0
 11
104.1632717484245
 21
618.4179644830319
 31
0.0
  0
LINE
  5
1342
330
94E
100
AcDbEntity
  8
BEM
 62
     0
440
 16777216
370
    -2
100
AcDbLine
 10
323.1632717484246
 20
607.5927002222653
 30
0.0
 11
323.1632717484246
 21
618.4179644830319
 31
0.0
  0
LINE
  5
1343
330
94E
100
AcDbEntity
  8
BEM
 62
     0
440
 16777216
370
    -2
100
AcDbLine
 10
111.1632717484245
 20
616.4179644830319
 30
0.0
 11
316.1632717484246
 21
616.4179644830319
 31
0.0
  0
SOLID
  5
1344
330
94E
100
AcDbEntity
  8
BEM
 62
     0
440
 16777216
100
AcDbTrace
 10
111.1632717484245
 20
617.5846311496985
 30
0.0
 11
111.1632717484245
 21
615.2512978163652
 31
0.0
 12
104.1632717484245
 22
616.4179644830319
 32
0.0
 13
104.1632717484245
 23
616.4179644830319
 33
0.0
  0
SOLID
  5
1345
330
94E
100
AcDbEntity
  8
BEM
 62
     0
440
 16777216
100
AcDbTrace
 10
316.1632717484246
 20
617.5846311496985
 30
0.0
 11
316.1632717484246
 21
615.2512978163652
 31
0.0
 12
323.1632717484246
 22
616.4179644830319
 32
0.0
 13
323.1632717484246
 23
616.4179644830319
 33
0.0
  0
MTEXT
  5
1346
330
94E
100
AcDbEntity
  8
BEM
 62
     1
440
 16777216
100
AcDbMText
 10
213.6632717484246
 20
622.9179644830319
 30
0.0
 40
7.0
 41
0.0
 71
     5
 72
     1
  1
\A1;%%c219
  7
GREEKS
 73
     1
 44
1.0
  0
POINT
  5
1347
330
94E
100
AcDbEntity
  8
DEFPOINTS
 62
     0
440
 16777216
100
AcDbPoint
 10
104.1632717484245
 20
605.5927002222652
 30
0.0
  0
POINT
  5
1348
330
94E
100
AcDbEntity
  8
DEFPOINTS
 62
     0
440
 16777216
100
AcDbPoint
 10
323.1632717484246
 20
605.5927002222652
 30
0.0
  0
POINT
  5
1349
330
94E
100
AcDbEntity
  8
DEFPOINTS
 62
     0
440
 16777216
100
AcDbPoint
 10
323.1632717484246
 20
616.4179644830319
 30
0.0
  0
ENDBLK
  5
959
330
94E
100
AcDbEntity
  8
0
100
AcDbBlockEnd
  0
BLOCK
  5
A45
330
A3B
100
AcDbEntity
  8
0
100
AcDbBlockBegin
  2
*D8
 70
     1
 10
0.0
 20
0.0
 30
0.0
  3
*D8
  1

  0
LINE
  5
1338
330
A3B
100
AcDbEntity
  8
BEM
 62
     0
440
 16777216
370
    -2
100
AcDbLine
 10
400.9211717963922
 20
501.9977319258467
 30
0.0
 11
412.8125364152002
 21
502.6209319381631
 31
0.0
  0
LINE
  5
1339
330
A3B
100
AcDbEntity
  8
BEM
 62
     0
440
 16777216
370
    -2
100
AcDbLine
 10
407.8818539767038
 20
369.1800038034882
 30
0.0
 11
419.7732185955096
 21
369.8032038158046
 31
0.0
  0
LINE
  5
133A
330
A3B
100
AcDbEntity
  8
BEM
 62
     0
440
 16777216
370
    -2
100
AcDbLine
 10
411.1816290393916
 20
495.5258532823953
 30
0.0
 11
417.4096078323001
 21
376.6889386466007
 31
0.0
  0
SOLID
  5
133B
330
A3B
100
AcDbEntity
  8
BEM
 62
     0
440
 16777216
100
AcDbTrace
 10
412.3466968299386
 20
495.586911898012
 30
0.0
 11
410.0165612488446
 21
495.4647946667785
 31
0.0
 12
410.8152773456911
 22
502.5162600256773
 32
0.0
 13
410.8152773456911
 23
502.5162600256773
 33
0.0
  0
SOLID
  5
133C
330
A3B
100
AcDbEntity
  8
BEM
 62
     0
440
 16777216
100
AcDbTrace
 10
418.574675622847
 20
376.7499972622175
 30
0.0
 11
416.244540041753
 21
376.627880030984
 31
0.0
 12
417.7759595260005
 22
369.6985319033187
 32
0.0
 13
417.7759595260005
 23
369.6985319033187
 33
0.0
  0
MTEXT
  5
133D
330
A3B
100
AcDbEntity
  8
BEM
 62
     1
440
 16777216
100
AcDbMText
 10
420.7867104117505
 20
436.4475796800771
 30
0.0
 40
7.0
 41
0.0
 71
     5
 72
     1
  1
\A1;%%c133
  7
GREEKS
 11
0.0523359562429282
 21
-0.9986295347545746
 31
0.0
 73
     1
 44
1.0
  0
POINT
  5
133E
330
A3B
100
AcDbEntity
  8
DEFPOINTS
 62
     0
440
 16777216
100
AcDbPoint
 10
398.9239127268831
 20
501.8930600133608
 30
0.0
  0
POINT
  5
133F
330
A3B
100
AcDbEntity
  8
DEFPOINTS
 62
     0
440
 16777216
100
AcDbPoint
 10
405.8845949071946
 20
369.0753318910024
 30
0.0
  0
POINT
  5
1340
330
A3B
100
AcDbEntity
  8
DEFPOINTS
 62
     0
440
 16777216
100
AcDbPoint
 10
417.7759595260005
 20
369.6985319033187
 30
0.0
  0
ENDBLK
  5
A46
330
A3B
100
AcDbEntity
  8
0
100
AcDbBlockEnd
  0
BLOCK
  5
CA0
330
C96
100
AcDbEntity
  8
0
100
AcDbBlockBegin
  2
*D11
 70
     1
 10
0.0
 20
0.0
 30
0.0
  3
*D11
  1

  0
LINE
  5
1121
330
C96
100
AcDbEntity
  8
BEM
 62
     0
440
 16777216
370
    -2
100
AcDbLine
 10
102.1632717484245
 20
605.5927002222656
 30
0.0
 11
71.48667635577831
 21
605.5927002222656
 31
0.0
  0
LINE
  5
1122
330
C96
100
AcDbEntity
  8
BEM
 62
     0
440
 16777216
370
    -2
100
AcDbLine
 10
86.48667635577826
 20
335.5927002222653
 30
0.0
 11
71.48667635577826
 21
335.5927002222653
 31
0.0
  0
LINE
  5
1123
330
C96
100
AcDbEntity
  8
BEM
 62
     0
440
 16777216
370
    -2
100
AcDbLine
 10
73.48667635577831
 20
598.5927002222656
 30
0.0
 11
73.48667635577825
 21
342.5927002222653
 31
0.0
  0
SOLID
  5
1124
330
C96
100
AcDbEntity
  8
BEM
 62
     0
440
 16777216
100
AcDbTrace
 10
72.32000968911164
 20
598.5927002222656
 30
0.0
 11
74.65334302244499
 21
598.5927002222656
 31
0.0
 12
73.48667635577831
 22
605.5927002222656
 32
0.0
 13
73.48667635577831
 23
605.5927002222656
 33
0.0
  0
SOLID
  5
1125
330
C96
100
AcDbEntity
  8
BEM
 62
     0
440
 16777216
100
AcDbTrace
 10
72.32000968911158
 20
342.5927002222653
 30
0.0
 11
74.65334302244492
 21
342.5927002222653
 31
0.0
 12
73.48667635577825
 22
335.5927002222653
 32
0.0
 13
73.48667635577825
 23
335.5927002222653
 33
0.0
  0
MTEXT
  5
1126
330
C96
100
AcDbEntity
  8
BEM
 62
     1
440
 16777216
100
AcDbMText
 10
66.98667635577821
 20
470.5927002222654
 30
0.0
 40
7.0
 41
0.0
 71
     5
 72
     1
  1
\A1;270
 11
0.0000000000000001
 21
1.0
 31
0.0
 73
     1
 44
1.0
  0
POINT
  5
1127
330
C96
100
AcDbEntity
  8
DEFPOINTS
 62
     0
440
 16777216
100
AcDbPoint
 10
104.1632717484245
 20
605.5927002222656
 30
0.0
  0
POINT
  5
1128
330
C96
100
AcDbEntity
  8
DEFPOINTS
 62
     0
440
 16777216
100
AcDbPoint
 10
88.48667635577825
 20
335.5927002222653
 30
0.0
  0
POINT
  5
1129
330
C96
100
AcDbEntity
  8
DEFPOINTS
 62
     0
440
 16777216
100
AcDbPoint
 10
73.48667635577825
 20
335.5927002222653
 30
0.0
  0
ENDBLK
  5
CA1
330
C96
100
AcDbEntity
  8
0
100
AcDbBlockEnd
  0
BLOCK
  5
CAD
330
CA3
100
AcDbEntity
  8
0
100
AcDbBlockBegin
  2
*D12
 70
     1
 10
0.0
 20
0.0
 30
0.0
  3
*D12
  1

  0
LINE
  5
112A
330
CA3
100
AcDbEntity
  8
BEM
 62
     0
440
 16777216
370
    -2
100
AcDbLine
 10
86.48667635577826
 20
335.5927002222653
 30
0.0
 11
71.48667635577822
 21
335.5927002222653
 31
0.0
  0
LINE
  5
112B
330
CA3
100
AcDbEntity
  8
BEM
 62
     0
440
 16777216
370
    -2
100
AcDbLine
 10
133.0286087898244
 20
270.5927002222653
 30
0.0
 11
71.4866763557782
 21
270.5927002222654
 31
0.0
  0
LINE
  5
112C
330
CA3
100
AcDbEntity
  8
BEM
 62
     0
440
 16777216
370
    -2
100
AcDbLine
 10
73.48667635577822
 20
328.5927002222653
 30
0.0
 11
73.4866763557782
 21
277.5927002222654
 31
0.0
  0
SOLID
  5
112D
330
CA3
100
AcDbEntity
  8
BEM
 62
     0
440
 16777216
100
AcDbTrace
 10
72.32000968911155
 20
328.5927002222653
 30
0.0
 11
74.65334302244489
 21
328.5927002222653
 31
0.0
 12
73.48667635577822
 22
335.5927002222653
 32
0.0
 13
73.48667635577822
 23
335.5927002222653
 33
0.0
  0
SOLID
  5
112E
330
CA3
100
AcDbEntity
  8
BEM
 62
     0
440
 16777216
100
AcDbTrace
 10
72.32000968911153
 20
277.5927002222654
 30
0.0
 11
74.65334302244487
 21
277.5927002222654
 31
0.0
 12
73.4866763557782
 22
270.5927002222654
 32
0.0
 13
73.4866763557782
 23
270.5927002222654
 33
0.0
  0
MTEXT
  5
112F
330
CA3
100
AcDbEntity
  8
BEM
 62
     1
440
 16777216
100
AcDbMText
 10
66.98667635577816
 20
303.0927002222653
 30
0.0
 40
7.0
 41
0.0
 71
     5
 72
     1
  1
\A1;65
 11
0.0000000000000001
 21
1.0
 31
0.0
 73
     1
 44
1.0
  0
POINT
  5
1130
330
CA3
100
AcDbEntity
  8
DEFPOINTS
 62
     0
440
 16777216
100
AcDbPoint
 10
88.48667635577825
 20
335.5927002222653
 30
0.0
  0
POINT
  5
1131
330
CA3
100
AcDbEntity
  8
DEFPOINTS
 62
     0
440
 16777216
100
AcDbPoint
 10
135.0286087898244
 20
270.5927002222653
 30
0.0
  0
POINT
  5
1132
330
CA3
100
AcDbEntity
  8
DEFPOINTS
 62
     0
440
 16777216
100
AcDbPoint
 10
73.4866763557782
 20
270.5927002222654
 30
0.0
  0
ENDBLK
  5
CAE
330
CA3
100
AcDbEntity
  8
0
100
AcDbBlockEnd
  0
BLOCK
  5
CBA
330
CB0
100
AcDbEntity
  8
0
100
AcDbBlockBegin
  2
*D13
 70
     1
 10
0.0
 20
0.0
 30
0.0
  3
*D13
  1

  0
LINE
  5
1133
330
CB0
100
AcDbEntity
  8
BEM
 62
     0
440
 16777216
370
    -2
100
AcDbLine
 10
102.1632717484245
 20
605.5927002222655
 30
0.0
 11
56.48667635577829
 21
605.5927002222655
 31
0.0
  0
LINE
  5
1134
330
CB0
100
AcDbEntity
  8
BEM
 62
     0
440
 16777216
370
    -2
100
AcDbLine
 10
133.0286087898244
 20
270.5927002222653
 30
0.0
 11
56.4866763557782
 21
270.5927002222654
 31
0.0
  0
LINE
  5
1135
330
CB0
100
AcDbEntity
  8
BEM
 62
     0
440
 16777216
370
    -2
100
AcDbLine
 10
58.48667635577829
 20
598.5927002222655
 30
0.0
 11
58.48667635577822
 21
277.5927002222654
 31
0.0
  0
SOLID
  5
1136
330
CB0
100
AcDbEntity
  8
BEM
 62
     0
440
 16777216
100
AcDbTrace
 10
57.32000968911162
 20
598.5927002222655
 30
0.0
 11
59.65334302244495
 21
598.5927002222655
 31
0.0
 12
58.48667635577829
 22
605.5927002222655
 32
0.0
 13
58.48667635577829
 23
605.5927002222655
 33
0.0
  0
SOLID
  5
1137
330
CB0
100
AcDbEntity
  8
BEM
 62
     0
440
 16777216
100
AcDbTrace
 10
57.32000968911155
 20
277.5927002222654
 30
0.0
 11
59.65334302244488
 21
277.5927002222654
 31
0.0
 12
58.48667635577821
 22
270.5927002222654
 32
0.0
 13
58.48667635577821
 23
270.5927002222654
 33
0.0
  0
MTEXT
  5
1138
330
CB0
100
AcDbEntity
  8
BEM
 62
     1
440
 16777216
100
AcDbMText
 10
51.98667635577818
 20
438.0927002222654
 30
0.0
 40
7.0
 41
0.0
 71
     5
 72
     1
  1
\A1;335
 11
0.0000000000000001
 21
1.0
 31
0.0
 73
     1
 44
1.0
  0
POINT
  5
1139
330
CB0
100
AcDbEntity
  8
DEFPOINTS
 62
     0
440
 16777216
100
AcDbPoint
 10
104.1632717484245
 20
605.5927002222655
 30
0.0
  0
POINT
  5
113A
330
CB0
100
AcDbEntity
  8
DEFPOINTS
 62
     0
440
 16777216
100
AcDbPoint
 10
135.0286087898244
 20
270.5927002222653
 30
0.0
  0
POINT
  5
113B
330
CB0
100
AcDbEntity
  8
DEFPOINTS
 62
     0
440
 16777216
100
AcDbPoint
 10
58.48667635577821
 20
270.5927002222654
 30
0.0
  0
ENDBLK
  5
CBB
330
CB0
100
AcDbEntity
  8
0
100
AcDbBlockEnd
  0
BLOCK
  5
D06
330
CFC
100
AcDbEntity
  8
0
100
AcDbBlockBegin
  2
*D14
 70
     1
 10
0.0
 20
0.0
 30
0.0
  3
*D14
  1

  0
ARC
  5
10BA
330
CFC
100
AcDbEntity
  8
BEM
 62
     0
440
 16777216
370
    -2
100
AcDbCircle
 10
213.6632717484245
 20
425.5927002222652
 30
0.0
 40
84.2644830561438
100
AcDbArc
 50
7.761031632619393
 51
85.23896836738053
  0
SOLID
  5
10BB
330
CFC
100
AcDbEntity
  8
BEM
 62
     0
440
 16777216
100
AcDbTrace
 10
298.3174112096561
 20
437.0813179352417
 30
0.0
 11
295.9943587534379
 21
436.8625218427188
 31
0.0
 12
297.812273259116
 22
430.0027625203258
 32
0.0
 13
297.812273259116
 23
430.0027625203258
 33
0.0
  0
SOLID
  5
10BC
330
CFC
100
AcDbEntity
  8
BEM
 62
     0
440
 16777216
100
AcDbTrace
 10
220.6087723030968
 20
508.400772225114
 30
0.0
 11
220.7056893714804
 21
510.732091921402
 31
0.0
 12
213.6632717484246
 22
509.857183278409
 32
0.0
 13
213.6632717484246
 23
509.857183278409
 33
0.0
  0
MTEXT
  5
10BD
330
CFC
100
AcDbEntity
  8
BEM
 62
     1
440
 16777216
100
AcDbMText
 10
276.1414189705993
 20
491.4309300293708
 30
0.0
 40
7.0
 41
0.0
 71
     5
 72
     1
  1
\A1;87°
 11
0.7253743710122878
 21
-0.688354575693754
 31
0.0
 73
     1
 44
1.0
  0
POINT
  5
10BE
330
CFC
100
AcDbEntity
  8
DEFPOINTS
 62
     0
440
 16777216
100
AcDbPoint
 10
285.1236061777927
 20
470.2460730843682
 30
0.0
  0
POINT
  5
10BF
330
CFC
100
AcDbEntity
  8
DEFPOINTS
 62
     0
440
 16777216
100
AcDbPoint
 10
213.6632717484246
 20
610.5927002222654
 30
0.0
  0
POINT
  5
10C0
330
CFC
100
AcDbEntity
  8
DEFPOINTS
 62
     0
440
 16777216
100
AcDbPoint
 10
407.3974014908118
 20
435.7458757333964
 30
0.0
  0
POINT
  5
10C1
330
CFC
100
AcDbEntity
  8
DEFPOINTS
 62
     0
440
 16777216
100
AcDbPoint
 10
265.1817484364581
 20
428.2926691775302
 30
0.0
  0
POINT
  5
10C2
330
CFC
100
AcDbEntity
  8
DEFPOINTS
 62
     0
440
 16777216
100
AcDbPoint
 10
213.6632717484244
 20
265.5927002222654
 30
0.0
  0
ENDBLK
  5
D07
330
CFC
100
AcDbEntity
  8
0
100
AcDbBlockEnd
  0
BLOCK
  5
113E
330
113D
100
AcDbEntity
  8
0
100
AcDbBlockBegin
  2
*D17
 70
     1
 10
0.0
 20
0.0
 30
0.0
  3
*D17
  1

  0
LINE
  5
132F
330
113D
100
AcDbEntity
  8
BEM
 62
     0
440
 16777216
370
    -2
100
AcDbLine
 10
213.7679436609104
 20
423.5954411527562
 30
0.0
 11
219.6734836787066
 21
310.9110248583355
 31
0.0
  0
LINE
  5
1330
330
113D
100
AcDbEntity
  8
BEM
 62
     0
440
 16777216
370
    -2
100
AcDbLine
 10
405.9892668196806
 20
367.0780728214933
 30
0.0
 11
408.4144657473212
 21
320.8025205882519
 31
0.0
  0
LINE
  5
1331
330
113D
100
AcDbEntity
  8
BEM
 62
     0
440
 16777216
370
    -2
100
AcDbLine
 10
226.5592185095028
 20
313.2746356215453
 30
0.0
 11
401.3193870915532
 21
322.4334279640604
 31
0.0
  0
SOLID
  5
1332
330
113D
100
AcDbEntity
  8
BEM
 62
     0
440
 16777216
100
AcDbTrace
 10
226.498159893886
 20
314.4397034120923
 30
0.0
 11
226.6202771251196
 21
312.1095678309982
 31
0.0
 12
219.5688117662208
 22
312.9082839278447
 32
0.0
 13
219.5688117662208
 23
312.9082839278447
 33
0.0
  0
SOLID
  5
1333
330
113D
100
AcDbEntity
  8
BEM
 62
     0
440
 16777216
100
AcDbTrace
 10
401.2583284759364
 20
323.5984957546074
 30
0.0
 11
401.3804457071699
 21
321.2683601735134
 31
0.0
 12
408.3097938348353
 22
322.799779657761
 32
0.0
 13
408.3097938348353
 23
322.799779657761
 33
0.0
  0
MTEXT
  5
1334
330
113D
100
AcDbEntity
  8
BEM
 62
     1
440
 16777216
100
AcDbMText
 10
308.4908682047118
 20
324.0774116840537
 30
0.0
 40
7.0
 41
0.0
 71
     5
 72
     1
  1
\A1;189
 11
0.9986295347545739
 21
0.0523359562429435
 31
0.0
 73
     1
 44
1.0
  0
POINT
  5
1335
330
113D
100
AcDbEntity
  8
DEFPOINTS
 62
     0
440
 16777216
100
AcDbPoint
 10
213.6632717484245
 20
425.5927002222653
 30
0.0
  0
POINT
  5
1336
330
113D
100
AcDbEntity
  8
DEFPOINTS
 62
     0
440
 16777216
100
AcDbPoint
 10
405.8845949071947
 20
369.0753318910025
 30
0.0
  0
POINT
  5
1337
330
113D
100
AcDbEntity
  8
DEFPOINTS
 62
     0
440
 16777216
100
AcDbPoint
 10
408.3097938348353
 20
322.799779657761
 30
0.0
  0
ENDBLK
  5
113F
330
113D
100
AcDbEntity
  8
0
100
AcDbBlockEnd
  0
ENDSEC
  0
SECTION
  2
ENTITIES
  0
LINE
  5
59
330
1E
100
AcDbEntity
  8
STEMPEL
100
AcDbLine
 10
483.9999999999998
 20
459.9999999999996
 30
0.0
 11
583.9999999999998
 21
459.9999999999995
 31
0.0
  0
LINE
  5
87
330
1E
100
AcDbEntity
  8
HILF
100
AcDbLine
 10
593.9999999999994
 20
-0.0000000000003837
 30
0.0
 11
594.0
 21
839.9999999999995
 31
0.0
  0
LINE
  5
88
330
1E
100
AcDbEntity
  8
HILF
100
AcDbLine
 10
594.0
 20
839.9999999999995
 30
0.0
 11
0.0
 21
840.0
 31
0.0
  0
LINE
  5
89
330
1E
100
AcDbEntity
  8
HILF
100
AcDbLine
 10
0.0
 20
840.0
 30
0.0
 11
-0.0000000000004547
 21
-0.0000000000000031
 31
0.0
  0
LINE
  5
8B
330
1E
100
AcDbEntity
  8
STEMPEL
100
AcDbLine
 10
9.999999999999992
 20
830.0
 30
0.0
 11
9.999999999999566
 21
39.99999999999993
 31
0.0
  0
LINE
  5
8D
330
1E
100
AcDbEntity
  8
STEMPEL
100
AcDbLine
 10
583.9999999999996
 20
39.99999999999963
 30
0.0
 11
583.9999999999998
 21
829.9999999999997
 31
0.0
  0
LINE
  5
8E
330
1E
100
AcDbEntity
  8
STEMPEL
100
AcDbLine
 10
583.9999999999998
 20
829.9999999999997
 30
0.0
 11
9.999999999999992
 21
830.0
 31
0.0
  0
LINE
  5
9C
330
1E
100
AcDbEntity
  8
BEM
100
AcDbLine
 10
593.9999999999998
 20
455.9999999999996
 30
0.0
 11
583.9999999999998
 21
455.9999999999996
 31
0.0
  0
LINE
  5
13E
330
1E
100
AcDbEntity
  8
HILF
100
AcDbLine
 10
593.9999999999994
 20
-0.0000000000003837
 30
0.0
 11
-0.0000000000004547
 21
-0.0000000000000031
 31
0.0
  0
LINE
  5
13F
330
1E
100
AcDbEntity
  8
STEMPEL
100
AcDbLine
 10
583.9999999999996
 20
39.99999999999963
 30
0.0
 11
9.999999999999566
 21
39.99999999999993
 31
0.0
  0
LINE
  5
14A
330
1E
100
AcDbEntity
  8
HILF
100
AcDbLine
 10
296.9999999999995
 20
-0.0000000000002203
 30
0.0
 11
296.9999999999996
 21
39.99999999999977
 31
0.0
  0
TEXT
  5
15B
330
1E
100
AcDbEntity
  8
BEM
100
AcDbText
 10
583.8320989200114
 20
837.3022923857162
 30
0.0
 40
3.999999999999999
  1
Diese Zeichnung ist urheberrechtlich geschützt und bleibt unser Eigentum. Sie darf weder ganz noch teilweise verfielfältigt und nicht an Dritte weitergegeben werden.
 50
179.9999999999999
 41
0.8
  7
GREEKS
100
AcDbText
  0
TEXT
  5
269
330
1E
100
AcDbEntity
  8
TEXT
 62
     1
100
AcDbText
 10
430.0926913090377
 20
593.8456677344455
 30
0.0
 40
6.999999999999998
  1
Außenrohr: P235 TR1 EN10217-1 feuerverzinkt
 50
90.0
 41
0.8
  7
GREEKS
100
AcDbText
  0
TEXT
  5
26A
330
1E
100
AcDbEntity
  8
TEXT
 62
     1
100
AcDbText
 10
441.4457593453926
 20
597.6178851053094
 30
0.0
 40
6.999999999999998
  1
Innenrohr: E195 EN10305 feuerverzinkt
 50
90.0
 41
0.8
  7
GREEKS
100
AcDbText
  0
TEXT
  5
26B
330
1E
100
AcDbEntity
  8
TEXT
 62
     1
100
AcDbText
 10
465.3096485700005
 20
590.1234744606123
 30
0.0
 40
6.999999999999998
  1
Dämmung: 2 K-PU-Schaum
 50
90.0
 41
0.8
  7
GREEKS
100
AcDbText
  0
TEXT
  5
26C
330
1E
100
AcDbEntity
  8
TEXT
 62
     1
100
AcDbText
 10
452.7148131846184
 20
645.2724139813232
 30
0.0
 40
6.999999999999998
  1
und innenbeschichtet
 50
90.0
 41
0.8
  7
GREEKS
100
AcDbText
  0
INSERT
  5
2AF
330
1E
100
AcDbEntity
  8
STEMPEL
100
AcDbBlockReference
  2
LOGO
 10
548.9789472355166
 20
560.9955485457792
 30
0.0
 41
1.999999999999999
 42
1.999999999999999
 43
1.999999999999999
 50
89.99999999999998
  0
TEXT
  5
2B0
330
1E
100
AcDbEntity
  8
TEXT
100
AcDbText
 10
503.2363615897696
 20
602.6261322080836
 30
0.0
 40
3.999999999999999
  1
DIN EN1123-2
 50
90.0
 41
0.8
  7
GREEKS
 72
     1
 11
503.2363615897696
 21
619.6166083985598
 31
0.0
100
AcDbText
  0
TEXT
  5
2B1
102
{ACAD_XDICTIONARY
360
DCE
102
}
330
1E
100
AcDbEntity
  8
TEXT
100
AcDbText
 10
551.3702584697737
 20
644.9837501577823
 30
0.0
 40
3.999999999999999
  1
58023FD0W.DWG
 50
90.0
 41
0.8
  7
GREEKS
100
AcDbText
  0
TEXT
  5
2B2
330
1E
100
AcDbEntity
  8
TEXT
100
AcDbText
 10
542.3598805695783
 20
645.1296391125313
 30
0.0
 40
4.999999999999998
  1
EDV-Art.Nr. 58023.FD0X
 50
90.0
 41
0.8
  7
GREEKS
100
AcDbText
  0
TEXT
  5
2B3
330
1E
100
AcDbEntity
  8
TEXT
100
AcDbText
 10
522.4966558241468
 20
645.1296391125313
 30
0.0
 40
4.999999999999998
  1
Red.-Abzweig 87°
 50
90.0
 41
0.8
  7
GREEKS
100
AcDbText
  0
TEXT
  5
2B4
330
1E
100
AcDbEntity
  8
TEXT
 62
     1
100
AcDbText
 10
506.582512107462
 20
644.9367181557184
 30
0.0
 40
6.999999999999998
  1
Verbundrohr DN150/100
 50
90.0
 41
0.8
  7
GREEKS
100
AcDbText
  0
TEXT
  5
2B5
330
1E
100
AcDbEntity
  8
TEXT
100
AcDbText
 10
530.8923495917425
 20
580.7037590129977
 30
0.0
 40
3.999999999999999
  1
19.05.
 50
90.0
 41
0.8
  7
GREEKS
 72
     1
 11
530.8923495917425
 21
587.4085209177597
 31
0.0
100
AcDbText
  0
TEXT
  5
2B6
330
1E
100
AcDbEntity
  8
TEXT
 62
     1
100
AcDbText
 10
505.8509857108602
 20
570.5006306481884
 30
0.0
 40
6.999999999999998
  1
1:2
 50
90.0
 41
0.8
  7
GREEKS
100
AcDbText
  0
TEXT
  5
2B7
330
1E
100
AcDbEntity
  8
TEXT
 62
     1
100
AcDbText
 10
505.8509857108603
 20
765.4791900623813
 30
0.0
 40
6.999999999999998
  1
58023FD0W
 50
90.0
 41
0.8
  7
GREEKS
 72
     1
 11
505.8509857108603
 21
789.345856729048
 31
0.0
100
AcDbText
  0
TEXT
  5
2B8
330
1E
100
AcDbEntity
  8
TEXT
100
AcDbText
 10
530.9103608027648
 20
614.4216048581254
 30
0.0
 40
3.999999999999999
  1
Koeh
 50
90.0
 41
0.8
  7
GREEKS
 72
     1
 11
530.9103608027648
 21
619.6787477152683
 31
0.0
100
AcDbText
  0
TEXT
  5
2B9
330
1E
100
AcDbEntity
  8
TEXT
100
AcDbText
 10
482.3279999999998
 20
461.8550995097765
 30
0.0
 40
4.999999999999998
  1
Erstellt mit AUTOCAD 2004
 50
90.0
 41
0.8
  7
GREEKS
100
AcDbText
  0
TEXT
  5
2BA
330
1E
100
AcDbEntity
  8
TEXT
100
AcDbText
 10
520.8597452884832
 20
558.6221098221036
 30
0.0
 40
3.999999999999999
  1
2014
 50
90.0
 41
0.8
  7
GREEKS
100
AcDbText
  0
TEXT
  5
2BC
330
1E
100
AcDbEntity
  8
TEXT
100
AcDbText
 10
541.9258382212139
 20
757.2400861497002
 30
0.0
 40
4.999999999999998
  1
ersetzt durch:
 50
90.0
 41
0.8
  7
GREEKS
100
AcDbText
  0
TEXT
  5
2BE
330
1E
100
AcDbEntity
  8
TEXT
100
AcDbText
 10
550.4705361035018
 20
557.6006777387301
 30
0.0
 40
3.999999999999999
  1
Norm.
 50
90.0
 41
0.8
  7
GREEKS
100
AcDbText
  0
TEXT
  5
2BF
330
1E
100
AcDbEntity
  8
TEXT
100
AcDbText
 10
540.310737085716
 20
557.5515086571668
 30
0.0
 40
3.999999999999999
  1
Gepr.
 50
90.0
 41
0.8
  7
GREEKS
100
AcDbText
  0
TEXT
  5
2C0
330
1E
100
AcDbEntity
  8
TEXT
100
AcDbText
 10
530.3700963038202
 20
557.5836127167612
 30
0.0
 40
3.999999999999999
  1
Gez.
 50
90.0
 41
0.8
  7
GREEKS
100
AcDbText
  0
TEXT
  5
2C1
330
1E
100
AcDbEntity
  8
TEXT
100
AcDbText
 10
520.6903890808475
 20
612.4626584226291
 30
0.0
 40
3.999999999999999
  1
Name
 50
90.0
 41
0.8
  7
GREEKS
100
AcDbText
  0
TEXT
  5
2C2
330
1E
100
AcDbEntity
  8
TEXT
100
AcDbText
 10
520.6811949877006
 20
582.3311673153646
 30
0.0
 40
3.999999999999999
  1
Tag
 50
90.0
 41
0.8
  7
GREEKS
100
AcDbText
  0
TEXT
  5
2C3
330
1E
100
AcDbEntity
  8
TEXT
100
AcDbText
 10
575.4067578303358
 20
539.012274438659
 30
0.0
 40
3.999999999999999
  1
Name
 50
90.0
 41
0.8
  7
GREEKS
 72
     1
 11
575.4067578303358
 21
545.3360839624685
 31
0.0
100
AcDbText
  0
TEXT
  5
2C4
330
1E
100
AcDbEntity
  8
TEXT
100
AcDbText
 10
575.3284373066017
 20
520.0934676075477
 30
0.0
 40
3.999999999999999
  1
Tag
 50
90.0
 41
0.8
  7
GREEKS
 72
     1
 11
575.3284373066017
 21
523.8268009408811
 31
0.0
100
AcDbText
  0
TEXT
  5
2C5
330
1E
100
AcDbEntity
  8
TEXT
100
AcDbText
 10
580.3453415397278
 20
468.2664110704572
 30
0.0
 40
3.999999999999999
  1
Index
 50
179.9999999999999
 41
0.8
  7
GREEKS
100
AcDbText
  0
TEXT
  5
2C6
330
1E
100
AcDbEntity
  8
TEXT
100
AcDbText
 10
520.8188176290001
 20
756.723861629699
 30
0.0
 40
4.999999999999998
  1
Ersatz für:
 50
90.0
 41
0.8
  7
GREEKS
100
AcDbText
  0
TEXT
  5
2C7
330
1E
100
AcDbEntity
  8
TEXT
100
AcDbText
 10
563.1543942980691
 20
644.7422383911356
 30
0.0
 40
4.999999999999998
  1
Bauvorhaben
 50
90.0
 41
0.8
  7
GREEKS
100
AcDbText
  0
TEXT
  5
2C8
330
1E
100
AcDbEntity
  8
TEXT
100
AcDbText
 10
491.6867965462863
 20
756.1787549576337
 30
0.0
 40
4.999999999999998
  1
Zeichnungs Nr.
 50
90.0
 41
0.8
  7
GREEKS
100
AcDbText
  0
TEXT
  5
2C9
330
1E
100
AcDbEntity
  8
TEXT
100
AcDbText
 10
491.4510671988219
 20
644.8779403809006
 30
0.0
 40
4.999999999999998
  1
Benennung
 50
90.0
 41
0.8
  7
GREEKS
100
AcDbText
  0
TEXT
  5
2CA
330
1E
100
AcDbEntity
  8
TEXT
100
AcDbText
 10
491.5815831565179
 20
604.2858954734048
 30
0.0
 40
4.999999999999998
  1
Zul. Abw.
 50
90.0
 41
0.8
  7
GREEKS
100
AcDbText
  0
TEXT
  5
2CB
330
1E
100
AcDbEntity
  8
TEXT
100
AcDbText
 10
491.5379104912908
 20
563.5163572150374
 30
0.0
 40
4.999999999999998
  1
Maßstab
 50
90.0
 41
0.8
  7
GREEKS
100
AcDbText
  0
TEXT
  5
2CC
330
1E
100
AcDbEntity
  8
TEXT
100
AcDbText
 10
575.3261810501584
 20
483.8616597963179
 30
0.0
 40
3.999999999999999
  1
Änderung
 50
90.0
 41
0.8
  7
GREEKS
 72
     1
 11
575.3261810501584
 21
494.604516939175
 31
0.0
100
AcDbText
  0
LINE
  5
2CD
330
1E
100
AcDbEntity
  8
HILF
100
AcDbLine
 10
579.1060174197166
 20
643.4909699289883
 30
0.0
 11
579.1060174197168
 21
824.8588839326725
 31
0.0
  0
LINE
  5
2CE
330
1E
100
AcDbEntity
  8
HILF
100
AcDbLine
 10
510.2201636304417
 20
756.723861629699
 30
0.0
 11
510.2201636304417
 21
824.8588839326725
 31
0.0
  0
LINE
  5
2CF
330
1E
100
AcDbEntity
  8
VOLL
100
AcDbLine
 10
533.9999999999998
 20
751.9999999999996
 30
0.0
 11
533.9999999999998
 21
829.9999999999997
 31
0.0
  0
LINE
  5
2D0
330
1E
100
AcDbEntity
  8
HILF
100
AcDbLine
 10
543.9999999999997
 20
644.7736801096944
 30
0.0
 11
544.0
 21
744.8353916556304
 31
0.0
  0
LINE
  5
2D1
330
1E
100
AcDbEntity
  8
HILF
100
AcDbLine
 10
533.9999999999998
 20
644.7736801096944
 30
0.0
 11
533.9999999999998
 21
744.8353916556306
 31
0.0
  0
LINE
  5
2D2
330
1E
100
AcDbEntity
  8
HILF
100
AcDbLine
 10
524.0
 20
644.7736801096944
 30
0.0
 11
524.0000000000001
 21
744.8353916556306
 31
0.0
  0
LINE
  5
2D3
330
1E
100
AcDbEntity
  8
HILF
100
AcDbLine
 10
509.9624175243585
 20
644.7736801096944
 30
0.0
 11
509.9624175243587
 21
744.8353916556308
 31
0.0
  0
LINE
  5
2D4
330
1E
100
AcDbEntity
  8
HILF
100
AcDbLine
 10
543.9999999999996
 20
555.9999999999997
 30
0.0
 11
543.9999999999998
 21
639.9999999999995
 31
0.0
  0
LINE
  5
2D5
330
1E
100
AcDbEntity
  8
HILF
100
AcDbLine
 10
533.9999999999998
 20
555.9999999999997
 30
0.0
 11
533.9999999999998
 21
639.9999999999996
 31
0.0
  0
LINE
  5
2D6
330
1E
100
AcDbEntity
  8
HILF
100
AcDbLine
 10
523.9999999999999
 20
555.9999999999997
 30
0.0
 11
524.0
 21
639.9999999999996
 31
0.0
  0
LINE
  5
2D7
330
1E
100
AcDbEntity
  8
HILF
100
AcDbLine
 10
553.9999999999998
 20
459.9999999999997
 30
0.0
 11
553.9999999999999
 21
555.9999999999998
 31
0.0
  0
LINE
  5
2D8
330
1E
100
AcDbEntity
  8
HILF
100
AcDbLine
 10
543.9999999999996
 20
459.9999999999997
 30
0.0
 11
543.9999999999996
 21
555.9999999999997
 31
0.0
  0
LINE
  5
2D9
330
1E
100
AcDbEntity
  8
HILF
100
AcDbLine
 10
533.9999999999996
 20
459.9999999999997
 30
0.0
 11
533.9999999999998
 21
555.9999999999997
 31
0.0
  0
LINE
  5
2DA
330
1E
100
AcDbEntity
  8
HILF
100
AcDbLine
 10
523.9999999999999
 20
459.9999999999998
 30
0.0
 11
523.9999999999999
 21
555.9999999999997
 31
0.0
  0
LINE
  5
2DB
330
1E
100
AcDbEntity
  8
HILF
100
AcDbLine
 10
513.9999999999997
 20
459.9999999999998
 30
0.0
 11
513.9999999999997
 21
555.9999999999998
 31
0.0
  0
LINE
  5
2DC
330
1E
100
AcDbEntity
  8
HILF
100
AcDbLine
 10
503.9999999999998
 20
459.9999999999998
 30
0.0
 11
503.9999999999999
 21
555.9999999999997
 31
0.0
  0
LINE
  5
2DD
330
1E
100
AcDbEntity
  8
HILF
100
AcDbLine
 10
493.9999999999996
 20
459.9999999999998
 30
0.0
 11
493.9999999999997
 21
555.9999999999998
 31
0.0
  0
LINE
  5
2DE
330
1E
100
AcDbEntity
  8
VOLL
100
AcDbLine
 10
484.0
 20
599.9999999999998
 30
0.0
 11
553.9999999999999
 21
599.9999999999996
 31
0.0
  0
LINE
  5
2DF
330
1E
100
AcDbEntity
  8
VOLL
100
AcDbLine
 10
513.9999999999998
 20
573.9999999999999
 30
0.0
 11
553.9999999999999
 21
573.9999999999997
 31
0.0
  0
LINE
  5
2E0
330
1E
100
AcDbEntity
  8
VOLL
100
AcDbLine
 10
483.9999999999998
 20
533.9999999999998
 30
0.0
 11
583.9999999999998
 21
533.9999999999996
 31
0.0
  0
LINE
  5
2E1
330
1E
100
AcDbEntity
  8
VOLL
100
AcDbLine
 10
483.9999999999997
 20
513.9999999999998
 30
0.0
 11
583.9999999999998
 21
513.9999999999997
 31
0.0
  0
LINE
  5
2E2
330
1E
100
AcDbEntity
  8
VOLL
100
AcDbLine
 10
483.9999999999998
 20
473.9999999999998
 30
0.0
 11
583.9999999999998
 21
473.9999999999996
 31
0.0
  0
LINE
  5
2E3
330
1E
100
AcDbEntity
  8
STEMPEL
100
AcDbLine
 10
514.0
 20
829.9999999999997
 30
0.0
 11
513.9999999999997
 21
555.9999999999998
 31
0.0
  0
LINE
  5
2E4
330
1E
100
AcDbEntity
  8
STEMPEL
100
AcDbLine
 10
553.9999999999999
 20
829.9999999999997
 30
0.0
 11
553.9999999999999
 21
555.9999999999998
 31
0.0
  0
LINE
  5
2E5
330
1E
100
AcDbEntity
  8
STEMPEL
100
AcDbLine
 10
563.9999999999997
 20
555.9999999999995
 30
0.0
 11
563.9999999999997
 21
459.9999999999996
 31
0.0
  0
LINE
  5
2E6
330
1E
100
AcDbEntity
  8
STEMPEL
100
AcDbLine
 10
484.0000000000001
 20
751.9999999999996
 30
0.0
 11
554.0
 21
751.9999999999996
 31
0.0
  0
LINE
  5
2E7
330
1E
100
AcDbEntity
  8
STEMPEL
100
AcDbLine
 10
483.9999999999998
 20
639.9999999999996
 30
0.0
 11
584.0
 21
639.9999999999996
 31
0.0
  0
LINE
  5
2E8
330
1E
100
AcDbEntity
  8
STEMPEL
100
AcDbLine
 10
483.9999999999998
 20
555.9999999999997
 30
0.0
 11
583.9999999999998
 21
555.9999999999997
 31
0.0
  0
LINE
  5
2E9
330
1E
100
AcDbEntity
  8
STEMPEL
100
AcDbLine
 10
484.0
 20
829.9999999999997
 30
0.0
 11
483.9999999999998
 21
459.9999999999996
 31
0.0
  0
HATCH
  5
7FF
330
1E
100
AcDbEntity
  8
SCHRAFF
100
AcDbHatch
 10
0.0
 20
0.0
 30
0.0
210
0.0
220
0.0
230
1.0
  2
_USER
 70
     0
 71
     1
 91
        1
 92
        7
 72
     1
 73
     1
 93
        3
 10
293.1632717484244
 20
375.6891290293732
 42
0.4296339059668347
 10
296.1591603526881
 20
378.846136898102
 42
0.0
 10
293.1632717484244
 20
378.6891290293732
 42
0.0
 97
        3
330
823
330
839
330
800
 75
     0
 76
     0
 52
-0.000000000000031
 41
0.1
 77
     0
 78
     1
 53
360.0
 43
32.73978442935553
 44
73.37279625034509
 45
0.0000000000000001
 46
0.1
 79
     0
 47
0.1101762162710904
 98
        1
 10
294.1855917437271
 20
377.1786084323863
  0
ARC
  5
800
102
{ACAD_REACTORS
330
7FF
330
C94
102
}
330
1E
100
AcDbEntity
  8
SCHRAFF
100
AcDbCircle
 10
293.1632717484244
 20
378.6891290293732
 30
0.0
 40
2.999999999999999
100
AcDbArc
 50
270.0
 51
2.999999999998852
  0
HATCH
  5
801
330
1E
100
AcDbEntity
  8
SCHRAFF
100
AcDbHatch
 10
0.0
 20
0.0
 30
0.0
210
0.0
220
0.0
230
1.0
  2
_USER
 70
     0
 71
     1
 91
        1
 92
        7
 72
     1
 73
     1
 93
        3
 10
293.1632717484244
 20
480.8291083211612
 42
0.0
 10
296.159160352688
 20
480.98611618989
 42
0.3989595459737106
 10
293.1632717484244
 20
483.8291083211612
 42
0.0
 97
        3
330
84A
330
82C
330
802
 75
     0
 76
     0
 52
-0.000000000000031
 41
0.1
 77
     0
 78
     1
 53
360.0
 43
32.73978442935553
 44
73.37279625034509
 45
0.0000000000000001
 46
0.1
 79
     0
 47
0.0415794233525318
 98
        1
 10
294.3375962144275
 20
482.2139593541866
  0
ARC
  5
802
102
{ACAD_REACTORS
330
801
330
C94
102
}
330
1E
100
AcDbEntity
  8
SCHRAFF
100
AcDbCircle
 10
293.1632717484243
 20
480.8291083211612
 30
0.0
 40
2.999999999999999
100
AcDbArc
 50
3.000000000000512
 51
89.99999999999349
  0
LINE
  5
823
102
{ACAD_REACTORS
330
7FF
330
BF6
330
C94
102
}
330
1E
100
AcDbEntity
  8
STEMPEL
100
AcDbLine
 10
329.1435970097805
 20
380.5747779742024
 30
0.0
 11
293.1632717484244
 21
378.6891290293732
 31
0.0
  0
LINE
  5
82C
102
{ACAD_REACTORS
330
801
330
BF6
330
C94
102
}
330
1E
100
AcDbEntity
  8
STEMPEL
100
AcDbLine
 10
323.8053294730001
 20
482.4349905191688
 30
0.0
 11
293.1632717484245
 21
480.8291083211612
 31
0.0
  0
LINE
  5
82E
330
1E
100
AcDbEntity
  8
MITTEL
100
AcDbLine
 10
407.3974014908118
 20
435.7458757333964
 30
0.0
 11
213.6632717484244
 21
425.5927002222652
 31
0.0
  0
LINE
  5
830
102
{ACAD_REACTORS
330
BF6
330
C0B
330
C59
102
}
330
1E
100
AcDbEntity
  8
STEMPEL
100
AcDbLine
 10
398.9239127268833
 20
501.8930600133608
 30
0.0
 11
405.8845949071946
 21
369.0753318910024
 31
0.0
  0
DIMENSION
  5
834
330
1E
100
AcDbEntity
  8
BEM
100
AcDbDimension
  2
*D2
 10
88.4866763557782
 20
270.5927002222654
 30
0.0
 11
81.98667635577816
 21
348.0927002222654
 31
0.0
 70
    32
 71
     5
 42
155.0000000000001
  3
Standard
100
AcDbAlignedDimension
 13
213.6632717484244
 23
425.5927002222653
 33
0.0
 14
135.0286087898244
 24
270.5927002222653
 34
0.0
 50
90.0
100
AcDbRotatedDimension
1001
ACAD
1000
DSTYLE
1002
{
1070
    40
1040
2.0
1070
    41
1040
3.5
1070
    42
1040
1.0
1070
    43
1040
7.0
1070
    44
1040
1.0
1070
    73
1070
     0
1070
    74
1070
     0
1070
    77
1070
     1
1070
    78
1070
     8
1070
    79
1070
     2
1070
   140
1040
3.5
1070
   141
1040
1.5
1070
   146
1040
0.5142857142857144
1070
   147
1040
1.5
1070
   172
1070
     1
1070
   178
1070
     1
1070
   179
1070
     2
1070
   271
1070
     2
1070
   272
1070
     2
1070
   284
1070
     8
1070
   285
1070
     8
1070
   286
1070
     8
1002
}
  0
LINE
  5
839
102
{ACAD_REACTORS
330
7FF
330
BF6
330
C94
102
}
330
1E
100
AcDbEntity
  8
STEMPEL
100
AcDbLine
 10
293.1632717484244
 20
380.691873721369
 30
0.0
 11
293.1632717484244
 21
280.4835478649843
 31
0.0
  0
TEXT
  5
83A
330
1E
100
AcDbEntity
  8
TEXT
 62
     1
100
AcDbText
 10
367.1889872728109
 20
442.3749193282366
 30
0.0
 40
6.999999999999998
  1
DN100
 50
3.000000000000512
 41
0.8
  7
GREEKS
100
AcDbText
  0
DIMENSION
  5
83B
330
1E
100
AcDbEntity
  8
BEM
100
AcDbDimension
  2
*D3
 10
293.1632717484244
 20
248.062579636625
 30
0.0
 11
213.6632717484243
 21
254.562579636625
 31
0.0
 70
    32
  1
%%C<>
 71
     5
 42
159.0
  3
Standard
100
AcDbAlignedDimension
 13
134.1632717484243
 23
280.4835478649849
 33
0.0
 14
293.1632717484244
 24
280.4835478649843
 34
0.0
100
AcDbRotatedDimension
1001
ACAD
1000
DSTYLE
1002
{
1070
    40
1040
2.0
1070
    41
1040
3.5
1070
    42
1040
1.0
1070
    43
1040
7.0
1070
    44
1040
1.0
1070
    73
1070
     0
1070
    74
1070
     0
1070
    77
1070
     1
1070
    78
1070
     8
1070
    79
1070
     2
1070
   140
1040
3.5
1070
   141
1040
1.5
1070
   146
1040
0.5142857142857144
1070
   147
1040
1.5
1070
   172
1070
     1
1070
   178
1070
     1
1070
   179
1070
     2
1070
   271
1070
     2
1070
   272
1070
     2
1070
   284
1070
     8
1070
   285
1070
     8
1070
   286
1070
     8
1002
}
  0
LINE
  5
83C
330
1E
100
AcDbEntity
  8
STEMPEL
100
AcDbLine
 10
293.1632717484244
 20
280.4835478649843
 30
0.0
 11
292.2979347070245
 21
270.5927002222654
 31
0.0
  0
LINE
  5
83D
330
1E
100
AcDbEntity
  8
STEMPEL
100
AcDbLine
 10
134.1632717484243
 20
280.4835478649849
 30
0.0
 11
135.0286087898244
 21
270.5927002222653
 31
0.0
  0
LINE
  5
83E
330
1E
100
AcDbEntity
  8
HILF
100
AcDbLine
 10
288.1537221545668
 20
280.5927002222652
 30
0.0
 11
139.1728213422819
 21
280.5927002222653
 31
0.0
  0
LINE
  5
83F
102
{ACAD_REACTORS
330
C25
102
}
330
1E
100
AcDbEntity
  8
STEMPEL
100
AcDbLine
 10
300.4217165458306
 20
605.5927002222651
 30
0.0
 11
300.8840442947072
 21
604.6012351652556
 31
0.0
  0
LINE
  5
840
102
{ACAD_REACTORS
330
C25
330
C94
102
}
330
1E
100
AcDbEntity
  8
STEMPEL
100
AcDbLine
 10
304.1632717484244
 20
589.8095960043313
 30
0.0
 11
304.1632717484244
 21
573.6453057514421
 31
0.0
  0
ARC
  5
841
102
{ACAD_REACTORS
330
C94
102
}
330
1E
100
AcDbEntity
  8
STEMPEL
100
AcDbCircle
 10
316.1632717484244
 20
549.0927002222652
 30
0.0
 40
17.99999999999999
100
AcDbArc
 50
152.472816379448
 51
179.9999999999999
  0
ARC
  5
842
102
{ACAD_REACTORS
330
C94
102
}
330
1E
100
AcDbEntity
  8
STEMPEL
100
AcDbCircle
 10
269.1632717484244
 20
573.5877002222651
 30
0.0
 40
35.00004740563916
100
AcDbArc
 50
332.472816379448
 51
0.0943014490917708
  0
ARC
  5
843
102
{ACAD_REACTORS
330
C25
102
}
330
1E
100
AcDbEntity
  8
STEMPEL
100
AcDbCircle
 10
269.1632717484244
 20
589.8095960043313
 30
0.0
 40
34.99999999999999
100
AcDbArc
 50
0.0
 51
24.99999999998772
  0
LINE
  5
844
102
{ACAD_REACTORS
330
C25
102
}
330
1E
100
AcDbEntity
  8
STEMPEL
100
AcDbLine
 10
126.9048269510183
 20
605.5927002222651
 30
0.0
 11
126.4424992021416
 21
604.6012351652556
 31
0.0
  0
ARC
  5
845
102
{ACAD_REACTORS
330
C94
102
}
330
1E
100
AcDbEntity
  8
STEMPEL
100
AcDbCircle
 10
111.1632717484245
 20
549.0927002222653
 30
0.0
 40
17.99999999999999
100
AcDbArc
 50
0.0
 51
27.52718362055199
  0
LINE
  5
846
102
{ACAD_REACTORS
330
C25
330
C94
102
}
330
1E
100
AcDbEntity
  8
STEMPEL
100
AcDbLine
 10
123.1632717484245
 20
589.8095960043313
 30
0.0
 11
123.1632717484245
 21
573.6453057514422
 31
0.0
  0
ARC
  5
847
102
{ACAD_REACTORS
330
C94
102
}
330
1E
100
AcDbEntity
  8
STEMPEL
100
AcDbCircle
 10
158.1632717484245
 20
573.587700222265
 30
0.0
 40
35.00004740563916
100
AcDbArc
 50
179.9056985509081
 51
207.527183620552
  0
ARC
  5
848
102
{ACAD_REACTORS
330
C25
102
}
330
1E
100
AcDbEntity
  8
STEMPEL
100
AcDbCircle
 10
158.1632717484245
 20
589.8095960043313
 30
0.0
 40
34.99999999999999
100
AcDbArc
 50
155.0000000000065
 51
179.9999999999999
  0
LINE
  5
849
330
1E
100
AcDbEntity
  8
HILF
100
AcDbLine
 10
133.6266456028425
 20
554.0320154659656
 30
0.0
 11
293.6998978940064
 21
554.0320154659655
 31
0.0
  0
LINE
  5
84A
102
{ACAD_REACTORS
330
801
330
BF6
330
C94
102
}
330
1E
100
AcDbEntity
  8
STEMPEL
100
AcDbLine
 10
293.1632717484243
 20
518.0649523076609
 30
0.0
 11
293.1632717484244
 21
478.6280992270595
 31
0.0
  0
ARC
  5
84B
102
{ACAD_REACTORS
330
C94
102
}
330
1E
100
AcDbEntity
  8
STEMPEL
100
AcDbCircle
 10
280.1632717484244
 20
534.0336717303321
 30
0.0
 40
17.99999999999999
100
AcDbArc
 50
325.2280559680497
 51
0.0
  0
ARC
  5
84C
102
{ACAD_REACTORS
330
C94
102
}
330
1E
100
AcDbEntity
  8
STEMPEL
100
AcDbCircle
 10
303.1632717484244
 20
518.0649523076609
 30
0.0
 40
9.999999999999996
100
AcDbArc
 50
145.2280559680497
 51
179.9999999999999
  0
LINE
  5
84D
102
{ACAD_REACTORS
330
C94
102
}
330
1E
100
AcDbEntity
  8
STEMPEL
100
AcDbLine
 10
134.1632717484245
 20
518.0649523076609
 30
0.0
 11
134.1632717484243
 21
280.4835478649849
 31
0.0
  0
ARC
  5
84E
102
{ACAD_REACTORS
330
C94
102
}
330
1E
100
AcDbEntity
  8
STEMPEL
100
AcDbCircle
 10
147.1632717484245
 20
534.0336717303323
 30
0.0
 40
17.99999999999999
100
AcDbArc
 50
179.9999999999999
 51
214.7719440319503
  0
ARC
  5
84F
102
{ACAD_REACTORS
330
C94
102
}
330
1E
100
AcDbEntity
  8
STEMPEL
100
AcDbCircle
 10
124.1632717484244
 20
518.0649523076611
 30
0.0
 40
9.999999999999996
100
AcDbArc
 50
0.0
 51
34.77194403194893
  0
LINE
  5
850
330
1E
100
AcDbEntity
  8
HILF
100
AcDbLine
 10
135.0162924061
 20
529.4021608691614
 30
0.0
 11
292.3102510907488
 21
529.4021608691613
 31
0.0
  0
LINE
  5
851
330
1E
100
AcDbEntity
  8
HILF
100
AcDbLine
 10
138.6908010339863
 20
521.8000417118308
 30
0.0
 11
288.6357424628625
 21
521.8000417118308
 31
0.0
  0
LINE
  5
852
102
{ACAD_REACTORS
330
C94
102
}
330
1E
100
AcDbEntity
  8
STEMPEL
100
AcDbLine
 10
129.1632717484245
 20
549.0927002222652
 30
0.0
 11
129.1632717484245
 21
534.0336717303322
 31
0.0
  0
LINE
  5
853
102
{ACAD_REACTORS
330
C94
102
}
330
1E
100
AcDbEntity
  8
STEMPEL
100
AcDbLine
 10
298.1632717484245
 20
549.0927002222652
 30
0.0
 11
298.1632717484244
 21
534.0336717303322
 31
0.0
  0
LINE
  5
854
102
{ACAD_REACTORS
330
BC1
330
C25
102
}
330
1E
100
AcDbEntity
  8
STEMPEL
100
AcDbLine
 10
104.1632717484245
 20
605.5927002222655
 30
0.0
 11
323.1632717484246
 21
605.5927002222652
 31
0.0
  0
TEXT
  5
855
330
1E
100
AcDbEntity
  8
TEXT
 62
     1
100
AcDbText
 10
203.7904814110133
 20
566.9244913642337
 30
0.0
 40
6.999999999999998
  1
DN150
 50
90.0
 41
0.8
  7
GREEKS
100
AcDbText
  0
LINE
  5
856
330
1E
100
AcDbEntity
  8
STEMPEL
100
AcDbLine
 10
292.2979347070245
 20
270.5927002222654
 30
0.0
 11
135.0286087898244
 21
270.5927002222653
 31
0.0
  0
LINE
  5
857
330
1E
100
AcDbEntity
  8
MITTEL
100
AcDbLine
 10
213.6632717484246
 20
610.5927002222654
 30
0.0
 11
213.6632717484244
 21
265.5927002222654
 31
0.0
  0
LINE
  5
939
102
{ACAD_REACTORS
330
C25
330
C94
102
}
330
1E
100
AcDbEntity
  8
STEMPEL
100
AcDbLine
 10
320.2632717484246
 20
587.5927002222653
 30
0.0
 11
304.1632717484245
 21
587.5927002222653
 31
0.0
  0
LINE
  5
93A
102
{ACAD_REACTORS
330
BC1
330
C25
330
C94
102
}
330
1E
100
AcDbEntity
  8
STEMPEL
100
AcDbLine
 10
320.2632717484245
 20
605.5927002222651
 30
0.0
 11
320.2632717484243
 21
495.4191821976254
 31
0.0
  0
LINE
  5
93B
102
{ACAD_REACTORS
330
B64
330
BC1
330
C0B
102
}
330
1E
100
AcDbEntity
  8
STEMPEL
100
AcDbLine
 10
323.1632717484245
 20
605.5927002222651
 30
0.0
 11
323.1632717484244
 21
495.4191821976254
 31
0.0
  0
DIMENSION
  5
93C
330
1E
100
AcDbEntity
  8
BEM
100
AcDbDimension
  2
*D5
 10
323.1632717484246
 20
616.4179644830319
 30
0.0
 11
213.6632717484246
 21
622.9179644830319
 31
0.0
 70
    32
  1
%%c<>
 71
     5
 42
219.0
  3
Standard
100
AcDbAlignedDimension
 13
104.1632717484245
 23
605.5927002222652
 33
0.0
 14
323.1632717484246
 24
605.5927002222652
 34
0.0
100
AcDbRotatedDimension
1001
ACAD
1000
DSTYLE
1002
{
1070
    40
1040
2.0
1070
    41
1040
3.5
1070
    42
1040
1.0
1070
    43
1040
7.0
1070
    44
1040
1.0
1070
    73
1070
     0
1070
    74
1070
     0
1070
    77
1070
     1
1070
    78
1070
     8
1070
    79
1070
     2
1070
   140
1040
3.5
1070
   141
1040
1.5
1070
   146
1040
0.5142857142857144
1070
   147
1040
1.5
1070
   172
1070
     1
1070
   178
1070
     1
1070
   179
1070
     2
1070
   271
1070
     2
1070
   272
1070
     2
1070
   284
1070
     8
1070
   285
1070
     8
1070
   286
1070
     8
1070
   289
1070
     0
1070
   340
1005
24
1002
}
  0
LINE
  5
93F
102
{ACAD_REACTORS
330
C25
330
C94
102
}
330
1E
100
AcDbEntity
  8
STEMPEL
100
AcDbLine
 10
123.1632717484245
 20
587.5927002222655
 30
0.0
 11
107.0632717484245
 21
587.5927002222653
 31
0.0
  0
LINE
  5
940
102
{ACAD_REACTORS
330
BC1
330
C25
330
C94
102
}
330
1E
100
AcDbEntity
  8
STEMPEL
100
AcDbLine
 10
107.0632717484245
 20
605.5927002222656
 30
0.0
 11
107.0632717484242
 21
335.5927002222653
 31
0.0
  0
LINE
  5
941
102
{ACAD_REACTORS
330
BC1
102
}
330
1E
100
AcDbEntity
  8
STEMPEL
100
AcDbLine
 10
104.1632717484245
 20
605.5927002222656
 30
0.0
 11
104.1632717484243
 21
333.5927002222654
 31
0.0
  0
LINE
  5
985
102
{ACAD_REACTORS
330
C94
102
}
330
1E
100
AcDbEntity
  8
STEMPEL
100
AcDbLine
 10
108.9132717484244
 20
351.5927002222654
 30
0.0
 11
134.1632717484246
 21
351.5927002222654
 31
0.0
  0
LINE
  5
986
102
{ACAD_REACTORS
330
BC1
102
}
330
1E
100
AcDbEntity
  8
STEMPEL
100
AcDbLine
 10
107.0632717484242
 20
335.5927002222653
 30
0.0
 11
104.1632717484244
 21
335.5927002222653
 31
0.0
  0
LINE
  5
987
102
{ACAD_REACTORS
330
C94
102
}
330
1E
100
AcDbEntity
  8
STEMPEL
100
AcDbLine
 10
107.0632717484243
 20
349.7427002222654
 30
0.0
 11
108.9132717484244
 21
351.5927002222654
 31
0.0
  0
LINE
  5
989
330
1E
100
AcDbEntity
  8
STEMPEL
100
AcDbLine
 10
126.8632717484244
 20
342.5927002222654
 30
0.0
 11
134.1632717484246
 21
342.5927002222654
 31
0.0
  0
LINE
  5
98A
102
{ACAD_REACTORS
330
B6B
330
BC1
330
C0B
102
}
330
1E
100
AcDbEntity
  8
STEMPEL
100
AcDbLine
 10
323.1632717484243
 20
367.2435219098915
 30
0.0
 11
323.1632717484244
 21
333.5927002222653
 31
0.0
  0
LINE
  5
98B
102
{ACAD_REACTORS
330
BC1
330
C94
102
}
330
1E
100
AcDbEntity
  8
STEMPEL
100
AcDbLine
 10
320.2632717484244
 20
367.2435219098915
 30
0.0
 11
320.2632717484244
 21
335.5927002222654
 31
0.0
  0
LINE
  5
98C
102
{ACAD_REACTORS
330
BC1
330
C94
102
}
330
1E
100
AcDbEntity
  8
STEMPEL
100
AcDbLine
 10
323.1632717484243
 20
367.2435219098915
 30
0.0
 11
320.2632717484244
 21
367.2435219098915
 31
0.0
  0
LINE
  5
98D
102
{ACAD_REACTORS
330
C94
102
}
330
1E
100
AcDbEntity
  8
STEMPEL
100
AcDbLine
 10
293.1632717484241
 20
351.5927002222653
 30
0.0
 11
318.4132717484245
 21
351.5927002222653
 31
0.0
  0
LINE
  5
98E
102
{ACAD_REACTORS
330
BC1
102
}
330
1E
100
AcDbEntity
  8
STEMPEL
100
AcDbLine
 10
323.1632717484244
 20
335.5927002222654
 30
0.0
 11
320.2632717484244
 21
335.5927002222654
 31
0.0
  0
LINE
  5
98F
330
1E
100
AcDbEntity
  8
STEMPEL
100
AcDbLine
 10
293.1632717484241
 20
342.5927002222654
 30
0.0
 11
300.4632717484243
 21
342.5927002222653
 31
0.0
  0
LINE
  5
991
102
{ACAD_REACTORS
330
C94
102
}
330
1E
100
AcDbEntity
  8
STEMPEL
100
AcDbLine
 10
320.2632717484243
 20
349.7427002222652
 30
0.0
 11
318.4132717484243
 21
351.5927002222653
 31
0.0
  0
DIMENSION
  5
A31
330
1E
100
AcDbEntity
  8
BEM
100
AcDbDimension
  2
*D8
 10
417.7759595260005
 20
369.6985319033187
 30
0.0
 11
420.7867104117505
 21
436.4475796800771
 31
0.0
 70
    32
  1
%%c<>
 71
     5
 42
133.0000000000001
  3
Standard
100
AcDbAlignedDimension
 13
398.9239127268833
 23
501.8930600133609
 33
0.0
 14
405.8845949071947
 24
369.0753318910025
 34
0.0
 50
272.9999999999991
100
AcDbRotatedDimension
1001
ACAD
1000
DSTYLE
1002
{
1070
    40
1040
2.0
1070
    41
1040
3.5
1070
    42
1040
1.0
1070
    43
1040
7.0
1070
    44
1040
1.0
1070
    73
1070
     0
1070
    74
1070
     0
1070
    77
1070
     1
1070
    78
1070
     8
1070
    79
1070
     2
1070
   140
1040
3.5
1070
   141
1040
1.5
1070
   146
1040
0.5142857142857144
1070
   147
1040
1.5
1070
   172
1070
     1
1070
   178
1070
     1
1070
   179
1070
     2
1070
   271
1070
     2
1070
   272
1070
     2
1070
   284
1070
     8
1070
   285
1070
     8
1070
   286
1070
     8
1070
   289
1070
     0
1070
   340
1005
24
1002
}
  0
LINE
  5
A34
102
{ACAD_REACTORS
330
C59
330
C94
102
}
330
1E
100
AcDbEntity
  8
STEMPEL
100
AcDbLine
 10
385.0739391309266
 20
498.6637827890733
 30
0.0
 11
385.3356189121413
 21
493.6706351153002
 31
0.0
  0
LINE
  5
A35
102
{ACAD_REACTORS
330
C0B
330
C59
330
C94
102
}
330
1E
100
AcDbEntity
  8
STEMPEL
100
AcDbLine
 10
399.0547526174907
 20
499.3964861764746
 30
0.0
 11
323.1632717484244
 21
495.4191821976254
 31
0.0
  0
LINE
  5
A36
102
{ACAD_REACTORS
330
B64
330
C0B
102
}
330
1E
100
AcDbEntity
  8
STEMPEL
100
AcDbLine
 10
398.9239127268833
 20
501.8930600133609
 30
0.0
 11
323.1632717484244
 21
497.9226130626202
 31
0.0
  0
LINE
  5
A37
102
{ACAD_REACTORS
330
C59
330
C94
102
}
330
1E
100
AcDbEntity
  8
STEMPEL
100
AcDbLine
 10
391.5112617488087
 20
375.8323500142604
 30
0.0
 11
391.7729415300232
 21
370.8392023404877
 31
0.0
  0
LINE
  5
A38
102
{ACAD_REACTORS
330
C0B
330
C59
330
C94
102
}
330
1E
100
AcDbEntity
  8
STEMPEL
100
AcDbLine
 10
405.7537550165873
 20
371.5719057278889
 30
0.0
 11
323.1632717484243
 21
367.2435219098915
 31
0.0
  0
LINE
  5
A39
102
{ACAD_REACTORS
330
B6B
330
C0B
102
}
330
1E
100
AcDbEntity
  8
STEMPEL
100
AcDbLine
 10
405.8845949071946
 20
369.0753318910025
 30
0.0
 11
323.1632717484244
 21
364.7400910448965
 31
0.0
  0
LINE
  5
AB8
102
{ACAD_REACTORS
330
BC1
330
C94
102
}
330
1E
100
AcDbEntity
  8
STEMPEL
100
AcDbLine
 10
323.1632717484244
 20
495.4191821976254
 30
0.0
 11
320.2632717484244
 21
495.4191821976253
 31
0.0
  0
LINE
  5
AF2
330
1E
100
AcDbEntity
  8
HILF
100
AcDbLine
 10
326.9402135859255
 20
478.9622587082001
 30
0.0
 11
331.8983085799856
 21
384.3561704157989
 31
0.0
  0
LINE
  5
AF3
330
1E
100
AcDbEntity
  8
HILF
100
AcDbLine
 10
338.2229870765049
 20
381.7411550308595
 30
0.0
 11
332.9569012922698
 21
482.2240576891505
 31
0.0
  0
LINE
  5
AF4
330
1E
100
AcDbEntity
  8
HILF
100
AcDbLine
 10
355.5522274957418
 20
484.4378382230281
 30
0.0
 11
360.9259367960643
 21
381.9013565434584
 31
0.0
  0
LINE
  5
AFA
102
{ACAD_REACTORS
330
BF6
102
}
330
1E
100
AcDbEntity
  8
STEMPEL
100
AcDbLine
 10
357.7429563412114
 20
380.0708621936845
 30
0.0
 11
342.1919870592983
 21
379.2558704279207
 31
0.0
  0
LINE
  5
AFB
102
{ACAD_REACTORS
330
BF6
330
C94
102
}
330
1E
100
AcDbEntity
  8
STEMPEL
100
AcDbLine
 10
357.8478285095585
 20
378.0736136191404
 30
0.0
 11
342.2966589717841
 21
377.2586113584115
 31
0.0
  0
LINE
  5
AFC
102
{ACAD_REACTORS
330
BF6
102
}
330
1E
100
AcDbEntity
  8
STEMPEL
100
AcDbLine
 10
392.7999262341223
 20
377.9026307501727
 30
0.0
 11
374.6625684270926
 21
376.9520921054444
 31
0.0
  0
LINE
  5
AFD
102
{ACAD_REACTORS
330
BF6
330
C59
330
C94
102
}
330
1E
100
AcDbEntity
  8
STEMPEL
100
AcDbLine
 10
392.9045981466082
 20
375.9053716806636
 30
0.0
 11
374.7674405954398
 21
374.9548435309002
 31
0.0
  0
LINE
  5
AFE
102
{ACAD_REACTORS
330
BF6
102
}
330
1E
100
AcDbEntity
  8
STEMPEL
100
AcDbLine
 10
405.2042274760363
 20
382.0575158428121
 30
0.0
 11
402.3940451846101
 21
380.5633154137727
 31
0.0
  0
LINE
  5
AFF
102
{ACAD_REACTORS
330
BF6
330
C59
102
}
330
1E
100
AcDbEntity
  8
STEMPEL
100
AcDbLine
 10
405.3197201530087
 20
379.853784287068
 30
0.0
 11
403.3329883101814
 21
378.7974202280545
 31
0.0
  0
ARC
  5
B00
102
{ACAD_REACTORS
330
BF6
330
C94
102
}
330
1E
100
AcDbEntity
  8
STEMPEL
100
AcDbCircle
 10
329.5622846597238
 20
372.5857416961658
 30
0.0
 40
7.999999999999997
100
AcDbArc
 50
58.69884724320817
 51
92.99999999999908
  0
ARC
  5
B01
102
{ACAD_REACTORS
330
BF6
102
}
330
1E
100
AcDbEntity
  8
STEMPEL
100
AcDbCircle
 10
329.5622846597238
 20
372.5857416961658
 30
0.0
 40
9.999999999999994
100
AcDbArc
 50
58.69884724320817
 51
92.99999999999908
  0
ARC
  5
B02
102
{ACAD_REACTORS
330
BF6
102
}
330
1E
100
AcDbEntity
  8
STEMPEL
100
AcDbCircle
 10
341.5116196281401
 20
392.2380543797301
 30
0.0
 40
12.99999999999999
100
AcDbArc
 50
238.6988472432082
 51
272.9999999999991
  0
ARC
  5
B03
102
{ACAD_REACTORS
330
BF6
330
C94
102
}
330
1E
100
AcDbEntity
  8
STEMPEL
100
AcDbCircle
 10
341.5116196281401
 20
392.2380543797301
 30
0.0
 40
14.99999999999999
100
AcDbArc
 50
238.6988472432082
 51
272.9999999999991
  0
ARC
  5
B04
102
{ACAD_REACTORS
330
BF6
330
C94
102
}
330
1E
100
AcDbEntity
  8
STEMPEL
100
AcDbCircle
 10
358.4758599844738
 20
366.0900592020855
 30
0.0
 40
11.99999999999999
100
AcDbArc
 50
66.11195238227555
 51
92.99999999999908
  0
ARC
  5
B05
102
{ACAD_REACTORS
330
BF6
102
}
330
1E
100
AcDbEntity
  8
STEMPEL
100
AcDbCircle
 10
358.4756597286126
 20
366.0900487071204
 30
0.0
 40
13.99999999999999
100
AcDbArc
 50
66.11195238227555
 51
92.99999999999908
  0
ARC
  5
B06
102
{ACAD_REACTORS
330
BF6
102
}
330
1E
100
AcDbEntity
  8
STEMPEL
100
AcDbCircle
 10
373.4588414335049
 20
399.9205714047996
 30
0.0
 40
22.99999999999999
100
AcDbArc
 50
246.1119523822755
 51
272.9999999999991
  0
ARC
  5
B07
102
{ACAD_REACTORS
330
BF6
330
C94
102
}
330
1E
100
AcDbEntity
  8
STEMPEL
100
AcDbCircle
 10
373.4590416893663
 20
399.9205818997646
 30
0.0
 40
24.99999999999999
100
AcDbArc
 50
246.1119523822755
 51
272.9999999999991
  0
ARC
  5
B08
102
{ACAD_REACTORS
330
BF6
330
C59
102
}
330
1E
100
AcDbEntity
  8
STEMPEL
100
AcDbCircle
 10
391.5961992405346
 20
400.8711100495279
 30
0.0
 40
24.99999999999999
100
AcDbArc
 50
272.9999999999991
 51
297.9999999999987
  0
ARC
  5
B09
102
{ACAD_REACTORS
330
BF6
102
}
330
1E
100
AcDbEntity
  8
STEMPEL
100
AcDbCircle
 10
391.5961992405346
 20
400.8711100495279
 30
0.0
 40
22.99999999999999
100
AcDbArc
 50
272.9999999999991
 51
298.0000000000005
  0
ARC
  5
B0A
102
{ACAD_REACTORS
330
BF6
102
}
330
1E
100
AcDbEntity
  8
STEMPEL
100
AcDbCircle
 10
388.0373542160144
 20
468.7779184128388
 30
0.0
 40
22.99999999999999
100
AcDbArc
 50
67.99999999999953
 51
92.99999999999908
  0
ARC
  5
B0B
102
{ACAD_REACTORS
330
BF6
330
C59
102
}
330
1E
100
AcDbEntity
  8
STEMPEL
100
AcDbCircle
 10
388.0373542160144
 20
468.7779184128388
 30
0.0
 40
24.99999999999999
100
AcDbArc
 50
68.00000000000219
 51
92.99999999999908
  0
ARC
  5
B0C
102
{ACAD_REACTORS
330
BF6
330
C94
102
}
330
1E
100
AcDbEntity
  8
STEMPEL
100
AcDbCircle
 10
369.9001966648461
 20
467.8273902630755
 30
0.0
 40
24.99999999999999
100
AcDbArc
 50
92.99999999999908
 51
119.8880476177232
  0
ARC
  5
B0D
102
{ACAD_REACTORS
330
BF6
102
}
330
1E
100
AcDbEntity
  8
STEMPEL
100
AcDbCircle
 10
369.8999964089848
 20
467.8273797681105
 30
0.0
 40
22.99999999999999
100
AcDbArc
 50
92.99999999999908
 51
119.8880476177232
  0
ARC
  5
B0E
102
{ACAD_REACTORS
330
BF6
102
}
330
1E
100
AcDbEntity
  8
STEMPEL
100
AcDbCircle
 10
351.4626415920582
 20
499.9064063642334
 30
0.0
 40
13.99999999999999
100
AcDbArc
 50
272.9999999999991
 51
299.8880476177232
  0
ARC
  5
B0F
102
{ACAD_REACTORS
330
BF6
330
C94
102
}
330
1E
100
AcDbEntity
  8
STEMPEL
100
AcDbCircle
 10
351.4628418479194
 20
499.9064168591983
 30
0.0
 40
11.99999999999999
100
AcDbArc
 50
272.9999999999991
 51
299.8880476177232
  0
ARC
  5
B10
102
{ACAD_REACTORS
330
BF6
330
C94
102
}
330
1E
100
AcDbEntity
  8
STEMPEL
100
AcDbCircle
 10
337.3247431287046
 20
472.128417160096
 30
0.0
 40
14.99999999999999
100
AcDbArc
 50
92.99999999999908
 51
127.3011527567923
  0
ARC
  5
B11
102
{ACAD_REACTORS
330
BF6
102
}
330
1E
100
AcDbEntity
  8
STEMPEL
100
AcDbCircle
 10
337.3247431287047
 20
472.128417160096
 30
0.0
 40
12.99999999999999
100
AcDbArc
 50
92.99999999999908
 51
127.3011527567923
  0
ARC
  5
B12
102
{ACAD_REACTORS
330
BF6
102
}
330
1E
100
AcDbEntity
  8
STEMPEL
100
AcDbCircle
 10
323.3866418230566
 20
490.4240267972054
 30
0.0
 40
9.999999999999994
100
AcDbArc
 50
272.9999999999991
 51
307.3011527567924
  0
ARC
  5
B13
102
{ACAD_REACTORS
330
BF6
330
C94
102
}
330
1E
100
AcDbEntity
  8
STEMPEL
100
AcDbCircle
 10
323.3866418230565
 20
490.4240267972055
 30
0.0
 40
7.999999999999997
100
AcDbArc
 50
272.9999999999991
 51
307.3011527567898
  0
LINE
  5
B14
102
{ACAD_REACTORS
330
BF6
330
C59
102
}
330
1E
100
AcDbEntity
  8
STEMPEL
100
AcDbLine
 10
399.4887874810689
 20
491.1146076172954
 30
0.0
 11
397.4025190514118
 21
491.9575147770087
 31
0.0
  0
LINE
  5
B15
102
{ACAD_REACTORS
330
BF6
102
}
330
1E
100
AcDbEntity
  8
STEMPEL
100
AcDbLine
 10
399.6042801580414
 20
488.9108760615514
 30
0.0
 11
396.6533058645805
 21
490.1031470678749
 31
0.0
  0
LINE
  5
B16
102
{ACAD_REACTORS
330
BF6
330
C59
330
C94
102
}
330
1E
100
AcDbEntity
  8
STEMPEL
100
AcDbLine
 10
386.7289553099409
 20
493.7436567817032
 30
0.0
 11
368.5917977587725
 21
492.7931286319399
 31
0.0
  0
LINE
  5
B17
102
{ACAD_REACTORS
330
BF6
102
}
330
1E
100
AcDbEntity
  8
STEMPEL
100
AcDbLine
 10
386.8336272224267
 20
491.7463977121941
 30
0.0
 11
368.6962694153971
 21
490.7958590674657
 31
0.0
  0
LINE
  5
B18
102
{ACAD_REACTORS
330
BF6
330
C94
102
}
330
1E
100
AcDbEntity
  8
STEMPEL
100
AcDbLine
 10
352.0908733228347
 20
487.9228624421434
 30
0.0
 11
336.5397037850605
 21
487.1078601814146
 31
0.0
  0
LINE
  5
B19
102
{ACAD_REACTORS
330
BF6
102
}
330
1E
100
AcDbEntity
  8
STEMPEL
100
AcDbLine
 10
352.1953449794594
 20
485.9255928776692
 30
0.0
 11
336.6443756975463
 21
485.1106011119055
 31
0.0
  0
LINE
  5
B1C
102
{ACAD_REACTORS
330
BF6
102
}
330
1E
100
AcDbEntity
  8
STEMPEL
100
AcDbLine
 10
323.9100013854859
 20
480.4377314496597
 30
0.0
 11
293.1632717484244
 21
478.8263636291653
 31
0.0
  0
LINE
  5
B1D
102
{ACAD_REACTORS
330
BF6
102
}
330
1E
100
AcDbEntity
  8
STEMPEL
100
AcDbLine
 10
329.0389250972946
 20
382.5720370437115
 30
0.0
 11
293.1632717484244
 21
380.691873721369
 31
0.0
  0
LINE
  5
B35
330
1E
100
AcDbEntity
  8
STEMPEL
100
AcDbLine
 10
290.6632717484244
 20
518.0649523076609
 30
0.0
 11
290.6632717484246
 21
478.6280992270596
 31
0.0
  0
ARC
  5
B36
330
1E
100
AcDbEntity
  8
STEMPEL
100
AcDbCircle
 10
303.1632717484244
 20
518.0649523076609
 30
0.0
 40
12.5
100
AcDbArc
 50
145.2280559680497
 51
179.9999999999999
  0
ARC
  5
B38
330
1E
100
AcDbEntity
  8
STEMPEL
100
AcDbCircle
 10
280.1632717484244
 20
534.0336717303321
 30
0.0
 40
15.5
100
AcDbArc
 50
325.2280559680497
 51
0.0
  0
LINE
  5
B3A
330
1E
100
AcDbEntity
  8
STEMPEL
100
AcDbLine
 10
295.6632717484244
 20
549.092700222265
 30
0.0
 11
295.6632717484244
 21
534.0336717303321
 31
0.0
  0
ARC
  5
B3B
330
1E
100
AcDbEntity
  8
STEMPEL
100
AcDbCircle
 10
316.1632717484244
 20
549.0927002222652
 30
0.0
 40
20.49999999999999
100
AcDbArc
 50
152.472816379448
 51
179.9999999999999
  0
ARC
  5
B3D
330
1E
100
AcDbEntity
  8
STEMPEL
100
AcDbCircle
 10
269.1632717484244
 20
573.5877002222651
 30
0.0
 40
32.50004740563916
100
AcDbArc
 50
332.472816379448
 51
0.0943014490917708
  0
LINE
  5
B3E
330
1E
100
AcDbEntity
  8
STEMPEL
100
AcDbLine
 10
301.6632717484243
 20
589.8095960043312
 30
0.0
 11
301.6632717484244
 21
573.6453057514421
 31
0.0
  0
ARC
  5
B3F
330
1E
100
AcDbEntity
  8
STEMPEL
100
AcDbCircle
 10
269.1632717484244
 20
589.8095960043313
 30
0.0
 40
32.49999999999999
100
AcDbArc
 50
0.0
 51
24.99999999998772
  0
LINE
  5
B40
330
1E
100
AcDbEntity
  8
STEMPEL
100
AcDbLine
 10
297.6632717484244
 20
605.5927002222654
 30
0.0
 11
298.6182748271154
 21
603.5446895109039
 31
0.0
  0
ARC
  5
B41
330
1E
100
AcDbEntity
  8
STEMPEL
100
AcDbCircle
 10
158.1632717484245
 20
589.8095960043313
 30
0.0
 40
32.49999999999999
100
AcDbArc
 50
155.0000000000065
 51
179.9999999999999
  0
LINE
  5
B43
330
1E
100
AcDbEntity
  8
STEMPEL
100
AcDbLine
 10
129.6632717484246
 20
605.5927002222655
 30
0.0
 11
128.7082686697333
 21
603.5446895109038
 31
0.0
  0
LINE
  5
B44
330
1E
100
AcDbEntity
  8
STEMPEL
100
AcDbLine
 10
125.6632717484245
 20
589.8095960043313
 30
0.0
 11
125.6632717484245
 21
573.6453057514422
 31
0.0
  0
ARC
  5
B45
330
1E
100
AcDbEntity
  8
STEMPEL
100
AcDbCircle
 10
158.1632717484245
 20
573.587700222265
 30
0.0
 40
32.50004740563916
100
AcDbArc
 50
179.9056985509081
 51
207.527183620552
  0
ARC
  5
B46
330
1E
100
AcDbEntity
  8
STEMPEL
100
AcDbCircle
 10
111.1632717484245
 20
549.0927002222653
 30
0.0
 40
20.49999999999999
100
AcDbArc
 50
0.0
 51
27.52718362055199
  0
LINE
  5
B48
330
1E
100
AcDbEntity
  8
STEMPEL
100
AcDbLine
 10
131.6632717484245
 20
549.0927002222652
 30
0.0
 11
131.6632717484245
 21
534.0336717303322
 31
0.0
  0
ARC
  5
B49
330
1E
100
AcDbEntity
  8
STEMPEL
100
AcDbCircle
 10
147.1632717484245
 20
534.0336717303323
 30
0.0
 40
15.5
100
AcDbArc
 50
179.9999999999999
 51
214.7719440319503
  0
ARC
  5
B4B
330
1E
100
AcDbEntity
  8
STEMPEL
100
AcDbCircle
 10
124.1632717484244
 20
518.0649523076611
 30
0.0
 40
12.5
100
AcDbArc
 50
0.0
 51
34.77194403194893
  0
LINE
  5
B4D
330
1E
100
AcDbEntity
  8
STEMPEL
100
AcDbLine
 10
136.6632717484245
 20
518.0649523076609
 30
0.0
 11
136.6632717484243
 21
280.5927002222558
 31
0.0
  0
LINE
  5
B4E
330
1E
100
AcDbEntity
  8
STEMPEL
100
AcDbLine
 10
290.6632717484244
 20
380.6280992270595
 30
0.0
 11
290.6632717484243
 21
280.592700222255
 31
0.0
  0
LINE
  5
B4F
330
1E
100
AcDbEntity
  8
STEMPEL
100
AcDbLine
 10
290.6632717484243
 20
280.592700222255
 30
0.0
 11
289.7883851131661
 21
270.5927002222653
 31
0.0
  0
LINE
  5
B51
330
1E
100
AcDbEntity
  8
STEMPEL
100
AcDbLine
 10
136.6632717484243
 20
280.5927002222558
 30
0.0
 11
137.5381583836828
 21
270.5927002222654
 31
0.0
  0
LINE
  5
B59
330
1E
100
AcDbEntity
  8
STEMPEL
100
AcDbLine
 10
290.6632717484246
 20
478.6280992270596
 30
0.0
 11
293.1632717484244
 21
478.6280992270595
 31
0.0
  0
LINE
  5
B5C
330
1E
100
AcDbEntity
  8
STEMPEL
100
AcDbLine
 10
290.6632717484244
 20
380.6280992270595
 30
0.0
 11
293.1632717484244
 21
380.6280992270595
 31
0.0
  0
ARC
  5
B5E
102
{ACAD_REACTORS
330
B64
102
}
330
1E
100
AcDbEntity
  8
SCHRAFF
100
AcDbCircle
 10
323.1632717484244
 20
497.9226130626202
 30
0.0
 40
3.999999999999999
100
AcDbArc
 50
2.99999999999989
 51
90.0
  0
HATCH
  5
B64
330
1E
100
AcDbEntity
  8
SCHRAFF
100
AcDbHatch
 10
0.0
 20
0.0
 30
0.0
210
0.0
220
0.0
230
1.0
  2
_USER
 70
     0
 71
     1
 91
        1
 92
        7
 72
     1
 73
     1
 93
        3
 10
323.1632717484244
 20
497.9226130626202
 42
0.0
 10
327.1577898874427
 20
498.131956887592
 42
0.3989595459737195
 10
323.1632717484244
 20
501.9226130626202
 42
0.0
 97
        3
330
93B
330
A36
330
B5E
 75
     0
 76
     0
 52
-0.000000000000031
 41
0.1
 77
     0
 78
     1
 53
360.0
 43
-0.0000000000004547
 44
-0.0000000000000031
 45
0.0000000000000001
 46
0.1
 79
     0
 47
0.0993119274807819
 98
        1
 10
324.2039916947677
 20
499.3321775946238
  0
ARC
  5
B65
102
{ACAD_REACTORS
330
B6B
102
}
330
1E
100
AcDbEntity
  8
SCHRAFF
100
AcDbCircle
 10
323.1632717484244
 20
364.7400910448965
 30
0.0
 40
3.999999999999999
100
AcDbArc
 50
270.0
 51
2.99999999999989
  0
HATCH
  5
B6B
330
1E
100
AcDbEntity
  8
SCHRAFF
100
AcDbHatch
 10
0.0
 20
0.0
 30
0.0
210
0.0
220
0.0
230
1.0
  2
_USER
 70
     0
 71
     1
 91
        1
 92
        7
 72
     1
 73
     1
 93
        3
 10
327.1577898874427
 20
364.9494348698683
 42
0.0
 10
323.1632717484243
 20
364.7400910448965
 42
0.0
 10
323.1632717484243
 20
360.7400910448965
 42
0.4296339059668395
 97
        3
330
A39
330
98A
330
B65
 75
     0
 76
     0
 52
-0.000000000000031
 41
0.1
 77
     0
 78
     1
 53
360.0
 43
-0.0000000000004547
 44
-0.0000000000000031
 45
0.0000000000000001
 46
0.1
 79
     0
 47
0.0993119274807824
 98
        1
 10
325.5953349455023
 20
362.9272550596475
  0
HATCH
  5
BA8
330
1E
100
AcDbEntity
  8
SCHRAFF
100
AcDbHatch
 10
0.0
 20
0.0
 30
0.0
210
0.0
220
0.0
230
1.0
  2
_USER
 70
     0
 71
     0
 91
        3
 92
        7
 72
     1
 73
     1
 93
       20
 10
290.6632717484246
 20
478.6280992270596
 42
0.0
 10
293.1632717484244
 20
478.6280992270595
 42
0.0
 10
293.1632717484243
 20
518.0649523076609
 42
-0.1528962216020478
 10
294.9489860341389
 20
523.7680663871865
 42
0.1528962216020359
 10
298.1632717484244
 20
534.0336717303322
 42
0.0
 10
298.1632717484245
 20
549.0927002222652
 42
-0.1206909349745684
 10
300.201021874852
 20
557.4117493850982
 42
0.1202734944247557
 10
304.1632717484244
 20
573.5300946931001
 42
0.0
 10
304.1632717484244
 20
589.8095960043313
 42
0.1095178116832392
 10
300.8840442947072
 20
604.6012351652556
 42
0.0
 10
300.4217165458306
 20
605.5927002222654
 42
0.0
 10
297.6632717484244
 20
605.5927002222654
 42
0.0
 10
298.6182748271154
 20
603.5446895109039
 42
-0.109517811683243
 10
301.6632717484244
 20
589.8095960043311
 42
0.0
 10
301.6632717484243
 20
573.6432103005859
 42
-0.1211241773288985
 10
297.9840427257446
 20
558.567172879936
 42
0.12069093497457
 10
295.6632717484244
 20
549.0927002222649
 42
0.0
 10
295.6632717484244
 20
534.0336717303321
 42
-0.1528962216020476
 10
292.8954146055669
 20
525.1938449070673
 42
0.1528962216020286
 10
290.6632717484244
 20
518.0649523076609
 42
0.0
 97
        0
 92
        7
 72
     1
 73
     1
 93
       22
 10
136.6632717484245
 20
518.0649523076609
 42
0.1528962216020389
 10
134.4311288912817
 20
525.1938449070678
 42
-0.1528962216020408
 10
131.6632717484245
 20
534.0336717303322
 42
0.0
 10
131.6632717484245
 20
549.0927002222652
 42
0.1206909349745683
 10
129.3425007711043
 20
558.5671728799361
 42
-0.12112417732877
 10
125.6632717484245
 20
573.6432103005694
 42
0.0
 10
125.6632717484245
 20
589.8095960043313
 42
-0.1095178116832389
 10
128.7082686697333
 20
603.5446895109038
 42
0.0
 10
129.6632717484246
 20
605.5927002222655
 42
0.0
 10
126.9048269510184
 20
605.5927002222655
 42
0.0
 10
126.4424992021416
 20
604.6012351652556
 42
0.1095178116832388
 10
123.1632717484245
 20
589.8095960043313
 42
0.0
 10
123.1632717484245
 20
573.5300946930981
 42
0.120273494424741
 10
127.125521621997
 20
557.4117493850983
 42
-0.1206909349745701
 10
129.1632717484245
 20
549.092700222265
 42
0.0
 10
129.1632717484245
 20
534.0336717303322
 42
0.1528962216020398
 10
132.3775574627102
 20
523.7680663871864
 42
-0.1528962216020386
 10
134.1632717484245
 20
518.0649523076609
 42
0.0
 10
134.1632717484244
 20
280.4835478649849
 42
0.0
 10
135.0286087898243
 20
270.5927002222653
 42
0.0
 10
137.5381583836828
 20
270.5927002222654
 42
0.0
 10
136.6632717484243
 20
280.592700222256
 42
0.0
 97
        0
 92
        7
 72
     0
 73
     1
 93
        6
 10
290.6632717484243
 20
280.5927002222558
 10
289.7883851131661
 20
270.5927002222653
 10
292.2979347070245
 20
270.5927002222653
 10
293.1632717484244
 20
280.4835478649847
 10
293.1632717484245
 20
380.6280992270596
 10
290.6632717484245
 20
380.6280992270596
 97
        0
 75
     0
 76
     0
 52
44.99999999999996
 41
1.999999999999999
 77
     0
 78
     1
 53
44.99999999999996
 43
-0.0000000000004547
 44
-0.0000000000000031
 45
-1.414213562373094
 46
1.414213562373095
 79
     0
 47
0.7053609077105772
 98
        3
 10
291.3712681680324
 20
496.2659257482106
 10
136.0827148020769
 20
488.5069557633943
 10
291.3712681680323
 20
314.2828115588819
  0
HATCH
  5
BC1
330
1E
100
AcDbEntity
  8
SCHRAFF
100
AcDbHatch
 10
0.0
 20
0.0
 30
0.0
210
0.0
220
0.0
230
1.0
  2
_USER
 70
     0
 71
     1
 91
        3
 92
        7
 72
     0
 73
     1
 93
        4
 10
323.1632717484245
 20
605.5927002222652
 10
320.2632717484245
 20
605.5927002222652
 10
320.2632717484243
 20
495.4191821976253
 10
323.1632717484244
 20
495.4191821976254
 97
        4
330
854
330
93A
330
AB8
330
93B
 92
        7
 72
     0
 73
     1
 93
        4
 10
107.0632717484245
 20
605.5927002222655
 10
104.1632717484246
 20
605.5927002222655
 10
104.1632717484243
 20
335.5927002222653
 10
107.0632717484242
 20
335.5927002222654
 97
        4
330
854
330
941
330
986
330
940
 92
        7
 72
     0
 73
     1
 93
        4
 10
323.1632717484243
 20
367.2435219098915
 10
320.2632717484244
 20
367.2435219098915
 10
320.2632717484244
 20
335.5927002222654
 10
323.1632717484244
 20
335.5927002222654
 97
        4
330
98C
330
98B
330
98E
330
98A
 75
     0
 76
     0
 52
134.9999999999999
 41
1.999999999999999
 77
     0
 78
     1
 53
134.9999999999999
 43
-0.0000000000004547
 44
-0.0000000000000031
 45
-1.414213562373095
 46
-1.414213562373094
 79
     0
 47
0.7053609077105772
 98
        3
 10
322.4289788412232
 20
548.4626329187932
 10
106.4367181119672
 20
546.3465501956617
 10
321.7231203269792
 20
359.4259096523588
  0
HATCH
  5
BF6
330
1E
100
AcDbEntity
  8
SCHRAFF
100
AcDbHatch
 10
0.0
 20
0.0
 30
0.0
210
0.0
220
0.0
230
1.0
  2
_USER
 70
     0
 71
     1
 91
        2
 92
        7
 72
     1
 73
     1
 93
       20
 10
323.9100013854859
 20
480.4377314496597
 42
0.1507946423587063
 10
329.4466858689905
 20
482.4694139115057
 42
-0.1507946423587056
 10
336.6443756975465
 20
485.1106011119055
 42
0.0
 10
352.1953449794594
 20
485.9255928776693
 42
0.1178625008509369
 10
358.4389380092737
 20
487.7683963008355
 42
-0.1178625008509362
 10
368.6962694153971
 20
490.7958590674658
 42
0.0
 10
386.8336272224267
 20
491.7463977121941
 42
-0.1095178116832392
 10
396.6533058645802
 20
490.1031470678751
 42
0.0
 10
399.6042801580415
 20
488.9108760615513
 42
0.0
 10
399.488787481069
 20
491.1146076172953
 42
0.0
 10
397.4025190514107
 20
491.9575147770091
 42
0.1095178116832248
 10
386.7289553099409
 20
493.7436567817032
 42
0.0
 10
368.5917977587726
 20
492.7931286319399
 42
0.1178625008509372
 10
357.442524491247
 20
489.5024082334288
 42
-0.1178625008509363
 10
352.0908733228347
 20
487.9228624421434
 42
0.0
 10
336.5397037850605
 20
487.1078601814146
 42
0.1507946423587041
 10
328.2346770598036
 20
484.0603364886456
 42
-0.1507946423587045
 10
323.805329473
 20
482.4349905191689
 42
0.0
 10
293.1632717484244
 20
480.8291083211612
 42
0.0
 10
293.1632717484244
 20
478.8263636291653
 42
0.0
 97
       20
330
B11
330
B19
330
B0E
330
B0D
330
B17
330
B0A
330
B15
330
830
330
B14
330
B0B
330
B16
330
B0C
330
B0F
330
B18
330
B10
330
B13
330
82C
330
84A
330
B1C
330
B12
 92
        7
 72
     1
 73
     1
 93
       20
 10
329.1435970097803
 20
380.5747779742024
 42
-0.1507946423587046
 10
333.7185750835208
 20
379.421328716536
 42
0.1507946423587056
 10
342.2966589717843
 20
377.2586113584115
 42
0.0
 10
357.8478285095584
 20
378.0736136191404
 42
-0.1178625008509388
 10
363.3352702671416
 20
377.062120617549
 42
0.1178625008509374
 10
374.7674405954399
 20
374.9548435309002
 42
0.0
 10
392.9045981466083
 20
375.9053716806636
 42
0.1095178116832395
 10
403.3329883101818
 20
378.7974202280547
 42
0.0
 10
405.3197201530089
 20
379.853784287068
 42
0.0
 10
405.2042274760363
 20
382.0575158428121
 42
0.0
 10
402.3940451846101
 20
380.5633154137727
 42
-0.1095178116832418
 10
392.7999262341223
 20
377.9026307501728
 42
0.0
 10
374.6625684270926
 20
376.9520921054444
 42
-0.1178625008509359
 10
364.1449717250584
 20
378.8907870251612
 42
0.1178625008509355
 10
357.7429563412114
 20
380.0708621936845
 42
0.0
 10
342.1919870592983
 20
379.2558704279206
 42
-0.1507946423587047
 10
334.7576476894701
 20
381.1302254716285
 42
0.1507946423587052
 10
329.0389250972944
 20
382.5720370437115
 42
0.0
 10
293.1632717484244
 20
380.691873721369
 42
0.0
 10
293.1632717484244
 20
378.6891290293732
 42
0.0
 97
       20
330
B01
330
B1D
330
839
330
823
330
B00
330
B03
330
AFB
330
B04
330
B07
330
AFD
330
B08
330
AFF
330
830
330
AFE
330
B09
330
AFC
330
B06
330
B05
330
AFA
330
B02
 75
     0
 76
     0
 52
137.9999999999999
 41
1.999999999999999
 77
     0
 78
     1
 53
137.9999999999999
 43
-0.0000000000004547
 44
-0.0000000000000031
 45
-1.338261212717717
 46
-1.486289650954787
 79
     0
 47
0.7053609077105772
 98
        2
 10
313.2528364284925
 20
480.747985778578
 10
311.8411224454114
 20
380.5867368836762
  0
HATCH
  5
C0B
330
1E
100
AcDbEntity
  8
SCHRAFF
100
AcDbHatch
 10
0.0
 20
0.0
 30
0.0
210
0.0
220
0.0
230
1.0
  2
_USER
 70
     0
 71
     1
 91
        2
 92
        7
 72
     0
 73
     1
 93
        4
 10
323.1632717484244
 20
497.9226130626202
 10
323.1632717484244
 20
495.4191821976254
 10
399.0547526174907
 20
499.3964861764746
 10
398.9239127268833
 20
501.8930600133609
 97
        4
330
830
330
A36
330
93B
330
A35
 92
        7
 72
     0
 73
     1
 93
        4
 10
323.1632717484243
 20
367.2435219098915
 10
323.1632717484243
 20
364.7400910448965
 10
405.8845949071946
 20
369.0753318910025
 10
405.7537550165873
 20
371.5719057278889
 97
        4
330
830
330
A38
330
98A
330
A39
 75
     0
 76
     0
 52
47.99999999999996
 41
1.999999999999999
 77
     0
 78
     1
 53
47.99999999999997
 43
-0.0000000000004547
 44
-0.0000000000000031
 45
-1.486289650954787
 46
1.338261212717717
 79
     0
 47
0.7053609077105772
 98
        2
 10
340.7812606212772
 20
497.6766475636319
 10
342.8988331186026
 20
367.1848796371751
  0
HATCH
  5
C25
330
1E
100
AcDbEntity
  8
SCHRAFF
100
AcDbHatch
 10
0.0
 20
0.0
 30
0.0
210
0.0
220
0.0
230
1.0
  2
NET
 70
     0
 71
     1
 91
        2
 92
        7
 72
     1
 73
     1
 93
        6
 10
304.1632717484244
 20
589.8095960043312
 42
0.0
 10
304.1632717484244
 20
587.5927002222653
 42
0.0
 10
320.2632717484244
 20
587.5927002222653
 42
0.0
 10
320.2632717484245
 20
605.5927002222652
 42
0.0
 10
300.4217165458305
 20
605.5927002222652
 42
0.0
 10
300.8840442947072
 20
604.6012351652557
 42
-0.1095178116832411
 97
        6
330
854
330
83F
330
843
330
840
330
939
330
93A
 92
        7
 72
     1
 73
     1
 93
        6
 10
126.4424992021418
 20
604.6012351652558
 42
0.0
 10
126.9048269510184
 20
605.5927002222655
 42
0.0
 10
107.0632717484245
 20
605.5927002222655
 42
0.0
 10
107.0632717484245
 20
587.5927002222653
 42
0.0
 10
123.1632717484245
 20
587.5927002222655
 42
0.0
 10
123.1632717484245
 20
589.8095960043319
 42
-0.1095178116832379
 97
        6
330
844
330
854
330
940
330
93F
330
846
330
848
 75
     0
 76
     1
 52
44.99999999999996
 41
19.99999999999999
 77
     0
 78
     2
 53
44.99999999999996
 43
-0.0000000000004547
 44
-0.0000000000000031
 45
-1.767766952966367
 46
1.767766952966369
 79
     0
 53
134.9999999999999
 43
-0.0000000000004547
 44
-0.0000000000000031
 45
-1.767766952966369
 46
-1.767766952966367
 79
     0
 47
0.7053609077105772
 98
        2
 10
311.8411224454115
 20
597.1325355508228
 10
118.4362884908599
 20
597.8378964585337
  0
HATCH
  5
C59
330
1E
100
AcDbEntity
  8
SCHRAFF
100
AcDbHatch
 10
0.0
 20
0.0
 30
0.0
210
0.0
220
0.0
230
1.0
  2
NET
 70
     0
 71
     1
 91
        2
 92
        7
 72
     1
 73
     1
 93
        6
 10
385.0739391309266
 20
498.6637827890734
 42
0.0
 10
385.3356189121413
 20
493.6706351153003
 42
0.0
 10
386.7289553099409
 20
493.7436567817032
 42
-0.1095178116832252
 10
397.4025190514108
 20
491.9575147770091
 42
0.0
 10
399.488787481069
 20
491.1146076172953
 42
0.0
 10
399.0547526174906
 20
499.3964861764746
 42
0.0
 97
        6
330
A35
330
A34
330
B16
330
B0B
330
B14
330
830
 92
        7
 72
     1
 73
     1
 93
        6
 10
392.9045981466082
 20
375.9053716806636
 42
0.0
 10
391.5112617488087
 20
375.8323500142607
 42
0.0
 10
391.7729415300232
 20
370.8392023404877
 42
0.0
 10
405.7537550165872
 20
371.5719057278889
 42
0.0
 10
405.3197201530088
 20
379.8537842870681
 42
0.0
 10
403.3329883101818
 20
378.7974202280547
 42
-0.1095178116832405
 97
        6
330
AFF
330
B08
330
AFD
330
A37
330
A38
330
830
 75
     0
 76
     1
 52
47.99999999999996
 41
19.99999999999999
 77
     0
 78
     2
 53
47.99999999999997
 43
-0.0000000000004547
 44
-0.0000000000000031
 45
-1.857862063693484
 46
1.672826515897146
 79
     0
 53
137.9999999999999
 43
-0.0000000000004547
 44
-0.0000000000000031
 45
-1.672826515897146
 46
-1.857862063693484
 79
     0
 47
0.7053609077105772
 98
        2
 10
392.3088255718474
 20
496.9712866559211
 10
401.4849679845781
 20
374.9438496219914
  0
HATCH
  5
C94
330
1E
100
AcDbEntity
  8
SCHRAFF
100
AcDbHatch
 10
0.0
 20
0.0
 30
0.0
210
0.0
220
0.0
230
1.0
  2
HONEY
 70
     0
 71
     1
 91
        3
 92
        7
 72
     1
 73
     1
 93
       20
 10
294.9489860341387
 20
523.7680663871864
 42
0.15289622160204
 10
293.1632717484244
 20
518.0649523076609
 42
0.0
 10
293.1632717484244
 20
483.8291083211612
 42
-0.3989595459737092
 10
296.159160352688
 20
480.98611618989
 42
0.0
 10
323.805329473
 20
482.4349905191689
 42
0.1507946423587051
 10
328.2346770598037
 20
484.0603364886456
 42
-0.150794642358704
 10
336.5397037850605
 20
487.1078601814146
 42
0.0
 10
352.0908733228347
 20
487.9228624421434
 42
0.1178625008509361
 10
357.442524491247
 20
489.5024082334288
 42
-0.1178625008509369
 10
368.5917977587726
 20
492.7931286319399
 42
0.0
 10
385.3356189121413
 20
493.6706351153003
 42
0.0
 10
385.0739391309266
 20
498.6637827890734
 42
0.0
 10
323.1632717484243
 20
495.4191821976254
 42
0.0
 10
320.2632717484243
 20
495.4191821976253
 42
0.0
 10
320.2632717484244
 20
587.5927002222653
 42
0.0
 10
304.1632717484244
 20
587.5927002222653
 42
0.0
 10
304.1632717484244
 20
573.6453057514084
 42
-0.1211084169868324
 10
300.2010218748519
 20
557.4117493850983
 42
0.1206909349745675
 10
298.1632717484244
 20
549.0927002222652
 42
0.0
 10
298.1632717484244
 20
534.0336717303321
 42
-0.1528962216020388
 97
       20
330
939
330
840
330
842
330
841
330
853
330
84B
330
84C
330
84A
330
802
330
82C
330
B13
330
B10
330
B18
330
B0F
330
B0C
330
B16
330
A34
330
A35
330
AB8
330
93A
 92
        7
 72
     1
 73
     1
 93
       11
 10
134.1632717484245
 20
518.0649523076611
 42
0.1528962216020396
 10
132.3775574627102
 20
523.7680663871865
 42
-0.1528962216020389
 10
129.1632717484245
 20
534.0336717303323
 42
0.0
 10
129.1632717484245
 20
549.0927002222653
 42
0.120690934974567
 10
127.125521621997
 20
557.4117493850983
 42
-0.1202734944250301
 10
123.1632717484245
 20
573.5300946931381
 42
0.0
 10
123.1632717484245
 20
587.5927002222655
 42
0.0
 10
107.0632717484245
 20
587.5927002222653
 42
0.0
 10
107.0632717484242
 20
349.7427002222654
 42
0.0
 10
108.9132717484244
 20
351.5927002222654
 42
0.0
 10
134.1632717484244
 20
351.5927002222654
 42
0.0
 97
       11
330
84F
330
84E
330
852
330
845
330
847
330
846
330
93F
330
940
330
987
330
985
330
84D
 92
        7
 72
     1
 73
     1
 93
       15
 10
296.1591603526881
 20
378.846136898102
 42
-0.4296339059668359
 10
293.1632717484244
 20
375.6891290293732
 42
0.0
 10
293.1632717484244
 20
351.5927002222653
 42
0.0
 10
318.4132717484242
 20
351.5927002222653
 42
0.0
 10
320.2632717484244
 20
349.7427002222651
 42
0.0
 10
320.2632717484244
 20
367.2435219098915
 42
0.0
 10
323.163271748424
 20
367.2435219098915
 42
0.0
 10
391.7729415300232
 20
370.8392023404877
 42
0.0
 10
391.5112617488087
 20
375.8323500142607
 42
0.0
 10
374.7674405954399
 20
374.9548435309002
 42
-0.1178625008509374
 10
363.3352702671416
 20
377.0621206175489
 42
0.1178625008509382
 10
357.8478285095584
 20
378.0736136191404
 42
0.0
 10
342.2966589717843
 20
377.2586113584115
 42
-0.1507946423587052
 10
333.7185750835208
 20
379.421328716536
 42
0.150794642358704
 10
329.1435970097803
 20
380.5747779742024
 42
0.0
 97
       15
330
A37
330
AFD
330
B07
330
B04
330
AFB
330
B03
330
B00
330
823
330
800
330
839
330
98D
330
991
330
98B
330
98C
330
A38
 75
     0
 76
     1
 52
-0.000000000000031
 41
30.0
 77
     0
 78
     3
 53
360.0
 43
-0.0000000000004547
 44
-0.0000000000000031
 45
5.625
 46
3.247595249999996
 79
     2
 49
3.749999999999999
 49
-7.499999999999998
 53
119.9999999999999
 43
-0.0000000000004547
 44
-0.0000000000000031
 45
-5.624999987709672
 46
3.24759527128747
 79
     2
 49
3.749999999999999
 49
-7.499999999999999
 53
59.99999999999996
 43
-0.0000000000004547
 44
-0.0000000000000031
 45
0.0000000122903298
 46
6.495190521287468
 79
     2
 49
-7.499999999999998
 49
3.749999999999999
 47
0.7053609077105772
 98
        3
 10
304.7825525300062
 20
525.1857229643443
 10
127.6124309035907
 20
482.1587075939993
 10
303.3708385469251
 20
369.3009623603066
  0
DIMENSION
  5
C95
330
1E
100
AcDbEntity
  8
BEM
100
AcDbDimension
  2
*D11
 10
73.48667635577825
 20
335.5927002222653
 30
0.0
 11
66.98667635577821
 21
470.5927002222654
 31
0.0
 70
    32
 71
     5
 42
270.0000000000003
  3
Standard
100
AcDbAlignedDimension
 13
104.1632717484245
 23
605.5927002222656
 33
0.0
 14
88.48667635577825
 24
335.5927002222653
 34
0.0
 50
90.0
100
AcDbRotatedDimension
1001
ACAD
1000
DSTYLE
1002
{
1070
    40
1040
2.0
1070
    41
1040
3.5
1070
    42
1040
1.0
1070
    43
1040
7.0
1070
    44
1040
1.0
1070
    73
1070
     0
1070
    74
1070
     0
1070
    77
1070
     1
1070
    78
1070
     8
1070
    79
1070
     2
1070
   140
1040
3.5
1070
   141
1040
1.5
1070
   146
1040
0.5142857142857144
1070
   147
1040
1.5
1070
   172
1070
     1
1070
   178
1070
     1
1070
   179
1070
     2
1070
   271
1070
     2
1070
   272
1070
     2
1070
   284
1070
     8
1070
   285
1070
     8
1070
   286
1070
     8
1002
}
  0
DIMENSION
  5
CA2
330
1E
100
AcDbEntity
  8
BEM
100
AcDbDimension
  2
*D12
 10
73.4866763557782
 20
270.5927002222654
 30
0.0
 11
66.98667635577816
 21
303.0927002222653
 31
0.0
 70
    32
 71
     5
 42
64.99999999999994
  3
Standard
100
AcDbAlignedDimension
 13
88.48667635577825
 23
335.5927002222653
 33
0.0
 14
135.0286087898244
 24
270.5927002222653
 34
0.0
 50
90.0
100
AcDbRotatedDimension
1001
ACAD
1000
DSTYLE
1002
{
1070
   279
1070
     1
1070
    40
1040
2.0
1070
    41
1040
3.5
1070
    42
1040
1.0
1070
    43
1040
7.0
1070
    44
1040
1.0
1070
    73
1070
     0
1070
    74
1070
     0
1070
    77
1070
     1
1070
    78
1070
     8
1070
    79
1070
     2
1070
   140
1040
3.5
1070
   141
1040
1.5
1070
   146
1040
0.5142857142857144
1070
   147
1040
1.5
1070
   172
1070
     1
1070
   178
1070
     1
1070
   179
1070
     2
1070
   271
1070
     2
1070
   272
1070
     2
1070
   284
1070
     8
1070
   285
1070
     8
1070
   286
1070
     8
1002
}
  0
DIMENSION
  5
CAF
330
1E
100
AcDbEntity
  8
BEM
100
AcDbDimension
  2
*D13
 10
58.48667635577821
 20
270.5927002222654
 30
0.0
 11
51.98667635577818
 21
438.0927002222654
 31
0.0
 70
    32
 71
     5
 42
335.0000000000002
  3
Standard
100
AcDbAlignedDimension
 13
104.1632717484245
 23
605.5927002222655
 33
0.0
 14
135.0286087898244
 24
270.5927002222653
 34
0.0
 50
90.0
100
AcDbRotatedDimension
1001
ACAD
1000
DSTYLE
1002
{
1070
    40
1040
2.0
1070
    41
1040
3.5
1070
    42
1040
1.0
1070
    43
1040
7.0
1070
    44
1040
1.0
1070
    73
1070
     0
1070
    74
1070
     0
1070
    77
1070
     1
1070
    78
1070
     8
1070
    79
1070
     2
1070
   140
1040
3.5
1070
   141
1040
1.5
1070
   146
1040
0.5142857142857144
1070
   147
1040
1.5
1070
   172
1070
     1
1070
   178
1070
     1
1070
   179
1070
     2
1070
   271
1070
     2
1070
   272
1070
     2
1070
   284
1070
     8
1070
   285
1070
     8
1070
   286
1070
     8
1002
}
  0
LINE
  5
CDD
330
1E
100
AcDbEntity
  8
BEM
100
AcDbLine
 10
90.48667635577826
 20
335.5927002222653
 30
0.0
 11
102.1632717484243
 21
335.5927002222653
 31
0.0
  0
DIMENSION
  5
CFB
330
1E
100
AcDbEntity
  8
BEM
100
AcDbDimension
  2
*D14
 10
213.6632717484244
 20
265.5927002222654
 30
0.0
 11
276.1414189705994
 21
491.4309300293708
 31
0.0
 70
    34
 71
     5
 42
1.518436449235065
  3
Standard
100
AcDb2LineAngularDimension
 13
407.3974014908118
 23
435.7458757333964
 33
0.0
 14
265.1817484364581
 24
428.2926691775302
 34
0.0
 15
213.6632717484246
 25
610.5927002222654
 35
0.0
 16
285.1236061777927
 26
470.2460730843682
 36
0.0
1001
ACAD
1000
DSTYLE
1002
{
1070
    40
1040
2.0
1070
    41
1040
3.5
1070
    42
1040
1.0
1070
    43
1040
7.0
1070
    44
1040
1.0
1070
    73
1070
     0
1070
    74
1070
     0
1070
    77
1070
     1
1070
    78
1070
     8
1070
    79
1070
     2
1070
   140
1040
3.5
1070
   141
1040
1.5
1070
   146
1040
0.5142857142857144
1070
   147
1040
1.5
1070
   172
1070
     1
1070
   178
1070
     1
1070
   179
1070
     2
1070
   271
1070
     2
1070
   272
1070
     2
1070
   284
1070
     8
1070
   285
1070
     8
1070
   286
1070
     8
1002
}
  0
HATCH
  5
D33
330
1E
100
AcDbEntity
  8
SCHRAFF
100
AcDbHatch
 10
0.0
 20
0.0
 30
0.0
210
0.0
220
0.0
230
1.0
  2
NET
 70
     0
 71
     0
 91
        2
 92
        7
 72
     0
 73
     1
 93
       11
 10
320.2632717484244
 20
349.7427002222651
 10
318.4132717484243
 20
351.5927002222653
 10
293.1632717484244
 20
351.5927002222653
 10
293.1632717484244
 20
342.5927002222653
 10
300.4632717484245
 20
342.5927002222653
 10
304.5047236327517
 20
335.5927002222653
 10
315.6632717484243
 20
335.5927002222653
 10
315.6632717484244
 20
333.5927002222654
 10
323.1632717484244
 20
333.5927002222653
 10
323.1632717484244
 20
335.5927002222654
 10
320.2632717484245
 20
335.5927002222654
 97
        0
 92
        7
 72
     0
 73
     1
 93
       11
 10
134.1632717484243
 20
351.5927002222654
 10
108.9132717484243
 20
351.5927002222654
 10
107.0632717484244
 20
349.7427002222655
 10
107.0632717484244
 20
335.5927002222653
 10
104.1632717484244
 20
335.5927002222653
 10
104.1632717484244
 20
333.5927002222655
 10
111.7632717484244
 20
333.5927002222655
 10
111.7632717484244
 20
335.5927002222656
 10
122.8218198640972
 20
335.5927002222655
 10
126.8632717484244
 20
342.5927002222654
 10
134.1632717484243
 20
342.5927002222654
 97
        0
 75
     0
 76
     1
 52
44.99999999999996
 41
19.99999999999999
 77
     0
 78
     2
 53
44.99999999999996
 43
-2.376585155873229
 44
77.60444542450852
 45
-1.767766952966367
 46
1.767766952966369
 79
     0
 53
134.9999999999999
 43
-2.376585155873229
 44
77.60444542450852
 45
-1.767766952966369
 46
-1.767766952966367
 79
     0
 47
0.2699286479089143
 98
        2
 10
311.153891915919
 20
346.6447970353724
 10
114.7973796000594
 20
345.0252258231734
  0
LINE
  5
D34
330
1E
100
AcDbEntity
  8
STEMPEL
100
AcDbLine
 10
323.1632717484244
 20
333.5927002222653
 30
0.0
 11
293.1632717484244
 21
333.5927002222654
 31
0.0
  0
LINE
  5
D35
330
1E
100
AcDbEntity
  8
STEMPEL
100
AcDbLine
 10
300.4632717484244
 20
342.5927002222653
 30
0.0
 11
304.5047236327518
 21
335.5927002222652
 31
0.0
  0
LINE
  5
D36
330
1E
100
AcDbEntity
  8
STEMPEL
100
AcDbLine
 10
315.6632717484245
 20
335.5927002222653
 30
0.0
 11
293.1632717484244
 21
335.5927002222653
 31
0.0
  0
LINE
  5
D37
330
1E
100
AcDbEntity
  8
STEMPEL
100
AcDbLine
 10
315.6632717484244
 20
333.5927002222653
 30
0.0
 11
315.6632717484243
 21
335.5927002222653
 31
0.0
  0
POINT
  5
D38
330
1E
100
AcDbEntity
  8
DEFPOINTS
  6
ByBlock
 62
     0
100
AcDbPoint
 10
305.6632717484244
 20
335.5927002222653
 30
0.0
 50
360.0
  0
POINT
  5
D39
330
1E
100
AcDbEntity
  8
DEFPOINTS
  6
ByBlock
 62
     0
100
AcDbPoint
 10
315.6632717484244
 20
333.5927002222653
 30
0.0
 50
360.0
  0
POINT
  5
D3A
330
1E
100
AcDbEntity
  8
DEFPOINTS
  6
ByBlock
 62
     0
100
AcDbPoint
 10
304.5047236327519
 20
335.5927002222653
 30
0.0
 50
360.0
  0
POINT
  5
D3B
330
1E
100
AcDbEntity
  8
DEFPOINTS
  6
ByBlock
 62
     0
100
AcDbPoint
 10
304.5047236327519
 20
335.5927002222653
 30
0.0
 50
360.0
  0
POINT
  5
D3C
330
1E
100
AcDbEntity
  8
DEFPOINTS
  6
ByBlock
 62
     0
100
AcDbPoint
 10
304.5047236327518
 20
335.5927002222652
 30
0.0
 50
360.0
  0
POINT
  5
D3D
330
1E
100
AcDbEntity
  8
DEFPOINTS
  6
ByBlock
 62
     0
100
AcDbPoint
 10
315.6632717484244
 20
333.5927002222653
 30
0.0
 50
360.0
  0
LINE
  5
D3E
330
1E
100
AcDbEntity
  8
STEMPEL
100
AcDbLine
 10
134.1632717484243
 20
333.5927002222654
 30
0.0
 11
104.1632717484244
 21
333.5927002222655
 31
0.0
  0
LINE
  5
D3F
330
1E
100
AcDbEntity
  8
STEMPEL
100
AcDbLine
 10
134.1632717484243
 20
335.5927002222655
 30
0.0
 11
111.7632717484244
 21
335.5927002222655
 31
0.0
  0
LINE
  5
D40
330
1E
100
AcDbEntity
  8
STEMPEL
100
AcDbLine
 10
111.7632717484244
 20
333.5927002222654
 30
0.0
 11
111.7632717484244
 21
335.5927002222654
 31
0.0
  0
LINE
  5
D41
330
1E
100
AcDbEntity
  8
STEMPEL
100
AcDbLine
 10
126.8632717484244
 20
342.5927002222654
 30
0.0
 11
122.8218198640971
 21
335.5927002222653
 31
0.0
  0
POINT
  5
D42
330
1E
100
AcDbEntity
  8
DEFPOINTS
  6
ByBlock
 62
     0
100
AcDbPoint
 10
122.8218198640971
 20
335.5927002222653
 30
0.0
 50
360.0
  0
POINT
  5
D43
330
1E
100
AcDbEntity
  8
DEFPOINTS
  6
ByBlock
 62
     0
100
AcDbPoint
 10
111.7632717484244
 20
333.5927002222654
 30
0.0
 50
360.0
  0
POINT
  5
D44
330
1E
100
AcDbEntity
  8
DEFPOINTS
  6
ByBlock
 62
     0
100
AcDbPoint
 10
111.7632717484244
 20
335.5927002222654
 30
0.0
 50
360.0
  0
LINE
  5
1025
330
1E
100
AcDbEntity
  8
BEM
100
AcDbLine
 10
406.0852679128594
 20
365.2462628403819
 30
0.0
 11
407.5346733650195
 21
337.5899592917745
 31
0.0
  0
DIMENSION
  5
113C
330
1E
100
AcDbEntity
  8
BEM
100
AcDbDimension
  2
*D17
 10
408.3097938348353
 20
322.799779657761
 30
0.0
 11
308.831051920291
 21
317.5863197081489
 31
0.0
 70
   160
 71
     5
 42
189.0
 51
357.0000000000001
  3
Standard
100
AcDbAlignedDimension
 13
213.6632717484244
 23
425.5927002222653
 33
0.0
 14
405.8845949071947
 24
369.0753318910024
 34
0.0
 50
2.999999999999983
100
AcDbRotatedDimension
1001
ACAD
1000
DSTYLE
1002
{
1070
    40
1040
2.0
1070
    41
1040
3.5
1070
    42
1040
1.0
1070
    43
1040
7.0
1070
    44
1040
1.0
1070
    73
1070
     0
1070
    74
1070
     0
1070
    77
1070
     1
1070
    78
1070
     8
1070
    79
1070
     2
1070
   140
1040
3.5
1070
   141
1040
1.5
1070
   146
1040
0.5142857142857144
1070
   147
1040
1.5
1070
   172
1070
     1
1070
   178
1070
     1
1070
   179
1070
     2
1070
   271
1070
     2
1070
   272
1070
     2
1070
   284
1070
     8
1070
   285
1070
     8
1070
   286
1070
     8
1002
}
  0
SPLINE
  5
11EE
330
1E
100
AcDbEntity
  8
STEMPEL
100
AcDbSpline
210
0.0
220
0.0
230
1.0
 70
     8
 71
     3
 72
    13
 73
     9
 74
     0
 42
0.000000001
 43
0.0000000001
 40
0.0
 40
0.0
 40
0.0
 40
0.0
 40
6.424674517562847
 40
27.69122484785756
 40
53.99675806702738
 40
79.77645167362595
 40
100.1780650950501
 40
106.4216185845637
 40
106.4216185845637
 40
106.4216185845637
 40
106.4216185845637
 10
293.1632717484244
 20
478.6280992270595
 30
0.0
 10
291.7120705786591
 20
477.0423571468384
 30
0.0
 10
285.4571952878421
 20
470.2075921522738
 30
0.0
 10
278.8030721784156
 20
453.1130522840016
 30
0.0
 10
272.3981226147503
 20
428.993286888388
 30
0.0
 10
278.5997429781234
 20
404.9857628116237
 30
0.0
 10
285.6553932256822
 20
388.7790769244806
 30
0.0
 10
291.6325457820771
 20
382.0921661912045
 30
0.0
 10
293.1632717484244
 20
380.691873721369
 30
0.0
  0
ENDSEC
  0
SECTION
  2
OBJECTS
  0
DICTIONARY
  5
C
330
0
100
AcDbDictionary
281
     1
  3
ACAD_CIP_PREVIOUS_PRODUCT_INFO
350
D9A
  3
ACAD_COLOR
350
11A
  3
ACAD_DETAILVIEWSTYLE
350
D97
  3
ACAD_FIELDLIST
350
DD2
  3
ACAD_GROUP
350
D
  3
ACAD_LAYOUT
350
19
  3
ACAD_MATERIAL
350
119
  3
ACAD_MLEADERSTYLE
350
D93
  3
ACAD_MLINESTYLE
350
16
  3
ACAD_PLOTSETTINGS
350
18
  3
ACAD_PLOTSTYLENAME
350
E
  3
ACAD_SCALELIST
350
D81
  3
ACAD_SECTIONVIEWSTYLE
350
D95
  3
ACAD_TABLESTYLE
350
D7F
  3
ACAD_VISUALSTYLE
350
D66
  3
ACDB_RECOMPOSE_DATA
350
1390
  3
AcDbVariableDictionary
350
125
  0
DICTIONARY
  5
115C
330
8
100
AcDbDictionary
280
     1
281
     1
  0
DICTIONARY
  5
D9D
330
2
100
AcDbDictionary
280
     1
281
     1
  3
ACAD_LAYERSTATES
360
D9E
  0
DICTIONARY
  5
ED4
330
10
100
AcDbDictionary
280
     1
281
     1
  3
ADSK_XREC_LAYER_RECONCILED
360
ED5
  0
DICTIONARY
  5
ED6
330
2B
100
AcDbDictionary
280
     1
281
     1
  3
ADSK_XREC_LAYER_RECONCILED
360
ED7
  0
DICTIONARY
  5
ED8
330
2C
100
AcDbDictionary
280
     1
281
     1
  3
ADSK_XREC_LAYER_RECONCILED
360
ED9
  0
DICTIONARY
  5
EDA
330
2D
100
AcDbDictionary
280
     1
281
     1
  3
ADSK_XREC_LAYER_RECONCILED
360
EDB
  0
DICTIONARY
  5
EDC
330
2F
100
AcDbDictionary
280
     1
281
     1
  3
ADSK_XREC_LAYER_RECONCILED
360
EDD
  0
DICTIONARY
  5
EDE
330
30
100
AcDbDictionary
280
     1
281
     1
  3
ADSK_XREC_LAYER_RECONCILED
360
EDF
  0
DICTIONARY
  5
EE0
330
33
100
AcDbDictionary
280
     1
281
     1
  3
ADSK_XREC_LAYER_RECONCILED
360
EE1
  0
DICTIONARY
  5
EE2
330
184
100
AcDbDictionary
280
     1
281
     1
  3
ADSK_XREC_LAYER_RECONCILED
360
EE3
  0
DICTIONARY
  5
DB
330
1E
100
AcDbDictionary
280
     1
281
     1
  3
ACAD_LAYOUTSELFREF
360
10F
  3
ACAD_SORTENTS
360
103E
  0
DICTIONARY
  5
DD
330
1A
100
AcDbDictionary
280
     1
281
     1
  3
ACAD_LAYOUTSELFREF
360
10E
  0
DICTIONARY
  5
DCE
330
2B1
100
AcDbDictionary
280
     1
281
     1
  0
XRECORD
  5
D9A
102
{ACAD_REACTORS
330
C
102
}
330
C
100
AcDbXrecord
280
     1
300
ACD
300
2013
300
ACD_F_S
  0
DICTIONARY
  5
11A
102
{ACAD_REACTORS
330
C
102
}
330
C
100
AcDbDictionary
281
     1
  0
DICTIONARY
  5
D97
102
{ACAD_REACTORS
330
C
102
}
330
C
100
AcDbDictionary
281
     1
  3
Imperial24
350
D98
  0
FIELDLIST
  5
DD2
102
{ACAD_REACTORS
330
C
102
}
330
C
100
AcDbIdSet
 90
        0
100
AcDbFieldList
  0
DICTIONARY
  5
D
102
{ACAD_REACTORS
330
C
102
}
330
C
100
AcDbDictionary
281
     1
  0
DICTIONARY
  5
19
102
{ACAD_REACTORS
330
C
102
}
330
C
100
AcDbDictionary
281
     1
  3
Layout1
350
1D
  3
Model
350
21
  0
DICTIONARY
  5
119
102
{ACAD_REACTORS
330
C
102
}
330
C
100
AcDbDictionary
281
     1
  3
ByBlock
350
D56
  3
ByLayer
350
D4E
  3
Global
350
D5E
  0
DICTIONARY
  5
D93
102
{ACAD_REACTORS
330
C
102
}
330
C
100
AcDbDictionary
281
     1
  3
Standard
350
D94
  0
DICTIONARY
  5
16
102
{ACAD_REACTORS
330
C
102
}
330
C
100
AcDbDictionary
281
     1
  3
Standard
350
17
  0
DICTIONARY
  5
18
102
{ACAD_REACTORS
330
C
102
}
330
C
100
AcDbDictionary
281
     1
  0
ACDBDICTIONARYWDFLT
  5
E
102
{ACAD_REACTORS
330
C
102
}
330
C
100
AcDbDictionary
281
     1
  3
Normal
350
F
100
AcDbDictionaryWithDefault
340
F
  0
DICTIONARY
  5
D81
102
{ACAD_REACTORS
330
C
102
}
330
C
100
AcDbDictionary
281
     1
  3
A0
350
D82
  3
A1
350
D83
  3
A2
350
D84
  3
A3
350
D85
  3
A4
350
D86
  3
A5
350
D87
  3
A6
350
D88
  3
A7
350
D89
  3
A8
350
D8A
  3
A9
350
D8B
  3
B0
350
D8C
  3
B1
350
D8D
  3
B2
350
D8E
  3
B3
350
D8F
  3
B4
350
D90
  3
B5
350
D91
  3
B6
350
D92
  0
DICTIONARY
  5
D95
102
{ACAD_REACTORS
330
C
102
}
330
C
100
AcDbDictionary
281
     1
  3
Imperial24
350
D96
  0
DICTIONARY
  5
D7F
102
{ACAD_REACTORS
330
C
102
}
330
C
100
AcDbDictionary
281
     1
  3
Standard
350
D80
  0
DICTIONARY
  5
D66
102
{ACAD_REACTORS
330
C
102
}
330
C
100
AcDbDictionary
281
     1
  3
2dWireframe
350
D6C
  3
Basic
350
D6B
  3
Brighten
350
D72
  3
ColorChange
350
D76
  3
Conceptual
350
D6F
  3
Dim
350
D71
  3
EdgeColorOff
350
D7E
  3
Facepattern
350
D75
  3
Flat
350
D67
  3
FlatWithEdges
350
D68
  3
Gouraud
350
D69
  3
GouraudWithEdges
350
D6A
  3
Hidden
350
D6E
  3
JitterOff
350
D7C
  3
Linepattern
350
D74
  3
OverhangOff
350
D7D
  3
Realistic
350
D70
  3
Shaded
350
D7B
  3
Shaded with edges
350
D7A
  3
Shades of Gray
350
D77
  3
Sketchy
350
D78
  3
Thicken
350
D73
  3
Wireframe
350
D6D
  3
X-Ray
350
D79
  0
XRECORD
  5
1390
102
{ACAD_REACTORS
330
C
102
}
330
C
100
AcDbXrecord
280
     1
 90
        1
330
D80
  0
DICTIONARY
  5
125
102
{ACAD_REACTORS
330
C
102
}
330
C
100
AcDbDictionary
281
     1
  3
CANNOSCALE
350
EFE
  3
CMLEADERSTYLE
350
EFA
  3
CTABLESTYLE
350
EF9
  3
CVIEWDETAILSTYLE
350
EFB
  3
CVIEWSECTIONSTYLE
350
EFC
  3
DIMASSOC
350
126
  3
LAYEREVAL
350
F00
  3
LAYERNOTIFY
350
F01
  3
LIGHTINGUNITS
350
EFF
  3
MSLTSCALE
350
EFD
  3
PROJECTNAME
350
127
  3
XCLIPFRAME
350
138E
  0
DICTIONARY
  5
D9E
102
{ACAD_REACTORS
330
D9D
102
}
330
D9D
100
AcDbDictionary
281
     1
  0
XRECORD
  5
ED5
102
{ACAD_REACTORS
330
ED4
102
}
330
ED4
100
AcDbXrecord
280
     1
290
     1
  0
XRECORD
  5
ED7
102
{ACAD_REACTORS
330
ED6
102
}
330
ED6
100
AcDbXrecord
280
     1
290
     1
  0
XRECORD
  5
ED9
102
{ACAD_REACTORS
330
ED8
102
}
330
ED8
100
AcDbXrecord
280
     1
290
     1
  0
XRECORD
  5
EDB
102
{ACAD_REACTORS
330
EDA
102
}
330
EDA
100
AcDbXrecord
280
     1
290
     1
  0
XRECORD
  5
EDD
102
{ACAD_REACTORS
330
EDC
102
}
330
EDC
100
AcDbXrecord
280
     1
290
     1
  0
XRECORD
  5
EDF
102
{ACAD_REACTORS
330
EDE
102
}
330
EDE
100
AcDbXrecord
280
     1
290
     1
  0
XRECORD
  5
EE1
102
{ACAD_REACTORS
330
EE0
102
}
330
EE0
100
AcDbXrecord
280
     1
290
     1
  0
XRECORD
  5
EE3
102
{ACAD_REACTORS
330
EE2
102
}
330
EE2
100
AcDbXrecord
280
     1
290
     1
  0
XRECORD
  5
10F
102
{ACAD_REACTORS
330
DB
102
}
330
DB
100
AcDbXrecord
280
     1
340
1E
  0
SORTENTSTABLE
  5
103E
102
{ACAD_REACTORS
330
DB
102
}
330
DB
100
AcDbSortentsTable
330
1E
331
2CD
  5
2CD
331
93A
  5
93A
331
84F
  5
84F
331
2C9
  5
2C9
331
14A
  5
14A
331
D3C
  5
D43
331
AB8
  5
AB8
331
84B
  5
84B
331
D38
  5
D3F
331
991
  5
991
331
800
  5
800
331
D34
  5
D3B
331
8B
  5
8B
331
87
  5
87
331
13E
  5
13E
331
847
  5
847
331
2C5
  5
2C5
331
98D
  5
98D
331
843
  5
843
331
2C1
  5
2C1
331
C95
  5
C95
331
989
  5
989
331
83F
  5
83F
331
2B9
  5
2B9
331
985
  5
985
331
B17
  5
B17
331
83B
  5
83B
331
B5E
  5
B5E
331
B13
  5
B13
331
C59
  5
C59
331
2B5
  5
2B5
331
B0F
  5
B0F
331
2B1
  5
2B1
331
C25
  5
C25
331
B0B
  5
B0B
331
2E8
  5
2E8
331
B07
  5
B07
331
2E4
  5
2E4
331
B4E
  5
B4E
331
B03
  5
B03
331
2E0
  5
2E0
331
A38
  5
A38
331
823
  5
823
331
AFF
  5
AFF
331
2DC
  5
2DC
331
269
  5
269
331
AFB
  5
AFB
331
B46
  5
B46
331
A34
  5
A34
331
2D8
  5
2D8
331
856
  5
856
331
2D4
  5
2D4
331
852
  5
852
331
B3E
  5
B3E
331
AF3
  5
AF3
331
941
  5
941
331
2D0
  5
2D0
331
D43
  5
DBE
331
B3A
  5
B3A
331
BC1
  5
BC1
331
2CC
  5
2CC
331
D3F
  5
DBA
331
939
  5
939
331
84E
  5
84E
331
D3B
  5
D42
331
B36
  5
B36
331
84A
  5
84A
331
2C8
  5
2C8
331
D37
  5
D3E
331
D33
  5
D3A
331
8E
  5
8E
331
846
  5
846
331
7FF
  5
7FF
331
2C4
  5
2C4
331
98C
  5
98C
331
842
  5
842
331
2C0
  5
2C0
331
2BC
  5
2BC
331
C94
  5
C94
331
B65
  5
B65
331
83E
  5
83E
331
2B8
  5
2B8
331
B16
  5
B16
331
83A
  5
83A
331
B12
  5
B12
331
B59
  5
B59
331
CFB
  5
D39
331
113C
  5
113C
331
2B4
  5
2B4
331
B0E
  5
B0E
331
2B0
  5
2B0
331
B0A
  5
B0A
331
2E7
  5
2E7
331
82E
  5
82E
331
B51
  5
B51
331
B06
  5
B06
331
2E3
  5
2E3
331
B4D
  5
B4D
331
B02
  5
B02
331
B49
  5
B49
331
2DF
  5
2DF
331
26C
  5
26C
331
AFE
  5
AFE
331
A37
  5
A37
331
2DB
  5
2DB
331
B45
  5
B45
331
AFA
  5
AFA
331
2D7
  5
2D7
331
B41
  5
B41
331
855
  5
855
331
2D3
  5
2D3
331
851
  5
851
331
CAF
  5
CAF
331
B3D
  5
B3D
331
AF2
  5
AF2
331
940
  5
940
331
D42
  5
DBD
331
93C
  5
93C
331
2CF
  5
2CF
331
2CB
  5
2CB
331
84D
  5
84D
331
D3E
  5
DB9
331
849
  5
849
331
B35
  5
B35
331
802
  5
802
331
D3A
  5
D41
331
BA8
  5
BA8
331
D36
  5
D3D
331
8D
  5
8D
331
89
  5
89
331
2C7
  5
2C7
331
98F
  5
98F
331
845
  5
845
331
2C3
  5
2C3
331
B1D
  5
B1D
331
98B
  5
98B
331
841
  5
841
331
2BF
  5
2BF
331
987
  5
987
331
B19
  5
B19
331
83D
  5
83D
331
B64
  5
B64
331
B15
  5
B15
331
839
  5
839
331
B11
  5
B11
331
B5C
  5
B5C
331
59
  5
59
331
2B7
  5
2B7
331
2B3
  5
2B3
331
B0D
  5
B0D
331
2AF
  5
2AF
331
B09
  5
B09
331
2E6
  5
2E6
331
B05
  5
B05
331
2E2
  5
2E2
331
B01
  5
B01
331
C0B
  5
C0B
331
B48
  5
B48
331
2DE
  5
2DE
331
26B
  5
26B
331
AFD
  5
AFD
331
A36
  5
A36
331
2DA
  5
2DA
331
2D6
  5
2D6
331
B44
  5
B44
331
854
  5
854
331
2D2
  5
2D2
331
B40
  5
B40
331
850
  5
850
331
D41
  5
DBC
331
B38
  5
B38
331
9C
  5
9C
331
93F
  5
93F
331
15B
  5
15B
331
93B
  5
93B
331
2CE
  5
2CE
331
2CA
  5
2CA
331
84C
  5
84C
331
D3D
  5
D44
331
848
  5
848
331
801
  5
801
331
D39
  5
D40
331
B6B
  5
B6B
331
D35
  5
D3C
331
CA2
  5
CA2
331
88
  5
88
331
13F
  5
13F
331
2C6
  5
2C6
331
98E
  5
98E
331
844
  5
844
331
2C2
  5
2C2
331
1025
  5
103F
331
2BE
  5
2BE
331
98A
  5
98A
331
B1C
  5
B1C
331
840
  5
840
331
2BA
  5
2BA
331
986
  5
986
331
B18
  5
B18
331
83C
  5
83C
331
B14
  5
B14
331
B10
  5
B10
331
2B6
  5
2B6
331
834
  5
834
331
2B2
  5
2B2
331
830
  5
830
331
B0C
  5
B0C
331
2E9
  5
2E9
331
B08
  5
B08
331
2E5
  5
2E5
331
82C
  5
82C
331
CDD
  5
D38
331
B04
  5
B04
331
2E1
  5
2E1
331
B4F
  5
B4F
331
B00
  5
B00
331
A39
  5
A39
331
B4B
  5
B4B
331
2DD
  5
2DD
331
26A
  5
26A
331
AFC
  5
AFC
331
A35
  5
A35
331
2D9
  5
2D9
331
BF6
  5
BF6
331
A31
  5
A31
331
857
  5
857
331
2D5
  5
2D5
331
B43
  5
B43
331
853
  5
853
331
AF4
  5
AF4
331
2D1
  5
2D1
331
B3F
  5
B3F
331
D44
  5
DD3
331
B3B
  5
B3B
331
D40
  5
DBB
  0
XRECORD
  5
10E
102
{ACAD_REACTORS
330
DD
102
}
330
DD
100
AcDbXrecord
280
     1
340
1A
  0
ACDBDETAILVIEWSTYLE
  5
D98
102
{ACAD_XDICTIONARY
360
EF6
102
}
102
{ACAD_REACTORS
330
D97
102
}
330
D97
100
AcDbModelDocViewStyle
 70
     0
  3
Imperial24
290
     0
100
AcDbDetailViewStyle
 70
     0
 71
     0
 90
        3
 71
     1
340
11
 62
   256
 40
0.24
340
0
 62
   256
 40
0.24
300

 40
0.36
280
     3
 71
     2
340
15
 90
       25
 62
   256
 71
     3
340
11
 62
   256
 40
0.24
 90
        1
 40
0.75
 90
        1
300
%<\AcVar ViewType \f "%tc1">% %<\AcVar ViewDetailId>%\PVARIA %<\AcVar ViewScale \f "%sn">%
 71
     4
340
15
 90
       25
 62
   256
340
15
 90
       25
 62
   256
280
     0
  0
LAYOUT
  5
1D
102
{ACAD_REACTORS
330
19
102
}
330
19
100
AcDbPlotSettings
  1

  2
\\NT_WORK01\HP LaserJet 5000 PCL 6
  4

  6

 40
0.0
 41
0.0
 42
0.0
 43
0.0
 44
0.0
 45
0.0
 46
0.0
 47
0.0
 48
0.0
 49
0.0
140
0.0
141
0.0
142
1.0
143
1.0
 70
   688
 72
     0
 73
     0
 74
     5
  7

 75
    16
147
1.0
 76
     0
 77
     2
 78
   300
148
0.0
149
0.0
100
AcDbLayout
  1
Layout1
 70
     0
 71
     1
 10
0.0
 20
0.0
 11
12.0
 21
9.0
 12
0.0
 22
0.0
 32
0.0
 14
1.000000000000000E+20
 24
1.000000000000000E+20
 34
1.000000000000000E+20
 15
-1.000000000000000E+20
 25
-1.000000000000000E+20
 35
-1.000000000000000E+20
146
0.0
 13
0.0
 23
0.0
 33
0.0
 16
1.0
 26
0.0
 36
0.0
 17
0.0
 27
1.0
 37
0.0
 76
     0
330
1A
  0
LAYOUT
  5
21
102
{ACAD_XDICTIONARY
360
115E
102
}
102
{ACAD_REACTORS
330
19
102
}
330
19
100
AcDbPlotSettings
  1

  2
none_device
  4
Letter_(8.50_x_11.00_Inches)
  6

 40
6.349999904632568
 41
6.349999904632568
 42
6.350006103515625
 43
6.350006103515625
 44
215.8999938964844
 45
279.3999938964844
 46
0.0
 47
0.0
 48
0.0
 49
0.0
140
0.0
141
0.0
142
1.0
143
1.0
 70
 11952
 72
     0
 73
     1
 74
     0
  7

 75
     0
147
1.0
 76
     0
 77
     2
 78
   300
148
3232.979308760778
149
108.7792942125838
100
AcDbLayout
  1
Model
 70
     1
 71
     0
 10
0.0
 20
0.0
 11
12.0
 21
9.0
 12
0.0
 22
0.0
 32
0.0
 14
0.0
 24
0.0
 34
0.0
 15
0.0
 25
0.0
 35
0.0
146
0.0
 13
0.0
 23
0.0
 33
0.0
 16
1.0
 26
0.0
 36
0.0
 17
0.0
 27
1.0
 37
0.0
 76
     0
330
1E
331
D45
  0
MATERIAL
  5
D56
102
{ACAD_XDICTIONARY
360
D57
102
}
102
{ACAD_REACTORS
330
119
102
}
330
119
100
AcDbMaterial
  1
ByBlock
 72
     0
 43
0.0208333333333333
 43
0.0
 43
0.0
 43
0.0
 43
0.0
 43
0.0208333333333333
 43
0.0
 43
0.0
 43
0.0
 43
0.0
 43
1.0
 43
0.0
 43
0.0
 43
0.0
 43
0.0
 43
1.0
 77
     0
 47
0.0208333333333333
 47
0.0
 47
0.0
 47
0.0
 47
0.0
 47
0.0208333333333333
 47
0.0
 47
0.0
 47
0.0
 47
0.0
 47
1.0
 47
0.0
 47
0.0
 47
0.0
 47
0.0
 47
1.0
171
     0
 49
0.0208333333333333
 49
0.0
 49
0.0
 49
0.0
 49
0.0
 49
0.0208333333333333
 49
0.0
 49
0.0
 49
0.0
 49
0.0
 49
1.0
 49
0.0
 49
0.0
 49
0.0
 49
0.0
 49
1.0
175
     0
142
0.0208333333333333
142
0.0
142
0.0
142
0.0
142
0.0
142
0.0208333333333333
142
0.0
142
0.0
142
0.0
142
0.0
142
1.0
142
0.0
142
0.0
142
0.0
142
0.0
142
1.0
179
     0
144
0.0208333333333333
144
0.0
144
0.0
144
0.0
144
0.0
144
0.0208333333333333
144
0.0
144
0.0
144
0.0
144
0.0
144
1.0
144
0.0
144
0.0
144
0.0
144
0.0
144
1.0
147
0.0208333333333333
147
0.0
147
0.0
147
0.0
147
0.0
147
0.0208333333333333
147
0.0
147
0.0
147
0.0
147
0.0
147
1.0
147
0.0
147
0.0
147
0.0
147
0.0
147
1.0
  0
MATERIAL
  5
D4E
102
{ACAD_XDICTIONARY
360
D4F
102
}
102
{ACAD_REACTORS
330
119
102
}
330
119
100
AcDbMaterial
  1
ByLayer
 72
     0
 43
0.0208333333333333
 43
0.0
 43
0.0
 43
0.0
 43
0.0
 43
0.0208333333333333
 43
0.0
 43
0.0
 43
0.0
 43
0.0
 43
1.0
 43
0.0
 43
0.0
 43
0.0
 43
0.0
 43
1.0
 77
     0
 47
0.0208333333333333
 47
0.0
 47
0.0
 47
0.0
 47
0.0
 47
0.0208333333333333
 47
0.0
 47
0.0
 47
0.0
 47
0.0
 47
1.0
 47
0.0
 47
0.0
 47
0.0
 47
0.0
 47
1.0
171
     0
 49
0.0208333333333333
 49
0.0
 49
0.0
 49
0.0
 49
0.0
 49
0.0208333333333333
 49
0.0
 49
0.0
 49
0.0
 49
0.0
 49
1.0
 49
0.0
 49
0.0
 49
0.0
 49
0.0
 49
1.0
175
     0
142
0.0208333333333333
142
0.0
142
0.0
142
0.0
142
0.0
142
0.0208333333333333
142
0.0
142
0.0
142
0.0
142
0.0
142
1.0
142
0.0
142
0.0
142
0.0
142
0.0
142
1.0
179
     0
144
0.0208333333333333
144
0.0
144
0.0
144
0.0
144
0.0
144
0.0208333333333333
144
0.0
144
0.0
144
0.0
144
0.0
144
1.0
144
0.0
144
0.0
144
0.0
144
0.0
144
1.0
147
0.0208333333333333
147
0.0
147
0.0
147
0.0
147
0.0
147
0.0208333333333333
147
0.0
147
0.0
147
0.0
147
0.0
147
1.0
147
0.0
147
0.0
147
0.0
147
0.0
147
1.0
  0
MATERIAL
  5
D5E
102
{ACAD_XDICTIONARY
360
D5F
102
}
102
{ACAD_REACTORS
330
119
102
}
330
119
100
AcDbMaterial
  1
Global
 72
     0
 43
0.0208333333333333
 43
0.0
 43
0.0
 43
0.0
 43
0.0
 43
0.0208333333333333
 43
0.0
 43
0.0
 43
0.0
 43
0.0
 43
1.0
 43
0.0
 43
0.0
 43
0.0
 43
0.0
 43
1.0
 77
     0
 47
0.0208333333333333
 47
0.0
 47
0.0
 47
0.0
 47
0.0
 47
0.0208333333333333
 47
0.0
 47
0.0
 47
0.0
 47
0.0
 47
1.0
 47
0.0
 47
0.0
 47
0.0
 47
0.0
 47
1.0
171
     0
 49
0.0208333333333333
 49
0.0
 49
0.0
 49
0.0
 49
0.0
 49
0.0208333333333333
 49
0.0
 49
0.0
 49
0.0
 49
0.0
 49
1.0
 49
0.0
 49
0.0
 49
0.0
 49
0.0
 49
1.0
175
     0
142
0.0208333333333333
142
0.0
142
0.0
142
0.0
142
0.0
142
0.0208333333333333
142
0.0
142
0.0
142
0.0
142
0.0
142
1.0
142
0.0
142
0.0
142
0.0
142
0.0
142
1.0
179
     0
144
0.0208333333333333
144
0.0
144
0.0
144
0.0
144
0.0
144
0.0208333333333333
144
0.0
144
0.0
144
0.0
144
0.0
144
1.0
144
0.0
144
0.0
144
0.0
144
0.0
144
1.0
147
0.0208333333333333
147
0.0
147
0.0
147
0.0
147
0.0
147
0.0208333333333333
147
0.0
147
0.0
147
0.0
147
0.0
147
1.0
147
0.0
147
0.0
147
0.0
147
0.0
147
1.0
  0
MLEADERSTYLE
  5
D94
102
{ACAD_XDICTIONARY
360
13C5
102
}
102
{ACAD_REACTORS
330
D93
102
}
330
D93
100
AcDbMLeaderStyle
170
     2
171
     1
172
     0
 90
        2
 40
0.0
 41
0.0
173
     1
 91
-1056964608
340
13
 92
       -2
290
     1
 42
0.09
291
     1
 43
0.36
  3
Standard
 44
0.18
300

342
11
174
     1
178
     6
175
     1
176
     0
 93
-1056964608
 45
0.18
292
     0
297
     0
 46
0.18
 94
-1056964608
 47
1.0
 49
1.0
140
1.0
293
     1
141
0.0
294
     1
177
     0
142
1.0
295
     0
296
     0
143
0.125
1001
ACAD_MLEADERVER
1070
     2
  0
MLINESTYLE
  5
17
102
{ACAD_REACTORS
330
16
102
}
330
16
100
AcDbMlineStyle
  2
STANDARD
 70
     0
  3

 62
   256
 51
90.0
 52
90.0
 71
     2
 49
0.5
 62
   256
  6
BYLAYER
 49
-0.5
 62
   256
  6
BYLAYER
  0
ACDBPLACEHOLDER
  5
F
102
{ACAD_REACTORS
330
E
102
}
330
E
  0
SCALE
  5
D82
102
{ACAD_REACTORS
330
D81
102
}
330
D81
100
AcDbScale
 70
     0
300
1:1
140
1.0
141
1.0
290
     1
  0
SCALE
  5
D83
102
{ACAD_REACTORS
330
D81
102
}
330
D81
100
AcDbScale
 70
     0
300
1/128" = 1'-0"
140
0.0078125
141
12.0
290
     0
  0
SCALE
  5
D84
102
{ACAD_REACTORS
330
D81
102
}
330
D81
100
AcDbScale
 70
     0
300
1/64" = 1'-0"
140
0.015625
141
12.0
290
     0
  0
SCALE
  5
D85
102
{ACAD_REACTORS
330
D81
102
}
330
D81
100
AcDbScale
 70
     0
300
1/32" = 1'-0"
140
0.03125
141
12.0
290
     0
  0
SCALE
  5
D86
102
{ACAD_REACTORS
330
D81
102
}
330
D81
100
AcDbScale
 70
     0
300
1/16" = 1'-0"
140
0.0625
141
12.0
290
     0
  0
SCALE
  5
D87
102
{ACAD_REACTORS
330
D81
102
}
330
D81
100
AcDbScale
 70
     0
300
3/32" = 1'-0"
140
0.09375
141
12.0
290
     0
  0
SCALE
  5
D88
102
{ACAD_REACTORS
330
D81
102
}
330
D81
100
AcDbScale
 70
     0
300
1/8" = 1'-0"
140
0.125
141
12.0
290
     0
  0
SCALE
  5
D89
102
{ACAD_REACTORS
330
D81
102
}
330
D81
100
AcDbScale
 70
     0
300
3/16" = 1'-0"
140
0.1875
141
12.0
290
     0
  0
SCALE
  5
D8A
102
{ACAD_REACTORS
330
D81
102
}
330
D81
100
AcDbScale
 70
     0
300
1/4" = 1'-0"
140
0.25
141
12.0
290
     0
  0
SCALE
  5
D8B
102
{ACAD_REACTORS
330
D81
102
}
330
D81
100
AcDbScale
 70
     0
300
3/8" = 1'-0"
140
0.375
141
12.0
290
     0
  0
SCALE
  5
D8C
102
{ACAD_REACTORS
330
D81
102
}
330
D81
100
AcDbScale
 70
     0
300
1/2" = 1'-0"
140
0.5
141
12.0
290
     0
  0
SCALE
  5
D8D
102
{ACAD_REACTORS
330
D81
102
}
330
D81
100
AcDbScale
 70
     0
300
3/4" = 1'-0"
140
0.75
141
12.0
290
     0
  0
SCALE
  5
D8E
102
{ACAD_REACTORS
330
D81
102
}
330
D81
100
AcDbScale
 70
     0
300
1" = 1'-0"
140
1.0
141
12.0
290
     0
  0
SCALE
  5
D8F
102
{ACAD_REACTORS
330
D81
102
}
330
D81
100
AcDbScale
 70
     0
300
1-1/2" = 1'-0"
140
1.5
141
12.0
290
     0
  0
SCALE
  5
D90
102
{ACAD_REACTORS
330
D81
102
}
330
D81
100
AcDbScale
 70
     0
300
3" = 1'-0"
140
3.0
141
12.0
290
     0
  0
SCALE
  5
D91
102
{ACAD_REACTORS
330
D81
102
}
330
D81
100
AcDbScale
 70
     0
300
6" = 1'-0"
140
6.0
141
12.0
290
     0
  0
SCALE
  5
D92
102
{ACAD_REACTORS
330
D81
102
}
330
D81
100
AcDbScale
 70
     0
300
1'-0" = 1'-0"
140
12.0
141
12.0
290
     0
  0
ACDBSECTIONVIEWSTYLE
  5
D96
102
{ACAD_XDICTIONARY
360
EF4
102
}
102
{ACAD_REACTORS
330
D95
102
}
330
D95
100
AcDbModelDocViewStyle
 70
     0
  3
Imperial24
290
     0
100
AcDbSectionViewStyle
 70
     0
 71
     0
 90
       78
 71
     1
340
11
 62
   256
 40
0.24
340
0
340
0
 62
   256
 40
0.24
300
I, O, Q, S, X, Z
 40
0.48
 90
        3
 40
0.18
 90
        1
 71
     2
340
15
 90
       25
 62
   256
340
15
 90
       50
 62
   256
 40
0.24
 40
0.0
 40
0.24
 71
     3
340
11
 62
   256
 40
0.24
 90
        1
 40
0.75
 90
        1
300
%<\AcVar ViewType \f "%tc1">% %<\AcVar ViewSectionStartId>%-%<\AcVar ViewSectionEndId>%\PVARIA %<\AcVar ViewScale \f "%sn">%
 71
     4
 62
   256
 62
   257
300
ANSI31
 40
1.0
 90
        0
290
     0
290
     0
 90
        6
 40
0.0
 40
1.570796326794896
 40
0.2617993877991494
 40
1.308996938995747
 40
-0.2617993877991494
 40
1.832595714594046
  0
TABLESTYLE
  5
D80
102
{ACAD_XDICTIONARY
360
1151
102
}
102
{ACAD_REACTORS
330
D7F
102
}
330
D7F
100
AcDbTableStyle
  3
Standard
 70
     0
 71
     0
 40
0.06
 41
0.06
280
     0
281
     0
  7
STANDARD
140
0.18
170
     2
 62
     0
 63
     7
283
     0
274
    -2
284
     1
 64
     0
275
    -2
285
     1
 65
     0
276
    -2
286
     1
 66
     0
277
    -2
287
     1
 67
     0
278
    -2
288
     1
 68
     0
279
    -2
289
     1
 69
     0
  7
STANDARD
140
0.25
170
     5
 62
     0
 63
     7
283
     0
274
    -2
284
     1
 64
     0
275
    -2
285
     1
 65
     0
276
    -2
286
     1
 66
     0
277
    -2
287
     1
 67
     0
278
    -2
288
     1
 68
     0
279
    -2
289
     1
 69
     0
  7
STANDARD
140
0.18
170
     5
 62
     0
 63
     7
283
     0
274
    -2
284
     1
 64
     0
275
    -2
285
     1
 65
     0
276
    -2
286
     1
 66
     0
277
    -2
287
     1
 67
     0
278
    -2
288
     1
 68
     0
279
    -2
289
     1
 69
     0
  0
VISUALSTYLE
  5
D6C
102
{ACAD_XDICTIONARY
360
139E
102
}
102
{ACAD_REACTORS
330
D66
102
}
330
D66
100
AcDbVisualStyle
  2
2dWireframe
 70
     4
 71
     0
 72
     2
 73
     0
 90
        0
 40
-0.6
 41
-30.0
 62
     5
 63
     7
421
 16777215
 74
     1
 91
        4
 64
     7
 65
   257
 75
     1
175
     1
 42
1.0
 92
        0
 66
   257
 43
1.0
 76
     1
 77
     6
 78
     2
 67
     7
 79
     5
170
     0
171
     0
290
     0
174
     0
 93
        1
 44
0.0
173
     0
291
     0
 45
0.0
1001
ACAD
1000
AcDbSavedByObjectVersion
1070
     0
  0
VISUALSTYLE
  5
D6B
102
{ACAD_XDICTIONARY
360
139C
102
}
102
{ACAD_REACTORS
330
D66
102
}
330
D66
100
AcDbVisualStyle
  2
Basic
 70
     7
 71
     1
 72
     0
 73
     1
 90
        0
 40
-0.6
 41
-30.0
 62
     5
 63
     7
421
 16777215
 74
     0
 91
        4
 64
     7
 65
   257
 75
     1
175
     1
 42
1.0
 92
        8
 66
     7
 43
1.0
 76
     1
 77
     6
 78
     2
 67
     7
 79
     5
170
     0
171
     0
290
     0
174
     0
 93
        1
 44
0.0
173
     0
291
     1
 45
0.0
1001
ACAD
1000
AcDbSavedByObjectVersion
1070
     0
  0
VISUALSTYLE
  5
D72
102
{ACAD_XDICTIONARY
360
13AA
102
}
102
{ACAD_REACTORS
330
D66
102
}
330
D66
100
AcDbVisualStyle
  2
Brighten
 70
    12
 71
     2
 72
     2
 73
     0
 90
        0
 40
-0.6
 41
-30.0
 62
     5
 63
     7
421
 16777215
 74
     1
 91
        4
 64
     7
 65
   257
 75
     1
175
     1
 42
1.0
 92
        8
 66
     7
 43
1.0
 76
     1
 77
     6
 78
     2
 67
     7
 79
     5
170
     0
171
     0
290
     0
174
     0
 93
        1
 44
50.0
173
     0
291
     1
 45
0.0
1001
ACAD
1000
AcDbSavedByObjectVersion
1070
     0
  0
VISUALSTYLE
  5
D76
102
{ACAD_XDICTIONARY
360
13B2
102
}
102
{ACAD_REACTORS
330
D66
102
}
330
D66
100
AcDbVisualStyle
  2
ColorChange
 70
    16
 71
     2
 72
     2
 73
     3
 90
        0
 40
-0.6
 41
-30.0
 62
     5
 63
     8
421
  8421504
 74
     1
 91
        4
 64
     7
 65
   257
 75
     1
175
     1
 42
1.0
 92
        8
 66
     8
424
  8421504
 43
1.0
 76
     1
 77
     6
 78
     2
 67
     7
 79
     5
170
     0
171
     0
290
     0
174
     0
 93
        1
 44
0.0
173
     0
291
     1
 45
0.0
1001
ACAD
1000
AcDbSavedByObjectVersion
1070
     0
  0
VISUALSTYLE
  5
D6F
102
{ACAD_XDICTIONARY
360
13A4
102
}
102
{ACAD_REACTORS
330
D66
102
}
330
D66
100
AcDbVisualStyle
  2
Conceptual
 70
     9
 71
     3
 72
     2
 73
     0
 90
        0
 40
-0.6
 41
-30.0
 62
     5
 63
     7
421
 16777215
 74
     2
 91
        2
 64
     7
 65
   257
 75
     1
175
     1
 42
179.0
 92
        8
 66
     7
 43
1.0
 76
     1
 77
     6
 78
     2
 67
     7
 79
     3
170
     0
171
     0
290
     0
174
     0
 93
        1
 44
0.0
173
     0
291
     0
 45
0.0
1001
ACAD
1000
AcDbSavedByObjectVersion
1070
     0
  0
VISUALSTYLE
  5
D71
102
{ACAD_XDICTIONARY
360
13A8
102
}
102
{ACAD_REACTORS
330
D66
102
}
330
D66
100
AcDbVisualStyle
  2
Dim
 70
    11
 71
     2
 72
     2
 73
     0
 90
        0
 40
-0.6
 41
-30.0
 62
     5
 63
     7
421
 16777215
 74
     1
 91
        4
 64
     7
 65
   257
 75
     1
175
     1
 42
1.0
 92
        8
 66
     7
 43
1.0
 76
     1
 77
     6
 78
     2
 67
     7
 79
     5
170
     0
171
     0
290
     0
174
     0
 93
        1
 44
-50.0
173
     0
291
     1
 45
0.0
1001
ACAD
1000
AcDbSavedByObjectVersion
1070
     0
  0
VISUALSTYLE
  5
D7E
102
{ACAD_XDICTIONARY
360
13C2
102
}
102
{ACAD_REACTORS
330
D66
102
}
330
D66
100
AcDbVisualStyle
  2
EdgeColorOff
 70
    22
 71
     2
 72
     2
 73
     0
 90
        0
 40
-0.6
 41
-30.0
 62
     5
 63
     7
421
 16777215
 74
     1
 91
        4
 64
     7
 65
   257
 75
     1
175
     1
 42
1.0
 92
        8
 66
     7
 43
1.0
 76
     1
 77
     6
 78
     2
 67
     7
 79
     5
170
     0
171
     0
290
     0
174
     0
 93
        1
 44
0.0
173
     0
291
     1
 45
0.0
1001
ACAD
1000
AcDbSavedByObjectVersion
1070
     0
  0
VISUALSTYLE
  5
D75
102
{ACAD_XDICTIONARY
360
13B0
102
}
102
{ACAD_REACTORS
330
D66
102
}
330
D66
100
AcDbVisualStyle
  2
Facepattern
 70
    15
 71
     2
 72
     2
 73
     0
 90
        0
 40
-0.6
 41
-30.0
 62
     5
 63
     7
421
 16777215
 74
     1
 91
        4
 64
     7
 65
   257
 75
     1
175
     1
 42
1.0
 92
        8
 66
     7
 43
1.0
 76
     1
 77
     6
 78
     2
 67
     7
 79
     5
170
     0
171
     0
290
     0
174
     0
 93
        1
 44
0.0
173
     0
291
     1
 45
0.0
1001
ACAD
1000
AcDbSavedByObjectVersion
1070
     0
  0
VISUALSTYLE
  5
D67
102
{ACAD_XDICTIONARY
360
1394
102
}
102
{ACAD_REACTORS
330
D66
102
}
330
D66
100
AcDbVisualStyle
  2
Flat
 70
     0
 71
     2
 72
     1
 73
     1
 90
        2
 40
-0.6
 41
30.0
 62
     5
 63
     7
421
 16777215
 74
     0
 91
        0
 64
     7
 65
   257
 75
     1
175
     1
 42
1.0
 92
        8
 66
     7
 43
1.0
 76
     1
 77
     6
 78
     2
 67
     7
 79
     5
170
     0
171
     0
290
     0
174
     0
 93
       13
 44
0.0
173
     0
291
     1
 45
0.0
1001
ACAD
1000
AcDbSavedByObjectVersion
1070
     0
  0
VISUALSTYLE
  5
D68
102
{ACAD_XDICTIONARY
360
1396
102
}
102
{ACAD_REACTORS
330
D66
102
}
330
D66
100
AcDbVisualStyle
  2
FlatWithEdges
 70
     1
 71
     2
 72
     1
 73
     1
 90
        2
 40
-0.6
 41
30.0
 62
     5
 63
     7
421
 16777215
 74
     1
 91
        0
 64
     7
 65
   257
 75
     1
175
     1
 42
1.0
 92
        0
 66
   257
 43
1.0
 76
     1
 77
     6
 78
     2
 67
     7
 79
     5
170
     0
171
     0
290
     0
174
     0
 93
       13
 44
0.0
173
     0
291
     1
 45
0.0
1001
ACAD
1000
AcDbSavedByObjectVersion
1070
     0
  0
VISUALSTYLE
  5
D69
102
{ACAD_XDICTIONARY
360
1398
102
}
102
{ACAD_REACTORS
330
D66
102
}
330
D66
100
AcDbVisualStyle
  2
Gouraud
 70
     2
 71
     2
 72
     2
 73
     1
 90
        2
 40
-0.6
 41
30.0
 62
     5
 63
     7
421
 16777215
 74
     0
 91
        0
 64
     7
 65
   257
 75
     1
175
     1
 42
1.0
 92
        0
 66
     7
 43
1.0
 76
     1
 77
     6
 78
     2
 67
     7
 79
     5
170
     0
171
     0
290
     0
174
     0
 93
       13
 44
0.0
173
     0
291
     1
 45
0.0
1001
ACAD
1000
AcDbSavedByObjectVersion
1070
     0
  0
VISUALSTYLE
  5
D6A
102
{ACAD_XDICTIONARY
360
139A
102
}
102
{ACAD_REACTORS
330
D66
102
}
330
D66
100
AcDbVisualStyle
  2
GouraudWithEdges
 70
     3
 71
     2
 72
     2
 73
     1
 90
        2
 40
-0.6
 41
30.0
 62
     5
 63
     7
421
 16777215
 74
     1
 91
        0
 64
     7
 65
   257
 75
     1
175
     1
 42
1.0
 92
        0
 66
   257
 43
1.0
 76
     1
 77
     6
 78
     2
 67
     7
 79
     5
170
     0
171
     0
290
     0
174
     0
 93
       13
 44
0.0
173
     0
291
     1
 45
0.0
1001
ACAD
1000
AcDbSavedByObjectVersion
1070
     0
  0
VISUALSTYLE
  5
D6E
102
{ACAD_XDICTIONARY
360
13A2
102
}
102
{ACAD_REACTORS
330
D66
102
}
330
D66
100
AcDbVisualStyle
  2
Hidden
 70
     6
 71
     1
 72
     2
 73
     2
 90
        0
 40
-0.6
 41
-30.0
 62
     5
 63
     7
421
 16777215
 74
     2
 91
        2
 64
     7
 65
   257
 75
     2
175
     1
 42
40.0
 92
        0
 66
   257
 43
1.0
 76
     1
 77
     6
 78
     2
 67
     7
 79
     3
170
     0
171
     0
290
     0
174
     0
 93
        1
 44
0.0
173
     0
291
     0
 45
0.0
1001
ACAD
1000
AcDbSavedByObjectVersion
1070
     0
  0
VISUALSTYLE
  5
D7C
102
{ACAD_XDICTIONARY
360
13BE
102
}
102
{ACAD_REACTORS
330
D66
102
}
330
D66
100
AcDbVisualStyle
  2
JitterOff
 70
    20
 71
     2
 72
     2
 73
     0
 90
        0
 40
-0.6
 41
-30.0
 62
     5
 63
     7
421
 16777215
 74
     1
 91
        4
 64
     7
 65
   257
 75
     1
175
     1
 42
1.0
 92
       10
 66
     7
 43
1.0
 76
     1
 77
     6
 78
     2
 67
     7
 79
     5
170
     0
171
     0
290
     0
174
     0
 93
        1
 44
0.0
173
     0
291
     1
 45
0.0
1001
ACAD
1000
AcDbSavedByObjectVersion
1070
     0
  0
VISUALSTYLE
  5
D74
102
{ACAD_XDICTIONARY
360
13AE
102
}
102
{ACAD_REACTORS
330
D66
102
}
330
D66
100
AcDbVisualStyle
  2
Linepattern
 70
    14
 71
     2
 72
     2
 73
     0
 90
        0
 40
-0.6
 41
-30.0
 62
     5
 63
     7
421
 16777215
 74
     1
 91
        4
 64
     7
 65
   257
 75
     7
175
     7
 42
1.0
 92
        8
 66
     7
 43
1.0
 76
     1
 77
     6
 78
     2
 67
     7
 79
     5
170
     0
171
     0
290
     0
174
     0
 93
        1
 44
0.0
173
     0
291
     1
 45
0.0
1001
ACAD
1000
AcDbSavedByObjectVersion
1070
     0
  0
VISUALSTYLE
  5
D7D
102
{ACAD_XDICTIONARY
360
13C0
102
}
102
{ACAD_REACTORS
330
D66
102
}
330
D66
100
AcDbVisualStyle
  2
OverhangOff
 70
    21
 71
     2
 72
     2
 73
     0
 90
        0
 40
-0.6
 41
-30.0
 62
     5
 63
     7
421
 16777215
 74
     1
 91
        4
 64
     7
 65
   257
 75
     1
175
     1
 42
1.0
 92
        9
 66
     7
 43
1.0
 76
     1
 77
     6
 78
     2
 67
     7
 79
     5
170
     0
171
     0
290
     0
174
     0
 93
        1
 44
0.0
173
     0
291
     1
 45
0.0
1001
ACAD
1000
AcDbSavedByObjectVersion
1070
     0
  0
VISUALSTYLE
  5
D70
102
{ACAD_XDICTIONARY
360
13A6
102
}
102
{ACAD_REACTORS
330
D66
102
}
330
D66
100
AcDbVisualStyle
  2
Realistic
 70
     8
 71
     2
 72
     2
 73
     0
 90
        2
 40
-0.6
 41
30.0
 62
     5
 63
     7
421
 16777215
 74
     0
 91
        0
 64
     7
 65
   257
 75
     1
175
     1
 42
1.0
 92
        8
 66
   257
 43
1.0
 76
     1
 77
     6
 78
     2
 67
     7
 79
     3
170
     0
171
     0
290
     0
174
     0
 93
       13
 44
0.0
173
     0
291
     0
 45
0.0
1001
ACAD
1000
AcDbSavedByObjectVersion
1070
     0
  0
VISUALSTYLE
  5
D7B
102
{ACAD_XDICTIONARY
360
13BC
102
}
102
{ACAD_REACTORS
330
D66
102
}
330
D66
100
AcDbVisualStyle
  2
Shaded
 70
    27
 71
     2
 72
     2
 73
     1
 90
        2
 40
-0.6
 41
30.0
 62
     5
 63
     7
421
 16777215
 74
     0
 91
        4
 64
     7
 65
   257
 75
     1
175
     1
 42
1.0
 92
        8
 66
   257
 43
1.0
 76
     1
 77
     6
 78
     2
 67
     8
425
  7895160
 79
     3
170
     0
171
     0
290
     0
174
     0
 93
        5
 44
0.0
173
     0
291
     0
 45
0.0
1001
ACAD
1000
AcDbSavedByObjectVersion
1070
     0
  0
VISUALSTYLE
  5
D7A
102
{ACAD_XDICTIONARY
360
13BA
102
}
102
{ACAD_REACTORS
330
D66
102
}
330
D66
100
AcDbVisualStyle
  2
Shaded with edges
 70
    26
 71
     2
 72
     2
 73
     1
 90
        2
 40
-0.6
 41
30.0
 62
     5
 63
     7
421
 16777215
 74
     1
 91
       10
 64
     7
 65
   257
 75
     2
175
     1
 42
1.0
 92
        8
 66
   257
 43
1.0
 76
     1
 77
     6
 78
     2
 67
     7
 79
     3
170
     0
171
     0
290
     0
174
     0
 93
        5
 44
0.0
173
     0
291
     0
 45
0.0
1001
ACAD
1000
AcDbSavedByObjectVersion
1070
     0
  0
VISUALSTYLE
  5
D77
102
{ACAD_XDICTIONARY
360
13B4
102
}
102
{ACAD_REACTORS
330
D66
102
}
330
D66
100
AcDbVisualStyle
  2
Shades of Gray
 70
    23
 71
     2
 72
     2
 73
     3
 90
        0
 40
-0.6
 41
-30.0
 62
     5
 63
     7
421
 16777215
 74
     2
 91
        2
 64
     7
 65
     7
 75
     1
175
     1
 42
40.0
 92
        8
 66
     7
 43
1.0
 76
     1
 77
     6
 78
     2
 67
     7
 79
     3
170
     0
171
     0
290
     0
174
     0
 93
        1
 44
0.0
173
     0
291
     0
 45
0.0
1001
ACAD
1000
AcDbSavedByObjectVersion
1070
     0
  0
VISUALSTYLE
  5
D78
102
{ACAD_XDICTIONARY
360
13B6
102
}
102
{ACAD_REACTORS
330
D66
102
}
330
D66
100
AcDbVisualStyle
  2
Sketchy
 70
    24
 71
     1
 72
     2
 73
     2
 90
        0
 40
-0.6
 41
-30.0
 62
     5
 63
     7
421
 16777215
 74
     2
 91
        2
 64
     7
 65
     7
 75
     1
175
     1
 42
40.0
 92
       11
 66
     7
 43
1.0
 76
     1
 77
     6
 78
     2
 67
     7
 79
     6
170
     0
171
     0
290
     0
174
     0
 93
        1
 44
0.0
173
     0
291
     0
 45
0.0
1001
ACAD
1000
AcDbSavedByObjectVersion
1070
     0
  0
VISUALSTYLE
  5
D73
102
{ACAD_XDICTIONARY
360
13AC
102
}
102
{ACAD_REACTORS
330
D66
102
}
330
D66
100
AcDbVisualStyle
  2
Thicken
 70
    13
 71
     2
 72
     2
 73
     0
 90
        0
 40
-0.6
 41
-30.0
 62
     5
 63
     7
421
 16777215
 74
     1
 91
        4
 64
     7
 65
   257
 75
     1
175
     1
 42
1.0
 92
       12
 66
     7
 43
1.0
 76
     1
 77
     6
 78
     2
 67
     7
 79
     5
170
     0
171
     0
290
     0
174
     0
 93
        1
 44
0.0
173
     0
291
     1
 45
0.0
1001
ACAD
1000
AcDbSavedByObjectVersion
1070
     0
  0
VISUALSTYLE
  5
D6D
102
{ACAD_XDICTIONARY
360
13A0
102
}
102
{ACAD_REACTORS
330
D66
102
}
330
D66
100
AcDbVisualStyle
  2
Wireframe
 70
     5
 71
     0
 72
     2
 73
     0
 90
        0
 40
-0.6
 41
-30.0
 62
     5
 63
     7
421
 16777215
 74
     1
 91
        4
 64
     7
 65
   257
 75
     1
175
     1
 42
1.0
 92
        0
 66
   257
 43
1.0
 76
     1
 77
     6
 78
     2
 67
     7
 79
     3
170
     0
171
     0
290
     0
174
     0
 93
        1
 44
0.0
173
     0
291
     0
 45
0.0
1001
ACAD
1000
AcDbSavedByObjectVersion
1070
     0
  0
VISUALSTYLE
  5
D79
102
{ACAD_XDICTIONARY
360
13B8
102
}
102
{ACAD_REACTORS
330
D66
102
}
330
D66
100
AcDbVisualStyle
  2
X-Ray
 70
    25
 71
     2
 72
     2
 73
     1
 90
        1
 40
0.5
 41
-30.0
 62
     5
 63
     7
421
 16777215
 74
     1
 91
        0
 64
     7
 65
   257
 75
     1
175
     1
 42
1.0
 92
        8
 66
     7
 43
1.0
 76
     1
 77
     6
 78
     2
 67
     7
 79
     3
170
     0
171
     0
290
     0
174
     0
 93
       13
 44
0.0
173
     0
291
     0
 45
0.0
1001
ACAD
1000
AcDbSavedByObjectVersion
1070
     0
  0
DICTIONARYVAR
  5
EFE
102
{ACAD_REACTORS
330
125
102
}
330
125
100
DictionaryVariables
280
     0
  1
1:1
  0
DICTIONARYVAR
  5
EFA
102
{ACAD_REACTORS
330
125
102
}
330
125
100
DictionaryVariables
280
     0
  1
STANDARD
  0
DICTIONARYVAR
  5
EF9
102
{ACAD_REACTORS
330
125
102
}
330
125
100
DictionaryVariables
280
     0
  1
STANDARD
  0
DICTIONARYVAR
  5
EFB
102
{ACAD_REACTORS
330
125
102
}
330
125
100
DictionaryVariables
280
     0
  1
Imperial24
  0
DICTIONARYVAR
  5
EFC
102
{ACAD_REACTORS
330
125
102
}
330
125
100
DictionaryVariables
280
     0
  1
Imperial24
  0
DICTIONARYVAR
  5
126
102
{ACAD_REACTORS
330
125
102
}
330
125
100
DictionaryVariables
280
     0
  1
1
  0
DICTIONARYVAR
  5
F00
102
{ACAD_REACTORS
330
125
102
}
330
125
100
DictionaryVariables
280
     0
  1
1
  0
DICTIONARYVAR
  5
F01
102
{ACAD_REACTORS
330
125
102
}
330
125
100
DictionaryVariables
280
     0
  1
15
  0
DICTIONARYVAR
  5
EFF
102
{ACAD_REACTORS
330
125
102
}
330
125
100
DictionaryVariables
280
     0
  1
0
  0
DICTIONARYVAR
  5
EFD
102
{ACAD_REACTORS
330
125
102
}
330
125
100
DictionaryVariables
280
     0
  1
0
  0
DICTIONARYVAR
  5
127
102
{ACAD_REACTORS
330
125
102
}
330
125
100
DictionaryVariables
280
     0
  1

  0
DICTIONARYVAR
  5
138E
102
{ACAD_REACTORS
330
125
102
}
330
125
100
DictionaryVariables
280
     0
  1
2
  0
DICTIONARY
  5
EF6
330
D98
100
AcDbDictionary
280
     1
281
     1
  3
ACAD_XREC_ROUNDTRIP
360
1113
  0
DICTIONARY
  5
115E
330
21
100
AcDbDictionary
280
     1
281
     1
  3
ADSK_XREC_LAYOUTTHUMBNAIL
360
115F
  0
DICTIONARY
  5
D57
330
D56
100
AcDbDictionary
280
     1
281
     1
  3
ACAD_XREC_ROUNDTRIP
360
1392
  3
BUMPTILE
360
D59
  3
DIFFUSETILE
360
D58
  3
OPACITYTILE
360
D5C
  3
REFLECTIONTILE
360
D5B
  3
REFRACTIONTILE
360
D5D
  3
SPECULARTILE
360
D5A
  0
DICTIONARY
  5
D4F
330
D4E
100
AcDbDictionary
280
     1
281
     1
  3
ACAD_XREC_ROUNDTRIP
360
1391
  3
BUMPTILE
360
D51
  3
DIFFUSETILE
360
D50
  3
OPACITYTILE
360
D54
  3
REFLECTIONTILE
360
D53
  3
REFRACTIONTILE
360
D55
  3
SPECULARTILE
360
D52
  0
DICTIONARY
  5
D5F
330
D5E
100
AcDbDictionary
280
     1
281
     1
  3
ACAD_XREC_ROUNDTRIP
360
1393
  3
BUMPTILE
360
D61
  3
DIFFUSETILE
360
D60
  3
OPACITYTILE
360
D64
  3
REFLECTIONTILE
360
D63
  3
REFRACTIONTILE
360
D65
  3
SPECULARTILE
360
D62
  0
DICTIONARY
  5
13C5
330
D94
100
AcDbDictionary
280
     1
281
     1
  3
ACAD_XREC_ROUNDTRIP
360
13C6
  0
DICTIONARY
  5
EF4
330
D96
100
AcDbDictionary
280
     1
281
     1
  3
ACAD_XREC_ROUNDTRIP
360
1112
  0
DICTIONARY
  5
1151
330
D80
100
AcDbDictionary
280
     1
281
     1
  3
ACAD_ROUNDTRIP_2008_TABLESTYLE_CELLSTYLEMAP
360
138F
  3
ACAD_XREC_ROUNDTRIP
360
13C4
  0
DICTIONARY
  5
139E
330
D6C
100
AcDbDictionary
280
     1
281
     1
  3
ACAD_XREC_ROUNDTRIP
360
139F
  0
DICTIONARY
  5
139C
330
D6B
100
AcDbDictionary
280
     1
281
     1
  3
ACAD_XREC_ROUNDTRIP
360
139D
  0
DICTIONARY
  5
13AA
330
D72
100
AcDbDictionary
280
     1
281
     1
  3
ACAD_XREC_ROUNDTRIP
360
13AB
  0
DICTIONARY
  5
13B2
330
D76
100
AcDbDictionary
280
     1
281
     1
  3
ACAD_XREC_ROUNDTRIP
360
13B3
  0
DICTIONARY
  5
13A4
330
D6F
100
AcDbDictionary
280
     1
281
     1
  3
ACAD_XREC_ROUNDTRIP
360
13A5
  0
DICTIONARY
  5
13A8
330
D71
100
AcDbDictionary
280
     1
281
     1
  3
ACAD_XREC_ROUNDTRIP
360
13A9
  0
DICTIONARY
  5
13C2
330
D7E
100
AcDbDictionary
280
     1
281
     1
  3
ACAD_XREC_ROUNDTRIP
360
13C3
  0
DICTIONARY
  5
13B0
330
D75
100
AcDbDictionary
280
     1
281
     1
  3
ACAD_XREC_ROUNDTRIP
360
13B1
  0
DICTIONARY
  5
1394
330
D67
100
AcDbDictionary
280
     1
281
     1
  3
ACAD_XREC_ROUNDTRIP
360
1395
  0
DICTIONARY
  5
1396
330
D68
100
AcDbDictionary
280
     1
281
     1
  3
ACAD_XREC_ROUNDTRIP
360
1397
  0
DICTIONARY
  5
1398
330
D69
100
AcDbDictionary
280
     1
281
     1
  3
ACAD_XREC_ROUNDTRIP
360
1399
  0
DICTIONARY
  5
139A
330
D6A
100
AcDbDictionary
280
     1
281
     1
  3
ACAD_XREC_ROUNDTRIP
360
139B
  0
DICTIONARY
  5
13A2
330
D6E
100
AcDbDictionary
280
     1
281
     1
  3
ACAD_XREC_ROUNDTRIP
360
13A3
  0
DICTIONARY
  5
13BE
330
D7C
100
AcDbDictionary
280
     1
281
     1
  3
ACAD_XREC_ROUNDTRIP
360
13BF
  0
DICTIONARY
  5
13AE
330
D74
100
AcDbDictionary
280
     1
281
     1
  3
ACAD_XREC_ROUNDTRIP
360
13AF
  0
DICTIONARY
  5
13C0
330
D7D
100
AcDbDictionary
280
     1
281
     1
  3
ACAD_XREC_ROUNDTRIP
360
13C1
  0
DICTIONARY
  5
13A6
330
D70
100
AcDbDictionary
280
     1
281
     1
  3
ACAD_XREC_ROUNDTRIP
360
13A7
  0
DICTIONARY
  5
13BC
330
D7B
100
AcDbDictionary
280
     1
281
     1
  3
ACAD_XREC_ROUNDTRIP
360
13BD
  0
DICTIONARY
  5
13BA
330
D7A
100
AcDbDictionary
280
     1
281
     1
  3
ACAD_XREC_ROUNDTRIP
360
13BB
  0
DICTIONARY
  5
13B4
330
D77
100
AcDbDictionary
280
     1
281
     1
  3
ACAD_XREC_ROUNDTRIP
360
13B5
  0
DICTIONARY
  5
13B6
330
D78
100
AcDbDictionary
280
     1
281
     1
  3
ACAD_XREC_ROUNDTRIP
360
13B7
  0
DICTIONARY
  5
13AC
330
D73
100
AcDbDictionary
280
     1
281
     1
  3
ACAD_XREC_ROUNDTRIP
360
13AD
  0
DICTIONARY
  5
13A0
330
D6D
100
AcDbDictionary
280
     1
281
     1
  3
ACAD_XREC_ROUNDTRIP
360
13A1
  0
DICTIONARY
  5
13B8
330
D79
100
AcDbDictionary
280
     1
281
     1
  3
ACAD_XREC_ROUNDTRIP
360
13B9
  0
XRECORD
  5
1113
102
{ACAD_REACTORS
330
EF6
102
}
330
EF6
100
AcDbXrecord
280
     1
102
DISPLAYNAME
  1
Imperial24
102
FLAGS
 90
        0
  0
XRECORD
  5
115F
102
{ACAD_REACTORS
330
115E
102
}
330
115E
100
AcDbXrecord
280
     1
310
2800000000010000900000000100080000000000009000000100000001000000000100000000000000000000000000FFC8C8C8FF000000FF000000FF000000FF000000FF000000FF000000FF000000FF000000FF330000FF660000FF990000FFCC0000FFFF0000FF003300FF333300FF663300FF993300FFCC3300FFFF3300
310
FF006600FF336600FF666600FF996600FFCC6600FFFF6600FF009900FF339900FF669900FF999900FFCC9900FFFF9900FF00CC00FF33CC00FF66CC00FF99CC00FFCCCC00FFFFCC00FF00FF00FF33FF00FF66FF00FF99FF00FFCCFF00FFFFFF00FF000033FF330033FF660033FF990033FFCC0033FFFF0033FF003333FF3333
310
33FF663333FF993333FFCC3333FFFF3333FF006633FF336633FF666633FF996633FFCC6633FFFF6633FF009933FF339933FF669933FF999933FFCC9933FFFF9933FF00CC33FF33CC33FF66CC33FF99CC33FFCCCC33FFFFCC33FF00FF33FF33FF33FF66FF33FF99FF33FFCCFF33FFFFFF33FF000066FF330066FF660066FF99
310
0066FFCC0066FFFF0066FF003366FF333366FF663366FF993366FFCC3366FFFF3366FF006666FF336666FF666666FF996666FFCC6666FFFF6666FF009966FF339966FF669966FF999966FFCC9966FFFF9966FF00CC66FF33CC66FF66CC66FF99CC66FFCCCC66FFFFCC66FF00FF66FF33FF66FF66FF66FF99FF66FFCCFF66FF
310
FFFF66FF000099FF330099FF660099FF990099FFCC0099FFFF0099FF003399FF333399FF663399FF993399FFCC3399FFFF3399FF006699FF336699FF666699FF996699FFCC6699FFFF6699FF009999FF339999FF669999FF999999FFCC9999FFFF9999FF00CC99FF33CC99FF66CC99FF99CC99FFCCCC99FFFFCC99FF00FF99
310
FF33FF99FF66FF99FF99FF99FFCCFF99FFFFFF99FF0000CCFF3300CCFF6600CCFF9900CCFFCC00CCFFFF00CCFF0033CCFF3333CCFF6633CCFF9933CCFFCC33CCFFFF33CCFF0066CCFF3366CCFF6666CCFF9966CCFFCC66CCFFFF66CCFF0099CCFF3399CCFF6699CCFF9999CCFFCC99CCFFFF99CCFF00CCCCFF33CCCCFF66CC
310
CCFF99CCCCFFCCCCCCFFFFCCCCFF00FFCCFF33FFCCFF66FFCCFF99FFCCFFCCFFCCFFFFFFCCFF0000FFFF3300FFFF6600FFFF9900FFFFCC00FFFFFF00FFFF0033FFFF3333FFFF6633FFFF9933FFFFCC33FFFFFF33FFFF0066FFFF3366FFFF6666FFFF9966FFFFCC66FFFFFF66FFFF0099FFFF3399FFFF6699FFFF9999FFFFCC
310
99FFFFFF99FFFF00CCFFFF33CCFFFF66CCFFFF99CCFFFFCCCCFFFFFFCCFFFF00FFFFFF33FFFFFF66FFFFFF99FFFFFFCCFFFFFFFFFFFFFF000000FF0D0D0DFF1A1A1AFF282828FF353535FF434343FF505050FF5D5D5DFF6B6B6BFF787878FF868686FF939393FFA1A1A1FFAEAEAEFFBBBBBBFFC9C9C9FFD6D6D6FFE4E4E4FF
310
F1F1F1FFFFFFFFFF000000FF000000FF000000FF000000FF000000FF000000FF000000FF000000FF000000FF000000FF0000000000000000000000000000000000000000000000000000000000000000000000000000000000000000000000000000000000000000000000000000000000000000000000000000000000DCDC
310
DCDCDCDCDCDCDCDCDCDCDCDCDCDCDCDCDCDCDCDCDCDCDCDCDCDCDCDCDCDCDCDCDCDCDCDCDCDCDCDCDCDCDCDCDCDCDCDCDCDCDCDCDCDCDCDCDCDCDCDCDCDCDCDCDCDCDCDCDCDCDCDCDCDCDCDCDCDCDCDCDCDCDCDCDCDCDCDCDCDCDCDCDCDCDCDCDCDCDCDC000000000000000000000000000000000000000000000000000000
310
00000000000000000000000000000000000000000000000000000000000000000000000000000000000000000000000000000000000000000000000000000000000000000000000000000000000000000000000000000000000000000000000000000000000000000000000000000000000000000000000000000000000000
310
DC00000000000000000000000000000000000000000000000000000000000000000000000000000000000000000000000000DC0000000000000000000000000000000000000000000000000000000000000000000000000000000000000000000000000000DC00000000000000000000000000000000000000000000000000
310
00000000000000000000000000000000000000000000000000000000000000000000000000000000000000000000000000000000000000000000000000000000000000000000000000000000000000000000000000000000000000000000000000000000000000000000000000000000000000000000000000000000000000
310
0000DC00000000000000000000000000000000000000000000000000000000000000000000000000000000000000000000000000DC0000000000000000000000000000000000000000000000000000000000000000000000000000000000000000000000000000DC0000000000000000000000000000000000000000000000
310
00000000000000000000000000000000000000000000000000000000000000000000000000000000000000000000000000000000000000000000000000000000000000000000000000000000000000000000000000000000000000000000000000000000000000000000000000000000000000000000000000000000000000
310
00000000DC00000000000000000000000000000000000000000000000000000000000000000000000000000000000000000000000000DC0000000000000000000000000000000000000000000000000000000000000000000000000000000000000000000000000000DC000000000000000000000000000000000000000000
310
00000000000000000000000000000000000000000000000000000000000000000000000000000000000000000000000000000000000000000000000000000000000000000000000000000000000000000000000000000000000000000000000000000000000000000000000000000000000000000000000000000000000000
310
000000000000DC00000000000000000000000000000000000000000000000000000000000000000000000000000000000000000000000000DC0000000000000000000000000000000000000000000000000000000000000000000000000000000000000000000000000000DC00000000000000000000000000000000000000
310
00000000000000000000000000000000000000000000000000000000000000000000000000000000000000000000000000000000000000000000000000000000000000000000000000000000000000000000000000000000000000000000000000000000000000000000000000000000000000000000000000000000000000
310
0000000000000000DC00000000000000000000000000000000000000000000000000000000000000000000000000000000000000000000000000DC0000000000000000000000000000000000000000000000000000000000000000000000000000000000000000000000000000DC0000000000000000000000000000000000
310
00000000000000000000000000000000000000000000000000000000000000000000000000000000000000000000000000000000000000000000000000000000000000000000000000000000000000000000000000000000000000000000000000000000000000000000000000000000000000000000000000000000000000
310
00000000000000000000DC00000000000000000000000000000000000000000000000000000000000000000000000000000000000000000000000000DC0000000000000000000000000000000000000000000000000000000000000000000000000000000000000000000000000000DC000000000000000000000000000000
310
00000000000000000000000000000000000000000000000000000000000000000000000000000000000000000000000000000000000000000000000000000000000000000000000000000000000000000000000000000000000000000000000000000000000000000000000000000000000000000000000000000000000000
310
000000000000000000000000DC00282828282828282828282828282828282828282828282828282828282828282828282828282828282828282828282828DC2828282828282828282828282828282828282828282828282828282828282828282828282828282828282828282828282800DC00000000000000000000000000
310
00000000000000000000000000000000000000000000000000000000000000000000000000000000000000000000000000000000000000000000000000000000000000000000000000000000000000000000000000000000000000000000000000000000000000000000000000000000000000000000000000000000000000
310
0000000000000000000000000000DC00280000000000000000000000000000000000000000000000000000000000000000000000000000000000000000000000000000000000000000000000000000000000000000000000000000000000000000000000000000000000000000000000002800DC0000000000000000000000
310
00000000000000000000000000000000000000000000000000000000000000000000000000000000000000000000000000000000000000000000000000000000000000000000000000000000000000000000000000000000000000000000000000000000000000000000000000000000000000000000000000000000000000
310
00000000000000000000000000000000DC00280000000000000000000000000000000000000000000000000000000000000000000000000000000000000000000000000000000000000000000000000000000000000000000000000000000000000000000000000000000000000000000000002800DC000000000000000000
310
00000000000000000000000000000000000000000000000000000000000000000000000000000000000000000000000000000000000000000000000000000000000000000000000000000000000000000000000000000000000000000000000000000000000000000000000000000000000000000000000000000000000000
310
000000000000000000000000000000000000DC00280000000000000000000000000000000000000000000000000000000000000000000000000000000000000000000000000000000000000000000000000000000000000000000000000000000000000000000000000000000000000000000000002800DC00000000000000
310
00000000000000000000000000000000000000000000000000000000000000000000000000000000000000000000000000000000000000000000000000000000000000000000000000000000000000000000000000000000000000000000000000000000000000000000000000000000000000000000000000000000000000
310
0000000000000000000000000000000000000000DC00280000000000000000000000000000000000000000000000000000000000000000000000000000000000000000000000000000000000000000000000000000000000000000000000000000000000000000000000000000000000000000000000002800DC0000000000
310
00000000000000000000000000000000000000000000000000000000000000000000000000000000000000000000000000000000000000000000000000000000000000000000000000000000000000000000000000000000000000000000000000000000000000000000000000000000000000000000000000000000000000
310
00000000000000000000000000000000000000000000DC00280000000000000000000000000000000000000000000000000000000000000000000000000000000000000000000000000000000000000000000000000000000000000000000000000000000000000000000000000000000000000000000000002800DC000000
310
00000000000000000000000000000000000000000000000000000000000000000000000000000000000000000000000000000000000000000000000000000000000000000000000000000000000000000000000000000000000000000000000000000000000000000000000000000000000000000000000000000000000000
310
000000000000000000000000000000000000000000000000DC00280000000000000000000000000000000000000000000000000000000000000000000000000000000000000000000000000000000000000000000000000000000000000000000000000000000000000000000000000000000000000000000000002800DC00
310
00000000000000000000000000000000000000000000000000000000000000000000000000000000000000000000000000000000000000000000000000000000000000000000000000000000000000000000000000000000000000000000000000000000000000000000000000000000000000000000000000000000000000
310
0000000000000000000000000000000000000000000000000000DC00280000000000000000000000000000000000000000000000000000000000000000000000000000000000000000000000000000000000000000000000000000000000000000000000000000000000000000000000000000000000000000000000002800
310
DC000000000000000000000000000000000000000000000000000000000000000000000000000000000000000000000000000000000000000000000000000000000000000000000000000000000000000000000000000000000000000000000000000000000000000000000000000000000000000000000000000000000000
310
00000000000000000000000000000000000000000000000000000000DC0028000000000000000000000000000000000000000000000000000000000000000000000000000000000000000000000000000000000000000000000000000000000000000000000000000000000000000000000000000000000000000000000000
310
2800DC00000000000000000000000000000000000000000000000000000000000000000000000000000000000000000000000000000000000000000000000000000000000000000000000000000000000000000000000000000000000000000000000000000000000000000000000000000000000000000000000000000000
310
000000000000000000000000000000000000000000000000000000000000DC002800000000000000000000000000000000000000000000000000000000000000000000000000000000000000000000000000000000000000000000000000000000000000000000000000000000000000000000000000000000000000000000
310
00002800DC0000000000000000000000000000000000000000000000000000000000000000000000000000000000000000000000000000000000000000000000000000000000000000000000000000000000000000000000000000000000000000000000000000000000000000000000000000000000000000000000000000
310
0000000000000000000000000000000000000000000000000000000000000000DC00280000000000000000000000000000000000000000000000000000000000000000000000000000000000000000000000000000000000000000000000000000000000000000000000000000000000000000000000000000000000000000
310
000000002800DC000000000000000000000000000000000000000000000000000000000000000000000000000000000000000000000000000000000000000000000000000000000000000000000000000000000000000000000000000000000000000000000000000000000000000000000000000000000000000000000000
310
00000000000000000000000000000000000000000000000000000000000000000000DC0028000000000000000000000000000000000000000000000000000000000000000000000000000000000000000000000000000000000000000000000000000000000000000000000000000000000000000000000000000000000000
310
0000000000002800DC00000000000000000000000000000000000000000000000000000000000000000000000000000000000000000000000000000000000000000000000000000000000000000000000000000000000000000000000000000000000000000000000000000000000000000000000000000000000000000000
310
000000000000000000000000000000000000000000000000000000000000000000000000DC002800000000000000000000000000000000000000000000000000000000000000000000000000000000000000000000000000000000000000000000000000000000000000000000000000000000000000000000000000000000
310
00000000000000002800DC0000000000000000000000000000000000000000000000000000000000000000000000000000000000000000000000000000000000000000000000000000000000000000000000000000000000000000000000000000000000000000000000000000000000000000000000000000000000000000
310
0000000000000000000000000000000000000000000000000000000000000000000000000000DC00280000000000000000000000000000000000000000000000000000000000000000000000000000000000000000000000000000000000000000000000000000000000000000000000000000000000000000000000000000
310
000000000000000000002800DC000000000000000000000000000000000000000000000000000000000000000000000000000000000000000000000000000000000000000000000000000000000000000000000000000000000000000000000000000000000000000000000000000000000000000000000000000000000000
310
00000000000000000000000000000000000000000000000000000000000000000000000000000000DC0028000000000000000000000000000000000000000000000000000000000000000000000000000000000000000000000000000000000000000000000000000000000000000000000000000000000000000000000000
310
0000000000000000000000002800DC00000000000000000000000000000000000000000000000000000000000000000000000000000000000000000000000000000000000000000000000000000000000000000000000000000000000000000000000000000000000000000000000000000000000000000000000000000000
310
000000000000000000000000000000000000000000000000000000000000000000000000000000000000DC002800000000000000000000000000000000000000000000000000000000000000000000000000000000000000000000000000000000000000000000000000000000000000000000000000000000000000000000
310
00000000000000000000000000002800DC0000000000000000000000000000000000000000000000000000000000000000000000000000000000000000000000000000000000000000000000000000000000000000000000000000000000000000000000000000000000000000000000000000000000000000000000000000
310
0000000000000000000000000000000000000000000000000000000000000000000000000000000000000000DC00280000000000000000000000000000000000000000000000000000000000000000000000000000000000000000000000000000000000000000000000000000000000000000000000000000000000000000
310
000000000000000000000000000000002800DC000000000000000000000000000000000000000000000000000000000000000000000000000000000000000000000000000000000000000000000000000000000000000000000000000000000000000000000000000000000000000000000000000000000000000000000000
310
00000000000000000000000000000000000000000000000000000000000000000000000000000000000000000000DC0028000000000000000000000000000000000000000000000000000000000000000000000000000000000000000000000000000000000000000000000000000000000000000000000000000000000000
310
0000000000000000000000000000000000002800DC00000000000000000000000000000000000000000000000000000000000000000000000000000000000000000000000000000000000000000000000000000000000000000000000000000000000000000000000000000000000000000000000000000000000000000000
310
000000000000000000000000000000000000000000000000000000000000000000000000000000000000000000000000DC002800000000000000000000000000000000000000000000000000000000000000000000000000000000000000000000000000000000000000000000000000000000000000000000000000000000
310
00000000000000000000000000000000000000002800DC0000000000000000000000000000000000000000000000000000000000000000000000000000000000000000000000000000000000000000000000000000000000000000000000000000000000000000000000000000000000000000000000000000000000000000
310
0000000000000000000000000000000000000000000000000000000000000000000000000000000000000000000000000000DC00280000000000000000000000000000000000000000000000000000000000000000000000000000000000000000000000000000000000000000000000000000000000000000000000000000
310
000000000000000000000000000000000000000000002800DC000000000000000000000000000000000000000000000000000000000000000000000000000000000000000000000000000000000000000000000000000000000000000000000000000000000000000000000000000000000000000000000000000000000000
310
00000000000000000000000000000000000000000000000000000000000000000000000000000000000000000000000000000000DC0028000000000000000000000000000000000000000000000000000000000000000000000000000000000000000000000000000000000000000000000000000000000000000000000000
310
0000000000000000000000000000000000000000000000002800DC00000000000000000000000000000000000000000000000000000000000000000000000000000000000000000000000000000000000000000000000000000000000000000000000000000000000000000000000000000000000000000000000000000000
310
000000000000000000000000000000000000000000000000000000000000000000000000000000000000000000000000000000000000DC002800000000000000000000000000000000000000000000000000000000000000000000000000000000000000000000000000000000000000000000000000000000000000000000
310
00000000000000000000000000000000000000000000000000002800DC0000000000000000000000000000000000000000000000000000000000000000000000000000000000000000000000000000000000000000000000000000000000000000000000000000000000000000000000000000000000000000000000000000
310
0000000000000000000000000000000000000000000000000000000000000000000000000000000000000000000000000000000000000000DC00280000000000000000000000000000000000000000000000000000000000000000000000000000000000000000000000000000000000000000000000000000000000000000
310
000000000000000000000000000000000000000000000000000000002800DC000000000000000000000000000000000000000000000000000000000000000000000000000000000000000000000000000000000000000000000000000000000000000000000000000000000000000000000000000000000000000000000000
310
00000000000000000000000000000000000000000000000000000000000000000000000000000000000000000000000000000000000000000000DC0028000000000000000000000000000000000000000000000000000000000000000000000000000000000000000000000000000000000000000000000000000000000000
310
0000000000000000000000000000000000000000000000000000000000002800DC00000000000000000000000000000000000000000000000000000000000000000000000000000000000000000000000000000000000000000000000000000000000000000000000000000000000000000000000000000000000000000000
310
000000000000000000000000000000000000000000000000000000000000000000000000000000000000000000000000000000000000000000000000DC002800000000000000000000000000000000000000000000000000000000000000000000000000000000000000000000000000000000000000000000000000000000
310
00000000000000000000000000000000000000000000000000000000000000002800DC0000000000000000000000000000000000000000000000000000000000000000000000000000000000000000000000000000000000000000000000000000000000000000000000000000000000000000000000000000000000000000
310
0000000000000000000000000000000000000000000000000000000000000000000000000000000000000000000000000000000000000000000000000000DC00280000000000000000000000000000000000000000000000000000000000000000000000000000000000000000000000000000000000000000000000000000
310
000000000000000000000000000000000000000000000000000000000000000000002800DC000000000000000000000000000000000000000000000000000000000000000000000000000000000000000000000000000000000000000000000000000000000000000000000000000000000000000000000000000000000000
310
00000000000000000000000000000000000000000000000000000000000000000000000000000000000000000000000000000000000000000000000000000000DC0028000000000000000000000000000000000000000000000000000000000000000000000000000000000000000000000000000000000000000000000000
310
0000000000000000000000000000000000000000000000000000000000000000000000002800DC00000000000000000000000000000000000000000000000000000000000000000000000000000000000000000000000000000000000000000000000000000000000000000000000000000000000000000000000000000000
310
000000000000000000000000000000000000000000000000000000000000000000000000000000000000000000000000000000000000000000000000000000000000DC002800000000000000000000000000000000000000000000000000000000000000000000000000000000000000000000000000000000000000000000
310
00000000000000000000000000000000000000000000000000000000000000000000000000002800DC0000000000000000000000000000000000000000000000000000000000000000000000000000000000000000000000000000000000000000000000000000000000000000000000000000000000000000000000000000
310
0000000000000000000000000000000000000000000000000000000000000000000000000000000000000000000000000000000000000000000000000000000000000000DC00280000000000000000000000000000000000000000000000000000000000000000000000000000000000000000000000000000000000000000
310
000000000000000000000000000000000000000000000000000000000000000000000000000000002800DC000000000000000000000000000000000000000000000000000000000000000000000000000000000000000000000000000000000000000000000000000000000000000000000000000000000000000000000000
310
00000000000000000000000000000000000000000000000000000000000000000000000000000000000000000000000000000000000000000000000000000000000000000000DC0028000000000000000000000000000000000000000000000000000000000000000000000000000000000000000000000000000000000000
310
0000000000000000000000000000000000000000000000000000000000000000000000000000000000002800DC00000000000000000000000000000000000000000000000000000000000000000000000000000000000000000000000000000000000000000000000000000000000000000000000000000000000000000000
310
000000000000000000000000000000000000000000000000000000000000000000000000000000000000000000000000000000000000000000000000000000000000000000000000DC002800000000000000000000000000000000000000000000000000000000000000000000000000000000000000000000000000000000
310
00000000000000000000000000000000000000000000000000000000000000000000000000000000000000002800DC0000000000000000000000000000000000000000000000000000000000000000000000000000000000000000000000000000000000000000000000000000000000000000000000000000000000000000
310
0000000000000000000000000000000000000000000000000000000000000000000000000000000000000000000000000000000000000000000000000000000000000000000000000000DC00280000000000000000000000000000000000000000000000000000000000000000000000000000000000000000000000000000
310
000000000000000000000000000000000000000000000000000000000000000000000000000000000000000000002800DC000000000000000000000000000000000000000000000000000000000000000000000000000000000000000000000000000000000000000000000000000000000000000000000000000000000000
310
00000000000000000000000000000000000000000000000000000000000000000000000000000000000000000000000000000000000000000000000000000000000000000000000000000000DC0028000000000000000000000000000000000000000000000000000000000000000000000000000000000000000000000000
310
0000000000000000000000000000000000000000000000000000000000000000000000000000000000000000000000002800DC00000000000000000000000000000000000000000000000000000000000000000000000000000000000000000000000000000000000000000000000000000000000000000000000000000000
310
000000000000000000000000000000000000000000000000000000000000000000000000000000000000000000000000000000000000000000000000000000000000000000000000000000000000DC002800000000000000000000000000000000000000000000000000000000000000000000000000000000000000000000
310
00000000000000000000000000000000000000000000000000000000000000000000000000000000000000000000000000002800DC0000000000000000000000000000000000000000000000000000000000000000000000000000000000000000000000000000000000000000000000000000000000000000000000000000
310
0000000000000000000000000000000000000000000000000000000000000000000000000000000000000000000000000000000000000000000000000000000000000000000000000000000000000000DC00280000000000000000000000000000000000000000000000000000000000000000000000000000000000000000
310
000000000000000000000000000000000000000000000000000000000000000000000000000000000000000000000000000000002800DC000000000000000000000000000000000000000000000000000000000000000000000000000000000000000000000000000000000000000000000000000000000000000000000000
310
00000000000000000000000000000000000000000000000000000000000000000000000000000000000000000000000000000000000000000000000000000000000000000000000000000000000000000000DC00280000000000000000000000000000000000000000F5F5F5F5F5F5F5F5F5F5F5F5F5F5F5F5F5F5F5F5F5F5
310
F5F5F5F5F5F50000000000000000000000000000000000000000000000000000000000000000000000000000000000000000000000002800DC00000000000000000000000000000000000000000000000000000000000000000000000000000000000000000000000000000000000000000000000000000000000000000000
310
000000000000000000000000000000000000000000000000000000000000000000000000000000000000000000000000000000000000000000000000000000000000000000000000000000000000000000000000DC00280000000000000000000000000000000000000000F5F500000000000000000000BEBEBEBE00000000
310
000000000000F5F50000000000000000000000000000000000000000000000000000000000000000000000000000000000000000000000002800DC0000000000000000000000000000000000000000000000000000000000000000000000000000000000000000000000000000000000000000000000000000000000000000
310
0000000000000000000000000000000000000000000000000000000000000000000000000000000000000000000000000000000000000000000000000000000000000000000000000000000000000000000000000000DC00280000000000000000000000000000000000000000F50000000000000000000000BEBEBEBE0000
310
000000000000000000F50000000000000000000000000000000000000000000000000000000000000000000000000000000000000000000000002800DC000000000000000000000000000000000000000000000000000000000000000000000000000000000000000000000000000000000000000000000000000000000000
310
00000000000000000000000000000000000000000000000000000000000000000000000000000000000000000000000000000000000000000000000000000000000000000000000000000000000000000000000000000000DC00280000000000000000000000000000000000000000F5000000000000000000000000F50000
310
0000000000000000000000F50000000000000000000000000000000000000000000000000000000000000000000000000000000000000000000000002800DC00000000000000000000000000000000000000000000000000000000000000000000000000000000000000000000000000000000000000000000000000000000
310
000000000000000000000000000000000000000000000000000000000000000000000000000000000000000000000000000000000000000000000000000000000000000000000000000000000000000000000000000000000000DC002800000000000000F5F5F5F5F5F5F5F5F5F5F5F5F5F5282828282828282828282828DC
310
282828282828282828F5F5F5F5F50000000000000000000000000000000000000000000000000000000000000000000000000000000000000000000000002800DC0000000000000000000000000000000000000000000000000000000000000000000000000000000000000000000000000000000000000000000000000000
310
0000000000000000000000000000000000000000000000000000000000000000000000000000000000000000000000000000000000000000000000000000000000000000000000000000000000000000000000000000000000000000DC002800000000000000F500F5F500F500000000000000F50000000000000000000000
310
00DC00000000000000000000F500F5F50000000000000000000000000000000000000000000000000000000000000000000000000000000000000000000000002800DC000000000000000000000000000000000000000000000000000000000000000000000000000000000000000000000000000000000000000000000000
310
00000000000000000000000000000000000000000000000000000000000000000000000000000000000000000000000000000000000000000000000000000000000000000000000000000000000000000000000000000000000000000000DC002800000000000000F500F50000F500000000000000F5DCDCDCDCDCDCDCDCDC
310
DCDCDCDCDCDCDCDCDCDCDCDCDCDCF5DCF5F50000000000000000000000000000000000000000000000000000000000000000000000000000000000000000000000002800DC00000000000000000000000000000000000000000000000000000000000000000000000000000000000000000000000000000000000000000000
310
000000000000000000000000000000000000000000000000000000000000000000000000000000000000000000000000000000000000000000000000000000000000000000000000000000000000000000000000000000000000000000000000DC002800000000000000F500F50000F500000000000000F500000000000000
310
0000000000DC00F5F5F5F5F5F5F5F5F5F500F5F50000000000000000000000000000000000000000000000000000000000000000000000000000000000000000000000002800DC0000000000000000000000000000000000000000000000000000000000000000000000000000000000000000000000000000000000000000
310
0000000000000000000000000000000000000000000000000000000000000000000000000000000000000000000000000000000000000000000000000000000000000000000000000000000000000000000000000000000000000000000000000000DC002800000000000000F500F50000F500000000000000F50000000000
310
00000000000000DC00F50000000000000000F5F5F5F5F5F5BEBEBEF5F5F5F5F500000000000000F500F5000000000000000000000000000000000000000000000000000000002800DC000000000000000000000000000000000000000000000000000000000000000000000000000000000000000000000000000000000000
310
00000000000000000000000000000000000000000000000000000000000000000000000000000000000000000000000000000000000000000000000000000000000000000000000000000000000000000000000000000000000000000000000000000000DC002800000000000000F5BEBE0000F500000000000000F5000000
310
000000000000000000DC00F50000000000000000F500F5F500BEBEBEBE0000000000F5F5F5F5F5F5F5F5F5F5000000000000000000000000000000000000000000000000000000002800DC00000000000000000000000000000000000000000000000000000000000000000000000000000000000000000000000000000000
310
000000000000000000000000000000000000000000000000000000000000000000000000000000000000000000000000000000000000000000000000000000000000000000000000000000000000000000000000000000000000000000000000000000000000DC002800000000000000F5BEBE0000F500F5BEBEBEF5F5F5F5
310
F5F5000000000000000000DC00F50000000000000000F500F5F5F5F5F5F5F5F5F5F5F500000000000000000000F5000000000000000000000000000000000000000000000000000000002800DC0000000000000000000000000000000000000000000000000000000000000000000000000000000000000000000000000000
310
0000000000000000000000000000000000000000000000000000000000000000000000000000000000000000000000000000000000000000000000000000000000000000000000000000000000000000000000000000000000000000000000000000000000000000DC002800000000000000F5BEBE0000F50000BEBEBE0000
310
F5000000000000000000000000DC00F50000000000000000F500F5F5F500000000000000BEBEBEF5F5F5F5F5F5F5F5F5000000000000000000000000000000000000000000000000000000002800DC000000000000000000000000000000000000000000000000000000000000000000000000000000000000000000000000
310
00000000000000000000000000000000000000000000000000000000000000000000000000000000000000000000000000000000000000000000000000000000000000000000000000000000000000000000000000000000000000000000000000000000000000000000DC002800000000000000F500F50000F50000BEBEBE
310
0000F5000000000000000000000000DC00F50000000000000000F500F5F5F5000000F5000000BEBEBE0000000000000000F5000000000000000000000000000000000000000000000000000000002800DC00000000000000000000000000000000000000000000000000000000000000000000000000000000000000000000
310
000000000000000000000000000000000000000000000000000000000000000000000000000000000000000000000000000000000000000000000000000000000000000000000000000000000000000000000000000000000000000000000000000000000000000000000000DC002800000000000000F500F50000F5000000
310
00000000F5000000000000000000000000DCF500000000000000BEBEF500F5F5F5000000F5F5F5F5F5F5F5F5F5F5F5F5F5F5F5F5000000000000000000000000000000000000000000000000000000002800DC0000000000000000000000000000000000000000000000000000000000000000000000000000000000000000
310
0000000000000000000000000000000000000000000000000000000000000000000000000000000000000000000000000000000000000000000000000000000000000000000000000000000000000000000000000000000000000000000000000000000000000000000000000000DC002800000000000000F500F5F500F500
310
000000000000F5000000000000000000000000DCF500000000000000BEBEF500F5F5F5000000F5000000000000BEBE00000000F5F5F5000000000000000000000000000000000000000000000000000000002800DC000000000000000000000000000000000000000000000000000000000000000000000000000000000000
310
00000000000000000000000000000000000000000000000000000000000000000000000000000000000000000000000000000000000000000000000000000000000000000000000000000000000000000000000000000000000000000000000000000000000000000000000000000000DC002800000000000000F500F5F5F5
310
F5F5F528F528F52828000000000000000000000000DCF500000000000000BEBEF500F528F5F528F5F5F5F5F5F5F5F5BEBEF5F5F5F5F5F5F5F5F5F5F5F5F5000000000000000000000000000000000000000000002800DC00000000000000000000000000000000000000000000000000000000000000000000000000000000
310
000000000000000000000000000000000000000000000000000000000000000000000000000000000000000000000000000000000000000000000000000000000000000000000000000000000000000000000000000000000000000000000000000000000000000000000000000000000000DC002800000000000000F500F5
310
F5BEF50000F5F5F5F528F5000000000000000000000000DCF5000000000000000000F500F5F528F5F5F5F500000000000000000000000000F50000000000F5F5000000000000000000000000000000000000000000002800DC0000000000000000000000000000000000000000000000000000000000000000000000000000
310
0000000000000000000000000000000000000000000000000000000000000000000000000000000000000000000000000000000000000000000000000000000000000000000000000000000000000000000000000000000000000000000000000000000000000000000000000000000000000000DC002800000000000000F5
310
00F5BEBEF50000F5F5F5F5F5F5000000000000000000000000DCF5000000000000000000F500F5F5F5F5F5F5F500000000000000000000000000F500000000BEBEF5000000000000000000000000000000000000000000002800DC000000000000000000000000000000000000000000000000000000000000000000000000
310
00000000000000000000000000000000000000000000000000000000000000000000000000000000000000000000000000000000000000000000000000000000000000000000000000000000000000000000000000000000000000000000000000000000000000000000000000000000000000000000DC0028000000000000
310
00F500F5BEBEF50000F5F5F5F5F5F5000000000000000000000000DCF5000000000000000000F500F5F5F5F5F5F5F500000000000000000000000000F500000000BEBEF5000000000000000000000000000000000000000000002800DC00000000000000000000000000000000000000000000000000000000000000000000
310
000000000000000000000000000000000000000000000000000000000000000000000000000000000000000000000000000000000000000000000000000000000000000000000000000000000000000000000000000000000000000000000000000000000000000000000000000000000000000000000000DC002800000000
310
000000F500F50000F50000F5F5F5F5F5F5000000000000000000000000DCF5000000000000000000F500F5F5F5F5F5F5F500000000000000000000000000F500000000BEBEF5000000000000000000000000000000000000000000002800DC0000000000000000000000000000000000000000000000000000000000000000
310
0000000000000000000000000000000000000000000000000000000000000000000000000000000000000000000000000000000000000000000000000000000000000000000000000000000000000000000000000000000000000000000000000000000000000000000000000000000000000000000000000000DC00280000
310
0000000000F500F50000F50000F5F5F5F5F5F5000000000000000000000000DCF5000000000000000000F500F5F500F500F5F5F5F5F5F5F5F500000000000000F5000000000000F5000000000000000000000000000000000000000000002800DC000000000000000000000000000000000000000000000000000000000000
310
00000000000000000000000000000000000000000000000000000000000000000000000000000000000000000000000000000000000000000000000000000000000000000000000000000000000000000000000000000000000000000000000000000000000000000000000000000000000000000000000000000000DC0028
310
00000000000000F500F50000F50000F5F5F5F5F5F5000000000000000000000000DCF5000000000000000000F500F5F5F5F5F5F5F5F5F5F5F5F5F5F5F5F5F5F5F5F5F5F5F5F5F5F5F5F5000000000000000000000000000000000000000000002800DC00000000000000000000000000000000000000000000000000000000
310
000000000000000000000000000000000000000000000000000000000000000000000000000000000000000000000000000000000000000000000000000000000000000000000000000000000000000000000000000000000000000000000000000000000000000000000000000000000000000000000000000000000000DC
310
002800000000000000F500F50000F50000F5F5F5F5F5F5000000000000000000000000DCF50000000000F5F5F5F5F5F5F5F5F5F5F5F5F5F5F5F5F5F5F5F5F5F5F5F5F5F5F50000000000F5F5000000000000000000000000000000000000000000002800DC0000000000000000000000000000000000000000000000000000
310
00000000000000000000000000000000000000000000000000000000000000000000000000000000000000000000000000000000000000000000000000000000000000000000000000000000000000000000000000000000000000000000000000000000000000000000000000000000000000000000000000000000000000
310
00DC002800000000000000F500F50000F50000F5F5F5F5F5F5000000000000000000000000DCF50000000000F50000F5F5F5F5F5F5F5F5F5F5F5F5F5F5F5F5280000000000F5F5F5F500000000F5000000000000000000000000000000000000000000002800DC000000000000000000000000000000000000000000000000
310
00000000000000000000000000000000000000000000000000000000000000000000000000000000000000000000000000000000000000000000000000000000000000000000000000000000000000000000000000000000000000000000000000000000000000000000000000000000000000000000000000000000000000
310
000000DC002800000000000000F500F50000F50000F5F5F5F5F5F5000000000000000000000000DCF50000000000F5000000000028000000000000DC00DC0000DC0000000000000028F5F500000000F5000000000000000000000000000000000000000000002800DC00000000000000000000000000000000000000000000
310
00000000000000000000000000000000000000000000000000000000000000000000000000000000000000000000000000000000000000000000000000000000000000000000000000000000000000000000000000000000000000000000000000000000000000000000000000000000000000000000000000000000000000
310
0000000000DC002800000000000000F500F50000F50000F5F5F5F5F5F5000000000000000000000000F5000000000000F5000000002800000000000000DC00DC0000DC000000000000002800F500000000F5000000000000000000000000000000000000000000002800DC0000000000000000000000000000000000000000
310
00000000000000000000000000000000000000000000000000000000000000000000000000000000000000000000000000000000000000000000000000000000000000000000000000000000000000000000000000000000000000000000000000000000000000000000000000000000000000000000000000000000000000
310
00000000000000DC002800000000000000F500F50000F50000F5F5F5F5F5F5000000000000000000000000F5000000000000F5000000002800000000000000DC00DC0000DC000000000000002800F500000000F5000000000000000000000000000000000000000000002800DC000000000000000000000000000000000000
310
00000000000000000000000000000000000000000000000000000000000000000000000000000000000000000000000000000000000000000000000000000000000000000000000000000000000000000000000000000000000000000000000000000000000000000000000000000000000000000000000000000000000000
310
000000000000000000DC002800000000000000F500F50000F50000F5F5F5F5F5F5000000000000000000000000F5000000000000F5000000282800000000000000DC00DC0000DC000000000000002800F500000000F5000000000000000000000000000000000000000000002800DC00000000000000000000000000000000
310
00000000000000000000000000000000000000000000000000000000000000000000000000000000000000000000000000000000000000000000000000000000000000000000000000000000000000000000000000000000000000000000000000000000000000000000000000000000000000000000000000000000000000
310
0000000000000000000000DC002800000000000000F500F50000F50000F5F5F5F5F5F5000000000000000000000000F5000000000000F5000000280000000000000000DC00DC0000DC000000000000002800F500000000F5000000000000000000000000000000000000000000002800DC0000000000000000000000000000
310
00000000000000000000000000000000000000000000000000000000000000000000000000000000000000000000000000000000000000000000000000000000000000000000000000000000000000000000000000000000000000000000000000000000000000000000000000000000000000000000000000000000000000
310
00000000000000000000000000DC002800000000000000F500F50000F50000F5F5F5F5F5F5000000000000000000000000F5000000000000BEBE0000280000000000000000DC00DC0000DC000000000000002800F500000000F5000000000000000000000000000000000000000000002800DC000000000000000000000000
310
00000000000000000000000000000000000000000000000000000000000000000000000000000000000000000000000000000000000000000000000000000000000000000000000000000000000000000000000000000000000000000000000000000000000000000000000000000000000000000000000000000000000000
310
000000000000000000000000000000DC002800000000000000F500F50000F5F5F5F5F5F5F5F5F5F5F5F5F5F5F5F5F5F5F5F5F5F5000000000000BEBE0000280000000000000000DC00DC0000DC000000000000002800F500000000F5000000000000000000000000000000000000000000002800DC00000000000000000000
310
00000000000000000000000000000000000000000000000000000000000000000000000000000000000000000000000000000000000000000000000000000000000000000000000000000000000000000000000000000000000000000000000000000000000000000000000000000000000000000000000000000000000000
310
0000000000000000000000000000000000DC00280000000000BEBEF500F50000000000F5F5F5F5F5F5000000000000000000000000DCDCDCDCDCDCF5BEBEF5DC28DCDCDCF5DCDCDCDCDC00DC0000DC000000000000002800BEBE000000BEBE0000000000000000000000000000000000000000002800DC0000000000000000
310
00000000000000000000000000000000000000000000000000000000000000000000000000000000000000000000000000000000000000000000000000000000000000000000000000000000000000000000000000000000000000000000000000000000000000000000000000000000000000000000000000000000000000
310
00000000000000000000000000000000000000DC00280000000000BEBEF500F50000000000F5F5F5F5F5F5000000000000000000000000DC0000000000F5BEBE0000280000F5F500000000DCDCDCDCDCDCDCDCDCDCDCDC28F500BEBE000000BEBE0000000000000000000000000000000000000000002800DC000000000000
310
00000000000000000000000000000000000000000000000000000000000000000000000000000000000000000000000000000000000000000000000000000000000000000000000000000000000000000000000000000000000000000000000000000000000000000000000000000000000000000000000000000000000000
310
000000000000000000000000000000000000000000DC00280000000000BEBEF500F50000000000F5F5F5F5F5F5000000000000000000000000DC0000000000F500000000280000F50000000000DCDC0000DC00BEBEBEBEBE002800F5BEBE0000F5BEBE0000000000000000000000000000000000000000002800DC00000000
310
00000000000000000000000000000000000000000000000000000000000000000000000000000000000000000000000000000000000000000000000000000000000000000000000000000000000000000000000000000000000000000000000000000000000000000000000000000000000000000000000000000000000000
310
0000000000000000000000000000000000000000000000DC00280000000000BEBEF500F50000000000F5F5F5F5F5F5000000000000000000000000DC0000000000F500000000280000F50000000000DCDC0000DC00BEBEBEBEBEBE2800F5BEBE0000F5BEBE0000000000000000000000000000000000000000002800DC0000
310
00000000000000000000000000000000000000000000000000000000000000000000000000000000000000000000000000000000000000000000000000000000000000000000000000000000000000000000000000000000000000000000000000000000000000000000000000000000000000000000000000000000000000
310
00000000000000000000000000000000000000000000000000DC002800000000000000F500F50000000000F5F5F5F5F5F5000000000000000000000000DC0000000000F500000000280000F50000000000DCDC0000DC0000BEBEBEBE002800F500000000F500000000000000000000000000000000000000000000002800DC
310
00000000000000000000000000000000000000000000000000000000000000000000000000000000000000000000000000000000000000000000000000000000000000000000000000000000000000000000000000000000000000000000000000000000000000000000000000000000000000000000000000000000000000
310
000000000000000000000000000000000000000000000000000000DC002800000000000000F500F50000000000F5F5F5F5F5F5000000000000000000000000DC0000000000F5000000000028F5000000000000DCDC0000DC000000000000002800F500000000F50000000000002828DC28DCDC28DC28DC28DCDC28282828F5
310
F5F50000000000000000000000000000000000000000000000000000000000000000000000000000000000000000000000000000000000000000000000000000000000000000000000000000000000000000000000000000000000000000000000000000000000000000000000000000000000000000000000000000000000
310
0000000000000000000000000000000000000000000000000000000000DC002800000000000000F5BEBE0000000000F5F5F5F5F5F5000000000000000000000000DC0000000000F5000000000028F5000000000000DCDC0000DC000000000000002800F500000000F50000000000F52800DC00DCDC00DC00DC00DCDCF528F5
310
F5F500DC000000000000000000000000000000000000000000000000000000000000000000000000000000000000000000000000000000000000000000000000000000000000000000000000000000000000000000000000000000000000000000000000000000000000000000000000000000000000000000000000000000
310
00000000000000000000000000000000000000000000000000000000000000DC002800000000000000F5BEBE0000000000F5F5F5F5F5F5000000000000000000000000DC0000000000F50000000000F528000000000000DCDC0000DC000000000000002800F500BEBE00F50000000000F52800DC00DCDC00DC00DC00DCDCF5
310
28F5F5F500DC00000000000000000000000000000000000000000000000000000000000000000000000000000000000000000000000000000000000000000000000000000000000000000000000000000000000000000000000000000000000000000000000000000000000000000000000000000000000000000000000000
310
000000000000000000000000000000000000000000000000000000000000000000DC002800000000000000F5BEBE0000000000F5F5F5F5F5F5000000000000000000000000DC0000000000F5F5F5000000F52828F528000000DCDC0000DC000000000000002800F500BEBE00F50000000000F528BEBEBEBEBEBEBEBEBEBEBE
310
BEF528BEBEBE00DC0000000000000000000000000000000000000000000000000000000000000000000000000000000000000000000000000000000000000000000000000000000000000000000000000000000000000000000000000000000000000000000000000000000000000000000000000000000000000000000000
310
0000000000000000000000000000000000000000000000000000000000000000000000DC002800000000000000F500F50000000000F5F5F5F5F5F5000000000000000000000000DC0000000000000000F5F5F5F5F5F5F5F5F5F5F5F5F50000DC000000000000002800F500BEBE00F50000000000F52800DC00DCDC00DC00DC
310
00DCDCF528F5F52800DC000000000000000000000000000000000000000000000000000000000000000000000000000000000000000000000000000000000000000000000000000000000000000000000000000000000000000000000000000000000000000000000000000000000000000000000000000000000000000000
310
00000000000000000000000000000000000000000000000000000000000000000000000000DC002800000000000000F500F50000000000F5F5F5F5F5F5000000000000000000000000DC000000000000000000BEBEBEF5F5F5F5F5F5F5F5F5F5F5F5F5F5F528000028F5F5F500F50000F50000000000F52800DC00DCDC00DC
310
00DC00DCDCF528F5F52800DC00000000000000000000000000000000000000000000000000000000000000000000000000000000000000000000000000000000000000000000000000000000000000000000000000000000000000000000000000000000000000000000000000000000000000000000000000000000000000
310
000000000000000000000000000000000000000000000000000000000000000000000000000000DC002800000000000000F500F50000000000F5F5F5F5F5F5000000000000000000000000DC00000000000000F5F5BEBEBEF5F5F5F5F5F5F5F5F5F5F5F5F5F5F5F5F5F5F5F50000F5F50000F50000000000F52800DC00DCDC
310
00DC00DC00DCDCF5F5F5F52800DC0000000000000000000000000000000000000000000000000000000000000000000000000000000000000000000000000000000000000000000000000000000000000000000000000000000000000000000000000000000000000000000000000000000000000000000000000000000000
310
0000000000000000000000000000000000000000000000000000000000000000000000000000000000DC002800000000000000F500F50000000000F5F5F5F5F5F5000000000000000000000000DC000000000000F5000000BE00F5F500F500F5F5F5F5F5F5F5F5F5F5F5F5F5F5F5F5F5F5F500F5F50000000000F52800DC00
310
DCDC00DC00DC00DCDCF528F5F52800DC000000000000000000000000000000000000000000000000000000000000000000000000000000000000000000000000000000000000000000000000000000000000000000000000000000000000000000000000000000000000000000000000000000000000000000000000000000
310
00000000000000000000000000000000000000000000000000000000000000000000000000000000000000DC002800000000000000F500F50000000000F5F5F5F5F5F5000000000000000000000000DCF500F5F5F5F5000000000000F5F5F5F5F5F5F50000000000000000000000000000F5F5F5F5F5F50000000000F52800
310
DC00DCDC00DC00DC00DCDCF528F5F52800DC00000000000000000000000000000000000000000000000000000000000000000000000000000000000000000000000000000000000000000000000000000000000000000000000000000000000000000000000000000000000000000000000000000000000000000000000000
310
000000000000000000000000000000000000000000000000000000000000000000000000000000000000000000DC002800000000000000F500F50000000000F5F5F5F5F5F5000000000000000000000000F5F5F500000000000000000000F5F5F5F5F5F5F5000000000000000000000000000000F5F50000000000000000F5
310
28BEBEBEBEBEBEBEBEBEBEBEBEF528BEBEBE00DC0000000000000000000000000000000000000000000000000000000000000000000000000000000000000000000000000000000000000000000000000000000000000000000000000000000000000000000000000000000000000000000000000000000000000000000000
310
0000000000000000000000000000000000000000000000000000000000000000000000000000000000000000000000DC002800000000000000F500F50000000000F5F5F5F5F5F5000000000000000000000000DC000000000000000000000000F5F5F5F5F5F5F5000000000000000000000000000000F50000000000000000
310
00F52800DC00DCDC00DC00DC00DCDCF528F5002800DC000000000000000000000000000000000000000000000000000000000000000000000000000000000000000000000000000000000000000000000000000000000000000000000000000000000000000000000000000000000000000000000000000000000000000000
310
00000000000000000000000000000000000000000000000000000000000000000000000000000000000000000000000000DC002800000000000000F500F50000000000F5F5F5F5F5F5DCDCDCDCDCDCDCDCDCDCDCDCDCDCDCDCDCDCDCDCDCDCDCDCDCDCF5F5F5F5F5F500000000000000000000000000000000000000000000
310
000000F52800DC00DCDC00DC00DC00DCDCF528F5F52800DC00000000000000000000000000000000000000000000000000000000000000000000000000000000000000000000000000000000000000000000000000000000000000000000000000000000000000000000000000000000000000000000000000000000000000
310
000000000000000000000000000000000000000000000000000000000000000000000000000000000000000000000000000000DC002800000000000000F500F50000000000F5F5F5F5F5F5DCDCDCDCDCDCDCDCDCDCDCDCDCDCDCDCDCDCDCDCDCDCDCDCDCDCF5F500F5F5F50000000000000000000000000000000000000000
310
0000000000F52800DC00DCDC00DC00DC00DCDCF528F5F52800DC0000000000000000000000000000000000000000000000000000000000000000000000000000000000000000000000000000000000000000000000000000000000000000000000000000000000000000000000000000000000000000000000000000000000
310
0000000000000000000000000000000000000000000000000000000000000000000000000000000000000000000000000000000000DC002800000000000000F500F50000000000F5F5F5F5F500000000000000000000000000DC00000000000000000000000000F5F5F5F5F5F5000000000000000000000000000000000000
310
00000000000000F528BEBEBEBEBEBEBEBEBEBEBEBEF528BEBEBE00DC000000000000000000000000000000000000000000000000000000000000000000000000000000000000000000000000000000000000000000000000000000000000000000000000000000000000000000000000000000000000000000000000000000
310
00000000000000000000000000000000000000000000000000000000000000000000000000000000000000000000000000000000000000DC002800000000000000F500F50000000000F5F5F5F5F500000000000000000000000000DC00000000000000000000000000F5F5F5F5F5F500000000000000000000000000000000
310
000000000000000000F52800DC00DCDC00DC00DC00DCDCF528F5F52800DC00000000000000000000000000000000000000000000000000000000000000000000000000000000000000000000000000000000000000000000000000000000000000000000000000000000000000000000000000000000000000000000000000
310
000000000000000000000000000000000000000000000000000000000000000000000000000000000000000000000000000000000000000000DC002800000000000000F500F50000000000F5F5F5F5F500000000000000000000000000DC00000000000000000000000000F5F5F5F5F5F50000000000000000000000000000
310
0000000000000000000000F52800DC00DCDC00DC00DC00DCDCF528F5F52800DC0000000000000000000000000000000000000000000000000000000000000000000000000000000000000000000000000000000000000000000000000000000000000000000000000000000000000000000000000000000000000000000000
310
0000000000000000000000000000000000000000000000000000000000000000000000000000000000000000000000000000000000000000000000DC002800000000000000F500F50000000000F5F5F5F5F5DCDCDCDCDCDCDCDCDCDCDCDCDCDCDCDCDCDCDCDCDCDCDCDCDCDCDCF5F5F5F5F5F5000000000000000000000000
310
000000000000000000000000000028282828282828282828282828F52828282800DC000000000000000000000000000000000000000000000000000000000000000000000000000000000000000000000000000000000000000000000000000000000000000000000000000000000000000000000000000000000000000000
310
00000000000000000000000000000000000000000000000000000000000000000000000000000000000000000000000000000000000000000000000000DC002800000000000000F500F50000000000F5F5F5F5F500000000000000000000000000DC0000000000000000000000000028F5F5F5F5F500000000000000000000
310
00000000000000000000000000000000280000000028F5DCF5DCF5DC28000000002800DC00000000000000000000000000000000000000000000000000000000000000000000000000000000000000000000000000000000000000000000000000000000000000000000000000000000000000000000000000000000000000
310
000000000000000000000000000000000000000000000000000000000000000000000000000000000000000000000000000000000000000000000000000000DC002800000000000000F500F50000000000F5F5F5F5F500000000000000000000BEBEBEDC0000000000000000000000000000F5F500F5F50000000000000000
310
00000000000000000000000000000000000028F5F5000028F5DCF5DCF5DC28282828282800DC0000000000000000000000000000000000000000000000000000000000000000000000000000000000000000000000000000000000000000000000000000000000000000000000000000000000000000000000000000000000
310
0000000000000000000000000000000000000000000000000000000000000000000000000000000000000000000000000000000000000000000000000000000000DC002800000000000000F500F50000000000F5F5F5F50000000000000000000000BEBEBEDC0000000000000000000000000000F5F5F5F5F5000000000000
310
000000000000000000000000000000000000000028F5F5BEBE28F5DC00DCF5DC28282828282800DC000000000000000000000000000000000000000000000000000000000000000000000000000000000000000000000000000000000000000000000000000000000000000000000000000000000000000000000000000000
310
00000000000000000000000000000000000000000000000000000000000000000000000000000000000000000000000000000000000000000000000000000000000000DC002800000000000000F500F50000000000F5F5F5F50000000000000000000000BEBEBEDC0000000000000000000000000000F5F5F5F5F500000000
310
0000000000000000000000000000000000000000000028F5F5BEBE28BEBEBEF5F5F5F5282828282800DC00000000000000000000000000000000000000000000000000000000000000000000000000000000000000000000000000000000000000000000000000000000000000000000000000000000000000000000000000
310
000000000000000000000000000000000000000000000000000000000000000000000000000000000000000000000000000000000000000000000000000000000000000000DC002800000000000000F500F50000000000F5F5F5F50000000000000000000000BEBEBEDC0000000000000000000000000000F5F5F5F5F50000
310
00000000000000000000000000000000000000000000000028F5F5BEBE28F5DCF5F5F5F5F5282800282800DC0000000000000000000000000000000000000000000000000000000000000000000000000000000000000000000000000000000000000000000000000000000000000000000000000000000000000000000000
310
0000000000000000000000000000000000000000000000000000000000000000000000000000000000000000000000000000000000000000000000000000000000000000000000DC002800000000000000F500F50000000000F5F5F5F50000000000000000000000BEBEBEDC0000000000000000000000000000F5F5F5F5F5
310
00000000000000000000000000000000000000000000BEBE000028F5F5000028F5DCF5F5F5F5F5282828282800DC000000000000000000000000000000000000000000000000000000000000000000000000000000000000000000000000000000000000000000000000000000000000000000000000000000000000000000
310
00000000000000000000000000000000000000000000000000000000000000000000000000000000000000000000000000000000000000000000000000000000000000000000000000DC002800000000000000F500F50000000000F5F5F5F5000000000000000000000000BE00DC0000000000000000000000000000F5F5F5
310
F5F500000000000000000000000000000000BEBE00000000BEBE000028000000002800DCF5F5F5F5F5282828282800DC00000000000000000000000000000000000000000000000000000000000000000000000000000000000000000000000000000000000000000000000000000000000000000000000000000000000000
310
000000000000000000000000000000000000000000000000000000000000000000000000000000000000000000000000000000000000000000000000000000000000000000000000000000DC002800000000000000F500F5F500000000F5F5F5F5F500000000000000000000000000DC0000000000000000000000000000F5
310
F5F5F5F500000000000000000000000000000000BEBEBEBE0000BEBE000028BEBEBEBE28BEBEBEBEBEBE28282828282800DC0000000000000000000000000000000000000000000000000000000000000000000000000000000000000000000000000000000000000000000000000000000000000000000000000000000000
310
0000000000000000000000000000000000000000000000000000000000000000000000000000000000000000000000000000000000000000000000000000000000000000000000000000000000DC002800000000000000F5F5F5F5F5F5F5F5F5F5F5F5F528282828282828282828282828DC28282828282828282828282828
310
28F5F5F5F5F500000000000000000000000000000000BEBEBEBE0000BEBE000028F5F5F5F52800DC00DC00DC28282828282800DC000000000000000000000000000000000000000000000000000000000000000000000000000000000000000000000000000000000000000000000000000000000000000000000000000000
310
00000000000000000000000000000000000000000000000000000000000000000000000000000000000000000000000000000000000000000000000000000000000000000000000000000000000000DC0028000000000000000000000000000000F5000000F500000000000000000000000000F50000000000000000000000
310
000000F5000000F500000000000000000000000000000000BEBEBEBE0000BEBE000028F5F5F5F528F5DCF5DC00F5F5282800282800DC00000000000000000000000000000000000000000000000000000000000000000000000000000000000000000000000000000000000000000000000000000000000000000000000000
310
000000000000000000000000000000000000000000000000000000000000000000000000000000000000000000000000000000000000000000000000000000000000000000000000000000000000000000DC002800000000000000000000000000F500F5F50000F5F500000000000000000000000000000000000000000000
310
000000F500F5000000F500000000000000000000000000000000BEBEBEBE0000BEBE000028F5F5F5F528F5DCF5F5F5F5F5282828282800DC0000000000000000000000000000000000000000000000000000000000000000000000000000000000000000000000000000000000000000000000000000000000000000000000
310
0000000000000000000000000000000000000000000000000000000000000000000000000000000000000000000000000000000000000000000000000000000000000000000000000000000000000000000000DC0028000000000000000000F5BEBEBEF5F5F5F5F5F5F5F5F5F5F5F5F5F5F5F5F5F5F5BEBEBEBEF5F5F5F5F5
310
F5F5F5F5F5F5F5F5000000F500000000000000000000000000000000BEBEBEBE0000BEBE000028F5F5F5F528F5DCF5DCF5F5F5280000282800DC000000000000000000000000000000000000000000000000000000000000000000000000000000000000000000000000000000000000000000000000000000000000000000
310
00000000000000000000000000000000000000000000000000000000000000000000000000000000000000000000000000000000000000000000000000000000000000000000000000000000000000000000000000DC002800000000000000000000BEBEBE0000F500000000000000000000000000000000BEBEBEBE000000
310
00000000000000000000000000F500000000000000000000000000000000BEBEBEBE0000BEBEBE0028F5F5F5F52800DC00DC00DC28282828282800DC00000000000000000000000000000000000000000000000000000000000000000000000000000000000000000000000000000000000000000000000000000000000000
310
000000000000000000000000000000000000000000000000000000000000000000000000000000000000000000000000000000000000000000000000000000000000000000000000000000000000000000000000000000DC0028000000000000000000000000000000F5F5F5F5F5F5F5F5F5F5F5F5F5F5F5F5F5BEBEBEBEF5
310
F5F5F5F5F5F5F5F5F5F5F5F5F5F5F5F500000000000000000000000000000000BEBEBEBE000000000000280000F5F52800DC00DC00DC28002828002800DC0000000000000000000000000000000000000000000000000000000000000000000000000000000000000000000000000000000000000000000000000000000000
310
0000000000000000000000000000000000000000000000000000000000000000000000000000000000000000000000000000000000000000000000000000000000000000000000000000000000000000000000000000000000DC00280000000000000000000000000000000000000000000000000000000000000000BEBEBE
310
BE000000000000000000000000000000000000000000000000000000000000000000000000000000BEBE000028282828282828282828282828282828282800DC000000000000000000000000000000000000000000000000000000000000000000000000000000000000000000000000000000000000000000000000000000
310
00000000000000000000000000000000000000000000000000000000000000000000000000000000000000000000000000000000000000000000000000000000000000000000000000000000000000000000000000000000000000DC0028000000000000000000000000000000000000000000000000000000000000000000
310
000000000000000000000000000000000000000000000000000000000000000000000000BEBEBEBEBEBE00BE000028F5F5BEBE28F5DC00DCF5DC28F5F50000DC00DC00000000000000000000000000000000000000000000000000000000000000000000000000000000000000000000000000000000000000000000000000
310
000000000000000000000000000000000000000000000000000000000000000000000000000000000000000000000000000000000000000000000000000000000000000000000000000000000000000000000000000000000000000000DC002800000000000000000000000000000000000000000000000000000000000000
310
0000000000000000000000000000000000000000000000000000000000000000000000000000BEBEBEBEBEBEBEBE000028F5F5BEBE28F5DC00DCF5DC28F5F50000DC00DC0000000000000000000000000000000000000000000000000000000000000000000000000000000000000000000000000000000000000000000000
310
0000000000000000000000000000000000000000000000000000000000000000000000000000000000000000000000000000000000000000000000000000000000000000000000000000000000000000000000000000000000000000000000DC00280000000000000000000000000000000000000000000000000000000000
310
00000000000000000000000000000000000000000000000000000000000000000000000000000000BEBEBEBEBEBE00BE000028F5F5BEBE2800DC00DCF5DC28F5F50000DC00DC000000000000000000000000000000000000000000000000000000000000000000000000000000000000000000000000000000000000000000
310
00000000000000000000000000000000000000000000000000000000000000000000000000000000000000000000000000000000000000000000000000000000000000000000000000000000000000000000000000000000000000000000000000DC0028000000000000000000000000000000000000000000000000000000
310
000000000000000000000000000000000000000000000000000000000000000000000000000000000000BEBEBEBEBEBEBEBE000028F5F5BEBE28F5DC00DCF5DC28F5F50000DC00DC00000000000000000000000000000000000000000000000000000000000000000000000000000000000000000000000000000000000000
310
000000000000000000000000000000000000000000000000000000000000000000000000000000000000000000000000000000000000000000000000000000000000000000000000000000000000000000000000000000000000000000000000000000DC002800000000000000000000000000000000000000000000000000
310
0000000000000000000000000000000000000000000000000000000000000000000000000000000000000000BE00BEBEBEBEBEBE000028F5F5BEBE28F5DC00DCF5DC28F5F50000DC00DC0000000000000000000000000000000000000000000000000000000000000000000000000000000000000000000000000000000000
310
0000000000000000000000000000000000000000000000000000000000000000000000000000000000000000000000000000000000000000000000000000000000000000000000000000000000000000000000000000000000000000000000000000000000DC00280000000000000000000000000000000000000000000000
310
00000000000000000000000000000000000000000000000000000000000000000000000000000000000000000000BEBEBEBEBEBE00BE000028F5F5BEBE28F5DC00DCF5DC28F5F50000DC00DC000000000000000000000000000000000000000000000000000000000000000000000000000000000000000000000000000000
310
00000000000000000000000000000000000000000000000000000000000000000000000000000000000000000000000000000000000000000000000000000000000000000000000000000000000000000000000000000000000000000000000000000000000000DC0028000000000000000000000000000000000000000000
310
000000000000000000000000000000000000000000000000000000000000000000000000000000000000000000000000BEBEBEBEBEBEBEBE0000280000BEBE28F5DC00DCF5DC28F5F50000DC00DC00000000000000000000000000000000000000000000000000000000000000000000000000000000000000000000000000
310
000000000000000000000000000000000000000000000000000000000000000000000000000000000000000000000000000000000000000000000000000000000000000000000000000000000000000000000000000000000000000000000000000000000000000000DC002800000000000000000000000000000000000000
310
00000000000000000000000000000000000000000000000000000000000000000000000000000000000000000000000000000000BEBEBEBEBEBE0000280000BEBE28F5DC00DCF5DC2800000000DC00DC0000000000000000000000000000000000000000000000000000000000000000000000000000000000000000000000
310
0000000000000000000000000000000000000000000000000000000000000000000000000000000000000000000000000000000000000000000000000000000000000000000000000000000000000000000000000000000000000000000000000000000000000000000000DC00280000000000000000000000000000000000
310
00000000000000000000000000000000000000000000000000000000000000000000000000000000000000000000000000000000BEBEBEBEBEBEBEBE0000280000BEBE28F5DC00DCF5DC2800000000DC00DC000000000000000000000000000000000000000000000000000000000000000000000000000000000000000000
310
00000000000000000000000000000000000000000000000000000000000000000000000000000000000000000000000000000000000000000000000000000000000000000000000000000000000000000000000000000000000000000000000000000000000000000000000000DC0028000000000000000000000000000000
310
000000000000000000000000000000000000000000000000000000000000000000000000000000000000000000000000000000000000BEBEBEBEBEBEBEBE0000280000BEBE28F5DC00DCF5DC2800000000DC00DC00000000000000000000000000000000000000000000000000000000000000000000000000000000000000
310
000000000000000000000000000000000000000000000000000000000000000000000000000000000000000000000000000000000000000000000000000000000000000000000000000000000000000000000000000000000000000000000000000000000000000000000000000000DC002800000000000000000000000000
310
0000000000000000000000000000000000000000000000000000000000000000000000000000000000000000000000000000000000000000BEBEBEBEBEBEBEBE0000280000BEBE2800DC00DCF5DC2800000000DC00DC0000000000000000000000000000000000000000000000000000000000000000000000000000000000
310
0000000000000000000000000000000000000000000000000000000000000000000000000000000000000000000000000000000000000000000000000000000000000000000000000000000000000000000000000000000000000000000000000000000000000000000000000000000000DC00280000000000000000000000
310
00000000000000000000000000000000000000000000000000000000000000000000000000000000000000000000000000000000000000000000BEBEBEBEBEBEBEBE0000280000BEBE2800DC00DCF5DC2800000000DC00DC000000000000000000000000000000000000000000000000000000000000000000000000000000
310
00000000000000000000000000000000000000000000000000000000000000000000000000000000000000000000000000000000000000000000000000000000000000000000000000000000000000000000000000000000000000000000000000000000000000000000000000000000000000DC0028000000000000000000
310
000000000000000000000000000000000000000000000000000000000000000000000000000000000000000000000000000000000000000000000000BEBEBEBEBEBE00000000280000BEBE2800DC00DCF5DC2800000000DC00DC00000000000000000000000000000000000000000000000000000000000000000000000000
310
000000000000000000000000000000000000000000000000000000000000000000000000000000000000000000000000000000000000000000000000000000000000000000000000000000000000000000000000000000000000000000000000000000000000000000000000000000000000000000DC002800000000000000
310
0000000000000000000000000000000000000000000000000000000000000000000000000000000000000000000000000000000000000000000000000000BEBEBEBEBEBE00000000280000BEBE2800DC00DC00DC2800000000DC00DC0000000000000000000000000000000000000000000000000000000000000000000000
310
0000000000000000000000000000000000000000000000000000000000000000000000000000000000000000000000000000000000000000000000000000000000000000000000000000000000000000000000000000000000000000000000000000000000000000000000000000000000000000000000DC00280000000000
310
0000000000000000000000000000000000000000000000000000000000000000000000000000000000000000000000000000000000000000000000000000000000BEBEBEBEBE00000000280000BEBE2800DC00DC00DC2800000000DC00DC000000000000000000000000000000000000000000000000000000000000000000
310
00000000000000000000000000000000000000000000000000000000000000000000000000000000000000000000000000000000000000000000000000000000000000000000000000000000000000000000000000000000000000000000000000000000000000000000000000000000000000000000000000DC0028000000
310
000000000000000000000000000000000000000000000000000000000000000000000000000000000000000000000000000000000000000000000000000000000000BEBEBEBEBEBE00000000280000BEBE2800DC00DC00DC2800000000DC00DC00000000000000000000000000000000000000000000000000000000000000
310
000000000000000000000000000000000000000000000000000000000000000000000000000000000000000000000000000000000000000000000000000000000000000000000000000000000000000000000000000000000000000000000000000000000000000000000000000000000000000000000000000000DC002800
310
0000000000000000000000000000000000000000000000000000000000000000000000000000000000000000000000000000000000000000000000000000000000000000BEBEBEBE000000000000280000BEBE2800DC00DC00DC2800000000DC00DC0000000000000000000000000000000000000000000000000000000000
310
0000000000000000000000000000000000000000000000000000000000000000000000000000000000000000000000000000000000000000000000000000000000000000000000000000000000000000000000000000000000000000000000000000000000000000000000000000000000000000000000000000000000DC00
310
28000000000000000000000000000000000000000000000000000000000000000000000000000000000000000000000000000000000000000000000000000000000000000000BEBEBEBE000000000000280000BEBE280000000000002800000000DC00DC000000000000000000000000000000000000000000000000000000
310
00000000000000000000000000000000000000000000000000000000000000000000000000000000000000000000000000000000000000000000000000000000000000000000000000000000000000000000000000000000000000000000000000000000000000000000000000000000000000000000000000000000000000
310
DC0028000000000000000000000000000000000000000000000000000000000000000000000000000000000000000000000000000000000000000000000000000000000000000000BEBEBEBE0000000000002828282828282828282828282800000000DC00DC00000000000000000000000000000000000000000000000000
310
00000000000000000000000000000000000000000000000000000000000000000000000000000000000000000000000000000000000000000000000000000000000000000000000000000000000000000000000000000000000000000000000000000000000000000000000000000000000000000000000000000000000000
310
0000DC0028000000000000000000000000000000000000000000000000000000000000000000000000000000000000000000000000000000000000000000000000000000000000000000BEBEBEBE00000000000028F5F5BEBE28F5F500BEF5002800000000DC00DC0000000000000000000000000000000000000000000000
310
00000000000000000000000000000000000000000000000000000000000000000000000000000000000000000000000000000000000000000000000000000000000000000000000000000000000000000000000000000000000000000000000000000000000000000000000000000000000000000000000000000000000000
310
00000000DC0028000000000000000000000000000000000000000000000000000000000000000000000000000000000000000000000000000000000000000000000000000000000000000000BEBEBEBE00000000000028F5F5BEBE28F5F5BEBEF5002800000000DC00DC000000000000000000000000000000000000000000
310
00000000000000000000000000000000000000000000000000000000000000000000000000000000000000000000000000000000000000000000000000000000000000000000000000000000000000000000000000000000000000000000000000000000000000000000000000000000000000000000000000000000000000
310
000000000000DC0028000000000000000000000000000000000000000000000000000000000000000000000000000000000000000000000000000000000000000000000000000000000000000000BEBE000000000000000028F5F5BEBE28F5F5BEBEF5002800000000DC00DC00000000000000000000000000000000000000
310
00000000000000000000000000000000000000000000000000000000000000000000000000000000000000000000000000000000000000000000000000000000000000000000000000000000000000000000000000000000000000000000000000000000000000000000000000000000000000000000000000000000000000
310
0000000000000000DC0028000000000000000000000000000000000000000000000000000000000000000000000000000000000000000000000000000000000000000000000000000000000000000000BEBE000000000000000028F5F5BEBE28F5F5BEBEF5002800000000DC00DC0000000000000000000000000000000000
310
00000000000000000000000000000000000000000000000000000000000000000000000000000000000000000000000000000000000000000000000000000000000000000000000000000000000000000000000000000000000000000000000000000000000000000000000000000000000000000000000000000000000000
310
00000000000000000000DC0028000000000000000000000000000000000000000000000000000000000000000000000000000000000000000000000000000000000000000000000000000000000000000000BEBE000000000000000028F5F5BEBE28F5F5BEBEF5002800000000DC00DC000000000000000000000000000000
310
00000000000000000000000000000000000000000000000000000000000000000000000000000000000000000000000000000000000000000000000000000000000000000000000000000000000000000000000000000000000000000000000000000000000000000000000000000000000000000000000000000000000000
310
000000000000000000000000DC0028000000000000000000000000000000000000000000000000000000000000000000000000000000000000000000000000000000000000000000000000000000000000000000BEBE000000000000000028F5F5BEBE28F5F5BEBEF5002800000000DC00DC00000000000000000000000000
310
00000000000000000000000000000000000000000000000000000000000000000000000000000000000000000000000000000000000000000000000000000000000000000000000000000000000000000000000000000000000000000000000000000000000000000000000000000000000000000000000000000000000000
310
0000000000000000000000000000DC0028000000000000000000000000000000000000000000000000000000000000000000000000000000000000000000000000000000000000000000000000000000000000000000BEBE000000000000000028F5F5BEBE2800BEBEBEF5002800000000DC00DC0000000000000000000000
310
00000000000000000000000000000000000000000000000000000000000000000000000000000000000000000000000000000000000000000000000000000000000000000000000000000000000000000000000000000000000000000000000000000000000000000000000000000000000000000000000000000000000000
310
00000000000000000000000000000000DC00280000000000000000000000000000000000000000000000000000000000000000000000000000000000000000000000000000000000000000000000000000000000000000000000000000000000000028F5F5BEBE2800BEBEBEF5002800000000DC00DC000000000000000000
310
00000000000000000000000000000000000000000000000000000000000000000000000000000000000000000000000000000000000000000000000000000000000000000000000000000000000000000000000000000000000000000000000000000000000000000000000000000000000000000000000000000000000000
310
000000000000000000000000000000000000DC002800000000000000000000000000000000000000000000000000000000000000000000000000000000000000000000000000000000000000000000000000000000000000000000000000000000000000280000BEBE2800BEBEBE00002800000000DC00DC00000000000000
310
00000000000000000000000000000000000000000000000000000000000000000000000000000000000000000000000000000000000000000000000000000000000000000000000000000000000000000000000000000000000000000000000000000000000000000000000000000000000000000000000000000000000000
310
0000000000000000000000000000000000000000DC002800000000000000000000000000000000000000000000000000000000000000000000000000000000000000000000000000000000000000000000000000000000000000000000000000000000000000280000BEBE2800BEBEBE00002800000000DC00DC0000000000
310
00000000000000000000000000000000000000000000000000000000000000000000000000000000000000000000000000000000000000000000000000000000000000000000000000000000000000000000000000000000000000000000000000000000000000000000000000000000000000000000000000000000000000
310
00000000000000000000000000000000000000000000DC00280000000000000000000000000000000000000000000000000000000000000000000000000000000000000000000000000000000000000000000000000000000000000000000000000000000000000028000000BE28000000BE00002800000000DC00DC000000
310
00000000000000000000000000000000000000000000000000000000000000000000000000000000000000000000000000000000000000000000000000000000000000000000000000000000000000000000000000000000000000000000000000000000000000000000000000000000000000000000000000000000000000
310
000000000000000000000000000000000000000000000000DC002800000000000000000000000000000000000000000000000000000000000000000000000000000000000000000000000000000000000000000000000000000000000000000000000000000000000000280000000028000000BE00002800000000DC00DC00
310
00000000000000000000000000000000000000000000000000000000000000000000000000000000000000000000000000000000000000000000000000000000000000000000000000000000000000000000000000000000000000000000000000000000000000000000000000000000000000000000000000000000000000
310
0000000000000000000000000000000000000000000000000000DC0028282828282828282828282828282828282828282828282828282828F52828F52828F5F528F5F52828F5F5F528F5F5F5F52828F528F528F528282828F528F5F5F5F528F528F5F52828F5F5F5F528F5F52828F5F5F52828F5F5BEF52828F5F5F528F500
310
DC000000000000000000000000000000000000000000000000000000000000000000000000000000000000000000000000000000000000000000000000000000000000000000000000000000000000000000000000000000000000000000000000000000000000000000000000000000000000000000000000000000000000
310
00000000000000000000000000000000000000000000000000000000DC000000000000000000000000000000000000000000000000000000F5F5F5F5F5F5F5F5F5F5F5F5F5F5F5F5F5F5F5F5F5F5F5F5F5F5F5F5F5F5F5F5F5F5F5F5F5F5F5F5F5F5F5F5F5F5F5F5F5F5F5F5F5F5F5F5F5F5F5F5F5F5F5F5F5F5F5F5F5F5F5
310
F500DC00000000000000000000000000000000000000000000000000000000000000000000000000000000000000000000000000000000000000000000000000000000000000000000000000000000000000000000000000000000000000000000000000000000000000000000000000000000000000000000000000000000
310
000000000000000000000000000000000000000000000000000000000000DCDCDCDCDCDCDCDCDCDCDCDCDCDCDCDCDCDCDCDCDCDCDCDCDCDCDCDCDCDCDCDCDCDCDCDCDCDCDCDCDCDCDCDCDCDCDCDCDCDCDCDCDCDCDCDCDCDCDCDCDCDCDCDCDCDCDCDCDCDCDCDCDCDCDCDCDCDCDCDCDCDCDCDCDCDCDCDCDCDCDCDCDCDCDCDCDC
310
DCDCDCDCDC0000000000000000000000000000000000000000000000000000000000000000000000000000000000000000000000000000000000000000000000000000000000000000000000000000000000
  0
XRECORD
  5
1392
102
{ACAD_REACTORS
330
D57
102
}
330
D57
100
AcDbXrecord
280
     1
102
MATERIAL
148
0.0
149
0.0
149
0.0
 93
        0
 94
      127
282
     0
 72
     0
 77
     0
171
     0
175
     0
179
     0
273
     0
  0
XRECORD
  5
D59
102
{ACAD_REACTORS
330
D57
102
}
330
D57
100
AcDbXrecord
280
     1
270
     1
271
     1
  0
XRECORD
  5
D58
102
{ACAD_REACTORS
330
D57
102
}
330
D57
100
AcDbXrecord
280
     1
270
     1
271
     1
  0
XRECORD
  5
D5C
102
{ACAD_REACTORS
330
D57
102
}
330
D57
100
AcDbXrecord
280
     1
270
     1
271
     1
  0
XRECORD
  5
D5B
102
{ACAD_REACTORS
330
D57
102
}
330
D57
100
AcDbXrecord
280
     1
270
     1
271
     1
  0
XRECORD
  5
D5D
102
{ACAD_REACTORS
330
D57
102
}
330
D57
100
AcDbXrecord
280
     1
270
     1
271
     1
  0
XRECORD
  5
D5A
102
{ACAD_REACTORS
330
D57
102
}
330
D57
100
AcDbXrecord
280
     1
270
     1
271
     1
  0
XRECORD
  5
1391
102
{ACAD_REACTORS
330
D4F
102
}
330
D4F
100
AcDbXrecord
280
     1
102
MATERIAL
148
0.0
149
0.0
149
0.0
 93
        0
 94
      127
282
     0
 72
     0
 77
     0
171
     0
175
     0
179
     0
273
     0
  0
XRECORD
  5
D51
102
{ACAD_REACTORS
330
D4F
102
}
330
D4F
100
AcDbXrecord
280
     1
270
     1
271
     1
  0
XRECORD
  5
D50
102
{ACAD_REACTORS
330
D4F
102
}
330
D4F
100
AcDbXrecord
280
     1
270
     1
271
     1
  0
XRECORD
  5
D54
102
{ACAD_REACTORS
330
D4F
102
}
330
D4F
100
AcDbXrecord
280
     1
270
     1
271
     1
  0
XRECORD
  5
D53
102
{ACAD_REACTORS
330
D4F
102
}
330
D4F
100
AcDbXrecord
280
     1
270
     1
271
     1
  0
XRECORD
  5
D55
102
{ACAD_REACTORS
330
D4F
102
}
330
D4F
100
AcDbXrecord
280
     1
270
     1
271
     1
  0
XRECORD
  5
D52
102
{ACAD_REACTORS
330
D4F
102
}
330
D4F
100
AcDbXrecord
280
     1
270
     1
271
     1
  0
XRECORD
  5
1393
102
{ACAD_REACTORS
330
D5F
102
}
330
D5F
100
AcDbXrecord
280
     1
102
MATERIAL
148
0.0
149
0.0
149
0.0
 93
        0
 94
      127
282
     0
 72
     0
 77
     0
171
     0
175
     0
179
     0
273
     0
  0
XRECORD
  5
D61
102
{ACAD_REACTORS
330
D5F
102
}
330
D5F
100
AcDbXrecord
280
     1
270
     1
271
     1
  0
XRECORD
  5
D60
102
{ACAD_REACTORS
330
D5F
102
}
330
D5F
100
AcDbXrecord
280
     1
270
     1
271
     1
  0
XRECORD
  5
D64
102
{ACAD_REACTORS
330
D5F
102
}
330
D5F
100
AcDbXrecord
280
     1
270
     1
271
     1
  0
XRECORD
  5
D63
102
{ACAD_REACTORS
330
D5F
102
}
330
D5F
100
AcDbXrecord
280
     1
270
     1
271
     1
  0
XRECORD
  5
D65
102
{ACAD_REACTORS
330
D5F
102
}
330
D5F
100
AcDbXrecord
280
     1
270
     1
271
     1
  0
XRECORD
  5
D62
102
{ACAD_REACTORS
330
D5F
102
}
330
D5F
100
AcDbXrecord
280
     1
270
     1
271
     1
  0
XRECORD
  5
13C6
102
{ACAD_REACTORS
330
13C5
102
}
330
13C5
100
AcDbXrecord
280
     1
102
ACAD_ROUNDTRIP_2012_MLEADER_STYLE
298
     1
  0
XRECORD
  5
1112
102
{ACAD_REACTORS
330
EF4
102
}
330
EF4
100
AcDbXrecord
280
     1
102
DISPLAYNAME
  1
Imperial24
102
FLAGS
 90
        0
  0
CELLSTYLEMAP
  5
138F
102
{ACAD_REACTORS
330
1151
102
}
330
1151
100
AcDbCellStyleMap
 90
        3
300
CELLSTYLE
  1
TABLEFORMAT_BEGIN
 90
        5
170
     1
 91
        0
 92
    32768
 62
   257
 93
        1
300
CONTENTFORMAT
  1
CONTENTFORMAT_BEGIN
 90
        0
 91
        0
 92
      512
 93
        0
300

 40
0.0
140
1.0
 94
        5
 62
     0
340
11
144
0.25
309
CONTENTFORMAT_END
171
     0
 94
        0
309
TABLEFORMAT_END
  1
CELLSTYLE_BEGIN
 90
        1
 91
        1
300
_TITLE
309
CELLSTYLE_END
300
CELLSTYLE
  1
TABLEFORMAT_BEGIN
 90
        5
170
     1
 91
        0
 92
        0
 62
   257
 93
        1
300
CONTENTFORMAT
  1
CONTENTFORMAT_BEGIN
 90
        0
 91
        0
 92
      512
 93
        0
300

 40
0.0
140
1.0
 94
        5
 62
     0
340
11
144
0.18
309
CONTENTFORMAT_END
171
     0
 94
        0
309
TABLEFORMAT_END
  1
CELLSTYLE_BEGIN
 90
        2
 91
        1
300
_HEADER
309
CELLSTYLE_END
300
CELLSTYLE
  1
TABLEFORMAT_BEGIN
 90
        5
170
     1
 91
        0
 92
        0
 62
   257
 93
        1
300
CONTENTFORMAT
  1
CONTENTFORMAT_BEGIN
 90
        0
 91
        0
 92
      512
 93
        0
300

 40
0.0
140
1.0
 94
        2
 62
     0
340
11
144
0.18
309
CONTENTFORMAT_END
171
     0
 94
        0
309
TABLEFORMAT_END
  1
CELLSTYLE_BEGIN
 90
        3
 91
        2
300
_DATA
309
CELLSTYLE_END
  0
XRECORD
  5
13C4
102
{ACAD_REACTORS
330
1151
102
}
330
1151
100
AcDbXrecord
280
     1
102
ACAD_ROUNDTRIP_PRE2007_TABLESTYLE
 90
      512
 91
        0
  1

 92
      512
 93
        0
  2

 94
      512
 95
        0
  3

  0
XRECORD
  5
139F
102
{ACAD_REACTORS
330
139E
102
}
330
139E
100
AcDbXrecord
280
     1
102
RTVSPost2010Prop28
280
     1
102
RTVSPost2010PropOp28
 70
     1
102
RTVSPost2010Prop29
280
     1
102
RTVSPost2010PropOp29
 70
     1
102
RTVSPost2010Prop30
280
     0
102
RTVSPost2010PropOp30
 70
     1
102
RTVSPost2010Prop31
280
     0
102
RTVSPost2010PropOp31
 70
     1
102
RTVSPost2010Prop32
280
     0
102
RTVSPost2010PropOp32
 70
     1
102
RTVSPost2010Prop33
280
     0
102
RTVSPost2010PropOp33
 70
     1
102
RTVSPost2010Prop34
280
     0
102
RTVSPost2010PropOp34
 70
     1
102
RTVSPost2010Prop35
280
     0
102
RTVSPost2010PropOp35
 70
     1
102
RTVSPost2010Prop36
280
     0
102
RTVSPost2010PropOp36
 70
     1
102
RTVSPost2010Prop37
 90
       50
102
RTVSPost2010PropOp37
 70
     1
102
RTVSPost2010Prop38
140
0.0
102
RTVSPost2010PropOp38
 70
     1
102
RTVSPost2010Prop39
140
1.0
102
RTVSPost2010PropOp39
 70
     1
102
RTVSPost2010Prop40
 90
        0
102
RTVSPost2010PropOp40
 70
     1
102
RTVSPost2010Prop41ColorIndex
 90
       18
102
RTVSPost2010Prop41ColorRGB
 90
        0
102
RTVSPost2010PropOp41
 70
     1
102
RTVSPost2010Prop42
 90
       50
102
RTVSPost2010PropOp42
 70
     1
102
RTVSPost2010Prop43
 90
        3
102
RTVSPost2010PropOp43
 70
     1
102
RTVSPost2010Prop44ColorIndex
 90
        5
102
RTVSPost2010Prop44ColorRGB
 90
      255
102
RTVSPost2010PropOp44
 70
     1
102
RTVSPost2010Prop45
280
     0
102
RTVSPost2010PropOp45
 70
     1
102
RTVSPost2010Prop46
 90
       50
102
RTVSPost2010PropOp46
 70
     1
102
RTVSPost2010Prop47
 90
       50
102
RTVSPost2010PropOp47
 70
     1
102
RTVSPost2010Prop48
 90
       50
102
RTVSPost2010PropOp48
 70
     1
102
RTVSPost2010Prop49
280
     0
102
RTVSPost2010PropOp49
 70
     1
102
RTVSPost2010Prop50
 90
       50
102
RTVSPost2010PropOp50
 70
     1
102
RTVSPost2010Prop51ColorIndex
 90
      256
102
RTVSPost2010Prop51ColorRGB
 90
-16777216
102
RTVSPost2010PropOp51
 70
     0
102
RTVSPost2010Prop52
140
1.0
102
RTVSPost2010PropOp52
 70
     0
102
RTVSPost2010Prop53
 90
        2
102
RTVSPost2010PropOp53
 70
     1
102
RTVSPost2010Prop54
  1
strokes_ogs.tif
102
RTVSPost2010PropOp54
 70
     1
102
RTVSPost2010Prop55
280
     0
102
RTVSPost2010PropOp55
 70
     1
102
RTVSPost2010Prop56
140
1.0
102
RTVSPost2010PropOp56
 70
     1
102
RTVSPost2010Prop57
140
1.0
102
RTVSPost2010PropOp57
 70
     1
102
RTVSPropertyOp0
 70
     1
102
RTVSPropertyOp1
 70
     1
102
RTVSPropertyOp2
 70
     1
102
RTVSPropertyOp3
 70
     1
102
RTVSPropertyOp4
 70
     1
102
RTVSPropertyOp5
 70
     1
102
RTVSPropertyOp6
 70
     1
102
RTVSPropertyOp7
 70
     1
102
RTVSPropertyOp8
 70
     1
102
RTVSPropertyOp9
 70
     1
102
RTVSPropertyOp10
 70
     1
102
RTVSPropertyOp11
 70
     1
102
RTVSPropertyOp12
 70
     1
102
RTVSPropertyOp13
 70
     1
102
RTVSPropertyOp14
 70
     1
102
RTVSPropertyOp15
 70
     1
102
RTVSPropertyOp16
 70
     1
102
RTVSPropertyOp17
 70
     1
102
RTVSPropertyOp18
 70
     1
102
RTVSPropertyOp19
 70
     1
102
RTVSPropertyOp20
 70
     1
102
RTVSPropertyOp21
 70
     1
102
RTVSPropertyOp22
 70
     1
102
RTVSPropertyOp23
 70
     1
102
RTVSPropertyOp24
 70
     1
102
RTVSPropertyOp25
 70
     1
102
RTVSPropertyOp26
 70
     1
102
RTVSPropertyOp27
 70
     1
102
RTVSPropertyOp28
 70
     1
102
RTVSPropertyOp29
 70
     1
102
RTVSPropertyOp30
 70
     1
102
RTVSPropertyOp31
 70
     1
102
RTVSPropertyOp32
 70
     1
102
RTVSPropertyOp33
 70
     1
102
RTVSPropertyOp34
 70
     1
102
RTVSPropertyOp35
 70
     1
102
RTVSPropertyOp36
 70
     1
102
RTVSPropertyOp37
 70
     1
102
RTVSPropertyOp38
 70
     1
102
RTVSPropertyOp39
 70
     1
102
RTVSPropertyOp40
 70
     1
102
RTVSPropertyOp41
 70
     1
102
RTVSPropertyOp42
 70
     1
102
RTVSPropertyOp43
 70
     1
102
RTVSPropertyOp44
 70
     1
102
RTVSPropertyOp45
 70
     1
102
RTVSPropertyOp46
 70
     1
102
RTVSPropertyOp47
 70
     1
102
RTVSPropertyOp48
 70
     1
102
RTVSPropertyOp49
 70
     1
102
RTVSPropertyOp50
 70
     1
102
RTVSPropertyOp51
 70
     0
102
RTVSPropertyOp52
 70
     0
102
RTVSPropertyOp53
 70
     1
102
RTVSPropertyOp54
 70
     1
102
RTVSPropertyOp55
 70
     1
102
RTVSPropertyOp56
 70
     1
102
RTVSPropertyOp57
 70
     1
102
RTVSPropertyOp58
 70
     1
102
RTVSPropertyOp59
 70
     1
102
RTVSPropertyOp60
 70
     1
102
RTVSPropertyOp61
 70
     1
102
RTVSPropertyOp62
 70
     1
  0
XRECORD
  5
139D
102
{ACAD_REACTORS
330
139C
102
}
330
139C
100
AcDbXrecord
280
     1
102
RTVSPost2010Prop28
280
     0
102
RTVSPost2010PropOp28
 70
     1
102
RTVSPost2010Prop29
280
     1
102
RTVSPost2010PropOp29
 70
     1
102
RTVSPost2010Prop30
280
     1
102
RTVSPost2010PropOp30
 70
     1
102
RTVSPost2010Prop31
280
     0
102
RTVSPost2010PropOp31
 70
     1
102
RTVSPost2010Prop32
280
     0
102
RTVSPost2010PropOp32
 70
     1
102
RTVSPost2010Prop33
280
     0
102
RTVSPost2010PropOp33
 70
     1
102
RTVSPost2010Prop34
280
     0
102
RTVSPost2010PropOp34
 70
     1
102
RTVSPost2010Prop35
280
     0
102
RTVSPost2010PropOp35
 70
     1
102
RTVSPost2010Prop36
280
     0
102
RTVSPost2010PropOp36
 70
     1
102
RTVSPost2010Prop37
 90
       50
102
RTVSPost2010PropOp37
 70
     1
102
RTVSPost2010Prop38
140
0.0
102
RTVSPost2010PropOp38
 70
     1
102
RTVSPost2010Prop39
140
1.0
102
RTVSPost2010PropOp39
 70
     1
102
RTVSPost2010Prop40
 90
        0
102
RTVSPost2010PropOp40
 70
     1
102
RTVSPost2010Prop41ColorIndex
 90
       18
102
RTVSPost2010Prop41ColorRGB
 90
        0
102
RTVSPost2010PropOp41
 70
     1
102
RTVSPost2010Prop42
 90
       50
102
RTVSPost2010PropOp42
 70
     1
102
RTVSPost2010Prop43
 90
        3
102
RTVSPost2010PropOp43
 70
     1
102
RTVSPost2010Prop44ColorIndex
 90
        5
102
RTVSPost2010Prop44ColorRGB
 90
      255
102
RTVSPost2010PropOp44
 70
     1
102
RTVSPost2010Prop45
280
     0
102
RTVSPost2010PropOp45
 70
     1
102
RTVSPost2010Prop46
 90
       50
102
RTVSPost2010PropOp46
 70
     1
102
RTVSPost2010Prop47
 90
       50
102
RTVSPost2010PropOp47
 70
     1
102
RTVSPost2010Prop48
 90
       50
102
RTVSPost2010PropOp48
 70
     1
102
RTVSPost2010Prop49
280
     0
102
RTVSPost2010PropOp49
 70
     1
102
RTVSPost2010Prop50
 90
       50
102
RTVSPost2010PropOp50
 70
     1
102
RTVSPost2010Prop51ColorIndex
 90
      256
102
RTVSPost2010Prop51ColorRGB
 90
-16777216
102
RTVSPost2010PropOp51
 70
     0
102
RTVSPost2010Prop52
140
1.0
102
RTVSPost2010PropOp52
 70
     0
102
RTVSPost2010Prop53
 90
        2
102
RTVSPost2010PropOp53
 70
     1
102
RTVSPost2010Prop54
  1
strokes_ogs.tif
102
RTVSPost2010PropOp54
 70
     1
102
RTVSPost2010Prop55
280
     0
102
RTVSPost2010PropOp55
 70
     1
102
RTVSPost2010Prop56
140
1.0
102
RTVSPost2010PropOp56
 70
     1
102
RTVSPost2010Prop57
140
1.0
102
RTVSPost2010PropOp57
 70
     1
102
RTVSPropertyOp0
 70
     1
102
RTVSPropertyOp1
 70
     1
102
RTVSPropertyOp2
 70
     1
102
RTVSPropertyOp3
 70
     1
102
RTVSPropertyOp4
 70
     1
102
RTVSPropertyOp5
 70
     1
102
RTVSPropertyOp6
 70
     1
102
RTVSPropertyOp7
 70
     1
102
RTVSPropertyOp8
 70
     1
102
RTVSPropertyOp9
 70
     1
102
RTVSPropertyOp10
 70
     1
102
RTVSPropertyOp11
 70
     1
102
RTVSPropertyOp12
 70
     1
102
RTVSPropertyOp13
 70
     1
102
RTVSPropertyOp14
 70
     1
102
RTVSPropertyOp15
 70
     1
102
RTVSPropertyOp16
 70
     1
102
RTVSPropertyOp17
 70
     1
102
RTVSPropertyOp18
 70
     1
102
RTVSPropertyOp19
 70
     1
102
RTVSPropertyOp20
 70
     1
102
RTVSPropertyOp21
 70
     1
102
RTVSPropertyOp22
 70
     1
102
RTVSPropertyOp23
 70
     1
102
RTVSPropertyOp24
 70
     1
102
RTVSPropertyOp25
 70
     1
102
RTVSPropertyOp26
 70
     1
102
RTVSPropertyOp27
 70
     1
102
RTVSPropertyOp28
 70
     1
102
RTVSPropertyOp29
 70
     1
102
RTVSPropertyOp30
 70
     1
102
RTVSPropertyOp31
 70
     1
102
RTVSPropertyOp32
 70
     1
102
RTVSPropertyOp33
 70
     1
102
RTVSPropertyOp34
 70
     1
102
RTVSPropertyOp35
 70
     1
102
RTVSPropertyOp36
 70
     1
102
RTVSPropertyOp37
 70
     1
102
RTVSPropertyOp38
 70
     1
102
RTVSPropertyOp39
 70
     1
102
RTVSPropertyOp40
 70
     1
102
RTVSPropertyOp41
 70
     1
102
RTVSPropertyOp42
 70
     1
102
RTVSPropertyOp43
 70
     1
102
RTVSPropertyOp44
 70
     1
102
RTVSPropertyOp45
 70
     1
102
RTVSPropertyOp46
 70
     1
102
RTVSPropertyOp47
 70
     1
102
RTVSPropertyOp48
 70
     1
102
RTVSPropertyOp49
 70
     1
102
RTVSPropertyOp50
 70
     1
102
RTVSPropertyOp51
 70
     0
102
RTVSPropertyOp52
 70
     0
102
RTVSPropertyOp53
 70
     1
102
RTVSPropertyOp54
 70
     1
102
RTVSPropertyOp55
 70
     1
102
RTVSPropertyOp56
 70
     1
102
RTVSPropertyOp57
 70
     1
102
RTVSPropertyOp58
 70
     1
102
RTVSPropertyOp59
 70
     1
102
RTVSPropertyOp60
 70
     1
102
RTVSPropertyOp61
 70
     1
102
RTVSPropertyOp62
 70
     1
  0
XRECORD
  5
13AB
102
{ACAD_REACTORS
330
13AA
102
}
330
13AA
100
AcDbXrecord
280
     1
102
RTVSPost2010Prop28
280
     0
102
RTVSPost2010PropOp28
 70
     1
102
RTVSPost2010Prop29
280
     1
102
RTVSPost2010PropOp29
 70
     1
102
RTVSPost2010Prop30
280
     1
102
RTVSPost2010PropOp30
 70
     1
102
RTVSPost2010Prop31
280
     0
102
RTVSPost2010PropOp31
 70
     1
102
RTVSPost2010Prop32
280
     0
102
RTVSPost2010PropOp32
 70
     1
102
RTVSPost2010Prop33
280
     0
102
RTVSPost2010PropOp33
 70
     1
102
RTVSPost2010Prop34
280
     0
102
RTVSPost2010PropOp34
 70
     1
102
RTVSPost2010Prop35
280
     0
102
RTVSPost2010PropOp35
 70
     1
102
RTVSPost2010Prop36
280
     0
102
RTVSPost2010PropOp36
 70
     1
102
RTVSPost2010Prop37
 90
       50
102
RTVSPost2010PropOp37
 70
     1
102
RTVSPost2010Prop38
140
0.0
102
RTVSPost2010PropOp38
 70
     1
102
RTVSPost2010Prop39
140
1.0
102
RTVSPost2010PropOp39
 70
     1
102
RTVSPost2010Prop40
 90
        0
102
RTVSPost2010PropOp40
 70
     1
102
RTVSPost2010Prop41ColorIndex
 90
       18
102
RTVSPost2010Prop41ColorRGB
 90
        0
102
RTVSPost2010PropOp41
 70
     1
102
RTVSPost2010Prop42
 90
       50
102
RTVSPost2010PropOp42
 70
     1
102
RTVSPost2010Prop43
 90
        3
102
RTVSPost2010PropOp43
 70
     1
102
RTVSPost2010Prop44ColorIndex
 90
        5
102
RTVSPost2010Prop44ColorRGB
 90
      255
102
RTVSPost2010PropOp44
 70
     1
102
RTVSPost2010Prop45
280
     0
102
RTVSPost2010PropOp45
 70
     1
102
RTVSPost2010Prop46
 90
       50
102
RTVSPost2010PropOp46
 70
     1
102
RTVSPost2010Prop47
 90
       50
102
RTVSPost2010PropOp47
 70
     1
102
RTVSPost2010Prop48
 90
       50
102
RTVSPost2010PropOp48
 70
     1
102
RTVSPost2010Prop49
280
     0
102
RTVSPost2010PropOp49
 70
     1
102
RTVSPost2010Prop50
 90
       50
102
RTVSPost2010PropOp50
 70
     1
102
RTVSPost2010Prop51ColorIndex
 90
      256
102
RTVSPost2010Prop51ColorRGB
 90
-16777216
102
RTVSPost2010PropOp51
 70
     0
102
RTVSPost2010Prop52
140
1.0
102
RTVSPost2010PropOp52
 70
     0
102
RTVSPost2010Prop53
 90
        2
102
RTVSPost2010PropOp53
 70
     1
102
RTVSPost2010Prop54
  1
strokes_ogs.tif
102
RTVSPost2010PropOp54
 70
     1
102
RTVSPost2010Prop55
280
     0
102
RTVSPost2010PropOp55
 70
     1
102
RTVSPost2010Prop56
140
1.0
102
RTVSPost2010PropOp56
 70
     1
102
RTVSPost2010Prop57
140
1.0
102
RTVSPost2010PropOp57
 70
     1
102
RTVSPropertyOp0
 70
     1
102
RTVSPropertyOp1
 70
     1
102
RTVSPropertyOp2
 70
     1
102
RTVSPropertyOp3
 70
     1
102
RTVSPropertyOp4
 70
     1
102
RTVSPropertyOp5
 70
     1
102
RTVSPropertyOp6
 70
     1
102
RTVSPropertyOp7
 70
     1
102
RTVSPropertyOp8
 70
     1
102
RTVSPropertyOp9
 70
     1
102
RTVSPropertyOp10
 70
     1
102
RTVSPropertyOp11
 70
     1
102
RTVSPropertyOp12
 70
     1
102
RTVSPropertyOp13
 70
     1
102
RTVSPropertyOp14
 70
     1
102
RTVSPropertyOp15
 70
     1
102
RTVSPropertyOp16
 70
     1
102
RTVSPropertyOp17
 70
     1
102
RTVSPropertyOp18
 70
     1
102
RTVSPropertyOp19
 70
     1
102
RTVSPropertyOp20
 70
     1
102
RTVSPropertyOp21
 70
     1
102
RTVSPropertyOp22
 70
     1
102
RTVSPropertyOp23
 70
     1
102
RTVSPropertyOp24
 70
     1
102
RTVSPropertyOp25
 70
     1
102
RTVSPropertyOp26
 70
     1
102
RTVSPropertyOp27
 70
     1
102
RTVSPropertyOp28
 70
     1
102
RTVSPropertyOp29
 70
     1
102
RTVSPropertyOp30
 70
     1
102
RTVSPropertyOp31
 70
     1
102
RTVSPropertyOp32
 70
     1
102
RTVSPropertyOp33
 70
     1
102
RTVSPropertyOp34
 70
     1
102
RTVSPropertyOp35
 70
     1
102
RTVSPropertyOp36
 70
     1
102
RTVSPropertyOp37
 70
     1
102
RTVSPropertyOp38
 70
     1
102
RTVSPropertyOp39
 70
     1
102
RTVSPropertyOp40
 70
     1
102
RTVSPropertyOp41
 70
     1
102
RTVSPropertyOp42
 70
     1
102
RTVSPropertyOp43
 70
     1
102
RTVSPropertyOp44
 70
     1
102
RTVSPropertyOp45
 70
     1
102
RTVSPropertyOp46
 70
     1
102
RTVSPropertyOp47
 70
     1
102
RTVSPropertyOp48
 70
     1
102
RTVSPropertyOp49
 70
     1
102
RTVSPropertyOp50
 70
     1
102
RTVSPropertyOp51
 70
     0
102
RTVSPropertyOp52
 70
     0
102
RTVSPropertyOp53
 70
     1
102
RTVSPropertyOp54
 70
     1
102
RTVSPropertyOp55
 70
     1
102
RTVSPropertyOp56
 70
     1
102
RTVSPropertyOp57
 70
     1
102
RTVSPropertyOp58
 70
     1
102
RTVSPropertyOp59
 70
     1
102
RTVSPropertyOp60
 70
     1
102
RTVSPropertyOp61
 70
     1
102
RTVSPropertyOp62
 70
     1
  0
XRECORD
  5
13B3
102
{ACAD_REACTORS
330
13B2
102
}
330
13B2
100
AcDbXrecord
280
     1
102
RTVSPost2010Prop28
280
     0
102
RTVSPost2010PropOp28
 70
     1
102
RTVSPost2010Prop29
280
     1
102
RTVSPost2010PropOp29
 70
     1
102
RTVSPost2010Prop30
280
     1
102
RTVSPost2010PropOp30
 70
     1
102
RTVSPost2010Prop31
280
     0
102
RTVSPost2010PropOp31
 70
     1
102
RTVSPost2010Prop32
280
     0
102
RTVSPost2010PropOp32
 70
     1
102
RTVSPost2010Prop33
280
     0
102
RTVSPost2010PropOp33
 70
     1
102
RTVSPost2010Prop34
280
     0
102
RTVSPost2010PropOp34
 70
     1
102
RTVSPost2010Prop35
280
     0
102
RTVSPost2010PropOp35
 70
     1
102
RTVSPost2010Prop36
280
     0
102
RTVSPost2010PropOp36
 70
     1
102
RTVSPost2010Prop37
 90
       50
102
RTVSPost2010PropOp37
 70
     1
102
RTVSPost2010Prop38
140
0.0
102
RTVSPost2010PropOp38
 70
     1
102
RTVSPost2010Prop39
140
1.0
102
RTVSPost2010PropOp39
 70
     1
102
RTVSPost2010Prop40
 90
        0
102
RTVSPost2010PropOp40
 70
     1
102
RTVSPost2010Prop41ColorIndex
 90
       18
102
RTVSPost2010Prop41ColorRGB
 90
        0
102
RTVSPost2010PropOp41
 70
     1
102
RTVSPost2010Prop42
 90
       50
102
RTVSPost2010PropOp42
 70
     1
102
RTVSPost2010Prop43
 90
        3
102
RTVSPost2010PropOp43
 70
     1
102
RTVSPost2010Prop44ColorIndex
 90
        5
102
RTVSPost2010Prop44ColorRGB
 90
      255
102
RTVSPost2010PropOp44
 70
     1
102
RTVSPost2010Prop45
280
     0
102
RTVSPost2010PropOp45
 70
     1
102
RTVSPost2010Prop46
 90
       50
102
RTVSPost2010PropOp46
 70
     1
102
RTVSPost2010Prop47
 90
       50
102
RTVSPost2010PropOp47
 70
     1
102
RTVSPost2010Prop48
 90
       50
102
RTVSPost2010PropOp48
 70
     1
102
RTVSPost2010Prop49
280
     0
102
RTVSPost2010PropOp49
 70
     1
102
RTVSPost2010Prop50
 90
       50
102
RTVSPost2010PropOp50
 70
     1
102
RTVSPost2010Prop51ColorIndex
 90
      256
102
RTVSPost2010Prop51ColorRGB
 90
-16777216
102
RTVSPost2010PropOp51
 70
     0
102
RTVSPost2010Prop52
140
1.0
102
RTVSPost2010PropOp52
 70
     0
102
RTVSPost2010Prop53
 90
        2
102
RTVSPost2010PropOp53
 70
     1
102
RTVSPost2010Prop54
  1
strokes_ogs.tif
102
RTVSPost2010PropOp54
 70
     1
102
RTVSPost2010Prop55
280
     0
102
RTVSPost2010PropOp55
 70
     1
102
RTVSPost2010Prop56
140
1.0
102
RTVSPost2010PropOp56
 70
     1
102
RTVSPost2010Prop57
140
1.0
102
RTVSPost2010PropOp57
 70
     1
102
RTVSPropertyOp0
 70
     1
102
RTVSPropertyOp1
 70
     1
102
RTVSPropertyOp2
 70
     1
102
RTVSPropertyOp3
 70
     1
102
RTVSPropertyOp4
 70
     1
102
RTVSPropertyOp5
 70
     1
102
RTVSPropertyOp6
 70
     1
102
RTVSPropertyOp7
 70
     1
102
RTVSPropertyOp8
 70
     1
102
RTVSPropertyOp9
 70
     1
102
RTVSPropertyOp10
 70
     1
102
RTVSPropertyOp11
 70
     1
102
RTVSPropertyOp12
 70
     1
102
RTVSPropertyOp13
 70
     1
102
RTVSPropertyOp14
 70
     1
102
RTVSPropertyOp15
 70
     1
102
RTVSPropertyOp16
 70
     1
102
RTVSPropertyOp17
 70
     1
102
RTVSPropertyOp18
 70
     1
102
RTVSPropertyOp19
 70
     1
102
RTVSPropertyOp20
 70
     1
102
RTVSPropertyOp21
 70
     1
102
RTVSPropertyOp22
 70
     1
102
RTVSPropertyOp23
 70
     1
102
RTVSPropertyOp24
 70
     1
102
RTVSPropertyOp25
 70
     1
102
RTVSPropertyOp26
 70
     1
102
RTVSPropertyOp27
 70
     1
102
RTVSPropertyOp28
 70
     1
102
RTVSPropertyOp29
 70
     1
102
RTVSPropertyOp30
 70
     1
102
RTVSPropertyOp31
 70
     1
102
RTVSPropertyOp32
 70
     1
102
RTVSPropertyOp33
 70
     1
102
RTVSPropertyOp34
 70
     1
102
RTVSPropertyOp35
 70
     1
102
RTVSPropertyOp36
 70
     1
102
RTVSPropertyOp37
 70
     1
102
RTVSPropertyOp38
 70
     1
102
RTVSPropertyOp39
 70
     1
102
RTVSPropertyOp40
 70
     1
102
RTVSPropertyOp41
 70
     1
102
RTVSPropertyOp42
 70
     1
102
RTVSPropertyOp43
 70
     1
102
RTVSPropertyOp44
 70
     1
102
RTVSPropertyOp45
 70
     1
102
RTVSPropertyOp46
 70
     1
102
RTVSPropertyOp47
 70
     1
102
RTVSPropertyOp48
 70
     1
102
RTVSPropertyOp49
 70
     1
102
RTVSPropertyOp50
 70
     1
102
RTVSPropertyOp51
 70
     0
102
RTVSPropertyOp52
 70
     0
102
RTVSPropertyOp53
 70
     1
102
RTVSPropertyOp54
 70
     1
102
RTVSPropertyOp55
 70
     1
102
RTVSPropertyOp56
 70
     1
102
RTVSPropertyOp57
 70
     1
102
RTVSPropertyOp58
 70
     1
102
RTVSPropertyOp59
 70
     1
102
RTVSPropertyOp60
 70
     1
102
RTVSPropertyOp61
 70
     1
102
RTVSPropertyOp62
 70
     1
  0
XRECORD
  5
13A5
102
{ACAD_REACTORS
330
13A4
102
}
330
13A4
100
AcDbXrecord
280
     1
102
RTVSPost2010Prop28
280
     0
102
RTVSPost2010PropOp28
 70
     1
102
RTVSPost2010Prop29
280
     1
102
RTVSPost2010PropOp29
 70
     1
102
RTVSPost2010Prop30
280
     1
102
RTVSPost2010PropOp30
 70
     1
102
RTVSPost2010Prop31
280
     0
102
RTVSPost2010PropOp31
 70
     1
102
RTVSPost2010Prop32
280
     0
102
RTVSPost2010PropOp32
 70
     1
102
RTVSPost2010Prop33
280
     0
102
RTVSPost2010PropOp33
 70
     1
102
RTVSPost2010Prop34
280
     0
102
RTVSPost2010PropOp34
 70
     1
102
RTVSPost2010Prop35
280
     0
102
RTVSPost2010PropOp35
 70
     1
102
RTVSPost2010Prop36
280
     0
102
RTVSPost2010PropOp36
 70
     1
102
RTVSPost2010Prop37
 90
       50
102
RTVSPost2010PropOp37
 70
     1
102
RTVSPost2010Prop38
140
0.0
102
RTVSPost2010PropOp38
 70
     1
102
RTVSPost2010Prop39
140
1.0
102
RTVSPost2010PropOp39
 70
     1
102
RTVSPost2010Prop40
 90
        0
102
RTVSPost2010PropOp40
 70
     1
102
RTVSPost2010Prop41ColorIndex
 90
       18
102
RTVSPost2010Prop41ColorRGB
 90
        0
102
RTVSPost2010PropOp41
 70
     1
102
RTVSPost2010Prop42
 90
       50
102
RTVSPost2010PropOp42
 70
     1
102
RTVSPost2010Prop43
 90
        3
102
RTVSPost2010PropOp43
 70
     1
102
RTVSPost2010Prop44ColorIndex
 90
        5
102
RTVSPost2010Prop44ColorRGB
 90
      255
102
RTVSPost2010PropOp44
 70
     1
102
RTVSPost2010Prop45
280
     0
102
RTVSPost2010PropOp45
 70
     1
102
RTVSPost2010Prop46
 90
       50
102
RTVSPost2010PropOp46
 70
     1
102
RTVSPost2010Prop47
 90
       50
102
RTVSPost2010PropOp47
 70
     1
102
RTVSPost2010Prop48
 90
       50
102
RTVSPost2010PropOp48
 70
     1
102
RTVSPost2010Prop49
280
     0
102
RTVSPost2010PropOp49
 70
     1
102
RTVSPost2010Prop50
 90
       50
102
RTVSPost2010PropOp50
 70
     1
102
RTVSPost2010Prop51ColorIndex
 90
      256
102
RTVSPost2010Prop51ColorRGB
 90
-16777216
102
RTVSPost2010PropOp51
 70
     0
102
RTVSPost2010Prop52
140
1.0
102
RTVSPost2010PropOp52
 70
     0
102
RTVSPost2010Prop53
 90
        2
102
RTVSPost2010PropOp53
 70
     1
102
RTVSPost2010Prop54
  1
strokes_ogs.tif
102
RTVSPost2010PropOp54
 70
     1
102
RTVSPost2010Prop55
280
     0
102
RTVSPost2010PropOp55
 70
     1
102
RTVSPost2010Prop56
140
1.0
102
RTVSPost2010PropOp56
 70
     1
102
RTVSPost2010Prop57
140
1.0
102
RTVSPost2010PropOp57
 70
     1
102
RTVSPropertyOp0
 70
     1
102
RTVSPropertyOp1
 70
     1
102
RTVSPropertyOp2
 70
     1
102
RTVSPropertyOp3
 70
     1
102
RTVSPropertyOp4
 70
     1
102
RTVSPropertyOp5
 70
     1
102
RTVSPropertyOp6
 70
     1
102
RTVSPropertyOp7
 70
     1
102
RTVSPropertyOp8
 70
     1
102
RTVSPropertyOp9
 70
     1
102
RTVSPropertyOp10
 70
     1
102
RTVSPropertyOp11
 70
     1
102
RTVSPropertyOp12
 70
     1
102
RTVSPropertyOp13
 70
     1
102
RTVSPropertyOp14
 70
     1
102
RTVSPropertyOp15
 70
     1
102
RTVSPropertyOp16
 70
     1
102
RTVSPropertyOp17
 70
     1
102
RTVSPropertyOp18
 70
     1
102
RTVSPropertyOp19
 70
     1
102
RTVSPropertyOp20
 70
     1
102
RTVSPropertyOp21
 70
     1
102
RTVSPropertyOp22
 70
     1
102
RTVSPropertyOp23
 70
     1
102
RTVSPropertyOp24
 70
     1
102
RTVSPropertyOp25
 70
     1
102
RTVSPropertyOp26
 70
     1
102
RTVSPropertyOp27
 70
     1
102
RTVSPropertyOp28
 70
     1
102
RTVSPropertyOp29
 70
     1
102
RTVSPropertyOp30
 70
     1
102
RTVSPropertyOp31
 70
     1
102
RTVSPropertyOp32
 70
     1
102
RTVSPropertyOp33
 70
     1
102
RTVSPropertyOp34
 70
     1
102
RTVSPropertyOp35
 70
     1
102
RTVSPropertyOp36
 70
     1
102
RTVSPropertyOp37
 70
     1
102
RTVSPropertyOp38
 70
     1
102
RTVSPropertyOp39
 70
     1
102
RTVSPropertyOp40
 70
     1
102
RTVSPropertyOp41
 70
     1
102
RTVSPropertyOp42
 70
     1
102
RTVSPropertyOp43
 70
     1
102
RTVSPropertyOp44
 70
     1
102
RTVSPropertyOp45
 70
     1
102
RTVSPropertyOp46
 70
     1
102
RTVSPropertyOp47
 70
     1
102
RTVSPropertyOp48
 70
     1
102
RTVSPropertyOp49
 70
     1
102
RTVSPropertyOp50
 70
     1
102
RTVSPropertyOp51
 70
     0
102
RTVSPropertyOp52
 70
     0
102
RTVSPropertyOp53
 70
     1
102
RTVSPropertyOp54
 70
     1
102
RTVSPropertyOp55
 70
     1
102
RTVSPropertyOp56
 70
     1
102
RTVSPropertyOp57
 70
     1
102
RTVSPropertyOp58
 70
     1
102
RTVSPropertyOp59
 70
     1
102
RTVSPropertyOp60
 70
     1
102
RTVSPropertyOp61
 70
     1
102
RTVSPropertyOp62
 70
     1
  0
XRECORD
  5
13A9
102
{ACAD_REACTORS
330
13A8
102
}
330
13A8
100
AcDbXrecord
280
     1
102
RTVSPost2010Prop28
280
     0
102
RTVSPost2010PropOp28
 70
     1
102
RTVSPost2010Prop29
280
     1
102
RTVSPost2010PropOp29
 70
     1
102
RTVSPost2010Prop30
280
     1
102
RTVSPost2010PropOp30
 70
     1
102
RTVSPost2010Prop31
280
     0
102
RTVSPost2010PropOp31
 70
     1
102
RTVSPost2010Prop32
280
     0
102
RTVSPost2010PropOp32
 70
     1
102
RTVSPost2010Prop33
280
     0
102
RTVSPost2010PropOp33
 70
     1
102
RTVSPost2010Prop34
280
     0
102
RTVSPost2010PropOp34
 70
     1
102
RTVSPost2010Prop35
280
     0
102
RTVSPost2010PropOp35
 70
     1
102
RTVSPost2010Prop36
280
     0
102
RTVSPost2010PropOp36
 70
     1
102
RTVSPost2010Prop37
 90
       50
102
RTVSPost2010PropOp37
 70
     1
102
RTVSPost2010Prop38
140
0.0
102
RTVSPost2010PropOp38
 70
     1
102
RTVSPost2010Prop39
140
1.0
102
RTVSPost2010PropOp39
 70
     1
102
RTVSPost2010Prop40
 90
        0
102
RTVSPost2010PropOp40
 70
     1
102
RTVSPost2010Prop41ColorIndex
 90
       18
102
RTVSPost2010Prop41ColorRGB
 90
        0
102
RTVSPost2010PropOp41
 70
     1
102
RTVSPost2010Prop42
 90
       50
102
RTVSPost2010PropOp42
 70
     1
102
RTVSPost2010Prop43
 90
        3
102
RTVSPost2010PropOp43
 70
     1
102
RTVSPost2010Prop44ColorIndex
 90
        5
102
RTVSPost2010Prop44ColorRGB
 90
      255
102
RTVSPost2010PropOp44
 70
     1
102
RTVSPost2010Prop45
280
     0
102
RTVSPost2010PropOp45
 70
     1
102
RTVSPost2010Prop46
 90
       50
102
RTVSPost2010PropOp46
 70
     1
102
RTVSPost2010Prop47
 90
       50
102
RTVSPost2010PropOp47
 70
     1
102
RTVSPost2010Prop48
 90
       50
102
RTVSPost2010PropOp48
 70
     1
102
RTVSPost2010Prop49
280
     0
102
RTVSPost2010PropOp49
 70
     1
102
RTVSPost2010Prop50
 90
       50
102
RTVSPost2010PropOp50
 70
     1
102
RTVSPost2010Prop51ColorIndex
 90
      256
102
RTVSPost2010Prop51ColorRGB
 90
-16777216
102
RTVSPost2010PropOp51
 70
     0
102
RTVSPost2010Prop52
140
1.0
102
RTVSPost2010PropOp52
 70
     0
102
RTVSPost2010Prop53
 90
        2
102
RTVSPost2010PropOp53
 70
     1
102
RTVSPost2010Prop54
  1
strokes_ogs.tif
102
RTVSPost2010PropOp54
 70
     1
102
RTVSPost2010Prop55
280
     0
102
RTVSPost2010PropOp55
 70
     1
102
RTVSPost2010Prop56
140
1.0
102
RTVSPost2010PropOp56
 70
     1
102
RTVSPost2010Prop57
140
1.0
102
RTVSPost2010PropOp57
 70
     1
102
RTVSPropertyOp0
 70
     1
102
RTVSPropertyOp1
 70
     1
102
RTVSPropertyOp2
 70
     1
102
RTVSPropertyOp3
 70
     1
102
RTVSPropertyOp4
 70
     1
102
RTVSPropertyOp5
 70
     1
102
RTVSPropertyOp6
 70
     1
102
RTVSPropertyOp7
 70
     1
102
RTVSPropertyOp8
 70
     1
102
RTVSPropertyOp9
 70
     1
102
RTVSPropertyOp10
 70
     1
102
RTVSPropertyOp11
 70
     1
102
RTVSPropertyOp12
 70
     1
102
RTVSPropertyOp13
 70
     1
102
RTVSPropertyOp14
 70
     1
102
RTVSPropertyOp15
 70
     1
102
RTVSPropertyOp16
 70
     1
102
RTVSPropertyOp17
 70
     1
102
RTVSPropertyOp18
 70
     1
102
RTVSPropertyOp19
 70
     1
102
RTVSPropertyOp20
 70
     1
102
RTVSPropertyOp21
 70
     1
102
RTVSPropertyOp22
 70
     1
102
RTVSPropertyOp23
 70
     1
102
RTVSPropertyOp24
 70
     1
102
RTVSPropertyOp25
 70
     1
102
RTVSPropertyOp26
 70
     1
102
RTVSPropertyOp27
 70
     1
102
RTVSPropertyOp28
 70
     1
102
RTVSPropertyOp29
 70
     1
102
RTVSPropertyOp30
 70
     1
102
RTVSPropertyOp31
 70
     1
102
RTVSPropertyOp32
 70
     1
102
RTVSPropertyOp33
 70
     1
102
RTVSPropertyOp34
 70
     1
102
RTVSPropertyOp35
 70
     1
102
RTVSPropertyOp36
 70
     1
102
RTVSPropertyOp37
 70
     1
102
RTVSPropertyOp38
 70
     1
102
RTVSPropertyOp39
 70
     1
102
RTVSPropertyOp40
 70
     1
102
RTVSPropertyOp41
 70
     1
102
RTVSPropertyOp42
 70
     1
102
RTVSPropertyOp43
 70
     1
102
RTVSPropertyOp44
 70
     1
102
RTVSPropertyOp45
 70
     1
102
RTVSPropertyOp46
 70
     1
102
RTVSPropertyOp47
 70
     1
102
RTVSPropertyOp48
 70
     1
102
RTVSPropertyOp49
 70
     1
102
RTVSPropertyOp50
 70
     1
102
RTVSPropertyOp51
 70
     0
102
RTVSPropertyOp52
 70
     0
102
RTVSPropertyOp53
 70
     1
102
RTVSPropertyOp54
 70
     1
102
RTVSPropertyOp55
 70
     1
102
RTVSPropertyOp56
 70
     1
102
RTVSPropertyOp57
 70
     1
102
RTVSPropertyOp58
 70
     1
102
RTVSPropertyOp59
 70
     1
102
RTVSPropertyOp60
 70
     1
102
RTVSPropertyOp61
 70
     1
102
RTVSPropertyOp62
 70
     1
  0
XRECORD
  5
13C3
102
{ACAD_REACTORS
330
13C2
102
}
330
13C2
100
AcDbXrecord
280
     1
102
RTVSPost2010Prop28
280
     0
102
RTVSPost2010PropOp28
 70
     0
102
RTVSPost2010Prop29
280
     1
102
RTVSPost2010PropOp29
 70
     0
102
RTVSPost2010Prop30
280
     1
102
RTVSPost2010PropOp30
 70
     0
102
RTVSPost2010Prop31
280
     0
102
RTVSPost2010PropOp31
 70
     0
102
RTVSPost2010Prop32
280
     0
102
RTVSPost2010PropOp32
 70
     0
102
RTVSPost2010Prop33
280
     0
102
RTVSPost2010PropOp33
 70
     0
102
RTVSPost2010Prop34
280
     0
102
RTVSPost2010PropOp34
 70
     0
102
RTVSPost2010Prop35
280
     0
102
RTVSPost2010PropOp35
 70
     0
102
RTVSPost2010Prop36
280
     0
102
RTVSPost2010PropOp36
 70
     0
102
RTVSPost2010Prop37
 90
       50
102
RTVSPost2010PropOp37
 70
     0
102
RTVSPost2010Prop38
140
0.0
102
RTVSPost2010PropOp38
 70
     0
102
RTVSPost2010Prop39
140
1.0
102
RTVSPost2010PropOp39
 70
     0
102
RTVSPost2010Prop40
 90
        0
102
RTVSPost2010PropOp40
 70
     0
102
RTVSPost2010Prop41ColorIndex
 90
       18
102
RTVSPost2010Prop41ColorRGB
 90
        0
102
RTVSPost2010PropOp41
 70
     0
102
RTVSPost2010Prop42
 90
       50
102
RTVSPost2010PropOp42
 70
     0
102
RTVSPost2010Prop43
 90
        3
102
RTVSPost2010PropOp43
 70
     0
102
RTVSPost2010Prop44ColorIndex
 90
        5
102
RTVSPost2010Prop44ColorRGB
 90
      255
102
RTVSPost2010PropOp44
 70
     0
102
RTVSPost2010Prop45
280
     0
102
RTVSPost2010PropOp45
 70
     0
102
RTVSPost2010Prop46
 90
       50
102
RTVSPost2010PropOp46
 70
     0
102
RTVSPost2010Prop47
 90
       50
102
RTVSPost2010PropOp47
 70
     0
102
RTVSPost2010Prop48
 90
       50
102
RTVSPost2010PropOp48
 70
     0
102
RTVSPost2010Prop49
280
     0
102
RTVSPost2010PropOp49
 70
     0
102
RTVSPost2010Prop50
 90
       50
102
RTVSPost2010PropOp50
 70
     0
102
RTVSPost2010Prop51ColorIndex
 90
      256
102
RTVSPost2010Prop51ColorRGB
 90
-16777216
102
RTVSPost2010PropOp51
 70
     0
102
RTVSPost2010Prop52
140
1.0
102
RTVSPost2010PropOp52
 70
     0
102
RTVSPost2010Prop53
 90
        2
102
RTVSPost2010PropOp53
 70
     0
102
RTVSPost2010Prop54
  1
strokes_ogs.tif
102
RTVSPost2010PropOp54
 70
     0
102
RTVSPost2010Prop55
280
     0
102
RTVSPost2010PropOp55
 70
     0
102
RTVSPost2010Prop56
140
1.0
102
RTVSPost2010PropOp56
 70
     0
102
RTVSPost2010Prop57
140
1.0
102
RTVSPost2010PropOp57
 70
     0
102
RTVSPropertyOp0
 70
     0
102
RTVSPropertyOp1
 70
     0
102
RTVSPropertyOp2
 70
     0
102
RTVSPropertyOp3
 70
     0
102
RTVSPropertyOp4
 70
     0
102
RTVSPropertyOp5
 70
     0
102
RTVSPropertyOp6
 70
     0
102
RTVSPropertyOp7
 70
     0
102
RTVSPropertyOp8
 70
     0
102
RTVSPropertyOp9
 70
     0
102
RTVSPropertyOp10
 70
     0
102
RTVSPropertyOp11
 70
     0
102
RTVSPropertyOp12
 70
     0
102
RTVSPropertyOp13
 70
     0
102
RTVSPropertyOp14
 70
     2
102
RTVSPropertyOp15
 70
     0
102
RTVSPropertyOp16
 70
     0
102
RTVSPropertyOp17
 70
     0
102
RTVSPropertyOp18
 70
     0
102
RTVSPropertyOp19
 70
     0
102
RTVSPropertyOp20
 70
     0
102
RTVSPropertyOp21
 70
     0
102
RTVSPropertyOp22
 70
     0
102
RTVSPropertyOp23
 70
     0
102
RTVSPropertyOp24
 70
     0
102
RTVSPropertyOp25
 70
     0
102
RTVSPropertyOp26
 70
     0
102
RTVSPropertyOp27
 70
     0
102
RTVSPropertyOp28
 70
     0
102
RTVSPropertyOp29
 70
     0
102
RTVSPropertyOp30
 70
     0
102
RTVSPropertyOp31
 70
     0
102
RTVSPropertyOp32
 70
     0
102
RTVSPropertyOp33
 70
     0
102
RTVSPropertyOp34
 70
     0
102
RTVSPropertyOp35
 70
     0
102
RTVSPropertyOp36
 70
     0
102
RTVSPropertyOp37
 70
     0
102
RTVSPropertyOp38
 70
     0
102
RTVSPropertyOp39
 70
     0
102
RTVSPropertyOp40
 70
     0
102
RTVSPropertyOp41
 70
     0
102
RTVSPropertyOp42
 70
     0
102
RTVSPropertyOp43
 70
     0
102
RTVSPropertyOp44
 70
     0
102
RTVSPropertyOp45
 70
     0
102
RTVSPropertyOp46
 70
     0
102
RTVSPropertyOp47
 70
     0
102
RTVSPropertyOp48
 70
     0
102
RTVSPropertyOp49
 70
     0
102
RTVSPropertyOp50
 70
     0
102
RTVSPropertyOp51
 70
     0
102
RTVSPropertyOp52
 70
     0
102
RTVSPropertyOp53
 70
     0
102
RTVSPropertyOp54
 70
     0
102
RTVSPropertyOp55
 70
     0
102
RTVSPropertyOp56
 70
     0
102
RTVSPropertyOp57
 70
     0
102
RTVSPropertyOp58
 70
     1
102
RTVSPropertyOp59
 70
     1
102
RTVSPropertyOp60
 70
     1
102
RTVSPropertyOp61
 70
     1
102
RTVSPropertyOp62
 70
     1
  0
XRECORD
  5
13B1
102
{ACAD_REACTORS
330
13B0
102
}
330
13B0
100
AcDbXrecord
280
     1
102
RTVSPost2010Prop28
280
     0
102
RTVSPost2010PropOp28
 70
     1
102
RTVSPost2010Prop29
280
     1
102
RTVSPost2010PropOp29
 70
     1
102
RTVSPost2010Prop30
280
     1
102
RTVSPost2010PropOp30
 70
     1
102
RTVSPost2010Prop31
280
     0
102
RTVSPost2010PropOp31
 70
     1
102
RTVSPost2010Prop32
280
     0
102
RTVSPost2010PropOp32
 70
     1
102
RTVSPost2010Prop33
280
     0
102
RTVSPost2010PropOp33
 70
     1
102
RTVSPost2010Prop34
280
     0
102
RTVSPost2010PropOp34
 70
     1
102
RTVSPost2010Prop35
280
     0
102
RTVSPost2010PropOp35
 70
     1
102
RTVSPost2010Prop36
280
     0
102
RTVSPost2010PropOp36
 70
     1
102
RTVSPost2010Prop37
 90
       50
102
RTVSPost2010PropOp37
 70
     1
102
RTVSPost2010Prop38
140
0.0
102
RTVSPost2010PropOp38
 70
     1
102
RTVSPost2010Prop39
140
1.0
102
RTVSPost2010PropOp39
 70
     1
102
RTVSPost2010Prop40
 90
        0
102
RTVSPost2010PropOp40
 70
     1
102
RTVSPost2010Prop41ColorIndex
 90
       18
102
RTVSPost2010Prop41ColorRGB
 90
        0
102
RTVSPost2010PropOp41
 70
     1
102
RTVSPost2010Prop42
 90
       50
102
RTVSPost2010PropOp42
 70
     1
102
RTVSPost2010Prop43
 90
        3
102
RTVSPost2010PropOp43
 70
     1
102
RTVSPost2010Prop44ColorIndex
 90
        5
102
RTVSPost2010Prop44ColorRGB
 90
      255
102
RTVSPost2010PropOp44
 70
     1
102
RTVSPost2010Prop45
280
     0
102
RTVSPost2010PropOp45
 70
     1
102
RTVSPost2010Prop46
 90
       50
102
RTVSPost2010PropOp46
 70
     1
102
RTVSPost2010Prop47
 90
       50
102
RTVSPost2010PropOp47
 70
     1
102
RTVSPost2010Prop48
 90
       50
102
RTVSPost2010PropOp48
 70
     1
102
RTVSPost2010Prop49
280
     0
102
RTVSPost2010PropOp49
 70
     1
102
RTVSPost2010Prop50
 90
       50
102
RTVSPost2010PropOp50
 70
     1
102
RTVSPost2010Prop51ColorIndex
 90
      256
102
RTVSPost2010Prop51ColorRGB
 90
-16777216
102
RTVSPost2010PropOp51
 70
     0
102
RTVSPost2010Prop52
140
1.0
102
RTVSPost2010PropOp52
 70
     0
102
RTVSPost2010Prop53
 90
        2
102
RTVSPost2010PropOp53
 70
     1
102
RTVSPost2010Prop54
  1
strokes_ogs.tif
102
RTVSPost2010PropOp54
 70
     1
102
RTVSPost2010Prop55
280
     0
102
RTVSPost2010PropOp55
 70
     1
102
RTVSPost2010Prop56
140
1.0
102
RTVSPost2010PropOp56
 70
     1
102
RTVSPost2010Prop57
140
1.0
102
RTVSPost2010PropOp57
 70
     1
102
RTVSPropertyOp0
 70
     1
102
RTVSPropertyOp1
 70
     1
102
RTVSPropertyOp2
 70
     1
102
RTVSPropertyOp3
 70
     1
102
RTVSPropertyOp4
 70
     1
102
RTVSPropertyOp5
 70
     1
102
RTVSPropertyOp6
 70
     1
102
RTVSPropertyOp7
 70
     1
102
RTVSPropertyOp8
 70
     1
102
RTVSPropertyOp9
 70
     1
102
RTVSPropertyOp10
 70
     1
102
RTVSPropertyOp11
 70
     1
102
RTVSPropertyOp12
 70
     1
102
RTVSPropertyOp13
 70
     1
102
RTVSPropertyOp14
 70
     1
102
RTVSPropertyOp15
 70
     1
102
RTVSPropertyOp16
 70
     1
102
RTVSPropertyOp17
 70
     1
102
RTVSPropertyOp18
 70
     1
102
RTVSPropertyOp19
 70
     1
102
RTVSPropertyOp20
 70
     1
102
RTVSPropertyOp21
 70
     1
102
RTVSPropertyOp22
 70
     1
102
RTVSPropertyOp23
 70
     1
102
RTVSPropertyOp24
 70
     1
102
RTVSPropertyOp25
 70
     1
102
RTVSPropertyOp26
 70
     1
102
RTVSPropertyOp27
 70
     1
102
RTVSPropertyOp28
 70
     1
102
RTVSPropertyOp29
 70
     1
102
RTVSPropertyOp30
 70
     1
102
RTVSPropertyOp31
 70
     1
102
RTVSPropertyOp32
 70
     1
102
RTVSPropertyOp33
 70
     1
102
RTVSPropertyOp34
 70
     1
102
RTVSPropertyOp35
 70
     1
102
RTVSPropertyOp36
 70
     1
102
RTVSPropertyOp37
 70
     1
102
RTVSPropertyOp38
 70
     1
102
RTVSPropertyOp39
 70
     1
102
RTVSPropertyOp40
 70
     1
102
RTVSPropertyOp41
 70
     1
102
RTVSPropertyOp42
 70
     1
102
RTVSPropertyOp43
 70
     1
102
RTVSPropertyOp44
 70
     1
102
RTVSPropertyOp45
 70
     1
102
RTVSPropertyOp46
 70
     1
102
RTVSPropertyOp47
 70
     1
102
RTVSPropertyOp48
 70
     1
102
RTVSPropertyOp49
 70
     1
102
RTVSPropertyOp50
 70
     1
102
RTVSPropertyOp51
 70
     0
102
RTVSPropertyOp52
 70
     0
102
RTVSPropertyOp53
 70
     1
102
RTVSPropertyOp54
 70
     1
102
RTVSPropertyOp55
 70
     1
102
RTVSPropertyOp56
 70
     1
102
RTVSPropertyOp57
 70
     1
102
RTVSPropertyOp58
 70
     1
102
RTVSPropertyOp59
 70
     1
102
RTVSPropertyOp60
 70
     1
102
RTVSPropertyOp61
 70
     1
102
RTVSPropertyOp62
 70
     1
  0
XRECORD
  5
1395
102
{ACAD_REACTORS
330
1394
102
}
330
1394
100
AcDbXrecord
280
     1
102
RTVSPost2010Prop28
280
     0
102
RTVSPost2010PropOp28
 70
     1
102
RTVSPost2010Prop29
280
     1
102
RTVSPost2010PropOp29
 70
     1
102
RTVSPost2010Prop30
280
     1
102
RTVSPost2010PropOp30
 70
     1
102
RTVSPost2010Prop31
280
     0
102
RTVSPost2010PropOp31
 70
     1
102
RTVSPost2010Prop32
280
     0
102
RTVSPost2010PropOp32
 70
     1
102
RTVSPost2010Prop33
280
     0
102
RTVSPost2010PropOp33
 70
     1
102
RTVSPost2010Prop34
280
     0
102
RTVSPost2010PropOp34
 70
     1
102
RTVSPost2010Prop35
280
     0
102
RTVSPost2010PropOp35
 70
     1
102
RTVSPost2010Prop36
280
     0
102
RTVSPost2010PropOp36
 70
     1
102
RTVSPost2010Prop37
 90
       50
102
RTVSPost2010PropOp37
 70
     1
102
RTVSPost2010Prop38
140
0.0
102
RTVSPost2010PropOp38
 70
     1
102
RTVSPost2010Prop39
140
1.0
102
RTVSPost2010PropOp39
 70
     1
102
RTVSPost2010Prop40
 90
        0
102
RTVSPost2010PropOp40
 70
     1
102
RTVSPost2010Prop41ColorIndex
 90
       18
102
RTVSPost2010Prop41ColorRGB
 90
        0
102
RTVSPost2010PropOp41
 70
     1
102
RTVSPost2010Prop42
 90
       50
102
RTVSPost2010PropOp42
 70
     1
102
RTVSPost2010Prop43
 90
        3
102
RTVSPost2010PropOp43
 70
     1
102
RTVSPost2010Prop44ColorIndex
 90
        5
102
RTVSPost2010Prop44ColorRGB
 90
      255
102
RTVSPost2010PropOp44
 70
     1
102
RTVSPost2010Prop45
280
     0
102
RTVSPost2010PropOp45
 70
     1
102
RTVSPost2010Prop46
 90
       50
102
RTVSPost2010PropOp46
 70
     1
102
RTVSPost2010Prop47
 90
       50
102
RTVSPost2010PropOp47
 70
     1
102
RTVSPost2010Prop48
 90
       50
102
RTVSPost2010PropOp48
 70
     1
102
RTVSPost2010Prop49
280
     0
102
RTVSPost2010PropOp49
 70
     1
102
RTVSPost2010Prop50
 90
       50
102
RTVSPost2010PropOp50
 70
     1
102
RTVSPost2010Prop51ColorIndex
 90
      256
102
RTVSPost2010Prop51ColorRGB
 90
-16777216
102
RTVSPost2010PropOp51
 70
     0
102
RTVSPost2010Prop52
140
1.0
102
RTVSPost2010PropOp52
 70
     0
102
RTVSPost2010Prop53
 90
        2
102
RTVSPost2010PropOp53
 70
     1
102
RTVSPost2010Prop54
  1
strokes_ogs.tif
102
RTVSPost2010PropOp54
 70
     1
102
RTVSPost2010Prop55
280
     0
102
RTVSPost2010PropOp55
 70
     1
102
RTVSPost2010Prop56
140
1.0
102
RTVSPost2010PropOp56
 70
     1
102
RTVSPost2010Prop57
140
1.0
102
RTVSPost2010PropOp57
 70
     1
102
RTVSPropertyOp0
 70
     1
102
RTVSPropertyOp1
 70
     1
102
RTVSPropertyOp2
 70
     1
102
RTVSPropertyOp3
 70
     1
102
RTVSPropertyOp4
 70
     1
102
RTVSPropertyOp5
 70
     1
102
RTVSPropertyOp6
 70
     1
102
RTVSPropertyOp7
 70
     1
102
RTVSPropertyOp8
 70
     1
102
RTVSPropertyOp9
 70
     1
102
RTVSPropertyOp10
 70
     1
102
RTVSPropertyOp11
 70
     1
102
RTVSPropertyOp12
 70
     1
102
RTVSPropertyOp13
 70
     1
102
RTVSPropertyOp14
 70
     1
102
RTVSPropertyOp15
 70
     1
102
RTVSPropertyOp16
 70
     1
102
RTVSPropertyOp17
 70
     1
102
RTVSPropertyOp18
 70
     1
102
RTVSPropertyOp19
 70
     1
102
RTVSPropertyOp20
 70
     1
102
RTVSPropertyOp21
 70
     1
102
RTVSPropertyOp22
 70
     1
102
RTVSPropertyOp23
 70
     1
102
RTVSPropertyOp24
 70
     1
102
RTVSPropertyOp25
 70
     1
102
RTVSPropertyOp26
 70
     1
102
RTVSPropertyOp27
 70
     1
102
RTVSPropertyOp28
 70
     1
102
RTVSPropertyOp29
 70
     1
102
RTVSPropertyOp30
 70
     1
102
RTVSPropertyOp31
 70
     1
102
RTVSPropertyOp32
 70
     1
102
RTVSPropertyOp33
 70
     1
102
RTVSPropertyOp34
 70
     1
102
RTVSPropertyOp35
 70
     1
102
RTVSPropertyOp36
 70
     1
102
RTVSPropertyOp37
 70
     1
102
RTVSPropertyOp38
 70
     1
102
RTVSPropertyOp39
 70
     1
102
RTVSPropertyOp40
 70
     1
102
RTVSPropertyOp41
 70
     1
102
RTVSPropertyOp42
 70
     1
102
RTVSPropertyOp43
 70
     1
102
RTVSPropertyOp44
 70
     1
102
RTVSPropertyOp45
 70
     1
102
RTVSPropertyOp46
 70
     1
102
RTVSPropertyOp47
 70
     1
102
RTVSPropertyOp48
 70
     1
102
RTVSPropertyOp49
 70
     1
102
RTVSPropertyOp50
 70
     1
102
RTVSPropertyOp51
 70
     0
102
RTVSPropertyOp52
 70
     0
102
RTVSPropertyOp53
 70
     1
102
RTVSPropertyOp54
 70
     1
102
RTVSPropertyOp55
 70
     1
102
RTVSPropertyOp56
 70
     1
102
RTVSPropertyOp57
 70
     1
102
RTVSPropertyOp58
 70
     1
102
RTVSPropertyOp59
 70
     1
102
RTVSPropertyOp60
 70
     1
102
RTVSPropertyOp61
 70
     1
102
RTVSPropertyOp62
 70
     1
  0
XRECORD
  5
1397
102
{ACAD_REACTORS
330
1396
102
}
330
1396
100
AcDbXrecord
280
     1
102
RTVSPost2010Prop28
280
     0
102
RTVSPost2010PropOp28
 70
     1
102
RTVSPost2010Prop29
280
     1
102
RTVSPost2010PropOp29
 70
     1
102
RTVSPost2010Prop30
280
     1
102
RTVSPost2010PropOp30
 70
     1
102
RTVSPost2010Prop31
280
     0
102
RTVSPost2010PropOp31
 70
     1
102
RTVSPost2010Prop32
280
     0
102
RTVSPost2010PropOp32
 70
     1
102
RTVSPost2010Prop33
280
     0
102
RTVSPost2010PropOp33
 70
     1
102
RTVSPost2010Prop34
280
     0
102
RTVSPost2010PropOp34
 70
     1
102
RTVSPost2010Prop35
280
     0
102
RTVSPost2010PropOp35
 70
     1
102
RTVSPost2010Prop36
280
     0
102
RTVSPost2010PropOp36
 70
     1
102
RTVSPost2010Prop37
 90
       50
102
RTVSPost2010PropOp37
 70
     1
102
RTVSPost2010Prop38
140
0.0
102
RTVSPost2010PropOp38
 70
     1
102
RTVSPost2010Prop39
140
1.0
102
RTVSPost2010PropOp39
 70
     1
102
RTVSPost2010Prop40
 90
        0
102
RTVSPost2010PropOp40
 70
     1
102
RTVSPost2010Prop41ColorIndex
 90
       18
102
RTVSPost2010Prop41ColorRGB
 90
        0
102
RTVSPost2010PropOp41
 70
     1
102
RTVSPost2010Prop42
 90
       50
102
RTVSPost2010PropOp42
 70
     1
102
RTVSPost2010Prop43
 90
        3
102
RTVSPost2010PropOp43
 70
     1
102
RTVSPost2010Prop44ColorIndex
 90
        5
102
RTVSPost2010Prop44ColorRGB
 90
      255
102
RTVSPost2010PropOp44
 70
     1
102
RTVSPost2010Prop45
280
     0
102
RTVSPost2010PropOp45
 70
     1
102
RTVSPost2010Prop46
 90
       50
102
RTVSPost2010PropOp46
 70
     1
102
RTVSPost2010Prop47
 90
       50
102
RTVSPost2010PropOp47
 70
     1
102
RTVSPost2010Prop48
 90
       50
102
RTVSPost2010PropOp48
 70
     1
102
RTVSPost2010Prop49
280
     0
102
RTVSPost2010PropOp49
 70
     1
102
RTVSPost2010Prop50
 90
       50
102
RTVSPost2010PropOp50
 70
     1
102
RTVSPost2010Prop51ColorIndex
 90
      256
102
RTVSPost2010Prop51ColorRGB
 90
-16777216
102
RTVSPost2010PropOp51
 70
     0
102
RTVSPost2010Prop52
140
1.0
102
RTVSPost2010PropOp52
 70
     0
102
RTVSPost2010Prop53
 90
        2
102
RTVSPost2010PropOp53
 70
     1
102
RTVSPost2010Prop54
  1
strokes_ogs.tif
102
RTVSPost2010PropOp54
 70
     1
102
RTVSPost2010Prop55
280
     0
102
RTVSPost2010PropOp55
 70
     1
102
RTVSPost2010Prop56
140
1.0
102
RTVSPost2010PropOp56
 70
     1
102
RTVSPost2010Prop57
140
1.0
102
RTVSPost2010PropOp57
 70
     1
102
RTVSPropertyOp0
 70
     1
102
RTVSPropertyOp1
 70
     1
102
RTVSPropertyOp2
 70
     1
102
RTVSPropertyOp3
 70
     1
102
RTVSPropertyOp4
 70
     1
102
RTVSPropertyOp5
 70
     1
102
RTVSPropertyOp6
 70
     1
102
RTVSPropertyOp7
 70
     1
102
RTVSPropertyOp8
 70
     1
102
RTVSPropertyOp9
 70
     1
102
RTVSPropertyOp10
 70
     1
102
RTVSPropertyOp11
 70
     1
102
RTVSPropertyOp12
 70
     1
102
RTVSPropertyOp13
 70
     1
102
RTVSPropertyOp14
 70
     1
102
RTVSPropertyOp15
 70
     1
102
RTVSPropertyOp16
 70
     1
102
RTVSPropertyOp17
 70
     1
102
RTVSPropertyOp18
 70
     1
102
RTVSPropertyOp19
 70
     1
102
RTVSPropertyOp20
 70
     1
102
RTVSPropertyOp21
 70
     1
102
RTVSPropertyOp22
 70
     1
102
RTVSPropertyOp23
 70
     1
102
RTVSPropertyOp24
 70
     1
102
RTVSPropertyOp25
 70
     1
102
RTVSPropertyOp26
 70
     1
102
RTVSPropertyOp27
 70
     1
102
RTVSPropertyOp28
 70
     1
102
RTVSPropertyOp29
 70
     1
102
RTVSPropertyOp30
 70
     1
102
RTVSPropertyOp31
 70
     1
102
RTVSPropertyOp32
 70
     1
102
RTVSPropertyOp33
 70
     1
102
RTVSPropertyOp34
 70
     1
102
RTVSPropertyOp35
 70
     1
102
RTVSPropertyOp36
 70
     1
102
RTVSPropertyOp37
 70
     1
102
RTVSPropertyOp38
 70
     1
102
RTVSPropertyOp39
 70
     1
102
RTVSPropertyOp40
 70
     1
102
RTVSPropertyOp41
 70
     1
102
RTVSPropertyOp42
 70
     1
102
RTVSPropertyOp43
 70
     1
102
RTVSPropertyOp44
 70
     1
102
RTVSPropertyOp45
 70
     1
102
RTVSPropertyOp46
 70
     1
102
RTVSPropertyOp47
 70
     1
102
RTVSPropertyOp48
 70
     1
102
RTVSPropertyOp49
 70
     1
102
RTVSPropertyOp50
 70
     1
102
RTVSPropertyOp51
 70
     0
102
RTVSPropertyOp52
 70
     0
102
RTVSPropertyOp53
 70
     1
102
RTVSPropertyOp54
 70
     1
102
RTVSPropertyOp55
 70
     1
102
RTVSPropertyOp56
 70
     1
102
RTVSPropertyOp57
 70
     1
102
RTVSPropertyOp58
 70
     1
102
RTVSPropertyOp59
 70
     1
102
RTVSPropertyOp60
 70
     1
102
RTVSPropertyOp61
 70
     1
102
RTVSPropertyOp62
 70
     1
  0
XRECORD
  5
1399
102
{ACAD_REACTORS
330
1398
102
}
330
1398
100
AcDbXrecord
280
     1
102
RTVSPost2010Prop28
280
     0
102
RTVSPost2010PropOp28
 70
     1
102
RTVSPost2010Prop29
280
     1
102
RTVSPost2010PropOp29
 70
     1
102
RTVSPost2010Prop30
280
     1
102
RTVSPost2010PropOp30
 70
     1
102
RTVSPost2010Prop31
280
     0
102
RTVSPost2010PropOp31
 70
     1
102
RTVSPost2010Prop32
280
     0
102
RTVSPost2010PropOp32
 70
     1
102
RTVSPost2010Prop33
280
     0
102
RTVSPost2010PropOp33
 70
     1
102
RTVSPost2010Prop34
280
     0
102
RTVSPost2010PropOp34
 70
     1
102
RTVSPost2010Prop35
280
     0
102
RTVSPost2010PropOp35
 70
     1
102
RTVSPost2010Prop36
280
     0
102
RTVSPost2010PropOp36
 70
     1
102
RTVSPost2010Prop37
 90
       50
102
RTVSPost2010PropOp37
 70
     1
102
RTVSPost2010Prop38
140
0.0
102
RTVSPost2010PropOp38
 70
     1
102
RTVSPost2010Prop39
140
1.0
102
RTVSPost2010PropOp39
 70
     1
102
RTVSPost2010Prop40
 90
        0
102
RTVSPost2010PropOp40
 70
     1
102
RTVSPost2010Prop41ColorIndex
 90
       18
102
RTVSPost2010Prop41ColorRGB
 90
        0
102
RTVSPost2010PropOp41
 70
     1
102
RTVSPost2010Prop42
 90
       50
102
RTVSPost2010PropOp42
 70
     1
102
RTVSPost2010Prop43
 90
        3
102
RTVSPost2010PropOp43
 70
     1
102
RTVSPost2010Prop44ColorIndex
 90
        5
102
RTVSPost2010Prop44ColorRGB
 90
      255
102
RTVSPost2010PropOp44
 70
     1
102
RTVSPost2010Prop45
280
     0
102
RTVSPost2010PropOp45
 70
     1
102
RTVSPost2010Prop46
 90
       50
102
RTVSPost2010PropOp46
 70
     1
102
RTVSPost2010Prop47
 90
       50
102
RTVSPost2010PropOp47
 70
     1
102
RTVSPost2010Prop48
 90
       50
102
RTVSPost2010PropOp48
 70
     1
102
RTVSPost2010Prop49
280
     0
102
RTVSPost2010PropOp49
 70
     1
102
RTVSPost2010Prop50
 90
       50
102
RTVSPost2010PropOp50
 70
     1
102
RTVSPost2010Prop51ColorIndex
 90
      256
102
RTVSPost2010Prop51ColorRGB
 90
-16777216
102
RTVSPost2010PropOp51
 70
     0
102
RTVSPost2010Prop52
140
1.0
102
RTVSPost2010PropOp52
 70
     0
102
RTVSPost2010Prop53
 90
        2
102
RTVSPost2010PropOp53
 70
     1
102
RTVSPost2010Prop54
  1
strokes_ogs.tif
102
RTVSPost2010PropOp54
 70
     1
102
RTVSPost2010Prop55
280
     0
102
RTVSPost2010PropOp55
 70
     1
102
RTVSPost2010Prop56
140
1.0
102
RTVSPost2010PropOp56
 70
     1
102
RTVSPost2010Prop57
140
1.0
102
RTVSPost2010PropOp57
 70
     1
102
RTVSPropertyOp0
 70
     1
102
RTVSPropertyOp1
 70
     1
102
RTVSPropertyOp2
 70
     1
102
RTVSPropertyOp3
 70
     1
102
RTVSPropertyOp4
 70
     1
102
RTVSPropertyOp5
 70
     1
102
RTVSPropertyOp6
 70
     1
102
RTVSPropertyOp7
 70
     1
102
RTVSPropertyOp8
 70
     1
102
RTVSPropertyOp9
 70
     1
102
RTVSPropertyOp10
 70
     1
102
RTVSPropertyOp11
 70
     1
102
RTVSPropertyOp12
 70
     1
102
RTVSPropertyOp13
 70
     1
102
RTVSPropertyOp14
 70
     1
102
RTVSPropertyOp15
 70
     1
102
RTVSPropertyOp16
 70
     1
102
RTVSPropertyOp17
 70
     1
102
RTVSPropertyOp18
 70
     1
102
RTVSPropertyOp19
 70
     1
102
RTVSPropertyOp20
 70
     1
102
RTVSPropertyOp21
 70
     1
102
RTVSPropertyOp22
 70
     1
102
RTVSPropertyOp23
 70
     1
102
RTVSPropertyOp24
 70
     1
102
RTVSPropertyOp25
 70
     1
102
RTVSPropertyOp26
 70
     1
102
RTVSPropertyOp27
 70
     1
102
RTVSPropertyOp28
 70
     1
102
RTVSPropertyOp29
 70
     1
102
RTVSPropertyOp30
 70
     1
102
RTVSPropertyOp31
 70
     1
102
RTVSPropertyOp32
 70
     1
102
RTVSPropertyOp33
 70
     1
102
RTVSPropertyOp34
 70
     1
102
RTVSPropertyOp35
 70
     1
102
RTVSPropertyOp36
 70
     1
102
RTVSPropertyOp37
 70
     1
102
RTVSPropertyOp38
 70
     1
102
RTVSPropertyOp39
 70
     1
102
RTVSPropertyOp40
 70
     1
102
RTVSPropertyOp41
 70
     1
102
RTVSPropertyOp42
 70
     1
102
RTVSPropertyOp43
 70
     1
102
RTVSPropertyOp44
 70
     1
102
RTVSPropertyOp45
 70
     1
102
RTVSPropertyOp46
 70
     1
102
RTVSPropertyOp47
 70
     1
102
RTVSPropertyOp48
 70
     1
102
RTVSPropertyOp49
 70
     1
102
RTVSPropertyOp50
 70
     1
102
RTVSPropertyOp51
 70
     0
102
RTVSPropertyOp52
 70
     0
102
RTVSPropertyOp53
 70
     1
102
RTVSPropertyOp54
 70
     1
102
RTVSPropertyOp55
 70
     1
102
RTVSPropertyOp56
 70
     1
102
RTVSPropertyOp57
 70
     1
102
RTVSPropertyOp58
 70
     1
102
RTVSPropertyOp59
 70
     1
102
RTVSPropertyOp60
 70
     1
102
RTVSPropertyOp61
 70
     1
102
RTVSPropertyOp62
 70
     1
  0
XRECORD
  5
139B
102
{ACAD_REACTORS
330
139A
102
}
330
139A
100
AcDbXrecord
280
     1
102
RTVSPost2010Prop28
280
     0
102
RTVSPost2010PropOp28
 70
     1
102
RTVSPost2010Prop29
280
     1
102
RTVSPost2010PropOp29
 70
     1
102
RTVSPost2010Prop30
280
     1
102
RTVSPost2010PropOp30
 70
     1
102
RTVSPost2010Prop31
280
     0
102
RTVSPost2010PropOp31
 70
     1
102
RTVSPost2010Prop32
280
     0
102
RTVSPost2010PropOp32
 70
     1
102
RTVSPost2010Prop33
280
     0
102
RTVSPost2010PropOp33
 70
     1
102
RTVSPost2010Prop34
280
     0
102
RTVSPost2010PropOp34
 70
     1
102
RTVSPost2010Prop35
280
     0
102
RTVSPost2010PropOp35
 70
     1
102
RTVSPost2010Prop36
280
     0
102
RTVSPost2010PropOp36
 70
     1
102
RTVSPost2010Prop37
 90
       50
102
RTVSPost2010PropOp37
 70
     1
102
RTVSPost2010Prop38
140
0.0
102
RTVSPost2010PropOp38
 70
     1
102
RTVSPost2010Prop39
140
1.0
102
RTVSPost2010PropOp39
 70
     1
102
RTVSPost2010Prop40
 90
        0
102
RTVSPost2010PropOp40
 70
     1
102
RTVSPost2010Prop41ColorIndex
 90
       18
102
RTVSPost2010Prop41ColorRGB
 90
        0
102
RTVSPost2010PropOp41
 70
     1
102
RTVSPost2010Prop42
 90
       50
102
RTVSPost2010PropOp42
 70
     1
102
RTVSPost2010Prop43
 90
        3
102
RTVSPost2010PropOp43
 70
     1
102
RTVSPost2010Prop44ColorIndex
 90
        5
102
RTVSPost2010Prop44ColorRGB
 90
      255
102
RTVSPost2010PropOp44
 70
     1
102
RTVSPost2010Prop45
280
     0
102
RTVSPost2010PropOp45
 70
     1
102
RTVSPost2010Prop46
 90
       50
102
RTVSPost2010PropOp46
 70
     1
102
RTVSPost2010Prop47
 90
       50
102
RTVSPost2010PropOp47
 70
     1
102
RTVSPost2010Prop48
 90
       50
102
RTVSPost2010PropOp48
 70
     1
102
RTVSPost2010Prop49
280
     0
102
RTVSPost2010PropOp49
 70
     1
102
RTVSPost2010Prop50
 90
       50
102
RTVSPost2010PropOp50
 70
     1
102
RTVSPost2010Prop51ColorIndex
 90
      256
102
RTVSPost2010Prop51ColorRGB
 90
-16777216
102
RTVSPost2010PropOp51
 70
     0
102
RTVSPost2010Prop52
140
1.0
102
RTVSPost2010PropOp52
 70
     0
102
RTVSPost2010Prop53
 90
        2
102
RTVSPost2010PropOp53
 70
     1
102
RTVSPost2010Prop54
  1
strokes_ogs.tif
102
RTVSPost2010PropOp54
 70
     1
102
RTVSPost2010Prop55
280
     0
102
RTVSPost2010PropOp55
 70
     1
102
RTVSPost2010Prop56
140
1.0
102
RTVSPost2010PropOp56
 70
     1
102
RTVSPost2010Prop57
140
1.0
102
RTVSPost2010PropOp57
 70
     1
102
RTVSPropertyOp0
 70
     1
102
RTVSPropertyOp1
 70
     1
102
RTVSPropertyOp2
 70
     1
102
RTVSPropertyOp3
 70
     1
102
RTVSPropertyOp4
 70
     1
102
RTVSPropertyOp5
 70
     1
102
RTVSPropertyOp6
 70
     1
102
RTVSPropertyOp7
 70
     1
102
RTVSPropertyOp8
 70
     1
102
RTVSPropertyOp9
 70
     1
102
RTVSPropertyOp10
 70
     1
102
RTVSPropertyOp11
 70
     1
102
RTVSPropertyOp12
 70
     1
102
RTVSPropertyOp13
 70
     1
102
RTVSPropertyOp14
 70
     1
102
RTVSPropertyOp15
 70
     1
102
RTVSPropertyOp16
 70
     1
102
RTVSPropertyOp17
 70
     1
102
RTVSPropertyOp18
 70
     1
102
RTVSPropertyOp19
 70
     1
102
RTVSPropertyOp20
 70
     1
102
RTVSPropertyOp21
 70
     1
102
RTVSPropertyOp22
 70
     1
102
RTVSPropertyOp23
 70
     1
102
RTVSPropertyOp24
 70
     1
102
RTVSPropertyOp25
 70
     1
102
RTVSPropertyOp26
 70
     1
102
RTVSPropertyOp27
 70
     1
102
RTVSPropertyOp28
 70
     1
102
RTVSPropertyOp29
 70
     1
102
RTVSPropertyOp30
 70
     1
102
RTVSPropertyOp31
 70
     1
102
RTVSPropertyOp32
 70
     1
102
RTVSPropertyOp33
 70
     1
102
RTVSPropertyOp34
 70
     1
102
RTVSPropertyOp35
 70
     1
102
RTVSPropertyOp36
 70
     1
102
RTVSPropertyOp37
 70
     1
102
RTVSPropertyOp38
 70
     1
102
RTVSPropertyOp39
 70
     1
102
RTVSPropertyOp40
 70
     1
102
RTVSPropertyOp41
 70
     1
102
RTVSPropertyOp42
 70
     1
102
RTVSPropertyOp43
 70
     1
102
RTVSPropertyOp44
 70
     1
102
RTVSPropertyOp45
 70
     1
102
RTVSPropertyOp46
 70
     1
102
RTVSPropertyOp47
 70
     1
102
RTVSPropertyOp48
 70
     1
102
RTVSPropertyOp49
 70
     1
102
RTVSPropertyOp50
 70
     1
102
RTVSPropertyOp51
 70
     0
102
RTVSPropertyOp52
 70
     0
102
RTVSPropertyOp53
 70
     1
102
RTVSPropertyOp54
 70
     1
102
RTVSPropertyOp55
 70
     1
102
RTVSPropertyOp56
 70
     1
102
RTVSPropertyOp57
 70
     1
102
RTVSPropertyOp58
 70
     1
102
RTVSPropertyOp59
 70
     1
102
RTVSPropertyOp60
 70
     1
102
RTVSPropertyOp61
 70
     1
102
RTVSPropertyOp62
 70
     1
  0
XRECORD
  5
13A3
102
{ACAD_REACTORS
330
13A2
102
}
330
13A2
100
AcDbXrecord
280
     1
102
RTVSPost2010Prop28
280
     0
102
RTVSPost2010PropOp28
 70
     1
102
RTVSPost2010Prop29
280
     1
102
RTVSPost2010PropOp29
 70
     1
102
RTVSPost2010Prop30
280
     1
102
RTVSPost2010PropOp30
 70
     1
102
RTVSPost2010Prop31
280
     0
102
RTVSPost2010PropOp31
 70
     1
102
RTVSPost2010Prop32
280
     0
102
RTVSPost2010PropOp32
 70
     1
102
RTVSPost2010Prop33
280
     0
102
RTVSPost2010PropOp33
 70
     1
102
RTVSPost2010Prop34
280
     0
102
RTVSPost2010PropOp34
 70
     1
102
RTVSPost2010Prop35
280
     0
102
RTVSPost2010PropOp35
 70
     1
102
RTVSPost2010Prop36
280
     0
102
RTVSPost2010PropOp36
 70
     1
102
RTVSPost2010Prop37
 90
       50
102
RTVSPost2010PropOp37
 70
     1
102
RTVSPost2010Prop38
140
0.0
102
RTVSPost2010PropOp38
 70
     1
102
RTVSPost2010Prop39
140
1.0
102
RTVSPost2010PropOp39
 70
     1
102
RTVSPost2010Prop40
 90
        0
102
RTVSPost2010PropOp40
 70
     1
102
RTVSPost2010Prop41ColorIndex
 90
       18
102
RTVSPost2010Prop41ColorRGB
 90
        0
102
RTVSPost2010PropOp41
 70
     1
102
RTVSPost2010Prop42
 90
       50
102
RTVSPost2010PropOp42
 70
     1
102
RTVSPost2010Prop43
 90
        3
102
RTVSPost2010PropOp43
 70
     1
102
RTVSPost2010Prop44ColorIndex
 90
        5
102
RTVSPost2010Prop44ColorRGB
 90
      255
102
RTVSPost2010PropOp44
 70
     1
102
RTVSPost2010Prop45
280
     0
102
RTVSPost2010PropOp45
 70
     1
102
RTVSPost2010Prop46
 90
       50
102
RTVSPost2010PropOp46
 70
     1
102
RTVSPost2010Prop47
 90
       50
102
RTVSPost2010PropOp47
 70
     1
102
RTVSPost2010Prop48
 90
       50
102
RTVSPost2010PropOp48
 70
     1
102
RTVSPost2010Prop49
280
     0
102
RTVSPost2010PropOp49
 70
     1
102
RTVSPost2010Prop50
 90
       50
102
RTVSPost2010PropOp50
 70
     1
102
RTVSPost2010Prop51ColorIndex
 90
      256
102
RTVSPost2010Prop51ColorRGB
 90
-16777216
102
RTVSPost2010PropOp51
 70
     0
102
RTVSPost2010Prop52
140
1.0
102
RTVSPost2010PropOp52
 70
     0
102
RTVSPost2010Prop53
 90
        2
102
RTVSPost2010PropOp53
 70
     1
102
RTVSPost2010Prop54
  1
strokes_ogs.tif
102
RTVSPost2010PropOp54
 70
     1
102
RTVSPost2010Prop55
280
     0
102
RTVSPost2010PropOp55
 70
     1
102
RTVSPost2010Prop56
140
1.0
102
RTVSPost2010PropOp56
 70
     1
102
RTVSPost2010Prop57
140
1.0
102
RTVSPost2010PropOp57
 70
     1
102
RTVSPropertyOp0
 70
     1
102
RTVSPropertyOp1
 70
     1
102
RTVSPropertyOp2
 70
     1
102
RTVSPropertyOp3
 70
     1
102
RTVSPropertyOp4
 70
     1
102
RTVSPropertyOp5
 70
     1
102
RTVSPropertyOp6
 70
     1
102
RTVSPropertyOp7
 70
     1
102
RTVSPropertyOp8
 70
     1
102
RTVSPropertyOp9
 70
     1
102
RTVSPropertyOp10
 70
     1
102
RTVSPropertyOp11
 70
     1
102
RTVSPropertyOp12
 70
     1
102
RTVSPropertyOp13
 70
     1
102
RTVSPropertyOp14
 70
     1
102
RTVSPropertyOp15
 70
     1
102
RTVSPropertyOp16
 70
     1
102
RTVSPropertyOp17
 70
     1
102
RTVSPropertyOp18
 70
     1
102
RTVSPropertyOp19
 70
     1
102
RTVSPropertyOp20
 70
     1
102
RTVSPropertyOp21
 70
     1
102
RTVSPropertyOp22
 70
     1
102
RTVSPropertyOp23
 70
     1
102
RTVSPropertyOp24
 70
     1
102
RTVSPropertyOp25
 70
     1
102
RTVSPropertyOp26
 70
     1
102
RTVSPropertyOp27
 70
     1
102
RTVSPropertyOp28
 70
     1
102
RTVSPropertyOp29
 70
     1
102
RTVSPropertyOp30
 70
     1
102
RTVSPropertyOp31
 70
     1
102
RTVSPropertyOp32
 70
     1
102
RTVSPropertyOp33
 70
     1
102
RTVSPropertyOp34
 70
     1
102
RTVSPropertyOp35
 70
     1
102
RTVSPropertyOp36
 70
     1
102
RTVSPropertyOp37
 70
     1
102
RTVSPropertyOp38
 70
     1
102
RTVSPropertyOp39
 70
     1
102
RTVSPropertyOp40
 70
     1
102
RTVSPropertyOp41
 70
     1
102
RTVSPropertyOp42
 70
     1
102
RTVSPropertyOp43
 70
     1
102
RTVSPropertyOp44
 70
     1
102
RTVSPropertyOp45
 70
     1
102
RTVSPropertyOp46
 70
     1
102
RTVSPropertyOp47
 70
     1
102
RTVSPropertyOp48
 70
     1
102
RTVSPropertyOp49
 70
     1
102
RTVSPropertyOp50
 70
     1
102
RTVSPropertyOp51
 70
     0
102
RTVSPropertyOp52
 70
     0
102
RTVSPropertyOp53
 70
     1
102
RTVSPropertyOp54
 70
     1
102
RTVSPropertyOp55
 70
     1
102
RTVSPropertyOp56
 70
     1
102
RTVSPropertyOp57
 70
     1
102
RTVSPropertyOp58
 70
     1
102
RTVSPropertyOp59
 70
     1
102
RTVSPropertyOp60
 70
     1
102
RTVSPropertyOp61
 70
     1
102
RTVSPropertyOp62
 70
     1
  0
XRECORD
  5
13BF
102
{ACAD_REACTORS
330
13BE
102
}
330
13BE
100
AcDbXrecord
280
     1
102
RTVSPost2010Prop28
280
     0
102
RTVSPost2010PropOp28
 70
     0
102
RTVSPost2010Prop29
280
     1
102
RTVSPost2010PropOp29
 70
     0
102
RTVSPost2010Prop30
280
     1
102
RTVSPost2010PropOp30
 70
     0
102
RTVSPost2010Prop31
280
     0
102
RTVSPost2010PropOp31
 70
     0
102
RTVSPost2010Prop32
280
     0
102
RTVSPost2010PropOp32
 70
     0
102
RTVSPost2010Prop33
280
     0
102
RTVSPost2010PropOp33
 70
     0
102
RTVSPost2010Prop34
280
     0
102
RTVSPost2010PropOp34
 70
     0
102
RTVSPost2010Prop35
280
     0
102
RTVSPost2010PropOp35
 70
     0
102
RTVSPost2010Prop36
280
     0
102
RTVSPost2010PropOp36
 70
     0
102
RTVSPost2010Prop37
 90
       50
102
RTVSPost2010PropOp37
 70
     0
102
RTVSPost2010Prop38
140
0.0
102
RTVSPost2010PropOp38
 70
     0
102
RTVSPost2010Prop39
140
1.0
102
RTVSPost2010PropOp39
 70
     0
102
RTVSPost2010Prop40
 90
        0
102
RTVSPost2010PropOp40
 70
     0
102
RTVSPost2010Prop41ColorIndex
 90
       18
102
RTVSPost2010Prop41ColorRGB
 90
        0
102
RTVSPost2010PropOp41
 70
     0
102
RTVSPost2010Prop42
 90
       50
102
RTVSPost2010PropOp42
 70
     0
102
RTVSPost2010Prop43
 90
        3
102
RTVSPost2010PropOp43
 70
     0
102
RTVSPost2010Prop44ColorIndex
 90
        5
102
RTVSPost2010Prop44ColorRGB
 90
      255
102
RTVSPost2010PropOp44
 70
     0
102
RTVSPost2010Prop45
280
     0
102
RTVSPost2010PropOp45
 70
     0
102
RTVSPost2010Prop46
 90
       50
102
RTVSPost2010PropOp46
 70
     0
102
RTVSPost2010Prop47
 90
       50
102
RTVSPost2010PropOp47
 70
     0
102
RTVSPost2010Prop48
 90
       50
102
RTVSPost2010PropOp48
 70
     0
102
RTVSPost2010Prop49
280
     0
102
RTVSPost2010PropOp49
 70
     0
102
RTVSPost2010Prop50
 90
       50
102
RTVSPost2010PropOp50
 70
     0
102
RTVSPost2010Prop51ColorIndex
 90
      256
102
RTVSPost2010Prop51ColorRGB
 90
-16777216
102
RTVSPost2010PropOp51
 70
     0
102
RTVSPost2010Prop52
140
1.0
102
RTVSPost2010PropOp52
 70
     0
102
RTVSPost2010Prop53
 90
        2
102
RTVSPost2010PropOp53
 70
     0
102
RTVSPost2010Prop54
  1
strokes_ogs.tif
102
RTVSPost2010PropOp54
 70
     0
102
RTVSPost2010Prop55
280
     0
102
RTVSPost2010PropOp55
 70
     0
102
RTVSPost2010Prop56
140
1.0
102
RTVSPost2010PropOp56
 70
     0
102
RTVSPost2010Prop57
140
1.0
102
RTVSPost2010PropOp57
 70
     0
102
RTVSPropertyOp0
 70
     0
102
RTVSPropertyOp1
 70
     0
102
RTVSPropertyOp2
 70
     0
102
RTVSPropertyOp3
 70
     0
102
RTVSPropertyOp4
 70
     0
102
RTVSPropertyOp5
 70
     0
102
RTVSPropertyOp6
 70
     0
102
RTVSPropertyOp7
 70
     0
102
RTVSPropertyOp8
 70
     0
102
RTVSPropertyOp9
 70
     0
102
RTVSPropertyOp10
 70
     0
102
RTVSPropertyOp11
 70
     0
102
RTVSPropertyOp12
 70
     0
102
RTVSPropertyOp13
 70
     0
102
RTVSPropertyOp14
 70
     2
102
RTVSPropertyOp15
 70
     0
102
RTVSPropertyOp16
 70
     0
102
RTVSPropertyOp17
 70
     0
102
RTVSPropertyOp18
 70
     0
102
RTVSPropertyOp19
 70
     0
102
RTVSPropertyOp20
 70
     0
102
RTVSPropertyOp21
 70
     0
102
RTVSPropertyOp22
 70
     0
102
RTVSPropertyOp23
 70
     0
102
RTVSPropertyOp24
 70
     0
102
RTVSPropertyOp25
 70
     0
102
RTVSPropertyOp26
 70
     0
102
RTVSPropertyOp27
 70
     0
102
RTVSPropertyOp28
 70
     0
102
RTVSPropertyOp29
 70
     0
102
RTVSPropertyOp30
 70
     0
102
RTVSPropertyOp31
 70
     0
102
RTVSPropertyOp32
 70
     0
102
RTVSPropertyOp33
 70
     0
102
RTVSPropertyOp34
 70
     0
102
RTVSPropertyOp35
 70
     0
102
RTVSPropertyOp36
 70
     0
102
RTVSPropertyOp37
 70
     0
102
RTVSPropertyOp38
 70
     0
102
RTVSPropertyOp39
 70
     0
102
RTVSPropertyOp40
 70
     0
102
RTVSPropertyOp41
 70
     0
102
RTVSPropertyOp42
 70
     0
102
RTVSPropertyOp43
 70
     0
102
RTVSPropertyOp44
 70
     0
102
RTVSPropertyOp45
 70
     0
102
RTVSPropertyOp46
 70
     0
102
RTVSPropertyOp47
 70
     0
102
RTVSPropertyOp48
 70
     0
102
RTVSPropertyOp49
 70
     0
102
RTVSPropertyOp50
 70
     0
102
RTVSPropertyOp51
 70
     0
102
RTVSPropertyOp52
 70
     0
102
RTVSPropertyOp53
 70
     0
102
RTVSPropertyOp54
 70
     0
102
RTVSPropertyOp55
 70
     0
102
RTVSPropertyOp56
 70
     0
102
RTVSPropertyOp57
 70
     0
102
RTVSPropertyOp58
 70
     1
102
RTVSPropertyOp59
 70
     1
102
RTVSPropertyOp60
 70
     1
102
RTVSPropertyOp61
 70
     1
102
RTVSPropertyOp62
 70
     1
  0
XRECORD
  5
13AF
102
{ACAD_REACTORS
330
13AE
102
}
330
13AE
100
AcDbXrecord
280
     1
102
RTVSPost2010Prop28
280
     0
102
RTVSPost2010PropOp28
 70
     1
102
RTVSPost2010Prop29
280
     1
102
RTVSPost2010PropOp29
 70
     1
102
RTVSPost2010Prop30
280
     1
102
RTVSPost2010PropOp30
 70
     1
102
RTVSPost2010Prop31
280
     0
102
RTVSPost2010PropOp31
 70
     1
102
RTVSPost2010Prop32
280
     0
102
RTVSPost2010PropOp32
 70
     1
102
RTVSPost2010Prop33
280
     0
102
RTVSPost2010PropOp33
 70
     1
102
RTVSPost2010Prop34
280
     0
102
RTVSPost2010PropOp34
 70
     1
102
RTVSPost2010Prop35
280
     0
102
RTVSPost2010PropOp35
 70
     1
102
RTVSPost2010Prop36
280
     0
102
RTVSPost2010PropOp36
 70
     1
102
RTVSPost2010Prop37
 90
       50
102
RTVSPost2010PropOp37
 70
     1
102
RTVSPost2010Prop38
140
0.0
102
RTVSPost2010PropOp38
 70
     1
102
RTVSPost2010Prop39
140
1.0
102
RTVSPost2010PropOp39
 70
     1
102
RTVSPost2010Prop40
 90
        0
102
RTVSPost2010PropOp40
 70
     1
102
RTVSPost2010Prop41ColorIndex
 90
       18
102
RTVSPost2010Prop41ColorRGB
 90
        0
102
RTVSPost2010PropOp41
 70
     1
102
RTVSPost2010Prop42
 90
       50
102
RTVSPost2010PropOp42
 70
     1
102
RTVSPost2010Prop43
 90
        3
102
RTVSPost2010PropOp43
 70
     1
102
RTVSPost2010Prop44ColorIndex
 90
        5
102
RTVSPost2010Prop44ColorRGB
 90
      255
102
RTVSPost2010PropOp44
 70
     1
102
RTVSPost2010Prop45
280
     0
102
RTVSPost2010PropOp45
 70
     1
102
RTVSPost2010Prop46
 90
       50
102
RTVSPost2010PropOp46
 70
     1
102
RTVSPost2010Prop47
 90
       50
102
RTVSPost2010PropOp47
 70
     1
102
RTVSPost2010Prop48
 90
       50
102
RTVSPost2010PropOp48
 70
     1
102
RTVSPost2010Prop49
280
     0
102
RTVSPost2010PropOp49
 70
     1
102
RTVSPost2010Prop50
 90
       50
102
RTVSPost2010PropOp50
 70
     1
102
RTVSPost2010Prop51ColorIndex
 90
      256
102
RTVSPost2010Prop51ColorRGB
 90
-16777216
102
RTVSPost2010PropOp51
 70
     0
102
RTVSPost2010Prop52
140
1.0
102
RTVSPost2010PropOp52
 70
     0
102
RTVSPost2010Prop53
 90
        2
102
RTVSPost2010PropOp53
 70
     1
102
RTVSPost2010Prop54
  1
strokes_ogs.tif
102
RTVSPost2010PropOp54
 70
     1
102
RTVSPost2010Prop55
280
     0
102
RTVSPost2010PropOp55
 70
     1
102
RTVSPost2010Prop56
140
1.0
102
RTVSPost2010PropOp56
 70
     1
102
RTVSPost2010Prop57
140
1.0
102
RTVSPost2010PropOp57
 70
     1
102
RTVSPropertyOp0
 70
     1
102
RTVSPropertyOp1
 70
     1
102
RTVSPropertyOp2
 70
     1
102
RTVSPropertyOp3
 70
     1
102
RTVSPropertyOp4
 70
     1
102
RTVSPropertyOp5
 70
     1
102
RTVSPropertyOp6
 70
     1
102
RTVSPropertyOp7
 70
     1
102
RTVSPropertyOp8
 70
     1
102
RTVSPropertyOp9
 70
     1
102
RTVSPropertyOp10
 70
     1
102
RTVSPropertyOp11
 70
     1
102
RTVSPropertyOp12
 70
     1
102
RTVSPropertyOp13
 70
     1
102
RTVSPropertyOp14
 70
     1
102
RTVSPropertyOp15
 70
     1
102
RTVSPropertyOp16
 70
     1
102
RTVSPropertyOp17
 70
     1
102
RTVSPropertyOp18
 70
     1
102
RTVSPropertyOp19
 70
     1
102
RTVSPropertyOp20
 70
     1
102
RTVSPropertyOp21
 70
     1
102
RTVSPropertyOp22
 70
     1
102
RTVSPropertyOp23
 70
     1
102
RTVSPropertyOp24
 70
     1
102
RTVSPropertyOp25
 70
     1
102
RTVSPropertyOp26
 70
     1
102
RTVSPropertyOp27
 70
     1
102
RTVSPropertyOp28
 70
     1
102
RTVSPropertyOp29
 70
     1
102
RTVSPropertyOp30
 70
     1
102
RTVSPropertyOp31
 70
     1
102
RTVSPropertyOp32
 70
     1
102
RTVSPropertyOp33
 70
     1
102
RTVSPropertyOp34
 70
     1
102
RTVSPropertyOp35
 70
     1
102
RTVSPropertyOp36
 70
     1
102
RTVSPropertyOp37
 70
     1
102
RTVSPropertyOp38
 70
     1
102
RTVSPropertyOp39
 70
     1
102
RTVSPropertyOp40
 70
     1
102
RTVSPropertyOp41
 70
     1
102
RTVSPropertyOp42
 70
     1
102
RTVSPropertyOp43
 70
     1
102
RTVSPropertyOp44
 70
     1
102
RTVSPropertyOp45
 70
     1
102
RTVSPropertyOp46
 70
     1
102
RTVSPropertyOp47
 70
     1
102
RTVSPropertyOp48
 70
     1
102
RTVSPropertyOp49
 70
     1
102
RTVSPropertyOp50
 70
     1
102
RTVSPropertyOp51
 70
     0
102
RTVSPropertyOp52
 70
     0
102
RTVSPropertyOp53
 70
     1
102
RTVSPropertyOp54
 70
     1
102
RTVSPropertyOp55
 70
     1
102
RTVSPropertyOp56
 70
     1
102
RTVSPropertyOp57
 70
     1
102
RTVSPropertyOp58
 70
     1
102
RTVSPropertyOp59
 70
     1
102
RTVSPropertyOp60
 70
     1
102
RTVSPropertyOp61
 70
     1
102
RTVSPropertyOp62
 70
     1
  0
XRECORD
  5
13C1
102
{ACAD_REACTORS
330
13C0
102
}
330
13C0
100
AcDbXrecord
280
     1
102
RTVSPost2010Prop28
280
     0
102
RTVSPost2010PropOp28
 70
     0
102
RTVSPost2010Prop29
280
     1
102
RTVSPost2010PropOp29
 70
     0
102
RTVSPost2010Prop30
280
     1
102
RTVSPost2010PropOp30
 70
     0
102
RTVSPost2010Prop31
280
     0
102
RTVSPost2010PropOp31
 70
     0
102
RTVSPost2010Prop32
280
     0
102
RTVSPost2010PropOp32
 70
     0
102
RTVSPost2010Prop33
280
     0
102
RTVSPost2010PropOp33
 70
     0
102
RTVSPost2010Prop34
280
     0
102
RTVSPost2010PropOp34
 70
     0
102
RTVSPost2010Prop35
280
     0
102
RTVSPost2010PropOp35
 70
     0
102
RTVSPost2010Prop36
280
     0
102
RTVSPost2010PropOp36
 70
     0
102
RTVSPost2010Prop37
 90
       50
102
RTVSPost2010PropOp37
 70
     0
102
RTVSPost2010Prop38
140
0.0
102
RTVSPost2010PropOp38
 70
     0
102
RTVSPost2010Prop39
140
1.0
102
RTVSPost2010PropOp39
 70
     0
102
RTVSPost2010Prop40
 90
        0
102
RTVSPost2010PropOp40
 70
     0
102
RTVSPost2010Prop41ColorIndex
 90
       18
102
RTVSPost2010Prop41ColorRGB
 90
        0
102
RTVSPost2010PropOp41
 70
     0
102
RTVSPost2010Prop42
 90
       50
102
RTVSPost2010PropOp42
 70
     0
102
RTVSPost2010Prop43
 90
        3
102
RTVSPost2010PropOp43
 70
     0
102
RTVSPost2010Prop44ColorIndex
 90
        5
102
RTVSPost2010Prop44ColorRGB
 90
      255
102
RTVSPost2010PropOp44
 70
     0
102
RTVSPost2010Prop45
280
     0
102
RTVSPost2010PropOp45
 70
     0
102
RTVSPost2010Prop46
 90
       50
102
RTVSPost2010PropOp46
 70
     0
102
RTVSPost2010Prop47
 90
       50
102
RTVSPost2010PropOp47
 70
     0
102
RTVSPost2010Prop48
 90
       50
102
RTVSPost2010PropOp48
 70
     0
102
RTVSPost2010Prop49
280
     0
102
RTVSPost2010PropOp49
 70
     0
102
RTVSPost2010Prop50
 90
       50
102
RTVSPost2010PropOp50
 70
     0
102
RTVSPost2010Prop51ColorIndex
 90
      256
102
RTVSPost2010Prop51ColorRGB
 90
-16777216
102
RTVSPost2010PropOp51
 70
     0
102
RTVSPost2010Prop52
140
1.0
102
RTVSPost2010PropOp52
 70
     0
102
RTVSPost2010Prop53
 90
        2
102
RTVSPost2010PropOp53
 70
     0
102
RTVSPost2010Prop54
  1
strokes_ogs.tif
102
RTVSPost2010PropOp54
 70
     0
102
RTVSPost2010Prop55
280
     0
102
RTVSPost2010PropOp55
 70
     0
102
RTVSPost2010Prop56
140
1.0
102
RTVSPost2010PropOp56
 70
     0
102
RTVSPost2010Prop57
140
1.0
102
RTVSPost2010PropOp57
 70
     0
102
RTVSPropertyOp0
 70
     0
102
RTVSPropertyOp1
 70
     0
102
RTVSPropertyOp2
 70
     0
102
RTVSPropertyOp3
 70
     0
102
RTVSPropertyOp4
 70
     0
102
RTVSPropertyOp5
 70
     0
102
RTVSPropertyOp6
 70
     0
102
RTVSPropertyOp7
 70
     0
102
RTVSPropertyOp8
 70
     0
102
RTVSPropertyOp9
 70
     0
102
RTVSPropertyOp10
 70
     0
102
RTVSPropertyOp11
 70
     0
102
RTVSPropertyOp12
 70
     0
102
RTVSPropertyOp13
 70
     0
102
RTVSPropertyOp14
 70
     2
102
RTVSPropertyOp15
 70
     0
102
RTVSPropertyOp16
 70
     0
102
RTVSPropertyOp17
 70
     0
102
RTVSPropertyOp18
 70
     0
102
RTVSPropertyOp19
 70
     0
102
RTVSPropertyOp20
 70
     0
102
RTVSPropertyOp21
 70
     0
102
RTVSPropertyOp22
 70
     0
102
RTVSPropertyOp23
 70
     0
102
RTVSPropertyOp24
 70
     0
102
RTVSPropertyOp25
 70
     0
102
RTVSPropertyOp26
 70
     0
102
RTVSPropertyOp27
 70
     0
102
RTVSPropertyOp28
 70
     0
102
RTVSPropertyOp29
 70
     0
102
RTVSPropertyOp30
 70
     0
102
RTVSPropertyOp31
 70
     0
102
RTVSPropertyOp32
 70
     0
102
RTVSPropertyOp33
 70
     0
102
RTVSPropertyOp34
 70
     0
102
RTVSPropertyOp35
 70
     0
102
RTVSPropertyOp36
 70
     0
102
RTVSPropertyOp37
 70
     0
102
RTVSPropertyOp38
 70
     0
102
RTVSPropertyOp39
 70
     0
102
RTVSPropertyOp40
 70
     0
102
RTVSPropertyOp41
 70
     0
102
RTVSPropertyOp42
 70
     0
102
RTVSPropertyOp43
 70
     0
102
RTVSPropertyOp44
 70
     0
102
RTVSPropertyOp45
 70
     0
102
RTVSPropertyOp46
 70
     0
102
RTVSPropertyOp47
 70
     0
102
RTVSPropertyOp48
 70
     0
102
RTVSPropertyOp49
 70
     0
102
RTVSPropertyOp50
 70
     0
102
RTVSPropertyOp51
 70
     0
102
RTVSPropertyOp52
 70
     0
102
RTVSPropertyOp53
 70
     0
102
RTVSPropertyOp54
 70
     0
102
RTVSPropertyOp55
 70
     0
102
RTVSPropertyOp56
 70
     0
102
RTVSPropertyOp57
 70
     0
102
RTVSPropertyOp58
 70
     1
102
RTVSPropertyOp59
 70
     1
102
RTVSPropertyOp60
 70
     1
102
RTVSPropertyOp61
 70
     1
102
RTVSPropertyOp62
 70
     1
  0
XRECORD
  5
13A7
102
{ACAD_REACTORS
330
13A6
102
}
330
13A6
100
AcDbXrecord
280
     1
102
RTVSPost2010Prop28
280
     0
102
RTVSPost2010PropOp28
 70
     1
102
RTVSPost2010Prop29
280
     1
102
RTVSPost2010PropOp29
 70
     1
102
RTVSPost2010Prop30
280
     1
102
RTVSPost2010PropOp30
 70
     1
102
RTVSPost2010Prop31
280
     0
102
RTVSPost2010PropOp31
 70
     1
102
RTVSPost2010Prop32
280
     0
102
RTVSPost2010PropOp32
 70
     1
102
RTVSPost2010Prop33
280
     0
102
RTVSPost2010PropOp33
 70
     1
102
RTVSPost2010Prop34
280
     0
102
RTVSPost2010PropOp34
 70
     1
102
RTVSPost2010Prop35
280
     0
102
RTVSPost2010PropOp35
 70
     1
102
RTVSPost2010Prop36
280
     0
102
RTVSPost2010PropOp36
 70
     1
102
RTVSPost2010Prop37
 90
       50
102
RTVSPost2010PropOp37
 70
     1
102
RTVSPost2010Prop38
140
0.0
102
RTVSPost2010PropOp38
 70
     1
102
RTVSPost2010Prop39
140
1.0
102
RTVSPost2010PropOp39
 70
     1
102
RTVSPost2010Prop40
 90
        0
102
RTVSPost2010PropOp40
 70
     1
102
RTVSPost2010Prop41ColorIndex
 90
       18
102
RTVSPost2010Prop41ColorRGB
 90
        0
102
RTVSPost2010PropOp41
 70
     1
102
RTVSPost2010Prop42
 90
       50
102
RTVSPost2010PropOp42
 70
     1
102
RTVSPost2010Prop43
 90
        3
102
RTVSPost2010PropOp43
 70
     1
102
RTVSPost2010Prop44ColorIndex
 90
        5
102
RTVSPost2010Prop44ColorRGB
 90
      255
102
RTVSPost2010PropOp44
 70
     1
102
RTVSPost2010Prop45
280
     0
102
RTVSPost2010PropOp45
 70
     1
102
RTVSPost2010Prop46
 90
       50
102
RTVSPost2010PropOp46
 70
     1
102
RTVSPost2010Prop47
 90
       50
102
RTVSPost2010PropOp47
 70
     1
102
RTVSPost2010Prop48
 90
       50
102
RTVSPost2010PropOp48
 70
     1
102
RTVSPost2010Prop49
280
     0
102
RTVSPost2010PropOp49
 70
     1
102
RTVSPost2010Prop50
 90
       50
102
RTVSPost2010PropOp50
 70
     1
102
RTVSPost2010Prop51ColorIndex
 90
      256
102
RTVSPost2010Prop51ColorRGB
 90
-16777216
102
RTVSPost2010PropOp51
 70
     0
102
RTVSPost2010Prop52
140
1.0
102
RTVSPost2010PropOp52
 70
     0
102
RTVSPost2010Prop53
 90
        2
102
RTVSPost2010PropOp53
 70
     1
102
RTVSPost2010Prop54
  1
strokes_ogs.tif
102
RTVSPost2010PropOp54
 70
     1
102
RTVSPost2010Prop55
280
     0
102
RTVSPost2010PropOp55
 70
     1
102
RTVSPost2010Prop56
140
1.0
102
RTVSPost2010PropOp56
 70
     1
102
RTVSPost2010Prop57
140
1.0
102
RTVSPost2010PropOp57
 70
     1
102
RTVSPropertyOp0
 70
     1
102
RTVSPropertyOp1
 70
     1
102
RTVSPropertyOp2
 70
     1
102
RTVSPropertyOp3
 70
     1
102
RTVSPropertyOp4
 70
     1
102
RTVSPropertyOp5
 70
     1
102
RTVSPropertyOp6
 70
     1
102
RTVSPropertyOp7
 70
     1
102
RTVSPropertyOp8
 70
     1
102
RTVSPropertyOp9
 70
     1
102
RTVSPropertyOp10
 70
     1
102
RTVSPropertyOp11
 70
     1
102
RTVSPropertyOp12
 70
     1
102
RTVSPropertyOp13
 70
     1
102
RTVSPropertyOp14
 70
     1
102
RTVSPropertyOp15
 70
     1
102
RTVSPropertyOp16
 70
     1
102
RTVSPropertyOp17
 70
     1
102
RTVSPropertyOp18
 70
     1
102
RTVSPropertyOp19
 70
     1
102
RTVSPropertyOp20
 70
     1
102
RTVSPropertyOp21
 70
     1
102
RTVSPropertyOp22
 70
     1
102
RTVSPropertyOp23
 70
     1
102
RTVSPropertyOp24
 70
     1
102
RTVSPropertyOp25
 70
     1
102
RTVSPropertyOp26
 70
     1
102
RTVSPropertyOp27
 70
     1
102
RTVSPropertyOp28
 70
     1
102
RTVSPropertyOp29
 70
     1
102
RTVSPropertyOp30
 70
     1
102
RTVSPropertyOp31
 70
     1
102
RTVSPropertyOp32
 70
     1
102
RTVSPropertyOp33
 70
     1
102
RTVSPropertyOp34
 70
     1
102
RTVSPropertyOp35
 70
     1
102
RTVSPropertyOp36
 70
     1
102
RTVSPropertyOp37
 70
     1
102
RTVSPropertyOp38
 70
     1
102
RTVSPropertyOp39
 70
     1
102
RTVSPropertyOp40
 70
     1
102
RTVSPropertyOp41
 70
     1
102
RTVSPropertyOp42
 70
     1
102
RTVSPropertyOp43
 70
     1
102
RTVSPropertyOp44
 70
     1
102
RTVSPropertyOp45
 70
     1
102
RTVSPropertyOp46
 70
     1
102
RTVSPropertyOp47
 70
     1
102
RTVSPropertyOp48
 70
     1
102
RTVSPropertyOp49
 70
     1
102
RTVSPropertyOp50
 70
     1
102
RTVSPropertyOp51
 70
     0
102
RTVSPropertyOp52
 70
     0
102
RTVSPropertyOp53
 70
     1
102
RTVSPropertyOp54
 70
     1
102
RTVSPropertyOp55
 70
     1
102
RTVSPropertyOp56
 70
     1
102
RTVSPropertyOp57
 70
     1
102
RTVSPropertyOp58
 70
     1
102
RTVSPropertyOp59
 70
     1
102
RTVSPropertyOp60
 70
     1
102
RTVSPropertyOp61
 70
     1
102
RTVSPropertyOp62
 70
     1
  0
XRECORD
  5
13BD
102
{ACAD_REACTORS
330
13BC
102
}
330
13BC
100
AcDbXrecord
280
     1
102
RTVSPost2010Prop28
280
     0
102
RTVSPost2010PropOp28
 70
     1
102
RTVSPost2010Prop29
280
     1
102
RTVSPost2010PropOp29
 70
     1
102
RTVSPost2010Prop30
280
     1
102
RTVSPost2010PropOp30
 70
     1
102
RTVSPost2010Prop31
280
     0
102
RTVSPost2010PropOp31
 70
     1
102
RTVSPost2010Prop32
280
     0
102
RTVSPost2010PropOp32
 70
     1
102
RTVSPost2010Prop33
280
     0
102
RTVSPost2010PropOp33
 70
     1
102
RTVSPost2010Prop34
280
     0
102
RTVSPost2010PropOp34
 70
     1
102
RTVSPost2010Prop35
280
     0
102
RTVSPost2010PropOp35
 70
     1
102
RTVSPost2010Prop36
280
     0
102
RTVSPost2010PropOp36
 70
     1
102
RTVSPost2010Prop37
 90
       50
102
RTVSPost2010PropOp37
 70
     1
102
RTVSPost2010Prop38
140
0.0
102
RTVSPost2010PropOp38
 70
     1
102
RTVSPost2010Prop39
140
1.0
102
RTVSPost2010PropOp39
 70
     1
102
RTVSPost2010Prop40
 90
        0
102
RTVSPost2010PropOp40
 70
     1
102
RTVSPost2010Prop41ColorIndex
 90
       18
102
RTVSPost2010Prop41ColorRGB
 90
        0
102
RTVSPost2010PropOp41
 70
     1
102
RTVSPost2010Prop42
 90
       50
102
RTVSPost2010PropOp42
 70
     1
102
RTVSPost2010Prop43
 90
        3
102
RTVSPost2010PropOp43
 70
     1
102
RTVSPost2010Prop44ColorIndex
 90
        5
102
RTVSPost2010Prop44ColorRGB
 90
      255
102
RTVSPost2010PropOp44
 70
     1
102
RTVSPost2010Prop45
280
     0
102
RTVSPost2010PropOp45
 70
     1
102
RTVSPost2010Prop46
 90
       50
102
RTVSPost2010PropOp46
 70
     1
102
RTVSPost2010Prop47
 90
       50
102
RTVSPost2010PropOp47
 70
     1
102
RTVSPost2010Prop48
 90
       50
102
RTVSPost2010PropOp48
 70
     1
102
RTVSPost2010Prop49
280
     0
102
RTVSPost2010PropOp49
 70
     1
102
RTVSPost2010Prop50
 90
       50
102
RTVSPost2010PropOp50
 70
     1
102
RTVSPost2010Prop51ColorIndex
 90
      256
102
RTVSPost2010Prop51ColorRGB
 90
-16777216
102
RTVSPost2010PropOp51
 70
     0
102
RTVSPost2010Prop52
140
1.0
102
RTVSPost2010PropOp52
 70
     0
102
RTVSPost2010Prop53
 90
        2
102
RTVSPost2010PropOp53
 70
     1
102
RTVSPost2010Prop54
  1
strokes_ogs.tif
102
RTVSPost2010PropOp54
 70
     1
102
RTVSPost2010Prop55
280
     0
102
RTVSPost2010PropOp55
 70
     1
102
RTVSPost2010Prop56
140
1.0
102
RTVSPost2010PropOp56
 70
     1
102
RTVSPost2010Prop57
140
1.0
102
RTVSPost2010PropOp57
 70
     1
102
RTVSPropertyOp0
 70
     1
102
RTVSPropertyOp1
 70
     1
102
RTVSPropertyOp2
 70
     1
102
RTVSPropertyOp3
 70
     1
102
RTVSPropertyOp4
 70
     1
102
RTVSPropertyOp5
 70
     1
102
RTVSPropertyOp6
 70
     1
102
RTVSPropertyOp7
 70
     1
102
RTVSPropertyOp8
 70
     1
102
RTVSPropertyOp9
 70
     1
102
RTVSPropertyOp10
 70
     1
102
RTVSPropertyOp11
 70
     1
102
RTVSPropertyOp12
 70
     1
102
RTVSPropertyOp13
 70
     1
102
RTVSPropertyOp14
 70
     1
102
RTVSPropertyOp15
 70
     1
102
RTVSPropertyOp16
 70
     1
102
RTVSPropertyOp17
 70
     1
102
RTVSPropertyOp18
 70
     1
102
RTVSPropertyOp19
 70
     1
102
RTVSPropertyOp20
 70
     1
102
RTVSPropertyOp21
 70
     1
102
RTVSPropertyOp22
 70
     1
102
RTVSPropertyOp23
 70
     1
102
RTVSPropertyOp24
 70
     1
102
RTVSPropertyOp25
 70
     1
102
RTVSPropertyOp26
 70
     1
102
RTVSPropertyOp27
 70
     1
102
RTVSPropertyOp28
 70
     1
102
RTVSPropertyOp29
 70
     1
102
RTVSPropertyOp30
 70
     1
102
RTVSPropertyOp31
 70
     1
102
RTVSPropertyOp32
 70
     1
102
RTVSPropertyOp33
 70
     1
102
RTVSPropertyOp34
 70
     1
102
RTVSPropertyOp35
 70
     1
102
RTVSPropertyOp36
 70
     1
102
RTVSPropertyOp37
 70
     1
102
RTVSPropertyOp38
 70
     1
102
RTVSPropertyOp39
 70
     1
102
RTVSPropertyOp40
 70
     1
102
RTVSPropertyOp41
 70
     1
102
RTVSPropertyOp42
 70
     1
102
RTVSPropertyOp43
 70
     1
102
RTVSPropertyOp44
 70
     1
102
RTVSPropertyOp45
 70
     1
102
RTVSPropertyOp46
 70
     1
102
RTVSPropertyOp47
 70
     1
102
RTVSPropertyOp48
 70
     1
102
RTVSPropertyOp49
 70
     1
102
RTVSPropertyOp50
 70
     1
102
RTVSPropertyOp51
 70
     0
102
RTVSPropertyOp52
 70
     0
102
RTVSPropertyOp53
 70
     1
102
RTVSPropertyOp54
 70
     1
102
RTVSPropertyOp55
 70
     1
102
RTVSPropertyOp56
 70
     1
102
RTVSPropertyOp57
 70
     1
102
RTVSPropertyOp58
 70
     1
102
RTVSPropertyOp59
 70
     1
102
RTVSPropertyOp60
 70
     1
102
RTVSPropertyOp61
 70
     1
102
RTVSPropertyOp62
 70
     1
  0
XRECORD
  5
13BB
102
{ACAD_REACTORS
330
13BA
102
}
330
13BA
100
AcDbXrecord
280
     1
102
RTVSPost2010Prop28
280
     0
102
RTVSPost2010PropOp28
 70
     1
102
RTVSPost2010Prop29
280
     1
102
RTVSPost2010PropOp29
 70
     1
102
RTVSPost2010Prop30
280
     1
102
RTVSPost2010PropOp30
 70
     1
102
RTVSPost2010Prop31
280
     0
102
RTVSPost2010PropOp31
 70
     1
102
RTVSPost2010Prop32
280
     0
102
RTVSPost2010PropOp32
 70
     1
102
RTVSPost2010Prop33
280
     0
102
RTVSPost2010PropOp33
 70
     1
102
RTVSPost2010Prop34
280
     0
102
RTVSPost2010PropOp34
 70
     1
102
RTVSPost2010Prop35
280
     0
102
RTVSPost2010PropOp35
 70
     1
102
RTVSPost2010Prop36
280
     0
102
RTVSPost2010PropOp36
 70
     1
102
RTVSPost2010Prop37
 90
       50
102
RTVSPost2010PropOp37
 70
     1
102
RTVSPost2010Prop38
140
0.0
102
RTVSPost2010PropOp38
 70
     1
102
RTVSPost2010Prop39
140
1.0
102
RTVSPost2010PropOp39
 70
     1
102
RTVSPost2010Prop40
 90
        0
102
RTVSPost2010PropOp40
 70
     1
102
RTVSPost2010Prop41ColorIndex
 90
       18
102
RTVSPost2010Prop41ColorRGB
 90
        0
102
RTVSPost2010PropOp41
 70
     1
102
RTVSPost2010Prop42
 90
       50
102
RTVSPost2010PropOp42
 70
     1
102
RTVSPost2010Prop43
 90
        3
102
RTVSPost2010PropOp43
 70
     1
102
RTVSPost2010Prop44ColorIndex
 90
        5
102
RTVSPost2010Prop44ColorRGB
 90
      255
102
RTVSPost2010PropOp44
 70
     1
102
RTVSPost2010Prop45
280
     0
102
RTVSPost2010PropOp45
 70
     1
102
RTVSPost2010Prop46
 90
       50
102
RTVSPost2010PropOp46
 70
     1
102
RTVSPost2010Prop47
 90
       50
102
RTVSPost2010PropOp47
 70
     1
102
RTVSPost2010Prop48
 90
       50
102
RTVSPost2010PropOp48
 70
     1
102
RTVSPost2010Prop49
280
     0
102
RTVSPost2010PropOp49
 70
     1
102
RTVSPost2010Prop50
 90
       50
102
RTVSPost2010PropOp50
 70
     1
102
RTVSPost2010Prop51ColorIndex
 90
      256
102
RTVSPost2010Prop51ColorRGB
 90
-16777216
102
RTVSPost2010PropOp51
 70
     0
102
RTVSPost2010Prop52
140
1.0
102
RTVSPost2010PropOp52
 70
     0
102
RTVSPost2010Prop53
 90
        2
102
RTVSPost2010PropOp53
 70
     1
102
RTVSPost2010Prop54
  1
strokes_ogs.tif
102
RTVSPost2010PropOp54
 70
     1
102
RTVSPost2010Prop55
280
     0
102
RTVSPost2010PropOp55
 70
     1
102
RTVSPost2010Prop56
140
1.0
102
RTVSPost2010PropOp56
 70
     1
102
RTVSPost2010Prop57
140
1.0
102
RTVSPost2010PropOp57
 70
     1
102
RTVSPropertyOp0
 70
     1
102
RTVSPropertyOp1
 70
     1
102
RTVSPropertyOp2
 70
     1
102
RTVSPropertyOp3
 70
     1
102
RTVSPropertyOp4
 70
     1
102
RTVSPropertyOp5
 70
     1
102
RTVSPropertyOp6
 70
     1
102
RTVSPropertyOp7
 70
     1
102
RTVSPropertyOp8
 70
     1
102
RTVSPropertyOp9
 70
     1
102
RTVSPropertyOp10
 70
     1
102
RTVSPropertyOp11
 70
     1
102
RTVSPropertyOp12
 70
     1
102
RTVSPropertyOp13
 70
     1
102
RTVSPropertyOp14
 70
     1
102
RTVSPropertyOp15
 70
     1
102
RTVSPropertyOp16
 70
     1
102
RTVSPropertyOp17
 70
     1
102
RTVSPropertyOp18
 70
     1
102
RTVSPropertyOp19
 70
     1
102
RTVSPropertyOp20
 70
     1
102
RTVSPropertyOp21
 70
     1
102
RTVSPropertyOp22
 70
     1
102
RTVSPropertyOp23
 70
     1
102
RTVSPropertyOp24
 70
     1
102
RTVSPropertyOp25
 70
     1
102
RTVSPropertyOp26
 70
     1
102
RTVSPropertyOp27
 70
     1
102
RTVSPropertyOp28
 70
     1
102
RTVSPropertyOp29
 70
     1
102
RTVSPropertyOp30
 70
     1
102
RTVSPropertyOp31
 70
     1
102
RTVSPropertyOp32
 70
     1
102
RTVSPropertyOp33
 70
     1
102
RTVSPropertyOp34
 70
     1
102
RTVSPropertyOp35
 70
     1
102
RTVSPropertyOp36
 70
     1
102
RTVSPropertyOp37
 70
     1
102
RTVSPropertyOp38
 70
     1
102
RTVSPropertyOp39
 70
     1
102
RTVSPropertyOp40
 70
     1
102
RTVSPropertyOp41
 70
     1
102
RTVSPropertyOp42
 70
     1
102
RTVSPropertyOp43
 70
     1
102
RTVSPropertyOp44
 70
     1
102
RTVSPropertyOp45
 70
     1
102
RTVSPropertyOp46
 70
     1
102
RTVSPropertyOp47
 70
     1
102
RTVSPropertyOp48
 70
     1
102
RTVSPropertyOp49
 70
     1
102
RTVSPropertyOp50
 70
     1
102
RTVSPropertyOp51
 70
     0
102
RTVSPropertyOp52
 70
     0
102
RTVSPropertyOp53
 70
     1
102
RTVSPropertyOp54
 70
     1
102
RTVSPropertyOp55
 70
     1
102
RTVSPropertyOp56
 70
     1
102
RTVSPropertyOp57
 70
     1
102
RTVSPropertyOp58
 70
     1
102
RTVSPropertyOp59
 70
     1
102
RTVSPropertyOp60
 70
     1
102
RTVSPropertyOp61
 70
     1
102
RTVSPropertyOp62
 70
     1
  0
XRECORD
  5
13B5
102
{ACAD_REACTORS
330
13B4
102
}
330
13B4
100
AcDbXrecord
280
     1
102
RTVSPost2010Prop28
280
     0
102
RTVSPost2010PropOp28
 70
     1
102
RTVSPost2010Prop29
280
     1
102
RTVSPost2010PropOp29
 70
     1
102
RTVSPost2010Prop30
280
     1
102
RTVSPost2010PropOp30
 70
     1
102
RTVSPost2010Prop31
280
     0
102
RTVSPost2010PropOp31
 70
     1
102
RTVSPost2010Prop32
280
     0
102
RTVSPost2010PropOp32
 70
     1
102
RTVSPost2010Prop33
280
     0
102
RTVSPost2010PropOp33
 70
     1
102
RTVSPost2010Prop34
280
     0
102
RTVSPost2010PropOp34
 70
     1
102
RTVSPost2010Prop35
280
     0
102
RTVSPost2010PropOp35
 70
     1
102
RTVSPost2010Prop36
280
     0
102
RTVSPost2010PropOp36
 70
     1
102
RTVSPost2010Prop37
 90
       50
102
RTVSPost2010PropOp37
 70
     1
102
RTVSPost2010Prop38
140
0.0
102
RTVSPost2010PropOp38
 70
     1
102
RTVSPost2010Prop39
140
1.0
102
RTVSPost2010PropOp39
 70
     1
102
RTVSPost2010Prop40
 90
        0
102
RTVSPost2010PropOp40
 70
     1
102
RTVSPost2010Prop41ColorIndex
 90
       18
102
RTVSPost2010Prop41ColorRGB
 90
        0
102
RTVSPost2010PropOp41
 70
     1
102
RTVSPost2010Prop42
 90
       50
102
RTVSPost2010PropOp42
 70
     1
102
RTVSPost2010Prop43
 90
        3
102
RTVSPost2010PropOp43
 70
     1
102
RTVSPost2010Prop44ColorIndex
 90
        5
102
RTVSPost2010Prop44ColorRGB
 90
      255
102
RTVSPost2010PropOp44
 70
     1
102
RTVSPost2010Prop45
280
     0
102
RTVSPost2010PropOp45
 70
     1
102
RTVSPost2010Prop46
 90
       50
102
RTVSPost2010PropOp46
 70
     1
102
RTVSPost2010Prop47
 90
       50
102
RTVSPost2010PropOp47
 70
     1
102
RTVSPost2010Prop48
 90
       50
102
RTVSPost2010PropOp48
 70
     1
102
RTVSPost2010Prop49
280
     0
102
RTVSPost2010PropOp49
 70
     1
102
RTVSPost2010Prop50
 90
       50
102
RTVSPost2010PropOp50
 70
     1
102
RTVSPost2010Prop51ColorIndex
 90
      256
102
RTVSPost2010Prop51ColorRGB
 90
-16777216
102
RTVSPost2010PropOp51
 70
     0
102
RTVSPost2010Prop52
140
1.0
102
RTVSPost2010PropOp52
 70
     0
102
RTVSPost2010Prop53
 90
        2
102
RTVSPost2010PropOp53
 70
     1
102
RTVSPost2010Prop54
  1
strokes_ogs.tif
102
RTVSPost2010PropOp54
 70
     1
102
RTVSPost2010Prop55
280
     0
102
RTVSPost2010PropOp55
 70
     1
102
RTVSPost2010Prop56
140
1.0
102
RTVSPost2010PropOp56
 70
     1
102
RTVSPost2010Prop57
140
1.0
102
RTVSPost2010PropOp57
 70
     1
102
RTVSPropertyOp0
 70
     1
102
RTVSPropertyOp1
 70
     1
102
RTVSPropertyOp2
 70
     1
102
RTVSPropertyOp3
 70
     1
102
RTVSPropertyOp4
 70
     1
102
RTVSPropertyOp5
 70
     1
102
RTVSPropertyOp6
 70
     1
102
RTVSPropertyOp7
 70
     1
102
RTVSPropertyOp8
 70
     1
102
RTVSPropertyOp9
 70
     1
102
RTVSPropertyOp10
 70
     1
102
RTVSPropertyOp11
 70
     1
102
RTVSPropertyOp12
 70
     1
102
RTVSPropertyOp13
 70
     1
102
RTVSPropertyOp14
 70
     1
102
RTVSPropertyOp15
 70
     1
102
RTVSPropertyOp16
 70
     1
102
RTVSPropertyOp17
 70
     1
102
RTVSPropertyOp18
 70
     1
102
RTVSPropertyOp19
 70
     1
102
RTVSPropertyOp20
 70
     1
102
RTVSPropertyOp21
 70
     1
102
RTVSPropertyOp22
 70
     1
102
RTVSPropertyOp23
 70
     1
102
RTVSPropertyOp24
 70
     1
102
RTVSPropertyOp25
 70
     1
102
RTVSPropertyOp26
 70
     1
102
RTVSPropertyOp27
 70
     1
102
RTVSPropertyOp28
 70
     1
102
RTVSPropertyOp29
 70
     1
102
RTVSPropertyOp30
 70
     1
102
RTVSPropertyOp31
 70
     1
102
RTVSPropertyOp32
 70
     1
102
RTVSPropertyOp33
 70
     1
102
RTVSPropertyOp34
 70
     1
102
RTVSPropertyOp35
 70
     1
102
RTVSPropertyOp36
 70
     1
102
RTVSPropertyOp37
 70
     1
102
RTVSPropertyOp38
 70
     1
102
RTVSPropertyOp39
 70
     1
102
RTVSPropertyOp40
 70
     1
102
RTVSPropertyOp41
 70
     1
102
RTVSPropertyOp42
 70
     1
102
RTVSPropertyOp43
 70
     1
102
RTVSPropertyOp44
 70
     1
102
RTVSPropertyOp45
 70
     1
102
RTVSPropertyOp46
 70
     1
102
RTVSPropertyOp47
 70
     1
102
RTVSPropertyOp48
 70
     1
102
RTVSPropertyOp49
 70
     1
102
RTVSPropertyOp50
 70
     1
102
RTVSPropertyOp51
 70
     0
102
RTVSPropertyOp52
 70
     0
102
RTVSPropertyOp53
 70
     1
102
RTVSPropertyOp54
 70
     1
102
RTVSPropertyOp55
 70
     1
102
RTVSPropertyOp56
 70
     1
102
RTVSPropertyOp57
 70
     1
102
RTVSPropertyOp58
 70
     1
102
RTVSPropertyOp59
 70
     1
102
RTVSPropertyOp60
 70
     1
102
RTVSPropertyOp61
 70
     1
102
RTVSPropertyOp62
 70
     1
  0
XRECORD
  5
13B7
102
{ACAD_REACTORS
330
13B6
102
}
330
13B6
100
AcDbXrecord
280
     1
102
RTVSPost2010Prop28
280
     0
102
RTVSPost2010PropOp28
 70
     1
102
RTVSPost2010Prop29
280
     1
102
RTVSPost2010PropOp29
 70
     1
102
RTVSPost2010Prop30
280
     1
102
RTVSPost2010PropOp30
 70
     1
102
RTVSPost2010Prop31
280
     0
102
RTVSPost2010PropOp31
 70
     1
102
RTVSPost2010Prop32
280
     0
102
RTVSPost2010PropOp32
 70
     1
102
RTVSPost2010Prop33
280
     0
102
RTVSPost2010PropOp33
 70
     1
102
RTVSPost2010Prop34
280
     0
102
RTVSPost2010PropOp34
 70
     1
102
RTVSPost2010Prop35
280
     0
102
RTVSPost2010PropOp35
 70
     1
102
RTVSPost2010Prop36
280
     0
102
RTVSPost2010PropOp36
 70
     1
102
RTVSPost2010Prop37
 90
       50
102
RTVSPost2010PropOp37
 70
     1
102
RTVSPost2010Prop38
140
0.0
102
RTVSPost2010PropOp38
 70
     1
102
RTVSPost2010Prop39
140
1.0
102
RTVSPost2010PropOp39
 70
     1
102
RTVSPost2010Prop40
 90
        0
102
RTVSPost2010PropOp40
 70
     1
102
RTVSPost2010Prop41ColorIndex
 90
       18
102
RTVSPost2010Prop41ColorRGB
 90
        0
102
RTVSPost2010PropOp41
 70
     1
102
RTVSPost2010Prop42
 90
       50
102
RTVSPost2010PropOp42
 70
     1
102
RTVSPost2010Prop43
 90
        3
102
RTVSPost2010PropOp43
 70
     1
102
RTVSPost2010Prop44ColorIndex
 90
        5
102
RTVSPost2010Prop44ColorRGB
 90
      255
102
RTVSPost2010PropOp44
 70
     1
102
RTVSPost2010Prop45
280
     0
102
RTVSPost2010PropOp45
 70
     1
102
RTVSPost2010Prop46
 90
       50
102
RTVSPost2010PropOp46
 70
     1
102
RTVSPost2010Prop47
 90
       50
102
RTVSPost2010PropOp47
 70
     1
102
RTVSPost2010Prop48
 90
       50
102
RTVSPost2010PropOp48
 70
     1
102
RTVSPost2010Prop49
280
     0
102
RTVSPost2010PropOp49
 70
     1
102
RTVSPost2010Prop50
 90
       50
102
RTVSPost2010PropOp50
 70
     1
102
RTVSPost2010Prop51ColorIndex
 90
      256
102
RTVSPost2010Prop51ColorRGB
 90
-16777216
102
RTVSPost2010PropOp51
 70
     0
102
RTVSPost2010Prop52
140
1.0
102
RTVSPost2010PropOp52
 70
     0
102
RTVSPost2010Prop53
 90
        2
102
RTVSPost2010PropOp53
 70
     1
102
RTVSPost2010Prop54
  1
strokes_ogs.tif
102
RTVSPost2010PropOp54
 70
     1
102
RTVSPost2010Prop55
280
     0
102
RTVSPost2010PropOp55
 70
     1
102
RTVSPost2010Prop56
140
1.0
102
RTVSPost2010PropOp56
 70
     1
102
RTVSPost2010Prop57
140
1.0
102
RTVSPost2010PropOp57
 70
     1
102
RTVSPropertyOp0
 70
     1
102
RTVSPropertyOp1
 70
     1
102
RTVSPropertyOp2
 70
     1
102
RTVSPropertyOp3
 70
     1
102
RTVSPropertyOp4
 70
     1
102
RTVSPropertyOp5
 70
     1
102
RTVSPropertyOp6
 70
     1
102
RTVSPropertyOp7
 70
     1
102
RTVSPropertyOp8
 70
     1
102
RTVSPropertyOp9
 70
     1
102
RTVSPropertyOp10
 70
     1
102
RTVSPropertyOp11
 70
     1
102
RTVSPropertyOp12
 70
     1
102
RTVSPropertyOp13
 70
     1
102
RTVSPropertyOp14
 70
     1
102
RTVSPropertyOp15
 70
     1
102
RTVSPropertyOp16
 70
     1
102
RTVSPropertyOp17
 70
     1
102
RTVSPropertyOp18
 70
     1
102
RTVSPropertyOp19
 70
     1
102
RTVSPropertyOp20
 70
     1
102
RTVSPropertyOp21
 70
     1
102
RTVSPropertyOp22
 70
     1
102
RTVSPropertyOp23
 70
     1
102
RTVSPropertyOp24
 70
     1
102
RTVSPropertyOp25
 70
     1
102
RTVSPropertyOp26
 70
     1
102
RTVSPropertyOp27
 70
     1
102
RTVSPropertyOp28
 70
     1
102
RTVSPropertyOp29
 70
     1
102
RTVSPropertyOp30
 70
     1
102
RTVSPropertyOp31
 70
     1
102
RTVSPropertyOp32
 70
     1
102
RTVSPropertyOp33
 70
     1
102
RTVSPropertyOp34
 70
     1
102
RTVSPropertyOp35
 70
     1
102
RTVSPropertyOp36
 70
     1
102
RTVSPropertyOp37
 70
     1
102
RTVSPropertyOp38
 70
     1
102
RTVSPropertyOp39
 70
     1
102
RTVSPropertyOp40
 70
     1
102
RTVSPropertyOp41
 70
     1
102
RTVSPropertyOp42
 70
     1
102
RTVSPropertyOp43
 70
     1
102
RTVSPropertyOp44
 70
     1
102
RTVSPropertyOp45
 70
     1
102
RTVSPropertyOp46
 70
     1
102
RTVSPropertyOp47
 70
     1
102
RTVSPropertyOp48
 70
     1
102
RTVSPropertyOp49
 70
     1
102
RTVSPropertyOp50
 70
     1
102
RTVSPropertyOp51
 70
     0
102
RTVSPropertyOp52
 70
     0
102
RTVSPropertyOp53
 70
     1
102
RTVSPropertyOp54
 70
     1
102
RTVSPropertyOp55
 70
     1
102
RTVSPropertyOp56
 70
     1
102
RTVSPropertyOp57
 70
     1
102
RTVSPropertyOp58
 70
     1
102
RTVSPropertyOp59
 70
     1
102
RTVSPropertyOp60
 70
     1
102
RTVSPropertyOp61
 70
     1
102
RTVSPropertyOp62
 70
     1
  0
XRECORD
  5
13AD
102
{ACAD_REACTORS
330
13AC
102
}
330
13AC
100
AcDbXrecord
280
     1
102
RTVSPost2010Prop28
280
     0
102
RTVSPost2010PropOp28
 70
     1
102
RTVSPost2010Prop29
280
     1
102
RTVSPost2010PropOp29
 70
     1
102
RTVSPost2010Prop30
280
     1
102
RTVSPost2010PropOp30
 70
     1
102
RTVSPost2010Prop31
280
     0
102
RTVSPost2010PropOp31
 70
     1
102
RTVSPost2010Prop32
280
     0
102
RTVSPost2010PropOp32
 70
     1
102
RTVSPost2010Prop33
280
     0
102
RTVSPost2010PropOp33
 70
     1
102
RTVSPost2010Prop34
280
     0
102
RTVSPost2010PropOp34
 70
     1
102
RTVSPost2010Prop35
280
     0
102
RTVSPost2010PropOp35
 70
     1
102
RTVSPost2010Prop36
280
     0
102
RTVSPost2010PropOp36
 70
     1
102
RTVSPost2010Prop37
 90
       50
102
RTVSPost2010PropOp37
 70
     1
102
RTVSPost2010Prop38
140
0.0
102
RTVSPost2010PropOp38
 70
     1
102
RTVSPost2010Prop39
140
1.0
102
RTVSPost2010PropOp39
 70
     1
102
RTVSPost2010Prop40
 90
        0
102
RTVSPost2010PropOp40
 70
     1
102
RTVSPost2010Prop41ColorIndex
 90
       18
102
RTVSPost2010Prop41ColorRGB
 90
        0
102
RTVSPost2010PropOp41
 70
     1
102
RTVSPost2010Prop42
 90
       50
102
RTVSPost2010PropOp42
 70
     1
102
RTVSPost2010Prop43
 90
        3
102
RTVSPost2010PropOp43
 70
     1
102
RTVSPost2010Prop44ColorIndex
 90
        5
102
RTVSPost2010Prop44ColorRGB
 90
      255
102
RTVSPost2010PropOp44
 70
     1
102
RTVSPost2010Prop45
280
     0
102
RTVSPost2010PropOp45
 70
     1
102
RTVSPost2010Prop46
 90
       50
102
RTVSPost2010PropOp46
 70
     1
102
RTVSPost2010Prop47
 90
       50
102
RTVSPost2010PropOp47
 70
     1
102
RTVSPost2010Prop48
 90
       50
102
RTVSPost2010PropOp48
 70
     1
102
RTVSPost2010Prop49
280
     0
102
RTVSPost2010PropOp49
 70
     1
102
RTVSPost2010Prop50
 90
       50
102
RTVSPost2010PropOp50
 70
     1
102
RTVSPost2010Prop51ColorIndex
 90
      256
102
RTVSPost2010Prop51ColorRGB
 90
-16777216
102
RTVSPost2010PropOp51
 70
     0
102
RTVSPost2010Prop52
140
1.0
102
RTVSPost2010PropOp52
 70
     0
102
RTVSPost2010Prop53
 90
        2
102
RTVSPost2010PropOp53
 70
     1
102
RTVSPost2010Prop54
  1
strokes_ogs.tif
102
RTVSPost2010PropOp54
 70
     1
102
RTVSPost2010Prop55
280
     0
102
RTVSPost2010PropOp55
 70
     1
102
RTVSPost2010Prop56
140
1.0
102
RTVSPost2010PropOp56
 70
     1
102
RTVSPost2010Prop57
140
1.0
102
RTVSPost2010PropOp57
 70
     1
102
RTVSPropertyOp0
 70
     1
102
RTVSPropertyOp1
 70
     1
102
RTVSPropertyOp2
 70
     1
102
RTVSPropertyOp3
 70
     1
102
RTVSPropertyOp4
 70
     1
102
RTVSPropertyOp5
 70
     1
102
RTVSPropertyOp6
 70
     1
102
RTVSPropertyOp7
 70
     1
102
RTVSPropertyOp8
 70
     1
102
RTVSPropertyOp9
 70
     1
102
RTVSPropertyOp10
 70
     1
102
RTVSPropertyOp11
 70
     1
102
RTVSPropertyOp12
 70
     1
102
RTVSPropertyOp13
 70
     1
102
RTVSPropertyOp14
 70
     1
102
RTVSPropertyOp15
 70
     1
102
RTVSPropertyOp16
 70
     1
102
RTVSPropertyOp17
 70
     1
102
RTVSPropertyOp18
 70
     1
102
RTVSPropertyOp19
 70
     1
102
RTVSPropertyOp20
 70
     1
102
RTVSPropertyOp21
 70
     1
102
RTVSPropertyOp22
 70
     1
102
RTVSPropertyOp23
 70
     1
102
RTVSPropertyOp24
 70
     1
102
RTVSPropertyOp25
 70
     1
102
RTVSPropertyOp26
 70
     1
102
RTVSPropertyOp27
 70
     1
102
RTVSPropertyOp28
 70
     1
102
RTVSPropertyOp29
 70
     1
102
RTVSPropertyOp30
 70
     1
102
RTVSPropertyOp31
 70
     1
102
RTVSPropertyOp32
 70
     1
102
RTVSPropertyOp33
 70
     1
102
RTVSPropertyOp34
 70
     1
102
RTVSPropertyOp35
 70
     1
102
RTVSPropertyOp36
 70
     1
102
RTVSPropertyOp37
 70
     1
102
RTVSPropertyOp38
 70
     1
102
RTVSPropertyOp39
 70
     1
102
RTVSPropertyOp40
 70
     1
102
RTVSPropertyOp41
 70
     1
102
RTVSPropertyOp42
 70
     1
102
RTVSPropertyOp43
 70
     1
102
RTVSPropertyOp44
 70
     1
102
RTVSPropertyOp45
 70
     1
102
RTVSPropertyOp46
 70
     1
102
RTVSPropertyOp47
 70
     1
102
RTVSPropertyOp48
 70
     1
102
RTVSPropertyOp49
 70
     1
102
RTVSPropertyOp50
 70
     1
102
RTVSPropertyOp51
 70
     0
102
RTVSPropertyOp52
 70
     0
102
RTVSPropertyOp53
 70
     1
102
RTVSPropertyOp54
 70
     1
102
RTVSPropertyOp55
 70
     1
102
RTVSPropertyOp56
 70
     1
102
RTVSPropertyOp57
 70
     1
102
RTVSPropertyOp58
 70
     1
102
RTVSPropertyOp59
 70
     1
102
RTVSPropertyOp60
 70
     1
102
RTVSPropertyOp61
 70
     1
102
RTVSPropertyOp62
 70
     1
  0
XRECORD
  5
13A1
102
{ACAD_REACTORS
330
13A0
102
}
330
13A0
100
AcDbXrecord
280
     1
102
RTVSPost2010Prop28
280
     0
102
RTVSPost2010PropOp28
 70
     1
102
RTVSPost2010Prop29
280
     1
102
RTVSPost2010PropOp29
 70
     1
102
RTVSPost2010Prop30
280
     1
102
RTVSPost2010PropOp30
 70
     1
102
RTVSPost2010Prop31
280
     0
102
RTVSPost2010PropOp31
 70
     1
102
RTVSPost2010Prop32
280
     0
102
RTVSPost2010PropOp32
 70
     1
102
RTVSPost2010Prop33
280
     0
102
RTVSPost2010PropOp33
 70
     1
102
RTVSPost2010Prop34
280
     0
102
RTVSPost2010PropOp34
 70
     1
102
RTVSPost2010Prop35
280
     0
102
RTVSPost2010PropOp35
 70
     1
102
RTVSPost2010Prop36
280
     0
102
RTVSPost2010PropOp36
 70
     1
102
RTVSPost2010Prop37
 90
       50
102
RTVSPost2010PropOp37
 70
     1
102
RTVSPost2010Prop38
140
0.0
102
RTVSPost2010PropOp38
 70
     1
102
RTVSPost2010Prop39
140
1.0
102
RTVSPost2010PropOp39
 70
     1
102
RTVSPost2010Prop40
 90
        0
102
RTVSPost2010PropOp40
 70
     1
102
RTVSPost2010Prop41ColorIndex
 90
       18
102
RTVSPost2010Prop41ColorRGB
 90
        0
102
RTVSPost2010PropOp41
 70
     1
102
RTVSPost2010Prop42
 90
       50
102
RTVSPost2010PropOp42
 70
     1
102
RTVSPost2010Prop43
 90
        3
102
RTVSPost2010PropOp43
 70
     1
102
RTVSPost2010Prop44ColorIndex
 90
        5
102
RTVSPost2010Prop44ColorRGB
 90
      255
102
RTVSPost2010PropOp44
 70
     1
102
RTVSPost2010Prop45
280
     0
102
RTVSPost2010PropOp45
 70
     1
102
RTVSPost2010Prop46
 90
       50
102
RTVSPost2010PropOp46
 70
     1
102
RTVSPost2010Prop47
 90
       50
102
RTVSPost2010PropOp47
 70
     1
102
RTVSPost2010Prop48
 90
       50
102
RTVSPost2010PropOp48
 70
     1
102
RTVSPost2010Prop49
280
     0
102
RTVSPost2010PropOp49
 70
     1
102
RTVSPost2010Prop50
 90
       50
102
RTVSPost2010PropOp50
 70
     1
102
RTVSPost2010Prop51ColorIndex
 90
      256
102
RTVSPost2010Prop51ColorRGB
 90
-16777216
102
RTVSPost2010PropOp51
 70
     0
102
RTVSPost2010Prop52
140
1.0
102
RTVSPost2010PropOp52
 70
     0
102
RTVSPost2010Prop53
 90
        2
102
RTVSPost2010PropOp53
 70
     1
102
RTVSPost2010Prop54
  1
strokes_ogs.tif
102
RTVSPost2010PropOp54
 70
     1
102
RTVSPost2010Prop55
280
     0
102
RTVSPost2010PropOp55
 70
     1
102
RTVSPost2010Prop56
140
1.0
102
RTVSPost2010PropOp56
 70
     1
102
RTVSPost2010Prop57
140
1.0
102
RTVSPost2010PropOp57
 70
     1
102
RTVSPropertyOp0
 70
     1
102
RTVSPropertyOp1
 70
     1
102
RTVSPropertyOp2
 70
     1
102
RTVSPropertyOp3
 70
     1
102
RTVSPropertyOp4
 70
     1
102
RTVSPropertyOp5
 70
     1
102
RTVSPropertyOp6
 70
     1
102
RTVSPropertyOp7
 70
     1
102
RTVSPropertyOp8
 70
     1
102
RTVSPropertyOp9
 70
     1
102
RTVSPropertyOp10
 70
     1
102
RTVSPropertyOp11
 70
     1
102
RTVSPropertyOp12
 70
     1
102
RTVSPropertyOp13
 70
     1
102
RTVSPropertyOp14
 70
     1
102
RTVSPropertyOp15
 70
     1
102
RTVSPropertyOp16
 70
     1
102
RTVSPropertyOp17
 70
     1
102
RTVSPropertyOp18
 70
     1
102
RTVSPropertyOp19
 70
     1
102
RTVSPropertyOp20
 70
     1
102
RTVSPropertyOp21
 70
     1
102
RTVSPropertyOp22
 70
     1
102
RTVSPropertyOp23
 70
     1
102
RTVSPropertyOp24
 70
     1
102
RTVSPropertyOp25
 70
     1
102
RTVSPropertyOp26
 70
     1
102
RTVSPropertyOp27
 70
     1
102
RTVSPropertyOp28
 70
     1
102
RTVSPropertyOp29
 70
     1
102
RTVSPropertyOp30
 70
     1
102
RTVSPropertyOp31
 70
     1
102
RTVSPropertyOp32
 70
     1
102
RTVSPropertyOp33
 70
     1
102
RTVSPropertyOp34
 70
     1
102
RTVSPropertyOp35
 70
     1
102
RTVSPropertyOp36
 70
     1
102
RTVSPropertyOp37
 70
     1
102
RTVSPropertyOp38
 70
     1
102
RTVSPropertyOp39
 70
     1
102
RTVSPropertyOp40
 70
     1
102
RTVSPropertyOp41
 70
     1
102
RTVSPropertyOp42
 70
     1
102
RTVSPropertyOp43
 70
     1
102
RTVSPropertyOp44
 70
     1
102
RTVSPropertyOp45
 70
     1
102
RTVSPropertyOp46
 70
     1
102
RTVSPropertyOp47
 70
     1
102
RTVSPropertyOp48
 70
     1
102
RTVSPropertyOp49
 70
     1
102
RTVSPropertyOp50
 70
     1
102
RTVSPropertyOp51
 70
     0
102
RTVSPropertyOp52
 70
     0
102
RTVSPropertyOp53
 70
     1
102
RTVSPropertyOp54
 70
     1
102
RTVSPropertyOp55
 70
     1
102
RTVSPropertyOp56
 70
     1
102
RTVSPropertyOp57
 70
     1
102
RTVSPropertyOp58
 70
     1
102
RTVSPropertyOp59
 70
     1
102
RTVSPropertyOp60
 70
     1
102
RTVSPropertyOp61
 70
     1
102
RTVSPropertyOp62
 70
     1
  0
XRECORD
  5
13B9
102
{ACAD_REACTORS
330
13B8
102
}
330
13B8
100
AcDbXrecord
280
     1
102
RTVSPost2010Prop28
280
     0
102
RTVSPost2010PropOp28
 70
     1
102
RTVSPost2010Prop29
280
     1
102
RTVSPost2010PropOp29
 70
     1
102
RTVSPost2010Prop30
280
     1
102
RTVSPost2010PropOp30
 70
     1
102
RTVSPost2010Prop31
280
     0
102
RTVSPost2010PropOp31
 70
     1
102
RTVSPost2010Prop32
280
     0
102
RTVSPost2010PropOp32
 70
     1
102
RTVSPost2010Prop33
280
     0
102
RTVSPost2010PropOp33
 70
     1
102
RTVSPost2010Prop34
280
     0
102
RTVSPost2010PropOp34
 70
     1
102
RTVSPost2010Prop35
280
     0
102
RTVSPost2010PropOp35
 70
     1
102
RTVSPost2010Prop36
280
     0
102
RTVSPost2010PropOp36
 70
     1
102
RTVSPost2010Prop37
 90
       50
102
RTVSPost2010PropOp37
 70
     1
102
RTVSPost2010Prop38
140
0.0
102
RTVSPost2010PropOp38
 70
     1
102
RTVSPost2010Prop39
140
1.0
102
RTVSPost2010PropOp39
 70
     1
102
RTVSPost2010Prop40
 90
        0
102
RTVSPost2010PropOp40
 70
     1
102
RTVSPost2010Prop41ColorIndex
 90
       18
102
RTVSPost2010Prop41ColorRGB
 90
        0
102
RTVSPost2010PropOp41
 70
     1
102
RTVSPost2010Prop42
 90
       50
102
RTVSPost2010PropOp42
 70
     1
102
RTVSPost2010Prop43
 90
        3
102
RTVSPost2010PropOp43
 70
     1
102
RTVSPost2010Prop44ColorIndex
 90
        5
102
RTVSPost2010Prop44ColorRGB
 90
      255
102
RTVSPost2010PropOp44
 70
     1
102
RTVSPost2010Prop45
280
     0
102
RTVSPost2010PropOp45
 70
     1
102
RTVSPost2010Prop46
 90
       50
102
RTVSPost2010PropOp46
 70
     1
102
RTVSPost2010Prop47
 90
       50
102
RTVSPost2010PropOp47
 70
     1
102
RTVSPost2010Prop48
 90
       50
102
RTVSPost2010PropOp48
 70
     1
102
RTVSPost2010Prop49
280
     0
102
RTVSPost2010PropOp49
 70
     1
102
RTVSPost2010Prop50
 90
       50
102
RTVSPost2010PropOp50
 70
     1
102
RTVSPost2010Prop51ColorIndex
 90
      256
102
RTVSPost2010Prop51ColorRGB
 90
-16777216
102
RTVSPost2010PropOp51
 70
     0
102
RTVSPost2010Prop52
140
1.0
102
RTVSPost2010PropOp52
 70
     0
102
RTVSPost2010Prop53
 90
        2
102
RTVSPost2010PropOp53
 70
     1
102
RTVSPost2010Prop54
  1
strokes_ogs.tif
102
RTVSPost2010PropOp54
 70
     1
102
RTVSPost2010Prop55
280
     0
102
RTVSPost2010PropOp55
 70
     1
102
RTVSPost2010Prop56
140
1.0
102
RTVSPost2010PropOp56
 70
     1
102
RTVSPost2010Prop57
140
1.0
102
RTVSPost2010PropOp57
 70
     1
102
RTVSPropertyOp0
 70
     1
102
RTVSPropertyOp1
 70
     1
102
RTVSPropertyOp2
 70
     1
102
RTVSPropertyOp3
 70
     1
102
RTVSPropertyOp4
 70
     1
102
RTVSPropertyOp5
 70
     1
102
RTVSPropertyOp6
 70
     1
102
RTVSPropertyOp7
 70
     1
102
RTVSPropertyOp8
 70
     1
102
RTVSPropertyOp9
 70
     1
102
RTVSPropertyOp10
 70
     1
102
RTVSPropertyOp11
 70
     1
102
RTVSPropertyOp12
 70
     1
102
RTVSPropertyOp13
 70
     1
102
RTVSPropertyOp14
 70
     1
102
RTVSPropertyOp15
 70
     1
102
RTVSPropertyOp16
 70
     1
102
RTVSPropertyOp17
 70
     1
102
RTVSPropertyOp18
 70
     1
102
RTVSPropertyOp19
 70
     1
102
RTVSPropertyOp20
 70
     1
102
RTVSPropertyOp21
 70
     1
102
RTVSPropertyOp22
 70
     1
102
RTVSPropertyOp23
 70
     1
102
RTVSPropertyOp24
 70
     1
102
RTVSPropertyOp25
 70
     1
102
RTVSPropertyOp26
 70
     1
102
RTVSPropertyOp27
 70
     1
102
RTVSPropertyOp28
 70
     1
102
RTVSPropertyOp29
 70
     1
102
RTVSPropertyOp30
 70
     1
102
RTVSPropertyOp31
 70
     1
102
RTVSPropertyOp32
 70
     1
102
RTVSPropertyOp33
 70
     1
102
RTVSPropertyOp34
 70
     1
102
RTVSPropertyOp35
 70
     1
102
RTVSPropertyOp36
 70
     1
102
RTVSPropertyOp37
 70
     1
102
RTVSPropertyOp38
 70
     1
102
RTVSPropertyOp39
 70
     1
102
RTVSPropertyOp40
 70
     1
102
RTVSPropertyOp41
 70
     1
102
RTVSPropertyOp42
 70
     1
102
RTVSPropertyOp43
 70
     1
102
RTVSPropertyOp44
 70
     1
102
RTVSPropertyOp45
 70
     1
102
RTVSPropertyOp46
 70
     1
102
RTVSPropertyOp47
 70
     1
102
RTVSPropertyOp48
 70
     1
102
RTVSPropertyOp49
 70
     1
102
RTVSPropertyOp50
 70
     1
102
RTVSPropertyOp51
 70
     0
102
RTVSPropertyOp52
 70
     0
102
RTVSPropertyOp53
 70
     1
102
RTVSPropertyOp54
 70
     1
102
RTVSPropertyOp55
 70
     1
102
RTVSPropertyOp56
 70
     1
102
RTVSPropertyOp57
 70
     1
102
RTVSPropertyOp58
 70
     1
102
RTVSPropertyOp59
 70
     1
102
RTVSPropertyOp60
 70
     1
102
RTVSPropertyOp61
 70
     1
102
RTVSPropertyOp62
 70
     1
  0
ENDSEC
  0
EOF
