  0
SECTION
  2
HEADER
  9
$ACADVER
  1
AC1018
  9
$ACADMAINTVER
 70
     2
  9
$DWGCODEPAGE
  3
ANSI_1252
  9
$INSBASE
 10
0.0
 20
0.0
 30
0.0
  9
$EXTMIN
 10
-0.0064041928749248
 20
-0.0090573584946014
 30
-0.0000000000112498
  9
$EXTMAX
 10
420.0064100605654
 20
594.0090656570857
 30
0.0000000000002956
  9
$LIMMIN
 10
0.0
 20
0.0
  9
$LIMMAX
 10
419.9999999999999
 20
594.0
  9
$ORTHOMODE
 70
     1
  9
$REGENMODE
 70
     1
  9
$FILLMODE
 70
     1
  9
$QTEXTMODE
 70
     0
  9
$MIRRTEXT
 70
     1
  9
$LTSCALE
 40
20.0
  9
$ATTMODE
 70
     1
  9
$TEXTSIZE
 40
3.5
  9
$TRACEWID
 40
0.5
  9
$TEXTSTYLE
  7
STANDARD
  9
$CLAYER
  8
BEM
  9
$CELTYPE
  6
ByLayer
  9
$CECOLOR
 62
   256
  9
$CELTSCALE
 40
1.0
  9
$DISPSILH
 70
     0
  9
$DIMSCALE
 40
2.0
  9
$DIMASZ
 40
3.5
  9
$DIMEXO
 40
1.0
  9
$DIMDLI
 40
7.0
  9
$DIMRND
 40
0.0
  9
$DIMDLE
 40
0.0
  9
$DIMEXE
 40
1.0
  9
$DIMTP
 40
0.0
  9
$DIMTM
 40
0.0
  9
$DIMTXT
 40
3.5
  9
$DIMCEN
 40
1.5
  9
$DIMTSZ
 40
0.0
  9
$DIMTOL
 70
     0
  9
$DIMLIM
 70
     0
  9
$DIMTIH
 70
     0
  9
$DIMTOH
 70
     0
  9
$DIMSE1
 70
     0
  9
$DIMSE2
 70
     0
  9
$DIMTAD
 70
     1
  9
$DIMZIN
 70
     8
  9
$DIMBLK
  1

  9
$DIMASO
 70
     1
  9
$DIMSHO
 70
     0
  9
$DIMPOST
  1

  9
$DIMAPOST
  1

  9
$DIMALT
 70
     0
  9
$DIMALTD
 70
     2
  9
$DIMALTF
 40
25.4
  9
$DIMLFAC
 40
1.0
  9
$DIMTOFL
 70
     1
  9
$DIMTVP
 40
0.0
  9
$DIMTIX
 70
     0
  9
$DIMSOXD
 70
     0
  9
$DIMSAH
 70
     0
  9
$DIMBLK1
  1

  9
$DIMBLK2
  1

  9
$DIMSTYLE
  2
Standard
  9
$DIMCLRD
 70
     0
  9
$DIMCLRE
 70
     0
  9
$DIMCLRT
 70
     1
  9
$DIMTFAC
 40
0.5142857142857144
  9
$DIMGAP
 40
1.5
  9
$DIMJUST
 70
     0
  9
$DIMSD1
 70
     0
  9
$DIMSD2
 70
     0
  9
$DIMTOLJ
 70
     1
  9
$DIMTZIN
 70
     8
  9
$DIMALTZ
 70
     8
  9
$DIMALTTZ
 70
     8
  9
$DIMUPT
 70
     0
  9
$DIMDEC
 70
     2
  9
$DIMTDEC
 70
     2
  9
$DIMALTU
 70
     2
  9
$DIMALTTD
 70
     2
  9
$DIMTXSTY
  7
STANDARD
  9
$DIMAUNIT
 70
     0
  9
$DIMADEC
 70
     2
  9
$DIMALTRND
 40
0.0
  9
$DIMAZIN
 70
     2
  9
$DIMDSEP
 70
    46
  9
$DIMATFIT
 70
     3
  9
$DIMFRAC
 70
     0
  9
$DIMLDRBLK
  1

  9
$DIMLUNIT
 70
     2
  9
$DIMLWD
 70
    -2
  9
$DIMLWE
 70
    -2
  9
$DIMTMOVE
 70
     0
  9
$LUNITS
 70
     2
  9
$LUPREC
 70
     2
  9
$SKETCHINC
 40
1.0
  9
$FILLETRAD
 40
0.0
  9
$AUNITS
 70
     0
  9
$AUPREC
 70
     0
  9
$MENU
  1
ACAD
  9
$ELEVATION
 40
0.0
  9
$PELEVATION
 40
0.0
  9
$THICKNESS
 40
0.0
  9
$LIMCHECK
 70
     0
  9
$CHAMFERA
 40
0.0
  9
$CHAMFERB
 40
0.0
  9
$CHAMFERC
 40
0.0
  9
$CHAMFERD
 40
0.0
  9
$SKPOLY
 70
     0
  9
$TDCREATE
 40
2455397.823042361
  9
$TDUCREATE
 40
2455397.781375695
  9
$TDUPDATE
 40
2455532.489904340
  9
$TDUUPDATE
 40
2455532.448237673
  9
$TDINDWG
 40
0.2660454282
  9
$TDUSRTIMER
 40
0.2660454282
  9
$USRTIMER
 70
     1
  9
$ANGBASE
 50
0.0
  9
$ANGDIR
 70
     0
  9
$PDMODE
 70
     0
  9
$PDSIZE
 40
0.0
  9
$PLINEWID
 40
0.0
  9
$SPLFRAME
 70
     0
  9
$SPLINETYPE
 70
     6
  9
$SPLINESEGS
 70
     8
  9
$HANDSEED
  5
2B68
  9
$SURFTAB1
 70
     6
  9
$SURFTAB2
 70
     6
  9
$SURFTYPE
 70
     6
  9
$SURFU
 70
     6
  9
$SURFV
 70
     6
  9
$UCSBASE
  2

  9
$UCSNAME
  2

  9
$UCSORG
 10
0.0
 20
0.0
 30
0.0
  9
$UCSXDIR
 10
1.0
 20
0.0
 30
0.0
  9
$UCSYDIR
 10
0.0
 20
1.0
 30
0.0
  9
$UCSORTHOREF
  2

  9
$UCSORTHOVIEW
 70
     0
  9
$UCSORGTOP
 10
0.0
 20
0.0
 30
0.0
  9
$UCSORGBOTTOM
 10
0.0
 20
0.0
 30
0.0
  9
$UCSORGLEFT
 10
0.0
 20
0.0
 30
0.0
  9
$UCSORGRIGHT
 10
0.0
 20
0.0
 30
0.0
  9
$UCSORGFRONT
 10
0.0
 20
0.0
 30
0.0
  9
$UCSORGBACK
 10
0.0
 20
0.0
 30
0.0
  9
$PUCSBASE
  2

  9
$PUCSNAME
  2

  9
$PUCSORG
 10
0.0
 20
0.0
 30
0.0
  9
$PUCSXDIR
 10
1.0
 20
0.0
 30
0.0
  9
$PUCSYDIR
 10
0.0
 20
1.0
 30
0.0
  9
$PUCSORTHOREF
  2

  9
$PUCSORTHOVIEW
 70
     0
  9
$PUCSORGTOP
 10
0.0
 20
0.0
 30
0.0
  9
$PUCSORGBOTTOM
 10
0.0
 20
0.0
 30
0.0
  9
$PUCSORGLEFT
 10
0.0
 20
0.0
 30
0.0
  9
$PUCSORGRIGHT
 10
0.0
 20
0.0
 30
0.0
  9
$PUCSORGFRONT
 10
0.0
 20
0.0
 30
0.0
  9
$PUCSORGBACK
 10
0.0
 20
0.0
 30
0.0
  9
$USERI1
 70
     0
  9
$USERI2
 70
     0
  9
$USERI3
 70
     0
  9
$USERI4
 70
     0
  9
$USERI5
 70
     0
  9
$USERR1
 40
0.0
  9
$USERR2
 40
0.0
  9
$USERR3
 40
0.0
  9
$USERR4
 40
0.0
  9
$USERR5
 40
0.0
  9
$WORLDVIEW
 70
     1
  9
$SHADEDGE
 70
     3
  9
$SHADEDIF
 70
    70
  9
$TILEMODE
 70
     1
  9
$MAXACTVP
 70
    16
  9
$PINSBASE
 10
0.0
 20
0.0
 30
0.0
  9
$PLIMCHECK
 70
     0
  9
$PEXTMIN
 10
1.000000000000000E+20
 20
1.000000000000000E+20
 30
1.000000000000000E+20
  9
$PEXTMAX
 10
-1.000000000000000E+20
 20
-1.000000000000000E+20
 30
-1.000000000000000E+20
  9
$PLIMMIN
 10
0.0
 20
0.0
  9
$PLIMMAX
 10
12.0
 20
9.0
  9
$UNITMODE
 70
     0
  9
$VISRETAIN
 70
     0
  9
$PLINEGEN
 70
     0
  9
$PSLTSCALE
 70
     0
  9
$TREEDEPTH
 70
  3020
  9
$CMLSTYLE
  2
Standard
  9
$CMLJUST
 70
     0
  9
$CMLSCALE
 40
1.0
  9
$PROXYGRAPHICS
 70
     1
  9
$MEASUREMENT
 70
     0
  9
$CELWEIGHT
370
    -1
  9
$ENDCAPS
280
     0
  9
$JOINSTYLE
280
     0
  9
$LWDISPLAY
290
     0
  9
$INSUNITS
 70
     0
  9
$HYPERLINKBASE
  1

  9
$STYLESHEET
  1
monochrome 1.ctb
  9
$XEDIT
290
     1
  9
$CEPSNTYPE
380
     0
  9
$PSTYLEMODE
290
     1
  9
$FINGERPRINTGUID
  2
{D68B0D02-A558-11D7-B632-000102183313}
  9
$VERSIONGUID
  2
{D4A4A953-D66E-432D-8C3D-3A50E28FA873}
  9
$EXTNAMES
290
     1
  9
$PSVPSCALE
 40
0.0
  9
$OLESTARTUP
290
     0
  9
$SORTENTS
280
   127
  9
$INDEXCTL
280
     0
  9
$HIDETEXT
280
     0
  9
$XCLIPFRAME
290
     0
  9
$HALOGAP
280
     0
  9
$OBSCOLOR
 70
   257
  9
$OBSLTYPE
280
     0
  9
$INTERSECTIONDISPLAY
280
     0
  9
$INTERSECTIONCOLOR
 70
   257
  9
$DIMASSOC
280
     1
  9
$PROJECTNAME
  1

  0
ENDSEC
  0
SECTION
  2
CLASSES
  0
CLASS
  1
ACDBDICTIONARYWDFLT
  2
AcDbDictionaryWithDefault
  3
ObjectDBX Classes
 90
        0
 91
        1
280
     0
281
     0
  0
CLASS
  1
DICTIONARYVAR
  2
AcDbDictionaryVar
  3
ObjectDBX Classes
 90
        0
 91
        2
280
     0
281
     0
  0
ENDSEC
  0
SECTION
  2
TABLES
  0
TABLE
  2
VPORT
  5
8
330
0
100
AcDbSymbolTable
 70
     3
  0
VPORT
  5
2B67
330
8
100
AcDbSymbolTableRecord
100
AcDbViewportTableRecord
  2
*Active
 70
     0
 10
0.0
 20
0.0
 11
1.0
 21
1.0
 12
210.0000029338453
 22
297.0000041492956
 13
0.0
 23
0.0
 14
1.0
 24
1.0
 15
10.0
 25
10.0
 16
0.0
 26
0.0
 36
1.0
 17
0.0
 27
0.0
 37
0.0
 40
598.8150392175905
 41
1.336927223719676
 42
50.0
 43
0.0
 44
0.0
 50
0.0
 51
0.0
 71
     0
 72
  1500
 73
     1
 74
     0
 75
     0
 76
     0
 77
     0
 78
     0
281
     0
 65
     1
110
0.0
120
0.0
130
0.0
111
1.0
121
0.0
131
0.0
112
0.0
122
1.0
132
0.0
 79
     0
146
0.0
  0
ENDTAB
  0
TABLE
  2
LTYPE
  5
5
330
0
100
AcDbSymbolTable
 70
     2
  0
LTYPE
  5
13
330
5
100
AcDbSymbolTableRecord
100
AcDbLinetypeTableRecord
  2
ByBlock
 70
     0
  3

 72
    65
 73
     0
 40
0.0
  0
LTYPE
  5
14
330
5
100
AcDbSymbolTableRecord
100
AcDbLinetypeTableRecord
  2
ByLayer
 70
     0
  3

 72
    65
 73
     0
 40
0.0
  0
LTYPE
  5
15
330
5
100
AcDbSymbolTableRecord
100
AcDbLinetypeTableRecord
  2
Continuous
 70
     0
  3
Solid line
 72
    65
 73
     0
 40
0.0
  0
LTYPE
  5
25
330
5
100
AcDbSymbolTableRecord
100
AcDbLinetypeTableRecord
  2
STRICHPUNKT
 70
     0
  3
__ . __ . __ . __ . __ . __ . __ . __ . __ . __
 72
    65
 73
     4
 40
1.0
 49
0.5
 74
     0
 49
-0.25
 74
     0
 49
0.0
 74
     0
 49
-0.25
 74
     0
  0
ENDTAB
  0
TABLE
  2
LAYER
  5
2
330
0
100
AcDbSymbolTable
 70
     9
  0
LAYER
  5
10
330
2
100
AcDbSymbolTableRecord
100
AcDbLayerTableRecord
  2
0
 70
     0
 62
     7
  6
Continuous
370
    -3
390
F
  0
LAYER
  5
2A
330
2
100
AcDbSymbolTableRecord
100
AcDbLayerTableRecord
  2
VOLL
 70
     0
 62
     1
  6
Continuous
370
    -3
390
F
  0
LAYER
  5
2B
330
2
100
AcDbSymbolTableRecord
100
AcDbLayerTableRecord
  2
HILF
 70
     0
 62
     2
  6
Continuous
370
    -3
390
F
  0
LAYER
  5
2C
330
2
100
AcDbSymbolTableRecord
100
AcDbLayerTableRecord
  2
MITTEL
 70
     0
 62
     2
  6
STRICHPUNKT
370
    -3
390
F
  0
LAYER
  5
2F
330
2
100
AcDbSymbolTableRecord
100
AcDbLayerTableRecord
  2
BEM
 70
     0
 62
     7
  6
Continuous
370
    -3
390
F
  0
LAYER
  5
30
330
2
100
AcDbSymbolTableRecord
100
AcDbLayerTableRecord
  2
STEMPEL
 70
     0
 62
     3
  6
Continuous
370
    -3
390
F
  0
LAYER
  5
31
330
2
100
AcDbSymbolTableRecord
100
AcDbLayerTableRecord
  2
TEXT
 70
     0
 62
     7
  6
Continuous
370
    -3
390
F
  0
LAYER
  5
1BC
330
2
100
AcDbSymbolTableRecord
100
AcDbLayerTableRecord
  2
Defpoints
 70
     0
 62
     7
  6
Continuous
290
     0
370
    -3
390
F
  0
LAYER
  5
1BD
330
2
100
AcDbSymbolTableRecord
100
AcDbLayerTableRecord
  2
SCHRAFF
 70
     0
 62
     7
  6
Continuous
370
    -3
390
F
  0
ENDTAB
  0
TABLE
  2
STYLE
  5
3
330
0
100
AcDbSymbolTable
 70
     2
  0
STYLE
  5
11
330
3
100
AcDbSymbolTableRecord
100
AcDbTextStyleTableRecord
  2
STANDARD
 70
     0
 40
0.0
 41
0.8
 50
0.0
 71
     0
 42
3.5
  3
simplex.shx
  4

  0
STYLE
  5
24
330
3
100
AcDbSymbolTableRecord
100
AcDbTextStyleTableRecord
  2
GREEKS
 70
     0
 40
0.0
 41
0.8
 50
0.0
 71
     0
 42
2.5
  3
SIMPLEX.shx
  4

  0
ENDTAB
  0
TABLE
  2
VIEW
  5
6
330
0
100
AcDbSymbolTable
 70
     0
  0
ENDTAB
  0
TABLE
  2
UCS
  5
7
330
0
100
AcDbSymbolTable
 70
     0
  0
ENDTAB
  0
TABLE
  2
APPID
  5
9
330
0
100
AcDbSymbolTable
 70
     1
  0
APPID
  5
12
330
9
100
AcDbSymbolTableRecord
100
AcDbRegAppTableRecord
  2
ACAD
 70
     0
  0
ENDTAB
  0
TABLE
  2
DIMSTYLE
  5
A
330
0
100
AcDbSymbolTable
 70
     1
100
AcDbDimStyleTable
 71
     1
340
9D
  0
DIMSTYLE
105
9D
102
{ACAD_REACTORS
330
2304
330
2307
330
234C
330
234D
330
2662
330
272A
330
2789
330
2A47
102
}
330
A
100
AcDbSymbolTableRecord
100
AcDbDimStyleTableRecord
  2
Standard
 70
     0
340
11
  0
ENDTAB
  0
TABLE
  2
BLOCK_RECORD
  5
1
330
0
100
AcDbSymbolTable
 70
     9
  0
BLOCK_RECORD
  5
1E
102
{ACAD_XDICTIONARY
360
A0
102
}
330
1
100
AcDbSymbolTableRecord
100
AcDbBlockTableRecord
  2
*Model_Space
340
21
  0
BLOCK_RECORD
  5
1A
102
{ACAD_XDICTIONARY
360
A2
102
}
330
1
100
AcDbSymbolTableRecord
100
AcDbBlockTableRecord
  2
*Paper_Space
340
1D
  0
BLOCK_RECORD
  5
22
330
1
100
AcDbSymbolTableRecord
100
AcDbBlockTableRecord
  2
LOGO
340
0
102
{BLKREFS
331
9B
102
}
  0
BLOCK_RECORD
  5
2378
330
1
100
AcDbSymbolTableRecord
100
AcDbBlockTableRecord
  2
*D1
340
0
  0
BLOCK_RECORD
  5
2390
330
1
100
AcDbSymbolTableRecord
100
AcDbBlockTableRecord
  2
*D2
340
0
  0
BLOCK_RECORD
  5
23CF
330
1
100
AcDbSymbolTableRecord
100
AcDbBlockTableRecord
  2
*D3
340
0
  0
BLOCK_RECORD
  5
23DB
330
1
100
AcDbSymbolTableRecord
100
AcDbBlockTableRecord
  2
*D4
340
0
  0
BLOCK_RECORD
  5
2670
330
1
100
AcDbSymbolTableRecord
100
AcDbBlockTableRecord
  2
*D5
340
0
  0
BLOCK_RECORD
  5
272B
330
1
100
AcDbSymbolTableRecord
100
AcDbBlockTableRecord
  2
*D6
340
0
  0
BLOCK_RECORD
  5
279D
330
1
100
AcDbSymbolTableRecord
100
AcDbBlockTableRecord
  2
*D7
340
0
  0
BLOCK_RECORD
  5
2A48
330
1
100
AcDbSymbolTableRecord
100
AcDbBlockTableRecord
  2
*D8
340
0
  0
ENDTAB
  0
ENDSEC
  0
SECTION
  2
BLOCKS
  0
BLOCK
  5
35
330
1E
100
AcDbEntity
  8
0
100
AcDbBlockBegin
  2
*Model_Space
 70
     0
 10
0.0
 20
0.0
 30
0.0
  3
*Model_Space
  1

  0
ENDBLK
  5
36
330
1E
100
AcDbEntity
  8
0
100
AcDbBlockEnd
  0
BLOCK
  5
33
330
1A
100
AcDbEntity
 67
     1
  8
0
100
AcDbBlockBegin
  2
*Paper_Space
 70
     0
 10
0.0
 20
0.0
 30
0.0
  3
*Paper_Space
  1

  0
ENDBLK
  5
34
330
1A
100
AcDbEntity
 67
     1
  8
0
100
AcDbBlockEnd
  0
BLOCK
  5
37
330
22
100
AcDbEntity
  8
0
100
AcDbBlockBegin
  2
LOGO
 70
     0
 10
0.0
 20
0.0
 30
0.0
  3
LOGO
  1

  0
ARC
  5
38
330
22
100
AcDbEntity
  8
0
100
AcDbCircle
 10
11.59973089678112
 20
-9.271599258481501
 30
0.0
 40
4.5
100
AcDbArc
 50
270.0
 51
231.0575587310159
  0
LINE
  5
39
330
22
100
AcDbEntity
  8
0
100
AcDbLine
 10
3.599730896781125
 20
-4.771599258481529
 30
0.0
 11
3.599730896781153
 21
-11.77159925848133
 31
0.0
  0
LINE
  5
3A
330
22
100
AcDbEntity
  8
0
100
AcDbLine
 10
2.599730896781125
 20
-4.771599258481529
 30
0.0
 11
2.599730896781153
 21
-11.77159925848133
 31
0.0
  0
CIRCLE
  5
3B
330
22
100
AcDbEntity
  8
0
100
AcDbCircle
 10
11.59973089678112
 20
-9.271599258481501
 30
0.0
 40
3.5
  0
ARC
  5
3C
330
22
100
AcDbEntity
  8
0
100
AcDbCircle
 10
31.59973089678115
 20
-9.271599258481472
 30
0.0
 40
4.5
100
AcDbArc
 50
270.0
 51
231.0575587310182
  0
LINE
  5
3D
330
22
100
AcDbEntity
  8
0
100
AcDbLine
 10
17.59973089678112
 20
-4.771599258481472
 30
0.0
 11
17.59973089678115
 21
-13.77159925848147
 31
0.0
  0
ARC
  5
3E
330
22
100
AcDbEntity
  8
0
100
AcDbCircle
 10
22.59973089678116
 20
-7.271599258481472
 30
0.0
 40
2.5
100
AcDbArc
 50
293.1161887722295
 51
90.0
  0
CIRCLE
  5
3F
330
22
100
AcDbEntity
  8
0
100
AcDbCircle
 10
31.59973089678115
 20
-9.271599258481472
 30
0.0
 40
3.5
  0
ARC
  5
40
330
22
100
AcDbEntity
  8
0
100
AcDbCircle
 10
4.599730896781153
 20
-11.77159925848133
 30
0.0
 40
1.0
100
AcDbArc
 50
180.0
 51
270.0
  0
ARC
  5
41
330
22
100
AcDbEntity
  8
0
100
AcDbCircle
 10
4.599730896781153
 20
-11.77159925848133
 30
0.0
 40
2.0
100
AcDbArc
 50
179.9999999999992
 51
270.0
  0
LINE
  5
42
330
22
100
AcDbEntity
  8
0
100
AcDbLine
 10
11.59973089678115
 20
-13.77159925848144
 30
0.0
 11
4.599730896781153
 21
-13.77159925848147
 31
0.0
  0
LINE
  5
43
330
22
100
AcDbEntity
  8
0
100
AcDbLine
 10
8.771303772034769
 20
-12.77159925848136
 30
0.0
 11
4.599730896781153
 21
-12.77159925848133
 31
0.0
  0
LINE
  5
44
330
22
100
AcDbEntity
  8
0
100
AcDbLine
 10
31.59973089678115
 20
-13.77159925848147
 30
0.0
 11
23.6715276665056
 21
-13.77159925848144
 31
0.0
  0
LINE
  5
45
330
22
100
AcDbEntity
  8
0
100
AcDbLine
 10
23.56565672307022
 20
-9.51278021337896
 30
0.0
 11
24.4388546544846
 21
-12.77159925848144
 31
0.0
  0
LINE
  5
46
330
22
100
AcDbEntity
  8
0
100
AcDbLine
 10
22.59973089678116
 20
-9.771599258481472
 30
0.0
 11
18.59973089678112
 21
-9.771599258481472
 31
0.0
  0
LINE
  5
47
330
22
100
AcDbEntity
  8
0
100
AcDbLine
 10
18.59973089678115
 20
-13.77159925848144
 30
0.0
 11
17.59973089678115
 21
-13.77159925848144
 31
0.0
  0
LINE
  5
48
330
22
100
AcDbEntity
  8
0
100
AcDbLine
 10
18.59973089678115
 20
-9.771599258481472
 30
0.0
 11
18.59973089678115
 21
-13.77159925848144
 31
0.0
  0
LINE
  5
49
330
22
100
AcDbEntity
  8
0
100
AcDbLine
 10
22.59973089678116
 20
-9.771599258481472
 30
0.0
 11
23.67152766650562
 21
-13.77159925848147
 31
0.0
  0
ARC
  5
4A
330
22
100
AcDbEntity
  8
0
100
AcDbCircle
 10
22.59973089678116
 20
-7.271599258481472
 30
0.0
 40
2.5
100
AcDbArc
 50
270.0
 51
270.0000000000007
  0
LINE
  5
4B
330
22
100
AcDbEntity
  8
0
100
AcDbLine
 10
28.77130377203494
 20
-12.77159925848147
 30
0.0
 11
24.43885465448463
 21
-12.77159925848144
 31
0.0
  0
LINE
  5
4C
330
22
100
AcDbEntity
  8
0
100
AcDbLine
 10
3.599730896781125
 20
-4.771599258481472
 30
0.0
 11
2.599730896781125
 21
-4.771599258481472
 31
0.0
  0
LINE
  5
4D
330
22
100
AcDbEntity
  8
0
100
AcDbLine
 10
22.59973089678116
 20
-8.771599258481472
 30
0.0
 11
18.59973089678115
 21
-8.771599258481472
 31
0.0
  0
LINE
  5
4E
330
22
100
AcDbEntity
  8
0
100
AcDbLine
 10
22.59973089678116
 20
-5.771599258481472
 30
0.0
 11
18.59973089678115
 21
-5.771599258481472
 31
0.0
  0
LINE
  5
4F
330
22
100
AcDbEntity
  8
0
100
AcDbLine
 10
22.59973089678116
 20
-4.771599258481472
 30
0.0
 11
17.59973089678115
 21
-4.771599258481472
 31
0.0
  0
LINE
  5
50
330
22
100
AcDbEntity
  8
0
100
AcDbLine
 10
18.59973089678115
 20
-5.771599258481472
 30
0.0
 11
18.59973089678115
 21
-8.771599258481472
 31
0.0
  0
ARC
  5
51
330
22
100
AcDbEntity
  8
0
100
AcDbCircle
 10
22.59973089678116
 20
-7.271599258481472
 30
0.0
 40
1.5
100
AcDbArc
 50
270.0
 51
90.0
  0
ENDBLK
  5
52
330
22
100
AcDbEntity
  8
0
100
AcDbBlockEnd
  0
BLOCK
  5
2382
330
2378
100
AcDbEntity
  8
0
100
AcDbBlockBegin
  2
*D1
 70
     1
 10
0.0
 20
0.0
 30
0.0
  3
*D1
  1

  0
LINE
  5
27FE
330
2378
100
AcDbEntity
  8
BEM
 62
     0
370
    -2
100
AcDbLine
 10
369.5349572540113
 20
297.6215977154939
 30
0.0
 11
372.0151034853416
 21
250.2975884699374
 31
0.0
  0
LINE
  5
27FF
330
2378
100
AcDbEntity
  8
BEM
 62
     0
370
    -2
100
AcDbLine
 10
191.2944475818051
 20
354.8716694341575
 30
0.0
 11
197.2549349032921
 21
241.1387961274201
 31
0.0
  0
LINE
  5
2800
330
2378
100
AcDbEntity
  8
BEM
 62
     0
370
    -2
100
AcDbLine
 10
364.9200248295737
 20
251.9284958457459
 30
0.0
 11
204.1406697340883
 21
243.50240689063
 31
0.0
  0
SOLID
  5
2801
330
2378
100
AcDbEntity
  8
BEM
 62
     0
100
AcDbTrace
 10
364.8589662139569
 20
253.0935636362928
 30
0.0
 11
364.9810834451904
 21
250.7634280551989
 31
0.0
 12
371.9104315728557
 22
252.2948475394465
 32
0.0
 13
371.9104315728557
 23
252.2948475394465
 33
0.0
  0
SOLID
  5
2802
330
2378
100
AcDbEntity
  8
BEM
 62
     0
100
AcDbTrace
 10
204.0796111184715
 20
244.6674746811769
 30
0.0
 11
204.201728349705
 21
242.3373391000829
 31
0.0
 12
197.1502629908062
 22
243.1360551969293
 32
0.0
 13
197.1502629908062
 23
243.1360551969293
 33
0.0
  0
MTEXT
  5
2803
330
2378
100
AcDbEntity
  8
BEM
 62
     1
100
AcDbMText
 10
288.7876427958969
 20
254.4474870208183
 30
0.0
 40
7.0
 41
0.0
 71
     5
 72
     1
  1
\A1;175
 11
0.9986295347545734
 21
0.0523359562429564
 31
0.0
 73
     1
 44
1.0
  0
POINT
  5
2804
330
2378
100
AcDbEntity
  8
Defpoints
 62
     0
100
AcDbPoint
 10
369.4302853415253
 20
299.618856785003
 30
0.0
  0
POINT
  5
2805
330
2378
100
AcDbEntity
  8
Defpoints
 62
     0
100
AcDbPoint
 10
191.1897756693192
 20
356.8689285036667
 30
0.0
  0
POINT
  5
2806
330
2378
100
AcDbEntity
  8
Defpoints
 62
     0
100
AcDbPoint
 10
197.1502629908062
 20
243.1360551969293
 30
0.0
  0
ENDBLK
  5
2383
330
2378
100
AcDbEntity
  8
0
100
AcDbBlockEnd
  0
BLOCK
  5
239A
330
2390
100
AcDbEntity
  8
0
100
AcDbBlockBegin
  2
*D2
 70
     1
 10
0.0
 20
0.0
 30
0.0
  3
*D2
  1

  0
LINE
  5
2B53
330
2390
100
AcDbEntity
  8
BEM
 62
     0
370
    -2
100
AcDbLine
 10
105.0397756693193
 20
531.8689285036668
 30
0.0
 11
62.70631283610882
 21
531.8689285036668
 31
0.0
  0
LINE
  5
2B54
330
2390
100
AcDbEntity
  8
BEM
 62
     0
370
    -2
100
AcDbLine
 10
123.3801353836682
 20
201.8689285036667
 30
0.0
 11
62.70631283610874
 21
201.8689285036667
 31
0.0
  0
LINE
  5
2B55
330
2390
100
AcDbEntity
  8
BEM
 62
     0
370
    -2
100
AcDbLine
 10
64.70631283610881
 20
524.8689285036667
 30
0.0
 11
64.70631283610874
 21
208.8689285036667
 31
0.0
  0
SOLID
  5
2B56
330
2390
100
AcDbEntity
  8
BEM
 62
     0
100
AcDbTrace
 10
63.53964616944214
 20
524.8689285036667
 30
0.0
 11
65.87297950277548
 21
524.8689285036667
 31
0.0
 12
64.70631283610881
 22
531.8689285036668
 32
0.0
 13
64.70631283610881
 23
531.8689285036668
 33
0.0
  0
SOLID
  5
2B57
330
2390
100
AcDbEntity
  8
BEM
 62
     0
100
AcDbTrace
 10
63.53964616944208
 20
208.8689285036668
 30
0.0
 11
65.87297950277541
 21
208.8689285036667
 31
0.0
 12
64.70631283610874
 22
201.8689285036667
 32
0.0
 13
64.70631283610874
 23
201.8689285036667
 33
0.0
  0
MTEXT
  5
2B58
330
2390
100
AcDbEntity
  8
BEM
 62
     1
100
AcDbMText
 10
58.20631283610872
 20
366.8689285036668
 30
0.0
 40
7.0
 41
0.0
 71
     5
 72
     1
  1
\A1;330
 11
0.0000000000000001
 21
1.0
 31
0.0
 73
     1
 44
1.0
  0
POINT
  5
2B59
330
2390
100
AcDbEntity
  8
Defpoints
 62
     0
100
AcDbPoint
 10
107.0397756693193
 20
531.8689285036668
 30
0.0
  0
POINT
  5
2B5A
330
2390
100
AcDbEntity
  8
Defpoints
 62
     0
100
AcDbPoint
 10
125.3801353836681
 20
201.8689285036667
 30
0.0
  0
POINT
  5
2B5B
330
2390
100
AcDbEntity
  8
Defpoints
 62
     0
100
AcDbPoint
 10
64.70631283610874
 20
201.8689285036667
 30
0.0
  0
ENDBLK
  5
239B
330
2390
100
AcDbEntity
  8
0
100
AcDbBlockEnd
  0
BLOCK
  5
23D9
330
23CF
100
AcDbEntity
  8
0
100
AcDbBlockBegin
  2
*D3
 70
     1
 10
0.0
 20
0.0
 30
0.0
  3
*D3
  1

  0
LINE
  5
2B4A
330
23CF
100
AcDbEntity
  8
BEM
 62
     0
370
    -2
100
AcDbLine
 10
123.3801353836682
 20
201.8689285036667
 30
0.0
 11
78.55585786257389
 21
201.8689285036667
 31
0.0
  0
LINE
  5
2B4B
330
23CF
100
AcDbEntity
  8
BEM
 62
     0
370
    -2
100
AcDbLine
 10
189.1897756693192
 20
356.8689285036667
 30
0.0
 11
78.55585786257393
 21
356.8689285036668
 31
0.0
  0
LINE
  5
2B4C
330
23CF
100
AcDbEntity
  8
BEM
 62
     0
370
    -2
100
AcDbLine
 10
80.55585786257388
 20
208.8689285036667
 30
0.0
 11
80.55585786257392
 21
349.8689285036668
 31
0.0
  0
SOLID
  5
2B4D
330
23CF
100
AcDbEntity
  8
BEM
 62
     0
100
AcDbTrace
 10
79.38919119590721
 20
208.8689285036667
 30
0.0
 11
81.72252452924055
 21
208.8689285036667
 31
0.0
 12
80.55585786257388
 22
201.8689285036667
 32
0.0
 13
80.55585786257388
 23
201.8689285036667
 33
0.0
  0
SOLID
  5
2B4E
330
23CF
100
AcDbEntity
  8
BEM
 62
     0
100
AcDbTrace
 10
79.38919119590725
 20
349.8689285036668
 30
0.0
 11
81.72252452924059
 21
349.8689285036668
 31
0.0
 12
80.55585786257394
 22
356.8689285036668
 32
0.0
 13
80.55585786257394
 23
356.8689285036668
 33
0.0
  0
MTEXT
  5
2B4F
330
23CF
100
AcDbEntity
  8
BEM
 62
     1
100
AcDbMText
 10
74.05585786257386
 20
279.3689285036668
 30
0.0
 40
7.0
 41
0.0
 71
     5
 72
     1
  1
\A1;155
 11
0.0000000000000001
 21
1.0
 31
0.0
 73
     1
 44
1.0
  0
POINT
  5
2B50
330
23CF
100
AcDbEntity
  8
Defpoints
 62
     0
100
AcDbPoint
 10
125.3801353836681
 20
201.8689285036667
 30
0.0
  0
POINT
  5
2B51
330
23CF
100
AcDbEntity
  8
Defpoints
 62
     0
100
AcDbPoint
 10
191.1897756693192
 20
356.8689285036667
 30
0.0
  0
POINT
  5
2B52
330
23CF
100
AcDbEntity
  8
Defpoints
 62
     0
100
AcDbPoint
 10
80.55585786257394
 20
356.8689285036668
 30
0.0
  0
ENDBLK
  5
23DA
330
23CF
100
AcDbEntity
  8
0
100
AcDbBlockEnd
  0
BLOCK
  5
23E5
330
23DB
100
AcDbEntity
  8
0
100
AcDbBlockBegin
  2
*D4
 70
     1
 10
0.0
 20
0.0
 30
0.0
  3
*D4
  1

  0
LINE
  5
2454
330
23DB
100
AcDbEntity
  8
BEM
 62
     0
370
    -2
100
AcDbLine
 10
124.6897756693189
 20
207.759776146399
 30
0.0
 11
124.6897756693189
 21
178.5158538062941
 31
0.0
  0
LINE
  5
2455
330
23DB
100
AcDbEntity
  8
BEM
 62
     0
370
    -2
100
AcDbLine
 10
257.6897756693191
 20
207.7597761463954
 30
0.0
 11
257.6897756693191
 21
178.5158538062941
 31
0.0
  0
LINE
  5
2456
330
23DB
100
AcDbEntity
  8
BEM
 62
     0
370
    -2
100
AcDbLine
 10
131.6897756693189
 20
180.5158538062941
 30
0.0
 11
250.6897756693192
 21
180.5158538062941
 31
0.0
  0
SOLID
  5
2457
330
23DB
100
AcDbEntity
  8
BEM
 62
     0
100
AcDbTrace
 10
131.6897756693189
 20
181.6825204729607
 30
0.0
 11
131.6897756693189
 21
179.3491871396274
 31
0.0
 12
124.6897756693189
 22
180.5158538062941
 32
0.0
 13
124.6897756693189
 23
180.5158538062941
 33
0.0
  0
SOLID
  5
2458
330
23DB
100
AcDbEntity
  8
BEM
 62
     0
100
AcDbTrace
 10
250.6897756693192
 20
181.6825204729607
 30
0.0
 11
250.6897756693192
 21
179.3491871396274
 31
0.0
 12
257.6897756693191
 22
180.5158538062941
 32
0.0
 13
257.6897756693191
 23
180.5158538062941
 33
0.0
  0
MTEXT
  5
2459
330
23DB
100
AcDbEntity
  8
BEM
 62
     1
100
AcDbMText
 10
191.189775669319
 20
187.0158538062941
 30
0.0
 40
7.0
 41
0.0
 71
     5
 72
     1
  1
\A1;%%C133
 73
     1
 44
1.0
  0
POINT
  5
245A
330
23DB
100
AcDbEntity
  8
Defpoints
 62
     0
100
AcDbPoint
 10
124.6897756693189
 20
209.759776146399
 30
0.0
  0
POINT
  5
245B
330
23DB
100
AcDbEntity
  8
Defpoints
 62
     0
100
AcDbPoint
 10
257.6897756693191
 20
209.7597761463954
 30
0.0
  0
POINT
  5
245C
330
23DB
100
AcDbEntity
  8
Defpoints
 62
     0
100
AcDbPoint
 10
257.6897756693191
 20
180.5158538062941
 30
0.0
  0
ENDBLK
  5
23E6
330
23DB
100
AcDbEntity
  8
0
100
AcDbBlockEnd
  0
BLOCK
  5
267A
330
2670
100
AcDbEntity
  8
0
100
AcDbBlockBegin
  2
*D5
 70
     1
 10
0.0
 20
0.0
 30
0.0
  3
*D5
  1

  0
LINE
  5
2B1D
330
2670
100
AcDbEntity
  8
BEM
 62
     0
370
    -2
100
AcDbLine
 10
107.0397756693193
 20
533.8689285036667
 30
0.0
 11
107.0397756693193
 21
549.0827908373931
 31
0.0
  0
LINE
  5
2B1E
330
2670
100
AcDbEntity
  8
BEM
 62
     0
370
    -2
100
AcDbLine
 10
275.3397756693193
 20
533.8689285036666
 30
0.0
 11
275.3397756693193
 21
549.0827908373931
 31
0.0
  0
LINE
  5
2B1F
330
2670
100
AcDbEntity
  8
BEM
 62
     0
370
    -2
100
AcDbLine
 10
114.0397756693193
 20
547.0827908373932
 30
0.0
 11
268.3397756693194
 21
547.0827908373932
 31
0.0
  0
SOLID
  5
2B20
330
2670
100
AcDbEntity
  8
BEM
 62
     0
100
AcDbTrace
 10
114.0397756693193
 20
548.2494575040598
 30
0.0
 11
114.0397756693193
 21
545.9161241707265
 31
0.0
 12
107.0397756693193
 22
547.0827908373932
 32
0.0
 13
107.0397756693193
 23
547.0827908373932
 33
0.0
  0
SOLID
  5
2B21
330
2670
100
AcDbEntity
  8
BEM
 62
     0
100
AcDbTrace
 10
268.3397756693194
 20
548.2494575040598
 30
0.0
 11
268.3397756693194
 21
545.9161241707265
 31
0.0
 12
275.3397756693193
 22
547.0827908373932
 32
0.0
 13
275.3397756693193
 23
547.0827908373932
 33
0.0
  0
MTEXT
  5
2B22
330
2670
100
AcDbEntity
  8
BEM
 62
     1
100
AcDbMText
 10
191.1897756693193
 20
553.5827908373931
 30
0.0
 40
7.0
 41
0.0
 71
     5
 72
     1
  1
\A1;%%c168.3
  7
GREEKS
 73
     1
 44
1.0
  0
POINT
  5
2B23
330
2670
100
AcDbEntity
  8
Defpoints
 62
     0
100
AcDbPoint
 10
107.0397756693193
 20
531.8689285036668
 30
0.0
  0
POINT
  5
2B24
330
2670
100
AcDbEntity
  8
Defpoints
 62
     0
100
AcDbPoint
 10
275.3397756693193
 20
531.8689285036667
 30
0.0
  0
POINT
  5
2B25
330
2670
100
AcDbEntity
  8
Defpoints
 62
     0
100
AcDbPoint
 10
275.3397756693193
 20
547.0827908373932
 30
0.0
  0
ENDBLK
  5
267B
330
2670
100
AcDbEntity
  8
0
100
AcDbBlockEnd
  0
BLOCK
  5
2735
330
272B
100
AcDbEntity
  8
0
100
AcDbBlockBegin
  2
*D6
 70
     1
 10
0.0
 20
0.0
 30
0.0
  3
*D6
  1

  0
LINE
  5
2B41
330
272B
100
AcDbEntity
  8
BEM
 62
     0
370
    -2
100
AcDbLine
 10
105.0397756693193
 20
261.8689285036666
 30
0.0
 11
94.3499103274712
 21
261.8689285036666
 31
0.0
  0
LINE
  5
2B42
330
272B
100
AcDbEntity
  8
BEM
 62
     0
370
    -2
100
AcDbLine
 10
123.3801353836682
 20
201.8689285036667
 30
0.0
 11
94.34991032747118
 21
201.8689285036667
 31
0.0
  0
LINE
  5
2B43
330
272B
100
AcDbEntity
  8
BEM
 62
     0
370
    -2
100
AcDbLine
 10
96.34991032747121
 20
254.8689285036666
 30
0.0
 11
96.34991032747119
 21
208.8689285036667
 31
0.0
  0
SOLID
  5
2B44
330
272B
100
AcDbEntity
  8
BEM
 62
     0
100
AcDbTrace
 10
95.18324366080454
 20
254.8689285036666
 30
0.0
 11
97.51657699413788
 21
254.8689285036666
 31
0.0
 12
96.34991032747121
 22
261.8689285036666
 32
0.0
 13
96.34991032747121
 23
261.8689285036666
 33
0.0
  0
SOLID
  5
2B45
330
272B
100
AcDbEntity
  8
BEM
 62
     0
100
AcDbTrace
 10
95.18324366080452
 20
208.8689285036667
 30
0.0
 11
97.51657699413787
 21
208.8689285036667
 31
0.0
 12
96.34991032747119
 22
201.8689285036667
 32
0.0
 13
96.34991032747119
 23
201.8689285036667
 33
0.0
  0
MTEXT
  5
2B46
330
272B
100
AcDbEntity
  8
BEM
 62
     1
100
AcDbMText
 10
89.84991032747116
 20
231.8689285036667
 30
0.0
 40
7.0
 41
0.0
 71
     5
 72
     1
  1
\A1;60
 11
0.0000000000000001
 21
1.0
 31
0.0
 73
     1
 44
1.0
  0
POINT
  5
2B47
330
272B
100
AcDbEntity
  8
Defpoints
 62
     0
100
AcDbPoint
 10
107.0397756693193
 20
261.8689285036666
 30
0.0
  0
POINT
  5
2B48
330
272B
100
AcDbEntity
  8
Defpoints
 62
     0
100
AcDbPoint
 10
125.3801353836681
 20
201.8689285036667
 30
0.0
  0
POINT
  5
2B49
330
272B
100
AcDbEntity
  8
Defpoints
 62
     0
100
AcDbPoint
 10
96.34991032747119
 20
201.8689285036667
 30
0.0
  0
ENDBLK
  5
2736
330
272B
100
AcDbEntity
  8
0
100
AcDbBlockEnd
  0
BLOCK
  5
27A7
330
279D
100
AcDbEntity
  8
0
100
AcDbBlockBegin
  2
*D7
 70
     1
 10
0.0
 20
0.0
 30
0.0
  3
*D7
  1

  0
LINE
  5
2B26
330
279D
100
AcDbEntity
  8
BEM
 62
     0
370
    -2
100
AcDbLine
 10
364.4668622307232
 20
432.5412568198474
 30
0.0
 11
380.7650913753269
 21
433.3954108155619
 31
0.0
  0
LINE
  5
2B27
330
279D
100
AcDbEntity
  8
BEM
 62
     0
370
    -2
100
AcDbLine
 10
371.4275444110348
 20
299.7235286974889
 30
0.0
 11
387.7257735556364
 21
300.5776826932034
 31
0.0
  0
LINE
  5
2B28
330
279D
100
AcDbEntity
  8
BEM
 62
     0
370
    -2
100
AcDbLine
 10
379.1341839995183
 20
426.3003321597941
 30
0.0
 11
385.3621627924267
 21
307.4634175239996
 31
0.0
  0
SOLID
  5
2B29
330
279D
100
AcDbEntity
  8
BEM
 62
     0
100
AcDbTrace
 10
380.2992517900653
 20
426.3613907754109
 30
0.0
 11
377.9691162089712
 21
426.2392735441774
 31
0.0
 12
378.7678323058178
 22
433.2907389030761
 32
0.0
 13
378.7678323058178
 23
433.2907389030761
 33
0.0
  0
SOLID
  5
2B2A
330
279D
100
AcDbEntity
  8
BEM
 62
     0
100
AcDbTrace
 10
386.5272305829737
 20
307.5244761396163
 30
0.0
 11
384.1970950018796
 21
307.4023589083828
 31
0.0
 12
385.7285144861272
 22
300.4730107807175
 32
0.0
 13
385.7285144861272
 23
300.4730107807175
 33
0.0
  0
MTEXT
  5
2B2B
330
279D
100
AcDbEntity
  8
BEM
 62
     1
100
AcDbMText
 10
388.7392653718771
 20
367.2220585574759
 30
0.0
 40
7.0
 41
0.0
 71
     5
 72
     1
  1
\A1;%%c133
  7
GREEKS
 11
0.0523359562429282
 21
-0.9986295347545746
 31
0.0
 73
     1
 44
1.0
  0
POINT
  5
2B2C
330
279D
100
AcDbEntity
  8
Defpoints
 62
     0
100
AcDbPoint
 10
362.469603161214
 20
432.4365849073616
 30
0.0
  0
POINT
  5
2B2D
330
279D
100
AcDbEntity
  8
Defpoints
 62
     0
100
AcDbPoint
 10
369.4302853415255
 20
299.6188567850031
 30
0.0
  0
POINT
  5
2B2E
330
279D
100
AcDbEntity
  8
Defpoints
 62
     0
100
AcDbPoint
 10
385.7285144861272
 20
300.4730107807175
 30
0.0
  0
ENDBLK
  5
27A8
330
279D
100
AcDbEntity
  8
0
100
AcDbBlockEnd
  0
BLOCK
  5
2A52
330
2A48
100
AcDbEntity
  8
0
100
AcDbBlockBegin
  2
*D8
 70
     1
 10
0.0
 20
0.0
 30
0.0
  3
*D8
  1

  0
ARC
  5
2A5D
330
2A48
100
AcDbEntity
  8
BEM
 62
     0
370
    -2
100
AcDbCircle
 10
191.1897756693192
 20
356.8689285036667
 30
0.0
 40
69.40023350676796
100
AcDbArc
 50
8.781546326161347
 51
84.2184536738387
  0
SOLID
  5
2A5E
330
2A48
100
AcDbEntity
  8
BEM
 62
     0
100
AcDbTrace
 10
260.9369780367095
 20
367.5838293337441
 30
0.0
 11
258.6159662018571
 21
367.3443538508245
 31
0.0
 12
260.4948985680417
 22
360.5010560877271
 32
0.0
 13
260.4948985680417
 23
360.5010560877271
 33
0.0
  0
SOLID
  5
2A5F
330
2A48
100
AcDbEntity
  8
BEM
 62
     0
100
AcDbTrace
 10
198.1220306527684
 20
424.7509551880433
 30
0.0
 11
198.2397055690332
 21
427.0813193352371
 31
0.0
 12
191.1897756693193
 22
426.2691620104347
 32
0.0
 13
191.1897756693193
 23
426.2691620104347
 33
0.0
  0
MTEXT
  5
2A60
330
2A48
100
AcDbEntity
  8
BEM
 62
     1
100
AcDbMText
 10
230.4873355530971
 20
421.8038746695241
 30
0.0
 40
7.0
 41
0.0
 71
     5
 72
     1
  1
\A1;87°
 11
0.8555302555171612
 21
-0.517752819301586
 31
0.0
 73
     1
 44
1.0
  0
POINT
  5
2A61
330
2A48
100
AcDbEntity
  8
Defpoints
 62
     0
100
AcDbPoint
 10
250.0445115675452
 20
393.6454491811858
 30
0.0
  0
POINT
  5
2A62
330
2A48
100
AcDbEntity
  8
Defpoints
 62
     0
100
AcDbPoint
 10
191.1897756693192
 20
536.8689285036668
 30
0.0
  0
POINT
  5
2A63
330
2A48
100
AcDbEntity
  8
Defpoints
 62
     0
100
AcDbPoint
 10
370.9430919251425
 20
366.2894006273967
 30
0.0
  0
POINT
  5
2A64
330
2A48
100
AcDbEntity
  8
Defpoints
 62
     0
100
AcDbPoint
 10
222.8867424048331
 20
358.5300961402835
 30
0.0
  0
POINT
  5
2A65
330
2A48
100
AcDbEntity
  8
Defpoints
 62
     0
100
AcDbPoint
 10
191.1897756693192
 20
196.8689285036667
 30
0.0
  0
ENDBLK
  5
2A53
330
2A48
100
AcDbEntity
  8
0
100
AcDbBlockEnd
  0
ENDSEC
  0
SECTION
  2
ENTITIES
  0
LINE
  5
57
330
1E
100
AcDbEntity
  8
STEMPEL
100
AcDbLine
 10
410.0
 20
110.0
 30
0.0
 11
39.99999999999997
 21
110.0
 31
0.0
  0
LINE
  5
58
330
1E
100
AcDbEntity
  8
STEMPEL
100
AcDbLine
 10
136.0000000000001
 20
109.9999999999999
 30
0.0
 11
136.0
 21
9.999999999999971
 31
0.0
  0
LINE
  5
59
330
1E
100
AcDbEntity
  8
STEMPEL
100
AcDbLine
 10
220.0
 20
110.0
 30
0.0
 11
220.0
 21
9.999999999999971
 31
0.0
  0
LINE
  5
5A
330
1E
100
AcDbEntity
  8
STEMPEL
100
AcDbLine
 10
332.0
 20
109.9999999999997
 30
0.0
 11
332.0
 21
40.0
 31
0.0
  0
LINE
  5
5B
330
1E
100
AcDbEntity
  8
STEMPEL
100
AcDbLine
 10
135.9999999999999
 20
29.99999999999997
 30
0.0
 11
39.99999999999997
 21
29.99999999999997
 31
0.0
  0
LINE
  5
5C
330
1E
100
AcDbEntity
  8
STEMPEL
100
AcDbLine
 10
410.0
 20
40.0
 30
0.0
 11
136.0000000000001
 21
39.99999999999997
 31
0.0
  0
LINE
  5
5D
330
1E
100
AcDbEntity
  8
STEMPEL
100
AcDbLine
 10
410.0
 20
80.0
 30
0.0
 11
136.0000000000001
 21
79.99999999999994
 31
0.0
  0
LINE
  5
5E
330
1E
100
AcDbEntity
  8
VOLL
100
AcDbLine
 10
54.00000000000009
 20
110.0
 30
0.0
 11
53.99999999999997
 21
9.999999999999971
 31
0.0
  0
LINE
  5
5F
330
1E
100
AcDbEntity
  8
VOLL
100
AcDbLine
 10
94.00000000000011
 20
109.9999999999999
 30
0.0
 11
94.0
 21
9.999999999999971
 31
0.0
  0
LINE
  5
60
330
1E
100
AcDbEntity
  8
VOLL
100
AcDbLine
 10
114.0000000000001
 20
109.9999999999999
 30
0.0
 11
114.0
 21
9.999999999999971
 31
0.0
  0
LINE
  5
61
330
1E
100
AcDbEntity
  8
VOLL
100
AcDbLine
 10
154.0000000000001
 20
79.99999999999994
 30
0.0
 11
154.0000000000001
 21
39.99999999999997
 31
0.0
  0
LINE
  5
62
330
1E
100
AcDbEntity
  8
VOLL
100
AcDbLine
 10
180.0000000000001
 20
109.9999999999998
 30
0.0
 11
180.0
 21
39.99999999999997
 31
0.0
  0
LINE
  5
63
330
1E
100
AcDbEntity
  8
HILF
100
AcDbLine
 10
40.00000000000008
 20
100.0
 30
0.0
 11
136.0000000000001
 21
100.0
 31
0.0
  0
LINE
  5
64
330
1E
100
AcDbEntity
  8
HILF
100
AcDbLine
 10
40.00000000000008
 20
90.00000000000005
 30
0.0
 11
136.0000000000001
 21
90.00000000000005
 31
0.0
  0
LINE
  5
65
330
1E
100
AcDbEntity
  8
HILF
100
AcDbLine
 10
40.00000000000008
 20
79.99999999999994
 30
0.0
 11
136.0000000000001
 21
79.99999999999994
 31
0.0
  0
LINE
  5
66
330
1E
100
AcDbEntity
  8
HILF
100
AcDbLine
 10
40.00000000000008
 20
69.99999999999994
 30
0.0
 11
136.0000000000001
 21
69.99999999999994
 31
0.0
  0
LINE
  5
67
330
1E
100
AcDbEntity
  8
HILF
100
AcDbLine
 10
40.00000000000008
 20
59.99999999999997
 30
0.0
 11
136.0000000000001
 21
59.99999999999997
 31
0.0
  0
LINE
  5
68
330
1E
100
AcDbEntity
  8
HILF
100
AcDbLine
 10
40.00000000000008
 20
49.99999999999997
 30
0.0
 11
136.0000000000001
 21
49.99999999999997
 31
0.0
  0
LINE
  5
69
330
1E
100
AcDbEntity
  8
HILF
100
AcDbLine
 10
40.00000000000008
 20
39.99999999999997
 30
0.0
 11
136.0000000000001
 21
39.99999999999997
 31
0.0
  0
LINE
  5
6A
330
1E
100
AcDbEntity
  8
HILF
100
AcDbLine
 10
136.0000000000001
 20
69.99999999999994
 30
0.0
 11
220.0
 21
69.99999999999994
 31
0.0
  0
LINE
  5
6B
330
1E
100
AcDbEntity
  8
HILF
100
AcDbLine
 10
136.0000000000001
 20
59.99999999999997
 30
0.0
 11
220.0
 21
59.99999999999997
 31
0.0
  0
LINE
  5
6C
330
1E
100
AcDbEntity
  8
HILF
100
AcDbLine
 10
136.0000000000001
 20
49.99999999999997
 30
0.0
 11
220.0
 21
49.99999999999997
 31
0.0
  0
LINE
  5
6D
330
1E
100
AcDbEntity
  8
HILF
100
AcDbLine
 10
224.7736801096948
 20
84.03758247564139
 30
0.0
 11
324.8353916556311
 21
84.03758247564139
 31
0.0
  0
LINE
  5
6E
330
1E
100
AcDbEntity
  8
HILF
100
AcDbLine
 10
224.7736801096948
 20
69.99999999999994
 30
0.0
 11
324.835391655631
 21
69.99999999999994
 31
0.0
  0
LINE
  5
6F
330
1E
100
AcDbEntity
  8
HILF
100
AcDbLine
 10
224.7736801096948
 20
59.99999999999997
 30
0.0
 11
324.835391655631
 21
59.99999999999997
 31
0.0
  0
LINE
  5
70
330
1E
100
AcDbEntity
  8
HILF
100
AcDbLine
 10
224.7736801096948
 20
49.99999999999997
 30
0.0
 11
324.835391655631
 21
49.99999999999997
 31
0.0
  0
LINE
  5
71
330
1E
100
AcDbEntity
  8
VOLL
100
AcDbLine
 10
332.0
 20
60.0
 30
0.0
 11
410.0
 21
60.0
 31
0.0
  0
LINE
  5
72
330
1E
100
AcDbEntity
  8
HILF
100
AcDbLine
 10
336.7238616296993
 20
83.77983636955827
 30
0.0
 11
404.8588839326728
 21
83.77983636955827
 31
0.0
  0
LINE
  5
73
330
1E
100
AcDbEntity
  8
HILF
100
AcDbLine
 10
223.4909699289885
 20
14.89398258028314
 30
0.0
 11
404.8588839326728
 21
14.89398258028314
 31
0.0
  0
TEXT
  5
74
330
1E
100
AcDbEntity
  8
TEXT
100
AcDbText
 10
63.86165979631819
 20
18.67381894984132
 30
0.0
 40
4.0
  1
Änderung
 41
0.8
  7
GREEKS
 72
     1
 11
74.60451693917534
 21
18.67381894984132
 31
0.0
100
AcDbText
  0
TEXT
  5
75
330
1E
100
AcDbEntity
  8
TEXT
100
AcDbText
 10
143.5163572150377
 20
102.4620895087088
 30
0.0
 40
5.0
  1
Maßstab
 41
0.8
  7
GREEKS
100
AcDbText
  0
TEXT
  5
76
330
1E
100
AcDbEntity
  8
TEXT
100
AcDbText
 10
184.2858954734051
 20
102.4184168434819
 30
0.0
 40
5.0
  1
Zul. Abw.
 41
0.8
  7
GREEKS
100
AcDbText
  0
TEXT
  5
77
330
1E
100
AcDbEntity
  8
TEXT
100
AcDbText
 10
224.877940380901
 20
102.5489328011779
 30
0.0
 40
5.0
  1
Benennung
 41
0.8
  7
GREEKS
100
AcDbText
  0
TEXT
  5
78
330
1E
100
AcDbEntity
  8
TEXT
100
AcDbText
 10
336.178754957634
 20
102.3132034537136
 30
0.0
 40
5.0
  1
Zeichnungs Nr.
 41
0.8
  7
GREEKS
100
AcDbText
  0
TEXT
  5
79
330
1E
100
AcDbEntity
  8
TEXT
100
AcDbText
 10
224.742238391136
 20
30.84560570193057
 30
0.0
 40
5.0
  1
Bauvorhaben
 41
0.8
  7
GREEKS
100
AcDbText
  0
TEXT
  5
7A
330
1E
100
AcDbEntity
  8
TEXT
100
AcDbText
 10
336.7238616296993
 20
73.1811823709997
 30
0.0
 40
5.0
  1
Ersatz für:
 41
0.8
  7
GREEKS
100
AcDbText
  0
TEXT
  5
7B
330
1E
100
AcDbEntity
  8
TEXT
100
AcDbText
 10
48.26641107045756
 20
13.65465846027192
 30
0.0
 40
4.0
  1
Index
 50
90.0
 41
0.8
  7
GREEKS
100
AcDbText
  0
TEXT
  5
7C
330
1E
100
AcDbEntity
  8
TEXT
100
AcDbText
 10
100.0934676075481
 20
18.6715626933981
 30
0.0
 40
4.0
  1
Tag
 41
0.8
  7
GREEKS
 72
     1
 11
103.8268009408814
 21
18.6715626933981
 31
0.0
100
AcDbText
  0
TEXT
  5
7D
330
1E
100
AcDbEntity
  8
TEXT
100
AcDbText
 10
119.0122744386592
 20
18.59324216966408
 30
0.0
 40
4.0
  1
Name
 41
0.8
  7
GREEKS
 72
     1
 11
125.3360839624688
 21
18.59324216966408
 31
0.0
100
AcDbText
  0
TEXT
  5
7E
330
1E
100
AcDbEntity
  8
TEXT
100
AcDbText
 10
162.3311673153651
 20
73.31880501229926
 30
0.0
 40
4.0
  1
Tag
 41
0.8
  7
GREEKS
100
AcDbText
  0
TEXT
  5
7F
330
1E
100
AcDbEntity
  8
TEXT
100
AcDbText
 10
192.4626584226295
 20
73.30961091915225
 30
0.0
 40
4.0
  1
Name
 41
0.8
  7
GREEKS
100
AcDbText
  0
TEXT
  5
80
330
1E
100
AcDbEntity
  8
TEXT
100
AcDbText
 10
137.5836127167615
 20
63.62990369617964
 30
0.0
 40
4.0
  1
Gez.
 41
0.8
  7
GREEKS
100
AcDbText
  0
TEXT
  5
81
330
1E
100
AcDbEntity
  8
TEXT
100
AcDbText
 10
137.5515086571672
 20
53.68926291428377
 30
0.0
 40
4.0
  1
Gepr.
 41
0.8
  7
GREEKS
100
AcDbText
  0
TEXT
  5
82
330
1E
100
AcDbEntity
  8
TEXT
100
AcDbText
 10
137.6006777387304
 20
43.52946389649807
 30
0.0
 40
4.0
  1
Norm.
 41
0.8
  7
GREEKS
100
AcDbText
  0
LINE
  5
83
330
1E
100
AcDbEntity
  8
STEMPEL
100
AcDbLine
 10
49.99999999999989
 20
10.0
 30
0.0
 11
410.0
 21
10.0
 31
0.0
  0
TEXT
  5
84
330
1E
100
AcDbEntity
  8
TEXT
100
AcDbText
 10
337.2400861497006
 20
52.07416177878602
 30
0.0
 40
5.0
  1
ersetzt durch:
 41
0.8
  7
GREEKS
100
AcDbText
  0
LINE
  5
85
330
1E
100
AcDbEntity
  8
STEMPEL
100
AcDbLine
 10
410.0
 20
10.0
 30
0.0
 11
39.99999999999989
 21
10.0
 31
0.0
  0
LINE
  5
86
330
1E
100
AcDbEntity
  8
STEMPEL
100
AcDbLine
 10
410.0
 20
10.0
 30
0.0
 11
410.0
 21
584.0
 31
0.0
  0
LINE
  5
87
330
1E
100
AcDbEntity
  8
STEMPEL
100
AcDbLine
 10
40.0
 20
10.0
 30
0.0
 11
39.99999999999989
 21
584.0
 31
0.0
  0
LINE
  5
88
330
1E
100
AcDbEntity
  8
STEMPEL
100
AcDbLine
 10
410.0
 20
584.0
 30
0.0
 11
39.99999999999989
 21
584.0
 31
0.0
  0
LINE
  5
89
330
1E
100
AcDbEntity
  8
HILF
100
AcDbLine
 10
0.0
 20
0.0
 30
0.0
 11
-0.0000000000001137
 21
594.0
 31
0.0
  0
LINE
  5
8A
330
1E
100
AcDbEntity
  8
HILF
100
AcDbLine
 10
419.9999999999999
 20
594.0000000000002
 30
0.0
 11
0.0
 21
594.0
 31
0.0
  0
LINE
  5
8B
330
1E
100
AcDbEntity
  8
HILF
100
AcDbLine
 10
420.0
 20
0.0
 30
0.0
 11
0.0
 21
0.0
 31
0.0
  0
LINE
  5
8C
330
1E
100
AcDbEntity
  8
HILF
100
AcDbLine
 10
31.08767135713856
 20
297.0
 30
0.0
 11
0.0000000000001137
 21
297.0
 31
0.0
  0
TEXT
  5
8D
330
1E
100
AcDbEntity
  8
TEXT
100
AcDbText
 10
138.622109822104
 20
73.14025471151666
 30
0.0
 40
4.0
  1
2007
 41
0.8
  7
GREEKS
100
AcDbText
  0
LINE
  5
8E
330
1E
100
AcDbEntity
  8
HILF
100
AcDbLine
 10
420.0
 20
-0.0000000000001137
 30
0.0
 11
419.9999999999999
 21
594.0
 31
0.0
  0
TEXT
  5
8F
330
1E
100
AcDbEntity
  8
VOLL
100
AcDbText
 10
78.07675471698113
 20
31.02594776470585
 30
0.0
 40
1.8
  1

  7
GREEKS
100
AcDbText
  0
TEXT
  5
90
330
1E
100
AcDbEntity
  8
TEXT
100
AcDbText
 10
41.85509950977674
 20
111.6719999999999
 30
0.0
 40
5.0
  1
Erstellt mit AUTOCAD 2004
 41
0.8
  7
GREEKS
100
AcDbText
  0
TEXT
  5
91
330
1E
100
AcDbEntity
  8
TEXT
100
AcDbText
 10
194.4216048581257
 20
63.0896391972351
 30
0.0
 40
4.0
  1
Koeh
 41
0.8
  7
GREEKS
 72
     1
 11
199.6787477152685
 21
63.0896391972351
 31
0.0
100
AcDbText
  0
TEXT
  5
92
330
1E
100
AcDbEntity
  8
TEXT
 62
     1
100
AcDbText
 10
345.3458567290482
 20
88.14901428913959
 30
0.0
 40
7.0
  1
58023ED0W
 41
0.8
  7
GREEKS
 72
     1
 11
369.3458567290483
 21
88.14901428913959
 31
0.0
100
AcDbText
  0
TEXT
  5
93
330
1E
100
AcDbEntity
  8
TEXT
 62
     1
100
AcDbText
 10
150.5006306481887
 20
88.14901428913959
 30
0.0
 40
7.0
  1
1:2
 41
0.8
  7
GREEKS
100
AcDbText
  0
TEXT
  5
94
330
1E
100
AcDbEntity
  8
TEXT
100
AcDbText
 10
160.398997108236
 20
63.10765040825732
 30
0.0
 40
4.0
  1
24.09.
 41
0.8
  7
GREEKS
 72
     1
 11
167.4085209177598
 21
63.10765040825732
 31
0.0
100
AcDbText
  0
TEXT
  5
95
330
1E
100
AcDbEntity
  8
TEXT
 62
     1
100
AcDbText
 10
224.9367181557188
 20
87.41748789253779
 30
0.0
 40
7.0
  1
Verbundrohr DN125/100
 41
0.8
  7
GREEKS
100
AcDbText
  0
TEXT
  5
96
330
1E
100
AcDbEntity
  8
TEXT
100
AcDbText
 10
225.1296391125315
 20
71.50334417585288
 30
0.0
 40
5.0
  1
Red.-Abzweig 87°
 41
0.8
  7
GREEKS
100
AcDbText
  0
TEXT
  5
98
330
1E
100
AcDbEntity
  8
TEXT
100
AcDbText
 10
225.1296391125315
 20
51.64011943042158
 30
0.0
 40
5.0
  1
EDV-Art.Nr. 58023.ED0X
 41
0.8
  7
GREEKS
100
AcDbText
  0
TEXT
  5
99
330
1E
100
AcDbEntity
  8
TEXT
100
AcDbText
 10
224.9837501577827
 20
42.62974153022632
 30
0.0
 40
4.0
  1
58023ED0W.DWG
 41
0.8
  7
GREEKS
100
AcDbText
  0
TEXT
  5
9A
330
1E
100
AcDbEntity
  8
TEXT
100
AcDbText
 10
182.626132208084
 20
90.76363841023022
 30
0.0
 40
4.0
  1
DIN EN1123-2
 41
0.8
  7
GREEKS
 72
     1
 11
199.6166083985602
 21
90.76363841023022
 31
0.0
100
AcDbText
  0
INSERT
  5
9B
330
1E
100
AcDbEntity
  8
STEMPEL
100
AcDbBlockReference
  2
LOGO
 10
140.9955485457794
 20
45.02105276448322
 30
0.0
 41
2.0
 42
2.0
 43
2.0
  0
TEXT
  5
118
330
1E
100
AcDbEntity
  8
BEM
100
AcDbText
 10
417.3022923857165
 20
10.16790107998849
 30
0.0
 40
4.0
  1
Diese Zeichnung ist urheberrechtlich geschützt und bleibt unser Eigentum. Sie darf weder ganz noch teilweise verfielfältigt und nicht an Dritte weitergegeben werden.
 50
90.0
 41
0.8
  7
GREEKS
100
AcDbText
  0
TEXT
  5
422
330
1E
100
AcDbEntity
  8
VOLL
100
AcDbText
 10
513.181667332345
 20
218.2094568136298
 30
0.0
 40
1.8
  1

  7
GREEKS
100
AcDbText
  0
TEXT
  5
430
330
1E
100
AcDbEntity
  8
BEM
100
AcDbText
 10
987.7858805324283
 20
233.0575201688864
 30
0.0
 40
2.5
  1

 41
0.8
  7
GREEKS
 72
     4
 11
987.7858805324283
 21
233.0575201688864
 31
0.0
100
AcDbText
  0
TEXT
  5
431
330
1E
100
AcDbEntity
  8
BEM
100
AcDbText
 10
1026.267416198392
 20
203.9734875438834
 30
0.0
 40
2.5
  1

 41
0.8
  7
GREEKS
 72
     4
 11
1026.267416198392
 21
203.9734875438834
 31
0.0
100
AcDbText
  0
TEXT
  5
782
330
1E
100
AcDbEntity
  8
TEXT
 62
     1
100
AcDbText
 10
181.1033376952671
 20
136.9482077018606
 30
0.0
 40
7.0
  1
und innenbeschichtet
 41
0.8
  7
GREEKS
100
AcDbText
  0
TEXT
  5
783
330
1E
100
AcDbEntity
  8
TEXT
 62
     1
100
AcDbText
 10
125.9543981745562
 20
124.3533723164785
 30
0.0
 40
7.0
  1
Dämmung: 2 K-PU-Schaum
 41
0.8
  7
GREEKS
100
AcDbText
  0
TEXT
  5
784
330
1E
100
AcDbEntity
  8
TEXT
 62
     1
100
AcDbText
 10
133.4488088192534
 20
148.2172615410863
 30
0.0
 40
7.0
  1
Innenrohr: E195 EN10305 feuerverzinkt
 41
0.8
  7
GREEKS
100
AcDbText
  0
TEXT
  5
785
330
1E
100
AcDbEntity
  8
TEXT
 62
     1
100
AcDbText
 10
129.6765914483893
 20
159.5703295774414
 30
0.0
 40
7.0
  1
Außenrohr: E195 EN10305, P235 TR1 EN10217-1 feuerverzinkt
 41
0.8
  7
GREEKS
100
AcDbText
  0
DIMENSION
  5
2304
330
1E
100
AcDbEntity
  8
BEM
100
AcDbDimension
  2
*D1
 10
197.1502629908062
 20
243.1360551969293
 30
0.0
 11
289.1278265114761
 21
247.9563950449136
 31
0.0
 70
   160
 71
     5
 42
174.9999999999991
  3
Standard
100
AcDbAlignedDimension
 13
369.4302853415253
 23
299.618856785003
 33
0.0
 14
191.1897756693192
 24
356.8689285036667
 34
0.0
 50
3.000000000000716
100
AcDbRotatedDimension
1001
ACAD
1000
DSTYLE
1002
{
1070
    40
1040
2.0
1070
    41
1040
3.5
1070
    42
1040
1.0
1070
    43
1040
7.0
1070
    44
1040
1.0
1070
    73
1070
     0
1070
    74
1070
     0
1070
    77
1070
     1
1070
    78
1070
     8
1070
    79
1070
     2
1070
   140
1040
3.5
1070
   141
1040
1.5
1070
   146
1040
0.5142857142857144
1070
   147
1040
1.5
1070
   172
1070
     1
1070
   178
1070
     1
1070
   179
1070
     2
1070
   271
1070
     2
1070
   272
1070
     2
1070
   284
1070
     8
1070
   285
1070
     8
1070
   286
1070
     8
1002
}
  0
DIMENSION
  5
2307
330
1E
100
AcDbEntity
  8
BEM
100
AcDbDimension
  2
*D2
 10
64.70631283610874
 20
201.8689285036667
 30
0.0
 11
58.20631283610872
 21
366.8689285036668
 31
0.0
 70
    32
 71
     5
 42
330.0
  3
Standard
100
AcDbAlignedDimension
 13
107.0397756693193
 23
531.8689285036668
 33
0.0
 14
125.3801353836681
 24
201.8689285036667
 34
0.0
 50
90.0
100
AcDbRotatedDimension
1001
ACAD
1000
DSTYLE
1002
{
1070
    40
1040
2.0
1070
    41
1040
3.5
1070
    42
1040
1.0
1070
    43
1040
7.0
1070
    44
1040
1.0
1070
    73
1070
     0
1070
    74
1070
     0
1070
    77
1070
     1
1070
    78
1070
     8
1070
    79
1070
     2
1070
   140
1040
3.5
1070
   141
1040
1.5
1070
   146
1040
0.5142857142857144
1070
   147
1040
1.5
1070
   172
1070
     1
1070
   178
1070
     1
1070
   179
1070
     2
1070
   271
1070
     2
1070
   272
1070
     2
1070
   284
1070
     8
1070
   285
1070
     8
1070
   286
1070
     8
1002
}
  0
HATCH
  5
230E
330
1E
100
AcDbEntity
  8
SCHRAFF
100
AcDbHatch
 10
0.0
 20
0.0
 30
0.0
210
0.0
220
0.0
230
1.0
  2
_USER
 70
     0
 71
     1
 91
        1
 92
        7
 72
     1
 73
     1
 93
        3
 10
257.6897756693191
 20
411.424035471883
 42
0.0
 10
260.6856642735827
 20
411.5810433406119
 42
0.3989595459737081
 10
257.6897756693191
 20
414.424035471883
 42
0.0
 97
        3
330
235B
330
233E
330
230F
 75
     0
 76
     0
 52
0.0
 41
0.1
 77
     0
 78
     1
 53
0.0
 43
17.43706272329973
 44
8.954887978192346
 45
0.0
 46
0.1
 79
     0
 47
0.0426059839985042
 98
        1
 10
258.6910173383903
 20
412.771846989111
  0
ARC
  5
230F
102
{ACAD_REACTORS
330
230E
102
}
330
1E
100
AcDbEntity
  8
SCHRAFF
100
AcDbCircle
 10
257.689775669319
 20
411.4240354718829
 30
0.0
 40
3.0
100
AcDbArc
 50
2.99999999999909
 51
89.99999999999674
  0
HATCH
  5
2310
330
1E
100
AcDbEntity
  8
SCHRAFF
100
AcDbHatch
 10
0.0
 20
0.0
 30
0.0
210
0.0
220
0.0
230
1.0
  2
_USER
 70
     0
 71
     1
 91
        1
 92
        7
 72
     1
 73
     1
 93
        3
 10
257.6897756693191
 20
309.2840561800953
 42
0.0
 10
257.6897756693191
 20
306.284056772481
 42
0.4296339059668397
 10
260.685663682009
 20
309.441064017821
 42
0.0
 97
        3
330
2335
330
234B
330
2311
 75
     0
 76
     0
 52
0.0
 41
0.1
 77
     0
 78
     1
 53
0.0
 43
17.43706272329973
 44
8.954887978192346
 45
0.0
 46
0.1
 79
     0
 47
0.2006477055642358
 98
        1
 10
259.0490562131931
 20
308.3551526525969
  0
ARC
  5
2311
102
{ACAD_REACTORS
330
2310
102
}
330
1E
100
AcDbEntity
  8
SCHRAFF
100
AcDbCircle
 10
257.6897756693193
 20
309.2840561800953
 30
0.0
 40
2.999999407614268
100
AcDbArc
 50
269.9999999999968
 51
3.000000000000716
  0
ARC
  5
232F
102
{ACAD_REACTORS
330
25FB
330
2ABB
102
}
330
1E
100
AcDbEntity
  8
STEMPEL
100
AcDbCircle
 10
355.1418896748653
 20
331.4146349435282
 30
0.0
 40
25.0
100
AcDbArc
 50
273.0
 51
298.0000000000004
  0
LINE
  5
2330
102
{ACAD_REACTORS
330
25FB
330
2ABB
102
}
330
1E
100
AcDbEntity
  8
STEMPEL
100
AcDbLine
 10
368.8654105873398
 20
310.3973091810685
 30
0.0
 11
366.8786787445128
 21
309.3409451220552
 31
0.0
  0
ARC
  5
2331
102
{ACAD_REACTORS
330
25FB
102
}
330
1E
100
AcDbEntity
  8
STEMPEL
100
AcDbCircle
 10
337.0045318678358
 20
330.4640962987999
 30
0.0
 40
24.99990931069965
100
AcDbArc
 50
246.11222934098
 51
272.9999999999991
  0
LINE
  5
2332
102
{ACAD_REACTORS
330
25FB
330
2ABB
102
}
330
1E
100
AcDbEntity
  8
STEMPEL
100
AcDbLine
 10
356.4502885809389
 20
306.4488965746639
 30
0.0
 11
338.3129307739093
 21
305.4983579299356
 31
0.0
  0
LINE
  5
2333
102
{ACAD_REACTORS
330
25FB
102
}
330
1E
100
AcDbEntity
  8
STEMPEL
100
AcDbLine
 10
321.3935189438894
 20
308.6171385131406
 30
0.0
 11
305.8423494061149
 21
307.8021362524119
 31
0.0
  0
ARC
  5
2334
102
{ACAD_REACTORS
330
25FB
102
}
330
1E
100
AcDbEntity
  8
STEMPEL
100
AcDbCircle
 10
305.0573100624708
 20
322.7815792737304
 30
0.0
 40
15.0
100
AcDbArc
 50
238.6988472432084
 51
272.9999999999997
  0
LINE
  5
2335
102
{ACAD_REACTORS
330
2310
330
25FB
102
}
330
1E
100
AcDbEntity
  8
STEMPEL
100
AcDbLine
 10
292.6892874441111
 20
311.1183028682025
 30
0.0
 11
257.6897756693191
 21
309.2840561800953
 31
0.0
  0
ARC
  5
2336
102
{ACAD_REACTORS
330
25FB
102
}
330
1E
100
AcDbEntity
  8
STEMPEL
100
AcDbCircle
 10
293.1079750940546
 20
303.129266590166
 30
0.0
 40
8.0
100
AcDbArc
 50
58.69884724320858
 51
92.99999999999991
  0
ARC
  5
2337
102
{ACAD_REACTORS
330
25FB
102
}
330
1E
100
AcDbEntity
  8
STEMPEL
100
AcDbCircle
 10
322.0215504188046
 20
296.6335840960857
 30
0.0
 40
12.0
100
AcDbArc
 50
66.11222934097999
 51
92.99999999999988
  0
ARC
  5
2338
102
{ACAD_REACTORS
330
25FA
330
2ABB
102
}
330
1E
100
AcDbEntity
  8
STEMPEL
100
AcDbCircle
 10
351.5830446503451
 20
399.3214433068393
 30
0.0
 40
25.0
100
AcDbArc
 50
67.99999999999997
 51
93.00000000000009
  0
LINE
  5
2339
102
{ACAD_REACTORS
330
25FA
330
2ABB
102
}
330
1E
100
AcDbEntity
  8
STEMPEL
100
AcDbLine
 10
363.0344779153996
 20
421.6581325112957
 30
0.0
 11
360.9482094857429
 21
422.501039671009
 31
0.0
  0
ARC
  5
233A
102
{ACAD_REACTORS
330
25FA
102
}
330
1E
100
AcDbEntity
  8
STEMPEL
100
AcDbCircle
 10
333.4456868433156
 20
398.3709046621109
 30
0.0
 40
24.99990931069965
100
AcDbArc
 50
92.9999999999991
 51
119.88777065902
  0
LINE
  5
233B
102
{ACAD_REACTORS
330
25FA
330
2ABB
102
}
330
1E
100
AcDbEntity
  8
STEMPEL
100
AcDbLine
 10
350.2746457442714
 20
424.2871816757037
 30
0.0
 11
332.1372879372419
 21
423.3366430309752
 31
0.0
  0
LINE
  5
233C
102
{ACAD_REACTORS
330
25FA
102
}
330
1E
100
AcDbEntity
  8
STEMPEL
100
AcDbLine
 10
315.6365637571655
 20
418.4663873361437
 30
0.0
 11
300.0853942193911
 21
417.6513850754148
 31
0.0
  0
ARC
  5
233D
102
{ACAD_REACTORS
330
25FA
102
}
330
1E
100
AcDbEntity
  8
STEMPEL
100
AcDbCircle
 10
286.9323322573873
 20
420.9675516912056
 30
0.0
 40
8.0
100
AcDbArc
 50
272.9999999999999
 51
307.3011527567914
  0
LINE
  5
233E
102
{ACAD_REACTORS
330
230E
330
25FA
102
}
330
1E
100
AcDbEntity
  8
STEMPEL
100
AcDbLine
 10
287.3510199073308
 20
412.9785154131692
 30
0.0
 11
257.6897756693191
 21
411.424035471883
 31
0.0
  0
ARC
  5
233F
102
{ACAD_REACTORS
330
25FA
102
}
330
1E
100
AcDbEntity
  8
STEMPEL
100
AcDbCircle
 10
300.8704335630353
 20
402.6719420540962
 30
0.0
 40
15.0
100
AcDbArc
 50
93.00000000000014
 51
127.3011527567912
  0
LINE
  5
2340
330
1E
100
AcDbEntity
  8
MITTEL
100
AcDbLine
 10
370.9430919251425
 20
366.2894006273968
 30
0.0
 11
191.1897756693192
 21
356.8689285036667
 31
0.0
  0
ARC
  5
2341
102
{ACAD_REACTORS
330
25FA
102
}
330
1E
100
AcDbEntity
  8
STEMPEL
100
AcDbCircle
 10
315.0085322822501
 20
430.4499417531986
 30
0.0
 40
12.0
100
AcDbArc
 50
273.0000000000002
 51
299.88777065902
  0
LINE
  5
2342
102
{ACAD_REACTORS
330
2825
330
2ABB
102
}
330
1E
100
AcDbEntity
  8
STEMPEL
100
AcDbLine
 10
362.4696031612138
 20
432.4365849073614
 30
0.0
 11
369.4302853415256
 21
299.6188567850031
 31
0.0
  0
LINE
  5
2343
330
1E
100
AcDbEntity
  8
HILF
100
AcDbLine
 10
319.0979179300726
 20
414.9813631170283
 30
0.0
 11
324.471627230395
 21
312.4448814374586
 31
0.0
  0
LINE
  5
2344
330
1E
100
AcDbEntity
  8
HILF
100
AcDbLine
 10
301.7686775108356
 20
312.2846799248596
 30
0.0
 11
296.5025917266006
 21
412.7675825831509
 31
0.0
  0
LINE
  5
2345
330
1E
100
AcDbEntity
  8
HILF
100
AcDbLine
 10
290.4859040202563
 20
409.5057836022004
 30
0.0
 11
295.4439990143163
 21
314.8996953097992
 31
0.0
  0
TEXT
  5
2346
330
1E
100
AcDbEntity
  8
TEXT
 62
     1
100
AcDbText
 10
335.490650223028
 20
370.8514992674245
 30
0.0
 40
7.0
  1
DN100
 50
3.000000000000716
 41
0.8
  7
GREEKS
100
AcDbText
  0
LINE
  5
234B
102
{ACAD_REACTORS
330
2310
102
}
330
1E
100
AcDbEntity
  8
STEMPEL
100
AcDbLine
 10
257.6897756693191
 20
311.354045825989
 30
0.0
 11
257.6897756693191
 21
209.7597761463954
 31
0.0
  0
DIMENSION
  5
234C
330
1E
100
AcDbEntity
  8
BEM
100
AcDbDimension
  2
*D3
 10
80.55585786257394
 20
356.8689285036668
 30
0.0
 11
74.05585786257386
 21
279.3689285036668
 31
0.0
 70
    32
 71
     5
 42
155.0
  3
Standard
100
AcDbAlignedDimension
 13
125.3801353836681
 23
201.8689285036667
 33
0.0
 14
191.1897756693192
 24
356.8689285036667
 34
0.0
 50
90.0
100
AcDbRotatedDimension
1001
ACAD
1000
DSTYLE
1002
{
1070
    40
1040
2.0
1070
    41
1040
3.5
1070
    42
1040
1.0
1070
    43
1040
7.0
1070
    44
1040
1.0
1070
    73
1070
     0
1070
    74
1070
     0
1070
    77
1070
     1
1070
    78
1070
     8
1070
    79
1070
     2
1070
   140
1040
3.5
1070
   141
1040
1.5
1070
   146
1040
0.5142857142857144
1070
   147
1040
1.5
1070
   172
1070
     1
1070
   178
1070
     1
1070
   179
1070
     2
1070
   271
1070
     2
1070
   272
1070
     2
1070
   284
1070
     8
1070
   285
1070
     8
1070
   286
1070
     8
1002
}
  0
DIMENSION
  5
234D
330
1E
100
AcDbEntity
  8
BEM
100
AcDbDimension
  2
*D4
 10
257.6897756693191
 20
180.5158538062941
 30
0.0
 11
191.189775669319
 21
187.0158538062941
 31
0.0
 70
    32
  1
%%C<>
 71
     5
 42
133.0000000000002
  3
Standard
100
AcDbAlignedDimension
 13
124.6897756693189
 23
209.759776146399
 33
0.0
 14
257.6897756693191
 24
209.7597761463954
 34
0.0
100
AcDbRotatedDimension
1001
ACAD
1000
DSTYLE
1002
{
1070
    40
1040
2.0
1070
    41
1040
3.5
1070
    42
1040
1.0
1070
    43
1040
7.0
1070
    44
1040
1.0
1070
    73
1070
     0
1070
    74
1070
     0
1070
    77
1070
     1
1070
    78
1070
     8
1070
    79
1070
     2
1070
   140
1040
3.5
1070
   141
1040
1.5
1070
   146
1040
0.5142857142857144
1070
   147
1040
1.5
1070
   172
1070
     1
1070
   178
1070
     1
1070
   179
1070
     2
1070
   271
1070
     2
1070
   272
1070
     2
1070
   284
1070
     8
1070
   285
1070
     8
1070
   286
1070
     8
1002
}
  0
LINE
  5
234E
330
1E
100
AcDbEntity
  8
STEMPEL
100
AcDbLine
 10
257.6897756693191
 20
209.7597761463954
 30
0.0
 11
256.9994159549701
 21
201.8689285036667
 31
0.0
  0
LINE
  5
234F
330
1E
100
AcDbEntity
  8
STEMPEL
100
AcDbLine
 10
124.6897756693189
 20
209.759776146399
 30
0.0
 11
125.3801353836681
 21
201.8689285036667
 31
0.0
  0
LINE
  5
2350
330
1E
100
AcDbEntity
  8
HILF
100
AcDbLine
 10
252.6802260754608
 20
209.8689285036667
 30
0.0
 11
129.6993252631776
 21
209.8689285036667
 31
0.0
  0
LINE
  5
235B
102
{ACAD_REACTORS
330
230E
102
}
330
1E
100
AcDbEntity
  8
STEMPEL
100
AcDbLine
 10
257.6897756693193
 20
449.3689285036667
 30
0.0
 11
257.6897756693191
 21
409.3540458259889
 31
0.0
  0
LINE
  5
2362
330
1E
100
AcDbEntity
  8
STEMPEL
100
AcDbLine
 10
124.6897756693191
 20
449.3689285036668
 30
0.0
 11
124.6897756693189
 21
209.759776146399
 31
0.0
  0
LINE
  5
2368
102
{ACAD_REACTORS
330
2842
330
2A81
102
}
330
1E
100
AcDbEntity
  8
STEMPEL
100
AcDbLine
 10
107.0397756693193
 20
531.8689285036668
 30
0.0
 11
275.3397756693193
 21
531.8689285036668
 31
0.0
  0
TEXT
  5
2369
330
1E
100
AcDbEntity
  8
VOLL
100
AcDbText
 10
179.5168651528437
 20
493.1181023058729
 30
0.0
 40
7.0
  1
DN125
 50
90.0
 41
0.8
  7
GREEKS
100
AcDbText
  0
LINE
  5
236A
330
1E
100
AcDbEntity
  8
STEMPEL
100
AcDbLine
 10
256.9994159549701
 20
201.8689285036667
 30
0.0
 11
125.3801353836681
 21
201.8689285036667
 31
0.0
  0
LINE
  5
236B
330
1E
100
AcDbEntity
  8
MITTEL
100
AcDbLine
 10
191.1897756693192
 20
536.8689285036668
 30
0.0
 11
191.1897756693192
 21
196.8689285036667
 31
0.0
  0
LINE
  5
2494
102
{ACAD_REACTORS
330
25FA
102
}
330
1E
100
AcDbEntity
  8
STEMPEL
100
AcDbLine
 10
287.4556918198168
 20
410.98125634366
 30
0.0
 11
257.6897756693191
 21
409.4212907798872
 31
0.0
  0
ARC
  5
2495
102
{ACAD_REACTORS
330
25FA
102
}
330
1E
100
AcDbEntity
  8
STEMPEL
100
AcDbCircle
 10
286.9323322573873
 20
420.9675516912056
 30
0.0
 40
10.0
100
AcDbArc
 50
273.0
 51
307.3011527567914
  0
ARC
  5
2496
102
{ACAD_REACTORS
330
25FA
102
}
330
1E
100
AcDbEntity
  8
STEMPEL
100
AcDbCircle
 10
300.8704335630353
 20
402.6719420540962
 30
0.0
 40
13.0
100
AcDbArc
 50
93.00000000000007
 51
127.3011527567912
  0
LINE
  5
2499
102
{ACAD_REACTORS
330
25FA
102
}
330
1E
100
AcDbEntity
  8
STEMPEL
100
AcDbLine
 10
315.7412356696513
 20
416.4691282666346
 30
0.0
 11
300.1900661318769
 21
415.6541260059057
 31
0.0
  0
ARC
  5
249A
102
{ACAD_REACTORS
330
25FA
102
}
330
1E
100
AcDbEntity
  8
STEMPEL
100
AcDbCircle
 10
315.0085322822501
 20
430.4499417531986
 30
0.0
 40
14.0
100
AcDbArc
 50
273.0000000000002
 51
299.8877706590201
  0
ARC
  5
249C
102
{ACAD_REACTORS
330
25FA
102
}
330
1E
100
AcDbEntity
  8
STEMPEL
100
AcDbCircle
 10
333.4456868433156
 20
398.3709046621109
 30
0.0
 40
22.99990931069965
100
AcDbArc
 50
92.9999999999991
 51
119.8877706590199
  0
LINE
  5
249D
102
{ACAD_REACTORS
330
25FA
102
}
330
1E
100
AcDbEntity
  8
STEMPEL
100
AcDbLine
 10
350.3793176567573
 20
422.2899226061945
 30
0.0
 11
332.2419598497278
 21
421.3393839614661
 31
0.0
  0
ARC
  5
249E
102
{ACAD_REACTORS
330
25FA
102
}
330
1E
100
AcDbEntity
  8
STEMPEL
100
AcDbCircle
 10
351.5830446503451
 20
399.3214433068393
 30
0.0
 40
23.0
100
AcDbArc
 50
68.00000000000036
 51
93.00000000000022
  0
LINE
  5
249F
102
{ACAD_REACTORS
330
25FA
102
}
330
1E
100
AcDbEntity
  8
STEMPEL
100
AcDbLine
 10
363.1499705923721
 20
419.4544009555518
 30
0.0
 11
360.198996298911
 21
420.6466719618756
 31
0.0
  0
LINE
  5
24A0
102
{ACAD_REACTORS
330
25FB
102
}
330
1E
100
AcDbEntity
  8
STEMPEL
100
AcDbLine
 10
292.5846155316252
 20
313.1155619377117
 30
0.0
 11
257.6897756693191
 21
311.2868008720911
 31
0.0
  0
ARC
  5
24A1
102
{ACAD_REACTORS
330
25FB
102
}
330
1E
100
AcDbEntity
  8
STEMPEL
100
AcDbCircle
 10
293.1079750940546
 20
303.129266590166
 30
0.0
 40
10.0
100
AcDbArc
 50
58.69884724320829
 51
92.99999999999974
  0
ARC
  5
24A3
102
{ACAD_REACTORS
330
25FB
102
}
330
1E
100
AcDbEntity
  8
STEMPEL
100
AcDbCircle
 10
305.0573100624708
 20
322.7815792737304
 30
0.0
 40
13.0
100
AcDbArc
 50
238.6988472432085
 51
272.9999999999998
  0
LINE
  5
24A5
102
{ACAD_REACTORS
330
25FB
102
}
330
1E
100
AcDbEntity
  8
STEMPEL
100
AcDbLine
 10
321.2888470314034
 20
310.6143975826498
 30
0.0
 11
305.737677493629
 21
309.799395321921
 31
0.0
  0
ARC
  5
24A6
102
{ACAD_REACTORS
330
25FB
102
}
330
1E
100
AcDbEntity
  8
STEMPEL
100
AcDbCircle
 10
322.0215504188046
 20
296.6335840960857
 30
0.0
 40
14.0
100
AcDbArc
 50
66.11222934098001
 51
92.99999999999977
  0
ARC
  5
24A8
102
{ACAD_REACTORS
330
25FB
102
}
330
1E
100
AcDbEntity
  8
STEMPEL
100
AcDbCircle
 10
337.0045318678358
 20
330.4640962987999
 30
0.0
 40
22.99990931069965
100
AcDbArc
 50
246.1122293409799
 51
272.9999999999991
  0
LINE
  5
24A9
102
{ACAD_REACTORS
330
25FB
102
}
330
1E
100
AcDbEntity
  8
STEMPEL
100
AcDbLine
 10
356.345616668453
 20
308.4461556441731
 30
0.0
 11
338.2082588614234
 21
307.4956169994447
 31
0.0
  0
ARC
  5
24AA
102
{ACAD_REACTORS
330
25FB
102
}
330
1E
100
AcDbEntity
  8
STEMPEL
100
AcDbCircle
 10
355.1418896748653
 20
331.4146349435282
 30
0.0
 40
23.0
100
AcDbArc
 50
272.9999999999999
 51
298.0000000000014
  0
LINE
  5
24AC
102
{ACAD_REACTORS
330
25FB
102
}
330
1E
100
AcDbEntity
  8
STEMPEL
100
AcDbLine
 10
368.7499179103672
 20
312.6010407368125
 30
0.0
 11
365.9397356189412
 21
311.1068403077732
 31
0.0
  0
LINE
  5
24AD
330
1E
100
AcDbEntity
  8
STEMPEL
100
AcDbLine
 10
255.1897756693193
 20
449.3689285036666
 30
0.0
 11
255.189775669319
 21
409.3540458259889
 31
0.0
  0
LINE
  5
24B9
330
1E
100
AcDbEntity
  8
STEMPEL
100
AcDbLine
 10
127.1897756693191
 20
449.3689285036667
 30
0.0
 11
127.1897756693189
 21
209.8689285036698
 31
0.0
  0
LINE
  5
24C5
330
1E
100
AcDbEntity
  8
STEMPEL
100
AcDbLine
 10
255.1897756693191
 20
311.354045825989
 30
0.0
 11
255.1897756693191
 21
209.8689285036674
 31
0.0
  0
LINE
  5
24C6
330
1E
100
AcDbEntity
  8
STEMPEL
100
AcDbLine
 10
255.1897756693191
 20
209.8689285036674
 30
0.0
 11
254.4898663611117
 21
201.8689285036667
 31
0.0
  0
LINE
  5
24C8
330
1E
100
AcDbEntity
  8
STEMPEL
100
AcDbLine
 10
127.1897756693189
 20
209.8689285036698
 30
0.0
 11
127.8896849775265
 21
201.8689285036667
 31
0.0
  0
LINE
  5
24D7
330
1E
100
AcDbEntity
  8
STEMPEL
100
AcDbLine
 10
257.6897756693191
 20
409.3540458259889
 30
0.0
 11
255.189775669319
 21
409.3540458259889
 31
0.0
  0
LINE
  5
24D9
330
1E
100
AcDbEntity
  8
STEMPEL
100
AcDbLine
 10
257.6897756693191
 20
311.354045825989
 30
0.0
 11
255.1897756693191
 21
311.354045825989
 31
0.0
  0
ELLIPSE
  5
24DA
330
1E
100
AcDbEntity
  8
STEMPEL
100
AcDbEllipse
 10
255.1897756693191
 20
360.354045825989
 30
0.0
 11
-0.0000000000000568
 21
48.99999999999999
 31
0.0
210
0.0
220
0.0
230
1.0
 40
0.4659106591739199
 41
0.0
 42
3.141592653589793
  0
LINE
  5
2583
102
{ACAD_REACTORS
330
2A81
102
}
330
1E
100
AcDbEntity
  8
STEMPEL
100
AcDbLine
 10
267.1897756693192
 20
518.2665510592024
 30
0.0
 11
267.1897756693192
 21
499.1599285036667
 31
0.0
  0
LINE
  5
2584
330
1E
100
AcDbEntity
  8
STEMPEL
100
AcDbLine
 10
264.6897756693193
 20
518.2665510592025
 30
0.0
 11
264.6897756693193
 21
499.1599285036667
 31
0.0
  0
LINE
  5
2586
330
1E
100
AcDbEntity
  8
STEMPEL
100
AcDbLine
 10
117.6897756693192
 20
518.2665510592025
 30
0.0
 11
117.6897756693192
 21
499.1599285036668
 31
0.0
  0
LINE
  5
2587
102
{ACAD_REACTORS
330
2A81
102
}
330
1E
100
AcDbEntity
  8
STEMPEL
100
AcDbLine
 10
115.1897756693192
 20
518.2665510592025
 30
0.0
 11
115.1897756693192
 21
499.1599285036668
 31
0.0
  0
LINE
  5
2588
330
1E
100
AcDbEntity
  8
HILF
100
AcDbLine
 10
123.7399316181376
 20
483.3456039032001
 30
0.0
 11
258.6396197205008
 21
483.3456039032001
 31
0.0
  0
LINE
  5
258A
330
1E
100
AcDbEntity
  8
HILF
100
AcDbLine
 10
128.7004539948986
 20
453.1040179078367
 30
0.0
 11
253.6790973437399
 21
453.1040179078367
 31
0.0
  0
LINE
  5
258B
330
1E
100
AcDbEntity
  8
HILF
100
AcDbLine
 10
125.0091168874239
 20
460.7061370651672
 30
0.0
 11
257.3704344512149
 21
460.7061370651672
 31
0.0
  0
LINE
  5
258E
330
1E
100
AcDbEntity
  8
STEMPEL
100
AcDbLine
 10
122.1897756693192
 20
478.8689285036667
 30
0.0
 11
122.1897756693192
 21
465.337647926338
 31
0.0
  0
LINE
  5
258F
330
1E
100
AcDbEntity
  8
STEMPEL
100
AcDbLine
 10
119.6897756693192
 20
478.8689285036667
 30
0.0
 11
119.6897756693192
 21
465.337647926338
 31
0.0
  0
ARC
  5
2590
330
1E
100
AcDbEntity
  8
STEMPEL
100
AcDbCircle
 10
137.6897756693192
 20
465.337647926338
 30
0.0
 40
15.5
100
AcDbArc
 50
180.0
 51
214.7719440319491
  0
ARC
  5
2591
330
1E
100
AcDbEntity
  8
STEMPEL
100
AcDbCircle
 10
137.6897756693192
 20
465.3376479263379
 30
0.0
 40
18.0
100
AcDbArc
 50
180.0
 51
214.7719440319491
  0
ARC
  5
2592
330
1E
100
AcDbEntity
  8
STEMPEL
100
AcDbCircle
 10
114.6897756693191
 20
449.3689285036667
 30
0.0
 40
10.0
100
AcDbArc
 50
0.0
 51
34.77194403194904
  0
ARC
  5
2593
330
1E
100
AcDbEntity
  8
STEMPEL
100
AcDbCircle
 10
114.6897756693191
 20
449.3689285036667
 30
0.0
 40
12.5
100
AcDbArc
 50
0.0
 51
34.77194403194904
  0
ARC
  5
2594
330
1E
100
AcDbEntity
  8
STEMPEL
100
AcDbCircle
 10
101.6897756693192
 20
478.8689285036667
 30
0.0
 40
20.5
100
AcDbArc
 50
0.0
 51
25.22714436590881
  0
ARC
  5
2595
330
1E
100
AcDbEntity
  8
STEMPEL
100
AcDbCircle
 10
101.6897756693192
 20
478.8689285036667
 30
0.0
 40
18.0
100
AcDbArc
 50
0.0
 51
25.00715833654666
  0
ARC
  5
2596
330
1E
100
AcDbEntity
  8
STEMPEL
100
AcDbCircle
 10
145.1897756693192
 20
499.1599285036668
 30
0.0
 40
27.5
100
AcDbArc
 50
180.0
 51
204.8431689300336
  0
ARC
  5
2597
330
1E
100
AcDbEntity
  8
STEMPEL
100
AcDbCircle
 10
145.1897756693192
 20
499.1599285036668
 30
0.0
 40
29.99973625969209
100
AcDbArc
 50
180.0
 51
205.0071583365467
  0
LINE
  5
2598
330
1E
100
AcDbEntity
  8
STEMPEL
100
AcDbLine
 10
115.1900394096271
 20
499.1599285036668
 30
0.0
 11
115.1897756693192
 21
499.1599285036668
 31
0.0
  0
LINE
  5
259C
330
1E
100
AcDbEntity
  8
STEMPEL
100
AcDbLine
 10
262.6897756693193
 20
478.8689285036666
 30
0.0
 11
262.6897756693193
 21
465.3376479263378
 31
0.0
  0
LINE
  5
259D
330
1E
100
AcDbEntity
  8
STEMPEL
100
AcDbLine
 10
260.1897756693193
 20
478.8689285036666
 30
0.0
 11
260.1897756693193
 21
465.3376479263378
 31
0.0
  0
ARC
  5
259E
330
1E
100
AcDbEntity
  8
STEMPEL
100
AcDbCircle
 10
244.6897756693193
 20
465.3376479263379
 30
0.0
 40
15.5
100
AcDbArc
 50
325.228055968051
 51
0.0
  0
ARC
  5
259F
330
1E
100
AcDbEntity
  8
STEMPEL
100
AcDbCircle
 10
267.6897756693193
 20
449.3689285036666
 30
0.0
 40
10.0
100
AcDbArc
 50
145.2280559680509
 51
179.9999999999996
  0
ARC
  5
25A0
330
1E
100
AcDbEntity
  8
STEMPEL
100
AcDbCircle
 10
267.6897756693193
 20
449.3689285036666
 30
0.0
 40
12.5
100
AcDbArc
 50
145.2280559680509
 51
179.9999999999997
  0
ARC
  5
25A1
330
1E
100
AcDbEntity
  8
STEMPEL
100
AcDbCircle
 10
244.6897756693193
 20
465.3376479263378
 30
0.0
 40
18.0
100
AcDbArc
 50
325.228055968051
 51
0.0
  0
ARC
  5
25A2
330
1E
100
AcDbEntity
  8
STEMPEL
100
AcDbCircle
 10
280.6897756693193
 20
478.8689285036666
 30
0.0
 40
20.5
100
AcDbArc
 50
154.7728556340955
 51
180.0
  0
ARC
  5
25A3
330
1E
100
AcDbEntity
  8
STEMPEL
100
AcDbCircle
 10
280.6897756693193
 20
478.8689285036666
 30
0.0
 40
18.0
100
AcDbArc
 50
154.9928416634576
 51
180.0
  0
ARC
  5
25A4
330
1E
100
AcDbEntity
  8
STEMPEL
100
AcDbCircle
 10
237.1897756693193
 20
499.1599285036667
 30
0.0
 40
29.99973625969209
100
AcDbArc
 50
334.9928416634577
 51
0.0
  0
ARC
  5
25A5
330
1E
100
AcDbEntity
  8
STEMPEL
100
AcDbCircle
 10
237.1897756693193
 20
499.1599285036667
 30
0.0
 40
27.5
100
AcDbArc
 50
335.1568310699678
 51
0.0
  0
LINE
  5
25A6
330
1E
100
AcDbEntity
  8
STEMPEL
100
AcDbLine
 10
267.1895119290113
 20
499.1599285036667
 30
0.0
 11
267.1897756693192
 21
499.1599285036667
 31
0.0
  0
ARC
  5
25A8
330
1E
100
AcDbEntity
  8
STEMPEL
100
AcDbCircle
 10
145.1897756693192
 20
518.2665510592025
 30
0.0
 40
27.5
100
AcDbArc
 50
155.0000000000079
 51
180.0
  0
ARC
  5
25A9
102
{ACAD_REACTORS
330
2A81
102
}
330
1E
100
AcDbEntity
  8
STEMPEL
100
AcDbCircle
 10
145.1897756693192
 20
518.2665510592025
 30
0.0
 40
30.0
100
AcDbArc
 50
155.0000000000065
 51
180.0
  0
LINE
  5
25AA
330
1E
100
AcDbEntity
  8
STEMPEL
100
AcDbLine
 10
121.1897756693192
 20
531.8689285036668
 30
0.0
 11
120.2663115258113
 21
529.8885532570717
 31
0.0
  0
LINE
  5
25AB
102
{ACAD_REACTORS
330
2A81
102
}
330
1E
100
AcDbEntity
  8
STEMPEL
100
AcDbLine
 10
118.431330871913
 20
531.8689285036668
 30
0.0
 11
118.0005420582198
 21
530.9450989114237
 31
0.0
  0
ARC
  5
25AC
102
{ACAD_REACTORS
330
2A81
102
}
330
1E
100
AcDbEntity
  8
STEMPEL
100
AcDbCircle
 10
237.1897756693193
 20
518.2665510592025
 30
0.0
 40
30.0
100
AcDbArc
 50
0.0
 51
24.99999999999207
  0
ARC
  5
25AD
330
1E
100
AcDbEntity
  8
STEMPEL
100
AcDbCircle
 10
237.1897756693193
 20
518.2665510592025
 30
0.0
 40
27.5
100
AcDbArc
 50
0.0
 51
24.99999999998912
  0
LINE
  5
25AE
102
{ACAD_REACTORS
330
2A81
102
}
330
1E
100
AcDbEntity
  8
STEMPEL
100
AcDbLine
 10
263.9482204667255
 20
531.8689285036668
 30
0.0
 11
264.3790092804187
 21
530.9450989114236
 31
0.0
  0
LINE
  5
25AF
330
1E
100
AcDbEntity
  8
STEMPEL
100
AcDbLine
 10
261.1897756693192
 20
531.8689285036668
 30
0.0
 11
262.1132398128271
 21
529.8885532570716
 31
0.0
  0
HATCH
  5
25F0
330
1E
100
AcDbEntity
  8
SCHRAFF
100
AcDbHatch
 10
0.0
 20
0.0
 30
0.0
210
0.0
220
0.0
230
1.0
  2
_USER
 70
     0
 71
     0
 91
        3
 92
        7
 72
     1
 73
     1
 93
       21
 10
257.6897756693193
 20
449.3689285036667
 42
-0.1528962216020403
 10
259.4754899550336
 20
455.0720425831922
 42
0.1528962216020372
 10
262.6897756693193
 20
465.3376479263378
 42
0.0
 10
262.6897756693193
 20
478.8689285036666
 42
-0.1095494205537222
 10
264.3771860383302
 20
486.4780953129137
 42
0.1095494205537929
 10
267.1895119290113
 20
499.1599285036667
 42
0.0
 10
267.1897756693192
 20
499.1599285036666
 42
0.0
 10
267.1897756693192
 20
518.2665510592024
 42
0.1095178116832434
 10
264.3790092804187
 20
530.9450989114236
 42
0.0
 10
263.9482204667254
 20
531.8689285036667
 42
0.0
 10
261.1897756693193
 20
531.8689285036668
 42
0.0
 10
262.1132398128271
 20
529.8885532570716
 42
-0.1095178116832419
 10
264.6897756693193
 20
518.2665510592023
 42
0.0
 10
264.6897756693193
 20
499.1599285036667
 42
-0.1102736034490952
 10
262.0784126866199
 20
487.4635295954107
 42
0.108578132785405
 10
260.1897756693193
 20
478.8689285036667
 42
0.0
 10
260.1897756693193
 20
465.3376479263378
 42
-0.1528962216020408
 10
257.421918526462
 20
456.4978211030734
 42
0.1528962216020364
 10
255.1897756693193
 20
449.3689285036666
 42
0.0
 10
255.189775669319
 20
409.3540458259889
 42
0.0
 10
257.689775669319
 20
409.354045825989
 42
0.0
 97
        0
 92
        7
 72
     1
 73
     1
 93
       23
 10
127.1897756693191
 20
449.3689285036667
 42
0.1528962216020387
 10
124.9576328121763
 20
456.4978211030735
 42
-0.1528962216020392
 10
122.1897756693192
 20
465.337647926338
 42
0.0
 10
122.1897756693192
 20
478.8689285036667
 42
0.1085781327854092
 10
120.3011386520184
 20
487.4635295954111
 42
-0.110273603449092
 10
117.6897756693192
 20
499.1599285036668
 42
0.0
 10
117.6897756693192
 20
518.2665510592025
 42
-0.1095178116832411
 10
120.2663115258113
 20
529.8885532570717
 42
0.0
 10
121.1897756693192
 20
531.8689285036668
 42
0.0
 10
118.431330871913
 20
531.8689285036668
 42
0.0
 10
118.0005420582198
 20
530.9450989114237
 42
0.1095178116832432
 10
115.1897756693192
 20
518.2665510592025
 42
0.0
 10
115.1897756693192
 20
499.1599285036667
 42
0.0
 10
115.1900394096271
 20
499.1599285036668
 42
0.1095494205537667
 10
118.002365300307
 20
486.4780953129168
 42
-0.1095494205537676
 10
119.6897756693192
 20
478.8689285036666
 42
0.0
 10
119.6897756693192
 20
465.337647926338
 42
0.1528962216020388
 10
122.9040613836049
 20
455.0720425831922
 42
-0.1528962216020397
 10
124.6897756693191
 20
449.3689285036667
 42
0.0
 10
124.6897756693189
 20
209.7597761463988
 42
0.0
 10
125.3801353836681
 20
201.8689285036667
 42
0.0
 10
127.8896849775265
 20
201.8689285036667
 42
0.0
 10
127.1897756693189
 20
209.8689285036694
 42
0.0
 97
        0
 92
        7
 72
     0
 73
     1
 93
        6
 10
257.6897756693191
 20
311.354045825989
 10
255.1897756693191
 20
311.354045825989
 10
255.1897756693191
 20
209.8689285036679
 10
254.4898663611118
 20
201.8689285036667
 10
256.9994159549701
 20
201.8689285036667
 10
257.6897756693191
 20
209.7597761463956
 97
        0
 75
     0
 76
     0
 52
45.0
 41
2.0
 77
     0
 78
     1
 53
45.0
 43
0.0
 44
0.0
 45
-1.414213562373094
 46
1.414213562373095
 79
     0
 47
0.6797392936840243
 98
        3
 10
256.8657842775228
 20
433.9961883823759
 10
126.2640387136075
 20
419.0419236394216
 10
256.1855655448148
 20
281.0548462930753
  0
HATCH
  5
25FA
330
1E
100
AcDbEntity
  8
SCHRAFF
100
AcDbHatch
 10
0.0
 20
0.0
 30
0.0
210
0.0
220
0.0
230
1.0
  2
_USER
 70
     0
 71
     1
 91
        1
 92
       33
 93
       18
 72
     1
 10
287.4556918198168
 20
410.98125634366
 11
257.6897756693191
 21
409.4212907798872
 72
     1
 10
287.3510199073308
 20
412.9785154131692
 11
257.6897756693191
 21
411.424035471883
 72
     2
 10
315.0085322822501
 20
430.4499417531986
 40
14.0
 50
273.0000000000002
 51
299.8877706590201
 73
     1
 72
     1
 10
315.7412356696513
 20
416.4691282666346
 11
300.1900661318769
 21
415.6541260059057
 72
     2
 10
300.8704335630353
 20
402.6719420540962
 40
13.0
 50
93.00000000000007
 51
127.3011527567912
 73
     1
 72
     2
 10
286.9323322573873
 20
420.9675516912056
 40
10.0
 50
273.0
 51
307.3011527567914
 73
     1
 72
     2
 10
315.0085322822501
 20
430.4499417531986
 40
12.0
 50
273.0000000000002
 51
299.88777065902
 73
     1
 72
     2
 10
300.8704335630353
 20
402.6719420540962
 40
15.0
 50
93.00000000000014
 51
127.3011527567912
 73
     1
 72
     2
 10
286.9323322573873
 20
420.9675516912056
 40
8.0
 50
272.9999999999999
 51
307.3011527567914
 73
     1
 72
     1
 10
315.6365637571655
 20
418.4663873361437
 11
300.0853942193911
 21
417.6513850754148
 72
     1
 10
363.1499705923721
 20
419.4544009555518
 11
360.198996298911
 21
420.6466719618756
 72
     2
 10
351.5830446503451
 20
399.3214433068393
 40
23.0
 50
68.00000000000036
 51
93.00000000000022
 73
     1
 72
     1
 10
350.3793176567573
 20
422.2899226061945
 11
332.2419598497278
 21
421.3393839614661
 72
     2
 10
333.4456868433156
 20
398.3709046621109
 40
22.99990931069965
 50
92.9999999999991
 51
119.8877706590199
 73
     1
 72
     1
 10
350.2746457442714
 20
424.2871816757037
 11
332.1372879372419
 21
423.3366430309752
 72
     2
 10
333.4456868433156
 20
398.3709046621109
 40
24.99990931069965
 50
92.9999999999991
 51
119.88777065902
 73
     1
 72
     1
 10
363.0344779153996
 20
421.6581325112957
 11
360.9482094857429
 21
422.501039671009
 72
     2
 10
351.5830446503451
 20
399.3214433068393
 40
25.0
 50
67.99999999999997
 51
93.00000000000009
 73
     1
 97
       18
330
2494
330
233E
330
249A
330
2499
330
2496
330
2495
330
2341
330
233F
330
233D
330
233C
330
249F
330
249E
330
249D
330
249C
330
233B
330
233A
330
2339
330
2338
 75
     0
 76
     0
 52
138.0
 41
2.0
 77
     0
 78
     1
 53
138.0
 43
0.0
 44
0.0
 45
-1.338261212717716
 46
-1.486289650954788
 79
     0
 98
        1
 10
0.0
 20
0.0
  0
HATCH
  5
25FB
330
1E
100
AcDbEntity
  8
SCHRAFF
100
AcDbHatch
 10
0.0
 20
0.0
 30
0.0
210
0.0
220
0.0
230
1.0
  2
_USER
 70
     0
 71
     1
 91
        1
 92
       33
 93
       18
 72
     1
 10
368.7499179103672
 20
312.6010407368125
 11
365.9397356189412
 21
311.1068403077732
 72
     2
 10
355.1418896748653
 20
331.4146349435282
 40
23.0
 50
272.9999999999999
 51
298.0000000000014
 73
     1
 72
     1
 10
356.345616668453
 20
308.4461556441731
 11
338.2082588614234
 21
307.4956169994447
 72
     2
 10
337.0045318678358
 20
330.4640962987999
 40
22.99990931069965
 50
246.1122293409799
 51
272.9999999999991
 73
     1
 72
     2
 10
322.0215504188046
 20
296.6335840960857
 40
14.0
 50
66.11222934098001
 51
92.99999999999977
 73
     1
 72
     2
 10
322.0215504188046
 20
296.6335840960857
 40
12.0
 50
66.11222934097999
 51
92.99999999999988
 73
     1
 72
     1
 10
356.4502885809389
 20
306.4488965746639
 11
338.3129307739093
 21
305.4983579299356
 72
     2
 10
337.0045318678358
 20
330.4640962987999
 40
24.99990931069965
 50
246.11222934098
 51
272.9999999999991
 73
     1
 72
     1
 10
368.8654105873398
 20
310.3973091810685
 11
366.8786787445128
 21
309.3409451220552
 72
     2
 10
355.1418896748653
 20
331.4146349435282
 40
25.0
 50
273.0
 51
298.0000000000004
 73
     1
 72
     1
 10
321.2888470314034
 20
310.6143975826498
 11
305.737677493629
 21
309.799395321921
 72
     2
 10
305.0573100624708
 20
322.7815792737304
 40
13.0
 50
238.6988472432085
 51
272.9999999999998
 73
     1
 72
     2
 10
293.1079750940546
 20
303.129266590166
 40
10.0
 50
58.69884724320829
 51
92.99999999999974
 73
     1
 72
     2
 10
293.1079750940546
 20
303.129266590166
 40
8.0
 50
58.69884724320858
 51
92.99999999999991
 73
     1
 72
     2
 10
305.0573100624708
 20
322.7815792737304
 40
15.0
 50
238.6988472432084
 51
272.9999999999997
 73
     1
 72
     1
 10
321.3935189438894
 20
308.6171385131406
 11
305.8423494061149
 21
307.8021362524119
 72
     1
 10
292.5846155316252
 20
313.1155619377117
 11
257.6897756693191
 21
311.2868008720911
 72
     1
 10
292.6892874441111
 20
311.1183028682025
 11
257.6897756693191
 21
309.2840561800953
 97
       18
330
24AC
330
24AA
330
24A9
330
24A8
330
24A6
330
2337
330
2332
330
2331
330
2330
330
232F
330
24A5
330
24A3
330
24A1
330
2336
330
2334
330
2333
330
24A0
330
2335
 75
     0
 76
     0
 52
138.0
 41
2.0
 77
     0
 78
     1
 53
138.0
 43
0.0
 44
0.0
 45
-1.338261212717716
 46
-1.486289650954788
 79
     0
 98
        1
 10
0.0
 20
0.0
  0
LINE
  5
265B
102
{ACAD_REACTORS
330
2A81
102
}
330
1E
100
AcDbEntity
  8
STEMPEL
100
AcDbLine
 10
272.4397756693194
 20
515.8689285036667
 30
0.0
 11
267.1897756693192
 21
515.8689285036667
 31
0.0
  0
LINE
  5
265C
102
{ACAD_REACTORS
330
2A81
102
}
330
1E
100
AcDbEntity
  8
STEMPEL
100
AcDbLine
 10
115.1897756693192
 20
515.8689285036667
 30
0.0
 11
109.9397756693192
 21
515.8689285036667
 31
0.0
  0
LINE
  5
265D
102
{ACAD_REACTORS
330
2842
102
}
330
1E
100
AcDbEntity
  8
STEMPEL
100
AcDbLine
 10
107.0397756693193
 20
531.8689285036668
 30
0.0
 11
107.0397756693193
 21
259.8689285036668
 31
0.0
  0
LINE
  5
265E
102
{ACAD_REACTORS
330
2842
330
2A81
102
}
330
1E
100
AcDbEntity
  8
STEMPEL
100
AcDbLine
 10
109.9397756693192
 20
531.8689285036668
 30
0.0
 11
109.9397756693193
 21
261.8689285036666
 31
0.0
  0
LINE
  5
265F
102
{ACAD_REACTORS
330
2825
330
2842
330
2859
102
}
330
1E
100
AcDbEntity
  8
STEMPEL
100
AcDbLine
 10
275.3397756693193
 20
531.8689285036667
 30
0.0
 11
275.3397756693194
 21
425.366873274202
 31
0.0
  0
LINE
  5
2660
102
{ACAD_REACTORS
330
2842
330
2A81
102
}
330
1E
100
AcDbEntity
  8
STEMPEL
100
AcDbLine
 10
272.4397756693194
 20
531.8689285036667
 30
0.0
 11
272.4397756693194
 21
425.3668732742019
 31
0.0
  0
DIMENSION
  5
2662
330
1E
100
AcDbEntity
  8
BEM
100
AcDbDimension
  2
*D5
 10
275.3397756693193
 20
547.0827908373932
 30
0.0
 11
191.1897756693193
 21
553.5827908373931
 31
0.0
 70
    32
  1
%%c<>
 71
     5
 42
168.3
  3
Standard
100
AcDbAlignedDimension
 13
107.0397756693193
 23
531.8689285036668
 33
0.0
 14
275.3397756693193
 24
531.8689285036667
 34
0.0
100
AcDbRotatedDimension
1001
ACAD
1000
DSTYLE
1002
{
1070
    40
1040
2.0
1070
    41
1040
3.5
1070
    42
1040
1.0
1070
    43
1040
7.0
1070
    44
1040
1.0
1070
    73
1070
     0
1070
    74
1070
     0
1070
    77
1070
     1
1070
    78
1070
     8
1070
    79
1070
     2
1070
   140
1040
3.5
1070
   141
1040
1.5
1070
   146
1040
0.5142857142857144
1070
   147
1040
1.5
1070
   172
1070
     1
1070
   178
1070
     1
1070
   179
1070
     2
1070
   271
1070
     2
1070
   272
1070
     2
1070
   284
1070
     8
1070
   285
1070
     8
1070
   286
1070
     8
1070
   289
1070
     0
1070
   340
1005
24
1002
}
  0
LINE
  5
26EB
330
1E
100
AcDbEntity
  8
STEMPEL
100
AcDbLine
 10
272.4397756693194
 20
275.7689285036666
 30
0.0
 11
270.3397756693192
 21
277.8689285036668
 31
0.0
  0
LINE
  5
26ED
330
1E
100
AcDbEntity
  8
STEMPEL
100
AcDbLine
 10
270.3397756693192
 20
277.8689285036668
 30
0.0
 11
257.6897756693191
 21
277.8689285036668
 31
0.0
  0
LINE
  5
26EE
330
1E
100
AcDbEntity
  8
STEMPEL
100
AcDbLine
 10
265.0461821298703
 20
267.8689285036668
 30
0.0
 11
257.6897756693191
 21
267.8689285036668
 31
0.0
  0
LINE
  5
26EF
102
{ACAD_REACTORS
330
2842
102
}
330
1E
100
AcDbEntity
  8
STEMPEL
100
AcDbLine
 10
275.339775669319
 20
261.8689285036666
 30
0.0
 11
272.4397756693194
 21
261.8689285036666
 31
0.0
  0
LINE
  5
26F1
330
1E
100
AcDbEntity
  8
STEMPEL
100
AcDbLine
 10
124.6897756693195
 20
277.8689285036668
 30
0.0
 11
112.0397756693193
 21
277.8689285036668
 31
0.0
  0
LINE
  5
26F2
330
1E
100
AcDbEntity
  8
STEMPEL
100
AcDbLine
 10
124.6897756693195
 20
267.8689285036668
 30
0.0
 11
117.3333692087684
 21
267.8689285036668
 31
0.0
  0
LINE
  5
26F3
102
{ACAD_REACTORS
330
2842
102
}
330
1E
100
AcDbEntity
  8
STEMPEL
100
AcDbLine
 10
109.9397756693193
 20
261.8689285036666
 30
0.0
 11
107.039775669319
 21
261.8689285036666
 31
0.0
  0
LINE
  5
26F4
330
1E
100
AcDbEntity
  8
STEMPEL
100
AcDbLine
 10
109.9397756693193
 20
275.7689285036667
 30
0.0
 11
112.0397756693193
 21
277.8689285036668
 31
0.0
  0
DIMENSION
  5
272A
330
1E
100
AcDbEntity
  8
BEM
100
AcDbDimension
  2
*D6
 10
96.34991032747119
 20
201.8689285036667
 30
0.0
 11
89.84991032747116
 21
231.8689285036667
 31
0.0
 70
    32
 71
     5
 42
59.99999999999992
  3
Standard
100
AcDbAlignedDimension
 13
107.0397756693193
 23
261.8689285036666
 33
0.0
 14
125.3801353836681
 24
201.8689285036667
 34
0.0
 50
90.0
100
AcDbRotatedDimension
1001
ACAD
1000
DSTYLE
1002
{
1070
   279
1070
     1
1070
    40
1040
2.0
1070
    41
1040
3.5
1070
    42
1040
1.0
1070
    43
1040
7.0
1070
    44
1040
1.0
1070
    73
1070
     0
1070
    74
1070
     0
1070
    77
1070
     1
1070
    78
1070
     8
1070
    79
1070
     2
1070
   140
1040
3.5
1070
   141
1040
1.5
1070
   146
1040
0.5142857142857144
1070
   147
1040
1.5
1070
   172
1070
     1
1070
   178
1070
     1
1070
   179
1070
     2
1070
   271
1070
     2
1070
   272
1070
     2
1070
   284
1070
     8
1070
   285
1070
     8
1070
   286
1070
     8
1002
}
  0
DIMENSION
  5
2789
330
1E
100
AcDbEntity
  8
BEM
100
AcDbDimension
  2
*D7
 10
385.7285144861272
 20
300.4730107807175
 30
0.0
 11
388.7392653718771
 21
367.2220585574759
 31
0.0
 70
    32
  1
%%c<>
 71
     5
 42
133.0000000000001
  3
Standard
100
AcDbAlignedDimension
 13
362.4696031612139
 23
432.4365849073614
 33
0.0
 14
369.4302853415255
 24
299.618856785003
 34
0.0
 50
272.9999999999991
100
AcDbRotatedDimension
1001
ACAD
1000
DSTYLE
1002
{
1070
    40
1040
2.0
1070
    41
1040
3.5
1070
    42
1040
1.0
1070
    43
1040
7.0
1070
    44
1040
1.0
1070
    73
1070
     0
1070
    74
1070
     0
1070
    77
1070
     1
1070
    78
1070
     8
1070
    79
1070
     2
1070
   140
1040
3.5
1070
   141
1040
1.5
1070
   146
1040
0.5142857142857144
1070
   147
1040
1.5
1070
   172
1070
     1
1070
   178
1070
     1
1070
   179
1070
     2
1070
   271
1070
     2
1070
   272
1070
     2
1070
   284
1070
     8
1070
   285
1070
     8
1070
   286
1070
     8
1070
   289
1070
     0
1070
   340
1005
24
1002
}
  0
LINE
  5
278B
102
{ACAD_REACTORS
330
2ABB
102
}
330
1E
100
AcDbEntity
  8
STEMPEL
100
AcDbLine
 10
348.6196295652571
 20
429.2073076830737
 30
0.0
 11
348.8813093464718
 21
424.2141600093007
 31
0.0
  0
LINE
  5
278C
102
{ACAD_REACTORS
330
2ABB
102
}
330
1E
100
AcDbEntity
  8
STEMPEL
100
AcDbLine
 10
355.0569521831393
 20
306.3758749082609
 30
0.0
 11
355.318631964354
 21
301.3827272344883
 31
0.0
  0
LINE
  5
278D
102
{ACAD_REACTORS
330
2825
330
2859
102
}
330
1E
100
AcDbEntity
  8
STEMPEL
100
AcDbLine
 10
369.4302853415253
 20
299.618856785003
 30
0.0
 11
275.3397756693193
 21
294.6877821214733
 31
0.0
  0
LINE
  5
278E
102
{ACAD_REACTORS
330
2825
330
2ABB
102
}
330
1E
100
AcDbEntity
  8
STEMPEL
100
AcDbLine
 10
369.299445450918
 20
302.1154306218895
 30
0.0
 11
275.3397756693196
 21
297.1912129864681
 31
0.0
  0
LINE
  5
278F
102
{ACAD_REACTORS
330
2825
330
2859
102
}
330
1E
100
AcDbEntity
  8
STEMPEL
100
AcDbLine
 10
362.4696031612139
 20
432.4365849073614
 30
0.0
 11
275.3397756693193
 21
427.8703041391969
 31
0.0
  0
LINE
  5
2790
102
{ACAD_REACTORS
330
2825
330
2ABB
102
}
330
1E
100
AcDbEntity
  8
STEMPEL
100
AcDbLine
 10
362.6004430518213
 20
429.940011070475
 30
0.0
 11
275.3397756693188
 21
425.366873274202
 31
0.0
  0
LINE
  5
2807
102
{ACAD_REACTORS
330
2842
102
}
330
1E
100
AcDbEntity
  8
STEMPEL
100
AcDbLine
 10
275.3397756693188
 20
425.366873274202
 30
0.0
 11
272.4397756693194
 21
425.3668732742019
 31
0.0
  0
LINE
  5
2808
102
{ACAD_REACTORS
330
2842
102
}
330
1E
100
AcDbEntity
  8
STEMPEL
100
AcDbLine
 10
275.3397756693196
 20
297.1912129864681
 30
0.0
 11
272.4397756693194
 21
297.191212986468
 31
0.0
  0
LINE
  5
2809
102
{ACAD_REACTORS
330
2842
102
}
330
1E
100
AcDbEntity
  8
STEMPEL
100
AcDbLine
 10
272.4397756693194
 20
297.191212986468
 30
0.0
 11
272.4397756693195
 21
261.8689285036666
 31
0.0
  0
LINE
  5
280A
102
{ACAD_REACTORS
330
2825
330
2842
330
2859
102
}
330
1E
100
AcDbEntity
  8
STEMPEL
100
AcDbLine
 10
275.3397756693193
 20
297.1912129864681
 30
0.0
 11
275.3397756693193
 21
259.8689285036656
 31
0.0
  0
ARC
  5
280B
102
{ACAD_REACTORS
330
2859
102
}
330
1E
100
AcDbEntity
  8
SCHRAFF
100
AcDbCircle
 10
275.3397756693194
 20
427.8703041391969
 30
0.0
 40
4.0
100
AcDbArc
 50
2.999999999999903
 51
90.00000000000081
  0
ARC
  5
280C
102
{ACAD_REACTORS
330
2859
102
}
330
1E
100
AcDbEntity
  8
SCHRAFF
100
AcDbCircle
 10
275.3397756693193
 20
294.6877821214733
 30
0.0
 40
4.0
100
AcDbArc
 50
270.0
 51
3.000000000000716
  0
HATCH
  5
2825
330
1E
100
AcDbEntity
  8
SCHRAFF
100
AcDbHatch
 10
0.0
 20
0.0
 30
0.0
210
0.0
220
0.0
230
1.0
  2
_USER
 70
     0
 71
     1
 91
        2
 92
        7
 72
     0
 73
     1
 93
        4
 10
275.3397756693194
 20
427.8703041391969
 10
275.3397756693194
 20
425.366873274202
 10
362.6004430518211
 20
429.940011070475
 10
362.4696031612138
 20
432.4365849073614
 97
        4
330
2342
330
278F
330
265F
330
2790
 92
        7
 72
     0
 73
     1
 93
        4
 10
369.4302853415257
 20
299.618856785003
 10
369.2994454509183
 20
302.1154306218895
 10
275.3397756693193
 20
297.1912129864681
 10
275.3397756693193
 20
294.6877821214733
 97
        4
330
2342
330
278E
330
280A
330
278D
 75
     0
 76
     0
 52
48.0
 41
2.0
 77
     0
 78
     1
 53
48.0
 43
0.0
 44
0.0
 45
-1.486289650954788
 46
1.338261212717716
 79
     0
 47
0.6913389380476584
 98
        2
 10
289.6868540103546
 20
427.7729781680998
 10
311.8252622527903
 20
297.8012566679786
  0
HATCH
  5
2842
330
1E
100
AcDbEntity
  8
SCHRAFF
100
AcDbHatch
 10
0.0
 20
0.0
 30
0.0
210
0.0
220
0.0
230
1.0
  2
_USER
 70
     0
 71
     1
 91
        3
 92
        7
 72
     0
 73
     1
 93
        4
 10
272.4397756693194
 20
425.3668732742019
 10
275.3397756693194
 20
425.3668732742019
 10
275.3397756693193
 20
531.8689285036667
 10
272.4397756693194
 20
531.8689285036665
 97
        4
330
2368
330
2660
330
2807
330
265F
 92
        7
 72
     0
 73
     1
 93
        4
 10
107.0397756693193
 20
261.8689285036667
 10
109.9397756693193
 20
261.8689285036667
 10
109.9397756693192
 20
531.8689285036667
 10
107.0397756693192
 20
531.8689285036668
 97
        4
330
2368
330
265D
330
26F3
330
265E
 92
        7
 72
     0
 73
     1
 93
        4
 10
272.4397756693195
 20
261.8689285036666
 10
275.3397756693193
 20
261.8689285036666
 10
275.3397756693193
 20
297.1912129864681
 10
272.4397756693194
 20
297.191212986468
 97
        4
330
2808
330
2809
330
26EF
330
280A
 75
     0
 76
     0
 52
135.0
 41
2.0
 77
     0
 78
     1
 53
135.0
 43
0.0
 44
0.0
 45
-1.414213562373095
 46
-1.414213562373094
 79
     0
 47
0.6913389380476584
 98
        3
 10
273.7748731714019
 20
473.4013473786673
 10
108.4286455669544
 20
439.5257391380087
 10
273.7748731714019
 20
282.5917997908914
  0
HATCH
  5
2859
330
1E
100
AcDbEntity
  8
SCHRAFF
100
AcDbHatch
 10
0.0
 20
0.0
 30
0.0
210
0.0
220
0.0
230
1.0
  2
_USER
 70
     0
 71
     1
 91
        2
 92
        7
 72
     1
 73
     1
 93
        3
 10
275.3397756693194
 20
431.8703041391969
 42
0.0
 10
275.3397756693194
 20
427.8703041391969
 42
0.0
 10
279.3342938083376
 20
428.0796479641686
 42
0.3989595459737157
 97
        3
330
265F
330
278F
330
280B
 92
        7
 72
     1
 73
     1
 93
        3
 10
275.3397756693193
 20
290.6877821214733
 42
0.4296339059668311
 10
279.3342938083376
 20
294.8971259464451
 42
0.0
 10
275.3397756693193
 20
294.6877821214732
 42
0.0
 97
        3
330
278D
330
280A
330
280C
 75
     0
 76
     0
 52
0.0
 41
0.1
 77
     0
 78
     1
 53
0.0
 43
0.0
 44
0.0
 45
0.0
 46
0.1
 79
     0
 47
0.6913389380476584
 98
        2
 10
277.2339992033894
 20
429.8469937234356
 10
276.5421745428962
 20
292.9618846710389
  0
HATCH
  5
2A34
330
1E
100
AcDbEntity
  8
SCHRAFF
100
AcDbHatch
 10
0.0
 20
0.0
 30
0.0
210
0.0
220
0.0
230
1.0
  2
HONEY
 70
     0
 71
     0
 91
        1
 92
       33
 93
       20
 72
     2
 10
333.4456868433156
 20
398.3709046621109
 40
24.99990931069965
 50
92.9999999999991
 51
119.88777065902
 73
     1
 72
     1
 10
348.8813093464719
 20
424.2141600093007
 11
332.1372879372419
 21
423.3366430309752
 72
     1
 10
315.6365637571654
 20
418.4663873361436
 11
300.085394219391
 21
417.6513850754148
 72
     2
 10
286.9323322573873
 20
420.9675516912056
 40
8.0
 50
272.9999999999999
 51
307.3011527567914
 73
     1
 72
     1
 10
287.351019907331
 20
412.9785154131692
 11
257.689775669319
 21
411.424035471883
 72
     2
 10
300.8704335630353
 20
402.6719420540962
 40
15.0
 50
92.99999999999995
 51
127.3011527567909
 73
     1
 72
     2
 10
315.0085322822501
 20
430.4499417531986
 40
12.0
 50
273.0000000000002
 51
299.8877706590197
 73
     1
 72
     1
 10
257.6897756693194
 20
449.3689285036667
 11
257.689775669319
 21
411.424035471883
 72
     1
 10
267.1897756693192
 20
515.8689285036667
 11
267.1897756693192
 21
499.1599285036667
 72
     1
 10
262.6897756693193
 20
478.8689285036666
 11
262.6897756693193
 21
465.3376479263378
 72
     2
 10
267.6897756693193
 20
449.3689285036666
 40
10.0
 50
145.228055968052
 51
179.9999999999996
 73
     1
 72
     2
 10
244.6897756693193
 20
465.3376479263378
 40
18.0
 50
325.2280559680512
 51
360.0
 73
     1
 72
     2
 10
280.6897756693193
 20
478.8689285036666
 40
18.0
 50
154.9928416634475
 51
180.0
 73
     1
 72
     2
 10
237.1897756693193
 20
499.1599285036667
 40
29.99973625969209
 50
334.9928416634476
 51
360.0
 73
     1
 72
     1
 10
267.1895119290113
 20
499.1599285036667
 11
267.1897756693192
 21
499.1599285036667
 72
     1
 10
272.4397756693194
 20
515.8689285036667
 11
267.1897756693192
 21
515.8689285036667
 72
     1
 10
272.4397756693194
 20
515.8689285036667
 11
272.4397756693195
 21
425.3668732742021
 72
     1
 10
348.6196295652571
 20
429.2073076830738
 11
348.8813093464719
 21
424.2141600093007
 72
     1
 10
348.6196295652571
 20
429.2073076830738
 11
275.3397756693193
 21
425.3668732742021
 72
     1
 10
275.3397756693193
 20
425.3668732742021
 11
272.4397756693195
 21
425.3668732742021
 97
        0
 75
     0
 76
     1
 52
0.0
 41
25.0
 77
     0
 78
     3
 53
0.0
 43
-365.137459548409
 44
0.0
 45
4.6875
 46
2.706329374999999
 79
     2
 49
3.125
 49
-6.25
 53
120.0
 43
-365.137459548409
 44
0.0
 45
-4.687499989758061
 46
2.706329392739557
 79
     2
 49
3.124999999999999
 49
-6.249999999999999
 53
60.0
 43
-365.137459548409
 44
0.0
 45
0.0000000102419385
 46
5.412658767739556
 79
     2
 49
-6.25
 49
3.125
 98
        1
 10
-365.137459548409
 20
0.0
  0
HATCH
  5
2A45
330
1E
100
AcDbEntity
  8
SCHRAFF
100
AcDbHatch
 10
0.0
 20
0.0
 30
0.0
210
0.0
220
0.0
230
1.0
  2
HONEY
 70
     0
 71
     0
 91
        1
 92
        7
 72
     1
 73
     1
 93
       12
 10
124.6897756693191
 20
449.3689285036668
 42
0.1528962216020365
 10
122.9040613836049
 20
455.0720425831921
 42
-0.1528962216020399
 10
119.6897756693192
 20
465.337647926338
 42
0.0
 10
119.6897756693192
 20
478.8689285036667
 42
0.1095494205537669
 10
118.0023653003069
 20
486.4780953129168
 42
-0.1095494205537664
 10
115.1900394096272
 20
499.1599285036668
 42
0.0
 10
115.1897756693193
 20
499.1599285036668
 42
0.0
 10
115.1897756693194
 20
515.8689285036667
 42
0.0
 10
109.9397756693193
 20
515.8689285036667
 42
0.0
 10
109.9397756693193
 20
275.7689285036668
 42
0.0
 10
112.0397756693193
 20
277.8689285036668
 42
0.0
 10
124.6897756693191
 20
277.8689285036668
 42
0.0
 97
        0
 75
     0
 76
     1
 52
0.0
 41
25.0
 77
     0
 78
     3
 53
0.0
 43
-365.137459548409
 44
0.0
 45
4.6875
 46
2.706329374999999
 79
     2
 49
3.125
 49
-6.25
 53
120.0
 43
-365.137459548409
 44
0.0
 45
-4.687499989758061
 46
2.706329392739557
 79
     2
 49
3.124999999999999
 49
-6.249999999999999
 53
60.0
 43
-365.137459548409
 44
0.0
 45
0.0000000102419385
 46
5.412658767739556
 79
     2
 49
-6.25
 49
3.125
 47
0.6055015558010301
 98
        1
 10
121.5758416537492
 20
400.4221707165381
  0
HATCH
  5
2A46
330
1E
100
AcDbEntity
  8
SCHRAFF
100
AcDbHatch
 10
0.0
 20
0.0
 30
0.0
210
0.0
220
0.0
230
1.0
  2
HONEY
 70
     0
 71
     0
 91
        1
 92
       33
 93
       14
 72
     2
 10
337.0045318678358
 20
330.4640962987999
 40
24.99990931069965
 50
246.11222934098
 51
272.9999999999991
 73
     1
 72
     1
 10
355.0569521831393
 20
306.3758749082609
 11
338.3129307739093
 21
305.4983579299356
 72
     1
 10
321.3935189438894
 20
308.6171385131406
 11
305.8423494061149
 21
307.8021362524119
 72
     2
 10
305.0573100624708
 20
322.7815792737304
 40
15.0
 50
238.6988472432084
 51
272.9999999999995
 73
     1
 72
     1
 10
292.6892874441111
 20
311.1183028682025
 11
257.689775669319
 21
309.2840561800953
 72
     2
 10
293.1079750940546
 20
303.129266590166
 40
8.0
 50
58.69884724320858
 51
92.99999999999991
 73
     1
 72
     2
 10
322.0215504188046
 20
296.6335840960857
 40
12.0
 50
66.11222934097999
 51
92.99999999999961
 73
     1
 72
     1
 10
257.689775669319
 20
309.2840561800953
 11
257.689775669319
 21
277.8689285036667
 72
     1
 10
272.4397756693195
 20
275.7689285036665
 11
270.3397756693191
 21
277.8689285036668
 72
     1
 10
270.3397756693191
 20
277.8689285036668
 11
257.689775669319
 21
277.8689285036667
 72
     1
 10
355.0569521831393
 20
306.3758749082609
 11
355.318631964354
 21
301.3827272344883
 72
     1
 10
355.318631964354
 20
301.3827272344883
 11
275.3397756693196
 21
297.1912129864681
 72
     1
 10
275.3397756693196
 20
297.1912129864681
 11
272.4397756693195
 21
297.191212986468
 72
     1
 10
272.4397756693195
 20
297.191212986468
 11
272.4397756693195
 21
275.7689285036665
 97
        0
 75
     0
 76
     1
 52
0.0
 41
25.0
 77
     0
 78
     3
 53
0.0
 43
-365.137459548409
 44
0.0
 45
4.6875
 46
2.706329374999999
 79
     2
 49
3.125
 49
-6.25
 53
120.0
 43
-365.137459548409
 44
0.0
 45
-4.687499989758061
 46
2.706329392739557
 79
     2
 49
3.124999999999999
 49
-6.249999999999999
 53
60.0
 43
-365.137459548409
 44
0.0
 45
0.0000000102419385
 46
5.412658767739556
 79
     2
 49
-6.25
 49
3.125
 98
        1
 10
-365.137459548409
 20
0.0
  0
DIMENSION
  5
2A47
330
1E
100
AcDbEntity
  8
BEM
100
AcDbDimension
  2
*D8
 10
191.1897756693192
 20
196.8689285036667
 30
0.0
 11
227.1219422276367
 21
416.2429280086626
 31
0.0
 70
   162
 71
     5
 42
1.518436449235065
  3
Standard
100
AcDb2LineAngularDimension
 13
370.9430919251425
 23
366.2894006273968
 33
0.0
 14
222.8867424048332
 24
358.5300961402835
 34
0.0
 15
191.1897756693192
 25
536.8689285036668
 35
0.0
 16
250.0445115675452
 26
393.6454491811858
 36
0.0
1001
ACAD
1000
DSTYLE
1002
{
1070
    40
1040
2.0
1070
    41
1040
3.5
1070
    42
1040
1.0
1070
    43
1040
7.0
1070
    44
1040
1.0
1070
    73
1070
     0
1070
    74
1070
     0
1070
    77
1070
     1
1070
    78
1070
     8
1070
    79
1070
     2
1070
   140
1040
3.5
1070
   141
1040
1.5
1070
   146
1040
0.5142857142857144
1070
   147
1040
1.5
1070
   172
1070
     1
1070
   178
1070
     1
1070
   179
1070
     2
1070
   271
1070
     2
1070
   272
1070
     2
1070
   284
1070
     8
1070
   285
1070
     8
1070
   286
1070
     8
1002
}
  0
HATCH
  5
2A81
330
1E
100
AcDbEntity
  8
BEM
100
AcDbHatch
 10
0.0
 20
0.0
 30
0.0
210
0.0
220
0.0
230
1.0
  2
NET
 70
     0
 71
     1
 91
        2
 92
        7
 72
     1
 73
     1
 93
        6
 10
272.4397756693194
 20
531.8689285036668
 42
0.0
 10
263.9482204667256
 20
531.8689285036668
 42
0.0
 10
264.3790092804187
 20
530.9450989114236
 42
-0.1095178116832424
 10
267.1897756693192
 20
518.2665510592025
 42
0.0
 10
267.1897756693192
 20
515.8689285036667
 42
0.0
 10
272.4397756693194
 20
515.8689285036667
 42
0.0
 97
        6
330
2368
330
25AE
330
25AC
330
2583
330
265B
330
2660
 92
        7
 72
     1
 73
     1
 93
        6
 10
118.0005420582198
 20
530.9450989114237
 42
0.0
 10
118.4313308719129
 20
531.8689285036668
 42
0.0
 10
109.9397756693193
 20
531.8689285036668
 42
0.0
 10
109.9397756693192
 20
515.8689285036665
 42
0.0
 10
115.1897756693192
 20
515.8689285036667
 42
0.0
 10
115.1897756693192
 20
518.2665510592025
 42
-0.1095178116832432
 97
        6
330
25AB
330
2368
330
265E
330
265C
330
2587
330
25A9
 75
     0
 76
     1
 52
45.0
 41
20.0
 77
     0
 78
     2
 53
45.0
 43
0.0
 44
0.0
 45
-1.767766952966368
 46
1.767766952966368
 79
     0
 53
135.0
 43
0.0
 44
0.0
 45
-1.767766952966368
 46
-1.767766952966368
 79
     0
 47
0.5962218375189754
 98
        2
 10
269.1213028283542
 20
527.9278077775013
 10
113.3979451853452
 20
527.9278077775013
  0
HATCH
  5
2ABB
330
1E
100
AcDbEntity
  8
BEM
100
AcDbHatch
 10
0.0
 20
0.0
 30
0.0
210
0.0
220
0.0
230
1.0
  2
NET
 70
     0
 71
     1
 91
        2
 92
        7
 72
     1
 73
     1
 93
        6
 10
362.6004430518212
 20
429.9400110704749
 42
0.0
 10
348.6196295652571
 20
429.2073076830736
 42
0.0
 10
348.8813093464718
 20
424.2141600093007
 42
0.0
 10
350.2746457442714
 20
424.2871816757037
 42
-0.1095178116832421
 10
360.9482094857429
 20
422.501039671009
 42
0.0
 10
363.0344779153997
 20
421.6581325112958
 42
0.0
 97
        6
330
2790
330
278B
330
233B
330
2338
330
2339
330
2342
 92
        7
 72
     1
 73
     1
 93
        6
 10
368.8654105873397
 20
310.3973091810684
 42
0.0
 10
366.8786787445128
 20
309.3409451220552
 42
-0.1095178116832447
 10
356.4502885809389
 20
306.4488965746639
 42
0.0
 10
355.0569521831393
 20
306.3758749082609
 42
0.0
 10
355.318631964354
 20
301.3827272344883
 42
0.0
 10
369.2994454509183
 20
302.1154306218895
 42
0.0
 97
        6
330
2330
330
232F
330
2332
330
278C
330
278E
330
2342
 75
     0
 76
     1
 52
48.0
 41
20.0
 77
     0
 78
     2
 53
48.0
 43
0.0
 44
0.0
 45
-1.857862063693485
 46
1.672826515897145
 79
     0
 53
138.0
 43
0.0
 44
0.0
 45
-1.672826515897145
 46
-1.857862063693485
 79
     0
 47
0.5962218375189754
 98
        2
 10
357.4242046314898
 20
427.1663163185071
 10
364.5838992985141
 20
304.9408385720635
  0
LINE
  5
2B0E
330
1E
100
AcDbEntity
  8
STEMPEL
100
AcDbLine
 10
267.1897756693192
 20
259.8689285036657
 30
0.0
 11
265.04618212987
 21
267.8689285036668
 31
0.0
  0
LINE
  5
2B0F
330
1E
100
AcDbEntity
  8
STEMPEL
100
AcDbLine
 10
275.3397756693189
 20
259.8689285036656
 30
0.0
 11
257.6897756693187
 21
259.8689285036658
 31
0.0
  0
HATCH
  5
2B10
330
1E
100
AcDbEntity
  8
SCHRAFF
100
AcDbHatch
 10
0.0
 20
0.0
 30
0.0
210
0.0
220
0.0
230
1.0
  2
NET
 70
     0
 71
     0
 91
        2
 92
        7
 72
     0
 73
     1
 93
        9
 10
265.04618212987
 20
267.8689285036668
 10
267.1897756693193
 20
259.8689285036658
 10
275.3397756693189
 20
259.8689285036656
 10
275.3397756693189
 20
261.8689285036666
 10
272.4397756693189
 20
261.8689285036666
 10
272.4397756693189
 20
275.7689285036669
 10
270.3397756693189
 20
277.8689285036667
 10
257.6897756693188
 20
277.8689285036668
 10
257.6897756693189
 20
267.8689285036668
 97
        0
 92
        7
 72
     0
 73
     1
 93
        9
 10
117.333369208768
 20
267.8689285036668
 10
124.6897756693187
 20
267.8689285036668
 10
124.6897756693187
 20
277.8689285036668
 10
112.039775669319
 20
277.8689285036667
 10
109.9397756693188
 20
275.7689285036666
 10
109.9397756693188
 20
261.8689285036666
 10
107.0397756693188
 20
261.8689285036666
 10
107.0397756693189
 20
259.8689285036667
 10
115.1897756693189
 20
259.8689285036666
 97
        0
 75
     0
 76
     1
 52
45.0
 41
20.0
 77
     0
 78
     2
 53
45.0
 43
-33.81022433068114
 44
-51.7166819479603
 45
-1.767766952966368
 46
1.767766952966368
 79
     0
 53
135.0
 43
-33.81022433068114
 44
-51.7166819479603
 45
-1.767766952966368
 46
-1.767766952966368
 79
     0
 47
0.2115359210124944
 98
        2
 10
267.3495392046326
 20
270.2621861924583
 10
116.0101125639071
 20
271.9544736744037
  0
LINE
  5
2B11
330
1E
100
AcDbEntity
  8
STEMPEL
100
AcDbLine
 10
115.1897756693189
 20
259.8689285036667
 30
0.0
 11
117.333369208768
 21
267.8689285036668
 31
0.0
  0
LINE
  5
2B12
330
1E
100
AcDbEntity
  8
STEMPEL
100
AcDbLine
 10
124.6897756693187
 20
259.8689285036666
 30
0.0
 11
107.0397756693189
 21
259.8689285036667
 31
0.0
  0
ENDSEC
  0
SECTION
  2
OBJECTS
  0
DICTIONARY
  5
C
330
0
100
AcDbDictionary
281
     1
  3
ACAD_COLOR
350
DF
  3
ACAD_GROUP
350
D
  3
ACAD_LAYOUT
350
19
  3
ACAD_MATERIAL
350
DE
  3
ACAD_MLINESTYLE
350
16
  3
ACAD_PLOTSETTINGS
350
18
  3
ACAD_PLOTSTYLENAME
350
E
  3
AcDbVariableDictionary
350
EA
  0
DICTIONARY
  5
A0
330
1E
100
AcDbDictionary
280
     1
281
     1
  3
ACAD_LAYOUTSELFREF
360
D4
  0
DICTIONARY
  5
A2
330
1A
100
AcDbDictionary
280
     1
281
     1
  3
ACAD_LAYOUTSELFREF
360
D3
  0
DICTIONARY
  5
DF
102
{ACAD_REACTORS
330
C
102
}
330
C
100
AcDbDictionary
281
     1
  0
DICTIONARY
  5
D
102
{ACAD_REACTORS
330
C
102
}
330
C
100
AcDbDictionary
281
     1
  0
DICTIONARY
  5
19
102
{ACAD_REACTORS
330
C
102
}
330
C
100
AcDbDictionary
281
     1
  3
Layout1
350
1D
  3
Model
350
21
  0
DICTIONARY
  5
DE
102
{ACAD_REACTORS
330
C
102
}
330
C
100
AcDbDictionary
281
     1
  0
DICTIONARY
  5
16
102
{ACAD_REACTORS
330
C
102
}
330
C
100
AcDbDictionary
281
     1
  3
Standard
350
17
  0
DICTIONARY
  5
18
102
{ACAD_REACTORS
330
C
102
}
330
C
100
AcDbDictionary
281
     1
  0
ACDBDICTIONARYWDFLT
  5
E
102
{ACAD_REACTORS
330
C
102
}
330
C
100
AcDbDictionary
281
     1
  3
Normal
350
F
100
AcDbDictionaryWithDefault
340
F
  0
DICTIONARY
  5
EA
102
{ACAD_REACTORS
330
C
102
}
330
C
100
AcDbDictionary
281
     1
  3
DIMASSOC
350
EB
  3
PROJECTNAME
350
EC
  0
XRECORD
  5
D4
102
{ACAD_REACTORS
330
A0
102
}
330
A0
100
AcDbXrecord
280
     1
340
1E
  0
XRECORD
  5
D3
102
{ACAD_REACTORS
330
A2
102
}
330
A2
100
AcDbXrecord
280
     1
340
1A
  0
LAYOUT
  5
1D
102
{ACAD_REACTORS
330
19
102
}
330
19
100
AcDbPlotSettings
  1

  2
\\NT_WORK01\HP LaserJet 5000 PCL 6
  4

  6

 40
0.0
 41
0.0
 42
0.0
 43
0.0
 44
0.0
 45
0.0
 46
0.0
 47
0.0
 48
0.0
 49
0.0
140
0.0
141
0.0
142
1.0
143
1.0
 70
   688
 72
     0
 73
     0
 74
     5
  7

 75
    16
147
1.0
 76
     0
 77
     2
 78
   300
148
0.0
149
0.0
100
AcDbLayout
  1
Layout1
 70
     0
 71
     1
 10
0.0
 20
0.0
 11
12.0
 21
9.0
 12
0.0
 22
0.0
 32
0.0
 14
1.000000000000000E+20
 24
1.000000000000000E+20
 34
1.000000000000000E+20
 15
-1.000000000000000E+20
 25
-1.000000000000000E+20
 35
-1.000000000000000E+20
146
0.0
 13
0.0
 23
0.0
 33
0.0
 16
1.0
 26
0.0
 36
0.0
 17
0.0
 27
1.0
 37
0.0
 76
     0
330
1A
  0
LAYOUT
  5
21
102
{ACAD_REACTORS
330
19
102
}
330
19
100
AcDbPlotSettings
  1

  2
none_device
  4
Letter_(8.50_x_11.00_Inches)
  6

 40
6.349999904632568
 41
6.349999904632568
 42
6.350006103515625
 43
6.350006103515625
 44
215.8999938964844
 45
279.3999938964844
 46
0.0
 47
0.0
 48
0.0
 49
0.0
140
0.0
141
0.0
142
1.0
143
1.0
 70
 11952
 72
     0
 73
     1
 74
     0
  7

 75
     0
147
1.0
 76
     0
 77
     2
 78
   300
148
2299.19079060625
149
89.3907803160642
100
AcDbLayout
  1
Model
 70
     1
 71
     0
 10
0.0
 20
0.0
 11
12.0
 21
9.0
 12
0.0
 22
0.0
 32
0.0
 14
0.0
 24
0.0
 34
0.0
 15
0.0
 25
0.0
 35
0.0
146
0.0
 13
0.0
 23
0.0
 33
0.0
 16
1.0
 26
0.0
 36
0.0
 17
0.0
 27
1.0
 37
0.0
 76
     0
330
1E
  0
MLINESTYLE
  5
17
102
{ACAD_REACTORS
330
16
102
}
330
16
100
AcDbMlineStyle
  2
STANDARD
 70
     0
  3

 62
   256
 51
90.0
 52
90.0
 71
     2
 49
0.5
 62
   256
  6
BYLAYER
 49
-0.5
 62
   256
  6
BYLAYER
  0
ACDBPLACEHOLDER
  5
F
102
{ACAD_REACTORS
330
E
102
}
330
E
  0
DICTIONARYVAR
  5
EB
102
{ACAD_REACTORS
330
EA
102
}
330
EA
100
DictionaryVariables
280
     0
  1
1
  0
DICTIONARYVAR
  5
EC
102
{ACAD_REACTORS
330
EA
102
}
330
EA
100
DictionaryVariables
280
     0
  1

  0
ENDSEC
  0
EOF
