  0
SECTION
  2
HEADER
  9
$ACADVER
  1
AC1018
  9
$ACADMAINTVER
 70
     2
  9
$DWGCODEPAGE
  3
ANSI_1252
  9
$INSBASE
 10
0.0
 20
0.0
 30
0.0
  9
$EXTMIN
 10
-0.0064041928749248
 20
-0.0090573584946014
 30
-0.0000000000112498
  9
$EXTMAX
 10
420.0064100605654
 20
594.0090656570857
 30
0.0000000000002956
  9
$LIMMIN
 10
0.0
 20
0.0
  9
$LIMMAX
 10
419.9999999999999
 20
594.0
  9
$ORTHOMODE
 70
     0
  9
$REGENMODE
 70
     1
  9
$FILLMODE
 70
     1
  9
$QTEXTMODE
 70
     0
  9
$MIRRTEXT
 70
     1
  9
$LTSCALE
 40
20.0
  9
$ATTMODE
 70
     1
  9
$TEXTSIZE
 40
3.5
  9
$TRACEWID
 40
0.5
  9
$TEXTSTYLE
  7
STANDARD
  9
$CLAYER
  8
BEM
  9
$CELTYPE
  6
ByLayer
  9
$CECOLOR
 62
   256
  9
$CELTSCALE
 40
1.0
  9
$DISPSILH
 70
     0
  9
$DIMSCALE
 40
2.0
  9
$DIMASZ
 40
3.5
  9
$DIMEXO
 40
1.0
  9
$DIMDLI
 40
7.0
  9
$DIMRND
 40
0.0
  9
$DIMDLE
 40
0.0
  9
$DIMEXE
 40
1.0
  9
$DIMTP
 40
0.0
  9
$DIMTM
 40
0.0
  9
$DIMTXT
 40
3.5
  9
$DIMCEN
 40
1.5
  9
$DIMTSZ
 40
0.0
  9
$DIMTOL
 70
     0
  9
$DIMLIM
 70
     0
  9
$DIMTIH
 70
     0
  9
$DIMTOH
 70
     0
  9
$DIMSE1
 70
     0
  9
$DIMSE2
 70
     0
  9
$DIMTAD
 70
     1
  9
$DIMZIN
 70
     8
  9
$DIMBLK
  1

  9
$DIMASO
 70
     1
  9
$DIMSHO
 70
     0
  9
$DIMPOST
  1

  9
$DIMAPOST
  1

  9
$DIMALT
 70
     0
  9
$DIMALTD
 70
     2
  9
$DIMALTF
 40
25.4
  9
$DIMLFAC
 40
1.0
  9
$DIMTOFL
 70
     1
  9
$DIMTVP
 40
0.0
  9
$DIMTIX
 70
     0
  9
$DIMSOXD
 70
     0
  9
$DIMSAH
 70
     0
  9
$DIMBLK1
  1

  9
$DIMBLK2
  1

  9
$DIMSTYLE
  2
Standard
  9
$DIMCLRD
 70
     0
  9
$DIMCLRE
 70
     0
  9
$DIMCLRT
 70
     1
  9
$DIMTFAC
 40
0.5142857142857144
  9
$DIMGAP
 40
1.5
  9
$DIMJUST
 70
     0
  9
$DIMSD1
 70
     0
  9
$DIMSD2
 70
     0
  9
$DIMTOLJ
 70
     1
  9
$DIMTZIN
 70
     8
  9
$DIMALTZ
 70
     8
  9
$DIMALTTZ
 70
     8
  9
$DIMUPT
 70
     0
  9
$DIMDEC
 70
     2
  9
$DIMTDEC
 70
     2
  9
$DIMALTU
 70
     2
  9
$DIMALTTD
 70
     2
  9
$DIMTXSTY
  7
STANDARD
  9
$DIMAUNIT
 70
     0
  9
$DIMADEC
 70
     2
  9
$DIMALTRND
 40
0.0
  9
$DIMAZIN
 70
     2
  9
$DIMDSEP
 70
    46
  9
$DIMATFIT
 70
     3
  9
$DIMFRAC
 70
     0
  9
$DIMLDRBLK
  1

  9
$DIMLUNIT
 70
     2
  9
$DIMLWD
 70
    -2
  9
$DIMLWE
 70
    -2
  9
$DIMTMOVE
 70
     0
  9
$LUNITS
 70
     2
  9
$LUPREC
 70
     2
  9
$SKETCHINC
 40
1.0
  9
$FILLETRAD
 40
0.0
  9
$AUNITS
 70
     0
  9
$AUPREC
 70
     0
  9
$MENU
  1
ACAD
  9
$ELEVATION
 40
0.0
  9
$PELEVATION
 40
0.0
  9
$THICKNESS
 40
0.0
  9
$LIMCHECK
 70
     0
  9
$CHAMFERA
 40
0.0
  9
$CHAMFERB
 40
0.0
  9
$CHAMFERC
 40
0.0
  9
$CHAMFERD
 40
0.0
  9
$SKPOLY
 70
     0
  9
$TDCREATE
 40
2455397.823042361
  9
$TDUCREATE
 40
2455397.781375695
  9
$TDUPDATE
 40
2455532.480549688
  9
$TDUUPDATE
 40
2455532.438883021
  9
$TDINDWG
 40
0.1750242824
  9
$TDUSRTIMER
 40
0.1750242824
  9
$USRTIMER
 70
     1
  9
$ANGBASE
 50
0.0
  9
$ANGDIR
 70
     0
  9
$PDMODE
 70
     0
  9
$PDSIZE
 40
0.0
  9
$PLINEWID
 40
0.0
  9
$SPLFRAME
 70
     0
  9
$SPLINETYPE
 70
     6
  9
$SPLINESEGS
 70
     8
  9
$HANDSEED
  5
1B7C
  9
$SURFTAB1
 70
     6
  9
$SURFTAB2
 70
     6
  9
$SURFTYPE
 70
     6
  9
$SURFU
 70
     6
  9
$SURFV
 70
     6
  9
$UCSBASE
  2

  9
$UCSNAME
  2

  9
$UCSORG
 10
0.0
 20
0.0
 30
0.0
  9
$UCSXDIR
 10
1.0
 20
0.0
 30
0.0
  9
$UCSYDIR
 10
0.0
 20
1.0
 30
0.0
  9
$UCSORTHOREF
  2

  9
$UCSORTHOVIEW
 70
     0
  9
$UCSORGTOP
 10
0.0
 20
0.0
 30
0.0
  9
$UCSORGBOTTOM
 10
0.0
 20
0.0
 30
0.0
  9
$UCSORGLEFT
 10
0.0
 20
0.0
 30
0.0
  9
$UCSORGRIGHT
 10
0.0
 20
0.0
 30
0.0
  9
$UCSORGFRONT
 10
0.0
 20
0.0
 30
0.0
  9
$UCSORGBACK
 10
0.0
 20
0.0
 30
0.0
  9
$PUCSBASE
  2

  9
$PUCSNAME
  2

  9
$PUCSORG
 10
0.0
 20
0.0
 30
0.0
  9
$PUCSXDIR
 10
1.0
 20
0.0
 30
0.0
  9
$PUCSYDIR
 10
0.0
 20
1.0
 30
0.0
  9
$PUCSORTHOREF
  2

  9
$PUCSORTHOVIEW
 70
     0
  9
$PUCSORGTOP
 10
0.0
 20
0.0
 30
0.0
  9
$PUCSORGBOTTOM
 10
0.0
 20
0.0
 30
0.0
  9
$PUCSORGLEFT
 10
0.0
 20
0.0
 30
0.0
  9
$PUCSORGRIGHT
 10
0.0
 20
0.0
 30
0.0
  9
$PUCSORGFRONT
 10
0.0
 20
0.0
 30
0.0
  9
$PUCSORGBACK
 10
0.0
 20
0.0
 30
0.0
  9
$USERI1
 70
     0
  9
$USERI2
 70
     0
  9
$USERI3
 70
     0
  9
$USERI4
 70
     0
  9
$USERI5
 70
     0
  9
$USERR1
 40
0.0
  9
$USERR2
 40
0.0
  9
$USERR3
 40
0.0
  9
$USERR4
 40
0.0
  9
$USERR5
 40
0.0
  9
$WORLDVIEW
 70
     1
  9
$SHADEDGE
 70
     3
  9
$SHADEDIF
 70
    70
  9
$TILEMODE
 70
     1
  9
$MAXACTVP
 70
    16
  9
$PINSBASE
 10
0.0
 20
0.0
 30
0.0
  9
$PLIMCHECK
 70
     0
  9
$PEXTMIN
 10
1.000000000000000E+20
 20
1.000000000000000E+20
 30
1.000000000000000E+20
  9
$PEXTMAX
 10
-1.000000000000000E+20
 20
-1.000000000000000E+20
 30
-1.000000000000000E+20
  9
$PLIMMIN
 10
0.0
 20
0.0
  9
$PLIMMAX
 10
12.0
 20
9.0
  9
$UNITMODE
 70
     0
  9
$VISRETAIN
 70
     0
  9
$PLINEGEN
 70
     0
  9
$PSLTSCALE
 70
     0
  9
$TREEDEPTH
 70
  3020
  9
$CMLSTYLE
  2
Standard
  9
$CMLJUST
 70
     0
  9
$CMLSCALE
 40
1.0
  9
$PROXYGRAPHICS
 70
     1
  9
$MEASUREMENT
 70
     0
  9
$CELWEIGHT
370
    -1
  9
$ENDCAPS
280
     0
  9
$JOINSTYLE
280
     0
  9
$LWDISPLAY
290
     0
  9
$INSUNITS
 70
     0
  9
$HYPERLINKBASE
  1

  9
$STYLESHEET
  1
monochrome 1.ctb
  9
$XEDIT
290
     1
  9
$CEPSNTYPE
380
     0
  9
$PSTYLEMODE
290
     1
  9
$FINGERPRINTGUID
  2
{D68B0D02-A558-11D7-B632-000102183313}
  9
$VERSIONGUID
  2
{282A97A8-0E61-4DD2-ADA3-AE55C8B90807}
  9
$EXTNAMES
290
     1
  9
$PSVPSCALE
 40
0.0
  9
$OLESTARTUP
290
     0
  9
$SORTENTS
280
   127
  9
$INDEXCTL
280
     0
  9
$HIDETEXT
280
     0
  9
$XCLIPFRAME
290
     0
  9
$HALOGAP
280
     0
  9
$OBSCOLOR
 70
   257
  9
$OBSLTYPE
280
     0
  9
$INTERSECTIONDISPLAY
280
     0
  9
$INTERSECTIONCOLOR
 70
   257
  9
$DIMASSOC
280
     1
  9
$PROJECTNAME
  1

  0
ENDSEC
  0
SECTION
  2
CLASSES
  0
CLASS
  1
ACDBDICTIONARYWDFLT
  2
AcDbDictionaryWithDefault
  3
ObjectDBX Classes
 90
        0
 91
        1
280
     0
281
     0
  0
CLASS
  1
DICTIONARYVAR
  2
AcDbDictionaryVar
  3
ObjectDBX Classes
 90
        0
 91
        2
280
     0
281
     0
  0
ENDSEC
  0
SECTION
  2
TABLES
  0
TABLE
  2
VPORT
  5
8
330
0
100
AcDbSymbolTable
 70
     2
  0
VPORT
  5
1B7B
330
8
100
AcDbSymbolTableRecord
100
AcDbViewportTableRecord
  2
*Active
 70
     0
 10
0.0
 20
0.0
 11
1.0
 21
1.0
 12
210.0000029338453
 22
297.0000041492956
 13
0.0
 23
0.0
 14
1.0
 24
1.0
 15
10.0
 25
10.0
 16
0.0
 26
0.0
 36
1.0
 17
0.0
 27
0.0
 37
0.0
 40
598.8150392175905
 41
1.336927223719676
 42
50.0
 43
0.0
 44
0.0
 50
0.0
 51
0.0
 71
     0
 72
  1500
 73
     1
 74
     0
 75
     0
 76
     0
 77
     0
 78
     0
281
     0
 65
     1
110
0.0
120
0.0
130
0.0
111
1.0
121
0.0
131
0.0
112
0.0
122
1.0
132
0.0
 79
     0
146
0.0
  0
ENDTAB
  0
TABLE
  2
LTYPE
  5
5
330
0
100
AcDbSymbolTable
 70
     2
  0
LTYPE
  5
13
330
5
100
AcDbSymbolTableRecord
100
AcDbLinetypeTableRecord
  2
ByBlock
 70
     0
  3

 72
    65
 73
     0
 40
0.0
  0
LTYPE
  5
14
330
5
100
AcDbSymbolTableRecord
100
AcDbLinetypeTableRecord
  2
ByLayer
 70
     0
  3

 72
    65
 73
     0
 40
0.0
  0
LTYPE
  5
15
330
5
100
AcDbSymbolTableRecord
100
AcDbLinetypeTableRecord
  2
Continuous
 70
     0
  3
Solid line
 72
    65
 73
     0
 40
0.0
  0
LTYPE
  5
25
330
5
100
AcDbSymbolTableRecord
100
AcDbLinetypeTableRecord
  2
STRICHPUNKT
 70
     0
  3
__ . __ . __ . __ . __ . __ . __ . __ . __ . __
 72
    65
 73
     4
 40
1.0
 49
0.5
 74
     0
 49
-0.25
 74
     0
 49
0.0
 74
     0
 49
-0.25
 74
     0
  0
ENDTAB
  0
TABLE
  2
LAYER
  5
2
330
0
100
AcDbSymbolTable
 70
     9
  0
LAYER
  5
10
330
2
100
AcDbSymbolTableRecord
100
AcDbLayerTableRecord
  2
0
 70
     0
 62
     7
  6
Continuous
370
    -3
390
F
  0
LAYER
  5
2A
330
2
100
AcDbSymbolTableRecord
100
AcDbLayerTableRecord
  2
VOLL
 70
     0
 62
     1
  6
Continuous
370
    -3
390
F
  0
LAYER
  5
2B
330
2
100
AcDbSymbolTableRecord
100
AcDbLayerTableRecord
  2
HILF
 70
     0
 62
     2
  6
Continuous
370
    -3
390
F
  0
LAYER
  5
2C
330
2
100
AcDbSymbolTableRecord
100
AcDbLayerTableRecord
  2
MITTEL
 70
     0
 62
     2
  6
STRICHPUNKT
370
    -3
390
F
  0
LAYER
  5
2F
330
2
100
AcDbSymbolTableRecord
100
AcDbLayerTableRecord
  2
BEM
 70
     0
 62
     7
  6
Continuous
370
    -3
390
F
  0
LAYER
  5
30
330
2
100
AcDbSymbolTableRecord
100
AcDbLayerTableRecord
  2
STEMPEL
 70
     0
 62
     3
  6
Continuous
370
    -3
390
F
  0
LAYER
  5
31
330
2
100
AcDbSymbolTableRecord
100
AcDbLayerTableRecord
  2
TEXT
 70
     0
 62
     7
  6
Continuous
370
    -3
390
F
  0
LAYER
  5
1BC
330
2
100
AcDbSymbolTableRecord
100
AcDbLayerTableRecord
  2
Defpoints
 70
     0
 62
     7
  6
Continuous
290
     0
370
    -3
390
F
  0
LAYER
  5
1BD
330
2
100
AcDbSymbolTableRecord
100
AcDbLayerTableRecord
  2
SCHRAFF
 70
     0
 62
     7
  6
Continuous
370
    -3
390
F
  0
ENDTAB
  0
TABLE
  2
STYLE
  5
3
330
0
100
AcDbSymbolTable
 70
     2
  0
STYLE
  5
11
330
3
100
AcDbSymbolTableRecord
100
AcDbTextStyleTableRecord
  2
STANDARD
 70
     0
 40
0.0
 41
0.8
 50
0.0
 71
     0
 42
3.5
  3
simplex.shx
  4

  0
STYLE
  5
24
330
3
100
AcDbSymbolTableRecord
100
AcDbTextStyleTableRecord
  2
GREEKS
 70
     0
 40
0.0
 41
0.8
 50
0.0
 71
     0
 42
2.5
  3
SIMPLEX.shx
  4

  0
ENDTAB
  0
TABLE
  2
VIEW
  5
6
330
0
100
AcDbSymbolTable
 70
     0
  0
ENDTAB
  0
TABLE
  2
UCS
  5
7
330
0
100
AcDbSymbolTable
 70
     0
  0
ENDTAB
  0
TABLE
  2
APPID
  5
9
330
0
100
AcDbSymbolTable
 70
     1
  0
APPID
  5
12
330
9
100
AcDbSymbolTableRecord
100
AcDbRegAppTableRecord
  2
ACAD
 70
     0
  0
ENDTAB
  0
TABLE
  2
DIMSTYLE
  5
A
330
0
100
AcDbSymbolTable
 70
     1
100
AcDbDimStyleTable
 71
     1
340
9D
  0
DIMSTYLE
105
9D
102
{ACAD_REACTORS
330
1603
330
1665
330
16AB
330
1787
330
17AA
330
17B7
330
199F
102
}
330
A
100
AcDbSymbolTableRecord
100
AcDbDimStyleTableRecord
  2
Standard
 70
     0
340
11
  0
ENDTAB
  0
TABLE
  2
BLOCK_RECORD
  5
1
330
0
100
AcDbSymbolTable
 70
     8
  0
BLOCK_RECORD
  5
1E
102
{ACAD_XDICTIONARY
360
A0
102
}
330
1
100
AcDbSymbolTableRecord
100
AcDbBlockTableRecord
  2
*Model_Space
340
21
  0
BLOCK_RECORD
  5
1A
102
{ACAD_XDICTIONARY
360
A2
102
}
330
1
100
AcDbSymbolTableRecord
100
AcDbBlockTableRecord
  2
*Paper_Space
340
1D
  0
BLOCK_RECORD
  5
22
330
1
100
AcDbSymbolTableRecord
100
AcDbBlockTableRecord
  2
LOGO
340
0
102
{BLKREFS
331
9B
102
}
  0
BLOCK_RECORD
  5
1604
330
1
100
AcDbSymbolTableRecord
100
AcDbBlockTableRecord
  2
*D1
340
0
  0
BLOCK_RECORD
  5
1668
330
1
100
AcDbSymbolTableRecord
100
AcDbBlockTableRecord
  2
*D2
340
0
  0
BLOCK_RECORD
  5
16B9
330
1
100
AcDbSymbolTableRecord
100
AcDbBlockTableRecord
  2
*D3
340
0
  0
BLOCK_RECORD
  5
1788
330
1
100
AcDbSymbolTableRecord
100
AcDbBlockTableRecord
  2
*D4
340
0
  0
BLOCK_RECORD
  5
17AB
330
1
100
AcDbSymbolTableRecord
100
AcDbBlockTableRecord
  2
*D5
340
0
  0
BLOCK_RECORD
  5
17B8
330
1
100
AcDbSymbolTableRecord
100
AcDbBlockTableRecord
  2
*D6
340
0
  0
BLOCK_RECORD
  5
19A0
330
1
100
AcDbSymbolTableRecord
100
AcDbBlockTableRecord
  2
*D7
340
0
  0
ENDTAB
  0
ENDSEC
  0
SECTION
  2
BLOCKS
  0
BLOCK
  5
35
330
1E
100
AcDbEntity
  8
0
100
AcDbBlockBegin
  2
*Model_Space
 70
     0
 10
0.0
 20
0.0
 30
0.0
  3
*Model_Space
  1

  0
ENDBLK
  5
36
330
1E
100
AcDbEntity
  8
0
100
AcDbBlockEnd
  0
BLOCK
  5
33
330
1A
100
AcDbEntity
 67
     1
  8
0
100
AcDbBlockBegin
  2
*Paper_Space
 70
     0
 10
0.0
 20
0.0
 30
0.0
  3
*Paper_Space
  1

  0
ENDBLK
  5
34
330
1A
100
AcDbEntity
 67
     1
  8
0
100
AcDbBlockEnd
  0
BLOCK
  5
37
330
22
100
AcDbEntity
  8
0
100
AcDbBlockBegin
  2
LOGO
 70
     0
 10
0.0
 20
0.0
 30
0.0
  3
LOGO
  1

  0
ARC
  5
38
330
22
100
AcDbEntity
  8
0
100
AcDbCircle
 10
11.59973089678112
 20
-9.271599258481501
 30
0.0
 40
4.5
100
AcDbArc
 50
270.0
 51
231.0575587310159
  0
LINE
  5
39
330
22
100
AcDbEntity
  8
0
100
AcDbLine
 10
3.599730896781125
 20
-4.771599258481529
 30
0.0
 11
3.599730896781153
 21
-11.77159925848133
 31
0.0
  0
LINE
  5
3A
330
22
100
AcDbEntity
  8
0
100
AcDbLine
 10
2.599730896781125
 20
-4.771599258481529
 30
0.0
 11
2.599730896781153
 21
-11.77159925848133
 31
0.0
  0
CIRCLE
  5
3B
330
22
100
AcDbEntity
  8
0
100
AcDbCircle
 10
11.59973089678112
 20
-9.271599258481501
 30
0.0
 40
3.5
  0
ARC
  5
3C
330
22
100
AcDbEntity
  8
0
100
AcDbCircle
 10
31.59973089678115
 20
-9.271599258481472
 30
0.0
 40
4.5
100
AcDbArc
 50
270.0
 51
231.0575587310182
  0
LINE
  5
3D
330
22
100
AcDbEntity
  8
0
100
AcDbLine
 10
17.59973089678112
 20
-4.771599258481472
 30
0.0
 11
17.59973089678115
 21
-13.77159925848147
 31
0.0
  0
ARC
  5
3E
330
22
100
AcDbEntity
  8
0
100
AcDbCircle
 10
22.59973089678116
 20
-7.271599258481472
 30
0.0
 40
2.5
100
AcDbArc
 50
293.1161887722295
 51
90.0
  0
CIRCLE
  5
3F
330
22
100
AcDbEntity
  8
0
100
AcDbCircle
 10
31.59973089678115
 20
-9.271599258481472
 30
0.0
 40
3.5
  0
ARC
  5
40
330
22
100
AcDbEntity
  8
0
100
AcDbCircle
 10
4.599730896781153
 20
-11.77159925848133
 30
0.0
 40
1.0
100
AcDbArc
 50
180.0
 51
270.0
  0
ARC
  5
41
330
22
100
AcDbEntity
  8
0
100
AcDbCircle
 10
4.599730896781153
 20
-11.77159925848133
 30
0.0
 40
2.0
100
AcDbArc
 50
179.9999999999992
 51
270.0
  0
LINE
  5
42
330
22
100
AcDbEntity
  8
0
100
AcDbLine
 10
11.59973089678115
 20
-13.77159925848144
 30
0.0
 11
4.599730896781153
 21
-13.77159925848147
 31
0.0
  0
LINE
  5
43
330
22
100
AcDbEntity
  8
0
100
AcDbLine
 10
8.771303772034769
 20
-12.77159925848136
 30
0.0
 11
4.599730896781153
 21
-12.77159925848133
 31
0.0
  0
LINE
  5
44
330
22
100
AcDbEntity
  8
0
100
AcDbLine
 10
31.59973089678115
 20
-13.77159925848147
 30
0.0
 11
23.6715276665056
 21
-13.77159925848144
 31
0.0
  0
LINE
  5
45
330
22
100
AcDbEntity
  8
0
100
AcDbLine
 10
23.56565672307022
 20
-9.51278021337896
 30
0.0
 11
24.4388546544846
 21
-12.77159925848144
 31
0.0
  0
LINE
  5
46
330
22
100
AcDbEntity
  8
0
100
AcDbLine
 10
22.59973089678116
 20
-9.771599258481472
 30
0.0
 11
18.59973089678112
 21
-9.771599258481472
 31
0.0
  0
LINE
  5
47
330
22
100
AcDbEntity
  8
0
100
AcDbLine
 10
18.59973089678115
 20
-13.77159925848144
 30
0.0
 11
17.59973089678115
 21
-13.77159925848144
 31
0.0
  0
LINE
  5
48
330
22
100
AcDbEntity
  8
0
100
AcDbLine
 10
18.59973089678115
 20
-9.771599258481472
 30
0.0
 11
18.59973089678115
 21
-13.77159925848144
 31
0.0
  0
LINE
  5
49
330
22
100
AcDbEntity
  8
0
100
AcDbLine
 10
22.59973089678116
 20
-9.771599258481472
 30
0.0
 11
23.67152766650562
 21
-13.77159925848147
 31
0.0
  0
ARC
  5
4A
330
22
100
AcDbEntity
  8
0
100
AcDbCircle
 10
22.59973089678116
 20
-7.271599258481472
 30
0.0
 40
2.5
100
AcDbArc
 50
270.0
 51
270.0000000000007
  0
LINE
  5
4B
330
22
100
AcDbEntity
  8
0
100
AcDbLine
 10
28.77130377203494
 20
-12.77159925848147
 30
0.0
 11
24.43885465448463
 21
-12.77159925848144
 31
0.0
  0
LINE
  5
4C
330
22
100
AcDbEntity
  8
0
100
AcDbLine
 10
3.599730896781125
 20
-4.771599258481472
 30
0.0
 11
2.599730896781125
 21
-4.771599258481472
 31
0.0
  0
LINE
  5
4D
330
22
100
AcDbEntity
  8
0
100
AcDbLine
 10
22.59973089678116
 20
-8.771599258481472
 30
0.0
 11
18.59973089678115
 21
-8.771599258481472
 31
0.0
  0
LINE
  5
4E
330
22
100
AcDbEntity
  8
0
100
AcDbLine
 10
22.59973089678116
 20
-5.771599258481472
 30
0.0
 11
18.59973089678115
 21
-5.771599258481472
 31
0.0
  0
LINE
  5
4F
330
22
100
AcDbEntity
  8
0
100
AcDbLine
 10
22.59973089678116
 20
-4.771599258481472
 30
0.0
 11
17.59973089678115
 21
-4.771599258481472
 31
0.0
  0
LINE
  5
50
330
22
100
AcDbEntity
  8
0
100
AcDbLine
 10
18.59973089678115
 20
-5.771599258481472
 30
0.0
 11
18.59973089678115
 21
-8.771599258481472
 31
0.0
  0
ARC
  5
51
330
22
100
AcDbEntity
  8
0
100
AcDbCircle
 10
22.59973089678116
 20
-7.271599258481472
 30
0.0
 40
1.5
100
AcDbArc
 50
270.0
 51
90.0
  0
ENDBLK
  5
52
330
22
100
AcDbEntity
  8
0
100
AcDbBlockEnd
  0
BLOCK
  5
160E
330
1604
100
AcDbEntity
  8
0
100
AcDbBlockBegin
  2
*D1
 70
     1
 10
0.0
 20
0.0
 30
0.0
  3
*D1
  1

  0
LINE
  5
1B68
330
1604
100
AcDbEntity
  8
SCHRAFF
 62
     0
370
    -2
100
AcDbLine
 10
217.6197343052599
 20
199.5320219899391
 30
0.0
 11
217.6197343052599
 21
172.6516130846362
 31
0.0
  0
LINE
  5
1B69
330
1604
100
AcDbEntity
  8
SCHRAFF
 62
     0
370
    -2
100
AcDbLine
 10
128.6197343052599
 20
199.5320219899387
 30
0.0
 11
128.6197343052599
 21
172.6516130846362
 31
0.0
  0
LINE
  5
1B6A
330
1604
100
AcDbEntity
  8
SCHRAFF
 62
     0
370
    -2
100
AcDbLine
 10
210.6197343052599
 20
174.6516130846362
 30
0.0
 11
135.6197343052599
 21
174.6516130846362
 31
0.0
  0
SOLID
  5
1B6B
330
1604
100
AcDbEntity
  8
SCHRAFF
 62
     0
100
AcDbTrace
 10
210.6197343052599
 20
175.8182797513028
 30
0.0
 11
210.6197343052599
 21
173.4849464179695
 31
0.0
 12
217.6197343052599
 22
174.6516130846362
 32
0.0
 13
217.6197343052599
 23
174.6516130846362
 33
0.0
  0
SOLID
  5
1B6C
330
1604
100
AcDbEntity
  8
SCHRAFF
 62
     0
100
AcDbTrace
 10
135.6197343052599
 20
175.8182797513028
 30
0.0
 11
135.6197343052599
 21
173.4849464179695
 31
0.0
 12
128.6197343052599
 22
174.6516130846362
 32
0.0
 13
128.6197343052599
 23
174.6516130846362
 33
0.0
  0
MTEXT
  5
1B6D
330
1604
100
AcDbEntity
  8
SCHRAFF
 62
     1
100
AcDbMText
 10
173.1197343052599
 20
181.1516130846362
 30
0.0
 40
7.0
 41
0.0
 71
     5
 72
     1
  1
\A1;%%c89
 73
     1
 44
1.0
  0
POINT
  5
1B6E
330
1604
100
AcDbEntity
  8
Defpoints
 62
     0
100
AcDbPoint
 10
217.6197343052599
 20
201.5320219899392
 30
0.0
  0
POINT
  5
1B6F
330
1604
100
AcDbEntity
  8
Defpoints
 62
     0
100
AcDbPoint
 10
128.6197343052599
 20
201.5320219899388
 30
0.0
  0
POINT
  5
1B70
330
1604
100
AcDbEntity
  8
Defpoints
 62
     0
100
AcDbPoint
 10
128.6197343052599
 20
174.6516130846362
 30
0.0
  0
ENDBLK
  5
160F
330
1604
100
AcDbEntity
  8
0
100
AcDbBlockEnd
  0
BLOCK
  5
1672
330
1668
100
AcDbEntity
  8
0
100
AcDbBlockBegin
  2
*D2
 70
     1
 10
0.0
 20
0.0
 30
0.0
  3
*D2
  1

  0
LINE
  5
1B5F
330
1668
100
AcDbEntity
  8
BEM
 62
     0
370
    -2
100
AcDbLine
 10
106.61973430526
 20
511.6064084124391
 30
0.0
 11
106.61973430526
 21
526.4236515457532
 31
0.0
  0
LINE
  5
1B60
330
1668
100
AcDbEntity
  8
BEM
 62
     0
370
    -2
100
AcDbLine
 10
239.61973430526
 20
511.6064084124391
 30
0.0
 11
239.61973430526
 21
526.4236515457532
 31
0.0
  0
LINE
  5
1B61
330
1668
100
AcDbEntity
  8
BEM
 62
     0
370
    -2
100
AcDbLine
 10
113.61973430526
 20
524.4236515457531
 30
0.0
 11
232.61973430526
 21
524.4236515457531
 31
0.0
  0
SOLID
  5
1B62
330
1668
100
AcDbEntity
  8
BEM
 62
     0
100
AcDbTrace
 10
113.61973430526
 20
525.5903182124198
 30
0.0
 11
113.61973430526
 21
523.2569848790865
 31
0.0
 12
106.61973430526
 22
524.4236515457531
 32
0.0
 13
106.61973430526
 23
524.4236515457531
 33
0.0
  0
SOLID
  5
1B63
330
1668
100
AcDbEntity
  8
BEM
 62
     0
100
AcDbTrace
 10
232.61973430526
 20
525.5903182124198
 30
0.0
 11
232.61973430526
 21
523.2569848790865
 31
0.0
 12
239.61973430526
 22
524.4236515457531
 32
0.0
 13
239.61973430526
 23
524.4236515457531
 33
0.0
  0
MTEXT
  5
1B64
330
1668
100
AcDbEntity
  8
BEM
 62
     1
100
AcDbMText
 10
173.11973430526
 20
530.9236515457532
 30
0.0
 40
7.0
 41
0.0
 71
     5
 72
     1
  1
\A1;%%c133
 73
     1
 44
1.0
  0
POINT
  5
1B65
330
1668
100
AcDbEntity
  8
Defpoints
 62
     0
100
AcDbPoint
 10
106.61973430526
 20
509.6064084124391
 30
0.0
  0
POINT
  5
1B66
330
1668
100
AcDbEntity
  8
Defpoints
 62
     0
100
AcDbPoint
 10
239.61973430526
 20
509.6064084124391
 30
0.0
  0
POINT
  5
1B67
330
1668
100
AcDbEntity
  8
Defpoints
 62
     0
100
AcDbPoint
 10
239.61973430526
 20
524.4236515457531
 30
0.0
  0
ENDBLK
  5
1673
330
1668
100
AcDbEntity
  8
0
100
AcDbBlockEnd
  0
BLOCK
  5
16C3
330
16B9
100
AcDbEntity
  8
0
100
AcDbBlockBegin
  2
*D3
 70
     1
 10
0.0
 20
0.0
 30
0.0
  3
*D3
  1

  0
LINE
  5
1B56
330
16B9
100
AcDbEntity
  8
BEM
 62
     0
370
    -2
100
AcDbLine
 10
288.7316930292605
 20
509.2590401204041
 30
0.0
 11
300.3791271391053
 21
520.9064742302492
 31
0.0
  0
LINE
  5
1B57
330
16B9
100
AcDbEntity
  8
BEM
 62
     0
370
    -2
100
AcDbLine
 10
382.7768949270713
 20
415.2138382225933
 30
0.0
 11
394.4243290369165
 21
426.8612723324387
 31
0.0
  0
LINE
  5
1B58
330
16B9
100
AcDbEntity
  8
BEM
 62
     0
370
    -2
100
AcDbLine
 10
303.9146610450381
 20
514.5425131995701
 30
0.0
 11
388.0603680062376
 21
430.3968062383714
 31
0.0
  0
SOLID
  5
1B59
330
16B9
100
AcDbEntity
  8
BEM
 62
     0
100
AcDbTrace
 10
304.7396189564224
 20
515.3674711109545
 30
0.0
 11
303.0897031336538
 21
513.7175552881859
 31
0.0
 12
298.9649135767322
 22
519.492260667876
 32
0.0
 13
298.9649135767322
 23
519.492260667876
 33
0.0
  0
SOLID
  5
1B5A
330
16B9
100
AcDbEntity
  8
BEM
 62
     0
100
AcDbTrace
 10
388.8853259176219
 20
431.2217641497556
 30
0.0
 11
387.2354100948533
 21
429.5718483269872
 31
0.0
 12
393.0101154745435
 22
425.4470587700656
 32
0.0
 13
393.0101154745435
 23
425.4470587700656
 33
0.0
  0
MTEXT
  5
1B5B
330
16B9
100
AcDbEntity
  8
BEM
 62
     1
100
AcDbMText
 10
350.5837086033503
 20
477.0658537966834
 30
0.0
 40
7.0
 41
0.0
 71
     5
 72
     1
  1
\A1;%%c133
 11
0.7071067811865507
 21
-0.7071067811865444
 31
0.0
 73
     1
 44
1.0
  0
POINT
  5
1B5C
330
16B9
100
AcDbEntity
  8
Defpoints
 62
     0
100
AcDbPoint
 10
287.3174794668874
 20
507.8448265580311
 30
0.0
  0
POINT
  5
1B5D
330
16B9
100
AcDbEntity
  8
Defpoints
 62
     0
100
AcDbPoint
 10
381.3626813646982
 20
413.7996246602203
 30
0.0
  0
POINT
  5
1B5E
330
16B9
100
AcDbEntity
  8
Defpoints
 62
     0
100
AcDbPoint
 10
393.0101154745435
 20
425.4470587700656
 30
0.0
  0
ENDBLK
  5
16C4
330
16B9
100
AcDbEntity
  8
0
100
AcDbBlockEnd
  0
BLOCK
  5
1792
330
1788
100
AcDbEntity
  8
0
100
AcDbBlockBegin
  2
*D4
 70
     1
 10
0.0
 20
0.0
 30
0.0
  3
*D4
  1

  0
LINE
  5
1B4D
330
1788
100
AcDbEntity
  8
BEM
 62
     0
370
    -2
100
AcDbLine
 10
382.7768949270704
 20
412.3854110978461
 30
0.0
 11
405.8542533461024
 21
389.3080526788142
 31
0.0
  0
LINE
  5
1B4E
330
1788
100
AcDbEntity
  8
BEM
 62
     0
370
    -2
100
AcDbLine
 10
174.5339478676331
 20
298.1876659362198
 30
0.0
 11
244.6339072355706
 21
228.0877065682823
 31
0.0
  0
LINE
  5
1B4F
330
1788
100
AcDbEntity
  8
BEM
 62
     0
370
    -2
100
AcDbLine
 10
399.4902923154235
 20
385.7725187728814
 30
0.0
 11
248.1694411415034
 21
234.4516675989612
 31
0.0
  0
SOLID
  5
1B50
330
1788
100
AcDbEntity
  8
BEM
 62
     0
100
AcDbTrace
 10
398.6653344040392
 20
386.5974766842657
 30
0.0
 11
400.3152502268077
 21
384.9475608614971
 31
0.0
 12
404.4400397837293
 22
390.7222662411872
 32
0.0
 13
404.4400397837293
 23
390.7222662411872
 33
0.0
  0
SOLID
  5
1B51
330
1788
100
AcDbEntity
  8
BEM
 62
     0
100
AcDbTrace
 10
247.344483230119
 20
235.2766255103455
 30
0.0
 11
248.9943990528876
 21
233.6267096875769
 31
0.0
 12
243.2196936731975
 22
229.5019201306554
 32
0.0
 13
243.2196936731975
 23
229.5019201306554
 33
0.0
  0
MTEXT
  5
1B52
330
1788
100
AcDbEntity
  8
BEM
 62
     1
100
AcDbMText
 10
319.2336726507509
 20
314.7082872636338
 30
0.0
 40
7.0
 41
0.0
 71
     5
 72
     1
  1
\A1;228
 11
0.7071067811865474
 21
0.7071067811865478
 31
0.0
 73
     1
 44
1.0
  0
POINT
  5
1B53
330
1788
100
AcDbEntity
  8
Defpoints
 62
     0
100
AcDbPoint
 10
381.3626813646973
 20
413.7996246602192
 30
0.0
  0
POINT
  5
1B54
330
1788
100
AcDbEntity
  8
Defpoints
 62
     0
100
AcDbPoint
 10
173.11973430526
 20
299.6018794985928
 30
0.0
  0
POINT
  5
1B55
330
1788
100
AcDbEntity
  8
Defpoints
 62
     0
100
AcDbPoint
 10
243.2196936731975
 20
229.5019201306554
 30
0.0
  0
ENDBLK
  5
1793
330
1788
100
AcDbEntity
  8
0
100
AcDbBlockEnd
  0
BLOCK
  5
17B5
330
17AB
100
AcDbEntity
  8
0
100
AcDbBlockBegin
  2
*D5
 70
     1
 10
0.0
 20
0.0
 30
0.0
  3
*D5
  1

  0
LINE
  5
1B44
330
17AB
100
AcDbEntity
  8
BEM
 62
     0
370
    -2
100
AcDbLine
 10
104.6197343052599
 20
244.601879498593
 30
0.0
 11
91.59975458781536
 21
244.601879498593
 31
0.0
  0
LINE
  5
1B45
330
17AB
100
AcDbEntity
  8
BEM
 62
     0
370
    -2
100
AcDbLine
 10
127.2260432098719
 20
194.601879498593
 30
0.0
 11
91.59975458781536
 21
194.601879498593
 31
0.0
  0
LINE
  5
1B46
330
17AB
100
AcDbEntity
  8
BEM
 62
     0
370
    -2
100
AcDbLine
 10
93.59975458781537
 20
237.601879498593
 30
0.0
 11
93.59975458781535
 21
201.6018794985931
 31
0.0
  0
SOLID
  5
1B47
330
17AB
100
AcDbEntity
  8
BEM
 62
     0
100
AcDbTrace
 10
92.4330879211487
 20
237.601879498593
 30
0.0
 11
94.76642125448204
 21
237.601879498593
 31
0.0
 12
93.59975458781537
 22
244.601879498593
 32
0.0
 13
93.59975458781537
 23
244.601879498593
 33
0.0
  0
SOLID
  5
1B48
330
17AB
100
AcDbEntity
  8
BEM
 62
     0
100
AcDbTrace
 10
92.43308792114868
 20
201.6018794985931
 30
0.0
 11
94.76642125448202
 21
201.6018794985931
 31
0.0
 12
93.59975458781535
 22
194.601879498593
 32
0.0
 13
93.59975458781535
 23
194.601879498593
 33
0.0
  0
MTEXT
  5
1B49
330
17AB
100
AcDbEntity
  8
BEM
 62
     1
100
AcDbMText
 10
87.09975458781533
 20
219.601879498593
 30
0.0
 40
7.0
 41
0.0
 71
     5
 72
     1
  1
\A1;50
 11
0.0000000000000001
 21
1.0
 31
0.0
 73
     1
 44
1.0
  0
POINT
  5
1B4A
330
17AB
100
AcDbEntity
  8
Defpoints
 62
     0
100
AcDbPoint
 10
106.6197343052599
 20
244.601879498593
 30
0.0
  0
POINT
  5
1B4B
330
17AB
100
AcDbEntity
  8
Defpoints
 62
     0
100
AcDbPoint
 10
129.2260432098719
 20
194.601879498593
 30
0.0
  0
POINT
  5
1B4C
330
17AB
100
AcDbEntity
  8
Defpoints
 62
     0
100
AcDbPoint
 10
93.59975458781535
 20
194.601879498593
 30
0.0
  0
ENDBLK
  5
17B6
330
17AB
100
AcDbEntity
  8
0
100
AcDbBlockEnd
  0
BLOCK
  5
17C2
330
17B8
100
AcDbEntity
  8
0
100
AcDbBlockBegin
  2
*D6
 70
     1
 10
0.0
 20
0.0
 30
0.0
  3
*D6
  1

  0
LINE
  5
1B3B
330
17B8
100
AcDbEntity
  8
BEM
 62
     0
370
    -2
100
AcDbLine
 10
104.6197343052599
 20
509.6064084124403
 30
0.0
 11
60.27553529290123
 21
509.6064084124403
 31
0.0
  0
LINE
  5
1B3C
330
17B8
100
AcDbEntity
  8
BEM
 62
     0
370
    -2
100
AcDbLine
 10
127.2260432098719
 20
194.601879498593
 30
0.0
 11
60.27553529290116
 21
194.6018794985931
 31
0.0
  0
LINE
  5
1B3D
330
17B8
100
AcDbEntity
  8
BEM
 62
     0
370
    -2
100
AcDbLine
 10
62.27553529290124
 20
502.6064084124404
 30
0.0
 11
62.27553529290116
 21
201.6018794985931
 31
0.0
  0
SOLID
  5
1B3E
330
17B8
100
AcDbEntity
  8
BEM
 62
     0
100
AcDbTrace
 10
61.10886862623457
 20
502.6064084124404
 30
0.0
 11
63.4422019595679
 21
502.6064084124404
 31
0.0
 12
62.27553529290124
 22
509.6064084124403
 32
0.0
 13
62.27553529290124
 23
509.6064084124403
 33
0.0
  0
SOLID
  5
1B3F
330
17B8
100
AcDbEntity
  8
BEM
 62
     0
100
AcDbTrace
 10
61.1088686262345
 20
201.6018794985931
 30
0.0
 11
63.44220195956783
 21
201.6018794985931
 31
0.0
 12
62.27553529290116
 22
194.6018794985931
 32
0.0
 13
62.27553529290116
 23
194.6018794985931
 33
0.0
  0
MTEXT
  5
1B40
330
17B8
100
AcDbEntity
  8
BEM
 62
     1
100
AcDbMText
 10
55.77553529290114
 20
352.1041439555168
 30
0.0
 40
7.0
 41
0.0
 71
     5
 72
     1
  1
\A1;315
 11
0.0000000000000001
 21
1.0
 31
0.0
 73
     1
 44
1.0
  0
POINT
  5
1B41
330
17B8
100
AcDbEntity
  8
Defpoints
 62
     0
100
AcDbPoint
 10
106.6197343052599
 20
509.6064084124403
 30
0.0
  0
POINT
  5
1B42
330
17B8
100
AcDbEntity
  8
Defpoints
 62
     0
100
AcDbPoint
 10
129.2260432098719
 20
194.601879498593
 30
0.0
  0
POINT
  5
1B43
330
17B8
100
AcDbEntity
  8
Defpoints
 62
     0
100
AcDbPoint
 10
62.27553529290116
 20
194.6018794985931
 30
0.0
  0
ENDBLK
  5
17C3
330
17B8
100
AcDbEntity
  8
0
100
AcDbBlockEnd
  0
BLOCK
  5
19AA
330
19A0
100
AcDbEntity
  8
0
100
AcDbBlockBegin
  2
*D7
 70
     1
 10
0.0
 20
0.0
 30
0.0
  3
*D7
  1

  0
LINE
  5
1B32
330
19A0
100
AcDbEntity
  8
SCHRAFF
 62
     0
370
    -2
100
AcDbLine
 10
171.11973430526
 20
299.6018794985928
 30
0.0
 11
76.548559123306
 21
299.6018794985929
 31
0.0
  0
LINE
  5
1B33
330
19A0
100
AcDbEntity
  8
SCHRAFF
 62
     0
370
    -2
100
AcDbLine
 10
127.2260432098719
 20
194.601879498593
 30
0.0
 11
76.54855912330598
 21
194.601879498593
 31
0.0
  0
LINE
  5
1B34
330
19A0
100
AcDbEntity
  8
SCHRAFF
 62
     0
370
    -2
100
AcDbLine
 10
78.548559123306
 20
292.6018794985929
 30
0.0
 11
78.54855912330598
 21
201.6018794985931
 31
0.0
  0
SOLID
  5
1B35
330
19A0
100
AcDbEntity
  8
SCHRAFF
 62
     0
100
AcDbTrace
 10
77.38189245663933
 20
292.6018794985929
 30
0.0
 11
79.71522578997268
 21
292.6018794985929
 31
0.0
 12
78.548559123306
 22
299.6018794985929
 32
0.0
 13
78.548559123306
 23
299.6018794985929
 33
0.0
  0
SOLID
  5
1B36
330
19A0
100
AcDbEntity
  8
SCHRAFF
 62
     0
100
AcDbTrace
 10
77.38189245663931
 20
201.6018794985931
 30
0.0
 11
79.71522578997265
 21
201.6018794985931
 31
0.0
 12
78.54855912330598
 22
194.601879498593
 32
0.0
 13
78.54855912330598
 23
194.601879498593
 33
0.0
  0
MTEXT
  5
1B37
330
19A0
100
AcDbEntity
  8
SCHRAFF
 62
     1
100
AcDbMText
 10
72.04855912330595
 20
247.9624173969776
 30
0.0
 40
7.0
 41
0.0
 71
     5
 72
     1
  1
\A1;105
 11
0.0000000000000001
 21
1.0
 31
0.0
 73
     1
 44
1.0
  0
POINT
  5
1B38
330
19A0
100
AcDbEntity
  8
Defpoints
 62
     0
100
AcDbPoint
 10
173.1197343052599
 20
299.6018794985928
 30
0.0
  0
POINT
  5
1B39
330
19A0
100
AcDbEntity
  8
Defpoints
 62
     0
100
AcDbPoint
 10
129.2260432098719
 20
194.601879498593
 30
0.0
  0
POINT
  5
1B3A
330
19A0
100
AcDbEntity
  8
Defpoints
 62
     0
100
AcDbPoint
 10
78.54855912330598
 20
194.601879498593
 30
0.0
  0
ENDBLK
  5
19AB
330
19A0
100
AcDbEntity
  8
0
100
AcDbBlockEnd
  0
ENDSEC
  0
SECTION
  2
ENTITIES
  0
LINE
  5
57
330
1E
100
AcDbEntity
  8
STEMPEL
100
AcDbLine
 10
410.0
 20
110.0
 30
0.0
 11
39.99999999999997
 21
110.0
 31
0.0
  0
LINE
  5
58
330
1E
100
AcDbEntity
  8
STEMPEL
100
AcDbLine
 10
136.0000000000001
 20
109.9999999999999
 30
0.0
 11
136.0
 21
9.999999999999971
 31
0.0
  0
LINE
  5
59
330
1E
100
AcDbEntity
  8
STEMPEL
100
AcDbLine
 10
220.0
 20
110.0
 30
0.0
 11
220.0
 21
9.999999999999971
 31
0.0
  0
LINE
  5
5A
330
1E
100
AcDbEntity
  8
STEMPEL
100
AcDbLine
 10
332.0
 20
109.9999999999997
 30
0.0
 11
332.0
 21
40.0
 31
0.0
  0
LINE
  5
5B
330
1E
100
AcDbEntity
  8
STEMPEL
100
AcDbLine
 10
135.9999999999999
 20
29.99999999999997
 30
0.0
 11
39.99999999999997
 21
29.99999999999997
 31
0.0
  0
LINE
  5
5C
330
1E
100
AcDbEntity
  8
STEMPEL
100
AcDbLine
 10
410.0
 20
40.0
 30
0.0
 11
136.0000000000001
 21
39.99999999999997
 31
0.0
  0
LINE
  5
5D
330
1E
100
AcDbEntity
  8
STEMPEL
100
AcDbLine
 10
410.0
 20
80.0
 30
0.0
 11
136.0000000000001
 21
79.99999999999994
 31
0.0
  0
LINE
  5
5E
330
1E
100
AcDbEntity
  8
VOLL
100
AcDbLine
 10
54.00000000000009
 20
110.0
 30
0.0
 11
53.99999999999997
 21
9.999999999999971
 31
0.0
  0
LINE
  5
5F
330
1E
100
AcDbEntity
  8
VOLL
100
AcDbLine
 10
94.00000000000011
 20
109.9999999999999
 30
0.0
 11
94.0
 21
9.999999999999971
 31
0.0
  0
LINE
  5
60
330
1E
100
AcDbEntity
  8
VOLL
100
AcDbLine
 10
114.0000000000001
 20
109.9999999999999
 30
0.0
 11
114.0
 21
9.999999999999971
 31
0.0
  0
LINE
  5
61
330
1E
100
AcDbEntity
  8
VOLL
100
AcDbLine
 10
154.0000000000001
 20
79.99999999999994
 30
0.0
 11
154.0000000000001
 21
39.99999999999997
 31
0.0
  0
LINE
  5
62
330
1E
100
AcDbEntity
  8
VOLL
100
AcDbLine
 10
180.0000000000001
 20
109.9999999999998
 30
0.0
 11
180.0
 21
39.99999999999997
 31
0.0
  0
LINE
  5
63
330
1E
100
AcDbEntity
  8
HILF
100
AcDbLine
 10
40.00000000000008
 20
100.0
 30
0.0
 11
136.0000000000001
 21
100.0
 31
0.0
  0
LINE
  5
64
330
1E
100
AcDbEntity
  8
HILF
100
AcDbLine
 10
40.00000000000008
 20
90.00000000000005
 30
0.0
 11
136.0000000000001
 21
90.00000000000005
 31
0.0
  0
LINE
  5
65
330
1E
100
AcDbEntity
  8
HILF
100
AcDbLine
 10
40.00000000000008
 20
79.99999999999994
 30
0.0
 11
136.0000000000001
 21
79.99999999999994
 31
0.0
  0
LINE
  5
66
330
1E
100
AcDbEntity
  8
HILF
100
AcDbLine
 10
40.00000000000008
 20
69.99999999999994
 30
0.0
 11
136.0000000000001
 21
69.99999999999994
 31
0.0
  0
LINE
  5
67
330
1E
100
AcDbEntity
  8
HILF
100
AcDbLine
 10
40.00000000000008
 20
59.99999999999997
 30
0.0
 11
136.0000000000001
 21
59.99999999999997
 31
0.0
  0
LINE
  5
68
330
1E
100
AcDbEntity
  8
HILF
100
AcDbLine
 10
40.00000000000008
 20
49.99999999999997
 30
0.0
 11
136.0000000000001
 21
49.99999999999997
 31
0.0
  0
LINE
  5
69
330
1E
100
AcDbEntity
  8
HILF
100
AcDbLine
 10
40.00000000000008
 20
39.99999999999997
 30
0.0
 11
136.0000000000001
 21
39.99999999999997
 31
0.0
  0
LINE
  5
6A
330
1E
100
AcDbEntity
  8
HILF
100
AcDbLine
 10
136.0000000000001
 20
69.99999999999994
 30
0.0
 11
220.0
 21
69.99999999999994
 31
0.0
  0
LINE
  5
6B
330
1E
100
AcDbEntity
  8
HILF
100
AcDbLine
 10
136.0000000000001
 20
59.99999999999997
 30
0.0
 11
220.0
 21
59.99999999999997
 31
0.0
  0
LINE
  5
6C
330
1E
100
AcDbEntity
  8
HILF
100
AcDbLine
 10
136.0000000000001
 20
49.99999999999997
 30
0.0
 11
220.0
 21
49.99999999999997
 31
0.0
  0
LINE
  5
6D
330
1E
100
AcDbEntity
  8
HILF
100
AcDbLine
 10
224.7736801096948
 20
84.03758247564139
 30
0.0
 11
324.8353916556311
 21
84.03758247564139
 31
0.0
  0
LINE
  5
6E
330
1E
100
AcDbEntity
  8
HILF
100
AcDbLine
 10
224.7736801096948
 20
69.99999999999994
 30
0.0
 11
324.835391655631
 21
69.99999999999994
 31
0.0
  0
LINE
  5
6F
330
1E
100
AcDbEntity
  8
HILF
100
AcDbLine
 10
224.7736801096948
 20
59.99999999999997
 30
0.0
 11
324.835391655631
 21
59.99999999999997
 31
0.0
  0
LINE
  5
70
330
1E
100
AcDbEntity
  8
HILF
100
AcDbLine
 10
224.7736801096948
 20
49.99999999999997
 30
0.0
 11
324.835391655631
 21
49.99999999999997
 31
0.0
  0
LINE
  5
71
330
1E
100
AcDbEntity
  8
VOLL
100
AcDbLine
 10
332.0
 20
60.0
 30
0.0
 11
410.0
 21
60.0
 31
0.0
  0
LINE
  5
72
330
1E
100
AcDbEntity
  8
HILF
100
AcDbLine
 10
336.7238616296993
 20
83.77983636955827
 30
0.0
 11
404.8588839326728
 21
83.77983636955827
 31
0.0
  0
LINE
  5
73
330
1E
100
AcDbEntity
  8
HILF
100
AcDbLine
 10
223.4909699289885
 20
14.89398258028314
 30
0.0
 11
404.8588839326728
 21
14.89398258028314
 31
0.0
  0
TEXT
  5
74
330
1E
100
AcDbEntity
  8
TEXT
100
AcDbText
 10
63.86165979631819
 20
18.67381894984132
 30
0.0
 40
4.0
  1
Änderung
 41
0.8
  7
GREEKS
 72
     1
 11
74.60451693917534
 21
18.67381894984132
 31
0.0
100
AcDbText
  0
TEXT
  5
75
330
1E
100
AcDbEntity
  8
TEXT
100
AcDbText
 10
143.5163572150377
 20
102.4620895087088
 30
0.0
 40
5.0
  1
Maßstab
 41
0.8
  7
GREEKS
100
AcDbText
  0
TEXT
  5
76
330
1E
100
AcDbEntity
  8
TEXT
100
AcDbText
 10
184.2858954734051
 20
102.4184168434819
 30
0.0
 40
5.0
  1
Zul. Abw.
 41
0.8
  7
GREEKS
100
AcDbText
  0
TEXT
  5
77
330
1E
100
AcDbEntity
  8
TEXT
100
AcDbText
 10
224.877940380901
 20
102.5489328011779
 30
0.0
 40
5.0
  1
Benennung
 41
0.8
  7
GREEKS
100
AcDbText
  0
TEXT
  5
78
330
1E
100
AcDbEntity
  8
TEXT
100
AcDbText
 10
336.178754957634
 20
102.3132034537136
 30
0.0
 40
5.0
  1
Zeichnungs Nr.
 41
0.8
  7
GREEKS
100
AcDbText
  0
TEXT
  5
79
330
1E
100
AcDbEntity
  8
TEXT
100
AcDbText
 10
224.742238391136
 20
30.84560570193057
 30
0.0
 40
5.0
  1
Bauvorhaben
 41
0.8
  7
GREEKS
100
AcDbText
  0
TEXT
  5
7A
330
1E
100
AcDbEntity
  8
TEXT
100
AcDbText
 10
336.7238616296993
 20
73.1811823709997
 30
0.0
 40
5.0
  1
Ersatz für:
 41
0.8
  7
GREEKS
100
AcDbText
  0
TEXT
  5
7B
330
1E
100
AcDbEntity
  8
TEXT
100
AcDbText
 10
48.26641107045756
 20
13.65465846027192
 30
0.0
 40
4.0
  1
Index
 50
90.0
 41
0.8
  7
GREEKS
100
AcDbText
  0
TEXT
  5
7C
330
1E
100
AcDbEntity
  8
TEXT
100
AcDbText
 10
100.0934676075481
 20
18.6715626933981
 30
0.0
 40
4.0
  1
Tag
 41
0.8
  7
GREEKS
 72
     1
 11
103.8268009408814
 21
18.6715626933981
 31
0.0
100
AcDbText
  0
TEXT
  5
7D
330
1E
100
AcDbEntity
  8
TEXT
100
AcDbText
 10
119.0122744386592
 20
18.59324216966408
 30
0.0
 40
4.0
  1
Name
 41
0.8
  7
GREEKS
 72
     1
 11
125.3360839624688
 21
18.59324216966408
 31
0.0
100
AcDbText
  0
TEXT
  5
7E
330
1E
100
AcDbEntity
  8
TEXT
100
AcDbText
 10
162.3311673153651
 20
73.31880501229926
 30
0.0
 40
4.0
  1
Tag
 41
0.8
  7
GREEKS
100
AcDbText
  0
TEXT
  5
7F
330
1E
100
AcDbEntity
  8
TEXT
100
AcDbText
 10
192.4626584226295
 20
73.30961091915225
 30
0.0
 40
4.0
  1
Name
 41
0.8
  7
GREEKS
100
AcDbText
  0
TEXT
  5
80
330
1E
100
AcDbEntity
  8
TEXT
100
AcDbText
 10
137.5836127167615
 20
63.62990369617964
 30
0.0
 40
4.0
  1
Gez.
 41
0.8
  7
GREEKS
100
AcDbText
  0
TEXT
  5
81
330
1E
100
AcDbEntity
  8
TEXT
100
AcDbText
 10
137.5515086571672
 20
53.68926291428377
 30
0.0
 40
4.0
  1
Gepr.
 41
0.8
  7
GREEKS
100
AcDbText
  0
TEXT
  5
82
330
1E
100
AcDbEntity
  8
TEXT
100
AcDbText
 10
137.6006777387304
 20
43.52946389649807
 30
0.0
 40
4.0
  1
Norm.
 41
0.8
  7
GREEKS
100
AcDbText
  0
LINE
  5
83
330
1E
100
AcDbEntity
  8
STEMPEL
100
AcDbLine
 10
49.99999999999989
 20
10.0
 30
0.0
 11
410.0
 21
10.0
 31
0.0
  0
TEXT
  5
84
330
1E
100
AcDbEntity
  8
TEXT
100
AcDbText
 10
337.2400861497006
 20
52.07416177878602
 30
0.0
 40
5.0
  1
ersetzt durch:
 41
0.8
  7
GREEKS
100
AcDbText
  0
LINE
  5
85
330
1E
100
AcDbEntity
  8
STEMPEL
100
AcDbLine
 10
410.0
 20
10.0
 30
0.0
 11
39.99999999999989
 21
10.0
 31
0.0
  0
LINE
  5
86
330
1E
100
AcDbEntity
  8
STEMPEL
100
AcDbLine
 10
410.0
 20
10.0
 30
0.0
 11
410.0
 21
584.0
 31
0.0
  0
LINE
  5
87
330
1E
100
AcDbEntity
  8
STEMPEL
100
AcDbLine
 10
40.0
 20
10.0
 30
0.0
 11
39.99999999999989
 21
584.0
 31
0.0
  0
LINE
  5
88
330
1E
100
AcDbEntity
  8
STEMPEL
100
AcDbLine
 10
410.0
 20
584.0
 30
0.0
 11
39.99999999999989
 21
584.0
 31
0.0
  0
LINE
  5
89
330
1E
100
AcDbEntity
  8
HILF
100
AcDbLine
 10
0.0
 20
0.0
 30
0.0
 11
-0.0000000000001137
 21
594.0
 31
0.0
  0
LINE
  5
8A
330
1E
100
AcDbEntity
  8
HILF
100
AcDbLine
 10
419.9999999999999
 20
594.0000000000002
 30
0.0
 11
0.0
 21
594.0
 31
0.0
  0
LINE
  5
8B
330
1E
100
AcDbEntity
  8
HILF
100
AcDbLine
 10
420.0
 20
0.0
 30
0.0
 11
0.0
 21
0.0
 31
0.0
  0
LINE
  5
8C
330
1E
100
AcDbEntity
  8
HILF
100
AcDbLine
 10
31.08767135713856
 20
297.0
 30
0.0
 11
0.0000000000001137
 21
297.0
 31
0.0
  0
LINE
  5
8E
330
1E
100
AcDbEntity
  8
HILF
100
AcDbLine
 10
420.0
 20
-0.0000000000001137
 30
0.0
 11
419.9999999999999
 21
594.0
 31
0.0
  0
TEXT
  5
8F
330
1E
100
AcDbEntity
  8
VOLL
100
AcDbText
 10
78.07675471698113
 20
31.02594776470585
 30
0.0
 40
1.8
  1

  7
GREEKS
100
AcDbText
  0
TEXT
  5
90
330
1E
100
AcDbEntity
  8
TEXT
100
AcDbText
 10
41.85509950977674
 20
111.6719999999999
 30
0.0
 40
5.0
  1
Erstellt mit AUTOCAD 2004
 41
0.8
  7
GREEKS
100
AcDbText
  0
TEXT
  5
91
330
1E
100
AcDbEntity
  8
TEXT
100
AcDbText
 10
194.4216048581257
 20
63.0896391972351
 30
0.0
 40
4.0
  1
Koeh
 41
0.8
  7
GREEKS
 72
     1
 11
199.6787477152685
 21
63.0896391972351
 31
0.0
100
AcDbText
  0
TEXT
  5
92
330
1E
100
AcDbEntity
  8
TEXT
 62
     1
100
AcDbText
 10
344.2791900623816
 20
88.14901428913959
 30
0.0
 40
7.0
  1
58022MM0W
 41
0.8
  7
GREEKS
 72
     1
 11
369.3458567290483
 21
88.14901428913959
 31
0.0
100
AcDbText
  0
TEXT
  5
93
330
1E
100
AcDbEntity
  8
TEXT
 62
     1
100
AcDbText
 10
150.5006306481887
 20
88.14901428913959
 30
0.0
 40
7.0
  1
1:2
 41
0.8
  7
GREEKS
100
AcDbText
  0
TEXT
  5
95
330
1E
100
AcDbEntity
  8
TEXT
 62
     1
100
AcDbText
 10
226.8935731057402
 20
87.41748789253779
 30
0.0
 40
7.0
  1
Verbundrohr DN80/80
 41
0.8
  7
GREEKS
100
AcDbText
  0
TEXT
  5
96
330
1E
100
AcDbEntity
  8
TEXT
100
AcDbText
 10
225.1296391125315
 20
71.50334417585288
 30
0.0
 40
5.0
  1
Einfach-Abzweig 45°
 41
0.8
  7
GREEKS
100
AcDbText
  0
TEXT
  5
98
330
1E
100
AcDbEntity
  8
TEXT
100
AcDbText
 10
225.1296391125315
 20
51.64011943042158
 30
0.0
 40
5.0
  1
EDV-Art.Nr. 58022.MM0X
 41
0.8
  7
GREEKS
100
AcDbText
  0
TEXT
  5
99
330
1E
100
AcDbEntity
  8
TEXT
100
AcDbText
 10
224.9837501577827
 20
42.62974153022632
 30
0.0
 40
4.0
  1
58022MM0W.DWG
 41
0.8
  7
GREEKS
100
AcDbText
  0
TEXT
  5
9A
330
1E
100
AcDbEntity
  8
TEXT
100
AcDbText
 10
182.626132208084
 20
90.76363841023022
 30
0.0
 40
4.0
  1
DIN EN1123-2
 41
0.8
  7
GREEKS
 72
     1
 11
199.6166083985602
 21
90.76363841023022
 31
0.0
100
AcDbText
  0
INSERT
  5
9B
330
1E
100
AcDbEntity
  8
STEMPEL
100
AcDbBlockReference
  2
LOGO
 10
140.9955485457794
 20
45.02105276448322
 30
0.0
 41
2.0
 42
2.0
 43
2.0
  0
TEXT
  5
118
330
1E
100
AcDbEntity
  8
BEM
100
AcDbText
 10
417.3022923857165
 20
10.16790107998849
 30
0.0
 40
4.0
  1
Diese Zeichnung ist urheberrechtlich geschützt und bleibt unser Eigentum. Sie darf weder ganz noch teilweise verfielfältigt und nicht an Dritte weitergegeben werden.
 50
90.0
 41
0.8
  7
GREEKS
100
AcDbText
  0
TEXT
  5
422
330
1E
100
AcDbEntity
  8
VOLL
100
AcDbText
 10
513.181667332345
 20
218.2094568136298
 30
0.0
 40
1.8
  1

  7
GREEKS
100
AcDbText
  0
TEXT
  5
430
330
1E
100
AcDbEntity
  8
BEM
100
AcDbText
 10
987.7858805324283
 20
233.0575201688864
 30
0.0
 40
2.5
  1

 41
0.8
  7
GREEKS
 72
     4
 11
987.7858805324283
 21
233.0575201688864
 31
0.0
100
AcDbText
  0
TEXT
  5
431
330
1E
100
AcDbEntity
  8
BEM
100
AcDbText
 10
1026.267416198392
 20
203.9734875438834
 30
0.0
 40
2.5
  1

 41
0.8
  7
GREEKS
 72
     4
 11
1026.267416198392
 21
203.9734875438834
 31
0.0
100
AcDbText
  0
TEXT
  5
782
330
1E
100
AcDbEntity
  8
TEXT
 62
     1
100
AcDbText
 10
237.3454174862374
 20
128.644107755453
 30
0.0
 40
7.0
  1
und innenbeschichtet
 41
0.8
  7
GREEKS
100
AcDbText
  0
TEXT
  5
783
330
1E
100
AcDbEntity
  8
TEXT
 62
     1
100
AcDbText
 10
182.1964779655266
 20
116.0492723700709
 30
0.0
 40
7.0
  1
Dämmung: 2 K-PU-Schaum
 41
0.8
  7
GREEKS
100
AcDbText
  0
TEXT
  5
784
330
1E
100
AcDbEntity
  8
TEXT
 62
     1
100
AcDbText
 10
189.6908886102237
 20
139.9131615946787
 30
0.0
 40
7.0
  1
Innenrohr: E195 EN10305 feuerverzinkt
 41
0.8
  7
GREEKS
100
AcDbText
  0
TEXT
  5
785
330
1E
100
AcDbEntity
  8
TEXT
 62
     1
100
AcDbText
 10
185.9186712393597
 20
151.2662296310337
 30
0.0
 40
7.0
  1
Außenrohr: E195 EN10305 feuerverzinkt
 41
0.8
  7
GREEKS
100
AcDbText
  0
HATCH
  5
138B
330
1E
100
AcDbEntity
  8
SCHRAFF
100
AcDbHatch
 10
0.0
 20
0.0
 30
0.0
210
0.0
220
0.0
230
1.0
  2
_USER
 70
     0
 71
     0
 91
        1
 92
        7
 72
     1
 73
     1
 93
        3
 10
219.9158348994503
 20
283.4654765671806
 42
0.0
 10
217.6197343052599
 20
281.1693759729901
 42
0.0
 10
217.6197343052599
 20
277.9221993721129
 42
0.249619888718553
 97
        0
 75
     0
 76
     0
 52
-0.0000000000000127
 41
0.1
 77
     0
 78
     1
 53
360.0
 43
-27.18261696646107
 44
-10.88844600536922
 45
0.0
 46
0.1
 79
     0
 47
0.0730748643836934
 98
        1
 10
218.2317600354036
 20
279.3678234605528
  0
ARC
  5
138C
102
{ACAD_REACTORS
330
1932
102
}
330
1E
100
AcDbEntity
  8
SCHRAFF
100
AcDbCircle
 10
213.561994383434
 20
282.8501468811928
 30
0.0
 40
6.383566395474282
100
AcDbArc
 50
309.4685120651186
 51
5.5314879348846
  0
HATCH
  5
138D
330
1E
100
AcDbEntity
  8
SCHRAFF
100
AcDbHatch
 10
0.0
 20
0.0
 30
0.0
210
0.0
220
0.0
230
1.0
  2
_USER
 70
     0
 71
     1
 91
        1
 92
        7
 72
     1
 73
     1
 93
        3
 10
217.6197343052601
 20
414.8737608134541
 42
0.0
 10
217.61973430526
 20
407.0343830241958
 42
0.0
 10
223.1630115003278
 20
412.5776602192635
 42
0.1989123673796606
 97
        3
330
138E
330
13CF
330
13B4
 75
     0
 76
     0
 52
-0.0000000000000127
 41
0.1
 77
     0
 78
     1
 53
360.0
 43
-27.18261696646107
 44
-10.88844600536922
 45
0.0
 46
0.1
 79
     0
 47
0.061490835210395
 98
        1
 10
220.7022283499191
 20
412.4520442254784
  0
ARC
  5
138E
102
{ACAD_REACTORS
330
138D
330
1932
102
}
330
1E
100
AcDbEntity
  8
SCHRAFF
100
AcDbCircle
 10
217.6197343052601
 20
407.0343830241959
 30
0.0
 40
7.839377789258207
100
AcDbArc
 50
45.0
 51
89.99999999999998
  0
LINE
  5
1399
102
{ACAD_REACTORS
330
188D
102
}
330
1E
100
AcDbEntity
  8
STEMPEL
100
AcDbLine
 10
173.1197343052597
 20
299.6018794985927
 30
0.0
 11
217.6197343052599
 21
281.1693759729901
 31
0.0
  0
LINE
  5
139A
330
1E
100
AcDbEntity
  8
STEMPEL
100
AcDbLine
 10
217.6197343052601
 20
407.0343830241958
 30
0.0
 11
173.1197343052597
 21
299.6018794985927
 31
0.0
  0
LINE
  5
13B3
102
{ACAD_REACTORS
330
188D
330
1932
102
}
330
1E
100
AcDbEntity
  8
STEMPEL
100
AcDbLine
 10
217.6197343052599
 20
281.1693759729901
 30
0.0
 11
217.6197343052599
 21
201.5320219899392
 31
0.0
  0
LINE
  5
13B4
102
{ACAD_REACTORS
330
138D
330
18C3
330
1932
102
}
330
1E
100
AcDbEntity
  8
STEMPEL
100
AcDbLine
 10
256.6950891739398
 20
446.1097378928755
 30
0.0
 11
217.6197343052601
 21
407.0343830241958
 31
0.0
  0
LINE
  5
13B5
102
{ACAD_REACTORS
330
18C3
330
1932
330
1983
102
}
330
1E
100
AcDbEntity
  8
STEMPEL
100
AcDbLine
 10
289.2940186628049
 20
488.0424768934033
 30
0.0
 11
284.3733873909956
 21
483.121845621594
 31
0.0
  0
LINE
  5
13B6
102
{ACAD_REACTORS
330
18C3
330
1932
102
}
330
1E
100
AcDbEntity
  8
STEMPEL
100
AcDbLine
 10
275.6925498942929
 20
469.4912606565853
 30
0.0
 11
262.0657957518349
 21
455.8645065141273
 31
0.0
  0
ARC
  5
13B7
102
{ACAD_REACTORS
330
18C3
330
1932
102
}
330
1E
100
AcDbEntity
  8
STEMPEL
100
AcDbCircle
 10
270.5510771260733
 20
447.3792251398886
 30
0.0
 40
12.0
100
AcDbArc
 50
135.0
 51
167.3280641221605
  0
ARC
  5
13B8
102
{ACAD_REACTORS
330
18C3
330
1932
102
}
330
1E
100
AcDbEntity
  8
STEMPEL
100
AcDbCircle
 10
251.0382349244475
 20
451.766592142368
 30
0.0
 40
8.0
100
AcDbArc
 50
315.0
 51
347.3280641221605
  0
ARC
  5
13B9
102
{ACAD_REACTORS
330
18C3
330
1932
102
}
330
1E
100
AcDbEntity
  8
STEMPEL
100
AcDbCircle
 10
267.2072685200545
 20
477.976542030824
 30
0.0
 40
12.0
100
AcDbArc
 50
315.0
 51
340.3077230980216
  0
ARC
  5
13BA
102
{ACAD_REACTORS
330
18C3
330
1932
102
}
330
1E
100
AcDbEntity
  8
STEMPEL
100
AcDbCircle
 10
302.0027756355651
 20
465.3958948068359
 30
0.0
 40
25.00009324312574
100
AcDbArc
 50
134.8435140456522
 51
160.0329424415663
  0
ARC
  5
13BB
102
{ACAD_REACTORS
330
18C3
330
1983
102
}
330
1E
100
AcDbEntity
  8
STEMPEL
  6
Continuous
100
AcDbCircle
 10
306.6888454799943
 20
470.6476500762144
 30
0.0
 40
24.6
100
AcDbArc
 50
110.0000000000037
 51
135.0
  0
LINE
  5
13BC
102
{ACAD_REACTORS
330
18C3
330
1983
102
}
330
1E
100
AcDbEntity
  8
STEMPEL
  6
Continuous
100
AcDbLine
 10
300.5648388672757
 20
494.5974671576427
 30
0.0
 11
298.2751499541826
 21
493.7640885475477
 31
0.0
  0
LINE
  5
13BD
330
1E
100
AcDbEntity
  8
MITTEL
100
AcDbLine
 10
337.8756143217277
 20
464.3577595150605
 30
0.0
 11
173.1197343052599
 21
299.6018794985928
 31
0.0
  0
LINE
  5
13BE
102
{ACAD_REACTORS
330
18E5
330
1983
102
}
330
1E
100
AcDbEntity
  8
STEMPEL
100
AcDbLine
 10
287.3174794668884
 20
507.8448265580321
 30
0.0
 11
381.3626813646973
 21
413.7996246602192
 31
0.0
  0
LINE
  5
13BF
102
{ACAD_REACTORS
330
18D3
330
1932
330
1983
102
}
330
1E
100
AcDbEntity
  8
STEMPEL
100
AcDbLine
 10
361.5603317000701
 20
415.7761638561381
 30
0.0
 11
356.6397004282606
 21
410.8555325843286
 31
0.0
  0
LINE
  5
13C0
330
1E
100
AcDbEntity
  8
HILF
  6
Continuous
100
AcDbLine
 10
260.6188225176051
 20
445.9655283287358
 30
0.0
 11
319.4833831354028
 21
387.1009677109382
 31
0.0
  0
LINE
  5
13C1
330
1E
100
AcDbEntity
  8
HILF
  6
Continuous
100
AcDbLine
 10
262.6277139092151
 20
451.2081042622609
 30
0.0
 11
324.7259590689278
 21
389.109859102548
 31
0.0
  0
LINE
  5
13C2
330
1E
100
AcDbEntity
  8
HILF
  6
Continuous
100
AcDbLine
 10
279.8523380519282
 20
469.5419574806473
 30
0.0
 11
343.0598122873143
 21
406.3344832452612
 31
0.0
  0
LINE
  5
13C3
102
{ACAD_REACTORS
330
18D3
330
1932
102
}
330
1E
100
AcDbEntity
  8
STEMPEL
100
AcDbLine
 10
343.0091154632521
 20
402.1746950876259
 30
0.0
 11
329.3823613207941
 21
388.5479409451679
 31
0.0
  0
ARC
  5
13C4
102
{ACAD_REACTORS
330
18D3
330
1932
102
}
330
1E
100
AcDbEntity
  8
STEMPEL
100
AcDbCircle
 10
320.8970799465557
 20
397.0332223194064
 30
0.0
 40
12.0
100
AcDbArc
 50
282.6719358778398
 51
315.0
  0
ARC
  5
13C5
102
{ACAD_REACTORS
330
18D3
330
1932
102
}
330
1E
100
AcDbEntity
  8
STEMPEL
100
AcDbCircle
 10
325.2844469490349
 20
377.5203801177805
 30
0.0
 40
8.0
100
AcDbArc
 50
102.6719358778398
 51
135.0
  0
ARC
  5
13C6
102
{ACAD_REACTORS
330
18D3
330
1932
102
}
330
1E
100
AcDbEntity
  8
STEMPEL
100
AcDbCircle
 10
351.494396837491
 20
393.6894137133876
 30
0.0
 40
12.0
100
AcDbArc
 50
109.6922769019805
 51
135.0
  0
ARC
  5
13C7
102
{ACAD_REACTORS
330
18D3
330
1932
102
}
330
1E
100
AcDbEntity
  8
STEMPEL
100
AcDbCircle
 10
338.9137496135029
 20
428.4849208288983
 30
0.0
 40
25.00009324312574
100
AcDbArc
 50
289.9670575584358
 51
315.1564859543478
  0
ARC
  5
13C8
102
{ACAD_REACTORS
330
18D3
330
1983
102
}
330
1E
100
AcDbEntity
  8
STEMPEL
  6
Continuous
100
AcDbCircle
 10
344.1655048828811
 20
433.1709906733273
 30
0.0
 40
24.6
100
AcDbArc
 50
315.0
 51
339.9999999999917
  0
LINE
  5
13C9
102
{ACAD_REACTORS
330
18D3
330
1983
102
}
330
1E
100
AcDbEntity
  8
STEMPEL
  6
Continuous
100
AcDbLine
 10
368.1153219643095
 20
427.0469840606086
 30
0.0
 11
367.2819433542143
 21
424.7572951475158
 31
0.0
  0
LINE
  5
13CA
102
{ACAD_REACTORS
330
18D3
330
1932
102
}
330
1E
100
AcDbEntity
  8
STEMPEL
100
AcDbLine
 10
319.6275926995425
 20
383.1772343672727
 30
0.0
 11
217.6197343052599
 21
281.1693759729901
 31
0.0
  0
TEXT
  5
13CB
330
1E
100
AcDbEntity
  8
VOLL
100
AcDbText
 10
309.1021120968331
 20
447.1663368851872
 30
0.0
 40
7.0
  1
DN80
 50
45.0
 41
0.8
  7
GREEKS
100
AcDbText
  0
TEXT
  5
13CC
330
1E
100
AcDbEntity
  8
VOLL
100
AcDbText
 10
164.9299672833781
 20
482.1042983509055
 30
0.0
 40
7.0
  1
DN80
 50
89.99999999999998
 41
0.8
  7
GREEKS
100
AcDbText
  0
LINE
  5
13CE
102
{ACAD_REACTORS
330
188F
330
1932
102
}
330
1E
100
AcDbEntity
  8
STEMPEL
100
AcDbLine
 10
128.6197343052599
 20
444.2998087478705
 30
0.0
 11
128.6197343052599
 21
201.5320219899388
 31
0.0
  0
LINE
  5
13CF
102
{ACAD_REACTORS
330
138D
330
187A
330
1932
102
}
330
1E
100
AcDbEntity
  8
STEMPEL
100
AcDbLine
 10
217.6197343052601
 20
444.2998087478704
 30
0.0
 11
217.6197343052601
 21
407.0343830241958
 31
0.0
  0
LINE
  5
13D2
102
{ACAD_REACTORS
330
188D
102
}
330
1E
100
AcDbEntity
  8
STEMPEL
100
AcDbLine
 10
217.6197343052599
 20
201.5320219899392
 30
0.0
 11
217.0134254006477
 21
194.6018794985929
 31
0.0
  0
LINE
  5
13D3
102
{ACAD_REACTORS
330
188F
102
}
330
1E
100
AcDbEntity
  8
STEMPEL
100
AcDbLine
 10
128.6197343052599
 20
201.5320219899388
 30
0.0
 11
129.2260432098719
 21
194.601879498593
 31
0.0
  0
LINE
  5
13D4
330
1E
100
AcDbEntity
  8
HILF
100
AcDbLine
 10
214.4136225651906
 20
201.6018794985929
 30
0.0
 11
131.8258460453292
 21
201.601879498593
 31
0.0
  0
LINE
  5
13D5
102
{ACAD_REACTORS
330
187A
330
194D
102
}
330
1E
100
AcDbEntity
  8
STEMPEL
  6
Continuous
100
AcDbLine
 10
220.8851389755999
 20
509.6064084124389
 30
0.0
 11
221.9149058663615
 21
507.3980661886891
 31
0.0
  0
ARC
  5
13D6
102
{ACAD_REACTORS
330
187A
330
194D
102
}
330
1E
100
AcDbEntity
  8
STEMPEL
  6
Continuous
100
AcDbCircle
 10
199.6197343052599
 20
497.001656949868
 30
0.0
 40
24.6
100
AcDbArc
 50
0.0
 51
24.99999999999056
  0
LINE
  5
13D7
102
{ACAD_REACTORS
330
188F
330
194D
102
}
330
1E
100
AcDbEntity
  8
STEMPEL
  6
Continuous
100
AcDbLine
 10
125.35432963492
 20
509.6064084124391
 30
0.0
 11
124.3245627441583
 21
507.3980661886891
 31
0.0
  0
ARC
  5
13D8
102
{ACAD_REACTORS
330
188F
330
194D
102
}
330
1E
100
AcDbEntity
  8
STEMPEL
  6
Continuous
100
AcDbCircle
 10
146.61973430526
 20
497.0016569498681
 30
0.0
 40
24.6
100
AcDbArc
 50
155.000000000005
 51
180.0
  0
ARC
  5
13D9
102
{ACAD_REACTORS
330
187A
330
1932
102
}
330
1E
100
AcDbEntity
  8
STEMPEL
100
AcDbCircle
 10
199.2197343052599
 20
489.9745534216488
 30
0.0
 40
25.00009324312574
100
AcDbArc
 50
334.9670575584353
 51
0.1564859543473851
  0
ARC
  5
13DA
102
{ACAD_REACTORS
330
187A
330
1932
102
}
330
1E
100
AcDbEntity
  8
STEMPEL
100
AcDbCircle
 10
232.7197343052601
 20
474.266275349244
 30
0.0
 40
12.0
100
AcDbArc
 50
154.6922769019809
 51
180.0
  0
ARC
  5
13DB
102
{ACAD_REACTORS
330
187A
330
1932
102
}
330
1E
100
AcDbEntity
  8
STEMPEL
100
AcDbCircle
 10
225.61973430526
 20
444.2998087478704
 30
0.0
 40
8.0
100
AcDbArc
 50
147.6719358778391
 51
180.0
  0
ARC
  5
13DC
102
{ACAD_REACTORS
330
187A
330
1932
102
}
330
1E
100
AcDbEntity
  8
STEMPEL
100
AcDbCircle
 10
208.71973430526
 20
454.995134829856
 30
0.0
 40
12.0
100
AcDbArc
 50
327.6719358778392
 51
0.0
  0
LINE
  5
13DD
102
{ACAD_REACTORS
330
187A
330
1932
102
}
330
1E
100
AcDbEntity
  8
STEMPEL
100
AcDbLine
 10
220.71973430526
 20
474.266275349244
 30
0.0
 11
220.71973430526
 21
454.995134829856
 31
0.0
  0
ARC
  5
13DE
102
{ACAD_REACTORS
330
188F
330
1932
102
}
330
1E
100
AcDbEntity
  8
STEMPEL
100
AcDbCircle
 10
147.0197343052599
 20
489.9745534216488
 30
0.0
 40
25.00009324312574
100
AcDbArc
 50
179.8435140456526
 51
205.0329424415662
  0
ARC
  5
13DF
102
{ACAD_REACTORS
330
188F
330
1932
102
}
330
1E
100
AcDbEntity
  8
STEMPEL
100
AcDbCircle
 10
113.5197343052599
 20
474.266275349244
 30
0.0
 40
12.0
100
AcDbArc
 50
0.0
 51
25.30772309802195
  0
ARC
  5
13E0
102
{ACAD_REACTORS
330
188F
330
1932
102
}
330
1E
100
AcDbEntity
  8
STEMPEL
100
AcDbCircle
 10
120.61973430526
 20
444.2998087478705
 30
0.0
 40
8.0
100
AcDbArc
 50
0.0
 51
32.32806412216082
  0
ARC
  5
13E1
102
{ACAD_REACTORS
330
188F
330
1932
102
}
330
1E
100
AcDbEntity
  8
STEMPEL
100
AcDbCircle
 10
137.51973430526
 20
454.995134829856
 30
0.0
 40
12.0
100
AcDbArc
 50
180.0
 51
212.3280641221608
  0
LINE
  5
13E2
102
{ACAD_REACTORS
330
188F
330
1932
102
}
330
1E
100
AcDbEntity
  8
STEMPEL
100
AcDbLine
 10
125.51973430526
 20
474.2662753492439
 30
0.0
 11
125.51973430526
 21
454.9951348298561
 31
0.0
  0
LINE
  5
13E3
330
1E
100
AcDbEntity
  8
HILF
  6
Continuous
100
AcDbLine
 10
128.4253006517444
 20
477.2435378318863
 30
0.0
 11
217.8141679587756
 21
477.2435378318864
 31
0.0
  0
LINE
  5
13E4
330
1E
100
AcDbEntity
  8
HILF
  6
Continuous
100
AcDbLine
 10
129.2096440530425
 20
452.0998973611844
 30
0.0
 11
217.0298245574775
 21
452.0998973611844
 31
0.0
  0
LINE
  5
13E5
330
1E
100
AcDbEntity
  8
HILF
  6
Continuous
100
AcDbLine
 10
131.4962043208486
 20
446.9723356420288
 30
0.0
 11
214.7432642896713
 21
446.9723356420288
 31
0.0
  0
LINE
  5
13E7
102
{ACAD_REACTORS
330
188F
330
1932
330
194D
102
}
330
1E
100
AcDbEntity
  8
STEMPEL
100
AcDbLine
 10
122.0197343052599
 20
497.0016569498682
 30
0.0
 11
122.0197343052599
 21
490.0428334698381
 31
0.0
  0
LINE
  5
13E8
102
{ACAD_REACTORS
330
187A
330
1932
330
194D
102
}
330
1E
100
AcDbEntity
  8
STEMPEL
100
AcDbLine
 10
224.2197343052599
 20
497.001656949868
 30
0.0
 11
224.2197343052598
 21
490.0428334698379
 31
0.0
  0
LINE
  5
13E9
102
{ACAD_REACTORS
330
18A8
330
194D
102
}
330
1E
100
AcDbEntity
  8
STEMPEL
100
AcDbLine
 10
106.6197343052599
 20
509.6064084124403
 30
0.0
 11
239.61973430526
 21
509.6064084124377
 31
0.0
  0
LINE
  5
13EA
102
{ACAD_REACTORS
330
188D
102
}
330
1E
100
AcDbEntity
  8
STEMPEL
100
AcDbLine
 10
217.0134254006477
 20
194.6018794985929
 30
0.0
 11
129.2260432098719
 21
194.601879498593
 31
0.0
  0
LINE
  5
13EB
330
1E
100
AcDbEntity
  8
MITTEL
100
AcDbLine
 10
173.11973430526
 20
514.6064084124421
 30
0.0
 11
173.1197343052599
 21
189.6018794985929
 31
0.0
  0
LINE
  5
15DD
102
{ACAD_REACTORS
330
18A8
102
}
330
1E
100
AcDbEntity
  8
STEMPEL
100
AcDbLine
 10
109.1197343052599
 20
244.601879498593
 30
0.0
 11
106.6197343052599
 21
244.601879498593
 31
0.0
  0
LINE
  5
15DE
102
{ACAD_REACTORS
330
1932
102
}
330
1E
100
AcDbEntity
  8
STEMPEL
100
AcDbLine
 10
111.6784666171279
 20
260.601879498593
 30
0.0
 11
128.6197343052602
 21
260.601879498593
 31
0.0
  0
LINE
  5
15E0
102
{ACAD_REACTORS
330
1932
102
}
330
1E
100
AcDbEntity
  8
STEMPEL
100
AcDbLine
 10
234.561001993392
 20
260.601879498593
 30
0.0
 11
217.6197343052599
 21
260.601879498593
 31
0.0
  0
LINE
  5
15E1
102
{ACAD_REACTORS
330
18A8
102
}
330
1E
100
AcDbEntity
  8
STEMPEL
100
AcDbLine
 10
239.61973430526
 20
244.601879498593
 30
0.0
 11
237.11973430526
 21
244.601879498593
 31
0.0
  0
LINE
  5
15E2
102
{ACAD_REACTORS
330
1932
102
}
330
1E
100
AcDbEntity
  8
STEMPEL
100
AcDbLine
 10
236.6308009867971
 20
258.6030978445549
 30
0.0
 11
234.561001993392
 21
260.601879498593
 31
0.0
  0
LINE
  5
15E3
102
{ACAD_REACTORS
330
1932
102
}
330
1E
100
AcDbEntity
  8
STEMPEL
100
AcDbLine
 10
237.11973430526
 20
244.601879498593
 30
0.0
 11
236.6308009867971
 21
258.6030978445549
 31
0.0
  0
LINE
  5
15E4
330
1E
100
AcDbEntity
  8
STEMPEL
100
AcDbLine
 10
222.11973430526
 20
250.601879498593
 30
0.0
 11
217.6197343052597
 21
250.601879498593
 31
0.0
  0
LINE
  5
15E5
330
1E
100
AcDbEntity
  8
STEMPEL
100
AcDbLine
 10
124.1197343052601
 20
250.601879498593
 30
0.0
 11
128.6197343052602
 21
250.601879498593
 31
0.0
  0
LINE
  5
15E7
102
{ACAD_REACTORS
330
1932
102
}
330
1E
100
AcDbEntity
  8
STEMPEL
100
AcDbLine
 10
109.608667623723
 20
258.6030978445549
 30
0.0
 11
111.6784666171279
 21
260.601879498593
 31
0.0
  0
LINE
  5
15E8
102
{ACAD_REACTORS
330
1932
102
}
330
1E
100
AcDbEntity
  8
STEMPEL
100
AcDbLine
 10
109.1197343052602
 20
244.601879498593
 30
0.0
 11
109.608667623723
 21
258.6030978445549
 31
0.0
  0
LINE
  5
15E9
102
{ACAD_REACTORS
330
18A8
330
1932
102
}
330
1E
100
AcDbEntity
  8
STEMPEL
100
AcDbLine
 10
237.1197343052599
 20
509.6064084124378
 30
0.0
 11
237.1197343052599
 21
456.6115474904708
 31
0.0
  0
LINE
  5
15EA
102
{ACAD_REACTORS
330
1819
330
18A8
330
18E5
102
}
330
1E
100
AcDbEntity
  8
STEMPEL
100
AcDbLine
 10
239.61973430526
 20
509.6064084124377
 30
0.0
 11
239.6197343052599
 21
456.6115474904708
 31
0.0
  0
LINE
  5
15EB
102
{ACAD_REACTORS
330
18A8
330
1932
102
}
330
1E
100
AcDbEntity
  8
STEMPEL
100
AcDbLine
 10
109.1197343052599
 20
509.6064084124403
 30
0.0
 11
109.1197343052599
 21
244.601879498593
 31
0.0
  0
LINE
  5
15EC
102
{ACAD_REACTORS
330
18A8
102
}
330
1E
100
AcDbEntity
  8
STEMPEL
100
AcDbLine
 10
106.6197343052599
 20
509.6064084124403
 30
0.0
 11
106.6197343052599
 21
242.601879498593
 31
0.0
  0
DIMENSION
  5
1603
330
1E
100
AcDbEntity
  8
SCHRAFF
100
AcDbDimension
  2
*D1
 10
128.6197343052599
 20
174.6516130846362
 30
0.0
 11
173.1197343052599
 21
181.1516130846362
 31
0.0
 70
    32
  1
%%c<>
 71
     5
 42
89.00000000000005
  3
Standard
100
AcDbAlignedDimension
 13
217.6197343052599
 23
201.5320219899392
 33
0.0
 14
128.6197343052599
 24
201.5320219899388
 34
0.0
100
AcDbRotatedDimension
1001
ACAD
1000
DSTYLE
1002
{
1070
    40
1040
2.0
1070
    41
1040
3.5
1070
    42
1040
1.0
1070
    43
1040
7.0
1070
    44
1040
1.0
1070
    73
1070
     0
1070
    74
1070
     0
1070
    77
1070
     1
1070
    78
1070
     8
1070
    79
1070
     2
1070
   140
1040
3.5
1070
   141
1040
1.5
1070
   146
1040
0.5142857142857144
1070
   147
1040
1.5
1070
   172
1070
     1
1070
   178
1070
     1
1070
   179
1070
     2
1070
   271
1070
     2
1070
   272
1070
     2
1070
   284
1070
     8
1070
   285
1070
     8
1070
   286
1070
     8
1002
}
  0
LINE
  5
165F
102
{ACAD_REACTORS
330
1932
330
194D
102
}
330
1E
100
AcDbEntity
  8
STEMPEL
100
AcDbLine
 10
109.1197343052602
 20
509.6064084124391
 30
0.0
 11
109.573725581442
 21
496.6057992394581
 31
0.0
  0
LINE
  5
1660
102
{ACAD_REACTORS
330
1932
330
194D
102
}
330
1E
100
AcDbEntity
  8
STEMPEL
100
AcDbLine
 10
109.573725581442
 20
496.6057992394581
 30
0.0
 11
110.6086250781446
 21
495.6064084124391
 31
0.0
  0
LINE
  5
1661
102
{ACAD_REACTORS
330
1932
330
194D
102
}
330
1E
100
AcDbEntity
  8
STEMPEL
100
AcDbLine
 10
122.0197343052601
 20
495.606408412439
 30
0.0
 11
110.6086250781446
 21
495.6064084124391
 31
0.0
  0
LINE
  5
1662
102
{ACAD_REACTORS
330
1932
330
194D
102
}
330
1E
100
AcDbEntity
  8
STEMPEL
100
AcDbLine
 10
235.6308435323758
 20
495.6064084124391
 30
0.0
 11
224.2197343052599
 21
495.6064084124391
 31
0.0
  0
LINE
  5
1663
102
{ACAD_REACTORS
330
1932
330
194D
102
}
330
1E
100
AcDbEntity
  8
STEMPEL
100
AcDbLine
 10
237.1197343052601
 20
509.6064084124391
 30
0.0
 11
236.6657430290782
 21
496.6057992394582
 31
0.0
  0
LINE
  5
1664
102
{ACAD_REACTORS
330
1932
330
194D
102
}
330
1E
100
AcDbEntity
  8
STEMPEL
100
AcDbLine
 10
236.6657430290782
 20
496.6057992394582
 30
0.0
 11
235.6308435323758
 21
495.6064084124391
 31
0.0
  0
DIMENSION
  5
1665
330
1E
100
AcDbEntity
  8
BEM
100
AcDbDimension
  2
*D2
 10
239.61973430526
 20
524.4236515457531
 30
0.0
 11
173.11973430526
 21
530.9236515457532
 31
0.0
 70
    32
  1
%%c<>
 71
     5
 42
133.0
  3
Standard
100
AcDbAlignedDimension
 13
106.61973430526
 23
509.6064084124391
 33
0.0
 14
239.61973430526
 24
509.6064084124391
 34
0.0
 50
180.0
100
AcDbRotatedDimension
1001
ACAD
1000
DSTYLE
1002
{
1070
    40
1040
2.0
1070
    41
1040
3.5
1070
    42
1040
1.0
1070
    43
1040
7.0
1070
    44
1040
1.0
1070
    73
1070
     0
1070
    74
1070
     0
1070
    77
1070
     1
1070
    78
1070
     8
1070
    79
1070
     2
1070
   140
1040
3.5
1070
   141
1040
1.5
1070
   146
1040
0.5142857142857144
1070
   147
1040
1.5
1070
   172
1070
     1
1070
   178
1070
     1
1070
   179
1070
     2
1070
   271
1070
     2
1070
   272
1070
     2
1070
   284
1070
     8
1070
   285
1070
     8
1070
   286
1070
     8
1002
}
  0
DIMENSION
  5
16AB
330
1E
100
AcDbEntity
  8
BEM
100
AcDbDimension
  2
*D3
 10
393.0101154745435
 20
425.4470587700656
 30
0.0
 11
350.5837086033503
 21
477.0658537966834
 31
0.0
 70
    32
  1
%%c<>
 71
     5
 42
133.0
  3
Standard
100
AcDbAlignedDimension
 13
287.3174794668874
 23
507.8448265580311
 33
0.0
 14
381.3626813646982
 24
413.7996246602202
 34
0.0
 50
135.0000000000002
100
AcDbRotatedDimension
1001
ACAD
1000
DSTYLE
1002
{
1070
    40
1040
2.0
1070
    41
1040
3.5
1070
    42
1040
1.0
1070
    43
1040
7.0
1070
    44
1040
1.0
1070
    73
1070
     0
1070
    74
1070
     0
1070
    77
1070
     1
1070
    78
1070
     8
1070
    79
1070
     2
1070
   140
1040
3.5
1070
   141
1040
1.5
1070
   146
1040
0.5142857142857144
1070
   147
1040
1.5
1070
   172
1070
     1
1070
   178
1070
     1
1070
   179
1070
     2
1070
   271
1070
     2
1070
   272
1070
     2
1070
   284
1070
     8
1070
   285
1070
     8
1070
   286
1070
     8
1002
}
  0
LINE
  5
16AC
102
{ACAD_REACTORS
330
1932
330
1983
102
}
330
1E
100
AcDbEntity
  8
STEMPEL
100
AcDbLine
 10
370.0810751959734
 20
406.6955930174035
 30
0.0
 11
368.6426147131677
 21
406.7207014385274
 31
0.0
  0
LINE
  5
16AD
102
{ACAD_REACTORS
330
1932
330
1983
102
}
330
1E
100
AcDbEntity
  8
STEMPEL
100
AcDbLine
 10
379.594914411732
 20
415.5673916131864
 30
0.0
 11
370.0810751959734
 21
406.6955930174035
 31
0.0
  0
LINE
  5
16AE
102
{ACAD_REACTORS
330
1932
330
1983
102
}
330
1E
100
AcDbEntity
  8
STEMPEL
100
AcDbLine
 10
368.6426147131677
 20
406.7207014385274
 30
0.0
 11
360.5737419978137
 21
414.7895741538815
 31
0.0
  0
LINE
  5
16AF
102
{ACAD_REACTORS
330
1820
330
18E5
102
}
330
1E
100
AcDbEntity
  8
STEMPEL
100
AcDbLine
 10
381.3626813646973
 20
413.7996246602193
 30
0.0
 11
239.61973430526
 21
272.056677600782
 31
0.0
  0
LINE
  5
16B0
102
{ACAD_REACTORS
330
18E5
330
1932
102
}
330
1E
100
AcDbEntity
  8
STEMPEL
100
AcDbLine
 10
379.5949144117309
 20
415.5673916131857
 30
0.0
 11
239.61973430526
 21
275.592211506715
 31
0.0
  0
LINE
  5
16B4
102
{ACAD_REACTORS
330
1932
330
1983
102
}
330
1E
100
AcDbEntity
  8
STEMPEL
100
AcDbLine
 10
288.3074289605487
 20
487.0558871911464
 30
0.0
 11
280.2385562451949
 21
495.1247599065003
 31
0.0
  0
LINE
  5
16B5
102
{ACAD_REACTORS
330
1932
330
1983
102
}
330
1E
100
AcDbEntity
  8
STEMPEL
100
AcDbLine
 10
280.2134478240708
 20
496.563220389306
 30
0.0
 11
280.2385562451949
 21
495.1247599065003
 31
0.0
  0
LINE
  5
16B6
102
{ACAD_REACTORS
330
1932
330
1983
102
}
330
1E
100
AcDbEntity
  8
STEMPEL
100
AcDbLine
 10
289.085246419854
 20
506.0770596050645
 30
0.0
 11
280.2134478240708
 21
496.563220389306
 31
0.0
  0
LINE
  5
16B7
102
{ACAD_REACTORS
330
1819
330
18E5
102
}
330
1E
100
AcDbEntity
  8
STEMPEL
100
AcDbLine
 10
287.3174794668884
 20
507.844826558032
 30
0.0
 11
239.61973430526
 21
460.1470813964036
 31
0.0
  0
LINE
  5
16B8
102
{ACAD_REACTORS
330
18E5
330
1932
102
}
330
1E
100
AcDbEntity
  8
STEMPEL
100
AcDbLine
 10
289.0852464198548
 20
506.0770596050657
 30
0.0
 11
239.61973430526
 21
456.6115474904708
 31
0.0
  0
LINE
  5
1783
102
{ACAD_REACTORS
330
18A8
330
1932
102
}
330
1E
100
AcDbEntity
  8
STEMPEL
100
AcDbLine
 10
239.61973430526
 20
456.6115474904708
 30
0.0
 11
237.1197343052599
 21
456.6115474904708
 31
0.0
  0
LINE
  5
1784
102
{ACAD_REACTORS
330
18A8
330
1932
102
}
330
1E
100
AcDbEntity
  8
STEMPEL
100
AcDbLine
 10
239.61973430526
 20
275.592211506715
 30
0.0
 11
237.11973430526
 21
275.592211506715
 31
0.0
  0
LINE
  5
1785
102
{ACAD_REACTORS
330
18A8
330
1932
102
}
330
1E
100
AcDbEntity
  8
STEMPEL
100
AcDbLine
 10
237.1197343052599
 20
275.592211506715
 30
0.0
 11
237.11973430526
 21
244.601879498593
 31
0.0
  0
LINE
  5
1786
102
{ACAD_REACTORS
330
1820
330
18A8
330
18E5
102
}
330
1E
100
AcDbEntity
  8
STEMPEL
100
AcDbLine
 10
239.61973430526
 20
275.592211506715
 30
0.0
 11
239.61973430526
 21
242.601879498593
 31
0.0
  0
DIMENSION
  5
1787
330
1E
100
AcDbEntity
  8
BEM
100
AcDbDimension
  2
*D4
 10
243.2196936731975
 20
229.5019201306554
 30
0.0
 11
319.2336726507509
 21
314.7082872636338
 31
0.0
 70
    32
 71
     5
 42
227.9999999999986
 51
315.0
  3
Standard
100
AcDbAlignedDimension
 13
381.3626813646973
 23
413.7996246602192
 33
0.0
 14
173.1197343052599
 24
299.6018794985928
 34
0.0
 50
45.00000000000002
100
AcDbRotatedDimension
1001
ACAD
1000
DSTYLE
1002
{
1070
    40
1040
2.0
1070
    41
1040
3.5
1070
    42
1040
1.0
1070
    43
1040
7.0
1070
    44
1040
1.0
1070
    73
1070
     0
1070
    74
1070
     0
1070
    77
1070
     1
1070
    78
1070
     8
1070
    79
1070
     2
1070
   140
1040
3.5
1070
   141
1040
1.5
1070
   146
1040
0.5142857142857144
1070
   147
1040
1.5
1070
   172
1070
     1
1070
   178
1070
     1
1070
   179
1070
     2
1070
   271
1070
     2
1070
   272
1070
     2
1070
   284
1070
     8
1070
   285
1070
     8
1070
   286
1070
     8
1002
}
  0
DIMENSION
  5
17AA
330
1E
100
AcDbEntity
  8
BEM
100
AcDbDimension
  2
*D5
 10
93.59975458781535
 20
194.601879498593
 30
0.0
 11
87.09975458781533
 21
219.601879498593
 31
0.0
 70
    32
 71
     5
 42
49.99999999999989
  3
Standard
100
AcDbAlignedDimension
 13
106.6197343052599
 23
244.601879498593
 33
0.0
 14
129.2260432098719
 24
194.601879498593
 34
0.0
 50
90.0
100
AcDbRotatedDimension
1001
ACAD
1000
DSTYLE
1002
{
1070
   279
1070
     1
1070
    40
1040
2.0
1070
    41
1040
3.5
1070
    42
1040
1.0
1070
    43
1040
7.0
1070
    44
1040
1.0
1070
    73
1070
     0
1070
    74
1070
     0
1070
    77
1070
     1
1070
    78
1070
     8
1070
    79
1070
     2
1070
   140
1040
3.5
1070
   141
1040
1.5
1070
   146
1040
0.5142857142857144
1070
   147
1040
1.5
1070
   172
1070
     1
1070
   178
1070
     1
1070
   179
1070
     2
1070
   271
1070
     2
1070
   272
1070
     2
1070
   284
1070
     8
1070
   285
1070
     8
1070
   286
1070
     8
1002
}
  0
DIMENSION
  5
17B7
330
1E
100
AcDbEntity
  8
BEM
100
AcDbDimension
  2
*D6
 10
62.27553529290116
 20
194.6018794985931
 30
0.0
 11
55.77553529290114
 21
352.1041439555168
 31
0.0
 70
    32
 71
     5
 42
315.0045289138473
  3
Standard
100
AcDbAlignedDimension
 13
106.6197343052599
 23
509.6064084124403
 33
0.0
 14
129.2260432098719
 24
194.601879498593
 34
0.0
 50
90.0
100
AcDbRotatedDimension
1001
ACAD
1000
DSTYLE
1002
{
1070
    40
1040
2.0
1070
    41
1040
3.5
1070
    42
1040
1.0
1070
    43
1040
7.0
1070
    44
1040
1.0
1070
    73
1070
     0
1070
    74
1070
     0
1070
    77
1070
     1
1070
    78
1070
     8
1070
    79
1070
     2
1070
   140
1040
3.5
1070
   141
1040
1.5
1070
   146
1040
0.5142857142857144
1070
   147
1040
1.5
1070
   172
1070
     1
1070
   178
1070
     1
1070
   179
1070
     2
1070
   271
1070
     2
1070
   272
1070
     2
1070
   284
1070
     8
1070
   285
1070
     8
1070
   286
1070
     8
1002
}
  0
LINE
  5
17DF
102
{ACAD_REACTORS
330
18C3
102
}
330
1E
100
AcDbEntity
  8
STEMPEL
100
AcDbLine
 10
257.8264600238382
 20
444.9783670429771
 30
0.0
 11
216.0197343052601
 21
403.1716413243989
 31
0.0
  0
ARC
  5
17E0
102
{ACAD_REACTORS
330
18C3
102
}
330
1E
100
AcDbEntity
  8
STEMPEL
100
AcDbCircle
 10
251.0382349244475
 20
451.766592142368
 30
0.0
 40
9.599999999999999
100
AcDbArc
 50
315.0
 51
347.3280641221605
  0
ARC
  5
17E2
102
{ACAD_REACTORS
330
18C3
102
}
330
1E
100
AcDbEntity
  8
STEMPEL
100
AcDbCircle
 10
270.5510771260733
 20
447.3792251398886
 30
0.0
 40
10.4
100
AcDbArc
 50
135.0
 51
167.3280641221605
  0
LINE
  5
17E4
102
{ACAD_REACTORS
330
18C3
102
}
330
1E
100
AcDbEntity
  8
STEMPEL
100
AcDbLine
 10
276.8239207441914
 20
468.3598898066868
 30
0.0
 11
263.1971666017334
 21
454.7331356642287
 31
0.0
  0
ARC
  5
17E5
102
{ACAD_REACTORS
330
18C3
102
}
330
1E
100
AcDbEntity
  8
STEMPEL
100
AcDbCircle
 10
267.2072685200545
 20
477.976542030824
 30
0.0
 40
13.6
100
AcDbArc
 50
315.0
 51
340.3077230980216
  0
ARC
  5
17E7
102
{ACAD_REACTORS
330
18C3
102
}
330
1E
100
AcDbEntity
  8
STEMPEL
100
AcDbCircle
 10
302.0027756355651
 20
465.3958948068359
 30
0.0
 40
23.40009324312573
100
AcDbArc
 50
134.8435140456522
 51
160.0329424415663
  0
LINE
  5
17E8
102
{ACAD_REACTORS
330
18C3
102
}
330
1E
100
AcDbEntity
  8
STEMPEL
100
AcDbLine
 10
290.4253895127034
 20
486.9111060435048
 30
0.0
 11
285.5047582408941
 21
481.9904747716955
 31
0.0
  0
ARC
  5
17E9
102
{ACAD_REACTORS
330
18C3
102
}
330
1E
100
AcDbEntity
  8
STEMPEL
  6
Continuous
100
AcDbCircle
 10
306.6888454799943
 20
470.6476500762144
 30
0.0
 40
23.0
100
AcDbArc
 50
110.0000000000037
 51
135.0
  0
LINE
  5
17EA
102
{ACAD_REACTORS
330
18C3
102
}
330
1E
100
AcDbEntity
  8
STEMPEL
  6
Continuous
100
AcDbLine
 10
301.8131684812126
 20
493.3491375437072
 30
0.0
 11
298.8223821835036
 21
492.2605803542902
 31
0.0
  0
LINE
  5
17EB
102
{ACAD_REACTORS
330
18D3
102
}
330
1E
100
AcDbEntity
  8
STEMPEL
100
AcDbLine
 10
318.4962218496441
 20
384.3086052171711
 30
0.0
 11
216.01973430526
 21
281.832117672787
 31
0.0
  0
ARC
  5
17EC
102
{ACAD_REACTORS
330
18D3
102
}
330
1E
100
AcDbEntity
  8
STEMPEL
100
AcDbCircle
 10
325.2844469490349
 20
377.5203801177805
 30
0.0
 40
9.599999999999999
100
AcDbArc
 50
102.6719358778398
 51
135.0
  0
ARC
  5
17EE
102
{ACAD_REACTORS
330
18D3
102
}
330
1E
100
AcDbEntity
  8
STEMPEL
100
AcDbCircle
 10
320.8970799465557
 20
397.0332223194064
 30
0.0
 40
10.4
100
AcDbArc
 50
282.6719358778398
 51
315.0
  0
LINE
  5
17F0
102
{ACAD_REACTORS
330
18D3
102
}
330
1E
100
AcDbEntity
  8
STEMPEL
100
AcDbLine
 10
341.8777446133536
 20
403.3060659375244
 30
0.0
 11
328.2509904708956
 21
389.6793117950664
 31
0.0
  0
ARC
  5
17F1
102
{ACAD_REACTORS
330
18D3
102
}
330
1E
100
AcDbEntity
  8
STEMPEL
100
AcDbCircle
 10
351.494396837491
 20
393.6894137133876
 30
0.0
 40
13.6
100
AcDbArc
 50
109.6922769019805
 51
135.0
  0
ARC
  5
17F3
102
{ACAD_REACTORS
330
18D3
102
}
330
1E
100
AcDbEntity
  8
STEMPEL
100
AcDbCircle
 10
338.9137496135029
 20
428.4849208288983
 30
0.0
 40
23.40009324312573
100
AcDbArc
 50
289.9670575584358
 51
315.1564859543478
  0
LINE
  5
17F4
102
{ACAD_REACTORS
330
18D3
102
}
330
1E
100
AcDbEntity
  8
STEMPEL
100
AcDbLine
 10
360.4289608501716
 20
416.9075347060365
 30
0.0
 11
355.5083295783622
 21
411.9869034342271
 31
0.0
  0
ARC
  5
17F5
102
{ACAD_REACTORS
330
18D3
102
}
330
1E
100
AcDbEntity
  8
STEMPEL
  6
Continuous
100
AcDbCircle
 10
344.1655048828811
 20
433.1709906733273
 30
0.0
 40
23.0
100
AcDbArc
 50
315.0
 51
339.9999999999917
  0
LINE
  5
17F6
102
{ACAD_REACTORS
330
18D3
102
}
330
1E
100
AcDbEntity
  8
STEMPEL
  6
Continuous
100
AcDbLine
 10
366.8669923503734
 20
428.2953136745436
 30
0.0
 11
365.7784351609568
 21
425.3045273768369
 31
0.0
  0
ARC
  5
17F7
102
{ACAD_REACTORS
330
187A
102
}
330
1E
100
AcDbEntity
  8
STEMPEL
  6
Continuous
100
AcDbCircle
 10
199.6197343052599
 20
497.001656949868
 30
0.0
 40
23.0
100
AcDbArc
 50
0.0
 51
24.99999999999056
  0
LINE
  5
17F8
102
{ACAD_REACTORS
330
187A
102
}
330
1E
100
AcDbEntity
  8
STEMPEL
  6
Continuous
100
AcDbLine
 10
219.1197343052603
 20
509.6064084124382
 30
0.0
 11
220.4648134071028
 21
506.721876969904
 31
0.0
  0
LINE
  5
17F9
102
{ACAD_REACTORS
330
188F
102
}
330
1E
100
AcDbEntity
  8
STEMPEL
  6
Continuous
100
AcDbLine
 10
127.1197343052604
 20
509.60640841244
 30
0.0
 11
125.774655203417
 21
506.721876969904
 31
0.0
  0
ARC
  5
17FA
102
{ACAD_REACTORS
330
188F
102
}
330
1E
100
AcDbEntity
  8
STEMPEL
  6
Continuous
100
AcDbCircle
 10
146.61973430526
 20
497.0016569498681
 30
0.0
 40
23.0
100
AcDbArc
 50
155.000000000005
 51
180.0
  0
LINE
  5
17FB
102
{ACAD_REACTORS
330
187A
102
}
330
1E
100
AcDbEntity
  8
STEMPEL
100
AcDbLine
 10
222.6197343052599
 20
497.001656949868
 30
0.0
 11
222.6197343052598
 21
490.0428334698379
 31
0.0
  0
LINE
  5
17FC
102
{ACAD_REACTORS
330
188F
102
}
330
1E
100
AcDbEntity
  8
STEMPEL
100
AcDbLine
 10
123.6197343052599
 20
497.0016569498682
 30
0.0
 11
123.6197343052599
 21
490.0428334698381
 31
0.0
  0
ARC
  5
17FD
102
{ACAD_REACTORS
330
187A
102
}
330
1E
100
AcDbEntity
  8
STEMPEL
100
AcDbCircle
 10
199.2197343052599
 20
489.9745534216488
 30
0.0
 40
23.40009324312573
100
AcDbArc
 50
334.9670575584353
 51
0.1564859543473851
  0
ARC
  5
17FE
102
{ACAD_REACTORS
330
187A
102
}
330
1E
100
AcDbEntity
  8
STEMPEL
100
AcDbCircle
 10
232.7197343052601
 20
474.266275349244
 30
0.0
 40
13.6
100
AcDbArc
 50
154.6922769019809
 51
180.0
  0
LINE
  5
1800
102
{ACAD_REACTORS
330
187A
102
}
330
1E
100
AcDbEntity
  8
STEMPEL
100
AcDbLine
 10
219.11973430526
 20
474.266275349244
 30
0.0
 11
219.11973430526
 21
454.995134829856
 31
0.0
  0
ARC
  5
1801
102
{ACAD_REACTORS
330
187A
102
}
330
1E
100
AcDbEntity
  8
STEMPEL
100
AcDbCircle
 10
208.71973430526
 20
454.995134829856
 30
0.0
 40
10.4
100
AcDbArc
 50
327.6719358778392
 51
0.0
  0
ARC
  5
1803
102
{ACAD_REACTORS
330
187A
102
}
330
1E
100
AcDbEntity
  8
STEMPEL
100
AcDbCircle
 10
225.61973430526
 20
444.2998087478704
 30
0.0
 40
9.599999999999999
100
AcDbArc
 50
147.6719358778391
 51
180.0
  0
LINE
  5
1805
102
{ACAD_REACTORS
330
187A
102
}
330
1E
100
AcDbEntity
  8
STEMPEL
100
AcDbLine
 10
216.0197343052601
 20
444.2998087478704
 30
0.0
 11
216.0197343052601
 21
403.1716413243989
 31
0.0
  0
LINE
  5
1806
102
{ACAD_REACTORS
330
188F
102
}
330
1E
100
AcDbEntity
  8
STEMPEL
100
AcDbLine
 10
130.2197343052599
 20
444.2998087478705
 30
0.0
 11
130.2197343052598
 21
201.6018794985929
 31
0.0
  0
ARC
  5
1807
102
{ACAD_REACTORS
330
188F
102
}
330
1E
100
AcDbEntity
  8
STEMPEL
100
AcDbCircle
 10
120.61973430526
 20
444.2998087478705
 30
0.0
 40
9.599999999999999
100
AcDbArc
 50
0.0
 51
32.32806412216082
  0
ARC
  5
1809
102
{ACAD_REACTORS
330
188F
102
}
330
1E
100
AcDbEntity
  8
STEMPEL
100
AcDbCircle
 10
137.51973430526
 20
454.995134829856
 30
0.0
 40
10.4
100
AcDbArc
 50
180.0
 51
212.3280641221608
  0
LINE
  5
180B
102
{ACAD_REACTORS
330
188F
102
}
330
1E
100
AcDbEntity
  8
STEMPEL
100
AcDbLine
 10
127.11973430526
 20
474.2662753492439
 30
0.0
 11
127.11973430526
 21
454.9951348298561
 31
0.0
  0
ARC
  5
180C
102
{ACAD_REACTORS
330
188F
102
}
330
1E
100
AcDbEntity
  8
STEMPEL
100
AcDbCircle
 10
113.5197343052599
 20
474.266275349244
 30
0.0
 40
13.6
100
AcDbArc
 50
0.0
 51
25.30772309802195
  0
ARC
  5
180E
102
{ACAD_REACTORS
330
188F
102
}
330
1E
100
AcDbEntity
  8
STEMPEL
100
AcDbCircle
 10
147.0197343052599
 20
489.9745534216488
 30
0.0
 40
23.40009324312573
100
AcDbArc
 50
179.8435140456526
 51
205.0329424415662
  0
LINE
  5
180F
102
{ACAD_REACTORS
330
188D
102
}
330
1E
100
AcDbEntity
  8
STEMPEL
100
AcDbLine
 10
216.01973430526
 20
281.832117672787
 30
0.0
 11
216.01973430526
 21
201.6018794985927
 31
0.0
  0
LINE
  5
1811
102
{ACAD_REACTORS
330
188D
102
}
330
1E
100
AcDbEntity
  8
STEMPEL
100
AcDbLine
 10
216.01973430526
 20
201.6018794985927
 30
0.0
 11
215.4073136605783
 21
194.6018794985929
 31
0.0
  0
LINE
  5
1813
102
{ACAD_REACTORS
330
188F
102
}
330
1E
100
AcDbEntity
  8
STEMPEL
100
AcDbLine
 10
130.2197343052598
 20
201.6018794985929
 30
0.0
 11
130.8321549499412
 21
194.601879498593
 31
0.0
  0
ARC
  5
1815
102
{ACAD_REACTORS
330
1819
102
}
330
1E
100
AcDbEntity
  8
SCHRAFF
100
AcDbCircle
 10
239.6197343052599
 20
460.1470813964036
 30
0.0
 40
4.0
100
AcDbArc
 50
45.00000000000029
 51
90.0
  0
HATCH
  5
1819
330
1E
100
AcDbEntity
  8
SCHRAFF
100
AcDbHatch
 10
0.0
 20
0.0
 30
0.0
210
0.0
220
0.0
230
1.0
  2
_USER
 70
     0
 71
     1
 91
        1
 92
        7
 72
     1
 73
     1
 93
        3
 10
239.6197343052599
 20
460.1470813964035
 42
0.0
 10
242.4481614300062
 20
462.9755085211497
 42
0.19891236737966
 10
239.6197343052599
 20
464.1470813964036
 42
0.0
 97
        3
330
15EA
330
16B7
330
1815
 75
     0
 76
     0
 52
0.0
 41
0.1
 77
     0
 78
     1
 53
0.0
 43
0.0
 44
-3.257839918458103
 45
0.0
 46
0.1
 79
     0
 47
0.0790359433334527
 98
        1
 10
240.4536867197912
 20
463.0472739234569
  0
ARC
  5
181B
102
{ACAD_REACTORS
330
1820
102
}
330
1E
100
AcDbEntity
  8
SCHRAFF
100
AcDbCircle
 10
236.3687660443376
 20
273.4032727453006
 30
0.0
 40
6.257385578091985
100
AcDbArc
 50
301.3014666519715
 51
13.69853334802851
  0
HATCH
  5
1820
330
1E
100
AcDbEntity
  8
SCHRAFF
100
AcDbHatch
 10
0.0
 20
0.0
 30
0.0
210
0.0
220
0.0
230
1.0
  2
_USER
 70
     0
 71
     1
 91
        1
 92
        7
 72
     1
 73
     1
 93
        3
 10
242.4481614300061
 20
274.8851047255282
 42
0.0
 10
239.61973430526
 20
272.0566776007821
 42
0.0
 10
239.61973430526
 20
268.0566776007821
 42
0.3268362154121942
 97
        3
330
16AF
330
1786
330
181B
 75
     0
 76
     0
 52
0.0
 41
0.1
 77
     0
 78
     1
 53
0.0
 43
0.0
 44
-3.257839918458103
 45
0.0
 46
0.1
 79
     0
 47
0.0790359460827689
 98
        1
 10
241.7191506588715
 20
271.3455997589544
  0
HATCH
  5
187A
330
1E
100
AcDbEntity
  8
SCHRAFF
100
AcDbHatch
 10
0.0
 20
0.0
 30
0.0
210
0.0
220
0.0
230
1.0
  2
_USER
 70
     0
 71
     1
 91
        1
 92
       33
 93
       18
 72
     2
 10
225.61973430526
 20
444.2998087478704
 40
9.599999999999999
 50
147.6719358778391
 51
180.0
 73
     1
 72
     2
 10
208.71973430526
 20
454.995134829856
 40
10.4
 50
327.6719358778392
 51
360.0
 73
     1
 72
     1
 10
219.11973430526
 20
474.266275349244
 11
219.11973430526
 21
454.995134829856
 72
     2
 10
232.7197343052601
 20
474.266275349244
 40
13.6
 50
154.6922769019809
 51
180.0
 73
     1
 72
     2
 10
199.2197343052599
 20
489.9745534216488
 40
23.40009324312573
 50
334.9670575584353
 51
360.1564859543474
 73
     1
 72
     1
 10
222.6197343052599
 20
497.001656949868
 11
222.6197343052598
 21
490.0428334698379
 72
     1
 10
219.1197343052603
 20
509.6064084124382
 11
220.4648134071028
 21
506.721876969904
 72
     2
 10
199.6197343052599
 20
497.001656949868
 40
23.0
 50
0.0
 51
24.99999999999056
 73
     1
 72
     1
 10
224.2197343052599
 20
497.001656949868
 11
224.2197343052598
 21
490.0428334698379
 72
     1
 10
220.71973430526
 20
474.266275349244
 11
220.71973430526
 21
454.995134829856
 72
     2
 10
208.71973430526
 20
454.995134829856
 40
12.0
 50
327.6719358778392
 51
360.0
 73
     1
 72
     2
 10
225.61973430526
 20
444.2998087478704
 40
8.0
 50
147.6719358778391
 51
180.0
 73
     1
 72
     2
 10
232.7197343052601
 20
474.266275349244
 40
12.0
 50
154.6922769019809
 51
180.0
 73
     1
 72
     2
 10
199.2197343052599
 20
489.9745534216488
 40
25.00009324312574
 50
334.9670575584353
 51
360.1564859543474
 73
     1
 72
     2
 10
199.6197343052599
 20
497.001656949868
 40
24.6
 50
0.0
 51
24.99999999999056
 73
     1
 72
     1
 10
220.8851389755999
 20
509.6064084124389
 11
221.9149058663615
 21
507.3980661886891
 72
     1
 10
216.0197343052601
 20
444.2998087478704
 11
216.0197343052601
 21
403.1716413243989
 72
     1
 10
217.6197343052601
 20
444.2998087478704
 11
217.6197343052601
 21
407.0343830241958
 97
       18
330
1803
330
1801
330
1800
330
17FE
330
17FD
330
17FB
330
17F8
330
17F7
330
13E8
330
13DD
330
13DC
330
13DB
330
13DA
330
13D9
330
13D6
330
13D5
330
1805
330
13CF
 75
     0
 76
     0
 52
45.0
 41
2.0
 77
     0
 78
     1
 53
45.0
 43
0.0
 44
-3.257839918458103
 45
-1.414213562373094
 46
1.414213562373095
 79
     0
 98
        1
 10
0.0
 20
-3.257839918458103
  0
HATCH
  5
188D
330
1E
100
AcDbEntity
  8
SCHRAFF
100
AcDbHatch
 10
0.0
 20
0.0
 30
0.0
210
0.0
220
0.0
230
1.0
  2
_USER
 70
     0
 71
     1
 91
        1
 92
        7
 72
     0
 73
     1
 93
        6
 10
217.6197343052599
 20
281.1693759729901
 10
216.01973430526
 20
281.832117672787
 10
216.01973430526
 20
201.6018794985925
 10
215.4073136605783
 20
194.6018794985929
 10
217.0134254006477
 20
194.6018794985929
 10
217.61973430526
 20
201.5320219899389
 97
        6
330
1399
330
180F
330
1811
330
13EA
330
13D2
330
13B3
 75
     0
 76
     0
 52
45.0
 41
2.0
 77
     0
 78
     1
 53
45.0
 43
0.0
 44
-3.257839918458103
 45
-1.414213562373094
 46
1.414213562373095
 79
     0
 47
0.6658482125132449
 98
        1
 10
216.8721174153825
 20
233.0096131484188
  0
HATCH
  5
188F
330
1E
100
AcDbEntity
  8
SCHRAFF
100
AcDbHatch
 10
0.0
 20
0.0
 30
0.0
210
0.0
220
0.0
230
1.0
  2
_USER
 70
     0
 71
     1
 91
        1
 92
       33
 93
       20
 72
     2
 10
147.0197343052599
 20
489.9745534216488
 40
23.40009324312573
 50
179.8435140456526
 51
205.0329424415662
 73
     1
 72
     2
 10
113.5197343052599
 20
474.266275349244
 40
13.6
 50
0.0
 51
25.30772309802195
 73
     1
 72
     1
 10
127.11973430526
 20
474.2662753492439
 11
127.11973430526
 21
454.9951348298561
 72
     2
 10
137.51973430526
 20
454.995134829856
 40
10.4
 50
180.0
 51
212.3280641221608
 73
     1
 72
     2
 10
120.61973430526
 20
444.2998087478705
 40
9.599999999999999
 50
0.0
 51
32.32806412216082
 73
     1
 72
     1
 10
123.6197343052599
 20
497.0016569498682
 11
123.6197343052599
 21
490.0428334698381
 72
     2
 10
146.61973430526
 20
497.0016569498681
 40
23.0
 50
155.000000000005
 51
180.0
 73
     1
 72
     1
 10
127.1197343052604
 20
509.60640841244
 11
125.774655203417
 21
506.721876969904
 72
     1
 10
122.0197343052599
 20
497.0016569498682
 11
122.0197343052599
 21
490.0428334698381
 72
     1
 10
125.51973430526
 20
474.2662753492439
 11
125.51973430526
 21
454.9951348298561
 72
     2
 10
137.51973430526
 20
454.995134829856
 40
12.0
 50
180.0
 51
212.3280641221608
 73
     1
 72
     2
 10
120.61973430526
 20
444.2998087478705
 40
8.0
 50
0.0
 51
32.32806412216082
 73
     1
 72
     2
 10
113.5197343052599
 20
474.266275349244
 40
12.0
 50
0.0
 51
25.30772309802195
 73
     1
 72
     2
 10
147.0197343052599
 20
489.9745534216488
 40
25.00009324312574
 50
179.8435140456526
 51
205.0329424415662
 73
     1
 72
     2
 10
146.61973430526
 20
497.0016569498681
 40
24.6
 50
155.000000000005
 51
180.0
 73
     1
 72
     1
 10
125.35432963492
 20
509.6064084124391
 11
124.3245627441583
 21
507.3980661886891
 72
     1
 10
130.2197343052599
 20
444.2998087478705
 11
130.2197343052598
 21
201.6018794985929
 72
     1
 10
128.6197343052599
 20
444.2998087478705
 11
128.6197343052599
 21
201.5320219899388
 72
     1
 10
130.2197343052598
 20
201.6018794985929
 11
130.8321549499412
 21
194.601879498593
 72
     1
 10
128.6197343052599
 20
201.5320219899388
 11
129.2260432098719
 21
194.601879498593
 97
       20
330
180E
330
180C
330
180B
330
1809
330
1807
330
17FC
330
17FA
330
17F9
330
13E7
330
13E2
330
13E1
330
13E0
330
13DF
330
13DE
330
13D8
330
13D7
330
1806
330
13CE
330
1813
330
13D3
 75
     0
 76
     0
 52
45.0
 41
2.0
 77
     0
 78
     1
 53
45.0
 43
0.0
 44
-3.257839918458103
 45
-1.414213562373094
 46
1.414213562373095
 79
     0
 98
        1
 10
0.0
 20
-3.257839918458103
  0
HATCH
  5
18A8
330
1E
100
AcDbEntity
  8
SCHRAFF
100
AcDbHatch
 10
0.0
 20
0.0
 30
0.0
210
0.0
220
0.0
230
1.0
  2
_USER
 70
     0
 71
     1
 91
        3
 92
        7
 72
     0
 73
     1
 93
        4
 10
237.1197343052599
 20
456.6115474904708
 10
239.6197343052599
 20
456.6115474904708
 10
239.61973430526
 20
509.6064084124377
 10
237.1197343052599
 20
509.6064084124378
 97
        4
330
13E9
330
15E9
330
1783
330
15EA
 92
        7
 72
     0
 73
     1
 93
        4
 10
106.6197343052599
 20
244.601879498593
 10
109.1197343052599
 20
244.601879498593
 10
109.1197343052599
 20
509.6064084124403
 10
106.6197343052599
 20
509.6064084124403
 97
        4
330
13E9
330
15EC
330
15DD
330
15EB
 92
        7
 72
     0
 73
     1
 93
        4
 10
239.61973430526
 20
275.592211506715
 10
237.11973430526
 20
275.592211506715
 10
237.1197343052599
 20
244.601879498593
 10
239.61973430526
 20
244.601879498593
 97
        4
330
1784
330
1785
330
15E1
330
1786
 75
     0
 76
     0
 52
135.0
 41
2.0
 77
     0
 78
     1
 53
135.0
 43
0.0
 44
-3.257839918458103
 45
-1.414213562373095
 46
-1.414213562373094
 79
     0
 47
0.6751283245114279
 98
        3
 10
238.190765377723
 20
471.5224759721186
 10
107.7993452928613
 20
471.5224759721186
 10
237.5151620951947
 20
263.5829508953791
  0
HATCH
  5
18C3
330
1E
100
AcDbEntity
  8
SCHRAFF
100
AcDbHatch
 10
0.0
 20
0.0
 30
0.0
210
0.0
220
0.0
230
1.0
  2
_USER
 70
     0
 71
     1
 91
        1
 92
       33
 93
       18
 72
     1
 10
301.8131684812126
 20
493.3491375437072
 11
298.8223821835036
 21
492.2605803542902
 72
     2
 10
306.6888454799943
 20
470.6476500762144
 40
23.0
 50
110.0000000000037
 51
135.0
 73
     1
 72
     1
 10
300.5648388672757
 20
494.5974671576427
 11
298.2751499541826
 21
493.7640885475477
 72
     1
 10
290.4253895127034
 20
486.9111060435048
 11
285.5047582408941
 21
481.9904747716955
 72
     1
 10
289.2940186628049
 20
488.0424768934033
 11
284.3733873909956
 21
483.121845621594
 72
     2
 10
306.6888454799943
 20
470.6476500762144
 40
24.6
 50
110.0000000000037
 51
135.0
 73
     1
 72
     2
 10
302.0027756355651
 20
465.3958948068359
 40
23.40009324312573
 50
134.8435140456522
 51
160.0329424415663
 73
     1
 72
     2
 10
267.2072685200545
 20
477.976542030824
 40
13.6
 50
315.0
 51
340.3077230980216
 73
     1
 72
     2
 10
302.0027756355651
 20
465.3958948068359
 40
25.00009324312574
 50
134.8435140456522
 51
160.0329424415663
 73
     1
 72
     2
 10
267.2072685200545
 20
477.976542030824
 40
12.0
 50
315.0
 51
340.3077230980216
 73
     1
 72
     1
 10
276.8239207441914
 20
468.3598898066868
 11
263.1971666017334
 21
454.7331356642287
 72
     1
 10
275.6925498942929
 20
469.4912606565853
 11
262.0657957518349
 21
455.8645065141273
 72
     2
 10
270.5510771260733
 20
447.3792251398886
 40
10.4
 50
135.0
 51
167.3280641221605
 73
     1
 72
     2
 10
251.0382349244475
 20
451.766592142368
 40
9.599999999999999
 50
315.0
 51
347.3280641221605
 73
     1
 72
     2
 10
251.0382349244475
 20
451.766592142368
 40
8.0
 50
315.0
 51
347.3280641221605
 73
     1
 72
     2
 10
270.5510771260733
 20
447.3792251398886
 40
12.0
 50
135.0
 51
167.3280641221605
 73
     1
 72
     1
 10
257.8264600238382
 20
444.9783670429771
 11
216.0197343052601
 21
403.1716413243989
 72
     1
 10
256.6950891739398
 20
446.1097378928755
 11
217.6197343052601
 21
407.0343830241958
 97
       18
330
17EA
330
17E9
330
13BC
330
17E8
330
13B5
330
13BB
330
17E7
330
17E5
330
13BA
330
13B9
330
17E4
330
13B6
330
17E2
330
17E0
330
13B8
330
13B7
330
17DF
330
13B4
 75
     0
 76
     0
 52
90.0
 41
2.0
 77
     0
 78
     1
 53
90.0
 43
0.0
 44
-3.257839918458103
 45
-2.0
 46
0.0000000000000001
 79
     0
 98
        1
 10
0.0
 20
-3.257839918458103
  0
HATCH
  5
18D3
330
1E
100
AcDbEntity
  8
SCHRAFF
100
AcDbHatch
 10
0.0
 20
0.0
 30
0.0
210
0.0
220
0.0
230
1.0
  2
_USER
 70
     0
 71
     1
 91
        1
 92
       33
 93
       18
 72
     1
 10
366.8669923503734
 20
428.2953136745436
 11
365.7784351609568
 21
425.3045273768369
 72
     2
 10
344.1655048828811
 20
433.1709906733273
 40
23.0
 50
315.0
 51
339.9999999999917
 73
     1
 72
     1
 10
360.4289608501716
 20
416.9075347060365
 11
355.5083295783622
 21
411.9869034342271
 72
     2
 10
338.9137496135029
 20
428.4849208288983
 40
23.40009324312573
 50
289.9670575584358
 51
315.1564859543478
 73
     1
 72
     2
 10
351.494396837491
 20
393.6894137133876
 40
13.6
 50
109.6922769019805
 51
135.0
 73
     1
 72
     1
 10
368.1153219643095
 20
427.0469840606086
 11
367.2819433542143
 21
424.7572951475158
 72
     2
 10
344.1655048828811
 20
433.1709906733273
 40
24.6
 50
315.0
 51
339.9999999999917
 73
     1
 72
     2
 10
338.9137496135029
 20
428.4849208288983
 40
25.00009324312574
 50
289.9670575584358
 51
315.1564859543478
 73
     1
 72
     1
 10
361.5603317000701
 20
415.7761638561381
 11
356.6397004282606
 21
410.8555325843286
 72
     2
 10
351.494396837491
 20
393.6894137133876
 40
12.0
 50
109.6922769019805
 51
135.0
 73
     1
 72
     1
 10
341.8777446133536
 20
403.3060659375244
 11
328.2509904708956
 21
389.6793117950664
 72
     2
 10
320.8970799465557
 20
397.0332223194064
 40
10.4
 50
282.6719358778398
 51
315.0
 73
     1
 72
     2
 10
320.8970799465557
 20
397.0332223194064
 40
12.0
 50
282.6719358778398
 51
315.0
 73
     1
 72
     1
 10
343.0091154632521
 20
402.1746950876259
 11
329.3823613207941
 21
388.5479409451679
 72
     2
 10
325.2844469490349
 20
377.5203801177805
 40
9.599999999999999
 50
102.6719358778398
 51
135.0
 73
     1
 72
     2
 10
325.2844469490349
 20
377.5203801177805
 40
8.0
 50
102.6719358778398
 51
135.0
 73
     1
 72
     1
 10
318.4962218496441
 20
384.3086052171711
 11
216.01973430526
 21
281.832117672787
 72
     1
 10
319.6275926995425
 20
383.1772343672727
 11
217.6197343052599
 21
281.1693759729901
 97
       18
330
17F6
330
17F5
330
17F4
330
17F3
330
17F1
330
13C9
330
13C8
330
13C7
330
13BF
330
13C6
330
17F0
330
17EE
330
13C4
330
13C3
330
17EC
330
13C5
330
17EB
330
13CA
 75
     0
 76
     0
 52
90.0
 41
2.0
 77
     0
 78
     1
 53
90.0
 43
0.0
 44
-3.257839918458103
 45
-2.0
 46
0.0000000000000001
 79
     0
 98
        1
 10
0.0
 20
-3.257839918458103
  0
HATCH
  5
18E5
330
1E
100
AcDbEntity
  8
SCHRAFF
100
AcDbHatch
 10
0.0
 20
0.0
 30
0.0
210
0.0
220
0.0
230
1.0
  2
_USER
 70
     0
 71
     1
 91
        2
 92
        7
 72
     0
 73
     1
 93
        4
 10
289.0852464198547
 20
506.0770596050656
 10
287.3174794668884
 20
507.8448265580321
 10
239.6197343052599
 20
460.1470813964036
 10
239.6197343052599
 20
456.6115474904707
 97
        4
330
13BE
330
16B7
330
15EA
330
16B8
 92
        7
 72
     0
 73
     1
 93
        4
 10
239.61973430526
 20
275.592211506715
 10
239.61973430526
 20
272.0566776007821
 10
381.3626813646973
 20
413.7996246602194
 10
379.5949144117309
 20
415.5673916131857
 97
        4
330
13BE
330
16B0
330
1786
330
16AF
 75
     0
 76
     0
 52
0.0
 41
2.0
 77
     0
 78
     1
 53
0.0
 43
0.0
 44
-3.257839918458103
 45
0.0
 46
2.0
 79
     0
 47
0.4825659503740966
 98
        2
 10
283.4631434431372
 20
501.4125640150439
 10
337.0656417181849
 20
371.6023229712598
  0
HATCH
  5
1932
330
1E
100
AcDbEntity
  8
SCHRAFF
100
AcDbHatch
 10
0.0
 20
0.0
 30
0.0
210
0.0
220
0.0
230
1.0
  2
HONEY
 70
     0
 71
     1
 91
        3
 92
        7
 72
     1
 73
     1
 93
       24
 10
256.6950891739398
 20
446.1097378928755
 42
0.1420008527982293
 10
258.8433718050978
 20
450.0116453413761
 42
-0.142000852798233
 10
262.0657957518349
 20
455.8645065141273
 42
0.0
 10
275.6925498942929
 20
469.4912606565853
 42
0.1092369723633883
 10
278.4790169985056
 20
473.8597852686952
 42
-0.1111415761505985
 10
284.3733873909956
 20
483.121845621594
 42
0.0
 10
288.3074289605484
 20
487.0558871911468
 42
0.0
 10
280.2385562451949
 20
495.1247599065003
 42
0.0
 10
280.2134478240708
 20
496.563220389306
 42
0.0
 10
289.0852464198579
 20
506.0770596050685
 42
0.0
 10
239.6197343052599
 20
456.6115474904708
 42
0.0
 10
237.1197343052599
 20
456.6115474904708
 42
0.0
 10
237.1197343052599
 20
509.6064084124333
 42
0.0
 10
236.6657430290783
 20
496.6057992394582
 42
0.0
 10
235.6308435323759
 20
495.6064084124391
 42
0.0
 10
224.2197343052599
 20
495.6064084124391
 42
0.0
 10
224.2197343052598
 20
490.0428334698379
 42
-0.1111415761501815
 10
221.8384178973387
 20
479.3256185112265
 42
0.1092369723642538
 10
220.71973430526
 20
474.266275349244
 42
0.0
 10
220.71973430526
 20
454.995134829856
 42
-0.1420008527982229
 10
218.8597343052602
 20
448.577939180665
 42
0.1420008527982394
 10
217.6197343052601
 20
444.2998087478705
 42
0.0
 10
217.6197343052601
 20
414.8737608134541
 42
-0.1989123673796615
 10
223.1630115003278
 20
412.5776602192635
 42
0.0
 97
       24
330
13B8
330
13B7
330
13B6
330
13B9
330
13BA
330
13B5
330
16B4
330
16B5
330
16B6
330
16B8
330
1783
330
15E9
330
1663
330
1664
330
1662
330
13E8
330
13D9
330
13DA
330
13DD
330
13DC
330
13DB
330
13CF
330
138E
330
13B4
 92
        7
 72
     1
 73
     1
 93
       18
 10
219.9158348994503
 20
283.4654765671805
 42
-0.2496198887185506
 10
217.6197343052599
 20
277.9221993721128
 42
0.0
 10
217.6197343052599
 20
260.601879498593
 42
0.0
 10
234.561001993392
 20
260.601879498593
 42
0.0
 10
236.6308009867971
 20
258.6030978445548
 42
0.0
 10
237.11973430526
 20
244.6018794985924
 42
0.0
 10
237.1197343052599
 20
275.5922115067149
 42
0.0
 10
239.61973430526
 20
275.5922115067149
 42
0.0
 10
379.5949144117263
 20
415.567391613181
 42
0.0
 10
370.0810751959734
 20
406.6955930174035
 42
0.0
 10
368.6426147131678
 20
406.7207014385274
 42
0.0
 10
360.5737419978137
 20
414.7895741538817
 42
0.0
 10
356.6397004282606
 20
410.8555325843286
 42
-0.1111415761504763
 10
347.3776400753733
 20
404.9611621918428
 42
0.1092369723636335
 10
343.0091154632524
 20
402.1746950876262
 42
0.0
 10
329.3823613207941
 20
388.5479409451679
 42
-0.1420008527982181
 10
323.5295001480437
 20
385.3255169984309
 42
0.1420008527982479
 10
319.6275926995425
 20
383.1772343672727
 42
0.0
 97
       18
330
16AD
330
16AC
330
16AE
330
13BF
330
13C7
330
13C6
330
13C3
330
13C4
330
13C5
330
13CA
330
138C
330
13B3
330
15E0
330
15E2
330
15E3
330
1785
330
1784
330
16B0
 92
        7
 72
     1
 73
     1
 93
       14
 10
109.1197343052599
 20
244.6018794985861
 42
0.0
 10
109.608667623723
 20
258.6030978445549
 42
0.0
 10
111.6784666171279
 20
260.601879498593
 42
0.0
 10
128.6197343052599
 20
260.601879498593
 42
0.0
 10
128.6197343052599
 20
444.2998087478705
 42
0.1420008527982311
 10
127.3797343052599
 20
448.5779391806647
 42
-0.1420008527982299
 10
125.51973430526
 20
454.9951348298561
 42
0.0
 10
125.51973430526
 20
474.2662753492439
 42
0.1092369723637921
 10
124.4010507131906
 20
479.3256185112065
 42
-0.1111415761504072
 10
122.0197343052599
 20
490.0428334698381
 42
0.0
 10
122.0197343052599
 20
495.606408412439
 42
0.0
 10
110.6086250781446
 20
495.606408412439
 42
0.0
 10
109.573725581442
 20
496.6057992394581
 42
0.0
 10
109.1197343052599
 20
509.6064084124471
 42
0.0
 97
       14
330
13E0
330
13E1
330
13E2
330
13DF
330
13DE
330
13E7
330
1661
330
1660
330
165F
330
15EB
330
15E8
330
15E7
330
15DE
330
13CE
 75
     0
 76
     1
 52
0.0
 41
30.0
 77
     0
 78
     3
 53
0.0
 43
0.0
 44
-3.257839918458103
 45
5.625
 46
3.247595249999999
 79
     2
 49
3.75
 49
-7.5
 53
120.0
 43
0.0
 44
-3.257839918458103
 45
-5.624999987709673
 46
3.247595271287468
 79
     2
 49
3.749999999999999
 49
-7.499999999999998
 53
60.0
 43
0.0
 44
-3.257839918458103
 45
0.0000000122903263
 46
6.495190521287468
 79
     2
 49
-7.5
 49
3.75
 47
0.6588881250779615
 98
        3
 10
241.0115824307404
 20
442.6183996880979
 10
266.7262936235829
 20
316.7707673500688
 10
114.4160782782373
 20
324.0185355794613
  0
HATCH
  5
194D
330
1E
100
AcDbEntity
  8
SCHRAFF
100
AcDbHatch
 10
0.0
 20
0.0
 30
0.0
210
0.0
220
0.0
230
1.0
  2
NET
 70
     0
 71
     1
 91
        2
 92
        7
 72
     1
 73
     1
 93
        7
 10
220.8851389756003
 20
509.606408412438
 42
0.0
 10
221.9149058663615
 20
507.3980661886891
 42
-0.1095178116832428
 10
224.2197343052599
 20
497.0016569498678
 42
0.0
 10
224.2197343052598
 20
495.6064084124391
 42
0.0
 10
235.6308435323758
 20
495.606408412439
 42
0.0
 10
236.6657430290782
 20
496.6057992394581
 42
0.0
 10
237.11973430526
 20
509.6064084124377
 42
0.0
 97
        7
330
13E9
330
13D5
330
13D6
330
13E8
330
1662
330
1664
330
1663
 92
        7
 72
     1
 73
     1
 93
        7
 10
109.1197343052602
 20
509.6064084124402
 42
0.0
 10
109.573725581442
 20
496.6057992394581
 42
0.0
 10
110.6086250781447
 20
495.606408412439
 42
0.0
 10
122.0197343052599
 20
495.6064084124391
 42
0.0
 10
122.0197343052599
 20
497.0016569498682
 42
-0.1095178116832388
 10
124.3245627441583
 20
507.3980661886891
 42
0.0
 10
125.3543296349204
 20
509.60640841244
 42
0.0
 97
        7
330
13D7
330
13E9
330
165F
330
1660
330
1661
330
13E7
330
13D8
 75
     0
 76
     1
 52
45.0
 41
20.0
 77
     0
 78
     2
 53
45.0
 43
0.0
 44
-3.257839918458103
 45
-1.767766952966368
 46
1.767766952966368
 79
     0
 53
135.0
 43
0.0
 44
-3.257839918458103
 45
-1.767766952966368
 46
-1.767766952966368
 79
     0
 47
0.6588881250779615
 98
        2
 10
229.1432554287894
 20
503.8949956777596
 10
115.7347821746589
 20
504.5538831897399
  0
HATCH
  5
1983
330
1E
100
AcDbEntity
  8
SCHRAFF
100
AcDbHatch
 10
0.0
 20
0.0
 30
0.0
210
0.0
220
0.0
230
1.0
  2
NET
 70
     0
 71
     1
 91
        2
 92
        7
 72
     1
 73
     1
 93
        7
 10
298.2751499541826
 20
493.7640885475477
 42
0.0
 10
300.5648388672768
 20
494.5974671576431
 42
0.0
 10
289.085246419855
 20
506.0770596050656
 42
0.0
 10
280.2134478240708
 20
496.563220389306
 42
0.0
 10
280.2385562451949
 20
495.1247599065003
 42
0.0
 10
288.3074289605484
 20
487.0558871911468
 42
0.0
 10
289.2940186628049
 20
488.0424768934033
 42
-0.1095178116832435
 97
        7
330
16B6
330
16B5
330
16B4
330
13B5
330
13BB
330
13BC
330
13BE
 92
        7
 72
     1
 73
     1
 93
        7
 10
368.6426147131677
 20
406.7207014385274
 42
0.0
 10
370.0810751959734
 20
406.6955930174035
 42
0.0
 10
379.5949144117311
 20
415.5673916131856
 42
0.0
 10
368.1153219643093
 20
427.0469840606079
 42
0.0
 10
367.2819433542143
 20
424.7572951475158
 42
-0.1095178116832426
 10
361.56033170007
 20
415.776163856138
 42
0.0
 10
360.5737419978137
 20
414.7895741538817
 42
0.0
 97
        7
330
13BE
330
13C9
330
13C8
330
13BF
330
16AE
330
16AC
330
16AD
 75
     0
 76
     1
 52
0.0
 41
20.0
 77
     0
 78
     2
 53
0.0
 43
0.0
 44
-3.257839918458103
 45
0.0
 46
2.5
 79
     0
 53
90.0
 43
0.0
 44
-3.257839918458103
 45
-2.5
 46
0.0000000000000002
 79
     0
 47
0.6588881250779615
 98
        2
 10
289.1442491082939
 20
495.9883371375824
 10
368.9257904796655
 20
412.9684336609389
  0
DIMENSION
  5
199F
330
1E
100
AcDbEntity
  8
SCHRAFF
100
AcDbDimension
  2
*D7
 10
78.54855912330598
 20
194.601879498593
 30
0.0
 11
78.54855912330595
 21
247.9624173969776
 31
0.0
 70
   160
 71
     5
 42
104.9999999999998
  3
Standard
100
AcDbAlignedDimension
 13
173.1197343052599
 23
299.6018794985928
 33
0.0
 14
129.2260432098719
 24
194.601879498593
 34
0.0
 50
90.0
100
AcDbRotatedDimension
1001
ACAD
1000
DSTYLE
1002
{
1070
    40
1040
2.0
1070
    41
1040
3.5
1070
    42
1040
1.0
1070
    43
1040
7.0
1070
    44
1040
1.0
1070
    73
1070
     0
1070
    74
1070
     0
1070
    77
1070
     1
1070
    78
1070
     8
1070
    79
1070
     2
1070
   140
1040
3.5
1070
   141
1040
1.5
1070
   146
1040
0.5142857142857144
1070
   147
1040
1.5
1070
   172
1070
     1
1070
   178
1070
     1
1070
   179
1070
     2
1070
   271
1070
     2
1070
   272
1070
     2
1070
   284
1070
     8
1070
   285
1070
     8
1070
   286
1070
     8
1002
}
  0
HATCH
  5
1AA2
330
1E
100
AcDbEntity
  8
SCHRAFF
100
AcDbHatch
 10
0.0
 20
0.0
 30
0.0
210
0.0
220
0.0
230
1.0
  2
NET
 70
     0
 71
     0
 91
        2
 92
        7
 72
     0
 73
     1
 93
       11
 10
236.6308009867972
 20
258.6030978445549
 10
234.5610019933921
 20
260.601879498593
 10
217.61973430526
 20
260.601879498593
 10
217.61973430526
 20
250.601879498593
 10
222.11973430526
 20
250.6018794985929
 10
225.5838359203977
 20
244.601879498593
 10
232.6197343052602
 20
244.6018794985928
 10
232.6197343052602
 20
242.601879498593
 10
239.61973430526
 20
242.6018794985929
 10
239.61973430526
 20
244.601879498593
 10
237.1197343052599
 20
244.6018794985929
 97
        0
 92
        7
 72
     0
 73
     1
 93
       11
 10
128.61973430526
 20
260.6018794985929
 10
111.6784666171279
 20
260.6018794985929
 10
109.608667623723
 20
258.6030978445549
 10
109.1197343052602
 20
244.601879498593
 10
106.6197343052599
 20
244.601879498593
 10
106.6197343052599
 20
242.601879498593
 10
113.6197343052602
 20
242.601879498593
 10
113.6197343052602
 20
244.6018794985929
 10
120.6556326901224
 20
244.6018794985928
 10
124.1197343052602
 20
250.601879498593
 10
128.61973430526
 20
250.601879498593
 97
        0
 75
     0
 76
     1
 52
45.0
 41
20.0
 77
     0
 78
     2
 53
45.0
 43
-51.84490079584384
 44
-22.36267667153066
 45
-1.767766952966368
 46
1.767766952966368
 79
     0
 53
135.0
 43
-51.84490079584384
 44
-22.36267667153066
 45
-1.767766952966368
 46
-1.767766952966368
 79
     0
 47
0.2159429178754844
 98
        2
 10
228.7261884549698
 20
251.6878811498326
 10
114.6395453273971
 20
251.9038240097791
  0
LINE
  5
1AA3
330
1E
100
AcDbEntity
  8
STEMPEL
100
AcDbLine
 10
232.6197343052602
 20
244.6018794985929
 30
0.0
 11
232.6197343052602
 21
242.6018794985929
 31
0.0
  0
POINT
  5
1AA4
330
1E
100
AcDbEntity
  8
STEMPEL
100
AcDbPoint
 10
232.6197343052602
 20
242.6018794985929
 30
0.0
  0
LINE
  5
1AA5
330
1E
100
AcDbEntity
  8
STEMPEL
100
AcDbLine
 10
239.61973430526
 20
242.601879498593
 30
0.0
 11
217.6197343052599
 21
242.601879498593
 31
0.0
  0
LINE
  5
1AA6
330
1E
100
AcDbEntity
  8
STEMPEL
100
AcDbLine
 10
232.6197343052602
 20
244.6018794985929
 30
0.0
 11
217.61973430526
 21
244.601879498593
 31
0.0
  0
LINE
  5
1AA7
330
1E
100
AcDbEntity
  8
STEMPEL
100
AcDbLine
 10
222.11973430526
 20
250.601879498593
 30
0.0
 11
225.5838359203977
 21
244.601879498593
 31
0.0
  0
LINE
  5
1AA8
330
1E
100
AcDbEntity
  8
STEMPEL
100
AcDbLine
 10
128.61973430526
 20
242.6018794985929
 30
0.0
 11
106.6197343052599
 21
242.601879498593
 31
0.0
  0
LINE
  5
1AA9
330
1E
100
AcDbEntity
  8
STEMPEL
100
AcDbLine
 10
128.61973430526
 20
244.6018794985928
 30
0.0
 11
113.6197343052602
 21
244.6018794985929
 31
0.0
  0
LINE
  5
1AAA
330
1E
100
AcDbEntity
  8
STEMPEL
100
AcDbLine
 10
113.6197343052602
 20
244.6018794985929
 30
0.0
 11
113.6197343052602
 21
242.6018794985929
 31
0.0
  0
LINE
  5
1AAB
330
1E
100
AcDbEntity
  8
STEMPEL
100
AcDbLine
 10
124.1197343052601
 20
250.601879498593
 30
0.0
 11
120.6556326901225
 21
244.601879498593
 31
0.0
  0
TEXT
  5
1AB3
330
1E
100
AcDbEntity
  8
TEXT
100
AcDbText
 10
138.622109822104
 20
73.14025471151666
 30
0.0
 40
4.0
  1
2007
 41
0.8
  7
GREEKS
100
AcDbText
  0
TEXT
  5
1AB4
330
1E
100
AcDbEntity
  8
TEXT
100
AcDbText
 10
160.398997108236
 20
63.10765040825732
 30
0.0
 40
4.0
  1
24.09.
 41
0.8
  7
GREEKS
 72
     1
 11
167.4085209177598
 21
63.10765040825732
 31
0.0
100
AcDbText
  0
LINE
  5
1AEB
330
1E
100
AcDbEntity
  8
BEM
100
AcDbLine
 10
339.2898278841008
 20
465.7719730774336
 30
0.0
 11
343.2417440119582
 21
469.723889205291
 31
0.0
  0
LINE
  5
1AEC
330
1E
100
AcDbEntity
  8
BEM
100
AcDbLine
 10
173.11973430526
 20
516.606408412442
 30
0.0
 11
173.11973430526
 21
521.2670911616387
 31
0.0
  0
ARC
  5
1AED
330
1E
100
AcDbEntity
  8
BEM
100
AcDbCircle
 10
173.1197343052599
 20
299.6018794985928
 30
0.0
 40
266.1848795608747
100
AcDbArc
 50
46.50677985535106
 51
88.49322014464894
  0
SOLID
  5
1AEE
330
1E
100
AcDbEntity
  8
BEM
100
AcDbTrace
 10
357.1405045262421
 20
493.542983198813
 30
0.0
 11
355.5124256768058
 21
491.8715156686281
 31
0.0
 12
361.3408676920788
 22
487.8230128854116
 32
0.0
 13
361.3408676920788
 23
487.8230128854116
 33
0.0
  0
SOLID
  5
1AEF
330
1E
100
AcDbEntity
  8
BEM
100
AcDbTrace
 10
180.103788949677
 20
564.5281519583802
 30
0.0
 11
180.1344693800611
 21
566.8612835782501
 31
0.0
 12
173.1197343052599
 22
565.7867590594674
 32
0.0
 13
173.1197343052599
 23
565.7867590594674
 33
0.0
  0
MTEXT
  5
1AF0
330
1E
100
AcDbEntity
  8
BEM
 62
     1
100
AcDbMText
 10
277.4717199696767
 20
551.5298585501902
 30
0.0
 40
7.0
 41
0.0
 71
     5
 72
     1
  1
\A1;45°
 11
0.9238795325112867
 21
-0.3826834323650898
 31
0.0
 73
     1
 44
1.0
  0
LINE
  5
1AF1
330
1E
100
AcDbEntity
  8
BEM
100
AcDbLine
 10
173.11973430526
 20
537.9319390218946
 30
0.0
 11
173.11973430526
 21
567.7867590594675
 31
0.0
  0
LINE
  5
1AF2
330
1E
100
AcDbEntity
  8
BEM
100
AcDbLine
 10
355.3653886513335
 20
481.8475338446662
 30
0.0
 11
362.755081254452
 21
489.2372264477847
 31
0.0
  0
ENDSEC
  0
SECTION
  2
OBJECTS
  0
DICTIONARY
  5
C
330
0
100
AcDbDictionary
281
     1
  3
ACAD_COLOR
350
DF
  3
ACAD_GROUP
350
D
  3
ACAD_LAYOUT
350
19
  3
ACAD_MATERIAL
350
DE
  3
ACAD_MLINESTYLE
350
16
  3
ACAD_PLOTSETTINGS
350
18
  3
ACAD_PLOTSTYLENAME
350
E
  3
AcDbVariableDictionary
350
EA
  0
DICTIONARY
  5
A0
330
1E
100
AcDbDictionary
280
     1
281
     1
  3
ACAD_LAYOUTSELFREF
360
D4
  0
DICTIONARY
  5
A2
330
1A
100
AcDbDictionary
280
     1
281
     1
  3
ACAD_LAYOUTSELFREF
360
D3
  0
DICTIONARY
  5
DF
102
{ACAD_REACTORS
330
C
102
}
330
C
100
AcDbDictionary
281
     1
  0
DICTIONARY
  5
D
102
{ACAD_REACTORS
330
C
102
}
330
C
100
AcDbDictionary
281
     1
  0
DICTIONARY
  5
19
102
{ACAD_REACTORS
330
C
102
}
330
C
100
AcDbDictionary
281
     1
  3
Layout1
350
1D
  3
Model
350
21
  0
DICTIONARY
  5
DE
102
{ACAD_REACTORS
330
C
102
}
330
C
100
AcDbDictionary
281
     1
  0
DICTIONARY
  5
16
102
{ACAD_REACTORS
330
C
102
}
330
C
100
AcDbDictionary
281
     1
  3
Standard
350
17
  0
DICTIONARY
  5
18
102
{ACAD_REACTORS
330
C
102
}
330
C
100
AcDbDictionary
281
     1
  0
ACDBDICTIONARYWDFLT
  5
E
102
{ACAD_REACTORS
330
C
102
}
330
C
100
AcDbDictionary
281
     1
  3
Normal
350
F
100
AcDbDictionaryWithDefault
340
F
  0
DICTIONARY
  5
EA
102
{ACAD_REACTORS
330
C
102
}
330
C
100
AcDbDictionary
281
     1
  3
DIMASSOC
350
EB
  3
PROJECTNAME
350
EC
  0
XRECORD
  5
D4
102
{ACAD_REACTORS
330
A0
102
}
330
A0
100
AcDbXrecord
280
     1
340
1E
  0
XRECORD
  5
D3
102
{ACAD_REACTORS
330
A2
102
}
330
A2
100
AcDbXrecord
280
     1
340
1A
  0
LAYOUT
  5
1D
102
{ACAD_REACTORS
330
19
102
}
330
19
100
AcDbPlotSettings
  1

  2
\\NT_WORK01\HP LaserJet 5000 PCL 6
  4

  6

 40
0.0
 41
0.0
 42
0.0
 43
0.0
 44
0.0
 45
0.0
 46
0.0
 47
0.0
 48
0.0
 49
0.0
140
0.0
141
0.0
142
1.0
143
1.0
 70
   688
 72
     0
 73
     0
 74
     5
  7

 75
    16
147
1.0
 76
     0
 77
     2
 78
   300
148
0.0
149
0.0
100
AcDbLayout
  1
Layout1
 70
     0
 71
     1
 10
0.0
 20
0.0
 11
12.0
 21
9.0
 12
0.0
 22
0.0
 32
0.0
 14
1.000000000000000E+20
 24
1.000000000000000E+20
 34
1.000000000000000E+20
 15
-1.000000000000000E+20
 25
-1.000000000000000E+20
 35
-1.000000000000000E+20
146
0.0
 13
0.0
 23
0.0
 33
0.0
 16
1.0
 26
0.0
 36
0.0
 17
0.0
 27
1.0
 37
0.0
 76
     0
330
1A
  0
LAYOUT
  5
21
102
{ACAD_REACTORS
330
19
102
}
330
19
100
AcDbPlotSettings
  1

  2
none_device
  4
Letter_(8.50_x_11.00_Inches)
  6

 40
6.349999904632568
 41
6.349999904632568
 42
6.350006103515625
 43
6.350006103515625
 44
215.8999938964844
 45
279.3999938964844
 46
0.0
 47
0.0
 48
0.0
 49
0.0
140
0.0
141
0.0
142
1.0
143
1.0
 70
 11952
 72
     0
 73
     1
 74
     0
  7

 75
     0
147
1.0
 76
     0
 77
     2
 78
   300
148
2299.19079060625
149
89.3907803160642
100
AcDbLayout
  1
Model
 70
     1
 71
     0
 10
0.0
 20
0.0
 11
12.0
 21
9.0
 12
0.0
 22
0.0
 32
0.0
 14
0.0
 24
0.0
 34
0.0
 15
0.0
 25
0.0
 35
0.0
146
0.0
 13
0.0
 23
0.0
 33
0.0
 16
1.0
 26
0.0
 36
0.0
 17
0.0
 27
1.0
 37
0.0
 76
     0
330
1E
  0
MLINESTYLE
  5
17
102
{ACAD_REACTORS
330
16
102
}
330
16
100
AcDbMlineStyle
  2
STANDARD
 70
     0
  3

 62
   256
 51
90.0
 52
90.0
 71
     2
 49
0.5
 62
   256
  6
BYLAYER
 49
-0.5
 62
   256
  6
BYLAYER
  0
ACDBPLACEHOLDER
  5
F
102
{ACAD_REACTORS
330
E
102
}
330
E
  0
DICTIONARYVAR
  5
EB
102
{ACAD_REACTORS
330
EA
102
}
330
EA
100
DictionaryVariables
280
     0
  1
1
  0
DICTIONARYVAR
  5
EC
102
{ACAD_REACTORS
330
EA
102
}
330
EA
100
DictionaryVariables
280
     0
  1

  0
ENDSEC
  0
EOF
