  0
SECTION
  2
HEADER
  9
$ACADVER
  1
AC1018
  9
$ACADMAINTVER
 70
     2
  9
$DWGCODEPAGE
  3
ANSI_1252
  9
$INSBASE
 10
0.0
 20
0.0
 30
0.0
  9
$EXTMIN
 10
-0.0090573584943741
 20
-0.0128083857496222
 30
-0.0000000000112498
  9
$EXTMAX
 10
594.0090656570853
 20
840.0128201211312
 30
0.0000000000002956
  9
$LIMMIN
 10
0.0
 20
0.0
  9
$LIMMAX
 10
594.0
 20
840.0
  9
$ORTHOMODE
 70
     0
  9
$REGENMODE
 70
     1
  9
$FILLMODE
 70
     1
  9
$QTEXTMODE
 70
     0
  9
$MIRRTEXT
 70
     1
  9
$LTSCALE
 40
20.0
  9
$ATTMODE
 70
     1
  9
$TEXTSIZE
 40
3.5
  9
$TRACEWID
 40
1.0
  9
$TEXTSTYLE
  7
STANDARD
  9
$CLAYER
  8
BEM
  9
$CELTYPE
  6
ByLayer
  9
$CECOLOR
 62
   256
  9
$CELTSCALE
 40
1.0
  9
$DISPSILH
 70
     0
  9
$DIMSCALE
 40
2.0
  9
$DIMASZ
 40
3.5
  9
$DIMEXO
 40
1.0
  9
$DIMDLI
 40
7.0
  9
$DIMRND
 40
0.0
  9
$DIMDLE
 40
0.0
  9
$DIMEXE
 40
1.0
  9
$DIMTP
 40
0.0
  9
$DIMTM
 40
0.0
  9
$DIMTXT
 40
3.5
  9
$DIMCEN
 40
1.5
  9
$DIMTSZ
 40
0.0
  9
$DIMTOL
 70
     0
  9
$DIMLIM
 70
     0
  9
$DIMTIH
 70
     0
  9
$DIMTOH
 70
     0
  9
$DIMSE1
 70
     0
  9
$DIMSE2
 70
     0
  9
$DIMTAD
 70
     1
  9
$DIMZIN
 70
     8
  9
$DIMBLK
  1

  9
$DIMASO
 70
     1
  9
$DIMSHO
 70
     0
  9
$DIMPOST
  1

  9
$DIMAPOST
  1

  9
$DIMALT
 70
     0
  9
$DIMALTD
 70
     2
  9
$DIMALTF
 40
25.4
  9
$DIMLFAC
 40
1.0
  9
$DIMTOFL
 70
     1
  9
$DIMTVP
 40
0.0
  9
$DIMTIX
 70
     0
  9
$DIMSOXD
 70
     0
  9
$DIMSAH
 70
     0
  9
$DIMBLK1
  1

  9
$DIMBLK2
  1

  9
$DIMSTYLE
  2
Standard
  9
$DIMCLRD
 70
     0
  9
$DIMCLRE
 70
     0
  9
$DIMCLRT
 70
     1
  9
$DIMTFAC
 40
0.5142857142857144
  9
$DIMGAP
 40
1.5
  9
$DIMJUST
 70
     0
  9
$DIMSD1
 70
     0
  9
$DIMSD2
 70
     0
  9
$DIMTOLJ
 70
     1
  9
$DIMTZIN
 70
     8
  9
$DIMALTZ
 70
     8
  9
$DIMALTTZ
 70
     8
  9
$DIMUPT
 70
     0
  9
$DIMDEC
 70
     2
  9
$DIMTDEC
 70
     2
  9
$DIMALTU
 70
     2
  9
$DIMALTTD
 70
     2
  9
$DIMTXSTY
  7
STANDARD
  9
$DIMAUNIT
 70
     0
  9
$DIMADEC
 70
     2
  9
$DIMALTRND
 40
0.0
  9
$DIMAZIN
 70
     2
  9
$DIMDSEP
 70
    46
  9
$DIMATFIT
 70
     3
  9
$DIMFRAC
 70
     0
  9
$DIMLDRBLK
  1

  9
$DIMLUNIT
 70
     2
  9
$DIMLWD
 70
    -2
  9
$DIMLWE
 70
    -2
  9
$DIMTMOVE
 70
     0
  9
$LUNITS
 70
     2
  9
$LUPREC
 70
     2
  9
$SKETCHINC
 40
1.0
  9
$FILLETRAD
 40
0.0
  9
$AUNITS
 70
     0
  9
$AUPREC
 70
     0
  9
$MENU
  1
ACAD
  9
$ELEVATION
 40
0.0
  9
$PELEVATION
 40
0.0
  9
$THICKNESS
 40
0.0
  9
$LIMCHECK
 70
     0
  9
$CHAMFERA
 40
0.0
  9
$CHAMFERB
 40
0.0
  9
$CHAMFERC
 40
0.0
  9
$CHAMFERD
 40
0.0
  9
$SKPOLY
 70
     0
  9
$TDCREATE
 40
2455397.825393172
  9
$TDUCREATE
 40
2455397.783726505
  9
$TDUPDATE
 40
2455532.479830590
  9
$TDUUPDATE
 40
2455532.438163924
  9
$TDINDWG
 40
0.1065606829
  9
$TDUSRTIMER
 40
0.1065606829
  9
$USRTIMER
 70
     1
  9
$ANGBASE
 50
0.0
  9
$ANGDIR
 70
     0
  9
$PDMODE
 70
     0
  9
$PDSIZE
 40
0.0
  9
$PLINEWID
 40
0.0
  9
$SPLFRAME
 70
     0
  9
$SPLINETYPE
 70
     6
  9
$SPLINESEGS
 70
     8
  9
$HANDSEED
  5
E31
  9
$SURFTAB1
 70
     6
  9
$SURFTAB2
 70
     6
  9
$SURFTYPE
 70
     6
  9
$SURFU
 70
     6
  9
$SURFV
 70
     6
  9
$UCSBASE
  2

  9
$UCSNAME
  2

  9
$UCSORG
 10
0.0
 20
0.0
 30
0.0
  9
$UCSXDIR
 10
1.0
 20
0.0
 30
0.0
  9
$UCSYDIR
 10
0.0
 20
1.0
 30
0.0
  9
$UCSORTHOREF
  2

  9
$UCSORTHOVIEW
 70
     0
  9
$UCSORGTOP
 10
0.0
 20
0.0
 30
0.0
  9
$UCSORGBOTTOM
 10
0.0
 20
0.0
 30
0.0
  9
$UCSORGLEFT
 10
0.0
 20
0.0
 30
0.0
  9
$UCSORGRIGHT
 10
0.0
 20
0.0
 30
0.0
  9
$UCSORGFRONT
 10
0.0
 20
0.0
 30
0.0
  9
$UCSORGBACK
 10
0.0
 20
0.0
 30
0.0
  9
$PUCSBASE
  2

  9
$PUCSNAME
  2

  9
$PUCSORG
 10
0.0
 20
0.0
 30
0.0
  9
$PUCSXDIR
 10
1.0
 20
0.0
 30
0.0
  9
$PUCSYDIR
 10
0.0
 20
1.0
 30
0.0
  9
$PUCSORTHOREF
  2

  9
$PUCSORTHOVIEW
 70
     0
  9
$PUCSORGTOP
 10
0.0
 20
0.0
 30
0.0
  9
$PUCSORGBOTTOM
 10
0.0
 20
0.0
 30
0.0
  9
$PUCSORGLEFT
 10
0.0
 20
0.0
 30
0.0
  9
$PUCSORGRIGHT
 10
0.0
 20
0.0
 30
0.0
  9
$PUCSORGFRONT
 10
0.0
 20
0.0
 30
0.0
  9
$PUCSORGBACK
 10
0.0
 20
0.0
 30
0.0
  9
$USERI1
 70
     0
  9
$USERI2
 70
     0
  9
$USERI3
 70
     0
  9
$USERI4
 70
     0
  9
$USERI5
 70
     0
  9
$USERR1
 40
0.0
  9
$USERR2
 40
0.0
  9
$USERR3
 40
0.0
  9
$USERR4
 40
0.0
  9
$USERR5
 40
0.0
  9
$WORLDVIEW
 70
     1
  9
$SHADEDGE
 70
     3
  9
$SHADEDIF
 70
    70
  9
$TILEMODE
 70
     1
  9
$MAXACTVP
 70
    16
  9
$PINSBASE
 10
0.0
 20
0.0
 30
0.0
  9
$PLIMCHECK
 70
     0
  9
$PEXTMIN
 10
1.000000000000000E+20
 20
1.000000000000000E+20
 30
1.000000000000000E+20
  9
$PEXTMAX
 10
-1.000000000000000E+20
 20
-1.000000000000000E+20
 30
-1.000000000000000E+20
  9
$PLIMMIN
 10
0.0
 20
0.0
  9
$PLIMMAX
 10
12.0
 20
9.0
  9
$UNITMODE
 70
     0
  9
$VISRETAIN
 70
     0
  9
$PLINEGEN
 70
     0
  9
$PSLTSCALE
 70
     0
  9
$TREEDEPTH
 70
  3020
  9
$CMLSTYLE
  2
Standard
  9
$CMLJUST
 70
     0
  9
$CMLSCALE
 40
1.0
  9
$PROXYGRAPHICS
 70
     1
  9
$MEASUREMENT
 70
     0
  9
$CELWEIGHT
370
    -1
  9
$ENDCAPS
280
     0
  9
$JOINSTYLE
280
     0
  9
$LWDISPLAY
290
     0
  9
$INSUNITS
 70
     0
  9
$HYPERLINKBASE
  1

  9
$STYLESHEET
  1
monochrome 1.ctb
  9
$XEDIT
290
     1
  9
$CEPSNTYPE
380
     0
  9
$PSTYLEMODE
290
     1
  9
$FINGERPRINTGUID
  2
{D68B0D0D-A558-11D7-B632-000102183313}
  9
$VERSIONGUID
  2
{2F5B34B2-F8F1-486B-AF16-E34B85DB7CAB}
  9
$EXTNAMES
290
     1
  9
$PSVPSCALE
 40
0.0
  9
$OLESTARTUP
290
     0
  9
$SORTENTS
280
   127
  9
$INDEXCTL
280
     0
  9
$HIDETEXT
280
     0
  9
$XCLIPFRAME
290
     0
  9
$HALOGAP
280
     0
  9
$OBSCOLOR
 70
   257
  9
$OBSLTYPE
280
     0
  9
$INTERSECTIONDISPLAY
280
     0
  9
$INTERSECTIONCOLOR
 70
   257
  9
$DIMASSOC
280
     1
  9
$PROJECTNAME
  1

  0
ENDSEC
  0
SECTION
  2
CLASSES
  0
CLASS
  1
ACDBDICTIONARYWDFLT
  2
AcDbDictionaryWithDefault
  3
ObjectDBX Classes
 90
        0
 91
        1
280
     0
281
     0
  0
CLASS
  1
DICTIONARYVAR
  2
AcDbDictionaryVar
  3
ObjectDBX Classes
 90
        0
 91
        2
280
     0
281
     0
  0
ENDSEC
  0
SECTION
  2
TABLES
  0
TABLE
  2
VPORT
  5
8
330
0
100
AcDbSymbolTable
 70
     2
  0
VPORT
  5
E30
330
8
100
AcDbSymbolTableRecord
100
AcDbViewportTableRecord
  2
*Active
 70
     0
 10
0.0
 20
0.0
 11
1.0
 21
1.0
 12
297.0000041492954
 22
420.0000058676908
 13
0.0
 23
0.0
 14
1.0
 24
1.0
 15
10.0
 25
10.0
 16
0.0
 26
0.0
 36
1.0
 17
0.0
 27
0.0
 37
0.0
 40
846.8091463683093
 41
1.336927223719676
 42
50.0
 43
0.0
 44
0.0
 50
0.0
 51
0.0
 71
     0
 72
  1500
 73
     1
 74
     0
 75
     0
 76
     0
 77
     0
 78
     0
281
     0
 65
     1
110
0.0
120
0.0
130
0.0
111
1.0
121
0.0
131
0.0
112
0.0
122
1.0
132
0.0
 79
     0
146
0.0
  0
ENDTAB
  0
TABLE
  2
LTYPE
  5
5
330
0
100
AcDbSymbolTable
 70
     2
  0
LTYPE
  5
13
330
5
100
AcDbSymbolTableRecord
100
AcDbLinetypeTableRecord
  2
ByBlock
 70
     0
  3

 72
    65
 73
     0
 40
0.0
  0
LTYPE
  5
14
330
5
100
AcDbSymbolTableRecord
100
AcDbLinetypeTableRecord
  2
ByLayer
 70
     0
  3

 72
    65
 73
     0
 40
0.0
  0
LTYPE
  5
15
330
5
100
AcDbSymbolTableRecord
100
AcDbLinetypeTableRecord
  2
Continuous
 70
     0
  3
Solid line
 72
    65
 73
     0
 40
0.0
  0
LTYPE
  5
25
330
5
100
AcDbSymbolTableRecord
100
AcDbLinetypeTableRecord
  2
STRICHPUNKT
 70
     0
  3
__ . __ . __ . __ . __ . __ . __ . __ . __ . __
 72
    65
 73
     4
 40
1.0
 49
0.5
 74
     0
 49
-0.25
 74
     0
 49
0.0
 74
     0
 49
-0.25
 74
     0
  0
ENDTAB
  0
TABLE
  2
LAYER
  5
2
330
0
100
AcDbSymbolTable
 70
     9
  0
LAYER
  5
10
330
2
100
AcDbSymbolTableRecord
100
AcDbLayerTableRecord
  2
0
 70
     0
 62
     7
  6
Continuous
370
    -3
390
F
  0
LAYER
  5
2B
330
2
100
AcDbSymbolTableRecord
100
AcDbLayerTableRecord
  2
VOLL
 70
     0
 62
     1
  6
Continuous
370
    -3
390
F
  0
LAYER
  5
2C
330
2
100
AcDbSymbolTableRecord
100
AcDbLayerTableRecord
  2
HILF
 70
     0
 62
     2
  6
Continuous
370
    -3
390
F
  0
LAYER
  5
2D
330
2
100
AcDbSymbolTableRecord
100
AcDbLayerTableRecord
  2
MITTEL
 70
     0
 62
     2
  6
STRICHPUNKT
370
    -3
390
F
  0
LAYER
  5
2F
330
2
100
AcDbSymbolTableRecord
100
AcDbLayerTableRecord
  2
BEM
 70
     0
 62
     7
  6
Continuous
370
    -3
390
F
  0
LAYER
  5
30
330
2
100
AcDbSymbolTableRecord
100
AcDbLayerTableRecord
  2
STEMPEL
 70
     0
 62
     3
  6
Continuous
370
    -3
390
F
  0
LAYER
  5
33
330
2
100
AcDbSymbolTableRecord
100
AcDbLayerTableRecord
  2
TEXT
 70
     0
 62
     7
  6
Continuous
370
    -3
390
F
  0
LAYER
  5
184
330
2
100
AcDbSymbolTableRecord
100
AcDbLayerTableRecord
  2
SCHRAFF
 70
     0
 62
     7
  6
Continuous
370
    -3
390
F
  0
LAYER
  5
306
330
2
100
AcDbSymbolTableRecord
100
AcDbLayerTableRecord
  2
DEFPOINTS
 70
     0
 62
     7
  6
Continuous
290
     0
370
    -3
390
F
  0
ENDTAB
  0
TABLE
  2
STYLE
  5
3
330
0
100
AcDbSymbolTable
 70
     2
  0
STYLE
  5
11
330
3
100
AcDbSymbolTableRecord
100
AcDbTextStyleTableRecord
  2
STANDARD
 70
     0
 40
0.0
 41
0.8
 50
0.0
 71
     0
 42
3.5
  3
simplex.shx
  4

  0
STYLE
  5
24
330
3
100
AcDbSymbolTableRecord
100
AcDbTextStyleTableRecord
  2
GREEKS
 70
     0
 40
0.0
 41
0.8
 50
0.0
 71
     0
 42
2.5
  3
SIMPLEX.shx
  4

  0
ENDTAB
  0
TABLE
  2
VIEW
  5
6
330
0
100
AcDbSymbolTable
 70
     0
  0
ENDTAB
  0
TABLE
  2
UCS
  5
7
330
0
100
AcDbSymbolTable
 70
     0
  0
ENDTAB
  0
TABLE
  2
APPID
  5
9
330
0
100
AcDbSymbolTable
 70
     1
  0
APPID
  5
12
330
9
100
AcDbSymbolTableRecord
100
AcDbRegAppTableRecord
  2
ACAD
 70
     0
  0
ENDTAB
  0
TABLE
  2
DIMSTYLE
  5
A
330
0
100
AcDbSymbolTable
 70
     1
100
AcDbDimStyleTable
 71
     1
340
A2
  0
DIMSTYLE
105
A2
102
{ACAD_REACTORS
330
7EE
330
83E
330
844
330
979
330
9D4
330
CE9
330
CF6
330
D15
330
D22
102
}
330
A
100
AcDbSymbolTableRecord
100
AcDbDimStyleTableRecord
  2
Standard
 70
     0
340
11
  0
ENDTAB
  0
TABLE
  2
BLOCK_RECORD
  5
1
330
0
100
AcDbSymbolTable
 70
    10
  0
BLOCK_RECORD
  5
1E
102
{ACAD_XDICTIONARY
360
DB
102
}
330
1
100
AcDbSymbolTableRecord
100
AcDbBlockTableRecord
  2
*Model_Space
340
21
  0
BLOCK_RECORD
  5
1A
102
{ACAD_XDICTIONARY
360
DD
102
}
330
1
100
AcDbSymbolTableRecord
100
AcDbBlockTableRecord
  2
*Paper_Space
340
1D
  0
BLOCK_RECORD
  5
22
330
1
100
AcDbSymbolTableRecord
100
AcDbBlockTableRecord
  2
LOGO
340
0
102
{BLKREFS
331
2AF
102
}
  0
BLOCK_RECORD
  5
898
330
1
100
AcDbSymbolTableRecord
100
AcDbBlockTableRecord
  2
*D1
340
0
  0
BLOCK_RECORD
  5
8A4
330
1
100
AcDbSymbolTableRecord
100
AcDbBlockTableRecord
  2
*D2
340
0
  0
BLOCK_RECORD
  5
8B0
330
1
100
AcDbSymbolTableRecord
100
AcDbBlockTableRecord
  2
*D3
340
0
  0
BLOCK_RECORD
  5
994
330
1
100
AcDbSymbolTableRecord
100
AcDbBlockTableRecord
  2
*D4
340
0
  0
BLOCK_RECORD
  5
9F2
330
1
100
AcDbSymbolTableRecord
100
AcDbBlockTableRecord
  2
*D5
340
0
  0
BLOCK_RECORD
  5
CEA
330
1
100
AcDbSymbolTableRecord
100
AcDbBlockTableRecord
  2
*D6
340
0
  0
BLOCK_RECORD
  5
CF7
330
1
100
AcDbSymbolTableRecord
100
AcDbBlockTableRecord
  2
*D7
340
0
  0
BLOCK_RECORD
  5
D16
330
1
100
AcDbSymbolTableRecord
100
AcDbBlockTableRecord
  2
*D8
340
0
  0
BLOCK_RECORD
  5
D23
330
1
100
AcDbSymbolTableRecord
100
AcDbBlockTableRecord
  2
*D9
340
0
  0
ENDTAB
  0
ENDSEC
  0
SECTION
  2
BLOCKS
  0
BLOCK
  5
37
330
1E
100
AcDbEntity
  8
0
100
AcDbBlockBegin
  2
*Model_Space
 70
     0
 10
0.0
 20
0.0
 30
0.0
  3
*Model_Space
  1

  0
ENDBLK
  5
38
330
1E
100
AcDbEntity
  8
0
100
AcDbBlockEnd
  0
BLOCK
  5
35
330
1A
100
AcDbEntity
 67
     1
  8
0
100
AcDbBlockBegin
  2
*Paper_Space
 70
     0
 10
0.0
 20
0.0
 30
0.0
  3
*Paper_Space
  1

  0
ENDBLK
  5
36
330
1A
100
AcDbEntity
 67
     1
  8
0
100
AcDbBlockEnd
  0
BLOCK
  5
39
330
22
100
AcDbEntity
  8
0
100
AcDbBlockBegin
  2
LOGO
 70
     0
 10
0.0
 20
0.0
 30
0.0
  3
LOGO
  1

  0
ARC
  5
3A
330
22
100
AcDbEntity
  8
0
100
AcDbCircle
 10
11.59973089678112
 20
-9.271599258481501
 30
0.0
 40
4.5
100
AcDbArc
 50
270.0
 51
231.0575587310159
  0
LINE
  5
3B
330
22
100
AcDbEntity
  8
0
100
AcDbLine
 10
3.599730896781125
 20
-4.771599258481529
 30
0.0
 11
3.599730896781153
 21
-11.77159925848133
 31
0.0
  0
LINE
  5
3C
330
22
100
AcDbEntity
  8
0
100
AcDbLine
 10
2.599730896781125
 20
-4.771599258481529
 30
0.0
 11
2.599730896781153
 21
-11.77159925848133
 31
0.0
  0
CIRCLE
  5
3D
330
22
100
AcDbEntity
  8
0
100
AcDbCircle
 10
11.59973089678112
 20
-9.271599258481501
 30
0.0
 40
3.5
  0
ARC
  5
3E
330
22
100
AcDbEntity
  8
0
100
AcDbCircle
 10
31.59973089678115
 20
-9.271599258481472
 30
0.0
 40
4.5
100
AcDbArc
 50
270.0
 51
231.0575587310182
  0
LINE
  5
3F
330
22
100
AcDbEntity
  8
0
100
AcDbLine
 10
17.59973089678112
 20
-4.771599258481472
 30
0.0
 11
17.59973089678115
 21
-13.77159925848147
 31
0.0
  0
ARC
  5
40
330
22
100
AcDbEntity
  8
0
100
AcDbCircle
 10
22.59973089678116
 20
-7.271599258481472
 30
0.0
 40
2.5
100
AcDbArc
 50
293.1161887722295
 51
90.0
  0
CIRCLE
  5
41
330
22
100
AcDbEntity
  8
0
100
AcDbCircle
 10
31.59973089678115
 20
-9.271599258481472
 30
0.0
 40
3.5
  0
ARC
  5
42
330
22
100
AcDbEntity
  8
0
100
AcDbCircle
 10
4.599730896781153
 20
-11.77159925848133
 30
0.0
 40
1.0
100
AcDbArc
 50
180.0
 51
270.0
  0
ARC
  5
43
330
22
100
AcDbEntity
  8
0
100
AcDbCircle
 10
4.599730896781153
 20
-11.77159925848133
 30
0.0
 40
2.0
100
AcDbArc
 50
179.9999999999992
 51
270.0
  0
LINE
  5
44
330
22
100
AcDbEntity
  8
0
100
AcDbLine
 10
11.59973089678115
 20
-13.77159925848144
 30
0.0
 11
4.599730896781153
 21
-13.77159925848147
 31
0.0
  0
LINE
  5
45
330
22
100
AcDbEntity
  8
0
100
AcDbLine
 10
8.771303772034769
 20
-12.77159925848136
 30
0.0
 11
4.599730896781153
 21
-12.77159925848133
 31
0.0
  0
LINE
  5
46
330
22
100
AcDbEntity
  8
0
100
AcDbLine
 10
31.59973089678115
 20
-13.77159925848147
 30
0.0
 11
23.6715276665056
 21
-13.77159925848144
 31
0.0
  0
LINE
  5
47
330
22
100
AcDbEntity
  8
0
100
AcDbLine
 10
23.56565672307022
 20
-9.51278021337896
 30
0.0
 11
24.4388546544846
 21
-12.77159925848144
 31
0.0
  0
LINE
  5
48
330
22
100
AcDbEntity
  8
0
100
AcDbLine
 10
22.59973089678116
 20
-9.771599258481472
 30
0.0
 11
18.59973089678112
 21
-9.771599258481472
 31
0.0
  0
LINE
  5
49
330
22
100
AcDbEntity
  8
0
100
AcDbLine
 10
18.59973089678115
 20
-13.77159925848144
 30
0.0
 11
17.59973089678115
 21
-13.77159925848144
 31
0.0
  0
LINE
  5
4A
330
22
100
AcDbEntity
  8
0
100
AcDbLine
 10
18.59973089678115
 20
-9.771599258481472
 30
0.0
 11
18.59973089678115
 21
-13.77159925848144
 31
0.0
  0
LINE
  5
4B
330
22
100
AcDbEntity
  8
0
100
AcDbLine
 10
22.59973089678116
 20
-9.771599258481472
 30
0.0
 11
23.67152766650562
 21
-13.77159925848147
 31
0.0
  0
ARC
  5
4C
330
22
100
AcDbEntity
  8
0
100
AcDbCircle
 10
22.59973089678116
 20
-7.271599258481472
 30
0.0
 40
2.5
100
AcDbArc
 50
270.0
 51
270.0000000000007
  0
LINE
  5
4D
330
22
100
AcDbEntity
  8
0
100
AcDbLine
 10
28.77130377203494
 20
-12.77159925848147
 30
0.0
 11
24.43885465448463
 21
-12.77159925848144
 31
0.0
  0
LINE
  5
4E
330
22
100
AcDbEntity
  8
0
100
AcDbLine
 10
3.599730896781125
 20
-4.771599258481472
 30
0.0
 11
2.599730896781125
 21
-4.771599258481472
 31
0.0
  0
LINE
  5
4F
330
22
100
AcDbEntity
  8
0
100
AcDbLine
 10
22.59973089678116
 20
-8.771599258481472
 30
0.0
 11
18.59973089678115
 21
-8.771599258481472
 31
0.0
  0
LINE
  5
50
330
22
100
AcDbEntity
  8
0
100
AcDbLine
 10
22.59973089678116
 20
-5.771599258481472
 30
0.0
 11
18.59973089678115
 21
-5.771599258481472
 31
0.0
  0
LINE
  5
51
330
22
100
AcDbEntity
  8
0
100
AcDbLine
 10
22.59973089678116
 20
-4.771599258481472
 30
0.0
 11
17.59973089678115
 21
-4.771599258481472
 31
0.0
  0
LINE
  5
52
330
22
100
AcDbEntity
  8
0
100
AcDbLine
 10
18.59973089678115
 20
-5.771599258481472
 30
0.0
 11
18.59973089678115
 21
-8.771599258481472
 31
0.0
  0
ARC
  5
53
330
22
100
AcDbEntity
  8
0
100
AcDbCircle
 10
22.59973089678116
 20
-7.271599258481472
 30
0.0
 40
1.5
100
AcDbArc
 50
270.0
 51
90.0
  0
ENDBLK
  5
54
330
22
100
AcDbEntity
  8
0
100
AcDbBlockEnd
  0
BLOCK
  5
8A2
330
898
100
AcDbEntity
  8
0
100
AcDbBlockBegin
  2
*D1
 70
     1
 10
0.0
 20
0.0
 30
0.0
  3
*D1
  1

  0
LINE
  5
8EF
330
898
100
AcDbEntity
  8
BEM
 62
     0
370
    -2
100
AcDbLine
 10
246.6009076157424
 20
513.8744711401272
 30
0.0
 11
172.9248476135708
 21
440.2052772084356
 31
0.0
  0
LINE
  5
8F0
330
898
100
AcDbEntity
  8
BEM
 62
     0
370
    -2
100
AcDbLine
 10
249.4294665379299
 20
328.6211267871342
 30
0.0
 11
269.7942259644317
 21
348.983988366852
 31
0.0
  0
LINE
  5
8F1
330
898
100
AcDbEntity
  8
BEM
 62
     0
370
    -2
100
AcDbLine
 10
179.2886438866998
 20
436.6694467551886
 30
0.0
 11
263.4304296913027
 21
352.519818820099
 31
0.0
  0
SOLID
  5
8F2
330
898
100
AcDbEntity
  8
BEM
 62
     0
100
AcDbTrace
 10
180.1136402390045
 20
437.4943662238611
 30
0.0
 11
178.463647534395
 21
435.8445272865161
 31
0.0
 12
174.3391270746646
 22
441.6194248690171
 32
0.0
 13
174.3391270746646
 23
441.6194248690171
 33
0.0
  0
SOLID
  5
8F3
330
898
100
AcDbEntity
  8
BEM
 62
     0
100
AcDbTrace
 10
264.2554260436075
 20
353.3447382887715
 30
0.0
 11
262.6054333389979
 21
351.6948993514265
 31
0.0
 12
268.3799465033378
 22
347.5698407062705
 32
0.0
 13
268.3799465033378
 23
347.5698407062705
 33
0.0
  0
MTEXT
  5
8F4
330
898
100
AcDbEntity
  8
BEM
 62
     1
100
AcDbMText
 10
225.9568148003698
 20
399.189742840657
 30
0.0
 40
7.0
 41
0.0
 71
     5
 72
     1
  1
\A1;%%c133
 11
0.7070738302907386
 21
-0.7071397305469294
 31
0.0
 73
     1
 44
1.0
  0
POINT
  5
8F5
330
898
100
AcDbEntity
  8
DEFPOINTS
 62
     0
100
AcDbPoint
 10
248.0151870768363
 20
515.2886188007085
 30
0.0
  0
POINT
  5
8F6
330
898
100
AcDbEntity
  8
DEFPOINTS
 62
     0
100
AcDbPoint
 10
248.0151870768361
 20
327.2069791265527
 30
0.0
  0
POINT
  5
8F7
330
898
100
AcDbEntity
  8
DEFPOINTS
 62
     0
100
AcDbPoint
 10
268.3799465033378
 20
347.5698407062705
 30
0.0
  0
ENDBLK
  5
8A3
330
898
100
AcDbEntity
  8
0
100
AcDbBlockEnd
  0
BLOCK
  5
8AE
330
8A4
100
AcDbEntity
  8
0
100
AcDbBlockBegin
  2
*D2
 70
     1
 10
0.0
 20
0.0
 30
0.0
  3
*D2
  1

  0
LINE
  5
E14
330
8A4
100
AcDbEntity
  8
BEM
 62
     0
370
    -2
100
AcDbLine
 10
113.7055467911851
 20
224.7352155798822
 30
0.0
 11
63.82841784980068
 21
224.7352155798822
 31
0.0
  0
LINE
  5
E15
330
8A4
100
AcDbEntity
  8
BEM
 62
     0
370
    -2
100
AcDbLine
 10
179.5151870768362
 20
354.7352155798823
 30
0.0
 11
63.82841784980071
 21
354.7352155798823
 31
0.0
  0
LINE
  5
E16
330
8A4
100
AcDbEntity
  8
BEM
 62
     0
370
    -2
100
AcDbLine
 10
65.82841784980068
 20
231.7352155798821
 30
0.0
 11
65.8284178498007
 21
347.7352155798823
 31
0.0
  0
SOLID
  5
E17
330
8A4
100
AcDbEntity
  8
BEM
 62
     0
100
AcDbTrace
 10
64.66175118313401
 20
231.7352155798821
 30
0.0
 11
66.99508451646735
 21
231.7352155798821
 31
0.0
 12
65.82841784980068
 22
224.7352155798822
 32
0.0
 13
65.82841784980068
 23
224.7352155798822
 33
0.0
  0
SOLID
  5
E18
330
8A4
100
AcDbEntity
  8
BEM
 62
     0
100
AcDbTrace
 10
64.66175118313403
 20
347.7352155798823
 30
0.0
 11
66.99508451646737
 21
347.7352155798823
 31
0.0
 12
65.82841784980072
 22
354.7352155798823
 32
0.0
 13
65.82841784980072
 23
354.7352155798823
 33
0.0
  0
MTEXT
  5
E19
330
8A4
100
AcDbEntity
  8
BEM
 62
     1
100
AcDbMText
 10
59.32841784980065
 20
295.1166536749763
 30
0.0
 40
7.0
 41
0.0
 71
     5
 72
     1
  1
\A1;130
 11
0.0000000000000001
 21
1.0
 31
0.0
 73
     1
 44
1.0
  0
POINT
  5
E1A
330
8A4
100
AcDbEntity
  8
DEFPOINTS
 62
     0
100
AcDbPoint
 10
115.7055467911851
 20
224.7352155798822
 30
0.0
  0
POINT
  5
E1B
330
8A4
100
AcDbEntity
  8
DEFPOINTS
 62
     0
100
AcDbPoint
 10
181.5151870768362
 20
354.7352155798823
 30
0.0
  0
POINT
  5
E1C
330
8A4
100
AcDbEntity
  8
DEFPOINTS
 62
     0
100
AcDbPoint
 10
65.82841784980072
 20
354.7352155798823
 30
0.0
  0
ENDBLK
  5
8AF
330
8A4
100
AcDbEntity
  8
0
100
AcDbBlockEnd
  0
BLOCK
  5
8BA
330
8B0
100
AcDbEntity
  8
0
100
AcDbBlockBegin
  2
*D3
 70
     1
 10
0.0
 20
0.0
 30
0.0
  3
*D3
  1

  0
LINE
  5
901
330
8B0
100
AcDbEntity
  8
BEM
 62
     0
370
    -2
100
AcDbLine
 10
115.0151870768359
 20
230.6260632226145
 30
0.0
 11
115.0151870768359
 21
201.3821408825096
 31
0.0
  0
LINE
  5
902
330
8B0
100
AcDbEntity
  8
BEM
 62
     0
370
    -2
100
AcDbLine
 10
248.0151870768361
 20
230.6260632226109
 30
0.0
 11
248.0151870768361
 21
201.3821408825096
 31
0.0
  0
LINE
  5
903
330
8B0
100
AcDbEntity
  8
BEM
 62
     0
370
    -2
100
AcDbLine
 10
122.0151870768359
 20
203.3821408825096
 30
0.0
 11
241.0151870768361
 21
203.3821408825096
 31
0.0
  0
SOLID
  5
904
330
8B0
100
AcDbEntity
  8
BEM
 62
     0
100
AcDbTrace
 10
122.0151870768359
 20
204.5488075491762
 30
0.0
 11
122.0151870768359
 21
202.2154742158429
 31
0.0
 12
115.0151870768359
 22
203.3821408825096
 32
0.0
 13
115.0151870768359
 23
203.3821408825096
 33
0.0
  0
SOLID
  5
905
330
8B0
100
AcDbEntity
  8
BEM
 62
     0
100
AcDbTrace
 10
241.0151870768361
 20
204.5488075491762
 30
0.0
 11
241.0151870768361
 21
202.2154742158429
 31
0.0
 12
248.0151870768361
 22
203.3821408825096
 32
0.0
 13
248.0151870768361
 23
203.3821408825096
 33
0.0
  0
MTEXT
  5
906
330
8B0
100
AcDbEntity
  8
BEM
 62
     1
100
AcDbMText
 10
181.515187076836
 20
209.8821408825096
 30
0.0
 40
7.0
 41
0.0
 71
     5
 72
     1
  1
\A1;%%C133
 73
     1
 44
1.0
  0
POINT
  5
907
330
8B0
100
AcDbEntity
  8
DEFPOINTS
 62
     0
100
AcDbPoint
 10
115.0151870768359
 20
232.6260632226144
 30
0.0
  0
POINT
  5
908
330
8B0
100
AcDbEntity
  8
DEFPOINTS
 62
     0
100
AcDbPoint
 10
248.0151870768361
 20
232.6260632226109
 30
0.0
  0
POINT
  5
909
330
8B0
100
AcDbEntity
  8
DEFPOINTS
 62
     0
100
AcDbPoint
 10
248.0151870768361
 20
203.3821408825096
 30
0.0
  0
ENDBLK
  5
8BB
330
8B0
100
AcDbEntity
  8
0
100
AcDbBlockEnd
  0
BLOCK
  5
99E
330
994
100
AcDbEntity
  8
0
100
AcDbBlockBegin
  2
*D4
 70
     1
 10
0.0
 20
0.0
 30
0.0
  3
*D4
  1

  0
LINE
  5
DD0
330
994
100
AcDbEntity
  8
BEM
 62
     0
370
    -2
100
AcDbLine
 10
97.36518707683627
 20
641.7352155798822
 30
0.0
 11
97.36518707683627
 21
657.5359003152986
 31
0.0
  0
LINE
  5
DD1
330
994
100
AcDbEntity
  8
BEM
 62
     0
370
    -2
100
AcDbLine
 10
265.6651870768363
 20
641.735215579882
 30
0.0
 11
265.6651870768363
 21
657.5359003152986
 31
0.0
  0
LINE
  5
DD2
330
994
100
AcDbEntity
  8
BEM
 62
     0
370
    -2
100
AcDbLine
 10
104.3651870768362
 20
655.5359003152987
 30
0.0
 11
258.6651870768363
 21
655.5359003152987
 31
0.0
  0
SOLID
  5
DD3
330
994
100
AcDbEntity
  8
BEM
 62
     0
100
AcDbTrace
 10
104.3651870768362
 20
656.7025669819653
 30
0.0
 11
104.3651870768362
 21
654.369233648632
 31
0.0
 12
97.36518707683627
 22
655.5359003152987
 32
0.0
 13
97.36518707683627
 23
655.5359003152987
 33
0.0
  0
SOLID
  5
DD4
330
994
100
AcDbEntity
  8
BEM
 62
     0
100
AcDbTrace
 10
258.6651870768363
 20
656.7025669819653
 30
0.0
 11
258.6651870768363
 21
654.369233648632
 31
0.0
 12
265.6651870768363
 22
655.5359003152987
 32
0.0
 13
265.6651870768363
 23
655.5359003152987
 33
0.0
  0
MTEXT
  5
DD5
330
994
100
AcDbEntity
  8
BEM
 62
     1
100
AcDbMText
 10
181.5151870768363
 20
662.0359003152986
 30
0.0
 40
7.0
 41
0.0
 71
     5
 72
     1
  1
\A1;%%c168.3
  7
GREEKS
 73
     1
 44
1.0
  0
POINT
  5
DD6
330
994
100
AcDbEntity
  8
DEFPOINTS
 62
     0
100
AcDbPoint
 10
97.36518707683627
 20
639.7352155798821
 30
0.0
  0
POINT
  5
DD7
330
994
100
AcDbEntity
  8
DEFPOINTS
 62
     0
100
AcDbPoint
 10
265.6651870768363
 20
639.735215579882
 30
0.0
  0
POINT
  5
DD8
330
994
100
AcDbEntity
  8
DEFPOINTS
 62
     0
100
AcDbPoint
 10
265.6651870768363
 20
655.5359003152987
 30
0.0
  0
ENDBLK
  5
99F
330
994
100
AcDbEntity
  8
0
100
AcDbBlockEnd
  0
BLOCK
  5
9FC
330
9F2
100
AcDbEntity
  8
0
100
AcDbBlockBegin
  2
*D5
 70
     1
 10
0.0
 20
0.0
 30
0.0
  3
*D5
  1

  0
LINE
  5
DD9
330
9F2
100
AcDbEntity
  8
BEM
 62
     0
370
    -2
100
AcDbLine
 10
324.9517976405274
 20
617.1778974172696
 30
0.0
 11
335.8667022577587
 21
628.092802034501
 31
0.0
  0
LINE
  5
DDA
330
9F2
100
AcDbEntity
  8
BEM
 62
     0
370
    -2
100
AcDbLine
 10
443.9578689142232
 20
498.1718261435736
 30
0.0
 11
454.8727735314546
 21
509.0867307608051
 31
0.0
  0
LINE
  5
DDB
330
9F2
100
AcDbEntity
  8
BEM
 62
     0
370
    -2
100
AcDbLine
 10
339.4022361636914
 20
621.7288410038221
 30
0.0
 11
448.5088125007757
 21
512.6222646667378
 31
0.0
  0
SOLID
  5
DDC
330
9F2
100
AcDbEntity
  8
BEM
 62
     0
100
AcDbTrace
 10
340.2271940750757
 20
622.5537989152063
 30
0.0
 11
338.5772782523072
 21
620.9038830924377
 31
0.0
 12
334.4524886953856
 22
626.6785884721278
 32
0.0
 13
334.4524886953856
 23
626.6785884721278
 33
0.0
  0
SOLID
  5
DDD
330
9F2
100
AcDbEntity
  8
BEM
 62
     0
100
AcDbTrace
 10
449.3337704121599
 20
513.447222578122
 30
0.0
 11
447.6838545893914
 21
511.7973067553535
 31
0.0
 12
453.4585599690815
 22
507.6725171984319
 32
0.0
 13
453.4585599690815
 23
507.6725171984319
 33
0.0
  0
MTEXT
  5
DDE
330
9F2
100
AcDbEntity
  8
BEM
 62
     1
100
AcDbMText
 10
398.551718409946
 20
571.7717469129926
 30
0.0
 40
7.0
 41
0.0
 71
     5
 72
     1
  1
\A1;%%c168.3
  7
GREEKS
 11
0.7071067811865476
 21
-0.7071067811865475
 31
0.0
 73
     1
 44
1.0
  0
POINT
  5
DDF
330
9F2
100
AcDbEntity
  8
DEFPOINTS
 62
     0
100
AcDbPoint
 10
323.5375840781543
 20
615.7636838548966
 30
0.0
  0
POINT
  5
DE0
330
9F2
100
AcDbEntity
  8
DEFPOINTS
 62
     0
100
AcDbPoint
 10
442.5436553518501
 20
496.7576125812006
 30
0.0
  0
POINT
  5
DE1
330
9F2
100
AcDbEntity
  8
DEFPOINTS
 62
     0
100
AcDbPoint
 10
453.4585599690815
 20
507.6725171984319
 30
0.0
  0
ENDBLK
  5
9FD
330
9F2
100
AcDbEntity
  8
0
100
AcDbBlockEnd
  0
BLOCK
  5
CF4
330
CEA
100
AcDbEntity
  8
0
100
AcDbBlockBegin
  2
*D6
 70
     1
 10
0.0
 20
0.0
 30
0.0
  3
*D6
  1

  0
LINE
  5
E0B
330
CEA
100
AcDbEntity
  8
BEM
 62
     0
370
    -2
100
AcDbLine
 10
95.36518707683631
 20
284.7352155798821
 30
0.0
 11
79.47789903760439
 21
284.7352155798821
 31
0.0
  0
LINE
  5
E0C
330
CEA
100
AcDbEntity
  8
BEM
 62
     0
370
    -2
100
AcDbLine
 10
113.7055467911851
 20
224.7352155798822
 30
0.0
 11
79.47789903760439
 21
224.7352155798822
 31
0.0
  0
LINE
  5
E0D
330
CEA
100
AcDbEntity
  8
BEM
 62
     0
370
    -2
100
AcDbLine
 10
81.47789903760438
 20
277.7352155798821
 30
0.0
 11
81.47789903760438
 21
231.7352155798821
 31
0.0
  0
SOLID
  5
E0E
330
CEA
100
AcDbEntity
  8
BEM
 62
     0
100
AcDbTrace
 10
80.31123237093771
 20
277.7352155798821
 30
0.0
 11
82.64456570427105
 21
277.7352155798821
 31
0.0
 12
81.47789903760438
 22
284.7352155798821
 32
0.0
 13
81.47789903760438
 23
284.7352155798821
 33
0.0
  0
SOLID
  5
E0F
330
CEA
100
AcDbEntity
  8
BEM
 62
     0
100
AcDbTrace
 10
80.31123237093771
 20
231.7352155798821
 30
0.0
 11
82.64456570427105
 21
231.7352155798821
 31
0.0
 12
81.47789903760438
 22
224.7352155798822
 32
0.0
 13
81.47789903760438
 23
224.7352155798822
 33
0.0
  0
MTEXT
  5
E10
330
CEA
100
AcDbEntity
  8
BEM
 62
     1
100
AcDbMText
 10
74.97789903760434
 20
254.7352155798821
 30
0.0
 40
7.0
 41
0.0
 71
     5
 72
     1
  1
\A1;60
 11
0.0000000000000001
 21
1.0
 31
0.0
 73
     1
 44
1.0
  0
POINT
  5
E11
330
CEA
100
AcDbEntity
  8
DEFPOINTS
 62
     0
100
AcDbPoint
 10
97.36518707683632
 20
284.7352155798821
 30
0.0
  0
POINT
  5
E12
330
CEA
100
AcDbEntity
  8
DEFPOINTS
 62
     0
100
AcDbPoint
 10
115.7055467911851
 20
224.7352155798822
 30
0.0
  0
POINT
  5
E13
330
CEA
100
AcDbEntity
  8
DEFPOINTS
 62
     0
100
AcDbPoint
 10
81.47789903760438
 20
224.7352155798822
 30
0.0
  0
ENDBLK
  5
CF5
330
CEA
100
AcDbEntity
  8
0
100
AcDbBlockEnd
  0
BLOCK
  5
D01
330
CF7
100
AcDbEntity
  8
0
100
AcDbBlockBegin
  2
*D7
 70
     1
 10
0.0
 20
0.0
 30
0.0
  3
*D7
  1

  0
LINE
  5
E1D
330
CF7
100
AcDbEntity
  8
BEM
 62
     0
370
    -2
100
AcDbLine
 10
95.36518707683626
 20
639.7352155798822
 30
0.0
 11
46.3237336400467
 21
639.7352155798822
 31
0.0
  0
LINE
  5
E1E
330
CF7
100
AcDbEntity
  8
BEM
 62
     0
370
    -2
100
AcDbLine
 10
113.7055467911851
 20
224.7352155798822
 30
0.0
 11
46.3237336400466
 21
224.7352155798822
 31
0.0
  0
LINE
  5
E1F
330
CF7
100
AcDbEntity
  8
BEM
 62
     0
370
    -2
100
AcDbLine
 10
48.3237336400467
 20
632.7352155798823
 30
0.0
 11
48.32373364004661
 21
231.7352155798822
 31
0.0
  0
SOLID
  5
E20
330
CF7
100
AcDbEntity
  8
BEM
 62
     0
100
AcDbTrace
 10
47.15706697338004
 20
632.7352155798823
 30
0.0
 11
49.49040030671337
 21
632.7352155798823
 31
0.0
 12
48.3237336400467
 22
639.7352155798822
 32
0.0
 13
48.3237336400467
 23
639.7352155798822
 33
0.0
  0
SOLID
  5
E21
330
CF7
100
AcDbEntity
  8
BEM
 62
     0
100
AcDbTrace
 10
47.15706697337995
 20
231.7352155798822
 30
0.0
 11
49.49040030671327
 21
231.7352155798822
 31
0.0
 12
48.32373364004661
 22
224.7352155798822
 32
0.0
 13
48.32373364004661
 23
224.7352155798822
 33
0.0
  0
MTEXT
  5
E22
330
CF7
100
AcDbEntity
  8
BEM
 62
     1
100
AcDbMText
 10
41.82373364004659
 20
432.2352155798822
 30
0.0
 40
7.0
 41
0.0
 71
     5
 72
     1
  1
\A1;415
 11
0.0000000000000001
 21
1.0
 31
0.0
 73
     1
 44
1.0
  0
POINT
  5
E23
330
CF7
100
AcDbEntity
  8
DEFPOINTS
 62
     0
100
AcDbPoint
 10
97.36518707683627
 20
639.7352155798822
 30
0.0
  0
POINT
  5
E24
330
CF7
100
AcDbEntity
  8
DEFPOINTS
 62
     0
100
AcDbPoint
 10
115.7055467911851
 20
224.7352155798822
 30
0.0
  0
POINT
  5
E25
330
CF7
100
AcDbEntity
  8
DEFPOINTS
 62
     0
100
AcDbPoint
 10
48.32373364004661
 20
224.7352155798822
 30
0.0
  0
ENDBLK
  5
D02
330
CF7
100
AcDbEntity
  8
0
100
AcDbBlockEnd
  0
BLOCK
  5
D20
330
D16
100
AcDbEntity
  8
0
100
AcDbBlockBegin
  2
*D8
 70
     1
 10
0.0
 20
0.0
 30
0.0
  3
*D8
  1

  0
LINE
  5
D17
330
D16
100
AcDbEntity
  8
BEM
 62
     0
370
    -2
100
AcDbLine
 10
182.9294006392093
 20
353.321002017509
 30
0.0
 11
265.9411727403496
 21
270.309229916369
 31
0.0
  0
LINE
  5
D18
330
D16
100
AcDbEntity
  8
BEM
 62
     0
370
    -2
100
AcDbLine
 10
443.9550961609444
 20
495.3406262655485
 30
0.0
 11
467.4638326252366
 21
471.8318898012563
 31
0.0
  0
LINE
  5
D19
330
D16
100
AcDbEntity
  8
BEM
 62
     0
370
    -2
100
AcDbLine
 10
269.4767066462822
 20
276.6731909470479
 30
0.0
 11
461.0998715945576
 21
468.2963558953236
 31
0.0
  0
SOLID
  5
D1A
330
D16
100
AcDbEntity
  8
BEM
 62
     0
100
AcDbTrace
 10
268.651748734898
 20
277.4981488584322
 30
0.0
 11
270.3016645576666
 21
275.8482330356636
 31
0.0
 12
264.5269591779765
 22
271.7234434787421
 32
0.0
 13
264.5269591779765
 23
271.7234434787421
 33
0.0
  0
SOLID
  5
D1B
330
D16
100
AcDbEntity
  8
BEM
 62
     0
100
AcDbTrace
 10
460.2749136831733
 20
469.1213138067078
 30
0.0
 11
461.924829505942
 21
467.4713979839393
 31
0.0
 12
466.0496190628634
 22
473.2461033636295
 32
0.0
 13
466.0496190628634
 23
473.2461033636295
 33
0.0
  0
MTEXT
  5
D1C
330
D16
100
AcDbEntity
  8
BEM
 62
     1
100
AcDbMText
 10
360.6920950427074
 20
377.0809674988984
 30
0.0
 40
7.0
 41
0.0
 71
     5
 72
     1
  1
\A1;285
 11
0.7071067811865469
 21
0.7071067811865484
 31
0.0
 73
     1
 44
1.0
  0
POINT
  5
D1D
330
D16
100
AcDbEntity
  8
DEFPOINTS
 62
     0
100
AcDbPoint
 10
181.5151870768362
 20
354.7352155798821
 30
0.0
  0
POINT
  5
D1E
330
D16
100
AcDbEntity
  8
DEFPOINTS
 62
     0
100
AcDbPoint
 10
442.5408825985713
 20
496.7548398279216
 30
0.0
  0
POINT
  5
D1F
330
D16
100
AcDbEntity
  8
DEFPOINTS
 62
     0
100
AcDbPoint
 10
466.0496190628634
 20
473.2461033636295
 30
0.0
  0
ENDBLK
  5
D21
330
D16
100
AcDbEntity
  8
0
100
AcDbBlockEnd
  0
BLOCK
  5
D2D
330
D23
100
AcDbEntity
  8
0
100
AcDbBlockBegin
  2
*D9
 70
     1
 10
0.0
 20
0.0
 30
0.0
  3
*D9
  1

  0
ARC
  5
D38
330
D23
100
AcDbEntity
  8
BEM
 62
     0
370
    -2
100
AcDbCircle
 10
181.5151870768362
 20
354.7352155798821
 30
0.0
 40
149.4082933843844
100
AcDbArc
 50
47.68463777229842
 51
87.31536222770159
  0
SOLID
  5
D39
330
D23
100
AcDbEntity
  8
BEM
 62
     0
100
AcDbTrace
 10
282.9038701104273
 20
466.0593274283646
 30
0.0
 11
281.2930575590092
 21
464.3712138751229
 31
0.0
 12
287.1628044944436
 22
460.3828329974895
 32
0.0
 13
287.1628044944436
 23
460.3828329974895
 33
0.0
  0
SOLID
  5
D3A
330
D23
100
AcDbEntity
  8
BEM
 62
     0
100
AcDbTrace
 10
188.4859361032601
 20
502.8131822669012
 30
0.0
 11
188.5405961658421
 21
505.1458752861394
 31
0.0
 12
181.5151870768363
 22
504.1435089642664
 32
0.0
 13
181.5151870768363
 23
504.1435089642664
 33
0.0
  0
MTEXT
  5
D3B
330
D23
100
AcDbEntity
  8
BEM
 62
     1
100
AcDbMText
 10
257.5171289197724
 20
490.8642014063188
 30
0.0
 40
7.0
 41
0.0
 71
     5
 72
     1
  1
\A1;45°
 11
0.8731349876995782
 21
-0.4874785054285545
 31
0.0
 73
     1
 44
1.0
  0
POINT
  5
D3C
330
D23
100
AcDbEntity
  8
DEFPOINTS
 62
     0
100
AcDbPoint
 10
220.1848989009799
 20
499.0525448216331
 30
0.0
  0
POINT
  5
D3D
330
D23
100
AcDbEntity
  8
DEFPOINTS
 62
     0
100
AcDbPoint
 10
181.5151870768363
 20
644.7352155798824
 30
0.0
  0
POINT
  5
D3E
330
D23
100
AcDbEntity
  8
DEFPOINTS
 62
     0
100
AcDbPoint
 10
386.5761536209352
 20
559.7961821239813
 30
0.0
  0
POINT
  5
D3F
330
D23
100
AcDbEntity
  8
DEFPOINTS
 62
     0
100
AcDbPoint
 10
230.6714645171842
 20
403.8914930202301
 30
0.0
  0
POINT
  5
D40
330
D23
100
AcDbEntity
  8
DEFPOINTS
 62
     0
100
AcDbPoint
 10
181.5151870768362
 20
219.7352155798822
 30
0.0
  0
ENDBLK
  5
D2E
330
D23
100
AcDbEntity
  8
0
100
AcDbBlockEnd
  0
ENDSEC
  0
SECTION
  2
ENTITIES
  0
LINE
  5
59
330
1E
100
AcDbEntity
  8
STEMPEL
100
AcDbLine
 10
484.0
 20
460.0
 30
0.0
 11
584.0
 21
459.9999999999998
 31
0.0
  0
LINE
  5
87
330
1E
100
AcDbEntity
  8
HILF
100
AcDbLine
 10
594.0
 20
-0.0000000000000568
 30
0.0
 11
594.0
 21
840.0
 31
0.0
  0
LINE
  5
88
330
1E
100
AcDbEntity
  8
HILF
100
AcDbLine
 10
594.0
 20
840.0
 30
0.0
 11
0.0
 21
840.0
 31
0.0
  0
LINE
  5
89
330
1E
100
AcDbEntity
  8
HILF
100
AcDbLine
 10
0.0
 20
840.0
 30
0.0
 11
0.0
 21
0.0
 31
0.0
  0
LINE
  5
8B
330
1E
100
AcDbEntity
  8
STEMPEL
100
AcDbLine
 10
10.0
 20
830.0
 30
0.0
 11
10.0
 21
39.99999999999995
 31
0.0
  0
LINE
  5
8D
330
1E
100
AcDbEntity
  8
STEMPEL
100
AcDbLine
 10
584.0
 20
39.99999999999995
 30
0.0
 11
584.0
 21
830.0
 31
0.0
  0
LINE
  5
8E
330
1E
100
AcDbEntity
  8
STEMPEL
100
AcDbLine
 10
584.0
 20
830.0
 30
0.0
 11
10.0
 21
830.0
 31
0.0
  0
LINE
  5
9C
330
1E
100
AcDbEntity
  8
BEM
100
AcDbLine
 10
594.0
 20
455.9999999999999
 30
0.0
 11
584.0
 21
455.9999999999999
 31
0.0
  0
LINE
  5
13E
330
1E
100
AcDbEntity
  8
HILF
100
AcDbLine
 10
594.0
 20
-0.0000000000000568
 30
0.0
 11
0.0
 21
0.0
 31
0.0
  0
LINE
  5
13F
330
1E
100
AcDbEntity
  8
STEMPEL
100
AcDbLine
 10
584.0
 20
39.99999999999995
 30
0.0
 11
10.0
 21
39.99999999999995
 31
0.0
  0
LINE
  5
14A
330
1E
100
AcDbEntity
  8
HILF
100
AcDbLine
 10
297.0
 20
-0.0000000000000568
 30
0.0
 11
297.0
 21
39.99999999999995
 31
0.0
  0
TEXT
  5
15B
330
1E
100
AcDbEntity
  8
BEM
100
AcDbText
 10
583.8320989200114
 20
837.3022923857165
 30
0.0
 40
4.0
  1
Diese Zeichnung ist urheberrechtlich geschützt und bleibt unser Eigentum. Sie darf weder ganz noch teilweise verfielfältigt und nicht an Dritte weitergegeben werden.
 50
180.0
 41
0.8
  7
GREEKS
100
AcDbText
  0
TEXT
  5
269
330
1E
100
AcDbEntity
  8
TEXT
 62
     1
100
AcDbText
 10
429.6538684839691
 20
612.0405677272307
 30
0.0
 40
7.0
  1
Außenrohr: P235 TR1 EN10217-1 feuerverzinkt
 50
90.0
 41
0.8
  7
GREEKS
100
AcDbText
  0
TEXT
  5
26A
330
1E
100
AcDbEntity
  8
TEXT
 62
     1
100
AcDbText
 10
441.0069365203241
 20
615.8127850980947
 30
0.0
 40
7.0
  1
Innenrohr: E195 EN10305 feuerverzinkt
 50
90.0
 41
0.8
  7
GREEKS
100
AcDbText
  0
TEXT
  5
26B
330
1E
100
AcDbEntity
  8
TEXT
 62
     1
100
AcDbText
 10
464.870825744932
 20
608.3183744533975
 30
0.0
 40
7.0
  1
Dämmung: 2 K-PU-Schaum
 50
90.0
 41
0.8
  7
GREEKS
100
AcDbText
  0
TEXT
  5
26C
330
1E
100
AcDbEntity
  8
TEXT
 62
     1
100
AcDbText
 10
452.2759903595499
 20
663.4673139741084
 30
0.0
 40
7.0
  1
und innenbeschichtet
 50
90.0
 41
0.8
  7
GREEKS
100
AcDbText
  0
INSERT
  5
2AF
330
1E
100
AcDbEntity
  8
STEMPEL
100
AcDbBlockReference
  2
LOGO
 10
548.9789472355168
 20
560.9955485457795
 30
0.0
 41
2.0
 42
2.0
 43
2.0
 50
90.0
  0
TEXT
  5
2B0
330
1E
100
AcDbEntity
  8
TEXT
100
AcDbText
 10
503.2363615897698
 20
602.626132208084
 30
0.0
 40
4.0
  1
DIN EN1123-2
 50
90.0
 41
0.8
  7
GREEKS
 72
     1
 11
503.2363615897698
 21
619.6166083985602
 31
0.0
100
AcDbText
  0
TEXT
  5
2B1
330
1E
100
AcDbEntity
  8
TEXT
100
AcDbText
 10
551.3702584697737
 20
644.9837501577826
 30
0.0
 40
4.0
  1
58022EE0W.DWG
 50
90.0
 41
0.8
  7
GREEKS
100
AcDbText
  0
TEXT
  5
2B2
330
1E
100
AcDbEntity
  8
TEXT
100
AcDbText
 10
542.3598805695784
 20
645.1296391125315
 30
0.0
 40
5.0
  1
EDV-Art.Nr. 58022.EE0X
 50
90.0
 41
0.8
  7
GREEKS
100
AcDbText
  0
TEXT
  5
2B3
330
1E
100
AcDbEntity
  8
TEXT
100
AcDbText
 10
522.4966558241471
 20
645.1296391125315
 30
0.0
 40
5.0
  1
Einfach-Abzweig 45°
 50
90.0
 41
0.8
  7
GREEKS
100
AcDbText
  0
TEXT
  5
2B4
330
1E
100
AcDbEntity
  8
TEXT
 62
     1
100
AcDbText
 10
506.5825121074622
 20
644.9367181557188
 30
0.0
 40
7.0
  1
Verbundrohr DN125/125
 50
90.0
 41
0.8
  7
GREEKS
100
AcDbText
  0
TEXT
  5
2B5
330
1E
100
AcDbEntity
  8
TEXT
100
AcDbText
 10
530.8923495917427
 20
580.3989971082361
 30
0.0
 40
4.0
  1
24.09.
 50
90.0
 41
0.8
  7
GREEKS
 72
     1
 11
530.8923495917427
 21
587.4085209177599
 31
0.0
100
AcDbText
  0
TEXT
  5
2B6
330
1E
100
AcDbEntity
  8
TEXT
 62
     1
100
AcDbText
 10
505.8509857108604
 20
570.5006306481887
 30
0.0
 40
7.0
  1
1:2
 50
90.0
 41
0.8
  7
GREEKS
100
AcDbText
  0
TEXT
  5
2B7
330
1E
100
AcDbEntity
  8
TEXT
 62
     1
100
AcDbText
 10
505.8509857108604
 20
765.6125233957149
 30
0.0
 40
7.0
  1
58022EE0W
 50
90.0
 41
0.8
  7
GREEKS
 72
     1
 11
505.8509857108604
 21
789.3458567290483
 31
0.0
100
AcDbText
  0
TEXT
  5
2B8
330
1E
100
AcDbEntity
  8
TEXT
100
AcDbText
 10
530.9103608027649
 20
614.4216048581257
 30
0.0
 40
4.0
  1
Koeh
 50
90.0
 41
0.8
  7
GREEKS
 72
     1
 11
530.9103608027649
 21
619.6787477152686
 31
0.0
100
AcDbText
  0
TEXT
  5
2B9
330
1E
100
AcDbEntity
  8
TEXT
100
AcDbText
 10
482.3280000000001
 20
461.8550995097767
 30
0.0
 40
5.0
  1
Erstellt mit AUTOCAD 2004
 50
90.0
 41
0.8
  7
GREEKS
100
AcDbText
  0
TEXT
  5
2BA
330
1E
100
AcDbEntity
  8
TEXT
100
AcDbText
 10
520.8597452884832
 20
558.622109822104
 30
0.0
 40
4.0
  1
2007
 50
90.0
 41
0.8
  7
GREEKS
100
AcDbText
  0
TEXT
  5
2BC
330
1E
100
AcDbEntity
  8
TEXT
100
AcDbText
 10
541.925838221214
 20
757.2400861497006
 30
0.0
 40
5.0
  1
ersetzt durch:
 50
90.0
 41
0.8
  7
GREEKS
100
AcDbText
  0
TEXT
  5
2BE
330
1E
100
AcDbEntity
  8
TEXT
100
AcDbText
 10
550.4705361035019
 20
557.6006777387304
 30
0.0
 40
4.0
  1
Norm.
 50
90.0
 41
0.8
  7
GREEKS
100
AcDbText
  0
TEXT
  5
2BF
330
1E
100
AcDbEntity
  8
TEXT
100
AcDbText
 10
540.3107370857163
 20
557.5515086571672
 30
0.0
 40
4.0
  1
Gepr.
 50
90.0
 41
0.8
  7
GREEKS
100
AcDbText
  0
TEXT
  5
2C0
330
1E
100
AcDbEntity
  8
TEXT
100
AcDbText
 10
530.3700963038203
 20
557.5836127167615
 30
0.0
 40
4.0
  1
Gez.
 50
90.0
 41
0.8
  7
GREEKS
100
AcDbText
  0
TEXT
  5
2C1
330
1E
100
AcDbEntity
  8
TEXT
100
AcDbText
 10
520.6903890808478
 20
612.4626584226295
 30
0.0
 40
4.0
  1
Name
 50
90.0
 41
0.8
  7
GREEKS
100
AcDbText
  0
TEXT
  5
2C2
330
1E
100
AcDbEntity
  8
TEXT
100
AcDbText
 10
520.6811949877008
 20
582.331167315365
 30
0.0
 40
4.0
  1
Tag
 50
90.0
 41
0.8
  7
GREEKS
100
AcDbText
  0
TEXT
  5
2C3
330
1E
100
AcDbEntity
  8
TEXT
100
AcDbText
 10
575.4067578303359
 20
539.0122744386594
 30
0.0
 40
4.0
  1
Name
 50
90.0
 41
0.8
  7
GREEKS
 72
     1
 11
575.4067578303359
 21
545.3360839624687
 31
0.0
100
AcDbText
  0
TEXT
  5
2C4
330
1E
100
AcDbEntity
  8
TEXT
100
AcDbText
 10
575.3284373066019
 20
520.0934676075481
 30
0.0
 40
4.0
  1
Tag
 50
90.0
 41
0.8
  7
GREEKS
 72
     1
 11
575.3284373066019
 21
523.8268009408813
 31
0.0
100
AcDbText
  0
TEXT
  5
2C5
330
1E
100
AcDbEntity
  8
TEXT
100
AcDbText
 10
580.3453415397281
 20
468.2664110704576
 30
0.0
 40
4.0
  1
Index
 50
180.0
 41
0.8
  7
GREEKS
100
AcDbText
  0
TEXT
  5
2C6
330
1E
100
AcDbEntity
  8
TEXT
100
AcDbText
 10
520.8188176290002
 20
756.7238616296992
 30
0.0
 40
5.0
  1
Ersatz für:
 50
90.0
 41
0.8
  7
GREEKS
100
AcDbText
  0
TEXT
  5
2C7
330
1E
100
AcDbEntity
  8
TEXT
100
AcDbText
 10
563.1543942980694
 20
644.742238391136
 30
0.0
 40
5.0
  1
Bauvorhaben
 50
90.0
 41
0.8
  7
GREEKS
100
AcDbText
  0
TEXT
  5
2C8
330
1E
100
AcDbEntity
  8
TEXT
100
AcDbText
 10
491.6867965462863
 20
756.178754957634
 30
0.0
 40
5.0
  1
Zeichnungs Nr.
 50
90.0
 41
0.8
  7
GREEKS
100
AcDbText
  0
TEXT
  5
2C9
330
1E
100
AcDbEntity
  8
TEXT
100
AcDbText
 10
491.4510671988221
 20
644.877940380901
 30
0.0
 40
5.0
  1
Benennung
 50
90.0
 41
0.8
  7
GREEKS
100
AcDbText
  0
TEXT
  5
2CA
330
1E
100
AcDbEntity
  8
TEXT
100
AcDbText
 10
491.581583156518
 20
604.2858954734051
 30
0.0
 40
5.0
  1
Zul. Abw.
 50
90.0
 41
0.8
  7
GREEKS
100
AcDbText
  0
TEXT
  5
2CB
330
1E
100
AcDbEntity
  8
TEXT
100
AcDbText
 10
491.537910491291
 20
563.5163572150377
 30
0.0
 40
5.0
  1
Maßstab
 50
90.0
 41
0.8
  7
GREEKS
100
AcDbText
  0
TEXT
  5
2CC
330
1E
100
AcDbEntity
  8
TEXT
100
AcDbText
 10
575.3261810501586
 20
483.8616597963182
 30
0.0
 40
4.0
  1
Änderung
 50
90.0
 41
0.8
  7
GREEKS
 72
     1
 11
575.3261810501586
 21
494.6045169391753
 31
0.0
100
AcDbText
  0
LINE
  5
2CD
330
1E
100
AcDbEntity
  8
HILF
100
AcDbLine
 10
579.1060174197168
 20
643.4909699289885
 30
0.0
 11
579.1060174197168
 21
824.8588839326728
 31
0.0
  0
LINE
  5
2CE
330
1E
100
AcDbEntity
  8
HILF
100
AcDbLine
 10
510.2201636304418
 20
756.7238616296992
 30
0.0
 11
510.2201636304418
 21
824.8588839326728
 31
0.0
  0
LINE
  5
2CF
330
1E
100
AcDbEntity
  8
VOLL
100
AcDbLine
 10
534.0
 20
752.0
 30
0.0
 11
534.0
 21
830.0
 31
0.0
  0
LINE
  5
2D0
330
1E
100
AcDbEntity
  8
HILF
100
AcDbLine
 10
544.0
 20
644.7736801096947
 30
0.0
 11
544.0
 21
744.8353916556309
 31
0.0
  0
LINE
  5
2D1
330
1E
100
AcDbEntity
  8
HILF
100
AcDbLine
 10
534.0
 20
644.7736801096947
 30
0.0
 11
534.0
 21
744.8353916556309
 31
0.0
  0
LINE
  5
2D2
330
1E
100
AcDbEntity
  8
HILF
100
AcDbLine
 10
524.0000000000001
 20
644.7736801096947
 30
0.0
 11
524.0000000000001
 21
744.8353916556309
 31
0.0
  0
LINE
  5
2D3
330
1E
100
AcDbEntity
  8
HILF
100
AcDbLine
 10
509.9624175243587
 20
644.7736801096947
 30
0.0
 11
509.9624175243588
 21
744.835391655631
 31
0.0
  0
LINE
  5
2D4
330
1E
100
AcDbEntity
  8
HILF
100
AcDbLine
 10
544.0
 20
556.0000000000001
 30
0.0
 11
544.0
 21
640.0
 31
0.0
  0
LINE
  5
2D5
330
1E
100
AcDbEntity
  8
HILF
100
AcDbLine
 10
534.0
 20
556.0000000000001
 30
0.0
 11
534.0
 21
640.0
 31
0.0
  0
LINE
  5
2D6
330
1E
100
AcDbEntity
  8
HILF
100
AcDbLine
 10
524.0000000000001
 20
556.0000000000001
 30
0.0
 11
524.0000000000001
 21
640.0
 31
0.0
  0
LINE
  5
2D7
330
1E
100
AcDbEntity
  8
HILF
100
AcDbLine
 10
554.0
 20
460.0000000000001
 30
0.0
 11
554.0
 21
556.0000000000001
 31
0.0
  0
LINE
  5
2D8
330
1E
100
AcDbEntity
  8
HILF
100
AcDbLine
 10
544.0
 20
460.0000000000001
 30
0.0
 11
544.0
 21
556.0000000000001
 31
0.0
  0
LINE
  5
2D9
330
1E
100
AcDbEntity
  8
HILF
100
AcDbLine
 10
534.0
 20
460.0000000000001
 30
0.0
 11
534.0
 21
556.0000000000001
 31
0.0
  0
LINE
  5
2DA
330
1E
100
AcDbEntity
  8
HILF
100
AcDbLine
 10
524.0000000000001
 20
460.0000000000001
 30
0.0
 11
524.0000000000001
 21
556.0000000000001
 31
0.0
  0
LINE
  5
2DB
330
1E
100
AcDbEntity
  8
HILF
100
AcDbLine
 10
514.0
 20
460.0000000000001
 30
0.0
 11
514.0
 21
556.0000000000001
 31
0.0
  0
LINE
  5
2DC
330
1E
100
AcDbEntity
  8
HILF
100
AcDbLine
 10
504.0
 20
460.0000000000001
 30
0.0
 11
504.0
 21
556.0000000000001
 31
0.0
  0
LINE
  5
2DD
330
1E
100
AcDbEntity
  8
HILF
100
AcDbLine
 10
494.0
 20
460.0000000000001
 30
0.0
 11
494.0
 21
556.0000000000001
 31
0.0
  0
LINE
  5
2DE
330
1E
100
AcDbEntity
  8
VOLL
100
AcDbLine
 10
484.0000000000002
 20
600.0
 30
0.0
 11
554.0
 21
600.0
 31
0.0
  0
LINE
  5
2DF
330
1E
100
AcDbEntity
  8
VOLL
100
AcDbLine
 10
514.0
 20
574.0000000000001
 30
0.0
 11
554.0
 21
574.0000000000001
 31
0.0
  0
LINE
  5
2E0
330
1E
100
AcDbEntity
  8
VOLL
100
AcDbLine
 10
484.0
 20
534.0000000000001
 30
0.0
 11
584.0
 21
534.0
 31
0.0
  0
LINE
  5
2E1
330
1E
100
AcDbEntity
  8
VOLL
100
AcDbLine
 10
484.0
 20
514.0000000000001
 30
0.0
 11
584.0
 21
514.0
 31
0.0
  0
LINE
  5
2E2
330
1E
100
AcDbEntity
  8
VOLL
100
AcDbLine
 10
484.0
 20
474.0000000000001
 30
0.0
 11
584.0
 21
474.0
 31
0.0
  0
LINE
  5
2E3
330
1E
100
AcDbEntity
  8
STEMPEL
100
AcDbLine
 10
514.0000000000001
 20
830.0
 30
0.0
 11
514.0
 21
556.0000000000001
 31
0.0
  0
LINE
  5
2E4
330
1E
100
AcDbEntity
  8
STEMPEL
100
AcDbLine
 10
554.0
 20
830.0
 30
0.0
 11
554.0
 21
556.0000000000001
 31
0.0
  0
LINE
  5
2E5
330
1E
100
AcDbEntity
  8
STEMPEL
100
AcDbLine
 10
564.0
 20
555.9999999999998
 30
0.0
 11
564.0
 21
460.0
 31
0.0
  0
LINE
  5
2E6
330
1E
100
AcDbEntity
  8
STEMPEL
100
AcDbLine
 10
484.0000000000003
 20
752.0
 30
0.0
 11
554.0
 21
752.0
 31
0.0
  0
LINE
  5
2E7
330
1E
100
AcDbEntity
  8
STEMPEL
100
AcDbLine
 10
484.0
 20
640.0
 30
0.0
 11
584.0
 21
640.0
 31
0.0
  0
LINE
  5
2E8
330
1E
100
AcDbEntity
  8
STEMPEL
100
AcDbLine
 10
484.0
 20
556.0000000000001
 30
0.0
 11
584.0
 21
556.0
 31
0.0
  0
LINE
  5
2E9
330
1E
100
AcDbEntity
  8
STEMPEL
100
AcDbLine
 10
484.0000000000001
 20
830.0
 30
0.0
 11
484.0
 21
460.0
 31
0.0
  0
LINE
  5
7EA
330
1E
100
AcDbEntity
  8
MITTEL
100
AcDbLine
 10
216.6177389640701
 20
389.8377674671159
 30
0.0
 11
181.5151870768362
 21
354.7352155798821
 31
0.0
  0
DIMENSION
  5
7EE
330
1E
100
AcDbEntity
  8
BEM
100
AcDbDimension
  2
*D1
 10
268.3799465033378
 20
347.5698407062705
 30
0.0
 11
221.3604065518148
 21
394.5937629437672
 31
0.0
 70
   160
  1
%%c<>
 71
     5
 42
133.0000000000071
  3
Standard
100
AcDbAlignedDimension
 13
248.0151870768362
 23
515.2886188007085
 33
0.0
 14
248.0151870768361
 24
327.2069791265527
 34
0.0
 50
314.9973301015841
100
AcDbRotatedDimension
1001
ACAD
1000
DSTYLE
1002
{
1070
    40
1040
2.0
1070
    41
1040
3.5
1070
    42
1040
1.0
1070
    43
1040
7.0
1070
    44
1040
1.0
1070
    73
1070
     0
1070
    74
1070
     0
1070
    77
1070
     1
1070
    78
1070
     8
1070
    79
1070
     2
1070
   140
1040
3.5
1070
   141
1040
1.5
1070
   146
1040
0.5142857142857144
1070
   147
1040
1.5
1070
   172
1070
     1
1070
   178
1070
     1
1070
   179
1070
     2
1070
   271
1070
     2
1070
   272
1070
     2
1070
   284
1070
     8
1070
   285
1070
     8
1070
   286
1070
     8
1002
}
  0
LINE
  5
7EF
102
{ACAD_REACTORS
330
BFD
330
CD3
102
}
330
1E
100
AcDbEntity
  8
STEMPEL
100
AcDbLine
 10
434.4862119639042
 20
504.8102611689997
 30
0.0
 11
434.1375348515186
 21
503.8524175550389
 31
0.0
  0
ARC
  5
7F0
102
{ACAD_REACTORS
330
BFD
330
CD3
102
}
330
1E
100
AcDbEntity
  8
STEMPEL
100
AcDbCircle
 10
405.9472343875023
 20
514.1143354921732
 30
0.0
 40
30.0
100
AcDbArc
 50
314.9973301015839
 51
339.9973301015803
  0
LINE
  5
7F1
102
{ACAD_REACTORS
330
BFC
330
CD3
102
}
330
1E
100
AcDbEntity
  8
STEMPEL
100
AcDbLine
 10
331.5950274661002
 20
607.7110352670973
 30
0.0
 11
330.6371513606258
 21
607.3624474244117
 31
0.0
  0
ARC
  5
7F2
102
{ACAD_REACTORS
330
BFC
330
CD3
102
}
330
1E
100
AcDbEntity
  8
STEMPEL
100
AcDbCircle
 10
340.896442000751
 20
579.1711907024874
 30
0.0
 40
30.0
100
AcDbArc
 50
109.9973301015914
 51
134.9973301015839
  0
LINE
  5
7F3
102
{ACAD_REACTORS
330
C5E
102
}
330
1E
100
AcDbEntity
  8
STEMPEL
100
AcDbLine
 10
413.648210886773
 20
479.3905372827539
 30
0.0
 11
413.6483973706428
 21
479.3903507815037
 31
0.0
  0
ARC
  5
7F4
102
{ACAD_REACTORS
330
BFD
330
C5E
102
}
330
1E
100
AcDbEntity
  8
STEMPEL
100
AcDbCircle
 10
392.4361824619197
 20
500.6045426979104
 30
0.0
 40
29.99973625969209
100
AcDbArc
 50
289.9901717650474
 51
314.9973301015839
  0
ARC
  5
7F5
102
{ACAD_REACTORS
330
BFD
330
C5E
102
}
330
1E
100
AcDbEntity
  8
STEMPEL
100
AcDbCircle
 10
408.8453218070413
 20
455.4967293286905
 30
0.0
 40
18.0
100
AcDbArc
 50
109.9901717650474
 51
134.9973301015839
  0
ARC
  5
7F6
102
{ACAD_REACTORS
330
BFD
330
C5E
102
}
330
1E
100
AcDbEntity
  8
STEMPEL
100
AcDbCircle
 10
373.8221578151668
 20
471.3861452418276
 30
0.0
 40
18.0
100
AcDbArc
 50
280.2253860696404
 51
314.9973301015839
  0
ARC
  5
7F7
102
{ACAD_REACTORS
330
BFD
330
C5E
102
}
330
1E
100
AcDbEntity
  8
STEMPEL
100
AcDbCircle
 10
378.7927399621279
 20
443.8308678322222
 30
0.0
 40
10.0
100
AcDbArc
 50
100.2253860696404
 51
134.9973301015839
  0
LINE
  5
7F8
102
{ACAD_REACTORS
330
BFD
330
C5E
102
}
330
1E
100
AcDbEntity
  8
STEMPEL
100
AcDbLine
 10
396.1179928618074
 20
468.2252444785346
 30
0.0
 11
386.5494867604007
 21
458.6576300919835
 31
0.0
  0
LINE
  5
7F9
102
{ACAD_REACTORS
330
BFD
330
C5E
102
}
330
1E
100
AcDbEntity
  8
STEMPEL
100
AcDbLine
 10
371.7220016592202
 20
450.9022651376912
 30
0.0
 11
248.0151870768361
 21
327.2069791265527
 31
0.0
  0
LINE
  5
7FA
102
{ACAD_REACTORS
330
C5E
102
}
330
1E
100
AcDbEntity
  8
STEMPEL
100
AcDbLine
 10
306.1733616503147
 20
586.8754033233811
 30
0.0
 11
306.173175166445
 21
586.8755898246314
 31
0.0
  0
ARC
  5
7FB
102
{ACAD_REACTORS
330
BFC
330
C5E
102
}
330
1E
100
AcDbEntity
  8
STEMPEL
100
AcDbCircle
 10
327.3853900751683
 20
565.6613979082246
 30
0.0
 40
29.99973625969209
100
AcDbArc
 50
134.9973301015839
 51
160.0044884381287
  0
ARC
  5
7FC
102
{ACAD_REACTORS
330
BFC
330
C5E
102
}
330
1E
100
AcDbEntity
  8
STEMPEL
100
AcDbCircle
 10
282.2791061849926
 20
582.0747410965843
 30
0.0
 40
18.0
100
AcDbArc
 50
314.9973301015839
 51
340.0044884381287
  0
ARC
  5
7FD
102
{ACAD_REACTORS
330
BFC
330
C5E
102
}
330
1E
100
AcDbEntity
  8
STEMPEL
100
AcDbCircle
 10
270.6104439276392
 20
552.0232466058968
 30
0.0
 40
10.0
100
AcDbArc
 50
314.9973301015839
 51
349.7692741335338
  0
ARC
  5
7FE
102
{ACAD_REACTORS
330
BFC
330
C5E
102
}
330
1E
100
AcDbEntity
  8
STEMPEL
100
AcDbCircle
 10
298.1652579740538
 20
547.050096410345
 30
0.0
 40
18.0
100
AcDbArc
 50
134.9973301015839
 51
169.7692741335338
  0
LINE
  5
7FF
102
{ACAD_REACTORS
330
BFC
330
C5E
102
}
330
1E
100
AcDbEntity
  8
STEMPEL
100
AcDbLine
 10
295.0064351302265
 20
569.3462259467402
 30
0.0
 11
285.4379290288198
 21
559.7786115601892
 31
0.0
  0
LINE
  5
800
102
{ACAD_REACTORS
330
BFC
330
C5E
102
}
330
1E
100
AcDbEntity
  8
STEMPEL
100
AcDbLine
 10
277.681182230547
 20
544.9518493004278
 30
0.0
 11
248.0151870768362
 21
515.2886188007085
 31
0.0
  0
LINE
  5
801
330
1E
100
AcDbEntity
  8
HILF
100
AcDbLine
 10
286.3013214216203
 20
552.3648879847939
 30
0.0
 11
379.1358436828138
 21
459.5217134180963
 31
0.0
  0
LINE
  5
802
330
1E
100
AcDbEntity
  8
HILF
100
AcDbLine
 10
283.5237098190761
 20
544.3912374328774
 30
0.0
 11
371.1619343003578
 21
456.7448449482117
 31
0.0
  0
LINE
  5
803
330
1E
100
AcDbEntity
  8
HILF
100
AcDbLine
 10
301.3964173687726
 20
569.2869182520764
 30
0.0
 11
396.0592806948052
 21
474.6152322166315
 31
0.0
  0
LINE
  5
804
102
{ACAD_REACTORS
330
BFC
330
C5E
330
CD3
102
}
330
1E
100
AcDbEntity
  8
STEMPEL
100
AcDbLine
 10
319.6842270920277
 20
600.385382618894
 30
0.0
 11
306.173175166445
 21
586.8755898246314
 31
0.0
  0
LINE
  5
805
102
{ACAD_REACTORS
330
BFD
330
C5E
330
CD3
102
}
330
1E
100
AcDbEntity
  8
STEMPEL
100
AcDbLine
 10
427.1594492962256
 20
492.9001435757665
 30
0.0
 11
413.6483973706428
 21
479.3903507815037
 31
0.0
  0
HATCH
  5
806
330
1E
100
AcDbEntity
  8
SCHRAFF
100
AcDbHatch
 10
0.0
 20
0.0
 30
0.0
210
0.0
220
0.0
230
1.0
  2
_USER
 70
     0
 71
     0
 91
        1
 92
        7
 72
     1
 73
     1
 93
        4
 10
253.5584642719039
 20
520.8236946727608
 42
0.2591653540519319
 10
248.0151870768362
 20
523.1197952669515
 42
0.0
 10
248.0151870768362
 20
515.7206953332888
 42
0.0168534898052768
 10
248.3265105341342
 20
515.5917409349911
 42
0.0
 97
        0
 75
     0
 76
     0
 52
0.0
 41
0.1
 77
     0
 78
     1
 53
0.0
 43
0.0000000000002274
 44
-0.0000000000002274
 45
0.0
 46
0.1
 79
     0
 47
0.0891617035595365
 98
        1
 10
250.9498111774521
 20
520.4510646172641
  0
ARC
  5
807
102
{ACAD_REACTORS
330
C5E
102
}
330
1E
100
AcDbEntity
  8
SCHRAFF
100
AcDbCircle
 10
248.7206938543327
 20
516.9836615082718
 30
0.0
 40
6.176558695382342
100
AcDbArc
 50
38.441173079781
 51
96.5588269202138
  0
HATCH
  5
818
330
1E
100
AcDbEntity
  8
SCHRAFF
100
AcDbHatch
 10
0.0
 20
0.0
 30
0.0
210
0.0
220
0.0
230
1.0
  2
_USER
 70
     0
 71
     0
 91
        1
 92
        7
 72
     1
 73
     1
 93
        3
 10
250.3112876710266
 20
329.4861142762619
 42
0.0
 10
248.0151870768361
 20
327.1900136820713
 42
0.0
 10
248.0151870768361
 20
323.9428370811942
 42
0.3877920277988988
 97
        0
 75
     0
 76
     0
 52
0.0
 41
0.1
 77
     0
 78
     1
 53
0.0
 43
0.0000000000002274
 44
-0.0000000000002274
 45
0.0
 46
0.1
 79
     0
 47
0.1178710543586698
 98
        1
 10
249.4262845202008
 20
325.8814541795507
  0
ARC
  5
819
102
{ACAD_REACTORS
330
C5E
102
}
330
1E
100
AcDbEntity
  8
SCHRAFF
100
AcDbCircle
 10
246.1270323301535
 20
327.9721129860064
 30
0.0
 40
4.449740741270252
100
AcDbArc
 50
295.1082087540139
 51
19.89179124598821
  0
LINE
  5
81A
330
1E
100
AcDbEntity
  8
STEMPEL
100
AcDbLine
 10
181.5151870768362
 20
354.7352155798823
 30
0.0
 11
248.0151870768361
 21
327.1900136820713
 31
0.0
  0
LINE
  5
81B
330
1E
100
AcDbEntity
  8
STEMPEL
100
AcDbLine
 10
248.0151870768362
 20
515.2804174776931
 30
0.0
 11
181.5151870768362
 21
354.7352155798823
 31
0.0
  0
LINE
  5
83D
102
{ACAD_REACTORS
330
BB2
330
C5E
102
}
330
1E
100
AcDbEntity
  8
STEMPEL
100
AcDbLine
 10
248.0151870768361
 20
327.2069791265527
 30
0.0
 11
248.0151870768361
 21
232.6260632226109
 31
0.0
  0
DIMENSION
  5
83E
330
1E
100
AcDbEntity
  8
BEM
100
AcDbDimension
  2
*D2
 10
65.82841784980072
 20
354.7352155798823
 30
0.0
 11
65.82841784980065
 21
295.1166536749763
 31
0.0
 70
   160
 71
     5
 42
130.0000000000001
  3
Standard
100
AcDbAlignedDimension
 13
115.7055467911851
 23
224.7352155798822
 33
0.0
 14
181.5151870768362
 24
354.7352155798823
 34
0.0
 50
90.0
100
AcDbRotatedDimension
1001
ACAD
1000
DSTYLE
1002
{
1070
    40
1040
2.0
1070
    41
1040
3.5
1070
    42
1040
1.0
1070
    43
1040
7.0
1070
    44
1040
1.0
1070
    73
1070
     0
1070
    74
1070
     0
1070
    77
1070
     1
1070
    78
1070
     8
1070
    79
1070
     2
1070
   140
1040
3.5
1070
   141
1040
1.5
1070
   146
1040
0.5142857142857144
1070
   147
1040
1.5
1070
   172
1070
     1
1070
   178
1070
     1
1070
   179
1070
     2
1070
   271
1070
     2
1070
   272
1070
     2
1070
   284
1070
     8
1070
   285
1070
     8
1070
   286
1070
     8
1002
}
  0
LINE
  5
83F
330
1E
100
AcDbEntity
  8
MITTEL
100
AcDbLine
 10
386.5761536209352
 20
559.7961821239813
 30
0.0
 11
230.6714645171842
 21
403.8914930202301
 31
0.0
  0
TEXT
  5
840
330
1E
100
AcDbEntity
  8
VOLL
100
AcDbText
 10
350.4629004606414
 20
537.64516295732
 30
0.0
 40
7.0
  1
DN125
 50
45.00000000000036
 41
0.8
  7
GREEKS
100
AcDbText
  0
DIMENSION
  5
844
330
1E
100
AcDbEntity
  8
BEM
100
AcDbDimension
  2
*D3
 10
248.0151870768361
 20
203.3821408825096
 30
0.0
 11
181.515187076836
 21
209.8821408825096
 31
0.0
 70
    32
  1
%%C<>
 71
     5
 42
133.0000000000002
  3
Standard
100
AcDbAlignedDimension
 13
115.0151870768359
 23
232.6260632226144
 33
0.0
 14
248.0151870768361
 24
232.6260632226109
 34
0.0
100
AcDbRotatedDimension
1001
ACAD
1000
DSTYLE
1002
{
1070
    40
1040
2.0
1070
    41
1040
3.5
1070
    42
1040
1.0
1070
    43
1040
7.0
1070
    44
1040
1.0
1070
    73
1070
     0
1070
    74
1070
     0
1070
    77
1070
     1
1070
    78
1070
     8
1070
    79
1070
     2
1070
   140
1040
3.5
1070
   141
1040
1.5
1070
   146
1040
0.5142857142857144
1070
   147
1040
1.5
1070
   172
1070
     1
1070
   178
1070
     1
1070
   179
1070
     2
1070
   271
1070
     2
1070
   272
1070
     2
1070
   284
1070
     8
1070
   285
1070
     8
1070
   286
1070
     8
1002
}
  0
LINE
  5
846
102
{ACAD_REACTORS
330
BB2
102
}
330
1E
100
AcDbEntity
  8
STEMPEL
100
AcDbLine
 10
248.0151870768361
 20
232.6260632226109
 30
0.0
 11
247.3248273624871
 21
224.7352155798822
 31
0.0
  0
LINE
  5
847
102
{ACAD_REACTORS
330
BB3
102
}
330
1E
100
AcDbEntity
  8
STEMPEL
100
AcDbLine
 10
115.0151870768359
 20
232.6260632226144
 30
0.0
 11
115.7055467911851
 21
224.7352155798822
 31
0.0
  0
LINE
  5
848
330
1E
100
AcDbEntity
  8
HILF
100
AcDbLine
 10
243.0056374829778
 20
232.7352155798822
 30
0.0
 11
120.0247366706945
 21
232.7352155798821
 31
0.0
  0
LINE
  5
849
102
{ACAD_REACTORS
330
BB1
330
C8F
102
}
330
1E
100
AcDbEntity
  8
STEMPEL
100
AcDbLine
 10
254.2736318742425
 20
639.7352155798822
 30
0.0
 11
254.7044206879357
 21
638.8113859876392
 31
0.0
  0
ARC
  5
84A
102
{ACAD_REACTORS
330
BB1
330
C8F
102
}
330
1E
100
AcDbEntity
  8
STEMPEL
100
AcDbCircle
 10
227.5151870768362
 20
626.132838135418
 30
0.0
 40
30.0
100
AcDbArc
 50
0.0
 51
24.99999999999246
  0
LINE
  5
84B
102
{ACAD_REACTORS
330
BB3
330
C8F
102
}
330
1E
100
AcDbEntity
  8
STEMPEL
100
AcDbLine
 10
108.75674227943
 20
639.7352155798822
 30
0.0
 11
108.3259534657368
 21
638.8113859876392
 31
0.0
  0
ARC
  5
84C
102
{ACAD_REACTORS
330
BB3
330
C8F
102
}
330
1E
100
AcDbEntity
  8
STEMPEL
100
AcDbCircle
 10
135.5151870768362
 20
626.132838135418
 30
0.0
 40
30.0
100
AcDbArc
 50
155.0000000000074
 51
180.0
  0
LINE
  5
84D
102
{ACAD_REACTORS
330
BB1
330
C5E
102
}
330
1E
100
AcDbEntity
  8
STEMPEL
100
AcDbLine
 10
257.5149233365284
 20
607.0262155798822
 30
0.0
 11
257.5151870768362
 21
607.0262155798822
 31
0.0
  0
ARC
  5
84E
102
{ACAD_REACTORS
330
BB1
330
C5E
102
}
330
1E
100
AcDbEntity
  8
STEMPEL
100
AcDbCircle
 10
227.5151870768362
 20
607.0262155798822
 30
0.0
 40
29.99973625969209
100
AcDbArc
 50
334.9928416634572
 51
0.0
  0
ARC
  5
84F
102
{ACAD_REACTORS
330
BB1
330
C5E
102
}
330
1E
100
AcDbEntity
  8
STEMPEL
100
AcDbCircle
 10
271.0151870768362
 20
586.7352155798823
 30
0.0
 40
18.0
100
AcDbArc
 50
154.9928416634572
 51
180.0
  0
ARC
  5
850
102
{ACAD_REACTORS
330
BB1
330
C5E
102
}
330
1E
100
AcDbEntity
  8
STEMPEL
100
AcDbCircle
 10
235.0151870768363
 20
573.2039350025534
 30
0.0
 40
18.0
100
AcDbArc
 50
325.2280559680515
 51
0.0
  0
ARC
  5
851
102
{ACAD_REACTORS
330
BB1
330
C5E
102
}
330
1E
100
AcDbEntity
  8
STEMPEL
100
AcDbCircle
 10
258.0151870768363
 20
557.2352155798823
 30
0.0
 40
10.0
100
AcDbArc
 50
145.2280559680515
 51
180.0
  0
LINE
  5
852
102
{ACAD_REACTORS
330
BB1
330
C5E
102
}
330
1E
100
AcDbEntity
  8
STEMPEL
100
AcDbLine
 10
253.0151870768362
 20
586.7352155798823
 30
0.0
 11
253.0151870768362
 21
573.2039350025534
 31
0.0
  0
LINE
  5
854
102
{ACAD_REACTORS
330
BB1
330
C5E
102
}
330
1E
100
AcDbEntity
  8
STEMPEL
100
AcDbLine
 10
248.0151870768362
 20
557.2352155798823
 30
0.0
 11
248.0151870768362
 21
515.2886188007085
 31
0.0
  0
LINE
  5
855
102
{ACAD_REACTORS
330
BB3
330
C5E
102
}
330
1E
100
AcDbEntity
  8
STEMPEL
100
AcDbLine
 10
105.5154508171441
 20
607.0262155798823
 30
0.0
 11
105.5151870768362
 21
607.0262155798823
 31
0.0
  0
ARC
  5
856
102
{ACAD_REACTORS
330
BB3
330
C5E
102
}
330
1E
100
AcDbEntity
  8
STEMPEL
100
AcDbCircle
 10
135.5151870768362
 20
607.0262155798823
 30
0.0
 40
29.99973625969209
100
AcDbArc
 50
180.0
 51
205.0071583365429
  0
ARC
  5
857
102
{ACAD_REACTORS
330
BB3
330
C5E
102
}
330
1E
100
AcDbEntity
  8
STEMPEL
100
AcDbCircle
 10
92.01518707683623
 20
586.7352155798823
 30
0.0
 40
18.0
100
AcDbArc
 50
0.0
 51
25.00715833654288
  0
ARC
  5
858
102
{ACAD_REACTORS
330
BB3
330
C5E
102
}
330
1E
100
AcDbEntity
  8
STEMPEL
100
AcDbCircle
 10
105.0151870768361
 20
557.2352155798823
 30
0.0
 40
10.0
100
AcDbArc
 50
0.0
 51
34.77194403194851
  0
ARC
  5
859
102
{ACAD_REACTORS
330
BB3
330
C5E
102
}
330
1E
100
AcDbEntity
  8
STEMPEL
100
AcDbCircle
 10
128.0151870768362
 20
573.2039350025535
 30
0.0
 40
18.0
100
AcDbArc
 50
180.0
 51
214.7719440319485
  0
LINE
  5
85A
102
{ACAD_REACTORS
330
BB3
330
C5E
102
}
330
1E
100
AcDbEntity
  8
STEMPEL
100
AcDbLine
 10
110.0151870768362
 20
586.7352155798823
 30
0.0
 11
110.0151870768361
 21
573.2039350025535
 31
0.0
  0
LINE
  5
85B
102
{ACAD_REACTORS
330
BB3
330
C5E
102
}
330
1E
100
AcDbEntity
  8
STEMPEL
100
AcDbLine
 10
115.0151870768361
 20
557.2352155798823
 30
0.0
 11
115.0151870768359
 21
232.6260632226144
 31
0.0
  0
LINE
  5
85C
330
1E
100
AcDbEntity
  8
HILF
100
AcDbLine
 10
115.8682077345118
 20
568.5724241413827
 30
0.0
 11
247.1621664191607
 21
568.5724241413827
 31
0.0
  0
LINE
  5
85D
330
1E
100
AcDbEntity
  8
HILF
100
AcDbLine
 10
119.542716362398
 20
560.970304984052
 30
0.0
 11
243.4876577912743
 21
560.970304984052
 31
0.0
  0
LINE
  5
85E
330
1E
100
AcDbEntity
  8
HILF
100
AcDbLine
 10
114.5753151209589
 20
591.2118909794156
 30
0.0
 11
248.4550590327135
 21
591.2118909794157
 31
0.0
  0
LINE
  5
85F
102
{ACAD_REACTORS
330
BB3
330
C5E
330
C8F
102
}
330
1E
100
AcDbEntity
  8
STEMPEL
100
AcDbLine
 10
105.5151870768362
 20
626.132838135418
 30
0.0
 11
105.5151870768362
 21
607.0262155798823
 31
0.0
  0
LINE
  5
860
102
{ACAD_REACTORS
330
BB1
330
C5E
330
C8F
102
}
330
1E
100
AcDbEntity
  8
STEMPEL
100
AcDbLine
 10
257.5151870768362
 20
626.132838135418
 30
0.0
 11
257.5151870768362
 21
607.0262155798822
 31
0.0
  0
LINE
  5
861
102
{ACAD_REACTORS
330
BDA
330
C8F
102
}
330
1E
100
AcDbEntity
  8
STEMPEL
100
AcDbLine
 10
97.36518707683627
 20
639.7352155798822
 30
0.0
 11
265.6651870768363
 21
639.7352155798822
 31
0.0
  0
TEXT
  5
862
330
1E
100
AcDbEntity
  8
VOLL
100
AcDbText
 10
171.642396739425
 20
603.5361535165927
 30
0.0
 40
7.0
  1
DN125
 50
90.0
 41
0.8
  7
GREEKS
100
AcDbText
  0
LINE
  5
863
330
1E
100
AcDbEntity
  8
STEMPEL
100
AcDbLine
 10
247.3248273624871
 20
224.7352155798822
 30
0.0
 11
115.7055467911851
 21
224.7352155798822
 31
0.0
  0
LINE
  5
864
330
1E
100
AcDbEntity
  8
MITTEL
100
AcDbLine
 10
181.5151870768362
 20
644.7352155798824
 30
0.0
 11
181.5151870768362
 21
219.7352155798823
 31
0.0
  0
TEXT
  5
865
330
1E
100
AcDbEntity
  8
TEXT
 62
     1
100
AcDbText
 10
339.4505957737345
 20
217.9916167513096
 30
0.0
 40
7.0
  1
Rohrende leicht eingezogen
 41
0.8
  7
GREEKS
100
AcDbText
  0
DIMENSION
  5
979
330
1E
100
AcDbEntity
  8
BEM
100
AcDbDimension
  2
*D4
 10
265.6651870768363
 20
655.5359003152987
 30
0.0
 11
181.5151870768363
 21
662.0359003152986
 31
0.0
 70
    32
  1
%%c<>
 71
     5
 42
168.3
  3
Standard
100
AcDbAlignedDimension
 13
97.36518707683627
 23
639.7352155798821
 33
0.0
 14
265.6651870768363
 24
639.735215579882
 34
0.0
100
AcDbRotatedDimension
1001
ACAD
1000
DSTYLE
1002
{
1070
    40
1040
2.0
1070
    41
1040
3.5
1070
    42
1040
1.0
1070
    43
1040
7.0
1070
    44
1040
1.0
1070
    73
1070
     0
1070
    74
1070
     0
1070
    77
1070
     1
1070
    78
1070
     8
1070
    79
1070
     2
1070
   140
1040
3.5
1070
   141
1040
1.5
1070
   146
1040
0.5142857142857144
1070
   147
1040
1.5
1070
   172
1070
     1
1070
   178
1070
     1
1070
   179
1070
     2
1070
   271
1070
     2
1070
   272
1070
     2
1070
   284
1070
     8
1070
   285
1070
     8
1070
   286
1070
     8
1070
   289
1070
     0
1070
   340
1005
24
1002
}
  0
LINE
  5
9C8
102
{ACAD_REACTORS
330
C5E
330
C8F
102
}
330
1E
100
AcDbEntity
  8
STEMPEL
100
AcDbLine
 10
105.5151870768362
 20
623.7352155798821
 30
0.0
 11
100.2651870768362
 21
623.7352155798821
 31
0.0
  0
LINE
  5
9C9
102
{ACAD_REACTORS
330
BDA
102
}
330
1E
100
AcDbEntity
  8
STEMPEL
100
AcDbLine
 10
97.36518707683627
 20
639.7352155798821
 30
0.0
 11
97.36518707683632
 21
282.7352155798821
 31
0.0
  0
LINE
  5
9CA
102
{ACAD_REACTORS
330
BDA
330
C5E
330
C8F
102
}
330
1E
100
AcDbEntity
  8
STEMPEL
100
AcDbLine
 10
100.2651870768362
 20
639.7352155798821
 30
0.0
 11
100.2651870768363
 21
284.7352155798821
 31
0.0
  0
LINE
  5
9CB
102
{ACAD_REACTORS
330
C5E
330
C8F
102
}
330
1E
100
AcDbEntity
  8
STEMPEL
100
AcDbLine
 10
262.7651870768364
 20
623.7352155798821
 30
0.0
 11
257.5151870768362
 21
623.7352155798821
 31
0.0
  0
LINE
  5
9CC
102
{ACAD_REACTORS
330
BDA
330
BE3
330
D45
102
}
330
1E
100
AcDbEntity
  8
STEMPEL
100
AcDbLine
 10
265.6651870768363
 20
639.7352155798822
 30
0.0
 11
265.6651870768363
 21
553.7900675226967
 31
0.0
  0
LINE
  5
9CD
102
{ACAD_REACTORS
330
BDA
330
C5E
330
C8F
102
}
330
1E
100
AcDbEntity
  8
STEMPEL
100
AcDbLine
 10
262.7651870768364
 20
639.7352155798821
 30
0.0
 11
262.7651870768364
 21
553.7900675226967
 31
0.0
  0
LINE
  5
9CE
102
{ACAD_REACTORS
330
BE3
330
C5E
330
CD3
102
}
330
1E
100
AcDbEntity
  8
STEMPEL
100
AcDbLine
 10
440.4930456864093
 20
498.8082222466415
 30
0.0
 11
265.6651870768363
 21
323.9803636370684
 31
0.0
  0
LINE
  5
9CF
102
{ACAD_REACTORS
330
BE3
330
D4B
102
}
330
1E
100
AcDbEntity
  8
STEMPEL
100
AcDbLine
 10
442.5436553518501
 20
496.7576125812005
 30
0.0
 11
265.6651870768363
 21
319.8791443061867
 31
0.0
  0
LINE
  5
9D0
102
{ACAD_REACTORS
330
C5E
330
CD3
102
}
330
1E
100
AcDbEntity
  8
STEMPEL
100
AcDbLine
 10
429.1793371874245
 20
487.4945137476568
 30
0.0
 11
425.4670265861951
 21
491.2068243488863
 31
0.0
  0
LINE
  5
9D1
102
{ACAD_REACTORS
330
C5E
330
CD3
102
}
330
1E
100
AcDbEntity
  8
STEMPEL
100
AcDbLine
 10
317.9867958458399
 20
598.6870550892415
 30
0.0
 11
314.2744852446104
 21
602.399365690471
 31
0.0
  0
LINE
  5
9D2
102
{ACAD_REACTORS
330
BE3
330
C5E
330
CD3
102
}
330
1E
100
AcDbEntity
  8
STEMPEL
100
AcDbLine
 10
325.5881937435953
 20
613.7130741894557
 30
0.0
 11
265.6651870768363
 21
553.7900675226966
 31
0.0
  0
LINE
  5
9D3
102
{ACAD_REACTORS
330
BE3
330
D45
102
}
330
1E
100
AcDbEntity
  8
STEMPEL
100
AcDbLine
 10
323.5403568314334
 20
615.7664566081757
 30
0.0
 11
265.6651870768363
 21
557.8912868535785
 31
0.0
  0
DIMENSION
  5
9D4
330
1E
100
AcDbEntity
  8
BEM
100
AcDbDimension
  2
*D5
 10
453.4585599690815
 20
507.6725171984319
 30
0.0
 11
398.551718409946
 21
571.7717469129926
 31
0.0
 70
    32
  1
%%c<>
 71
     5
 42
168.3
  3
Standard
100
AcDbAlignedDimension
 13
323.5375840781543
 23
615.7636838548966
 33
0.0
 14
442.5436553518501
 24
496.7576125812005
 34
0.0
 50
315.0
100
AcDbRotatedDimension
1001
ACAD
1000
DSTYLE
1002
{
1070
    40
1040
2.0
1070
    41
1040
3.5
1070
    42
1040
1.0
1070
    43
1040
7.0
1070
    44
1040
1.0
1070
    73
1070
     0
1070
    74
1070
     0
1070
    77
1070
     1
1070
    78
1070
     8
1070
    79
1070
     2
1070
   140
1040
3.5
1070
   141
1040
1.5
1070
   146
1040
0.5142857142857144
1070
   147
1040
1.5
1070
   172
1070
     1
1070
   178
1070
     1
1070
   179
1070
     2
1070
   271
1070
     2
1070
   272
1070
     2
1070
   284
1070
     8
1070
   285
1070
     8
1070
   286
1070
     8
1070
   289
1070
     0
1070
   340
1005
24
1002
}
  0
LINE
  5
A56
102
{ACAD_REACTORS
330
BE3
330
CD3
102
}
330
1E
100
AcDbEntity
  8
STEMPEL
100
AcDbLine
 10
323.5403568314334
 20
615.7664566081757
 30
0.0
 11
442.5408825985712
 21
496.7548398279215
 31
0.0
  0
LINE
  5
AAD
102
{ACAD_REACTORS
330
C5E
102
}
330
1E
100
AcDbEntity
  8
STEMPEL
100
AcDbLine
 10
262.6651870768362
 20
298.7352155798822
 30
0.0
 11
260.6651870768362
 21
300.7352155798822
 31
0.0
  0
LINE
  5
AAF
102
{ACAD_REACTORS
330
C5E
102
}
330
1E
100
AcDbEntity
  8
STEMPEL
100
AcDbLine
 10
260.6651870768362
 20
300.7352155798822
 30
0.0
 11
248.0151870768361
 21
300.7352155798822
 31
0.0
  0
LINE
  5
AB0
330
1E
100
AcDbEntity
  8
STEMPEL
100
AcDbLine
 10
255.3715935373873
 20
290.7352155798822
 30
0.0
 11
248.0151870768361
 21
290.7352155798822
 31
0.0
  0
LINE
  5
AB1
102
{ACAD_REACTORS
330
BDA
102
}
330
1E
100
AcDbEntity
  8
STEMPEL
100
AcDbLine
 10
265.665187076836
 20
284.735215579882
 30
0.0
 11
262.7651870768365
 21
284.735215579882
 31
0.0
  0
LINE
  5
AB3
102
{ACAD_REACTORS
330
C5E
102
}
330
1E
100
AcDbEntity
  8
STEMPEL
100
AcDbLine
 10
115.0151870768365
 20
300.7352155798822
 30
0.0
 11
102.3651870768363
 21
300.7352155798822
 31
0.0
  0
LINE
  5
AB4
330
1E
100
AcDbEntity
  8
STEMPEL
100
AcDbLine
 10
115.0151870768365
 20
290.7352155798822
 30
0.0
 11
107.6587806162853
 21
290.7352155798822
 31
0.0
  0
LINE
  5
AB5
102
{ACAD_REACTORS
330
BDA
102
}
330
1E
100
AcDbEntity
  8
STEMPEL
100
AcDbLine
 10
100.2651870768363
 20
284.7352155798821
 30
0.0
 11
97.36518707683599
 21
284.7352155798821
 31
0.0
  0
LINE
  5
AB6
102
{ACAD_REACTORS
330
C5E
102
}
330
1E
100
AcDbEntity
  8
STEMPEL
100
AcDbLine
 10
100.2651870768363
 20
298.6352155798821
 30
0.0
 11
102.3651870768363
 21
300.7352155798822
 31
0.0
  0
LINE
  5
ACD
102
{ACAD_REACTORS
330
BDA
330
C5E
102
}
330
1E
100
AcDbEntity
  8
STEMPEL
100
AcDbLine
 10
265.6651870768363
 20
553.7900675226967
 30
0.0
 11
262.7651870768364
 21
553.7900675226967
 31
0.0
  0
LINE
  5
ACE
102
{ACAD_REACTORS
330
BDA
330
C5E
102
}
330
1E
100
AcDbEntity
  8
STEMPEL
100
AcDbLine
 10
265.6651870768364
 20
323.9803636370685
 30
0.0
 11
262.7651870768365
 21
323.9803636370685
 31
0.0
  0
LINE
  5
ACF
102
{ACAD_REACTORS
330
BDA
330
BE3
330
D4B
102
}
330
1E
100
AcDbEntity
  8
STEMPEL
100
AcDbLine
 10
265.6651870768364
 20
323.9803636370685
 30
0.0
 11
265.6651870768363
 21
282.735215579881
 31
0.0
  0
LINE
  5
AD0
102
{ACAD_REACTORS
330
BDA
330
C5E
102
}
330
1E
100
AcDbEntity
  8
STEMPEL
100
AcDbLine
 10
262.7651870768365
 20
323.9803636370685
 30
0.0
 11
262.7651870768365
 21
284.735215579882
 31
0.0
  0
LINE
  5
AD1
102
{ACAD_REACTORS
330
BFC
102
}
330
1E
100
AcDbEntity
  8
STEMPEL
100
AcDbLine
 10
279.448866806274
 20
543.1839999740605
 30
0.0
 11
245.5212671184138
 21
509.2595620905969
 31
0.0
  0
ARC
  5
AD2
102
{ACAD_REACTORS
330
BFC
102
}
330
1E
100
AcDbEntity
  8
STEMPEL
100
AcDbCircle
 10
270.6104439276392
 20
552.0232466058968
 30
0.0
 40
12.5
100
AcDbArc
 50
314.9973301015839
 51
349.7692741335338
  0
ARC
  5
AD4
102
{ACAD_REACTORS
330
BFC
102
}
330
1E
100
AcDbEntity
  8
STEMPEL
100
AcDbCircle
 10
298.1652579740538
 20
547.050096410345
 30
0.0
 40
15.5
100
AcDbArc
 50
134.9973301015839
 51
169.7692741335338
  0
LINE
  5
AD6
102
{ACAD_REACTORS
330
BFC
102
}
330
1E
100
AcDbEntity
  8
STEMPEL
100
AcDbLine
 10
296.7741197059534
 20
567.5783766203729
 30
0.0
 11
287.2056136045467
 21
558.0107622338219
 31
0.0
  0
ARC
  5
AD7
102
{ACAD_REACTORS
330
BFC
102
}
330
1E
100
AcDbEntity
  8
STEMPEL
100
AcDbCircle
 10
282.2791061849926
 20
582.0747410965843
 30
0.0
 40
20.5
100
AcDbArc
 50
314.9973301015839
 51
340.0044884381287
  0
ARC
  5
AD9
102
{ACAD_REACTORS
330
BFC
102
}
330
1E
100
AcDbEntity
  8
STEMPEL
100
AcDbCircle
 10
327.3853900751683
 20
565.6613979082246
 30
0.0
 40
27.4997362596921
100
AcDbArc
 50
134.9973301015839
 51
160.0044884381287
  0
LINE
  5
ADA
102
{ACAD_REACTORS
330
BFC
102
}
330
1E
100
AcDbEntity
  8
STEMPEL
100
AcDbLine
 10
321.4519116677547
 20
598.6175332925268
 30
0.0
 11
307.940859742172
 21
585.1077404982642
 31
0.0
  0
ARC
  5
ADB
102
{ACAD_REACTORS
330
BFC
102
}
330
1E
100
AcDbEntity
  8
STEMPEL
100
AcDbCircle
 10
340.896442000751
 20
579.1711907024874
 30
0.0
 40
27.5
100
AcDbArc
 50
109.9973301015914
 51
134.9973301015839
  0
LINE
  5
ADC
102
{ACAD_REACTORS
330
BFC
102
}
330
1E
100
AcDbEntity
  8
STEMPEL
100
AcDbLine
 10
333.545451594648
 20
605.760429356331
 30
0.0
 11
331.4920922473029
 21
605.0131760309179
 31
0.0
  0
LINE
  5
ADD
102
{ACAD_REACTORS
330
BFD
102
}
330
1E
100
AcDbEntity
  8
STEMPEL
100
AcDbLine
 10
369.9543170834932
 20
452.6701144640584
 30
0.0
 11
245.5031416474265
 21
328.2305369682301
 31
0.0
  0
ARC
  5
ADE
102
{ACAD_REACTORS
330
BFD
102
}
330
1E
100
AcDbEntity
  8
STEMPEL
100
AcDbCircle
 10
378.7927399621279
 20
443.8308678322222
 30
0.0
 40
12.5
100
AcDbArc
 50
100.2253860696404
 51
134.9973301015839
  0
ARC
  5
AE0
102
{ACAD_REACTORS
330
BFD
102
}
330
1E
100
AcDbEntity
  8
STEMPEL
100
AcDbCircle
 10
373.8221578151668
 20
471.3861452418276
 30
0.0
 40
15.5
100
AcDbArc
 50
280.2253860696404
 51
314.9973301015839
  0
LINE
  5
AE2
102
{ACAD_REACTORS
330
BFD
102
}
330
1E
100
AcDbEntity
  8
STEMPEL
100
AcDbLine
 10
394.3503082860804
 20
469.9930938049019
 30
0.0
 11
384.7818021846738
 21
460.4254794183508
 31
0.0
  0
ARC
  5
AE3
102
{ACAD_REACTORS
330
BFD
102
}
330
1E
100
AcDbEntity
  8
STEMPEL
100
AcDbCircle
 10
408.8453218070413
 20
455.4967293286905
 30
0.0
 40
20.5
100
AcDbArc
 50
109.9901717650474
 51
134.9973301015839
  0
ARC
  5
AE5
102
{ACAD_REACTORS
330
BFD
102
}
330
1E
100
AcDbEntity
  8
STEMPEL
100
AcDbCircle
 10
392.4361824619197
 20
500.6045426979104
 30
0.0
 40
27.4997362596921
100
AcDbArc
 50
289.9901717650474
 51
314.9973301015839
  0
LINE
  5
AE6
102
{ACAD_REACTORS
330
BFD
102
}
330
1E
100
AcDbEntity
  8
STEMPEL
100
AcDbLine
 10
425.3917647204986
 20
494.6679929021337
 30
0.0
 11
411.8807127949159
 21
481.1582001078709
 31
0.0
  0
ARC
  5
AE7
102
{ACAD_REACTORS
330
BFD
102
}
330
1E
100
AcDbEntity
  8
STEMPEL
100
AcDbCircle
 10
405.9472343875023
 20
514.1143354921732
 30
0.0
 40
27.5
100
AcDbArc
 50
314.9973301015839
 51
339.9973301015803
  0
LINE
  5
AE8
102
{ACAD_REACTORS
330
BFD
102
}
330
1E
100
AcDbEntity
  8
STEMPEL
100
AcDbLine
 10
432.5357878353567
 20
506.7608670797661
 30
0.0
 11
431.788343146184
 21
504.7075773831334
 31
0.0
  0
LINE
  5
AEA
102
{ACAD_REACTORS
330
BB1
102
}
330
1E
100
AcDbEntity
  8
STEMPEL
100
AcDbLine
 10
245.5151870768363
 20
557.2352155798823
 30
0.0
 11
245.5151870768362
 21
509.2448835717603
 31
0.0
  0
ARC
  5
AEB
102
{ACAD_REACTORS
330
BB1
102
}
330
1E
100
AcDbEntity
  8
STEMPEL
100
AcDbCircle
 10
258.0151870768363
 20
557.2352155798823
 30
0.0
 40
12.5
100
AcDbArc
 50
145.2280559680518
 51
180.0
  0
ARC
  5
AED
102
{ACAD_REACTORS
330
BB1
102
}
330
1E
100
AcDbEntity
  8
STEMPEL
100
AcDbCircle
 10
235.0151870768363
 20
573.2039350025534
 30
0.0
 40
15.5
100
AcDbArc
 50
325.2280559680518
 51
0.0
  0
LINE
  5
AEF
102
{ACAD_REACTORS
330
BB1
102
}
330
1E
100
AcDbEntity
  8
STEMPEL
100
AcDbLine
 10
250.5151870768362
 20
586.7352155798823
 30
0.0
 11
250.5151870768362
 21
573.2039350025534
 31
0.0
  0
ARC
  5
AF0
102
{ACAD_REACTORS
330
BB1
102
}
330
1E
100
AcDbEntity
  8
STEMPEL
100
AcDbCircle
 10
271.0151870768362
 20
586.7352155798823
 30
0.0
 40
20.5
100
AcDbArc
 50
154.9928416634474
 51
180.0
  0
ARC
  5
AF2
102
{ACAD_REACTORS
330
BB1
102
}
330
1E
100
AcDbEntity
  8
STEMPEL
100
AcDbCircle
 10
227.5151870768362
 20
607.0262155798822
 30
0.0
 40
27.4997362596921
100
AcDbArc
 50
334.9928416634479
 51
0.0
  0
LINE
  5
AF3
102
{ACAD_REACTORS
330
BB1
102
}
330
1E
100
AcDbEntity
  8
STEMPEL
100
AcDbLine
 10
255.0151870768362
 20
626.132838135418
 30
0.0
 11
255.0151870768362
 21
607.0262155798822
 31
0.0
  0
ARC
  5
AF4
102
{ACAD_REACTORS
330
BB1
102
}
330
1E
100
AcDbEntity
  8
STEMPEL
100
AcDbCircle
 10
227.5151870768362
 20
626.132838135418
 30
0.0
 40
27.5
100
AcDbArc
 50
0.0
 51
25.00000000000455
  0
ARC
  5
AF5
102
{ACAD_REACTORS
330
BB3
102
}
330
1E
100
AcDbEntity
  8
STEMPEL
100
AcDbCircle
 10
135.5151870768362
 20
626.132838135418
 30
0.0
 40
27.5
100
AcDbArc
 50
155.0000000000074
 51
180.0
  0
LINE
  5
AF6
102
{ACAD_REACTORS
330
BB3
102
}
330
1E
100
AcDbEntity
  8
STEMPEL
100
AcDbLine
 10
108.0151870768362
 20
626.132838135418
 30
0.0
 11
108.0151870768362
 21
607.0262155798823
 31
0.0
  0
ARC
  5
AF7
102
{ACAD_REACTORS
330
BB3
102
}
330
1E
100
AcDbEntity
  8
STEMPEL
100
AcDbCircle
 10
135.5151870768362
 20
607.0262155798823
 30
0.0
 40
27.4997362596921
100
AcDbArc
 50
180.0
 51
205.0071583365429
  0
ARC
  5
AF8
102
{ACAD_REACTORS
330
BB3
102
}
330
1E
100
AcDbEntity
  8
STEMPEL
100
AcDbCircle
 10
92.01518707683623
 20
586.7352155798823
 30
0.0
 40
20.5
100
AcDbArc
 50
0.0
 51
25.00715833654288
  0
LINE
  5
AFA
102
{ACAD_REACTORS
330
BB3
102
}
330
1E
100
AcDbEntity
  8
STEMPEL
100
AcDbLine
 10
112.5151870768362
 20
586.7352155798823
 30
0.0
 11
112.5151870768361
 21
573.2039350025536
 31
0.0
  0
ARC
  5
AFB
102
{ACAD_REACTORS
330
BB3
102
}
330
1E
100
AcDbEntity
  8
STEMPEL
100
AcDbCircle
 10
128.0151870768362
 20
573.2039350025535
 30
0.0
 40
15.5
100
AcDbArc
 50
179.9999999999996
 51
214.7719440319482
  0
ARC
  5
AFD
102
{ACAD_REACTORS
330
BB3
102
}
330
1E
100
AcDbEntity
  8
STEMPEL
100
AcDbCircle
 10
105.0151870768361
 20
557.2352155798823
 30
0.0
 40
12.5
100
AcDbArc
 50
0.0
 51
34.77194403194873
  0
LINE
  5
AFF
102
{ACAD_REACTORS
330
BB3
102
}
330
1E
100
AcDbEntity
  8
STEMPEL
100
AcDbLine
 10
117.5151870768361
 20
557.2352155798823
 30
0.0
 11
117.5151870768359
 21
232.7352155798857
 31
0.0
  0
LINE
  5
B00
102
{ACAD_REACTORS
330
BB1
102
}
330
1E
100
AcDbEntity
  8
STEMPEL
100
AcDbLine
 10
251.5151870768362
 20
639.7352155798822
 30
0.0
 11
252.4386512203432
 21
637.7548403332891
 31
0.0
  0
LINE
  5
B01
102
{ACAD_REACTORS
330
BB3
102
}
330
1E
100
AcDbEntity
  8
STEMPEL
100
AcDbLine
 10
111.5151870768363
 20
639.7352155798821
 30
0.0
 11
110.5917229333283
 21
637.7548403332873
 31
0.0
  0
LINE
  5
B02
102
{ACAD_REACTORS
330
BB2
102
}
330
1E
100
AcDbEntity
  8
STEMPEL
100
AcDbLine
 10
245.5151870768361
 20
327.2069791265527
 30
0.0
 11
245.5151870768362
 21
232.7352155798824
 31
0.0
  0
LINE
  5
B03
102
{ACAD_REACTORS
330
BB3
102
}
330
1E
100
AcDbEntity
  8
STEMPEL
100
AcDbLine
 10
117.5151870768359
 20
232.7352155798857
 30
0.0
 11
118.2150963850435
 21
224.7352155798821
 31
0.0
  0
LINE
  5
B05
102
{ACAD_REACTORS
330
BB2
102
}
330
1E
100
AcDbEntity
  8
STEMPEL
100
AcDbLine
 10
245.5151870768362
 20
232.7352155798824
 30
0.0
 11
244.8152777686287
 21
224.7352155798822
 31
0.0
  0
HATCH
  5
BB1
330
1E
100
AcDbEntity
  8
SCHRAFF
100
AcDbHatch
 10
0.0
 20
0.0
 30
0.0
210
0.0
220
0.0
230
1.0
  2
_USER
 70
     0
 71
     1
 91
        1
 92
       33
 93
       19
 72
     1
 10
251.5151870768362
 20
639.7352155798822
 11
252.4386512203432
 21
637.7548403332891
 72
     2
 10
227.5151870768362
 20
626.132838135418
 40
27.5
 50
0.0
 51
25.00000000000455
 73
     1
 72
     1
 10
255.0151870768362
 20
626.132838135418
 11
255.0151870768362
 21
607.0262155798822
 72
     2
 10
227.5151870768362
 20
607.0262155798822
 40
27.4997362596921
 50
334.9928416634479
 51
360.0
 73
     1
 72
     2
 10
271.0151870768362
 20
586.7352155798823
 40
20.5
 50
154.9928416634474
 51
180.0
 73
     1
 72
     1
 10
250.5151870768362
 20
586.7352155798823
 11
250.5151870768362
 21
573.2039350025534
 72
     2
 10
235.0151870768363
 20
573.2039350025534
 40
15.5
 50
325.2280559680518
 51
360.0
 73
     1
 72
     2
 10
258.0151870768363
 20
557.2352155798823
 40
12.5
 50
145.2280559680518
 51
180.0
 73
     1
 72
     1
 10
257.5151870768362
 20
626.132838135418
 11
257.5151870768362
 21
607.0262155798822
 72
     1
 10
253.0151870768362
 20
586.7352155798823
 11
253.0151870768362
 21
573.2039350025534
 72
     2
 10
258.0151870768363
 20
557.2352155798823
 40
10.0
 50
145.2280559680515
 51
180.0
 73
     1
 72
     2
 10
235.0151870768363
 20
573.2039350025534
 40
18.0
 50
325.2280559680515
 51
360.0
 73
     1
 72
     2
 10
271.0151870768362
 20
586.7352155798823
 40
18.0
 50
154.9928416634572
 51
180.0
 73
     1
 72
     2
 10
227.5151870768362
 20
607.0262155798822
 40
29.99973625969209
 50
334.9928416634572
 51
360.0
 73
     1
 72
     1
 10
257.5149233365284
 20
607.0262155798822
 11
257.5151870768362
 21
607.0262155798822
 72
     2
 10
227.5151870768362
 20
626.132838135418
 40
30.0
 50
0.0
 51
24.99999999999246
 73
     1
 72
     1
 10
254.2736318742425
 20
639.7352155798822
 11
254.7044206879357
 21
638.8113859876392
 72
     1
 10
245.5151870768363
 20
557.2352155798823
 11
245.5151870768362
 21
509.2448835717603
 72
     1
 10
248.0151870768362
 20
557.2352155798823
 11
248.0151870768362
 21
515.2886188007085
 97
       19
330
B00
330
AF4
330
AF3
330
AF2
330
AF0
330
AEF
330
AED
330
AEB
330
860
330
852
330
851
330
850
330
84F
330
84E
330
84D
330
84A
330
849
330
AEA
330
854
 75
     0
 76
     0
 52
45.0
 41
2.0
 77
     0
 78
     1
 53
45.0
 43
0.0
 44
0.0
 45
-1.414213562373094
 46
1.414213562373095
 79
     0
 98
        1
 10
0.0
 20
0.0
  0
HATCH
  5
BB2
330
1E
100
AcDbEntity
  8
SCHRAFF
100
AcDbHatch
 10
0.0
 20
0.0
 30
0.0
210
0.0
220
0.0
230
1.0
  2
_USER
 70
     0
 71
     1
 91
        1
 92
       33
 93
        4
 72
     1
 10
245.5151870768362
 20
232.7352155798824
 11
244.8152777686287
 21
224.7352155798822
 72
     1
 10
248.0151870768361
 20
232.6260632226109
 11
247.3248273624871
 21
224.7352155798822
 72
     1
 10
245.5151870768361
 20
327.2069791265527
 11
245.5151870768362
 21
232.7352155798824
 72
     1
 10
248.0151870768361
 20
327.2069791265527
 11
248.0151870768361
 21
232.6260632226109
 97
        4
330
B05
330
846
330
B02
330
83D
 75
     0
 76
     0
 52
45.0
 41
2.0
 77
     0
 78
     1
 53
45.0
 43
0.0
 44
0.0
 45
-1.414213562373094
 46
1.414213562373095
 79
     0
 98
        1
 10
0.0
 20
0.0
  0
HATCH
  5
BB3
330
1E
100
AcDbEntity
  8
SCHRAFF
100
AcDbHatch
 10
0.0
 20
0.0
 30
0.0
210
0.0
220
0.0
230
1.0
  2
_USER
 70
     0
 71
     1
 91
        1
 92
       33
 93
       21
 72
     1
 10
117.5151870768359
 20
232.7352155798857
 11
118.2150963850435
 21
224.7352155798821
 72
     1
 10
115.0151870768359
 20
232.6260632226144
 11
115.7055467911851
 21
224.7352155798822
 72
     1
 10
117.5151870768361
 20
557.2352155798823
 11
117.5151870768359
 21
232.7352155798857
 72
     1
 10
115.0151870768361
 20
557.2352155798823
 11
115.0151870768359
 21
232.6260632226144
 72
     1
 10
111.5151870768363
 20
639.7352155798821
 11
110.5917229333283
 21
637.7548403332873
 72
     2
 10
105.0151870768361
 20
557.2352155798823
 40
12.5
 50
0.0
 51
34.77194403194873
 73
     1
 72
     2
 10
128.0151870768362
 20
573.2039350025535
 40
15.5
 50
179.9999999999996
 51
214.7719440319482
 73
     1
 72
     1
 10
112.5151870768362
 20
586.7352155798823
 11
112.5151870768361
 21
573.2039350025536
 72
     2
 10
92.01518707683623
 20
586.7352155798823
 40
20.5
 50
0.0
 51
25.00715833654288
 73
     1
 72
     2
 10
135.5151870768362
 20
607.0262155798823
 40
27.4997362596921
 50
180.0
 51
205.0071583365429
 73
     1
 72
     1
 10
108.0151870768362
 20
626.132838135418
 11
108.0151870768362
 21
607.0262155798823
 72
     2
 10
135.5151870768362
 20
626.132838135418
 40
27.5
 50
155.0000000000074
 51
180.0
 73
     1
 72
     1
 10
105.5151870768362
 20
626.132838135418
 11
105.5151870768362
 21
607.0262155798823
 72
     1
 10
110.0151870768362
 20
586.7352155798823
 11
110.0151870768361
 21
573.2039350025535
 72
     2
 10
128.0151870768362
 20
573.2039350025535
 40
18.0
 50
180.0
 51
214.7719440319485
 73
     1
 72
     2
 10
105.0151870768361
 20
557.2352155798823
 40
10.0
 50
0.0
 51
34.77194403194851
 73
     1
 72
     2
 10
92.01518707683623
 20
586.7352155798823
 40
18.0
 50
0.0
 51
25.00715833654288
 73
     1
 72
     2
 10
135.5151870768362
 20
607.0262155798823
 40
29.99973625969209
 50
180.0
 51
205.0071583365429
 73
     1
 72
     1
 10
105.5154508171441
 20
607.0262155798823
 11
105.5151870768362
 21
607.0262155798823
 72
     2
 10
135.5151870768362
 20
626.132838135418
 40
30.0
 50
155.0000000000074
 51
180.0
 73
     1
 72
     1
 10
108.75674227943
 20
639.7352155798822
 11
108.3259534657368
 21
638.8113859876392
 97
       21
330
B03
330
847
330
AFF
330
85B
330
B01
330
AFD
330
AFB
330
AFA
330
AF8
330
AF7
330
AF6
330
AF5
330
85F
330
85A
330
859
330
858
330
857
330
856
330
855
330
84C
330
84B
 75
     0
 76
     0
 52
45.0
 41
2.0
 77
     0
 78
     1
 53
45.0
 43
0.0
 44
0.0
 45
-1.414213562373094
 46
1.414213562373095
 79
     0
 98
        1
 10
0.0
 20
0.0
  0
HATCH
  5
BDA
330
1E
100
AcDbEntity
  8
SCHRAFF
100
AcDbHatch
 10
0.0
 20
0.0
 30
0.0
210
0.0
220
0.0
230
1.0
  2
_USER
 70
     0
 71
     1
 91
        3
 92
        7
 72
     0
 73
     1
 93
        4
 10
265.6651870768363
 20
639.7352155798822
 10
262.7651870768364
 20
639.7352155798822
 10
262.7651870768364
 20
553.7900675226969
 10
265.6651870768363
 20
553.7900675226967
 97
        4
330
861
330
9CD
330
ACD
330
9CC
 92
        7
 72
     0
 73
     1
 93
        4
 10
100.2651870768362
 20
639.7352155798822
 10
97.36518707683625
 20
639.7352155798824
 10
97.36518707683632
 20
284.7352155798821
 10
100.2651870768363
 20
284.735215579882
 97
        4
330
861
330
9C9
330
AB5
330
9CA
 92
        7
 72
     0
 73
     1
 93
        4
 10
265.6651870768364
 20
323.9803636370685
 10
262.7651870768365
 20
323.9803636370685
 10
262.7651870768365
 20
284.735215579882
 10
265.6651870768364
 20
284.735215579882
 97
        4
330
ACE
330
AD0
330
AB1
330
ACF
 75
     0
 76
     0
 52
135.0
 41
2.0
 77
     0
 78
     1
 53
135.0
 43
0.0
 44
0.0
 45
-1.414213562373095
 46
-1.414213562373094
 79
     0
 47
0.9744120165665425
 98
        3
 10
263.6677587962663
 20
594.004728721839
 10
98.87629733651829
 20
420.5593892284678
 10
263.6677587962663
 20
308.5020057480781
  0
HATCH
  5
BE3
330
1E
100
AcDbEntity
  8
SCHRAFF
100
AcDbHatch
 10
0.0
 20
0.0
 30
0.0
210
0.0
220
0.0
230
1.0
  2
_USER
 70
     0
 71
     1
 91
        2
 92
        7
 72
     0
 73
     1
 93
        4
 10
325.590870941503
 20
613.7157513873634
 10
323.5403568314334
 20
615.7664566081756
 10
265.6651870768363
 20
557.8912868535784
 10
265.6651870768363
 20
553.7900675226966
 97
        4
330
A56
330
9D3
330
9CC
330
9D2
 92
        7
 72
     0
 73
     1
 93
        4
 10
442.5408825985711
 20
496.7548398279216
 10
440.4903684885018
 20
498.805545048734
 10
265.6651870768365
 20
323.9803636370686
 10
265.6651870768364
 20
319.8791443061868
 97
        4
330
A56
330
9CE
330
ACF
330
9CF
 75
     0
 76
     0
 52
90.0
 41
2.0
 77
     0
 78
     1
 53
90.0
 43
0.0
 44
0.0
 45
-2.0
 46
0.0000000000000001
 79
     0
 47
0.6279118701004238
 98
        2
 10
275.9771654322122
 20
565.6529757475168
 10
363.9466641311856
 20
419.3495088900599
  0
HATCH
  5
BFC
330
1E
100
AcDbEntity
  8
SCHRAFF
100
AcDbHatch
 10
0.0
 20
0.0
 30
0.0
210
0.0
220
0.0
230
1.0
  2
_USER
 70
     0
 71
     1
 91
        1
 92
       33
 93
       18
 72
     1
 10
333.545451594648
 20
605.760429356331
 11
331.4920922473029
 21
605.0131760309179
 72
     1
 10
331.5950274661002
 20
607.7110352670973
 11
330.6371513606258
 21
607.3624474244117
 72
     2
 10
340.896442000751
 20
579.1711907024874
 40
27.5
 50
109.9973301015914
 51
134.9973301015839
 73
     1
 72
     2
 10
340.896442000751
 20
579.1711907024874
 40
30.0
 50
109.9973301015914
 51
134.9973301015839
 73
     1
 72
     1
 10
321.4519116677547
 20
598.6175332925268
 11
307.940859742172
 21
585.1077404982642
 72
     1
 10
319.6842270920277
 20
600.385382618894
 11
306.173175166445
 21
586.8755898246314
 72
     2
 10
327.3853900751683
 20
565.6613979082246
 40
27.4997362596921
 50
134.9973301015839
 51
160.0044884381287
 73
     1
 72
     2
 10
327.3853900751683
 20
565.6613979082246
 40
29.99973625969209
 50
134.9973301015839
 51
160.0044884381287
 73
     1
 72
     2
 10
282.2791061849926
 20
582.0747410965843
 40
20.5
 50
314.9973301015839
 51
340.0044884381287
 73
     1
 72
     2
 10
282.2791061849926
 20
582.0747410965843
 40
18.0
 50
314.9973301015839
 51
340.0044884381287
 73
     1
 72
     1
 10
296.7741197059534
 20
567.5783766203729
 11
287.2056136045467
 21
558.0107622338219
 72
     1
 10
295.0064351302265
 20
569.3462259467402
 11
285.4379290288198
 21
559.7786115601892
 72
     2
 10
298.1652579740538
 20
547.050096410345
 40
18.0
 50
134.9973301015839
 51
169.7692741335338
 73
     1
 72
     2
 10
270.6104439276392
 20
552.0232466058968
 40
12.5
 50
314.9973301015839
 51
349.7692741335338
 73
     1
 72
     2
 10
270.6104439276392
 20
552.0232466058968
 40
10.0
 50
314.9973301015839
 51
349.7692741335338
 73
     1
 72
     2
 10
298.1652579740538
 20
547.050096410345
 40
15.5
 50
134.9973301015839
 51
169.7692741335338
 73
     1
 72
     1
 10
279.448866806274
 20
543.1839999740605
 11
245.5212671184138
 21
509.2595620905969
 72
     1
 10
277.681182230547
 20
544.9518493004278
 11
248.0151870768362
 21
515.2886188007085
 97
       18
330
ADC
330
7F1
330
ADB
330
7F2
330
ADA
330
804
330
AD9
330
7FB
330
AD7
330
7FC
330
AD6
330
7FF
330
7FE
330
AD2
330
7FD
330
AD4
330
AD1
330
800
 75
     0
 76
     0
 52
0.0
 41
2.0
 77
     0
 78
     1
 53
0.0
 43
0.0
 44
0.0
 45
0.0
 46
2.0
 79
     0
 98
        1
 10
0.0
 20
0.0
  0
HATCH
  5
BFD
330
1E
100
AcDbEntity
  8
SCHRAFF
100
AcDbHatch
 10
0.0
 20
0.0
 30
0.0
210
0.0
220
0.0
230
1.0
  2
_USER
 70
     0
 71
     1
 91
        1
 92
       33
 93
       18
 72
     1
 10
369.9543170834932
 20
452.6701144640584
 11
245.5031416474265
 21
328.2305369682301
 72
     1
 10
371.7220016592202
 20
450.9022651376912
 11
248.0151870768361
 21
327.2069791265527
 72
     2
 10
373.8221578151668
 20
471.3861452418276
 40
15.5
 50
280.2253860696404
 51
314.9973301015839
 73
     1
 72
     2
 10
378.7927399621279
 20
443.8308678322222
 40
12.5
 50
100.2253860696404
 51
134.9973301015839
 73
     1
 72
     2
 10
378.7927399621279
 20
443.8308678322222
 40
10.0
 50
100.2253860696404
 51
134.9973301015839
 73
     1
 72
     2
 10
373.8221578151668
 20
471.3861452418276
 40
18.0
 50
280.2253860696404
 51
314.9973301015839
 73
     1
 72
     1
 10
394.3503082860804
 20
469.9930938049019
 11
384.7818021846738
 21
460.4254794183508
 72
     1
 10
396.1179928618074
 20
468.2252444785346
 11
386.5494867604007
 21
458.6576300919835
 72
     2
 10
408.8453218070413
 20
455.4967293286905
 40
20.5
 50
109.9901717650474
 51
134.9973301015839
 73
     1
 72
     2
 10
392.4361824619197
 20
500.6045426979104
 40
29.99973625969209
 50
289.9901717650474
 51
314.9973301015839
 73
     1
 72
     2
 10
392.4361824619197
 20
500.6045426979104
 40
27.4997362596921
 50
289.9901717650474
 51
314.9973301015839
 73
     1
 72
     2
 10
408.8453218070413
 20
455.4967293286905
 40
18.0
 50
109.9901717650474
 51
134.9973301015839
 73
     1
 72
     1
 10
427.1594492962256
 20
492.9001435757665
 11
413.6483973706428
 21
479.3903507815037
 72
     1
 10
425.3917647204986
 20
494.6679929021337
 11
411.8807127949159
 21
481.1582001078709
 72
     2
 10
405.9472343875023
 20
514.1143354921732
 40
30.0
 50
314.9973301015839
 51
339.9973301015803
 73
     1
 72
     2
 10
405.9472343875023
 20
514.1143354921732
 40
27.5
 50
314.9973301015839
 51
339.9973301015803
 73
     1
 72
     1
 10
432.5357878353567
 20
506.7608670797661
 11
431.788343146184
 21
504.7075773831334
 72
     1
 10
434.4862119639042
 20
504.8102611689997
 11
434.1375348515186
 21
503.8524175550389
 97
       18
330
ADD
330
7F9
330
AE0
330
ADE
330
7F7
330
7F6
330
AE2
330
7F8
330
AE3
330
7F4
330
AE5
330
7F5
330
805
330
AE6
330
7F0
330
AE7
330
AE8
330
7EF
 75
     0
 76
     0
 52
0.0
 41
2.0
 77
     0
 78
     1
 53
0.0
 43
0.0
 44
0.0
 45
0.0
 46
2.0
 79
     0
 98
        1
 10
0.0
 20
0.0
  0
HATCH
  5
C5E
330
1E
100
AcDbEntity
  8
SCHRAFF
100
AcDbHatch
 10
0.0
 20
0.0
 30
0.0
210
0.0
220
0.0
230
1.0
  2
HONEY
 70
     0
 71
     1
 91
        3
 92
        7
 72
     1
 73
     1
 93
       22
 10
277.681182230547
 20
544.9518493004278
 42
0.1528962216020387
 10
280.4514489442158
 20
550.2471215360568
 42
-0.1528962216020413
 10
285.4379290288198
 20
559.7786115601892
 42
0.0
 10
295.0064351302265
 20
569.3462259467402
 42
0.1095494205537668
 10
299.194055584516
 20
575.9197035815433
 42
-0.1095494205537672
 10
306.1733616503147
 20
586.8754033233811
 42
0.0
 10
306.173175166445
 20
586.8755898246314
 42
0.0
 10
317.9862685854442
 20
598.6875823496371
 42
0.0
 10
314.2744852446104
 20
602.3993656904708
 42
0.0
 10
265.6651870768365
 20
553.7900675226969
 42
0.0
 10
262.7651870768364
 20
553.7900675226967
 42
0.0
 10
262.7651870768364
 20
623.7352155798823
 42
0.0
 10
257.5151870768362
 20
623.735215579882
 42
0.0
 10
257.5151870768362
 20
607.0262155798822
 42
0.0
 10
257.5149233365284
 20
607.0262155798822
 42
-0.1095494205537241
 10
254.7025974458506
 20
594.3443823891367
 42
0.109549420553837
 10
253.0151870768362
 20
586.7352155798823
 42
0.0
 10
253.0151870768362
 20
573.2039350025534
 42
-0.1528962216020395
 10
249.8009013625505
 20
562.9383296594076
 42
0.1528962216020397
 10
248.0151870768362
 20
557.2352155798821
 42
0.0
 10
248.0151870768362
 20
523.1197952669515
 42
-0.2589291093787045
 10
253.5550618216913
 20
520.8279772697149
 42
0.0
 97
       22
330
7FD
330
7FE
330
7FF
330
7FC
330
7FB
330
7FA
330
804
330
9D1
330
9D2
330
ACD
330
9CD
330
9CB
330
860
330
84D
330
84E
330
84F
330
852
330
850
330
851
330
854
330
807
330
800
 92
        7
 72
     1
 73
     1
 93
       12
 10
115.0151870768361
 20
557.2352155798823
 42
0.1528962216020389
 10
113.2294727911219
 20
562.9383296594077
 42
-0.1528962216020399
 10
110.0151870768361
 20
573.2039350025535
 42
0.0
 10
110.0151870768362
 20
586.7352155798823
 42
0.1095494205537669
 10
108.327776707824
 20
594.3443823891321
 42
-0.109549420553767
 10
105.5154508171441
 20
607.0262155798823
 42
0.0
 10
105.5151870768362
 20
607.0262155798822
 42
0.0
 10
105.5151870768362
 20
623.7352155798821
 42
0.0
 10
100.2651870768362
 20
623.7352155798821
 42
0.0
 10
100.2651870768363
 20
298.6352155798821
 42
0.0
 10
102.3651870768363
 20
300.7352155798822
 42
0.0
 10
115.015187076836
 20
300.7352155798822
 42
0.0
 97
       12
330
858
330
859
330
85A
330
857
330
856
330
855
330
85F
330
9C8
330
9CA
330
AB6
330
AB3
330
85B
 92
        7
 72
     1
 73
     1
 93
       16
 10
262.7651870768365
 20
323.9803636370685
 42
0.0
 10
265.6651870768363
 20
323.9803636370685
 42
0.0
 10
429.1793371874245
 20
487.4945137476567
 42
0.0
 10
425.466499442492
 20
491.2073514925895
 42
0.0
 10
413.6483973706427
 20
479.3903507815037
 42
0.0
 10
413.648210886773
 20
479.3905372827539
 42
-0.1095494205537096
 10
402.6918607418829
 20
472.4122522860092
 42
0.1095494205538638
 10
396.1179928618072
 20
468.2252444785344
 42
0.0
 10
386.5494867604007
 20
458.6576300919835
 42
-0.1528962216020316
 10
377.0175320524995
 20
453.6720383356528
 42
0.1528962216020542
 10
371.7220016592201
 20
450.9022651376911
 42
0.0
 10
250.3068217763265
 20
329.498400262433
 42
-0.3886371693988163
 10
248.0151870768361
 20
323.9428370811942
 42
0.0
 10
248.0151870768361
 20
300.7352155798822
 42
0.0
 10
260.6651870768362
 20
300.7352155798822
 42
0.0
 10
262.7651870768365
 20
298.6352155798818
 42
0.0
 97
       16
330
ACE
330
9CE
330
9D0
330
805
330
7F3
330
7F4
330
7F5
330
7F8
330
7F6
330
7F7
330
7F9
330
819
330
83D
330
AAF
330
AAD
330
AD0
 75
     0
 76
     1
 52
0.0
 41
30.0
 77
     0
 78
     3
 53
0.0
 43
0.0
 44
0.0
 45
5.625
 46
3.247595249999999
 79
     2
 49
3.75
 49
-7.5
 53
120.0
 43
0.0
 44
0.0
 45
-5.624999987709673
 46
3.247595271287468
 79
     2
 49
3.75
 49
-7.5
 53
60.0
 43
0.0
 44
0.0
 45
0.0000000122903263
 46
6.495190521287468
 79
     2
 49
-7.5
 49
3.75
 47
0.9744120165665425
 98
        3
 10
259.6097770629731
 20
540.2677092763569
 10
109.4447769045991
 20
522.7282929898274
 10
255.7093899183406
 20
321.0250047048687
  0
HATCH
  5
C8F
330
1E
100
AcDbEntity
  8
SCHRAFF
100
AcDbHatch
 10
0.0
 20
0.0
 30
0.0
210
0.0
220
0.0
230
1.0
  2
NET
 70
     0
 71
     1
 91
        2
 92
        7
 72
     1
 73
     1
 93
        6
 10
262.7651870768363
 20
639.7352155798822
 42
0.0
 10
254.2736318742424
 20
639.7352155798822
 42
0.0
 10
254.7044206879357
 20
638.8113859876392
 42
-0.109517811683243
 10
257.5151870768362
 20
626.132838135418
 42
0.0
 10
257.5151870768362
 20
623.7352155798821
 42
0.0
 10
262.7651870768364
 20
623.7352155798823
 42
0.0
 97
        6
330
861
330
849
330
84A
330
860
330
9CB
330
9CD
 92
        7
 72
     1
 73
     1
 93
        6
 10
108.3259534657368
 20
638.8113859876392
 42
0.0
 10
108.75674227943
 20
639.7352155798822
 42
0.0
 10
100.2651870768362
 20
639.7352155798824
 42
0.0
 10
100.2651870768362
 20
623.7352155798821
 42
0.0
 10
105.5151870768362
 20
623.7352155798821
 42
0.0
 10
105.5151870768362
 20
626.132838135418
 42
-0.1095178116832436
 97
        6
330
84B
330
861
330
9CA
330
9C8
330
85F
330
84C
 75
     0
 76
     1
 52
45.0
 41
15.0
 77
     0
 78
     2
 53
45.0
 43
0.0
 44
0.0
 45
-1.325825214724776
 46
1.325825214724776
 79
     0
 53
135.0
 43
0.0
 44
0.0
 45
-1.325825214724776
 46
-1.325825214724776
 79
     0
 47
0.9744120165665425
 98
        2
 10
258.6346821786151
 20
636.7344998421399
 10
103.5941923840496
 20
633.8112628045132
  0
HATCH
  5
CD3
330
1E
100
AcDbEntity
  8
SCHRAFF
100
AcDbHatch
 10
0.0
 20
0.0
 30
0.0
210
0.0
220
0.0
230
1.0
  2
NET
 70
     0
 71
     1
 91
        2
 92
        7
 72
     1
 73
     1
 93
        6
 10
325.5908709415029
 20
613.7157513873634
 42
0.0
 10
314.2744852446105
 20
602.399365690471
 42
0.0
 10
317.9862685854442
 20
598.6875823496371
 42
0.0
 10
319.6842270920277
 20
600.385382618894
 42
-0.1095178116832435
 10
330.6371513606258
 20
607.3624474244117
 42
0.0
 10
331.5950274661004
 20
607.7110352670973
 42
0.0
 97
        6
330
9D2
330
9D1
330
804
330
7F2
330
7F1
330
A56
 92
        7
 72
     1
 73
     1
 93
        6
 10
440.4903684885018
 20
498.8055450487341
 42
0.0
 10
434.4862119639044
 20
504.810261169
 42
0.0
 10
434.1375348515186
 20
503.8524175550389
 42
-0.109517811683244
 10
427.1594492962256
 20
492.9001435757665
 42
0.0
 10
425.4664994424919
 20
491.2073514925896
 42
0.0
 10
429.1793371874246
 20
487.4945137476567
 42
0.0
 97
        6
330
A56
330
7EF
330
7F0
330
805
330
9D0
330
9CE
 75
     0
 76
     1
 52
0.0
 41
15.0
 77
     0
 78
     2
 53
0.0
 43
0.0
 44
0.0
 45
0.0
 46
1.875
 79
     0
 53
90.0
 43
0.0
 44
0.0
 45
-1.875
 46
0.0000000000000001
 79
     0
 47
0.3503288799664431
 98
        2
 10
325.7497341849562
 20
609.6490993752454
 10
435.1292296942256
 20
497.5438575876205
  0
DIMENSION
  5
CE9
330
1E
100
AcDbEntity
  8
BEM
100
AcDbDimension
  2
*D6
 10
81.47789903760438
 20
224.7352155798822
 30
0.0
 11
74.97789903760434
 21
254.7352155798821
 31
0.0
 70
    32
 71
     5
 42
59.99999999999992
  3
Standard
100
AcDbAlignedDimension
 13
97.36518707683632
 23
284.7352155798821
 33
0.0
 14
115.7055467911851
 24
224.7352155798822
 34
0.0
 50
90.0
100
AcDbRotatedDimension
1001
ACAD
1000
DSTYLE
1002
{
1070
   279
1070
     1
1070
    40
1040
2.0
1070
    41
1040
3.5
1070
    42
1040
1.0
1070
    43
1040
7.0
1070
    44
1040
1.0
1070
    73
1070
     0
1070
    74
1070
     0
1070
    77
1070
     1
1070
    78
1070
     8
1070
    79
1070
     2
1070
   140
1040
3.5
1070
   141
1040
1.5
1070
   146
1040
0.5142857142857144
1070
   147
1040
1.5
1070
   172
1070
     1
1070
   178
1070
     1
1070
   179
1070
     2
1070
   271
1070
     2
1070
   272
1070
     2
1070
   284
1070
     8
1070
   285
1070
     8
1070
   286
1070
     8
1002
}
  0
DIMENSION
  5
CF6
330
1E
100
AcDbEntity
  8
BEM
100
AcDbDimension
  2
*D7
 10
48.32373364004661
 20
224.7352155798822
 30
0.0
 11
41.82373364004659
 21
432.2352155798822
 31
0.0
 70
    32
 71
     5
 42
415.0000000000001
  3
Standard
100
AcDbAlignedDimension
 13
97.36518707683627
 23
639.7352155798822
 33
0.0
 14
115.7055467911851
 24
224.7352155798822
 34
0.0
 50
90.0
100
AcDbRotatedDimension
1001
ACAD
1000
DSTYLE
1002
{
1070
    40
1040
2.0
1070
    41
1040
3.5
1070
    42
1040
1.0
1070
    43
1040
7.0
1070
    44
1040
1.0
1070
    73
1070
     0
1070
    74
1070
     0
1070
    77
1070
     1
1070
    78
1070
     8
1070
    79
1070
     2
1070
   140
1040
3.5
1070
   141
1040
1.5
1070
   146
1040
0.5142857142857144
1070
   147
1040
1.5
1070
   172
1070
     1
1070
   178
1070
     1
1070
   179
1070
     2
1070
   271
1070
     2
1070
   272
1070
     2
1070
   284
1070
     8
1070
   285
1070
     8
1070
   286
1070
     8
1002
}
  0
DIMENSION
  5
D15
330
1E
100
AcDbEntity
  8
BEM
100
AcDbDimension
  2
*D8
 10
466.0496190628634
 20
473.2461033636295
 30
0.0
 11
360.6920950427074
 21
377.0809674988982
 31
0.0
 70
    32
 71
     5
 42
284.996078734708
 51
314.9999999999999
  3
Standard
100
AcDbAlignedDimension
 13
181.5151870768362
 23
354.7352155798821
 33
0.0
 14
442.5408825985713
 24
496.7548398279216
 34
0.0
 50
45.00000000000003
100
AcDbRotatedDimension
1001
ACAD
1000
DSTYLE
1002
{
1070
    40
1040
2.0
1070
    41
1040
3.5
1070
    42
1040
1.0
1070
    43
1040
7.0
1070
    44
1040
1.0
1070
    73
1070
     0
1070
    74
1070
     0
1070
    77
1070
     1
1070
    78
1070
     8
1070
    79
1070
     2
1070
   140
1040
3.5
1070
   141
1040
1.5
1070
   146
1040
0.5142857142857144
1070
   147
1040
1.5
1070
   172
1070
     1
1070
   178
1070
     1
1070
   179
1070
     2
1070
   271
1070
     2
1070
   272
1070
     2
1070
   284
1070
     8
1070
   285
1070
     8
1070
   286
1070
     8
1002
}
  0
DIMENSION
  5
D22
330
1E
100
AcDbEntity
  8
BEM
100
AcDbDimension
  2
*D9
 10
181.5151870768362
 20
219.7352155798823
 30
0.0
 11
254.3485186344869
 21
485.1888239862714
 31
0.0
 70
   162
 71
     5
 42
0.7853981633974467
  3
Standard
100
AcDb2LineAngularDimension
 13
386.5761536209352
 23
559.7961821239813
 33
0.0
 14
230.6714645171842
 24
403.8914930202301
 34
0.0
 15
181.5151870768362
 25
644.7352155798824
 35
0.0
 16
220.1848989009799
 26
499.0525448216331
 36
0.0
1001
ACAD
1000
DSTYLE
1002
{
1070
    40
1040
2.0
1070
    41
1040
3.5
1070
    42
1040
1.0
1070
    43
1040
7.0
1070
    44
1040
1.0
1070
    73
1070
     0
1070
    74
1070
     0
1070
    77
1070
     1
1070
    78
1070
     8
1070
    79
1070
     2
1070
   140
1040
3.5
1070
   141
1040
1.5
1070
   146
1040
0.5142857142857144
1070
   147
1040
1.5
1070
   172
1070
     1
1070
   178
1070
     1
1070
   179
1070
     2
1070
   271
1070
     2
1070
   272
1070
     2
1070
   284
1070
     8
1070
   285
1070
     8
1070
   286
1070
     8
1002
}
  0
ARC
  5
D41
102
{ACAD_REACTORS
330
D45
102
}
330
1E
100
AcDbEntity
  8
SCHRAFF
100
AcDbCircle
 10
265.6651870768363
 20
557.8912868535785
 30
0.0
 40
4.0
100
AcDbArc
 50
45.0
 51
90.0
  0
HATCH
  5
D45
330
1E
100
AcDbEntity
  8
SCHRAFF
100
AcDbHatch
 10
0.0
 20
0.0
 30
0.0
210
0.0
220
0.0
230
1.0
  2
_USER
 70
     0
 71
     1
 91
        1
 92
        7
 72
     1
 73
     1
 93
        3
 10
265.6651870768363
 20
561.8912868535785
 42
0.0
 10
265.6651870768363
 20
557.8912868535785
 42
0.0
 10
268.4936142015825
 20
560.7197139783247
 42
0.198912367379658
 97
        3
330
9CC
330
9D3
330
D41
 75
     0
 76
     0
 52
0.0
 41
0.1
 77
     0
 78
     1
 53
0.0
 43
0.0
 44
0.0
 45
0.0
 46
0.1
 79
     0
 47
0.0525386958354335
 98
        1
 10
266.2208230828123
 20
560.8204626840975
  0
ARC
  5
D47
102
{ACAD_REACTORS
330
D4B
102
}
330
1E
100
AcDbEntity
  8
SCHRAFF
100
AcDbCircle
 10
262.043471184186
 20
321.3793081479847
 30
0.0
 40
6.585486185066201
100
AcDbArc
 50
303.3638720604732
 51
11.6361279395267
  0
HATCH
  5
D4B
330
1E
100
AcDbEntity
  8
SCHRAFF
100
AcDbHatch
 10
0.0
 20
0.0
 30
0.0
210
0.0
220
0.0
230
1.0
  2
_USER
 70
     0
 71
     1
 91
        1
 92
        7
 72
     1
 73
     1
 93
        3
 10
268.4936142015826
 20
322.707571430933
 42
0.0
 10
265.6651870768364
 20
319.8791443061868
 42
0.0
 10
265.6651870768364
 20
315.8791443061867
 42
0.3070301326629509
 97
        3
330
9CF
330
ACF
330
D47
 75
     0
 76
     0
 52
0.0
 41
0.1
 77
     0
 78
     1
 53
0.0
 43
0.0
 44
0.0
 45
0.0
 46
0.1
 79
     0
 47
0.0393701805231555
 98
        1
 10
267.011656333857
 20
319.3238847971215
  0
LINE
  5
DC1
330
1E
100
AcDbEntity
  8
STEMPEL
100
AcDbLine
 10
257.5151870768362
 20
282.7352155798811
 30
0.0
 11
255.3715935373869
 21
290.7352155798822
 31
0.0
  0
LINE
  5
DC2
330
1E
100
AcDbEntity
  8
STEMPEL
100
AcDbLine
 10
265.6651870768359
 20
282.7352155798811
 30
0.0
 11
248.0151870768357
 21
282.7352155798812
 31
0.0
  0
HATCH
  5
DC3
330
1E
100
AcDbEntity
  8
SCHRAFF
100
AcDbHatch
 10
0.0
 20
0.0
 30
0.0
210
0.0
220
0.0
230
1.0
  2
NET
 70
     0
 71
     0
 91
        2
 92
        7
 72
     0
 73
     1
 93
        9
 10
255.3715935373869
 20
290.7352155798823
 10
257.5151870768363
 20
282.7352155798812
 10
265.6651870768359
 20
282.7352155798811
 10
265.6651870768359
 20
284.735215579882
 10
262.7651870768358
 20
284.735215579882
 10
262.7651870768359
 20
298.6352155798824
 10
260.6651870768359
 20
300.7352155798821
 10
248.0151870768358
 20
300.7352155798823
 10
248.0151870768358
 20
290.7352155798823
 97
        0
 92
        7
 72
     0
 73
     1
 93
        9
 10
107.658780616285
 20
290.7352155798822
 10
115.0151870768357
 20
290.7352155798822
 10
115.0151870768357
 20
300.7352155798822
 10
102.3651870768359
 20
300.7352155798821
 10
100.2651870768358
 20
298.635215579882
 10
100.2651870768358
 20
284.7352155798821
 10
97.36518707683584
 20
284.7352155798821
 10
97.36518707683586
 20
282.7352155798822
 10
105.5151870768359
 20
282.7352155798821
 97
        0
 75
     0
 76
     1
 52
45.0
 41
20.0
 77
     0
 78
     2
 53
45.0
 43
-43.48481292316416
 44
-28.85039487174487
 45
-1.767766952966368
 46
1.767766952966368
 79
     0
 53
135.0
 43
-43.48481292316416
 44
-28.85039487174487
 45
-1.767766952966368
 46
-1.767766952966368
 79
     0
 47
0.2115359210124944
 98
        2
 10
257.6749506121495
 20
293.1284732686738
 10
106.3355239714241
 20
294.8207607506192
  0
LINE
  5
DC4
330
1E
100
AcDbEntity
  8
STEMPEL
100
AcDbLine
 10
105.5151870768359
 20
282.7352155798822
 30
0.0
 11
107.658780616285
 21
290.7352155798822
 31
0.0
  0
LINE
  5
DC5
330
1E
100
AcDbEntity
  8
STEMPEL
100
AcDbLine
 10
115.0151870768357
 20
282.735215579882
 30
0.0
 11
97.36518707683586
 21
282.7352155798822
 31
0.0
  0
LINE
  5
DF1
330
1E
100
AcDbEntity
  8
BEM
100
AcDbLine
 10
387.9903671833083
 20
561.2103956863544
 30
0.0
 11
391.6750783354439
 21
564.8951068384899
 31
0.0
  0
LINE
  5
DF2
330
1E
100
AcDbEntity
  8
BEM
100
AcDbLine
 10
181.5151870768362
 20
646.7352155798825
 30
0.0
 11
181.5151870768362
 21
652.5462308789895
 31
0.0
  0
ARC
  5
DF3
330
1E
100
AcDbEntity
  8
BEM
100
AcDbCircle
 10
181.5151870768362
 20
354.7352155798821
 30
0.0
 40
329.8083348557859
100
AcDbArc
 50
46.21609414508697
 51
88.7839058549131
  0
SOLID
  5
DF4
330
1E
100
AcDbEntity
  8
BEM
100
AcDbTrace
 10
410.5390573919773
 20
593.6755326554897
 30
0.0
 11
408.9067437546693
 21
592.0082004648622
 31
0.0
 12
414.7248971452059
 22
587.944925648252
 32
0.0
 13
414.7248971452059
 23
587.944925648252
 33
0.0
  0
SOLID
  5
DF5
330
1E
100
AcDbEntity
  8
BEM
100
AcDbTrace
 10
188.5024119699176
 20
683.3026638958856
 30
0.0
 11
188.5271738264372
 21
685.6358658363327
 31
0.0
 12
181.515187076836
 22
684.5435504356679
 32
0.0
 13
181.515187076836
 23
684.5435504356679
 33
0.0
  0
MTEXT
  5
DF6
330
1E
100
AcDbEntity
  8
BEM
 62
     1
100
AcDbMText
 10
310.2148149924362
 20
665.443602766095
 30
0.0
 40
7.0
 41
0.0
 71
     5
 72
     1
  1
\A1;45°
 11
0.9238795325112871
 21
-0.3826834323650891
 31
0.0
 73
     1
 44
1.0
  0
LINE
  5
DF7
330
1E
100
AcDbEntity
  8
BEM
100
AcDbLine
 10
403.497578798468
 20
576.7176073015142
 30
0.0
 11
416.139110707579
 21
589.3591392106252
 31
0.0
  0
LINE
  5
DF8
330
1E
100
AcDbEntity
  8
BEM
100
AcDbLine
 10
181.5151870768361
 20
668.305020573265
 30
0.0
 11
181.515187076836
 21
686.543550435668
 31
0.0
  0
ENDSEC
  0
SECTION
  2
OBJECTS
  0
DICTIONARY
  5
C
330
0
100
AcDbDictionary
281
     1
  3
ACAD_COLOR
350
11A
  3
ACAD_GROUP
350
D
  3
ACAD_LAYOUT
350
19
  3
ACAD_MATERIAL
350
119
  3
ACAD_MLINESTYLE
350
16
  3
ACAD_PLOTSETTINGS
350
18
  3
ACAD_PLOTSTYLENAME
350
E
  3
AcDbVariableDictionary
350
125
  0
DICTIONARY
  5
DB
330
1E
100
AcDbDictionary
280
     1
281
     1
  3
ACAD_LAYOUTSELFREF
360
10F
  0
DICTIONARY
  5
DD
330
1A
100
AcDbDictionary
280
     1
281
     1
  3
ACAD_LAYOUTSELFREF
360
10E
  0
DICTIONARY
  5
11A
102
{ACAD_REACTORS
330
C
102
}
330
C
100
AcDbDictionary
281
     1
  0
DICTIONARY
  5
D
102
{ACAD_REACTORS
330
C
102
}
330
C
100
AcDbDictionary
281
     1
  0
DICTIONARY
  5
19
102
{ACAD_REACTORS
330
C
102
}
330
C
100
AcDbDictionary
281
     1
  3
Layout1
350
1D
  3
Model
350
21
  0
DICTIONARY
  5
119
102
{ACAD_REACTORS
330
C
102
}
330
C
100
AcDbDictionary
281
     1
  0
DICTIONARY
  5
16
102
{ACAD_REACTORS
330
C
102
}
330
C
100
AcDbDictionary
281
     1
  3
Standard
350
17
  0
DICTIONARY
  5
18
102
{ACAD_REACTORS
330
C
102
}
330
C
100
AcDbDictionary
281
     1
  0
ACDBDICTIONARYWDFLT
  5
E
102
{ACAD_REACTORS
330
C
102
}
330
C
100
AcDbDictionary
281
     1
  3
Normal
350
F
100
AcDbDictionaryWithDefault
340
F
  0
DICTIONARY
  5
125
102
{ACAD_REACTORS
330
C
102
}
330
C
100
AcDbDictionary
281
     1
  3
DIMASSOC
350
126
  3
PROJECTNAME
350
127
  0
XRECORD
  5
10F
102
{ACAD_REACTORS
330
DB
102
}
330
DB
100
AcDbXrecord
280
     1
340
1E
  0
XRECORD
  5
10E
102
{ACAD_REACTORS
330
DD
102
}
330
DD
100
AcDbXrecord
280
     1
340
1A
  0
LAYOUT
  5
1D
102
{ACAD_REACTORS
330
19
102
}
330
19
100
AcDbPlotSettings
  1

  2
\\NT_WORK01\HP LaserJet 5000 PCL 6
  4

  6

 40
0.0
 41
0.0
 42
0.0
 43
0.0
 44
0.0
 45
0.0
 46
0.0
 47
0.0
 48
0.0
 49
0.0
140
0.0
141
0.0
142
1.0
143
1.0
 70
   688
 72
     0
 73
     0
 74
     5
  7

 75
    16
147
1.0
 76
     0
 77
     2
 78
   300
148
0.0
149
0.0
100
AcDbLayout
  1
Layout1
 70
     0
 71
     1
 10
0.0
 20
0.0
 11
12.0
 21
9.0
 12
0.0
 22
0.0
 32
0.0
 14
1.000000000000000E+20
 24
1.000000000000000E+20
 34
1.000000000000000E+20
 15
-1.000000000000000E+20
 25
-1.000000000000000E+20
 35
-1.000000000000000E+20
146
0.0
 13
0.0
 23
0.0
 33
0.0
 16
1.0
 26
0.0
 36
0.0
 17
0.0
 27
1.0
 37
0.0
 76
     0
330
1A
  0
LAYOUT
  5
21
102
{ACAD_REACTORS
330
19
102
}
330
19
100
AcDbPlotSettings
  1

  2
none_device
  4
Letter_(8.50_x_11.00_Inches)
  6

 40
6.349999904632568
 41
6.349999904632568
 42
6.350006103515625
 43
6.350006103515625
 44
215.8999938964844
 45
279.3999938964844
 46
0.0
 47
0.0
 48
0.0
 49
0.0
140
0.0
141
0.0
142
1.0
143
1.0
 70
 11952
 72
     0
 73
     1
 74
     0
  7

 75
     0
147
1.0
 76
     0
 77
     2
 78
   300
148
3232.979308760778
149
108.7792942125838
100
AcDbLayout
  1
Model
 70
     1
 71
     0
 10
0.0
 20
0.0
 11
12.0
 21
9.0
 12
0.0
 22
0.0
 32
0.0
 14
0.0
 24
0.0
 34
0.0
 15
0.0
 25
0.0
 35
0.0
146
0.0
 13
0.0
 23
0.0
 33
0.0
 16
1.0
 26
0.0
 36
0.0
 17
0.0
 27
1.0
 37
0.0
 76
     0
330
1E
  0
MLINESTYLE
  5
17
102
{ACAD_REACTORS
330
16
102
}
330
16
100
AcDbMlineStyle
  2
STANDARD
 70
     0
  3

 62
   256
 51
90.0
 52
90.0
 71
     2
 49
0.5
 62
   256
  6
BYLAYER
 49
-0.5
 62
   256
  6
BYLAYER
  0
ACDBPLACEHOLDER
  5
F
102
{ACAD_REACTORS
330
E
102
}
330
E
  0
DICTIONARYVAR
  5
126
102
{ACAD_REACTORS
330
125
102
}
330
125
100
DictionaryVariables
280
     0
  1
1
  0
DICTIONARYVAR
  5
127
102
{ACAD_REACTORS
330
125
102
}
330
125
100
DictionaryVariables
280
     0
  1

  0
ENDSEC
  0
EOF
